  0
SECTION
  2
HEADER
  9
$ACADVER
  1
AC1014
  9
$ACADMAINTVER
 70
         0
  9
$DWGCODEPAGE
  3
BIG5
  9
$INSBASE
 10
0.0
 20
0.0
 30
0.0
  9
$EXTMIN
 10
1085.8641281644
 20
-213.721911761
 30
0.0
  9
$EXTMAX
 10
2005.9471803449
 20
250.1554247192
 30
0.0
  9
$LIMMIN
 10
0.0
 20
0.0
  9
$LIMMAX
 10
0.0
 20
0.0
  9
$ORTHOMODE
 70
         0
  9
$REGENMODE
 70
         1
  9
$FILLMODE
 70
         1
  9
$QTEXTMODE
 70
         0
  9
$MIRRTEXT
 70
         1
  9
$DRAGMODE
 70
         2
  9
$LTSCALE
 40
1.0
  9
$OSMODE
 70
         0
  9
$ATTMODE
 70
         1
  9
$TEXTSIZE
 40
2.3
  9
$TRACEWID
 40
0.05
  9
$TEXTSTYLE
  7
STANDARD
  9
$CLAYER
  8
0
  9
$CELTYPE
  6
CONTINUOUS
  9
$CECOLOR
 62
         4
  9
$CELTSCALE
 40
1.0
  9
$DELOBJ
 70
         1
  9
$DISPSILH
 70
         0
  9
$DIMSCALE
 40
1.0
  9
$DIMASZ
 40
0.18
  9
$DIMEXO
 40
0.0625
  9
$DIMDLI
 40
0.38
  9
$DIMRND
 40
0.0
  9
$DIMDLE
 40
0.0
  9
$DIMEXE
 40
0.25
  9
$DIMTP
 40
0.01
  9
$DIMTM
 40
-0.01
  9
$DIMTXT
 40
3.5
  9
$DIMCEN
 40
0.09
  9
$DIMTSZ
 40
0.0
  9
$DIMTOL
 70
         0
  9
$DIMLIM
 70
         0
  9
$DIMTIH
 70
         1
  9
$DIMTOH
 70
         1
  9
$DIMSE1
 70
         0
  9
$DIMSE2
 70
         0
  9
$DIMTAD
 70
         0
  9
$DIMZIN
 70
         0
  9
$DIMBLK
  1

  9
$DIMASO
 70
         1
  9
$DIMSHO
 70
         1
  9
$DIMPOST
  1

  9
$DIMAPOST
  1

  9
$DIMALT
 70
         0
  9
$DIMALTD
 70
         2
  9
$DIMALTF
 40
25.4
  9
$DIMLFAC
 40
1.0
  9
$DIMTOFL
 70
         0
  9
$DIMTVP
 40
0.0
  9
$DIMTIX
 70
         0
  9
$DIMSOXD
 70
         0
  9
$DIMSAH
 70
         0
  9
$DIMBLK1
  1

  9
$DIMBLK2
  1

  9
$DIMSTYLE
  2
STANDARD
  9
$DIMCLRD
 70
         0
  9
$DIMCLRE
 70
         0
  9
$DIMCLRT
 70
         4
  9
$DIMTFAC
 40
1.0
  9
$DIMGAP
 40
0.09
  9
$DIMJUST
 70
         0
  9
$DIMSD1
 70
         0
  9
$DIMSD2
 70
         0
  9
$DIMTOLJ
 70
         1
  9
$DIMTZIN
 70
         0
  9
$DIMALTZ
 70
         0
  9
$DIMALTTZ
 70
         0
  9
$DIMFIT
 70
         3
  9
$DIMUPT
 70
         0
  9
$DIMUNIT
 70
         2
  9
$DIMDEC
 70
         4
  9
$DIMTDEC
 70
         4
  9
$DIMALTU
 70
         2
  9
$DIMALTTD
 70
         2
  9
$DIMTXSTY
  7
STANDARD
  9
$DIMAUNIT
 70
         0
  9
$LUNITS
 70
         2
  9
$LUPREC
 70
        10
  9
$SKETCHINC
 40
0.1
  9
$FILLETRAD
 40
0.0
  9
$AUNITS
 70
         0
  9
$AUPREC
 70
         0
  9
$MENU
  1
acad
  9
$ELEVATION
 40
0.0
  9
$PELEVATION
 40
0.0
  9
$THICKNESS
 40
0.0
  9
$LIMCHECK
 70
         0
  9
$BLIPMODE
 70
         1
  9
$CHAMFERA
 40
0.0
  9
$CHAMFERB
 40
0.0
  9
$CHAMFERC
 40
0.0
  9
$CHAMFERD
 40
0.0
  9
$SKPOLY
 70
         0
  9
$TDCREATE
 40
0.000000000
  9
$TDUPDATE
 40
0.000000000
  9
$TDINDWG
 40
0.0000000000
  9
$TDUSRTIMER
 40
0.0000000000
  9
$USRTIMER
 70
         1
  9
$ANGBASE
 50
0.0
  9
$ANGDIR
 70
         0
  9
$PDMODE
 70
         2
  9
$PDSIZE
 40
0.0
  9
$PLINEWID
 40
0.0
  9
$COORDS
 70
         1
  9
$SPLFRAME
 70
         0
  9
$SPLINETYPE
 70
         6
  9
$SPLINESEGS
 70
         8
  9
$ATTDIA
 70
         0
  9
$ATTREQ
 70
         1
  9
$HANDLING
 70
         1
  9
$HANDSEED
  5
3DE
  9
$SURFTAB1
 70
         6
  9
$SURFTAB2
 70
         6
  9
$SURFTYPE
 70
         6
  9
$SURFU
 70
         6
  9
$SURFV
 70
         6
  9
$UCSNAME
  2

  9
$UCSORG
 10
0.0
 20
0.0
 30
0.0
  9
$UCSXDIR
 10
1.0
 20
0.0
 30
0.0
  9
$UCSYDIR
 10
0.0
 20
1.0
 30
0.0
  9
$PUCSNAME
  2

  9
$PUCSORG
 10
0.0
 20
0.0
 30
0.0
  9
$PUCSXDIR
 10
1.0
 20
0.0
 30
0.0
  9
$PUCSYDIR
 10
0.0
 20
1.0
 30
0.0
  9
$USERI1
 70
         0
  9
$USERI2
 70
         0
  9
$USERI3
 70
         0
  9
$USERI4
 70
         0
  9
$USERI5
 70
         0
  9
$USERR1
 40
0.0
  9
$USERR2
 40
0.0
  9
$USERR3
 40
0.0
  9
$USERR4
 40
0.0
  9
$USERR5
 40
0.0
  9
$WORLDVIEW
 70
         1
  9
$SHADEDGE
 70
         3
  9
$SHADEDIF
 70
        70
  9
$TILEMODE
 70
         1
  9
$MAXACTVP
 70
        16
  9
$PINSBASE
 10
0.0
 20
0.0
 30
0.0
  9
$PLIMCHECK
 70
         0
  9
$PEXTMIN
 10
1.0000000000E+20
 20
1.0000000000E+20
 30
1.0000000000E+20
  9
$PEXTMAX
 10
-1.0000000000E+20
 20
-1.0000000000E+20
 30
-1.0000000000E+20
  9
$PLIMMIN
 10
0.0
 20
0.0
  9
$PLIMMAX
 10
12.0
 20
9.0
  9
$UNITMODE
 70
         0
  9
$VISRETAIN
 70
         0
  9
$PLINEGEN
 70
         1
  9
$PSLTSCALE
 70
         0
  9
$TREEDEPTH
 70
      3020
  9
$PICKSTYLE
 70
         1
  9
$CMLSTYLE
  2
STANDARD
  9
$CMLJUST
 70
         0
  9
$CMLSCALE
 40
1.0
  9
$PROXYGRAPHICS
 70
         0
  9
$MEASUREMENT
 70
         0
  0
ENDSEC
  0
SECTION
  2
CLASSES
  0
CLASS
  1
LWPOLYLINE
  2
AcDbPolyline
  3
"AutoCAD"
 90
        0
280
         0
281
         1
  0
CLASS
  1
IMAGE
  2
AcDbRasterImage
  3
ISM
 90
      127
280
         0
281
         1
  0
CLASS
  1
OLE2FRAME
  2
AcDbOle2Frame
  3
""
 90
        0
280
         0
281
         1
  0
CLASS
  1
HATCH
  2
AcDbHatch
  3
"ACAD_SEDONA"
 90
        0
280
         0
281
         1
  0
CLASS
  1
DICTIONARYVAR
  2
AcDbDictionaryVar
  3
"AutoCAD"
 90
        0
280
         0
281
         0
  0
CLASS
  1
RASTERVARIABLES
  2
AcDbRasterVariables
  3
ISM
 90
        0
280
         0
281
         0
  0
CLASS
  1
IMAGEDEF
  2
AcDbRasterImageDef
  3
ISM
 90
        0
280
         0
281
         0
  0
CLASS
  1
IMAGEDEF_REACTOR
  2
AcDbRasterImageDefReactor
  3
ISM
 90
        1
280
         0
281
         0
  0
CLASS
  1
IDBUFFER
  2
AcDbIdBuffer
  3
"Acad"
 90
        0
280
         0
281
         0
  0
CLASS
  1
SPATIAL_FILTER
  2
AcDbSpatialFilter
  3
"Acad"
 90
        0
280
         0
281
         0
  0
CLASS
  1
XRECORD
  2
AcDbXrecord
  3
"<Built In>"
 90
        0
280
         0
281
         0
  0
CLASS
  1
SORTENTSTABLE
  2
AcDbSortentsTable
  3
"AutoCAD"
 90
        0
280
         0
281
         0
  0
CLASS
  1
LAYER_INDEX
  2
AcDbLayerIndex
  3
"Acad"
 90
        0
280
         0
281
         0
  0
CLASS
  1
SPATIAL_INDEX
  2
AcDbSpatialIndex
  3
"Acad"
 90
        0
280
         0
281
         0
  0
CLASS
  1
OBJECT_PTR
  2
CAseDLPNTableRecord
  3
"ASE-LPNTableRecord"
 90
        1
280
         0
281
         0
  0
CLASS
  1
LAYOUT
  2
AcDbLayout
  3
"AutoCAD 2000"
 90
        1
280
         0
281
         0
  0
CLASS
  1
PLOTSETTINGS
  2
AcDbPlotSettings
  3
"AutoCAD 2000"
 90
        1
280
         0
281
         0
  0
CLASS
  1
ACDBDICTIONARYWDFLT
  2
AcDbDictionaryWithDefault
  3
"AutoCAD 2000"
 90
        1
280
         0
281
         0
  0
CLASS
  1
ACDBPLACEHOLDER
  2
AcDbPlaceHolder
  3
"AutoCAD 2000"
 90
        1
280
         0
281
         0
  0
CLASS
  1
VBA_PROJECT
  2
AcDbVbaProject
  3
"acadvba"
 90
        1
280
         0
281
         0
  0
CLASS
  1
WIPEOUT
  2
AcDbWipeout
  3
WipeOut|AutoCAD Express Tool|expresstools@autodesk.com
 90
      127
280
         0
281
         1
  0
CLASS
  1
WIPEOUTVARIABLES
  2
AcDbWipeoutVariables
  3
WipeOut|AutoCAD Express Tool|expresstools@autodesk.com
 90
        0
280
         0
281
         0
  0
CLASS
  1
RTEXT
  2
RText
  3
RText|AutoCAD Express Tool|expresstools@autodesk.com
 90
        0
280
         0
281
         1
  0
CLASS
  1
ARCALIGNEDTEXT
  2
AcDbArcAlignedText
  3
ATEXT|AutoCAD Express Tool|expresstools@autodesk.com
 90
        0
280
         0
281
         1
  0
ENDSEC
  0
SECTION
  2
TABLES
  0
TABLE
  2
VPORT
  5
7
100
AcDbSymbolTable
 70
         1
  0
VPORT
  5
15
100
AcDbSymbolTableRecord
100
AcDbViewportTableRecord
  2
*ACTIVE
 70
         0
 10
0.0
 20
0.0
 11
1.0
 21
1.0
 12
1545.9056542546
 22
18.2167564791
 13
0.0
 23
0.0
 14
1.0
 24
1.0
 15
0.0
 25
0.0
 16
0.0
 26
0.0
 36
1.0
 17
0.0
 27
0.0
 37
0.0
 40
463.8773364801
 41
1.9834619625
 42
50.0
 43
0.0
 44
0.0
 50
0.0
 51
0.0
 71
         0
 72
       100
 73
         1
 74
         1
 75
         0
 76
         0
 77
         0
 78
         0
  0
ENDTAB
  0
TABLE
  2
LTYPE
  5
4
100
AcDbSymbolTable
 70
         6
  0
LTYPE
  5
11
100
AcDbSymbolTableRecord
100
AcDbLinetypeTableRecord
  2
BYBLOCK
 70
        64
  3

 72
        65
 73
         0
 40
0.0
  0
LTYPE
  5
12
100
AcDbSymbolTableRecord
100
AcDbLinetypeTableRecord
  2
BYLAYER
 70
        64
  3

 72
        65
 73
         0
 40
0.0
  0
LTYPE
  5
13
100
AcDbSymbolTableRecord
100
AcDbLinetypeTableRecord
  2
CONTINUOUS
 70
        64
  3
Solid line
 72
        65
 73
         0
 40
0.0
  0
LTYPE
  5
1D
100
AcDbSymbolTableRecord
100
AcDbLinetypeTableRecord
  2
DASHED
 70
        64
  3
_ _ _ _ _ _ _ _ _ _ _ _ _ _ _ _
 72
        65
 73
         2
 40
0.2
 49
0.1
 74
         0
 49
-0.1
 74
         0
  0
LTYPE
  5
1E
100
AcDbSymbolTableRecord
100
AcDbLinetypeTableRecord
  2
CENTER
 70
        64
  3
___ _ ___ _ ___ _ ___ _ ___ _ ___ _ ___ _ ___ _
 72
        65
 73
         4
 40
0.95
 49
0.625
 74
         0
 49
-0.125
 74
         0
 49
0.075
 74
         0
 49
-0.125
 74
         0
  0
LTYPE
  5
1F
100
AcDbSymbolTableRecord
100
AcDbLinetypeTableRecord
  2
PHANTOM
 70
        64
  3
______  __  __  ______  __  __  ______  __  __  
 72
        65
 73
         6
 40
1.025
 49
0.625
 74
         0
 49
-0.125
 74
         0
 49
0.075
 74
         0
 49
-0.125
 74
         0
 49
0.075
 74
         0
 49
-0.125
 74
         0
  0
ENDTAB
  0
TABLE
  2
LAYER
  5
2
100
AcDbSymbolTable
 70
        11
  0
LAYER
  5
14
100
AcDbSymbolTableRecord
100
AcDbLayerTableRecord
  2
0
 70
         0
 62
         7
  6
CONTINUOUS
  0
LAYER
  5
21
100
AcDbSymbolTableRecord
100
AcDbLayerTableRecord
  2
_____U
 70
         1
 62
         7
  6
CONTINUOUS
  0
LAYER
  5
22
100
AcDbSymbolTableRecord
100
AcDbLayerTableRecord
  2
___T______
 70
         1
 62
         7
  6
CONTINUOUS
  0
LAYER
  5
23
100
AcDbSymbolTableRecord
100
AcDbLayerTableRecord
  2
_____T______
 70
         1
 62
         7
  6
CONTINUOUS
  0
LAYER
  5
24
100
AcDbSymbolTableRecord
100
AcDbLayerTableRecord
  2
______L_______
 70
         1
 62
         7
  6
CONTINUOUS
  0
LAYER
  5
25
100
AcDbSymbolTableRecord
100
AcDbLayerTableRecord
  2
_____M_____M____
 70
         1
 62
         7
  6
CONTINUOUS
  0
LAYER
  5
26
100
AcDbSymbolTableRecord
100
AcDbLayerTableRecord
  2
___L_W______
 70
         1
 62
         7
  6
CONTINUOUS
  0
LAYER
  5
27
100
AcDbSymbolTableRecord
100
AcDbLayerTableRecord
  2
_Y__________
 70
         0
 62
         7
  6
CONTINUOUS
  0
LAYER
  5
28
100
AcDbSymbolTableRecord
100
AcDbLayerTableRecord
  2
_X______
 70
         0
 62
         7
  6
CONTINUOUS
  0
LAYER
  5
29
100
AcDbSymbolTableRecord
100
AcDbLayerTableRecord
  2
L1_150
 70
         0
 62
         7
  6
CONTINUOUS
  0
LAYER
  5
2FC
100
AcDbSymbolTableRecord
100
AcDbLayerTableRecord
  2
DEFPOINTS
 70
         0
 62
        -7
  6
CONTINUOUS
  0
ENDTAB
  0
TABLE
  2
STYLE
  5
3
100
AcDbSymbolTable
 70
         7
  0
STYLE
  5
17
100
AcDbSymbolTableRecord
100
AcDbTextStyleTableRecord
  2
STANDARD
 70
         0
 40
0.0
 41
1.0
 50
0.0
 71
         0
 42
0.0
  3
txt
  4

  0
STYLE
  5
305
100
AcDbSymbolTableRecord
100
AcDbTextStyleTableRecord
  2
BOX
 70
         0
 40
1.0
 41
1.0
 50
0.0
 71
         0
 42
0.2
  3
txt.shx
  4

  0
STYLE
  5
316
100
AcDbSymbolTableRecord
100
AcDbTextStyleTableRecord
  2
BOX
 70
         0
 40
1.0
 41
1.0
 50
0.0
 71
         0
 42
0.2
  3
txt.shx
  4

  0
STYLE
  5
32F
100
AcDbSymbolTableRecord
100
AcDbTextStyleTableRecord
  2
BOX
 70
         0
 40
1.0
 41
1.0
 50
0.0
 71
         0
 42
0.2
  3
txt.shx
  4

  0
STYLE
  5
364
100
AcDbSymbolTableRecord
100
AcDbTextStyleTableRecord
  2
BOX
 70
         0
 40
1.0
 41
1.0
 50
0.0
 71
         0
 42
0.2
  3
txt.shx
  4

  0
STYLE
  5
372
100
AcDbSymbolTableRecord
100
AcDbTextStyleTableRecord
  2
BOX
 70
         0
 40
1.0
 41
1.0
 50
0.0
 71
         0
 42
0.2
  3
txt.shx
  4

  0
STYLE
  5
3DC
100
AcDbSymbolTableRecord
100
AcDbTextStyleTableRecord
  2
BOX
 70
         0
 40
1.0
 41
1.0
 50
0.0
 71
         0
 42
0.2
  3
txt.shx
  4

  0
ENDTAB
  0
TABLE
  2
VIEW
  5
5
100
AcDbSymbolTable
 70
         0
  0
ENDTAB
  0
TABLE
  2
UCS
  5
6
100
AcDbSymbolTable
 70
         1
  0
UCS
  5
20
100
AcDbSymbolTableRecord
100
AcDbUCSTableRecord
  2
CK_VIEW_1
 70
         0
 10
0.0
 20
0.0
 30
1.0
 11
1.0
 21
0.0
 31
0.0
 12
0.0
 22
1.0
 32
0.0
  0
ENDTAB
  0
TABLE
  2
APPID
  5
8
100
AcDbSymbolTable
 70
         1
  0
APPID
  5
16
100
AcDbSymbolTableRecord
100
AcDbRegAppTableRecord
  2
ACAD
 70
         0
  0
ENDTAB
  0
TABLE
  2
DIMSTYLE
  5
9
100
AcDbSymbolTable
 70
         2
  0
DIMSTYLE
105
18
100
AcDbSymbolTableRecord
100
AcDbDimStyleTableRecord
  2
STANDARD
 70
         0
  3

  4

  5

  6

  7

 40
1.0
 41
0.18
 42
0.0625
 43
0.38
 44
0.18
 45
0.0
 46
0.0
 47
0.0
 48
0.0
 71
         0
 72
         0
 73
         1
 74
         1
 75
         0
 76
         0
 77
         0
 78
         0
140
0.18
141
0.09
142
0.0
143
25.4
144
1.0
145
0.0
146
1.0
147
0.09
170
         0
171
         2
172
         0
173
         0
174
         0
175
         0
176
         0
177
         0
178
         0
270
         2
271
         4
272
         4
273
         2
274
         2
275
         0
280
         0
281
         0
282
         0
283
         1
284
         0
285
         0
286
         0
287
         0
288
         0
340
17
  0
DIMSTYLE
105
2F8
100
AcDbSymbolTableRecord
100
AcDbDimStyleTableRecord
  2
DIMSTYLE1
 70
         0
  3

  4

  5

  6

  7

 40
1.0
 41
3.5
 42
0.0625
 43
0.38
 44
3.5
 45
0.0
 46
0.0
 47
0.0
 48
0.0
 71
         0
 72
         0
 73
         1
 74
         1
 75
         0
 76
         0
 77
         0
 78
         0
140
3.5
141
0.09
142
0.0
143
25.4
144
1.0
145
0.0
146
1.0
147
0.09
170
         0
171
         2
172
         0
173
         0
174
         0
175
         0
176
         0
177
         0
178
         0
270
         2
271
         4
272
         4
273
         2
274
         2
275
         0
280
         0
281
         0
282
         0
283
         1
284
         0
285
         0
286
         0
287
         0
288
         0
340
17
  0
ENDTAB
  0
TABLE
  2
BLOCK_RECORD
  5
1
100
AcDbSymbolTable
 70
         6
  0
BLOCK_RECORD
  5
A
100
AcDbSymbolTableRecord
100
AcDbBlockTableRecord
  2
*MODEL_SPACE
  0
BLOCK_RECORD
  5
B
100
AcDbSymbolTableRecord
100
AcDbBlockTableRecord
  2
*PAPER_SPACE
  0
BLOCK_RECORD
  5
2A
100
AcDbSymbolTableRecord
100
AcDbBlockTableRecord
  2
*X0
  0
BLOCK_RECORD
  5
2F9
100
AcDbSymbolTableRecord
100
AcDbBlockTableRecord
  2
*D1
  0
BLOCK_RECORD
  5
30B
100
AcDbSymbolTableRecord
100
AcDbBlockTableRecord
  2
*D2
  0
BLOCK_RECORD
  5
323
100
AcDbSymbolTableRecord
100
AcDbBlockTableRecord
  2
*D3
  0
BLOCK_RECORD
  5
359
100
AcDbSymbolTableRecord
100
AcDbBlockTableRecord
  2
*D4
  0
BLOCK_RECORD
  5
367
100
AcDbSymbolTableRecord
100
AcDbBlockTableRecord
  2
*D5
  0
ENDTAB
  0
ENDSEC
  0
SECTION
  2
BLOCKS
  0
BLOCK
  5
D
100
AcDbEntity
  8
0
100
AcDbBlockBegin
  2
*MODEL_SPACE
 70
         0
 10
0.0
 20
0.0
 30
0.0
  3
*MODEL_SPACE
  1

  0
ENDBLK
  5
E
100
AcDbEntity
  8
0
100
AcDbBlockEnd
  0
BLOCK
  5
F
100
AcDbEntity
 67
         1
  8
0
100
AcDbBlockBegin
  2
*PAPER_SPACE
 70
         0
 10
0.0
 20
0.0
 30
0.0
  3
*PAPER_SPACE
  1

  0
ENDBLK
  5
10
100
AcDbEntity
 67
         1
  8
0
100
AcDbBlockEnd
  0
BLOCK
  5
2B
100
AcDbEntity
  8
0
100
AcDbBlockBegin
  2
*X0
 70
        65
 10
0.0
 20
0.0
 30
0.0
  3
*X0
  1

  0
LINE
  5
2C
100
AcDbEntity
  8
L1_150
  6
CONTINUOUS
 62
         4
100
AcDbLine
 10
1659.1375788202
 20
-137.7400166132
 30
0.0
 11
1662.2287667978
 21
-134.6488286355
 31
0.0
  0
LINE
  5
2D
100
AcDbEntity
  8
L1_150
  6
CONTINUOUS
 62
         4
100
AcDbLine
 10
1654.894938133
 20
-137.7400166132
 30
0.0
 11
1658.5456821801
 21
-134.0892725661
 31
0.0
  0
LINE
  5
2E
100
AcDbEntity
  8
L1_150
  6
CONTINUOUS
 62
         4
100
AcDbLine
 10
1650.6522974459
 20
-137.7400166132
 30
0.0
 11
1654.8258323001
 21
-133.566481759
 31
0.0
  0
LINE
  5
2F
100
AcDbEntity
  8
L1_150
  6
CONTINUOUS
 62
         4
100
AcDbLine
 10
1643.4096567588
 20
-140.7400166132
 30
0.0
 11
1651.1059824201
 21
-133.0436909519
 31
0.0
  0
LINE
  5
30
100
AcDbEntity
  8
L1_150
  6
CONTINUOUS
 62
         4
100
AcDbLine
 10
1639.1670160717
 20
-140.7400166132
 30
0.0
 11
1647.3861325401
 21
-132.5209001448
 31
0.0
  0
LINE
  5
31
100
AcDbEntity
  8
L1_150
  6
CONTINUOUS
 62
         4
100
AcDbLine
 10
1660.8385076266
 20
-119.0685250582
 30
0.0
 11
1663.111371616
 21
-116.7956610689
 31
0.0
  0
LINE
  5
32
100
AcDbEntity
  8
L1_150
  6
CONTINUOUS
 62
         4
100
AcDbLine
 10
1634.9243753846
 20
-140.7400166132
 30
0.0
 11
1643.3193753846
 21
-132.3450166132
 31
0.0
  0
LINE
  5
33
100
AcDbEntity
  8
L1_150
  6
CONTINUOUS
 62
         4
100
AcDbLine
 10
1655.9021001062
 20
-119.7622918916
 30
0.0
 11
1659.9243753846
 21
-115.7400166132
 31
0.0
  0
LINE
  5
34
100
AcDbEntity
  8
L1_150
  6
CONTINUOUS
 62
         4
100
AcDbLine
 10
1630.6817346974
 20
-140.7400166132
 30
0.0
 11
1639.6067346974
 21
-131.8150166132
 31
0.0
  0
LINE
  5
35
100
AcDbEntity
  8
L1_150
  6
CONTINUOUS
 62
         4
100
AcDbLine
 10
1650.9656925857
 20
-120.4560587249
 30
0.0
 11
1655.6817346974
 21
-115.7400166132
 31
0.0
  0
LINE
  5
36
100
AcDbEntity
  8
L1_150
  6
CONTINUOUS
 62
         4
100
AcDbLine
 10
1626.4390940103
 20
-140.7400166132
 30
0.0
 11
1635.3640940103
 21
-131.8150166132
 31
0.0
  0
LINE
  5
37
100
AcDbEntity
  8
L1_150
  6
CONTINUOUS
 62
         4
100
AcDbLine
 10
1646.0440940103
 20
-121.1350166132
 30
0.0
 11
1651.4390940103
 21
-115.7400166132
 31
0.0
  0
LINE
  5
38
100
AcDbEntity
  8
L1_150
  6
CONTINUOUS
 62
         4
100
AcDbLine
 10
1622.102278665
 20
-140.8341912714
 30
0.0
 11
1631.1214533232
 21
-131.8150166132
 31
0.0
  0
LINE
  5
39
100
AcDbEntity
  8
L1_150
  6
CONTINUOUS
 62
         4
100
AcDbLine
 10
1641.8014533232
 20
-121.1350166132
 30
0.0
 11
1647.6252313186
 21
-115.3112386178
 31
0.0
  0
LINE
  5
3A
100
AcDbEntity
  8
L1_150
  6
CONTINUOUS
 62
         4
100
AcDbLine
 10
1617.452867181
 20
-141.2409620683
 30
0.0
 11
1626.8788126361
 21
-131.8150166132
 31
0.0
  0
LINE
  5
3B
100
AcDbEntity
  8
L1_150
  6
CONTINUOUS
 62
         4
100
AcDbLine
 10
1637.0288126361
 20
-121.6650166132
 30
0.0
 11
1645.8796788802
 21
-112.8141503691
 31
0.0
  0
LINE
  5
3C
100
AcDbEntity
  8
L1_150
  6
CONTINUOUS
 62
         4
100
AcDbLine
 10
1612.803455697
 20
-141.6477328652
 30
0.0
 11
1622.636171949
 21
-131.8150166132
 31
0.0
  0
LINE
  5
3D
100
AcDbEntity
  8
L1_150
  6
CONTINUOUS
 62
         4
100
AcDbLine
 10
1632.786171949
 20
-121.6650166132
 30
0.0
 11
1641.711171949
 21
-112.7400166132
 31
0.0
  0
LINE
  5
3E
100
AcDbEntity
  8
L1_150
  6
CONTINUOUS
 62
         4
100
AcDbLine
 10
1608.1540442129
 20
-142.0545036621
 30
0.0
 11
1618.3935312618
 21
-131.8150166132
 31
0.0
  0
LINE
  5
3F
100
AcDbEntity
  8
L1_150
  6
CONTINUOUS
 62
         4
100
AcDbLine
 10
1628.5435312618
 20
-121.6650166132
 30
0.0
 11
1637.4685312618
 21
-112.7400166132
 31
0.0
  0
LINE
  5
40
100
AcDbEntity
  8
L1_150
  6
CONTINUOUS
 62
         4
100
AcDbLine
 10
1603.5046327289
 20
-142.461274459
 30
0.0
 11
1614.1508905747
 21
-131.8150166132
 31
0.0
  0
LINE
  5
41
100
AcDbEntity
  8
L1_150
  6
CONTINUOUS
 62
         4
100
AcDbLine
 10
1624.3008905747
 20
-121.6650166132
 30
0.0
 11
1633.2258905747
 21
-112.7400166132
 31
0.0
  0
LINE
  5
42
100
AcDbEntity
  8
L1_150
  6
CONTINUOUS
 62
         4
100
AcDbLine
 10
1598.8552212448
 20
-142.868045256
 30
0.0
 11
1609.9082498876
 21
-131.8150166132
 31
0.0
  0
LINE
  5
43
100
AcDbEntity
  8
L1_150
  6
CONTINUOUS
 62
         4
100
AcDbLine
 10
1620.0582498876
 20
-121.6650166132
 30
0.0
 11
1628.9832498876
 21
-112.7400166132
 31
0.0
  0
LINE
  5
44
100
AcDbEntity
  8
L1_150
  6
CONTINUOUS
 62
         4
100
AcDbLine
 10
1594.2058097608
 20
-143.2748160529
 30
0.0
 11
1605.6656092005
 21
-131.8150166132
 31
0.0
  0
LINE
  5
45
100
AcDbEntity
  8
L1_150
  6
CONTINUOUS
 62
         4
100
AcDbLine
 10
1615.8156092005
 20
-121.6650166132
 30
0.0
 11
1624.7406092005
 21
-112.7400166132
 31
0.0
  0
LINE
  5
46
100
AcDbEntity
  8
L1_150
  6
CONTINUOUS
 62
         4
100
AcDbLine
 10
1589.5563982768
 20
-143.6815868498
 30
0.0
 11
1601.4229685134
 21
-131.8150166132
 31
0.0
  0
LINE
  5
47
100
AcDbEntity
  8
L1_150
  6
CONTINUOUS
 62
         4
100
AcDbLine
 10
1611.5729685134
 20
-121.6650166132
 30
0.0
 11
1620.7136338505
 21
-112.5243512761
 31
0.0
  0
LINE
  5
48
100
AcDbEntity
  8
L1_150
  6
CONTINUOUS
 62
         4
100
AcDbLine
 10
1584.9069867927
 20
-144.0883576467
 30
0.0
 11
1597.1803278262
 21
-131.8150166132
 31
0.0
  0
LINE
  5
49
100
AcDbEntity
  8
L1_150
  6
CONTINUOUS
 62
         4
100
AcDbLine
 10
1607.3303278262
 20
-121.6650166132
 30
0.0
 11
1616.812314389
 21
-112.1830300504
 31
0.0
  0
LINE
  5
4A
100
AcDbEntity
  8
L1_150
  6
CONTINUOUS
 62
         4
100
AcDbLine
 10
1580.2575753087
 20
-144.4951284436
 30
0.0
 11
1592.9376871391
 21
-131.8150166132
 31
0.0
  0
LINE
  5
4B
100
AcDbEntity
  8
L1_150
  6
CONTINUOUS
 62
         4
100
AcDbLine
 10
1603.0876871391
 20
-121.6650166132
 30
0.0
 11
1612.9109949276
 21
-111.8417088248
 31
0.0
  0
LINE
  5
4C
100
AcDbEntity
  8
L1_150
  6
CONTINUOUS
 62
         4
100
AcDbLine
 10
1575.6081638246
 20
-144.9018992406
 30
0.0
 11
1588.695046452
 21
-131.8150166132
 31
0.0
  0
LINE
  5
4D
100
AcDbEntity
  8
L1_150
  6
CONTINUOUS
 62
         4
100
AcDbLine
 10
1598.845046452
 20
-121.6650166132
 30
0.0
 11
1609.0096754661
 21
-111.5003875991
 31
0.0
  0
LINE
  5
4E
100
AcDbEntity
  8
L1_150
  6
CONTINUOUS
 62
         4
100
AcDbLine
 10
1540.7774057649
 20
-175.4900166132
 30
0.0
 11
1542.8786999334
 21
-173.3887224447
 31
0.0
  0
LINE
  5
4F
100
AcDbEntity
  8
L1_150
  6
CONTINUOUS
 62
         4
100
AcDbLine
 10
1554.6024057649
 20
-161.6650166132
 30
0.0
 11
1558.8306999334
 21
-157.4367224447
 31
0.0
  0
LINE
  5
50
100
AcDbEntity
  8
L1_150
  6
CONTINUOUS
 62
         4
100
AcDbLine
 10
1570.9587523406
 20
-145.3086700375
 30
0.0
 11
1584.4524057649
 21
-131.8150166132
 31
0.0
  0
LINE
  5
51
100
AcDbEntity
  8
L1_150
  6
CONTINUOUS
 62
         4
100
AcDbLine
 10
1594.6024057649
 20
-121.6650166132
 30
0.0
 11
1605.1083560047
 21
-111.1590663734
 31
0.0
  0
LINE
  5
52
100
AcDbEntity
  8
L1_150
  6
CONTINUOUS
 62
         4
100
AcDbLine
 10
1537.7267674447
 20
-174.2980142462
 30
0.0
 11
1542.8786999334
 21
-169.1460817576
 31
0.0
  0
LINE
  5
53
100
AcDbEntity
  8
L1_150
  6
CONTINUOUS
 62
         4
100
AcDbLine
 10
1550.3597650778
 20
-161.6650166132
 30
0.0
 11
1558.8306999334
 21
-153.1940817576
 31
0.0
  0
LINE
  5
54
100
AcDbEntity
  8
L1_150
  6
CONTINUOUS
 62
         4
100
AcDbLine
 10
1566.3093408566
 20
-145.7154408344
 30
0.0
 11
1580.2097650778
 21
-131.8150166132
 31
0.0
  0
LINE
  5
55
100
AcDbEntity
  8
L1_150
  6
CONTINUOUS
 62
         4
100
AcDbLine
 10
1590.3597650778
 20
-121.6650166132
 30
0.0
 11
1601.2070365432
 21
-110.8177451478
 31
0.0
  0
LINE
  5
56
100
AcDbEntity
  8
L1_150
  6
CONTINUOUS
 62
         4
100
AcDbLine
 10
1535.4171243907
 20
-172.3650166132
 30
0.0
 11
1542.8786999334
 21
-164.9034410705
 31
0.0
  0
LINE
  5
57
100
AcDbEntity
  8
L1_150
  6
CONTINUOUS
 62
         4
100
AcDbLine
 10
1546.1171243906
 20
-161.6650166132
 30
0.0
 11
1559.8305557625
 21
-147.9515852414
 31
0.0
  0
LINE
  5
58
100
AcDbEntity
  8
L1_150
  6
CONTINUOUS
 62
         4
100
AcDbLine
 10
1560.8308921709
 20
-146.9512488329
 30
0.0
 11
1575.9671243906
 21
-131.8150166132
 31
0.0
  0
LINE
  5
59
100
AcDbEntity
  8
L1_150
  6
CONTINUOUS
 62
         4
100
AcDbLine
 10
1586.1171243907
 20
-121.6650166132
 30
0.0
 11
1597.3057170818
 21
-110.4764239221
 31
0.0
  0
LINE
  5
5A
100
AcDbEntity
  8
L1_150
  6
CONTINUOUS
 62
         4
100
AcDbLine
 10
1528.0984742512
 20
-175.4410260655
 30
0.0
 11
1566.4031422401
 21
-137.1363580766
 31
0.0
  0
LINE
  5
5B
100
AcDbEntity
  8
L1_150
  6
CONTINUOUS
 62
         4
100
AcDbLine
 10
1581.8744837035
 20
-121.6650166132
 30
0.0
 11
1593.4043976203
 21
-110.1351026964
 31
0.0
  0
LINE
  5
5C
100
AcDbEntity
  8
L1_150
  6
CONTINUOUS
 62
         4
100
AcDbLine
 10
1526.9786999334
 20
-172.3181596962
 30
0.0
 11
1562.160501553
 21
-137.1363580766
 31
0.0
  0
LINE
  5
5D
100
AcDbEntity
  8
L1_150
  6
CONTINUOUS
 62
         4
100
AcDbLine
 10
1577.6318430164
 20
-121.6650166132
 30
0.0
 11
1589.5030781589
 21
-109.7937814707
 31
0.0
  0
LINE
  5
5E
100
AcDbEntity
  8
L1_150
  6
CONTINUOUS
 62
         4
100
AcDbLine
 10
1526.9786999334
 20
-168.0755190091
 30
0.0
 11
1557.9178608659
 21
-137.1363580766
 31
0.0
  0
LINE
  5
5F
100
AcDbEntity
  8
L1_150
  6
CONTINUOUS
 62
         4
100
AcDbLine
 10
1573.3892023293
 20
-121.6650166132
 30
0.0
 11
1585.6017586974
 21
-109.4524602451
 31
0.0
  0
LINE
  5
60
100
AcDbEntity
  8
L1_150
  6
CONTINUOUS
 62
         4
100
AcDbLine
 10
1526.9786999334
 20
-163.832878322
 30
0.0
 11
1553.6752201788
 21
-137.1363580766
 31
0.0
  0
LINE
  5
61
100
AcDbEntity
  8
L1_150
  6
CONTINUOUS
 62
         4
100
AcDbLine
 10
1571.6644022198
 20
-119.1471760355
 30
0.0
 11
1581.700439236
 21
-109.1111390194
 31
0.0
  0
LINE
  5
62
100
AcDbEntity
  8
L1_150
  6
CONTINUOUS
 62
         4
100
AcDbLine
 10
1525.2928911972
 20
-161.276046371
 30
0.0
 11
1549.4325794916
 21
-137.1363580766
 31
0.0
  0
LINE
  5
63
100
AcDbEntity
  8
L1_150
  6
CONTINUOUS
 62
         4
100
AcDbLine
 10
1570.1114879492
 20
-116.457449619
 30
0.0
 11
1577.7991197745
 21
-108.7698177937
 31
0.0
  0
LINE
  5
64
100
AcDbEntity
  8
L1_150
  6
CONTINUOUS
 62
         4
100
AcDbLine
 10
1521.0580460309
 20
-161.2682508502
 30
0.0
 11
1545.1899388045
 21
-137.1363580766
 31
0.0
  0
LINE
  5
65
100
AcDbEntity
  8
L1_150
  6
CONTINUOUS
 62
         4
100
AcDbLine
 10
1565.9826217313
 20
-116.3436751498
 30
0.0
 11
1573.8978003131
 21
-108.4284965681
 31
0.0
  0
LINE
  5
66
100
AcDbEntity
  8
L1_150
  6
CONTINUOUS
 62
         4
100
AcDbLine
 10
1517.3553822317
 20
-160.7282739623
 30
0.0
 11
1540.9472981174
 21
-137.1363580766
 31
0.0
  0
LINE
  5
67
100
AcDbEntity
  8
L1_150
  6
CONTINUOUS
 62
         4
100
AcDbLine
 10
1561.7399810442
 20
-116.3436751498
 30
0.0
 11
1569.9964808516
 21
-108.0871753424
 31
0.0
  0
LINE
  5
68
100
AcDbEntity
  8
L1_150
  6
CONTINUOUS
 62
         4
100
AcDbLine
 10
1513.6527184325
 20
-160.1882970744
 30
0.0
 11
1536.7046574303
 21
-137.1363580766
 31
0.0
  0
LINE
  5
69
100
AcDbEntity
  8
L1_150
  6
CONTINUOUS
 62
         4
100
AcDbLine
 10
1557.4973403571
 20
-116.3436751498
 30
0.0
 11
1566.0951613902
 21
-107.7458541167
 31
0.0
  0
LINE
  5
6A
100
AcDbEntity
  8
L1_150
  6
CONTINUOUS
 62
         4
100
AcDbLine
 10
1509.9500546332
 20
-159.6483201865
 30
0.0
 11
1532.4620167432
 21
-137.1363580766
 31
0.0
  0
LINE
  5
6B
100
AcDbEntity
  8
L1_150
  6
CONTINUOUS
 62
         4
100
AcDbLine
 10
1553.25469967
 20
-116.3436751498
 30
0.0
 11
1562.3074217563
 21
-107.2909530635
 31
0.0
  0
LINE
  5
6C
100
AcDbEntity
  8
L1_150
  6
CONTINUOUS
 62
         4
100
AcDbLine
 10
1506.247390834
 20
-159.1083432987
 30
0.0
 11
1528.219376056
 21
-137.1363580766
 31
0.0
  0
LINE
  5
6D
100
AcDbEntity
  8
L1_150
  6
CONTINUOUS
 62
         4
100
AcDbLine
 10
1549.0120589829
 20
-116.3436751498
 30
0.0
 11
1559.8291549688
 21
-105.5265791639
 31
0.0
  0
LINE
  5
6E
100
AcDbEntity
  8
L1_150
  6
CONTINUOUS
 62
         4
100
AcDbLine
 10
1502.5447270348
 20
-158.5683664108
 30
0.0
 11
1523.9767353689
 21
-137.1363580766
 31
0.0
  0
LINE
  5
6F
100
AcDbEntity
  8
L1_150
  6
CONTINUOUS
 62
         4
100
AcDbLine
 10
1544.7694182958
 20
-116.3436751498
 30
0.0
 11
1558.8306999334
 21
-102.2823935121
 31
0.0
  0
LINE
  5
70
100
AcDbEntity
  8
L1_150
  6
CONTINUOUS
 62
         4
100
AcDbLine
 10
1498.8420632356
 20
-158.0283895229
 30
0.0
 11
1519.7340946818
 21
-137.1363580766
 31
0.0
  0
LINE
  5
71
100
AcDbEntity
  8
L1_150
  6
CONTINUOUS
 62
         4
100
AcDbLine
 10
1540.5267776086
 20
-116.3436751498
 30
0.0
 11
1558.8306999334
 21
-98.039752825
 31
0.0
  0
LINE
  5
72
100
AcDbEntity
  8
L1_150
  6
CONTINUOUS
 62
         4
100
AcDbLine
 10
1495.1393994363
 20
-157.488412635
 30
0.0
 11
1515.4914539947
 21
-137.1363580766
 31
0.0
  0
LINE
  5
73
100
AcDbEntity
  8
L1_150
  6
CONTINUOUS
 62
         4
100
AcDbLine
 10
1536.5286999334
 20
-116.0991121379
 30
0.0
 11
1558.8306999334
 21
-93.7971121379
 31
0.0
  0
LINE
  5
74
100
AcDbEntity
  8
L1_150
  6
CONTINUOUS
 62
         4
100
AcDbLine
 10
1491.4367356371
 20
-156.9484357471
 30
0.0
 11
1511.2488133076
 21
-137.1363580766
 31
0.0
  0
LINE
  5
75
100
AcDbEntity
  8
L1_150
  6
CONTINUOUS
 62
         4
100
AcDbLine
 10
1532.0414962344
 20
-116.3436751498
 30
0.0
 11
1533.2286999334
 21
-115.1564714508
 31
0.0
  0
LINE
  5
76
100
AcDbEntity
  8
L1_150
  6
CONTINUOUS
 62
         4
100
AcDbLine
 10
1536.5286999334
 20
-111.8564714508
 30
0.0
 11
1556.570154771
 21
-91.8150166132
 31
0.0
  0
LINE
  5
77
100
AcDbEntity
  8
L1_150
  6
CONTINUOUS
 62
         4
100
AcDbLine
 10
1487.7340718379
 20
-156.4084588592
 30
0.0
 11
1507.0061726204
 21
-137.1363580766
 31
0.0
  0
LINE
  5
78
100
AcDbEntity
  8
L1_150
  6
CONTINUOUS
 62
         4
100
AcDbLine
 10
1527.7988555473
 20
-116.3436751498
 30
0.0
 11
1533.2286999334
 21
-110.9138307637
 31
0.0
  0
LINE
  5
79
100
AcDbEntity
  8
L1_150
  6
CONTINUOUS
 62
         4
100
AcDbLine
 10
1536.5286999334
 20
-107.6138307637
 30
0.0
 11
1552.3275140839
 21
-91.8150166132
 31
0.0
  0
LINE
  5
7A
100
AcDbEntity
  8
L1_150
  6
CONTINUOUS
 62
         4
100
AcDbLine
 10
1484.0314080387
 20
-155.8684819713
 30
0.0
 11
1502.7635319333
 21
-137.1363580766
 31
0.0
  0
LINE
  5
7B
100
AcDbEntity
  8
L1_150
  6
CONTINUOUS
 62
         4
100
AcDbLine
 10
1523.5562148602
 20
-116.3436751498
 30
0.0
 11
1533.2286999334
 21
-106.6711900765
 31
0.0
  0
LINE
  5
7C
100
AcDbEntity
  8
L1_150
  6
CONTINUOUS
 62
         4
100
AcDbLine
 10
1536.5286999334
 20
-103.3711900765
 30
0.0
 11
1548.0848733967
 21
-91.8150166132
 31
0.0
  0
LINE
  5
7D
100
AcDbEntity
  8
L1_150
  6
CONTINUOUS
 62
         4
100
AcDbLine
 10
1480.3287442394
 20
-155.3285050834
 30
0.0
 11
1498.5208912462
 21
-137.1363580766
 31
0.0
  0
LINE
  5
7E
100
AcDbEntity
  8
L1_150
  6
CONTINUOUS
 62
         4
100
AcDbLine
 10
1519.313574173
 20
-116.3436751498
 30
0.0
 11
1533.2286999334
 21
-102.4285493894
 31
0.0
  0
LINE
  5
7F
100
AcDbEntity
  8
L1_150
  6
CONTINUOUS
 62
         4
100
AcDbLine
 10
1536.5286999334
 20
-99.1285493894
 30
0.0
 11
1543.8422327096
 21
-91.8150166132
 31
0.0
  0
LINE
  5
80
100
AcDbEntity
  8
L1_150
  6
CONTINUOUS
 62
         4
100
AcDbLine
 10
1476.6260804402
 20
-154.7885281955
 30
0.0
 11
1494.2782505591
 21
-137.1363580766
 31
0.0
  0
LINE
  5
81
100
AcDbEntity
  8
L1_150
  6
CONTINUOUS
 62
         4
100
AcDbLine
 10
1515.0709334859
 20
-116.3436751498
 30
0.0
 11
1533.2286999334
 21
-98.1859087023
 31
0.0
  0
LINE
  5
82
100
AcDbEntity
  8
L1_150
  6
CONTINUOUS
 62
         4
100
AcDbLine
 10
1536.5286999334
 20
-94.8859087023
 30
0.0
 11
1537.78056401
 21
-93.6340446257
 31
0.0
  0
LINE
  5
83
100
AcDbEntity
  8
L1_150
  6
CONTINUOUS
 62
         4
100
AcDbLine
 10
1538.9794857053
 20
-92.4351229304
 30
0.0
 11
1542.8786999334
 21
-88.5359087023
 31
0.0
  0
LINE
  5
84
100
AcDbEntity
  8
L1_150
  6
CONTINUOUS
 62
         4
100
AcDbLine
 10
1472.923416641
 20
-154.2485513076
 30
0.0
 11
1490.035609872
 21
-137.1363580766
 31
0.0
  0
LINE
  5
85
100
AcDbEntity
  8
L1_150
  6
CONTINUOUS
 62
         4
100
AcDbLine
 10
1510.8282927988
 20
-116.3436751498
 30
0.0
 11
1533.2286999334
 21
-93.9432680152
 31
0.0
  0
LINE
  5
86
100
AcDbEntity
  8
L1_150
  6
CONTINUOUS
 62
         4
100
AcDbLine
 10
1537.862775823
 20
-89.3091921256
 30
0.0
 11
1542.8786999334
 21
-84.2932680152
 31
0.0
  0
LINE
  5
87
100
AcDbEntity
  8
L1_150
  6
CONTINUOUS
 62
         4
100
AcDbLine
 10
1469.2207528418
 20
-153.7085744197
 30
0.0
 11
1485.7929691848
 21
-137.1363580766
 31
0.0
  0
LINE
  5
88
100
AcDbEntity
  8
L1_150
  6
CONTINUOUS
 62
         4
100
AcDbLine
 10
1506.5856521117
 20
-116.3436751498
 30
0.0
 11
1531.7773342528
 21
-91.1519930087
 31
0.0
  0
LINE
  5
89
100
AcDbEntity
  8
L1_150
  6
CONTINUOUS
 62
         4
100
AcDbLine
 10
1536.5286999334
 20
-86.4006273281
 30
0.0
 11
1542.8786999334
 21
-80.0506273281
 31
0.0
  0
LINE
  5
8A
100
AcDbEntity
  8
L1_150
  6
CONTINUOUS
 62
         4
100
AcDbLine
 10
1465.5180890425
 20
-153.1685975318
 30
0.0
 11
1481.5503284977
 21
-137.1363580766
 31
0.0
  0
LINE
  5
8B
100
AcDbEntity
  8
L1_150
  6
CONTINUOUS
 62
         4
100
AcDbLine
 10
1502.3430114246
 20
-116.3436751498
 30
0.0
 11
1526.3716699611
 21
-92.3150166132
 31
0.0
  0
LINE
  5
8C
100
AcDbEntity
  8
L1_150
  6
CONTINUOUS
 62
         4
100
AcDbLine
 10
1526.9786999334
 20
-91.707986641
 30
0.0
 11
1529.2819678979
 21
-89.4047186764
 31
0.0
  0
LINE
  5
8D
100
AcDbEntity
  8
L1_150
  6
CONTINUOUS
 62
         4
100
AcDbLine
 10
1532.8720431133
 20
-85.8146434611
 30
0.0
 11
1533.2286999334
 21
-85.4579866409
 31
0.0
  0
LINE
  5
8E
100
AcDbEntity
  8
L1_150
  6
CONTINUOUS
 62
         4
100
AcDbLine
 10
1536.8786999334
 20
-81.8079866409
 30
0.0
 11
1540.6966699611
 21
-77.9900166132
 31
0.0
  0
LINE
  5
8F
100
AcDbEntity
  8
L1_150
  6
CONTINUOUS
 62
         4
100
AcDbLine
 10
1461.8154252433
 20
-152.6286206439
 30
0.0
 11
1477.3076878106
 21
-137.1363580766
 31
0.0
  0
LINE
  5
90
100
AcDbEntity
  8
L1_150
  6
CONTINUOUS
 62
         4
100
AcDbLine
 10
1498.1003707374
 20
-116.3436751498
 30
0.0
 11
1522.432741876
 21
-92.0113040113
 31
0.0
  0
LINE
  5
91
100
AcDbEntity
  8
L1_150
  6
CONTINUOUS
 62
         4
100
AcDbLine
 10
1530.3766767584
 20
-84.0673691288
 30
0.0
 11
1532.8786999334
 21
-81.5653459538
 31
0.0
  0
LINE
  5
92
100
AcDbEntity
  8
L1_150
  6
CONTINUOUS
 62
         4
100
AcDbLine
 10
1458.1127614441
 20
-152.088643756
 30
0.0
 11
1473.0650471235
 21
-137.1363580766
 31
0.0
  0
LINE
  5
93
100
AcDbEntity
  8
L1_150
  6
CONTINUOUS
 62
         4
100
AcDbLine
 10
1493.8577300503
 20
-116.3436751498
 30
0.0
 11
1517.4657399166
 21
-92.7356652835
 31
0.0
  0
LINE
  5
94
100
AcDbEntity
  8
L1_150
  6
CONTINUOUS
 62
         4
100
AcDbLine
 10
1528.2762186772
 20
-81.9251865229
 30
0.0
 11
1531.6604906226
 21
-78.5409145775
 31
0.0
  0
LINE
  5
95
100
AcDbEntity
  8
L1_150
  6
CONTINUOUS
 62
         4
100
AcDbLine
 10
1454.4100976449
 20
-151.5486668681
 30
0.0
 11
1468.8224064364
 21
-137.1363580766
 31
0.0
  0
LINE
  5
96
100
AcDbEntity
  8
L1_150
  6
CONTINUOUS
 62
         4
100
AcDbLine
 10
1489.6150893632
 20
-116.3436751498
 30
0.0
 11
1512.4987379573
 21
-93.4600265557
 31
0.0
  0
LINE
  5
97
100
AcDbEntity
  8
L1_150
  6
CONTINUOUS
 62
         4
100
AcDbLine
 10
1527.1345732043
 20
-78.8241913087
 30
0.0
 11
1527.8128746289
 21
-78.1458898841
 31
0.0
  0
LINE
  5
98
100
AcDbEntity
  8
L1_150
  6
CONTINUOUS
 62
         4
100
AcDbLine
 10
1450.7074338456
 20
-151.0086899802
 30
0.0
 11
1464.5797657493
 21
-137.1363580766
 31
0.0
  0
LINE
  5
99
100
AcDbEntity
  8
L1_150
  6
CONTINUOUS
 62
         4
100
AcDbLine
 10
1485.3724486761
 20
-116.3436751498
 30
0.0
 11
1507.531735998
 21
-94.1843878279
 31
0.0
  0
LINE
  5
9A
100
AcDbEntity
  8
L1_150
  6
CONTINUOUS
 62
         4
100
AcDbLine
 10
1447.0047700464
 20
-150.4687130923
 30
0.0
 11
1460.3371250621
 21
-137.1363580766
 31
0.0
  0
LINE
  5
9B
100
AcDbEntity
  8
L1_150
  6
CONTINUOUS
 62
         4
100
AcDbLine
 10
1481.129807989
 20
-116.3436751498
 30
0.0
 11
1502.5647340386
 21
-94.9087491001
 31
0.0
  0
LINE
  5
9C
100
AcDbEntity
  8
L1_150
  6
CONTINUOUS
 62
         4
100
AcDbLine
 10
1443.3021062472
 20
-149.9287362044
 30
0.0
 11
1456.094484375
 21
-137.1363580766
 31
0.0
  0
LINE
  5
9D
100
AcDbEntity
  8
L1_150
  6
CONTINUOUS
 62
         4
100
AcDbLine
 10
1476.8871673018
 20
-116.3436751498
 30
0.0
 11
1497.5977320793
 21
-95.6331103723
 31
0.0
  0
LINE
  5
9E
100
AcDbEntity
  8
L1_150
  6
CONTINUOUS
 62
         4
100
AcDbLine
 10
1439.599442448
 20
-149.3887593165
 30
0.0
 11
1451.8518436879
 21
-137.1363580766
 31
0.0
  0
LINE
  5
9F
100
AcDbEntity
  8
L1_150
  6
CONTINUOUS
 62
         4
100
AcDbLine
 10
1472.6445266147
 20
-116.3436751498
 30
0.0
 11
1492.63073012
 21
-96.3574716445
 31
0.0
  0
LINE
  5
A0
100
AcDbEntity
  8
L1_150
  6
CONTINUOUS
 62
         4
100
AcDbLine
 10
1435.8967786487
 20
-148.8487824286
 30
0.0
 11
1447.6092030008
 21
-137.1363580766
 31
0.0
  0
LINE
  5
A1
100
AcDbEntity
  8
L1_150
  6
CONTINUOUS
 62
         4
100
AcDbLine
 10
1468.4018859276
 20
-116.3436751498
 30
0.0
 11
1487.6637281607
 21
-97.0818329167
 31
0.0
  0
LINE
  5
A2
100
AcDbEntity
  8
L1_150
  6
CONTINUOUS
 62
         4
100
AcDbLine
 10
1432.1941148495
 20
-148.3088055408
 30
0.0
 11
1443.3665623137
 21
-137.1363580766
 31
0.0
  0
LINE
  5
A3
100
AcDbEntity
  8
L1_150
  6
CONTINUOUS
 62
         4
100
AcDbLine
 10
1464.1592452405
 20
-116.3436751498
 30
0.0
 11
1482.6967262013
 21
-97.8061941889
 31
0.0
  0
LINE
  5
A4
100
AcDbEntity
  8
L1_150
  6
CONTINUOUS
 62
         4
100
AcDbLine
 10
1428.4914510503
 20
-147.7688286529
 30
0.0
 11
1439.1239216265
 21
-137.1363580766
 31
0.0
  0
LINE
  5
A5
100
AcDbEntity
  8
L1_150
  6
CONTINUOUS
 62
         4
100
AcDbLine
 10
1459.9166045534
 20
-116.3436751498
 30
0.0
 11
1477.729724242
 21
-98.5305554611
 31
0.0
  0
LINE
  5
A6
100
AcDbEntity
  8
L1_150
  6
CONTINUOUS
 62
         4
100
AcDbLine
 10
1424.7887872511
 20
-147.228851765
 30
0.0
 11
1434.8812809394
 21
-137.1363580766
 31
0.0
  0
LINE
  5
A7
100
AcDbEntity
  8
L1_150
  6
CONTINUOUS
 62
         4
100
AcDbLine
 10
1455.6739638662
 20
-116.3436751498
 30
0.0
 11
1472.7627222827
 21
-99.2549167334
 31
0.0
  0
LINE
  5
A8
100
AcDbEntity
  8
L1_150
  6
CONTINUOUS
 62
         4
100
AcDbLine
 10
1422.3047707658
 20
-145.4702275631
 30
0.0
 11
1430.6386402523
 21
-137.1363580766
 31
0.0
  0
LINE
  5
A9
100
AcDbEntity
  8
L1_150
  6
CONTINUOUS
 62
         4
100
AcDbLine
 10
1451.4313231791
 20
-116.3436751498
 30
0.0
 11
1467.7957203233
 21
-99.9792780056
 31
0.0
  0
LINE
  5
AA
100
AcDbEntity
  8
L1_150
  6
CONTINUOUS
 62
         4
100
AcDbLine
 10
1422.1786999334
 20
-141.3536577084
 30
0.0
 11
1424.2923410286
 21
-139.2400166132
 31
0.0
  0
LINE
  5
AB
100
AcDbEntity
  8
L1_150
  6
CONTINUOUS
 62
         4
100
AcDbLine
 10
1447.188682492
 20
-116.3436751498
 30
0.0
 11
1462.828718364
 21
-100.7036392778
 31
0.0
  0
LINE
  5
AC
100
AcDbEntity
  8
L1_150
  6
CONTINUOUS
 62
         4
100
AcDbLine
 10
1442.9460418049
 20
-116.3436751498
 30
0.0
 11
1457.8617164047
 21
-101.42800055
 31
0.0
  0
LINE
  5
AD
100
AcDbEntity
  8
L1_150
  6
CONTINUOUS
 62
         4
100
AcDbLine
 10
1438.7034011178
 20
-116.3436751498
 30
0.0
 11
1452.8947144454
 21
-102.1523618222
 31
0.0
  0
LINE
  5
AE
100
AcDbEntity
  8
L1_150
  6
CONTINUOUS
 62
         4
100
AcDbLine
 10
1434.4607604307
 20
-116.3436751498
 30
0.0
 11
1447.927712486
 21
-102.8767230944
 31
0.0
  0
LINE
  5
AF
100
AcDbEntity
  8
L1_150
  6
CONTINUOUS
 62
         4
100
AcDbLine
 10
1430.3330818192
 20
-116.2287130741
 30
0.0
 11
1442.9607105267
 21
-103.6010843666
 31
0.0
  0
LINE
  5
B0
100
AcDbEntity
  8
L1_150
  6
CONTINUOUS
 62
         4
100
AcDbLine
 10
1428.2073461956
 20
-114.1118080106
 30
0.0
 11
1437.9937085674
 21
-104.3254456388
 31
0.0
  0
LINE
  5
B1
100
AcDbEntity
  8
L1_150
  6
CONTINUOUS
 62
         4
100
AcDbLine
 10
1423.8364969059
 20
-114.2400166132
 30
0.0
 11
1433.0267066081
 21
-105.049806911
 31
0.0
  0
LINE
  5
B2
100
AcDbEntity
  8
L1_150
  6
CONTINUOUS
 62
         4
100
AcDbLine
 10
1422.1786999334
 20
-111.6551728986
 30
0.0
 11
1428.0597046487
 21
-105.7741681832
 31
0.0
  0
ENDBLK
  5
B3
100
AcDbEntity
  8
0
  6
CONTINUOUS
100
AcDbBlockEnd
  0
BLOCK
  5
2FA
100
AcDbEntity
  8
0
100
AcDbBlockBegin
  2
*D1
 70
        65
 10
0.0
 20
0.0
 30
0.0
  3
*D1
  1

  0
POINT
  5
2FD
100
AcDbEntity
  8
DEFPOINTS
  6
CONTINUOUS
 62
         0
100
AcDbPoint
 10
1681.6492848731
 20
126.2524144385
 30
0.0
  0
POINT
  5
2FE
100
AcDbEntity
  8
DEFPOINTS
  6
CONTINUOUS
 62
         0
100
AcDbPoint
 10
1645.3401983801
 20
126.2524144385
 30
0.0
  0
POINT
  5
2FF
100
AcDbEntity
  8
DEFPOINTS
  6
CONTINUOUS
 62
         0
100
AcDbPoint
 10
1645.3401983801
 20
98.2524144385
 30
0.0
  0
LINE
  5
300
100
AcDbEntity
  8
L1_150
  6
CONTINUOUS
 62
         4
100
AcDbLine
 10
1647.0901983801
 20
126.2524144385
 30
0.0
 11
1682.5242848731
 21
126.2524144385
 31
0.0
  0
LINE
  5
301
100
AcDbEntity
  8
L1_150
  6
CONTINUOUS
 62
         4
100
AcDbLine
 10
1647.0901983801
 20
98.2524144385
 30
0.0
 11
1682.5242848731
 21
98.2524144385
 31
0.0
  0
LINE
  5
302
100
AcDbEntity
  8
L1_150
  6
CONTINUOUS
 62
         4
100
AcDbLine
 10
1681.6492848731
 20
126.2524144385
 30
0.0
 11
1681.6492848731
 21
98.2524144385
 31
0.0
  0
SOLID
  5
303
100
AcDbEntity
  8
L1_150
  6
CONTINUOUS
 62
         4
100
AcDbTrace
 10
1681.6492848731
 20
126.2524144385
 30
0.0
 11
1682.1742848731
 21
122.7524144385
 31
0.0
 12
1681.1242848731
 22
122.7524144385
 32
0.0
 13
1681.6492848731
 23
126.2524144385
 33
0.0
  0
SOLID
  5
304
100
AcDbEntity
  8
L1_150
  6
CONTINUOUS
 62
         4
100
AcDbTrace
 10
1681.6492848731
 20
98.2524144385
 30
0.0
 11
1681.1242848731
 21
101.7524144385
 31
0.0
 12
1682.1742848731
 22
101.7524144385
 32
0.0
 13
1681.6492848731
 23
98.2524144385
 33
0.0
  0
TEXT
  5
306
100
AcDbEntity
  8
L1_150
  6
CONTINUOUS
 62
         4
100
AcDbText
 10
1679.0242848731
 20
101.9158460912
 30
0.0
 40
3.5
  1
崷28
 50
90.0
  7
BOX
100
AcDbText
  0
ENDBLK
  5
307
100
AcDbEntity
  8
0
  6
CONTINUOUS
100
AcDbBlockEnd
  0
BLOCK
  5
30C
100
AcDbEntity
  8
0
100
AcDbBlockBegin
  2
*D2
 70
        65
 10
0.0
 20
0.0
 30
0.0
  3
*D2
  1

  0
POINT
  5
30E
100
AcDbEntity
  8
DEFPOINTS
  6
CONTINUOUS
 62
         0
100
AcDbPoint
 10
1422.1786999334
 20
222.9450912428
 30
0.0
  0
POINT
  5
30F
100
AcDbEntity
  8
DEFPOINTS
  6
CONTINUOUS
 62
         0
100
AcDbPoint
 10
1422.1786999334
 20
130.1987502026
 30
0.0
  0
POINT
  5
310
100
AcDbEntity
  8
DEFPOINTS
  6
CONTINUOUS
 62
         0
100
AcDbPoint
 10
1663.1786999334
 20
112.2524144385
 30
0.0
  0
LINE
  5
311
100
AcDbEntity
  8
L1_150
  6
CONTINUOUS
 62
         4
100
AcDbLine
 10
1422.1786999334
 20
131.9487502026
 30
0.0
 11
1422.1786999334
 21
223.8200912428
 31
0.0
  0
LINE
  5
312
100
AcDbEntity
  8
L1_150
  6
CONTINUOUS
 62
         4
100
AcDbLine
 10
1663.1786999334
 20
114.0024144385
 30
0.0
 11
1663.1786999334
 21
223.8200912428
 31
0.0
  0
LINE
  5
313
100
AcDbEntity
  8
L1_150
  6
CONTINUOUS
 62
         4
100
AcDbLine
 10
1422.1786999334
 20
222.9450912428
 30
0.0
 11
1663.1786999334
 21
222.9450912428
 31
0.0
  0
SOLID
  5
314
100
AcDbEntity
  8
L1_150
  6
CONTINUOUS
 62
         4
100
AcDbTrace
 10
1422.1786999334
 20
222.9450912428
 30
0.0
 11
1425.6786999334
 21
223.4700912428
 31
0.0
 12
1425.6786999334
 22
222.4200912428
 32
0.0
 13
1422.1786999334
 23
222.9450912428
 33
0.0
  0
SOLID
  5
315
100
AcDbEntity
  8
L1_150
  6
CONTINUOUS
 62
         4
100
AcDbTrace
 10
1663.1786999334
 20
222.9450912428
 30
0.0
 11
1659.6786999334
 21
222.4200912428
 31
0.0
 12
1659.6786999334
 22
223.4700912428
 32
0.0
 13
1663.1786999334
 23
222.9450912428
 33
0.0
  0
TEXT
  5
317
100
AcDbEntity
  8
L1_150
  6
CONTINUOUS
 62
         4
100
AcDbText
 10
1534.4987630581
 20
225.5700912428
 30
0.0
 40
3.5
  1
241
  7
BOX
100
AcDbText
  0
ENDBLK
  5
318
100
AcDbEntity
  8
0
  6
CONTINUOUS
100
AcDbBlockEnd
  0
BLOCK
  5
324
100
AcDbEntity
  8
0
100
AcDbBlockBegin
  2
*D3
 70
        65
 10
0.0
 20
0.0
 30
0.0
  3
*D3
  1

  0
POINT
  5
326
100
AcDbEntity
  8
DEFPOINTS
  6
CONTINUOUS
 62
         0
100
AcDbPoint
 10
1647.6786999334
 20
182.158743897
 30
0.0
  0
POINT
  5
327
100
AcDbEntity
  8
DEFPOINTS
  6
CONTINUOUS
 62
         0
100
AcDbPoint
 10
1647.6786999334
 20
123.6111584105
 30
0.0
  0
POINT
  5
328
100
AcDbEntity
  8
DEFPOINTS
  6
CONTINUOUS
 62
         0
100
AcDbPoint
 10
1663.1786999334
 20
122.2524144385
 30
0.0
  0
LINE
  5
329
100
AcDbEntity
  8
L1_150
  6
CONTINUOUS
 62
         4
100
AcDbLine
 10
1647.6786999334
 20
125.3611584105
 30
0.0
 11
1647.6786999334
 21
183.033743897
 31
0.0
  0
LINE
  5
32A
100
AcDbEntity
  8
L1_150
  6
CONTINUOUS
 62
         4
100
AcDbLine
 10
1663.1786999334
 20
124.0024144385
 30
0.0
 11
1663.1786999334
 21
183.033743897
 31
0.0
  0
LINE
  5
32B
100
AcDbEntity
  8
L1_150
  6
CONTINUOUS
 62
         4
100
AcDbLine
 10
1647.6786999334
 20
182.158743897
 30
0.0
 11
1663.1786999334
 21
182.158743897
 31
0.0
  0
SOLID
  5
32C
100
AcDbEntity
  8
L1_150
  6
CONTINUOUS
 62
         4
100
AcDbTrace
 10
1647.6786999334
 20
182.158743897
 30
0.0
 11
1651.1786999334
 21
182.683743897
 31
0.0
 12
1651.1786999334
 22
181.633743897
 32
0.0
 13
1647.6786999334
 23
182.158743897
 33
0.0
  0
LINE
  5
32D
100
AcDbEntity
  8
L1_150
  6
CONTINUOUS
 62
         4
100
AcDbLine
 10
1647.6786999334
 20
182.158743897
 30
0.0
 11
1636.6036705201
 21
182.158743897
 31
0.0
  0
SOLID
  5
32E
100
AcDbEntity
  8
L1_150
  6
CONTINUOUS
 62
         4
100
AcDbTrace
 10
1663.1786999334
 20
182.158743897
 30
0.0
 11
1659.6786999334
 21
181.633743897
 31
0.0
 12
1659.6786999334
 22
182.683743897
 32
0.0
 13
1663.1786999334
 23
182.158743897
 33
0.0
  0
TEXT
  5
330
100
AcDbEntity
  8
L1_150
  6
CONTINUOUS
 62
         4
100
AcDbText
 10
1638.3536705201
 20
184.783743897
 30
0.0
 40
3.5
  1
15.5
  7
BOX
100
AcDbText
  0
ENDBLK
  5
331
100
AcDbEntity
  8
0
  6
CONTINUOUS
100
AcDbBlockEnd
  0
BLOCK
  5
35A
100
AcDbEntity
  8
0
100
AcDbBlockBegin
  2
*D4
 70
        65
 10
0.0
 20
0.0
 30
0.0
  3
*D4
  1

  0
POINT
  5
35C
100
AcDbEntity
  8
DEFPOINTS
  6
CONTINUOUS
 62
         0
100
AcDbPoint
 10
1583.1786999334
 20
-183.7394784637
 30
0.0
  0
POINT
  5
35D
100
AcDbEntity
  8
DEFPOINTS
  6
CONTINUOUS
 62
         0
100
AcDbPoint
 10
1583.1786999334
 20
-131.7400166132
 30
0.0
  0
POINT
  5
35E
100
AcDbEntity
  8
DEFPOINTS
  6
CONTINUOUS
 62
         0
100
AcDbPoint
 10
1663.1786999334
 20
-136.7400166132
 30
0.0
  0
LINE
  5
35F
100
AcDbEntity
  8
L1_150
  6
CONTINUOUS
 62
         4
100
AcDbLine
 10
1583.1786999334
 20
-133.4900166132
 30
0.0
 11
1583.1786999334
 21
-184.6144784637
 31
0.0
  0
LINE
  5
360
100
AcDbEntity
  8
L1_150
  6
CONTINUOUS
 62
         4
100
AcDbLine
 10
1663.1786999334
 20
-138.4900166132
 30
0.0
 11
1663.1786999334
 21
-184.6144784637
 31
0.0
  0
LINE
  5
361
100
AcDbEntity
  8
L1_150
  6
CONTINUOUS
 62
         4
100
AcDbLine
 10
1583.1786999334
 20
-183.7394784637
 30
0.0
 11
1663.1786999334
 21
-183.7394784637
 31
0.0
  0
SOLID
  5
362
100
AcDbEntity
  8
L1_150
  6
CONTINUOUS
 62
         4
100
AcDbTrace
 10
1583.1786999334
 20
-183.7394784637
 30
0.0
 11
1586.6786999334
 21
-183.2144784637
 31
0.0
 12
1586.6786999334
 22
-184.2644784637
 32
0.0
 13
1583.1786999334
 23
-183.7394784637
 33
0.0
  0
SOLID
  5
363
100
AcDbEntity
  8
L1_150
  6
CONTINUOUS
 62
         4
100
AcDbTrace
 10
1663.1786999334
 20
-183.7394784637
 30
0.0
 11
1659.6786999334
 21
-184.2644784637
 31
0.0
 12
1659.6786999334
 22
-183.2144784637
 32
0.0
 13
1663.1786999334
 23
-183.7394784637
 33
0.0
  0
TEXT
  5
365
100
AcDbEntity
  8
L1_150
  6
CONTINUOUS
 62
         4
100
AcDbText
 10
1619.3594497976
 20
-181.1144784637
 30
0.0
 40
3.5
  1
80
  7
BOX
100
AcDbText
  0
ENDBLK
  5
366
100
AcDbEntity
  8
0
  6
CONTINUOUS
100
AcDbBlockEnd
  0
BLOCK
  5
368
100
AcDbEntity
  8
0
100
AcDbBlockBegin
  2
*D5
 70
        65
 10
0.0
 20
0.0
 30
0.0
  3
*D5
  1

  0
POINT
  5
36A
100
AcDbEntity
  8
DEFPOINTS
  6
CONTINUOUS
 62
         0
100
AcDbPoint
 10
1573.1786999334
 20
-191.7615782846
 30
0.0
  0
POINT
  5
36B
100
AcDbEntity
  8
DEFPOINTS
  6
CONTINUOUS
 62
         0
100
AcDbPoint
 10
1573.1786999334
 20
-130.9900166132
 30
0.0
  0
POINT
  5
36C
100
AcDbEntity
  8
DEFPOINTS
  6
CONTINUOUS
 62
         0
100
AcDbPoint
 10
1663.1786999334
 20
-136.7400166132
 30
0.0
  0
LINE
  5
36D
100
AcDbEntity
  8
L1_150
  6
CONTINUOUS
 62
         4
100
AcDbLine
 10
1573.1786999334
 20
-132.7400166132
 30
0.0
 11
1573.1786999334
 21
-192.6365782846
 31
0.0
  0
LINE
  5
36E
100
AcDbEntity
  8
L1_150
  6
CONTINUOUS
 62
         4
100
AcDbLine
 10
1663.1786999334
 20
-138.4900166132
 30
0.0
 11
1663.1786999334
 21
-192.6365782846
 31
0.0
  0
LINE
  5
36F
100
AcDbEntity
  8
L1_150
  6
CONTINUOUS
 62
         4
100
AcDbLine
 10
1573.1786999334
 20
-191.7615782846
 30
0.0
 11
1663.1786999334
 21
-191.7615782846
 31
0.0
  0
SOLID
  5
370
100
AcDbEntity
  8
L1_150
  6
CONTINUOUS
 62
         4
100
AcDbTrace
 10
1573.1786999334
 20
-191.7615782846
 30
0.0
 11
1576.6786999334
 21
-191.2365782846
 31
0.0
 12
1576.6786999334
 22
-192.2865782846
 32
0.0
 13
1573.1786999334
 23
-191.7615782846
 33
0.0
  0
SOLID
  5
371
100
AcDbEntity
  8
L1_150
  6
CONTINUOUS
 62
         4
100
AcDbTrace
 10
1663.1786999334
 20
-191.7615782846
 30
0.0
 11
1659.6786999334
 21
-192.2865782846
 31
0.0
 12
1659.6786999334
 22
-191.2365782846
 32
0.0
 13
1663.1786999334
 23
-191.7615782846
 33
0.0
  0
TEXT
  5
373
100
AcDbEntity
  8
L1_150
  6
CONTINUOUS
 62
         4
100
AcDbText
 10
1613.2408990868
 20
-189.1365782846
 30
0.0
 40
3.5
  1
90
  7
BOX
100
AcDbText
  0
ENDBLK
  5
374
100
AcDbEntity
  8
0
  6
CONTINUOUS
100
AcDbBlockEnd
  0
ENDSEC
  0
SECTION
  2
ENTITIES
  0
INSERT
  5
B5
100
AcDbEntity
  8
0
  6
CONTINUOUS
100
AcDbBlockReference
  2
*X0
 10
0.0
 20
0.0
 30
0.0
  0
LINE
  5
B6
100
AcDbEntity
  8
L1_150
  6
CONTINUOUS
 62
         7
100
AcDbLine
 10
1573.1180781551
 20
-121.6650166132
 30
0.0
 11
1573.1180781551
 21
-131.8150166132
 31
0.0
  0
LINE
  5
B7
100
AcDbEntity
  8
L1_150
  6
CONTINUOUS
 62
         4
100
AcDbLine
 10
1583.1786999334
 20
-121.1850166132
 30
0.0
 11
1641.1786999334
 21
-121.1850166132
 31
0.0
  0
LINE
  5
B8
100
AcDbEntity
  8
L1_150
  6
CONTINUOUS
 62
         7
100
AcDbLine
 10
1573.1180781551
 20
-121.6650166132
 30
0.0
 11
1641.1786999334
 21
-121.6650166132
 31
0.0
  0
LINE
  5
B9
100
AcDbEntity
  8
L1_150
  6
CONTINUOUS
 62
         7
100
AcDbLine
 10
1573.1180781551
 20
-131.8150166132
 30
0.0
 11
1641.1786999334
 21
-131.8150166132
 31
0.0
  0
LINE
  5
BA
100
AcDbEntity
  8
L1_150
  6
CONTINUOUS
 62
         4
100
AcDbLine
 10
1583.1786999334
 20
-132.2950166132
 30
0.0
 11
1641.1786999334
 21
-132.2950166132
 31
0.0
  0
LINE
  5
BB
100
AcDbEntity
  8
L1_150
  6
CONTINUOUS
 62
         7
100
AcDbLine
 10
1641.1786999334
 20
-121.1350166132
 30
0.0
 11
1646.1346561848
 21
-121.1350166132
 31
0.0
  0
LINE
  5
BC
100
AcDbEntity
  8
L1_150
  6
CONTINUOUS
 62
         7
100
AcDbLine
 10
1641.1786999334
 20
-121.1350166132
 30
0.0
 11
1641.1786999334
 21
-132.3450166132
 31
0.0
  0
LINE
  5
BD
100
AcDbEntity
  8
L1_150
  6
CONTINUOUS
 62
         7
100
AcDbLine
 10
1646.1346561848
 20
-132.3450166132
 30
0.0
 11
1646.1346561848
 21
-121.1350166132
 31
0.0
  0
LINE
  5
BE
100
AcDbEntity
  8
L1_150
  6
CONTINUOUS
 62
         7
100
AcDbLine
 10
1641.1786999334
 20
-132.3450166132
 30
0.0
 11
1646.1346561848
 21
-132.3450166132
 31
0.0
  0
LINE
  5
BF
100
AcDbEntity
  8
_Y__________
  6
CONTINUOUS
 62
         7
100
AcDbLine
 10
1523.7786999334
 20
147.1774144385
 30
0.0
 11
1525.7251100949
 21
146.6774144385
 31
0.0
  0
LINE
  5
C0
100
AcDbEntity
  8
_Y__________
  6
CONTINUOUS
 62
         7
100
AcDbLine
 10
1523.7786999334
 20
77.3274144385
 30
0.0
 11
1525.7251100949
 21
77.8274144385
 31
0.0
  0
LINE
  5
C1
100
AcDbEntity
  8
_Y__________
  6
CENTER
 62
         1
100
AcDbLine
 10
1513.0227673053
 20
112.2524144385
 30
0.0
 11
1542.8786999334
 21
112.2524144385
 31
0.0
  0
LINE
  5
C2
100
AcDbEntity
  8
_Y__________
  6
CENTER
 62
         1
100
AcDbLine
 10
1417.2325573653
 20
112.2524144385
 30
0.0
 11
1491.1537903612
 21
112.2524144385
 31
0.0
  0
LINE
  5
C3
100
AcDbEntity
  8
_Y__________
  6
CONTINUOUS
 62
         7
100
AcDbLine
 10
1523.7786999334
 20
147.1774144385
 30
0.0
 11
1424.3179293748
 21
132.6725821702
 31
0.0
  0
LINE
  5
C4
100
AcDbEntity
  8
_Y__________
  6
CONTINUOUS
 62
         7
100
AcDbLine
 10
1523.7786999334
 20
77.3274144385
 30
0.0
 11
1424.3179293748
 21
91.8322467069
 31
0.0
  0
LINE
  5
C5
100
AcDbEntity
  8
_Y__________
  6
CONTINUOUS
 62
         7
100
AcDbLine
 10
1524.9786999334
 20
146.8691546422
 30
0.0
 11
1524.9786999334
 21
77.6356742349
 31
0.0
  0
LINE
  5
C6
100
AcDbEntity
  8
_Y__________
  6
CENTER
 62
         1
100
AcDbLine
 10
1523.7786999334
 20
151.9774144385
 30
0.0
 11
1523.7786999334
 21
73.981360093
 31
0.0
  0
LINE
  5
C7
100
AcDbEntity
  8
_Y__________
  6
CONTINUOUS
 62
         7
100
AcDbLine
 10
1525.7251100949
 20
146.6774144385
 30
0.0
 11
1525.7251100949
 21
77.8274144385
 31
0.0
  0
LINE
  5
C8
100
AcDbEntity
  8
_Y__________
  6
CONTINUOUS
 62
         7
100
AcDbLine
 10
1526.9786999334
 20
159.5024144385
 30
0.0
 11
1526.9786999334
 21
65.0024144385
 31
0.0
  0
LINE
  5
C9
100
AcDbEntity
  8
_Y__________
  6
CENTER
 62
         1
100
AcDbLine
 10
1534.8786999334
 20
167.2576777393
 30
0.0
 11
1534.8786999334
 21
57.2548581875
 31
0.0
  0
ARC
  5
CA
100
AcDbEntity
  8
_Y__________
  6
CONTINUOUS
 62
         7
100
AcDbCircle
 10
1526.3786999334
 20
77.2274144385
 30
0.0
 40
0.6
100
AcDbArc
 50
0.0
 51
90.0
  0
LINE
  5
CB
100
AcDbEntity
  8
_Y__________
  6
CONTINUOUS
 62
         7
100
AcDbLine
 10
1525.7251100949
 20
77.8274144385
 30
0.0
 11
1526.3786999334
 21
77.8274144385
 31
0.0
  0
ARC
  5
CC
100
AcDbEntity
  8
_Y__________
  6
CONTINUOUS
 62
         7
100
AcDbCircle
 10
1526.3786999334
 20
77.2274144385
 30
0.0
 40
0.6
100
AcDbArc
 50
0.0
 51
90.0
  0
ARC
  5
CD
100
AcDbEntity
  8
_Y__________
  6
CONTINUOUS
 62
         7
100
AcDbCircle
 10
1536.3220756064
 20
66.1274144385
 30
0.0
 40
0.5
100
AcDbArc
 50
30.0
 51
90.0
  0
LINE
  5
CE
100
AcDbEntity
  8
_Y__________
  6
CONTINUOUS
 62
         7
100
AcDbLine
 10
1533.0023115585
 20
66.3774144385
 30
0.0
 11
1531.3424295346
 21
63.5024144385
 31
0.0
  0
LINE
  5
CF
100
AcDbEntity
  8
_Y__________
  6
CONTINUOUS
 62
         7
100
AcDbLine
 10
1528.4786999334
 20
63.5024144385
 30
0.0
 11
1531.3424295346
 21
63.5024144385
 31
0.0
  0
ARC
  5
D0
100
AcDbEntity
  8
_Y__________
  6
CONTINUOUS
 62
         7
100
AcDbCircle
 10
1533.4353242604
 20
66.1274144385
 30
0.0
 40
0.5
100
AcDbArc
 50
90.0
 51
150.0
  0
LINE
  5
D1
100
AcDbEntity
  8
_Y__________
  6
CONTINUOUS
 62
         7
100
AcDbLine
 10
1533.4353242604
 20
66.6274144385
 30
0.0
 11
1536.3220756064
 21
66.6274144385
 31
0.0
  0
LINE
  5
D2
100
AcDbEntity
  8
_Y__________
  6
CONTINUOUS
 62
         7
100
AcDbLine
 10
1536.7550883083
 20
66.3774144385
 30
0.0
 11
1538.4149703322
 21
63.5024144385
 31
0.0
  0
LINE
  5
D3
100
AcDbEntity
  8
_Y__________
  6
CONTINUOUS
 62
         7
100
AcDbLine
 10
1538.4149703322
 20
161.0024144385
 30
0.0
 11
1541.3786999334
 21
161.0024144385
 31
0.0
  0
ARC
  5
D4
100
AcDbEntity
  8
_Y__________
  6
CONTINUOUS
 62
         7
100
AcDbCircle
 10
1536.3220756064
 20
158.3774144385
 30
0.0
 40
0.5
100
AcDbArc
 50
270.0
 51
330.0
  0
LINE
  5
D5
100
AcDbEntity
  8
_Y__________
  6
CONTINUOUS
 62
         7
100
AcDbLine
 10
1533.0023115585
 20
158.1274144385
 30
0.0
 11
1531.3424295346
 21
161.0024144385
 31
0.0
  0
ARC
  5
D6
100
AcDbEntity
  8
_Y__________
  6
CONTINUOUS
 62
         7
100
AcDbCircle
 10
1526.3786999334
 20
147.2774144385
 30
0.0
 40
0.6
100
AcDbArc
 50
270.0
 51
360.0
  0
LINE
  5
D7
100
AcDbEntity
  8
_Y__________
  6
CONTINUOUS
 62
         7
100
AcDbLine
 10
1525.7251100949
 20
146.6774144385
 30
0.0
 11
1526.3786999334
 21
146.6774144385
 31
0.0
  0
ARC
  5
D8
100
AcDbEntity
  8
_Y__________
  6
CONTINUOUS
 62
         7
100
AcDbCircle
 10
1533.4353242604
 20
158.3774144385
 30
0.0
 40
0.5
100
AcDbArc
 50
210.0
 51
270.0
  0
LINE
  5
D9
100
AcDbEntity
  8
_Y__________
  6
CONTINUOUS
 62
         7
100
AcDbLine
 10
1528.4786999334
 20
161.0024144385
 30
0.0
 11
1531.3424295346
 21
161.0024144385
 31
0.0
  0
LINE
  5
DA
100
AcDbEntity
  8
_Y__________
  6
CONTINUOUS
 62
         7
100
AcDbLine
 10
1533.4353242604
 20
157.8774144385
 30
0.0
 11
1536.3220756064
 21
157.8774144385
 31
0.0
  0
LINE
  5
DB
100
AcDbEntity
  8
_Y__________
  6
CONTINUOUS
 62
         7
100
AcDbLine
 10
1536.7550883083
 20
158.1274144385
 30
0.0
 11
1538.4149703322
 21
161.0024144385
 31
0.0
  0
LINE
  5
DC
100
AcDbEntity
  8
_Y__________
  6
CONTINUOUS
 62
         7
100
AcDbLine
 10
1542.8786999334
 20
159.5024144385
 30
0.0
 11
1542.8786999334
 21
65.0024144385
 31
0.0
  0
LINE
  5
DD
100
AcDbEntity
  8
_Y__________
  6
CONTINUOUS
 62
         7
100
AcDbLine
 10
1430.4480438949
 20
-137.1363580766
 30
0.0
 11
1430.4480438949
 21
-116.3436751498
 31
0.0
  0
LINE
  5
DE
100
AcDbEntity
  8
_Y__________
  6
CONTINUOUS
 62
         7
100
AcDbLine
 10
1428.2615426459
 20
-139.3228593257
 30
0.0
 11
1430.4480438949
 21
-137.1363580766
 31
0.0
  0
ARC
  5
DF
100
AcDbEntity
  8
_Y__________
  6
CONTINUOUS
 62
         7
100
AcDbCircle
 10
1427.9786999334
 20
-139.0400166132
 30
0.0
 40
0.4
100
AcDbArc
 50
270.0
 51
315.0
  0
ARC
  5
E0
100
AcDbEntity
  8
_Y__________
  6
CONTINUOUS
 62
         7
100
AcDbCircle
 10
1423.5286999334
 20
-140.7400166132
 30
0.0
 40
1.5
100
AcDbArc
 50
90.0
 51
154.1580672375
  0
LINE
  5
E1
100
AcDbEntity
  8
_Y__________
  6
CONTINUOUS
 62
         7
100
AcDbLine
 10
1427.1251100949
 20
-139.4400166132
 30
0.0
 11
1426.3786999334
 21
-139.2400166132
 31
0.0
  0
LINE
  5
E2
100
AcDbEntity
  8
_Y__________
  6
CONTINUOUS
 62
         7
100
AcDbLine
 10
1427.1251100949
 20
-139.4400166132
 30
0.0
 11
1427.9786999334
 21
-139.4400166132
 31
0.0
  0
LINE
  5
E3
100
AcDbEntity
  8
_Y__________
  6
CONTINUOUS
 62
         7
100
AcDbLine
 10
1423.5286999334
 20
-139.2400166132
 30
0.0
 11
1426.3786999334
 21
-139.2400166132
 31
0.0
  0
LINE
  5
E4
100
AcDbEntity
  8
_Y__________
  6
CONTINUOUS
 62
         7
100
AcDbLine
 10
1428.2615426459
 20
-114.1571739007
 30
0.0
 11
1430.4480438949
 21
-116.3436751498
 31
0.0
  0
ARC
  5
E5
100
AcDbEntity
  8
_Y__________
  6
CONTINUOUS
 62
         7
100
AcDbCircle
 10
1423.5286999334
 20
-112.7400166132
 30
0.0
 40
1.5
100
AcDbArc
 50
205.8419327625
 51
270.0
  0
LINE
  5
E6
100
AcDbEntity
  8
_Y__________
  6
CONTINUOUS
 62
         7
100
AcDbLine
 10
1427.1251100949
 20
-114.0400166132
 30
0.0
 11
1426.3786999334
 21
-114.2400166132
 31
0.0
  0
ARC
  5
E7
100
AcDbEntity
  8
_Y__________
  6
CONTINUOUS
 62
         7
100
AcDbCircle
 10
1427.9786999334
 20
-114.4400166132
 30
0.0
 40
0.4
100
AcDbArc
 50
45.0
 51
90.0
  0
LINE
  5
E8
100
AcDbEntity
  8
_Y__________
  6
CONTINUOUS
 62
         7
100
AcDbLine
 10
1426.3786999334
 20
-139.2400166132
 30
0.0
 11
1426.3786999334
 21
-114.2400166132
 31
0.0
  0
LINE
  5
E9
100
AcDbEntity
  8
_Y__________
  6
CONTINUOUS
 62
         7
100
AcDbLine
 10
1427.1251100949
 20
-114.0400166132
 30
0.0
 11
1427.9786999334
 21
-114.0400166132
 31
0.0
  0
LINE
  5
EA
100
AcDbEntity
  8
_Y__________
  6
CONTINUOUS
 62
         7
100
AcDbLine
 10
1428.3786999334
 20
-139.2057020382
 30
0.0
 11
1428.3786999334
 21
-114.2743311882
 31
0.0
  0
ARC
  5
EB
100
AcDbEntity
  8
_Y__________
  6
CONTINUOUS
 62
         7
100
AcDbCircle
 10
1536.0334004718
 20
-173.3650166132
 30
0.0
 40
1.0
100
AcDbArc
 50
30.0
 51
90.0
  0
LINE
  5
EC
100
AcDbEntity
  8
_Y__________
  6
CENTER
 62
         1
100
AcDbLine
 10
1422.0286999334
 20
-126.7400166132
 30
0.0
 11
1570.0458002288
 21
-126.7400166132
 31
0.0
  0
LINE
  5
ED
100
AcDbEntity
  8
_Y__________
  6
CONTINUOUS
 62
         7
100
AcDbLine
 10
1523.7786999334
 20
-91.8150166132
 30
0.0
 11
1525.7251100949
 21
-92.3150166132
 31
0.0
  0
LINE
  5
EE
100
AcDbEntity
  8
_Y__________
  6
CONTINUOUS
 62
         7
100
AcDbLine
 10
1523.7786999334
 20
-161.6650166132
 30
0.0
 11
1525.7251100949
 21
-161.1650166132
 31
0.0
  0
LINE
  5
EF
100
AcDbEntity
  8
_Y__________
  6
CONTINUOUS
 62
         5
100
AcDbLine
 10
1428.8443853584
 20
-114.7400166132
 30
0.0
 11
1466.6786999334
 21
-114.7400166132
 31
0.0
  0
LINE
  5
F0
100
AcDbEntity
  8
_Y__________
  6
CONTINUOUS
 62
         7
100
AcDbLine
 10
1430.4480438949
 20
-116.3436751498
 30
0.0
 11
1466.6786999334
 21
-116.3436751498
 31
0.0
  0
LINE
  5
F1
100
AcDbEntity
  8
_Y__________
  6
CONTINUOUS
 62
         7
100
AcDbLine
 10
1523.7786999334
 20
-91.8150166132
 30
0.0
 11
1424.1679293748
 21
-106.3417240875
 31
0.0
  0
LINE
  5
F2
100
AcDbEntity
  8
_Y__________
  6
CONTINUOUS
 62
         5
100
AcDbLine
 10
1428.8443853584
 20
-138.7400166132
 30
0.0
 11
1466.6786999334
 21
-138.7400166132
 31
0.0
  0
LINE
  5
F3
100
AcDbEntity
  8
_Y__________
  6
CONTINUOUS
 62
         7
100
AcDbLine
 10
1430.4480438949
 20
-137.1363580766
 30
0.0
 11
1466.6786999334
 21
-137.1363580766
 31
0.0
  0
LINE
  5
F4
100
AcDbEntity
  8
_Y__________
  6
CONTINUOUS
 62
         7
100
AcDbLine
 10
1523.7786999334
 20
-161.6650166132
 30
0.0
 11
1424.1679293748
 21
-147.1383091389
 31
0.0
  0
LINE
  5
F5
100
AcDbEntity
  8
_Y__________
  6
CONTINUOUS
 62
         7
100
AcDbLine
 10
1423.5286999334
 20
-114.2400166132
 30
0.0
 11
1426.3786999334
 21
-114.2400166132
 31
0.0
  0
LINE
  5
F6
100
AcDbEntity
  8
_Y__________
  6
CONTINUOUS
 62
         7
100
AcDbLine
 10
1466.6786999334
 20
-114.7400166132
 30
0.0
 11
1466.6786999334
 21
-138.7400166132
 31
0.0
  0
LINE
  5
F7
100
AcDbEntity
  8
_Y__________
  6
CONTINUOUS
 62
         7
100
AcDbLine
 10
1538.4149703322
 20
-175.4900166132
 30
0.0
 11
1541.3786999334
 21
-175.4900166132
 31
0.0
  0
ARC
  5
F8
100
AcDbEntity
  8
_Y__________
  6
CONTINUOUS
 62
         7
100
AcDbCircle
 10
1526.3786999334
 20
-161.7650166132
 30
0.0
 40
0.6
100
AcDbArc
 50
0.0
 51
90.0
  0
LINE
  5
F9
100
AcDbEntity
  8
_Y__________
  6
CONTINUOUS
 62
         7
100
AcDbLine
 10
1525.7251100949
 20
-161.1650166132
 30
0.0
 11
1526.3786999334
 21
-161.1650166132
 31
0.0
  0
ARC
  5
FA
100
AcDbEntity
  8
_Y__________
  6
CONTINUOUS
 62
         7
100
AcDbCircle
 10
1533.4353242604
 20
-172.8650166132
 30
0.0
 40
0.5
100
AcDbArc
 50
90.0
 51
150.0
  0
LINE
  5
FB
100
AcDbEntity
  8
_Y__________
  6
CONTINUOUS
 62
         7
100
AcDbLine
 10
1533.0023115585
 20
-172.6150166132
 30
0.0
 11
1531.3424295346
 21
-175.4900166132
 31
0.0
  0
LINE
  5
FC
100
AcDbEntity
  8
_Y__________
  6
CONTINUOUS
 62
         7
100
AcDbLine
 10
1528.4786999334
 20
-175.4900166132
 30
0.0
 11
1531.3424295346
 21
-175.4900166132
 31
0.0
  0
LINE
  5
FD
100
AcDbEntity
  8
_Y__________
  6
CONTINUOUS
 62
         7
100
AcDbLine
 10
1533.4353242604
 20
-172.3650166132
 30
0.0
 11
1536.0334004718
 21
-172.3650166132
 31
0.0
  0
LINE
  5
FE
100
AcDbEntity
  8
_Y__________
  6
CONTINUOUS
 62
         7
100
AcDbLine
 10
1526.9786999334
 20
-161.7650166132
 30
0.0
 11
1526.9786999334
 21
-173.9900166132
 31
0.0
  0
LINE
  5
FF
100
AcDbEntity
  8
_Y__________
  6
CONTINUOUS
 62
         7
100
AcDbLine
 10
1536.8994258756
 20
-172.8650166132
 30
0.0
 11
1538.4149703322
 21
-175.4900166132
 31
0.0
  0
LINE
  5
100
100
AcDbEntity
  8
_Y__________
  6
CONTINUOUS
 62
         7
100
AcDbLine
 10
1538.4149703322
 20
-77.9900166132
 30
0.0
 11
1541.3786999334
 21
-77.9900166132
 31
0.0
  0
LINE
  5
101
100
AcDbEntity
  8
_Y__________
  6
CONTINUOUS
 62
         7
100
AcDbLine
 10
1533.0023115585
 20
-80.8650166132
 30
0.0
 11
1531.3424295346
 21
-77.9900166132
 31
0.0
  0
ARC
  5
102
100
AcDbEntity
  8
_Y__________
  6
CONTINUOUS
 62
         7
100
AcDbCircle
 10
1536.3220756064
 20
-80.6150166132
 30
0.0
 40
0.5
100
AcDbArc
 50
270.0
 51
330.0
  0
ARC
  5
103
100
AcDbEntity
  8
_Y__________
  6
CONTINUOUS
 62
         7
100
AcDbCircle
 10
1533.4353242604
 20
-80.6150166132
 30
0.0
 40
0.5
100
AcDbArc
 50
210.0
 51
270.0
  0
ARC
  5
104
100
AcDbEntity
  8
_Y__________
  6
CONTINUOUS
 62
         7
100
AcDbCircle
 10
1526.3786999334
 20
-91.7150166132
 30
0.0
 40
0.6
100
AcDbArc
 50
270.0
 51
360.0
  0
LINE
  5
105
100
AcDbEntity
  8
_Y__________
  6
CONTINUOUS
 62
         7
100
AcDbLine
 10
1525.7251100949
 20
-92.3150166132
 30
0.0
 11
1526.3786999334
 21
-92.3150166132
 31
0.0
  0
LINE
  5
106
100
AcDbEntity
  8
_Y__________
  6
CONTINUOUS
 62
         7
100
AcDbLine
 10
1526.9786999334
 20
-79.4900166132
 30
0.0
 11
1526.9786999334
 21
-91.7150166132
 31
0.0
  0
LINE
  5
107
100
AcDbEntity
  8
_Y__________
  6
CONTINUOUS
 62
         7
100
AcDbLine
 10
1533.4353242604
 20
-81.1150166132
 30
0.0
 11
1536.3220756064
 21
-81.1150166132
 31
0.0
  0
LINE
  5
108
100
AcDbEntity
  8
_Y__________
  6
CONTINUOUS
 62
         7
100
AcDbLine
 10
1528.4786999334
 20
-77.9900166132
 30
0.0
 11
1531.3424295346
 21
-77.9900166132
 31
0.0
  0
LINE
  5
109
100
AcDbEntity
  8
_Y__________
  6
CONTINUOUS
 62
         7
100
AcDbLine
 10
1536.7550883083
 20
-80.8650166132
 30
0.0
 11
1538.4149703322
 21
-77.9900166132
 31
0.0
  0
LINE
  5
10A
100
AcDbEntity
  8
_Y__________
  6
CONTINUOUS
 62
         7
100
AcDbLine
 10
1533.4353242604
 20
-81.1150166132
 30
0.0
 11
1536.3220756064
 21
-81.1150166132
 31
0.0
  0
LINE
  5
10B
100
AcDbEntity
  8
_Y__________
  6
CONTINUOUS
 62
         7
100
AcDbLine
 10
1526.9786999334
 20
-79.4900166132
 30
0.0
 11
1526.9786999334
 21
-91.7150166132
 31
0.0
  0
LINE
  5
10C
100
AcDbEntity
  8
_Y__________
  6
CONTINUOUS
 62
         7
100
AcDbLine
 10
1525.7251100949
 20
-92.3150166132
 30
0.0
 11
1526.3786999334
 21
-92.3150166132
 31
0.0
  0
ARC
  5
10D
100
AcDbEntity
  8
_Y__________
  6
CONTINUOUS
 62
         7
100
AcDbCircle
 10
1526.3786999334
 20
-91.7150166132
 30
0.0
 40
0.6
100
AcDbArc
 50
270.0
 51
360.0
  0
ARC
  5
10E
100
AcDbEntity
  8
_Y__________
  6
CONTINUOUS
 62
         7
100
AcDbCircle
 10
1533.4353242604
 20
-80.6150166132
 30
0.0
 40
0.5
100
AcDbArc
 50
210.0
 51
270.0
  0
ARC
  5
10F
100
AcDbEntity
  8
_Y__________
  6
CONTINUOUS
 62
         7
100
AcDbCircle
 10
1536.3220756064
 20
-80.6150166132
 30
0.0
 40
0.5
100
AcDbArc
 50
270.0
 51
330.0
  0
LINE
  5
110
100
AcDbEntity
  8
_Y__________
  6
CONTINUOUS
 62
         7
100
AcDbLine
 10
1523.7786999334
 20
-91.8150166132
 30
0.0
 11
1525.7251100949
 21
-92.3150166132
 31
0.0
  0
LINE
  5
111
100
AcDbEntity
  8
_Y__________
  6
CONTINUOUS
 62
         7
100
AcDbLine
 10
1422.1786999334
 20
130.1987502026
 30
0.0
 11
1422.1786999334
 21
94.3060786745
 31
0.0
  0
ARC
  5
112
100
AcDbEntity
  8
_Y__________
  6
CONTINUOUS
 62
         7
100
AcDbCircle
 10
1424.6786999334
 20
130.1987502026
 30
0.0
 40
2.5
100
AcDbArc
 50
98.297222
 51
180.0
  0
ARC
  5
113
100
AcDbEntity
  8
_Y__________
  6
CONTINUOUS
 62
         7
100
AcDbCircle
 10
1424.6786999334
 20
94.3060786745
 30
0.0
 40
2.5
100
AcDbArc
 50
180.0
 51
261.702778
  0
ARC
  5
114
100
AcDbEntity
  8
_Y__________
  6
CONTINUOUS
 62
         7
100
AcDbCircle
 10
1424.6786999334
 20
-108.7936808492
 30
0.0
 40
2.5
100
AcDbArc
 50
98.297222
 51
180.0
  0
LINE
  5
115
100
AcDbEntity
  8
_Y__________
  6
CONTINUOUS
 62
         7
100
AcDbLine
 10
1422.1786999334
 20
-108.7936808492
 30
0.0
 11
1422.1786999334
 21
-144.6863523772
 31
0.0
  0
ARC
  5
116
100
AcDbEntity
  8
_Y__________
  6
CONTINUOUS
 62
         7
100
AcDbCircle
 10
1424.6786999334
 20
-144.6863523772
 30
0.0
 40
2.5
100
AcDbArc
 50
180.0
 51
261.702778
  0
LINE
  5
117
100
AcDbEntity
  8
_Y__________
  6
CONTINUOUS
 62
         3
100
AcDbLine
 10
1558.3306999334
 20
77.3274144385
 30
0.0
 11
1557.3306999334
 21
77.3274144385
 31
0.0
  0
ARC
  5
118
100
AcDbEntity
  8
_Y__________
  6
CONTINUOUS
 62
         3
100
AcDbCircle
 10
1558.3306999334
 20
76.8274144385
 30
0.0
 40
0.5
100
AcDbArc
 50
0.0
 51
90.0
  0
LINE
  5
119
100
AcDbEntity
  8
_Y__________
  6
CONTINUOUS
 62
         7
100
AcDbLine
 10
1543.3786999334
 20
-161.6650166132
 30
0.0
 11
1558.0306999334
 21
-161.6650166132
 31
0.0
  0
LINE
  5
11A
100
AcDbEntity
  8
_Y__________
  6
CONTINUOUS
 62
         7
100
AcDbLine
 10
1543.3786999334
 20
-91.8150166132
 30
0.0
 11
1558.0306999334
 21
-91.8150166132
 31
0.0
  0
LINE
  5
11B
100
AcDbEntity
  8
_Y__________
  6
CONTINUOUS
 62
         7
100
AcDbLine
 10
1526.9786999334
 20
-172.9900166132
 30
0.0
 11
1526.9786999334
 21
-173.9900166132
 31
0.0
  0
LINE
  5
11C
100
AcDbEntity
  8
_Y__________
  6
CONTINUOUS
 62
         7
100
AcDbLine
 10
1542.8786999334
 20
-162.1650166132
 30
0.0
 11
1542.8786999334
 21
-173.9900166132
 31
0.0
  0
ARC
  5
11D
100
AcDbEntity
  8
_Y__________
  6
CONTINUOUS
 62
         7
100
AcDbCircle
 10
1528.4786999334
 20
-173.9900166132
 30
0.0
 40
1.5
100
AcDbArc
 50
180.0
 51
270.0
  0
ARC
  5
11E
100
AcDbEntity
  8
_Y__________
  6
CONTINUOUS
 62
         7
100
AcDbCircle
 10
1541.3786999334
 20
-173.9900166132
 30
0.0
 40
1.5
100
AcDbArc
 50
270.0
 51
360.0
  0
ARC
  5
11F
100
AcDbEntity
  8
_Y__________
  6
CONTINUOUS
 62
         7
100
AcDbCircle
 10
1528.4786999334
 20
-79.4900166132
 30
0.0
 40
1.5
100
AcDbArc
 50
90.0
 51
180.0
  0
ARC
  5
120
100
AcDbEntity
  8
_Y__________
  6
CONTINUOUS
 62
         7
100
AcDbCircle
 10
1541.3786999334
 20
-79.4900166132
 30
0.0
 40
1.5
100
AcDbArc
 50
0.0
 51
90.0
  0
LINE
  5
121
100
AcDbEntity
  8
_Y__________
  6
CONTINUOUS
 62
         7
100
AcDbLine
 10
1540.3786999334
 20
-175.4900166132
 30
0.0
 11
1541.3786999334
 21
-175.4900166132
 31
0.0
  0
LINE
  5
122
100
AcDbEntity
  8
_Y__________
  6
CONTINUOUS
 62
         7
100
AcDbLine
 10
1528.4786999334
 20
-175.4900166132
 30
0.0
 11
1529.4786999334
 21
-175.4900166132
 31
0.0
  0
LINE
  5
123
100
AcDbEntity
  8
_Y__________
  6
CONTINUOUS
 62
         7
100
AcDbLine
 10
1542.8786999334
 20
-79.4900166132
 30
0.0
 11
1542.8786999334
 21
-91.3150166132
 31
0.0
  0
LINE
  5
124
100
AcDbEntity
  8
_Y__________
  6
CONTINUOUS
 62
         7
100
AcDbLine
 10
1540.3786999334
 20
-77.9900166132
 30
0.0
 11
1541.3786999334
 21
-77.9900166132
 31
0.0
  0
LINE
  5
125
100
AcDbEntity
  8
_Y__________
  6
CONTINUOUS
 62
         7
100
AcDbLine
 10
1528.4786999334
 20
-77.9900166132
 30
0.0
 11
1529.4786999334
 21
-77.9900166132
 31
0.0
  0
LINE
  5
126
100
AcDbEntity
  8
_Y__________
  6
CONTINUOUS
 62
         7
100
AcDbLine
 10
1526.9786999334
 20
-79.4900166132
 30
0.0
 11
1526.9786999334
 21
-80.4900166132
 31
0.0
  0
ARC
  5
127
100
AcDbEntity
  8
_Y__________
  6
CONTINUOUS
 62
         7
100
AcDbCircle
 10
1543.3786999334
 20
-91.3150166132
 30
0.0
 40
0.5
100
AcDbArc
 50
180.0
 51
270.0
  0
ARC
  5
128
100
AcDbEntity
  8
_Y__________
  6
CONTINUOUS
 62
         7
100
AcDbCircle
 10
1543.3786999334
 20
-162.1650166132
 30
0.0
 40
0.5
100
AcDbArc
 50
90.0
 51
180.0
  0
ARC
  5
129
100
AcDbEntity
  8
_Y__________
  6
CONTINUOUS
 62
         7
100
AcDbCircle
 10
1543.3786999334
 20
76.8274144385
 30
0.0
 40
0.5
100
AcDbArc
 50
90.0
 51
180.0
  0
LINE
  5
12A
100
AcDbEntity
  8
_Y__________
  6
CONTINUOUS
 62
         7
100
AcDbLine
 10
1543.3786999334
 20
77.3274144385
 30
0.0
 11
1558.0306999334
 21
77.3274144385
 31
0.0
  0
LINE
  5
12B
100
AcDbEntity
  8
_Y__________
  6
CONTINUOUS
 62
         7
100
AcDbLine
 10
1543.3786999334
 20
147.1774144385
 30
0.0
 11
1558.0306999334
 21
147.1774144385
 31
0.0
  0
ARC
  5
12C
100
AcDbEntity
  8
_Y__________
  6
CONTINUOUS
 62
         7
100
AcDbCircle
 10
1543.3786999334
 20
147.6774144385
 30
0.0
 40
0.5
100
AcDbArc
 50
180.0
 51
270.0
  0
LINE
  5
12D
100
AcDbEntity
  8
_Y__________
  6
CONTINUOUS
 62
         7
100
AcDbLine
 10
1526.9786999334
 20
159.5024144385
 30
0.0
 11
1526.9786999334
 21
158.5024144385
 31
0.0
  0
LINE
  5
12E
100
AcDbEntity
  8
_Y__________
  6
CONTINUOUS
 62
         7
100
AcDbLine
 10
1528.4786999334
 20
161.0024144385
 30
0.0
 11
1529.4786999334
 21
161.0024144385
 31
0.0
  0
LINE
  5
12F
100
AcDbEntity
  8
_Y__________
  6
CONTINUOUS
 62
         7
100
AcDbLine
 10
1540.3786999334
 20
161.0024144385
 30
0.0
 11
1541.3786999334
 21
161.0024144385
 31
0.0
  0
LINE
  5
130
100
AcDbEntity
  8
_Y__________
  6
CONTINUOUS
 62
         7
100
AcDbLine
 10
1542.8786999334
 20
159.5024144385
 30
0.0
 11
1542.8786999334
 21
147.6774144385
 31
0.0
  0
LINE
  5
131
100
AcDbEntity
  8
_Y__________
  6
CONTINUOUS
 62
         7
100
AcDbLine
 10
1528.4786999334
 20
63.5024144385
 30
0.0
 11
1529.4786999334
 21
63.5024144385
 31
0.0
  0
LINE
  5
132
100
AcDbEntity
  8
_Y__________
  6
CONTINUOUS
 62
         7
100
AcDbLine
 10
1540.3786999334
 20
63.5024144385
 30
0.0
 11
1541.3786999334
 21
63.5024144385
 31
0.0
  0
ARC
  5
133
100
AcDbEntity
  8
_Y__________
  6
CONTINUOUS
 62
         7
100
AcDbCircle
 10
1528.4786999334
 20
159.5024144385
 30
0.0
 40
1.5
100
AcDbArc
 50
90.0
 51
180.0
  0
ARC
  5
134
100
AcDbEntity
  8
_Y__________
  6
CONTINUOUS
 62
         7
100
AcDbCircle
 10
1541.3786999334
 20
65.0024144385
 30
0.0
 40
1.5
100
AcDbArc
 50
270.0
 51
360.0
  0
ARC
  5
135
100
AcDbEntity
  8
_Y__________
  6
CONTINUOUS
 62
         7
100
AcDbCircle
 10
1528.4786999334
 20
65.0024144385
 30
0.0
 40
1.5
100
AcDbArc
 50
180.0
 51
270.0
  0
LINE
  5
136
100
AcDbEntity
  8
_Y__________
  6
CONTINUOUS
 62
         7
100
AcDbLine
 10
1542.8786999334
 20
76.8274144385
 30
0.0
 11
1542.8786999334
 21
65.0024144385
 31
0.0
  0
LINE
  5
137
100
AcDbEntity
  8
_Y__________
  6
CONTINUOUS
 62
         7
100
AcDbLine
 10
1526.9786999334
 20
66.0024144385
 30
0.0
 11
1526.9786999334
 21
65.0024144385
 31
0.0
  0
LINE
  5
138
100
AcDbEntity
  8
_Y__________
  6
CONTINUOUS
 62
         7
100
AcDbLine
 10
1558.8306999334
 20
146.3774144385
 30
0.0
 11
1558.8306999334
 21
78.1274144385
 31
0.0
  0
ARC
  5
139
100
AcDbEntity
  8
_Y__________
  6
CONTINUOUS
 62
         7
100
AcDbCircle
 10
1558.0306999334
 20
146.3774144385
 30
0.0
 40
0.8
100
AcDbArc
 50
0.0
 51
90.0000000003
  0
ARC
  5
13A
100
AcDbEntity
  8
_Y__________
  6
CONTINUOUS
 62
         7
100
AcDbCircle
 10
1558.0306999334
 20
78.1274144385
 30
0.0
 40
0.8
100
AcDbArc
 50
269.9999999999
 51
360.0
  0
LINE
  5
13B
100
AcDbEntity
  8
_Y__________
  6
CONTINUOUS
 62
         7
100
AcDbLine
 10
1558.0306999334
 20
147.1774144385
 30
0.0
 11
1557.0306999334
 21
147.1774144385
 31
0.0
  0
LINE
  5
13C
100
AcDbEntity
  8
_Y__________
  6
CONTINUOUS
 62
         7
100
AcDbLine
 10
1558.0306999334
 20
77.3274144385
 30
0.0
 11
1557.0306999334
 21
77.3274144385
 31
0.0
  0
LINE
  5
13D
100
AcDbEntity
  8
_Y__________
  6
CONTINUOUS
 62
         7
100
AcDbLine
 10
1558.8306999334
 20
-159.8650166132
 30
0.0
 11
1558.8306999334
 21
-160.8650166132
 31
0.0
  0
ARC
  5
13E
100
AcDbEntity
  8
_Y__________
  6
CONTINUOUS
 62
         7
100
AcDbCircle
 10
1558.0306999334
 20
-160.8650166132
 30
0.0
 40
0.8
100
AcDbArc
 50
269.9999999999
 51
360.0
  0
ARC
  5
13F
100
AcDbEntity
  8
_Y__________
  6
CONTINUOUS
 62
         7
100
AcDbCircle
 10
1558.0306999334
 20
-92.6150166132
 30
0.0
 40
0.8
100
AcDbArc
 50
0.0
 51
90.0000000003
  0
LINE
  5
140
100
AcDbEntity
  8
_Y__________
  6
CONTINUOUS
 62
         7
100
AcDbLine
 10
1558.8306999334
 20
-92.6150166132
 30
0.0
 11
1558.8306999334
 21
-93.6150166132
 31
0.0
  0
LINE
  5
141
100
AcDbEntity
  8
_Y__________
  6
CONTINUOUS
 62
         7
100
AcDbLine
 10
1558.0306999334
 20
-91.8150166132
 30
0.0
 11
1557.0306999334
 21
-91.8150166132
 31
0.0
  0
LINE
  5
142
100
AcDbEntity
  8
_Y__________
  6
CONTINUOUS
 62
         7
100
AcDbLine
 10
1558.0306999334
 20
-161.6650166132
 30
0.0
 11
1557.0306999334
 21
-161.6650166132
 31
0.0
  0
CIRCLE
  5
143
100
AcDbEntity
  8
_Y__________
  6
CONTINUOUS
 62
         7
100
AcDbCircle
 10
1534.8786999334
 20
112.2562679634
 30
0.0
 40
4.76
  0
LINE
  5
144
100
AcDbEntity
  8
_Y__________
  6
DASHED
 62
         2
100
AcDbLine
 10
1808.6340594905
 20
117.2524144385
 30
0.0
 11
1821.8480594905
 21
117.2524144385
 31
0.0
  0
LINE
  5
145
100
AcDbEntity
  8
_Y__________
  6
DASHED
 62
         2
100
AcDbLine
 10
1808.6340594905
 20
107.2524144385
 30
0.0
 11
1821.8480594905
 21
107.2524144385
 31
0.0
  0
LINE
  5
146
100
AcDbEntity
  8
_Y__________
  6
DASHED
 62
         2
100
AcDbLine
 10
1821.8480594905
 20
117.2524144385
 30
0.0
 11
1821.8480594905
 21
107.2524144385
 31
0.0
  0
LINE
  5
147
100
AcDbEntity
  8
_Y__________
  6
DASHED
 62
         2
100
AcDbLine
 10
1824.7348108365
 20
112.2524144385
 30
0.0
 11
1821.8480594905
 21
107.2524144385
 31
0.0
  0
LINE
  5
148
100
AcDbEntity
  8
_Y__________
  6
DASHED
 62
         2
100
AcDbLine
 10
1821.8480594905
 20
117.2524144385
 30
0.0
 11
1824.7348108365
 21
112.2524144385
 31
0.0
  0
LINE
  5
149
100
AcDbEntity
  8
_Y__________
  6
DASHED
 62
         2
100
AcDbLine
 10
1808.6340594905
 20
107.2524144385
 30
0.0
 11
1808.1340594905
 21
106.7524144385
 31
0.0
  0
LINE
  5
14A
100
AcDbEntity
  8
_Y__________
  6
DASHED
 62
         2
100
AcDbLine
 10
1808.6340594905
 20
117.2524144385
 30
0.0
 11
1808.1340594905
 21
117.7524144385
 31
0.0
  0
LINE
  5
14B
100
AcDbEntity
  8
_Y__________
  6
DASHED
 62
         2
100
AcDbLine
 10
1808.6340594905
 20
117.2524144385
 30
0.0
 11
1808.6340594905
 21
107.2524144385
 31
0.0
  0
LINE
  5
14C
100
AcDbEntity
  8
_Y__________
  6
CONTINUOUS
 62
         7
100
AcDbLine
 10
1542.8786999334
 20
98.4024144385
 30
0.0
 11
1538.4149703322
 21
98.4024144385
 31
0.0
  0
LINE
  5
14D
100
AcDbEntity
  8
_Y__________
  6
CONTINUOUS
 62
         7
100
AcDbLine
 10
1531.3424295346
 20
98.4024144385
 30
0.0
 11
1526.9786999334
 21
98.4024144385
 31
0.0
  0
LINE
  5
14E
100
AcDbEntity
  8
_Y__________
  6
CONTINUOUS
 62
         7
100
AcDbLine
 10
1526.9786999334
 20
98.4024144385
 30
0.0
 11
1527.9987940983
 21
99.4225086035
 31
0.0
  0
LINE
  5
14F
100
AcDbEntity
  8
_Y__________
  6
CONTINUOUS
 62
         7
100
AcDbLine
 10
1531.3424295346
 20
98.4024144385
 30
0.0
 11
1533.0036999334
 21
99.4225086035
 31
0.0
  0
LINE
  5
150
100
AcDbEntity
  8
_Y__________
  6
CONTINUOUS
 62
         7
100
AcDbLine
 10
1541.7586057685
 20
99.4225086035
 30
0.0
 11
1527.9987940983
 21
99.4225086035
 31
0.0
  0
LINE
  5
151
100
AcDbEntity
  8
_Y__________
  6
CONTINUOUS
 62
         7
100
AcDbLine
 10
1541.7586057685
 20
99.4225086035
 30
0.0
 11
1527.9987940983
 21
99.4225086035
 31
0.0
  0
LINE
  5
152
100
AcDbEntity
  8
_Y__________
  6
CONTINUOUS
 62
         7
100
AcDbLine
 10
1536.7536999334
 20
99.4225086035
 30
0.0
 11
1538.4149703322
 21
98.4024144385
 31
0.0
  0
LINE
  5
153
100
AcDbEntity
  8
_Y__________
  6
CONTINUOUS
 62
         7
100
AcDbLine
 10
1542.7786999334
 20
98.4024144385
 30
0.0
 11
1541.7586057685
 21
99.4225086035
 31
0.0
  0
LINE
  5
154
100
AcDbEntity
  8
_Y__________
  6
CONTINUOUS
 62
         7
100
AcDbLine
 10
1538.4149703322
 20
98.4024144385
 30
0.0
 11
1538.4149703322
 21
63.5024144385
 31
0.0
  0
LINE
  5
155
100
AcDbEntity
  8
_Y__________
  6
CONTINUOUS
 62
         7
100
AcDbLine
 10
1536.7536999334
 20
99.4225086035
 30
0.0
 11
1536.7536999334
 21
66.3798039001
 31
0.0
  0
LINE
  5
156
100
AcDbEntity
  8
_Y__________
  6
CONTINUOUS
 62
         7
100
AcDbLine
 10
1533.0036999334
 20
99.4225086035
 30
0.0
 11
1533.0036999334
 21
66.3798039001
 31
0.0
  0
LINE
  5
157
100
AcDbEntity
  8
_Y__________
  6
CONTINUOUS
 62
         7
100
AcDbLine
 10
1531.3424295346
 20
98.4024144385
 30
0.0
 11
1531.3424295346
 21
63.5024144385
 31
0.0
  0
LINE
  5
158
100
AcDbEntity
  8
_Y__________
  6
CONTINUOUS
 62
         7
100
AcDbLine
 10
1542.8786999334
 20
126.1024144385
 30
0.0
 11
1538.4149703322
 21
126.1024144385
 31
0.0
  0
LINE
  5
159
100
AcDbEntity
  8
_Y__________
  6
CONTINUOUS
 62
         7
100
AcDbLine
 10
1531.3424295346
 20
126.1024144385
 30
0.0
 11
1533.0036999334
 21
125.0823202736
 31
0.0
  0
LINE
  5
15A
100
AcDbEntity
  8
_Y__________
  6
CONTINUOUS
 62
         7
100
AcDbLine
 10
1526.9786999334
 20
126.1024144385
 30
0.0
 11
1527.9987940983
 21
125.0823202736
 31
0.0
  0
LINE
  5
15B
100
AcDbEntity
  8
_Y__________
  6
CONTINUOUS
 62
         7
100
AcDbLine
 10
1531.3424295346
 20
126.1024144385
 30
0.0
 11
1526.9786999334
 21
126.1024144385
 31
0.0
  0
LINE
  5
15C
100
AcDbEntity
  8
_Y__________
  6
CONTINUOUS
 62
         7
100
AcDbLine
 10
1541.7586057685
 20
125.0823202736
 30
0.0
 11
1527.9987940983
 21
125.0823202736
 31
0.0
  0
LINE
  5
15D
100
AcDbEntity
  8
_Y__________
  6
CONTINUOUS
 62
         7
100
AcDbLine
 10
1541.7586057685
 20
125.0823202736
 30
0.0
 11
1527.9987940983
 21
125.0823202736
 31
0.0
  0
LINE
  5
15E
100
AcDbEntity
  8
_Y__________
  6
CONTINUOUS
 62
         7
100
AcDbLine
 10
1536.7536999334
 20
125.0823202736
 30
0.0
 11
1538.4149703322
 21
126.1024144385
 31
0.0
  0
LINE
  5
15F
100
AcDbEntity
  8
_Y__________
  6
CONTINUOUS
 62
         7
100
AcDbLine
 10
1542.7786999334
 20
126.1024144385
 30
0.0
 11
1541.7586057685
 21
125.0823202736
 31
0.0
  0
LINE
  5
160
100
AcDbEntity
  8
_Y__________
  6
CONTINUOUS
 62
         7
100
AcDbLine
 10
1538.4149703322
 20
161.0024144385
 30
0.0
 11
1538.4149703322
 21
126.1024144385
 31
0.0
  0
LINE
  5
161
100
AcDbEntity
  8
_Y__________
  6
CONTINUOUS
 62
         7
100
AcDbLine
 10
1536.7536999334
 20
158.125024977
 30
0.0
 11
1536.7536999334
 21
125.0823202736
 31
0.0
  0
LINE
  5
162
100
AcDbEntity
  8
_Y__________
  6
CONTINUOUS
 62
         7
100
AcDbLine
 10
1533.0036999334
 20
158.125024977
 30
0.0
 11
1533.0036999334
 21
125.0823202736
 31
0.0
  0
LINE
  5
163
100
AcDbEntity
  8
_Y__________
  6
CONTINUOUS
 62
         7
100
AcDbLine
 10
1531.3424295346
 20
161.0024144385
 30
0.0
 11
1531.3424295346
 21
126.1024144385
 31
0.0
  0
ARC
  5
164
100
AcDbEntity
  8
_Y__________
  6
DASHED
 62
         2
100
AcDbCircle
 10
1845.8340594905
 20
112.2524144385
 30
0.0
 40
45.625
100
AcDbArc
 50
197.6716498685
 51
343.6416615206
  0
ARC
  5
165
100
AcDbEntity
  8
_Y__________
  6
CONTINUOUS
 62
         7
100
AcDbCircle
 10
1845.8340594905
 20
112.2524144385
 30
0.0
 40
48.75
100
AcDbArc
 50
16.5052120024
 51
163.4947879976
  0
ARC
  5
166
100
AcDbEntity
  8
_Y__________
  6
DASHED
 62
         2
100
AcDbCircle
 10
1845.8340594905
 20
112.2524144385
 30
0.0
 40
45.625
100
AcDbArc
 50
16.3583384794
 51
163.6416615206
  0
ARC
  5
167
100
AcDbEntity
  8
_Y__________
  6
CONTINUOUS
 62
         7
100
AcDbCircle
 10
1845.8340594905
 20
112.2524144385
 30
0.0
 40
48.75
100
AcDbArc
 50
196.5052120024
 51
343.4947879976
  0
LINE
  5
168
100
AcDbEntity
  8
_Y__________
  6
CENTER
 62
         1
100
AcDbLine
 10
1791.0840594905
 20
112.2524144385
 30
0.0
 11
1900.5840594905
 21
112.2524144385
 31
0.0
  0
LINE
  5
169
100
AcDbEntity
  8
_Y__________
  6
CENTER
 62
         1
100
AcDbLine
 10
1845.8340594905
 20
57.5024144385
 30
0.0
 11
1845.8340594905
 21
164.4170373134
 31
0.0
  0
LINE
  5
16A
100
AcDbEntity
  8
_Y__________
  6
CONTINUOUS
 62
         7
100
AcDbLine
 10
1881.3340594905
 20
124.6024144385
 30
0.0
 11
1881.3340594905
 21
99.9024144385
 31
0.0
  0
LINE
  5
16B
100
AcDbEntity
  8
_Y__________
  6
CONTINUOUS
 62
         7
100
AcDbLine
 10
1891.5752618713
 20
125.1024144385
 30
0.0
 11
1881.8340594905
 21
125.1024144385
 31
0.0
  0
LINE
  5
16C
100
AcDbEntity
  8
_Y__________
  6
CONTINUOUS
 62
         7
100
AcDbLine
 10
1892.5752618713
 20
126.1024144385
 30
0.0
 11
1891.5752618713
 21
125.1024144385
 31
0.0
  0
LINE
  5
16D
100
AcDbEntity
  8
_Y__________
  6
CONTINUOUS
 62
         7
100
AcDbLine
 10
1892.5752618713
 20
98.4024144385
 30
0.0
 11
1891.5752618713
 21
99.4024144385
 31
0.0
  0
LINE
  5
16E
100
AcDbEntity
  8
_Y__________
  6
CONTINUOUS
 62
         7
100
AcDbLine
 10
1891.5752618713
 20
99.4024144385
 30
0.0
 11
1881.8340594905
 21
99.4024144385
 31
0.0
  0
LINE
  5
16F
100
AcDbEntity
  8
_Y__________
  6
CONTINUOUS
 62
         7
100
AcDbLine
 10
1881.3340594905
 20
124.6024144385
 30
0.0
 11
1881.8340594905
 21
125.1024144385
 31
0.0
  0
LINE
  5
170
100
AcDbEntity
  8
_Y__________
  6
CONTINUOUS
 62
         7
100
AcDbLine
 10
1881.3340594905
 20
99.9024144385
 30
0.0
 11
1881.8340594905
 21
99.4024144385
 31
0.0
  0
LINE
  5
171
100
AcDbEntity
  8
_Y__________
  6
CONTINUOUS
 62
         7
100
AcDbLine
 10
1808.1340594905
 20
99.9024144385
 30
0.0
 11
1807.6340594905
 21
99.4024144385
 31
0.0
  0
LINE
  5
172
100
AcDbEntity
  8
_Y__________
  6
CONTINUOUS
 62
         7
100
AcDbLine
 10
1807.6340594905
 20
125.1024144385
 30
0.0
 11
1808.1340594905
 21
124.6024144385
 31
0.0
  0
LINE
  5
173
100
AcDbEntity
  8
_Y__________
  6
CONTINUOUS
 62
         7
100
AcDbLine
 10
1808.1340594905
 20
124.6024144385
 30
0.0
 11
1808.1340594905
 21
99.9024144385
 31
0.0
  0
LINE
  5
174
100
AcDbEntity
  8
_Y__________
  6
CONTINUOUS
 62
         7
100
AcDbLine
 10
1799.0928571098
 20
126.1024144385
 30
0.0
 11
1800.0928571098
 21
125.1024144385
 31
0.0
  0
LINE
  5
175
100
AcDbEntity
  8
_Y__________
  6
CONTINUOUS
 62
         7
100
AcDbLine
 10
1800.0928571098
 20
125.1024144385
 30
0.0
 11
1807.6340594905
 21
125.1024144385
 31
0.0
  0
LINE
  5
176
100
AcDbEntity
  8
_Y__________
  6
CONTINUOUS
 62
         7
100
AcDbLine
 10
1799.0928571098
 20
98.4024144385
 30
0.0
 11
1800.0928571098
 21
99.4024144385
 31
0.0
  0
LINE
  5
177
100
AcDbEntity
  8
_Y__________
  6
CONTINUOUS
 62
         7
100
AcDbLine
 10
1800.0928571098
 20
99.4024144385
 30
0.0
 11
1807.6340594905
 21
99.4024144385
 31
0.0
  0
LINE
  5
178
100
AcDbEntity
  8
_Y__________
  6
CENTER
 62
         1
100
AcDbLine
 10
1239.9233403763
 20
165.6922817905
 30
0.0
 11
1239.9233403763
 21
50.6023837096
 31
0.0
  0
ARC
  5
179
100
AcDbEntity
  8
_Y__________
  6
CONTINUOUS
 62
         7
100
AcDbCircle
 10
1239.9233403763
 20
112.2524144385
 30
0.0
 40
48.75
100
AcDbArc
 50
16.5052120024
 51
163.4947879976
  0
LINE
  5
17A
100
AcDbEntity
  8
_Y__________
  6
CENTER
 62
         1
100
AcDbLine
 10
1283.2887501132
 20
112.2524144385
 30
0.0
 11
1193.3587947809
 21
112.2524144385
 31
0.0
  0
ARC
  5
17B
100
AcDbEntity
  8
_Y__________
  6
CONTINUOUS
 62
         7
100
AcDbCircle
 10
1239.9233403763
 20
112.2524144385
 30
0.0
 40
48.75
100
AcDbArc
 50
196.5052120024
 51
343.4947879976
  0
CIRCLE
  5
17C
100
AcDbEntity
  8
_Y__________
  6
CONTINUOUS
 62
         7
100
AcDbCircle
 10
1239.9233403763
 20
112.2524144385
 30
0.0
 40
34.925
  0
CIRCLE
  5
17D
100
AcDbEntity
  8
_Y__________
  6
CONTINUOUS
 62
         7
100
AcDbCircle
 10
1239.9233403763
 20
112.2524144385
 30
0.0
 40
20.3982925257
  0
CIRCLE
  5
17E
100
AcDbEntity
  8
_Y__________
  6
CONTINUOUS
 62
         7
100
AcDbCircle
 10
1239.9233403763
 20
112.2524144385
 30
0.0
 40
10.3963414634
  0
ARC
  5
17F
100
AcDbEntity
  8
_Y__________
  6
CONTINUOUS
 62
         4
100
AcDbCircle
 10
1239.9233403763
 20
112.2524144385
 30
0.0
 40
12.0
100
AcDbArc
 50
278.1340859252
 51
549.6704111119
  0
CIRCLE
  5
180
100
AcDbEntity
  8
_Y__________
  6
CONTINUOUS
 62
         7
100
AcDbCircle
 10
1239.9233403763
 20
112.2524144385
 30
0.0
 40
12.6589889012
  0
LINE
  5
181
100
AcDbEntity
  8
_Y__________
  6
CONTINUOUS
 62
         7
100
AcDbLine
 10
1203.9233403763
 20
99.9024144385
 30
0.0
 11
1203.9233403763
 21
124.6024144385
 31
0.0
  0
LINE
  5
182
100
AcDbEntity
  8
_Y__________
  6
CONTINUOUS
 62
         7
100
AcDbLine
 10
1194.1821379955
 20
99.4024144385
 30
0.0
 11
1203.4233403763
 21
99.4024144385
 31
0.0
  0
LINE
  5
183
100
AcDbEntity
  8
_Y__________
  6
CONTINUOUS
 62
         7
100
AcDbLine
 10
1193.1821379955
 20
98.4024144385
 30
0.0
 11
1194.1821379955
 21
99.4024144385
 31
0.0
  0
LINE
  5
184
100
AcDbEntity
  8
_Y__________
  6
CONTINUOUS
 62
         7
100
AcDbLine
 10
1193.1821379955
 20
126.1024144385
 30
0.0
 11
1194.1821379955
 21
125.1024144385
 31
0.0
  0
LINE
  5
185
100
AcDbEntity
  8
_Y__________
  6
CONTINUOUS
 62
         7
100
AcDbLine
 10
1194.1821379955
 20
125.1024144385
 30
0.0
 11
1203.4233403763
 21
125.1024144385
 31
0.0
  0
LINE
  5
186
100
AcDbEntity
  8
_Y__________
  6
CONTINUOUS
 62
         7
100
AcDbLine
 10
1277.6233403763
 20
99.9024144385
 30
0.0
 11
1277.6233403763
 21
124.6024144385
 31
0.0
  0
LINE
  5
187
100
AcDbEntity
  8
_Y__________
  6
CONTINUOUS
 62
         7
100
AcDbLine
 10
1285.664542757
 20
125.1024144385
 30
0.0
 11
1278.1233403763
 21
125.1024144385
 31
0.0
  0
LINE
  5
188
100
AcDbEntity
  8
_Y__________
  6
CONTINUOUS
 62
         7
100
AcDbLine
 10
1286.664542757
 20
126.1024144385
 30
0.0
 11
1285.664542757
 21
125.1024144385
 31
0.0
  0
LINE
  5
189
100
AcDbEntity
  8
_Y__________
  6
CONTINUOUS
 62
         7
100
AcDbLine
 10
1285.664542757
 20
99.4024144385
 30
0.0
 11
1278.1233403763
 21
99.4024144385
 31
0.0
  0
LINE
  5
18A
100
AcDbEntity
  8
_Y__________
  6
CONTINUOUS
 62
         7
100
AcDbLine
 10
1286.664542757
 20
98.4024144385
 30
0.0
 11
1285.664542757
 21
99.4024144385
 31
0.0
  0
LINE
  5
18B
100
AcDbEntity
  8
_Y__________
  6
CONTINUOUS
 62
         7
100
AcDbLine
 10
1203.4233403763
 20
99.4024144385
 30
0.0
 11
1203.9233403763
 21
99.9024144385
 31
0.0
  0
LINE
  5
18C
100
AcDbEntity
  8
_Y__________
  6
CONTINUOUS
 62
         7
100
AcDbLine
 10
1203.9233403763
 20
124.6024144385
 30
0.0
 11
1203.4233403763
 21
125.1024144385
 31
0.0
  0
LINE
  5
18D
100
AcDbEntity
  8
_Y__________
  6
CONTINUOUS
 62
         7
100
AcDbLine
 10
1278.1233403763
 20
125.1024144385
 30
0.0
 11
1277.6233403763
 21
124.6024144385
 31
0.0
  0
LINE
  5
18E
100
AcDbEntity
  8
_Y__________
  6
CONTINUOUS
 62
         7
100
AcDbLine
 10
1277.6233403763
 20
99.9024144385
 30
0.0
 11
1278.1233403763
 21
99.4024144385
 31
0.0
  0
CIRCLE
  5
18F
100
AcDbEntity
  8
L1_150
  6
CONTINUOUS
 62
         7
100
AcDbCircle
 10
1845.8340594905
 20
112.2524144385
 30
0.0
 40
19.6297205206
  0
LINE
  5
190
100
AcDbEntity
  8
_X______
  6
DASHED
 62
         2
100
AcDbLine
 10
1833.2313677506
 20
151.7023026785
 30
0.0
 11
1843.6648965257
 21
123.0364179638
 31
0.0
  0
LINE
  5
191
100
AcDbEntity
  8
_X______
  6
DASHED
 62
         2
100
AcDbLine
 10
1829.8014896848
 20
150.4539291554
 30
0.0
 11
1833.5602601679
 21
151.8220097287
 31
0.0
  0
LINE
  5
192
100
AcDbEntity
  8
_X______
  6
DASHED
 62
         2
100
AcDbLine
 10
1832.1237755659
 20
155.768718736
 30
0.0
 11
1833.5602601679
 21
151.8220097287
 31
0.0
  0
LINE
  5
193
100
AcDbEntity
  8
_X______
  6
DASHED
 62
         2
100
AcDbLine
 10
1830.130382102
 20
150.5736362055
 30
0.0
 11
1840.5639108771
 21
121.9077514908
 31
0.0
  0
LINE
  5
194
100
AcDbEntity
  8
_X______
  6
DASHED
 62
         2
100
AcDbLine
 10
1828.3650050828
 20
154.4006381627
 30
0.0
 11
1829.8014896848
 21
150.4539291554
 31
0.0
  0
LINE
  5
195
100
AcDbEntity
  8
_X______
  6
DASHED
 62
         2
100
AcDbLine
 10
1851.1042081039
 20
102.5970773863
 30
0.0
 11
1861.537736879
 21
73.9311926715
 31
0.0
  0
LINE
  5
196
100
AcDbEntity
  8
_X______
  6
DASHED
 62
         2
100
AcDbLine
 10
1863.3031138983
 20
70.1041907144
 30
0.0
 11
1861.8666292963
 21
74.0508997217
 31
0.0
  0
LINE
  5
197
100
AcDbEntity
  8
_X______
  6
DASHED
 62
         2
100
AcDbLine
 10
1861.8666292963
 20
74.0508997217
 30
0.0
 11
1858.1078588132
 21
72.6828191484
 31
0.0
  0
LINE
  5
198
100
AcDbEntity
  8
_X______
  6
DASHED
 62
         2
100
AcDbLine
 10
1859.5443434151
 20
68.7361101411
 30
0.0
 11
1858.1078588132
 21
72.6828191484
 31
0.0
  0
LINE
  5
199
100
AcDbEntity
  8
_X______
  6
DASHED
 62
         2
100
AcDbLine
 10
1848.0032224554
 20
101.4684109133
 30
0.0
 11
1858.4367512304
 21
72.8025261986
 31
0.0
  0
LINE
  5
19A
100
AcDbEntity
  8
_X______
  6
CENTER
 62
         1
100
AcDbLine
 10
1827.5565483995
 20
162.469463445
 30
0.0
 11
1866.9196118365
 21
54.3203354914
 31
0.0
  0
POLYLINE
  5
19C
100
AcDbEntity
  8
_X______
  6
CONTINUOUS
 62
         7
100
AcDb2dPolyline
 66
         1
 10
0.0
 20
0.0
 30
0.0
 70
         2
  0
VERTEX
  5
19E
100
AcDbEntity
  8
_X______
  6
CONTINUOUS
 62
         7
100
AcDbVertex
100
AcDb2dVertex
 10
1255.177553735
 20
154.0562283904
 30
0.0
 70
         1
  0
VERTEX
  5
1A0
100
AcDbEntity
  8
_X______
  6
CONTINUOUS
 62
         7
100
AcDbVertex
100
AcDb2dVertex
 10
1254.7975526703
 20
154.1491997353
 30
0.0
 70
         1
  0
VERTEX
  5
1A2
100
AcDbEntity
  8
_X______
  6
CONTINUOUS
 62
         7
100
AcDbVertex
100
AcDb2dVertex
 10
1254.620484003
 20
154.1642012332
 30
0.0
 70
         1
  0
VERTEX
  5
1A4
100
AcDbEntity
  8
_X______
  6
CONTINUOUS
 62
         7
100
AcDbVertex
100
AcDb2dVertex
 10
1254.4358567329
 20
154.1623680937
 30
0.0
 70
         1
  0
VERTEX
  5
1A6
100
AcDbEntity
  8
_X______
  6
CONTINUOUS
 62
         7
100
AcDbVertex
100
AcDb2dVertex
 10
1254.2448498832
 20
154.1425310426
 30
0.0
 70
         1
  0
VERTEX
  5
1A8
100
AcDbEntity
  8
_X______
  6
CONTINUOUS
 62
         7
100
AcDbVertex
100
AcDb2dVertex
 10
1254.0488651555
 20
154.1037747713
 30
0.0
 70
         1
  0
VERTEX
  5
1AA
100
AcDbEntity
  8
_X______
  6
CONTINUOUS
 62
         7
100
AcDbVertex
100
AcDb2dVertex
 10
1253.8495025235
 20
154.0454929121
 30
0.0
 70
         1
  0
VERTEX
  5
1AC
100
AcDbEntity
  8
_X______
  6
CONTINUOUS
 62
         7
100
AcDbVertex
100
AcDb2dVertex
 10
1253.6485232911
 20
153.9674335516
 30
0.0
 70
         1
  0
VERTEX
  5
1AE
100
AcDbEntity
  8
_X______
  6
CONTINUOUS
 62
         7
100
AcDbVertex
100
AcDb2dVertex
 10
1253.4478017643
 20
153.8697309892
 30
0.0
 70
         1
  0
VERTEX
  5
1B0
100
AcDbEntity
  8
_X______
  6
CONTINUOUS
 62
         7
100
AcDbVertex
100
AcDb2dVertex
 10
1253.2492678944
 20
153.7529202326
 30
0.0
 70
         1
  0
VERTEX
  5
1B2
100
AcDbEntity
  8
_X______
  6
CONTINUOUS
 62
         7
100
AcDbVertex
100
AcDb2dVertex
 10
1253.0548443148
 20
153.6179320192
 30
0.0
 70
         1
  0
VERTEX
  5
1B4
100
AcDbEntity
  8
_X______
  6
CONTINUOUS
 62
         7
100
AcDbVertex
100
AcDb2dVertex
 10
1252.8663819441
 20
153.4660678363
 30
0.0
 70
         1
  0
VERTEX
  5
1B6
100
AcDbEntity
  8
_X______
  6
CONTINUOUS
 62
         7
100
AcDbVertex
100
AcDb2dVertex
 10
1252.6260531437
 20
153.2388852857
 30
0.0
 70
         1
  0
VERTEX
  5
1B8
100
AcDbEntity
  8
_X______
  6
CONTINUOUS
 62
         7
100
AcDbVertex
100
AcDb2dVertex
 10
1252.403093064
 20
152.9889766095
 30
0.0
 70
         1
  0
VERTEX
  5
1BA
100
AcDbEntity
  8
_X______
  6
CONTINUOUS
 62
         7
100
AcDbVertex
100
AcDb2dVertex
 10
1252.2003147098
 20
152.7215394974
 30
0.0
 70
         1
  0
VERTEX
  5
1BC
100
AcDbEntity
  8
_X______
  6
CONTINUOUS
 62
         7
100
AcDbVertex
100
AcDb2dVertex
 10
1252.0196551425
 20
152.4419925623
 30
0.0
 70
         1
  0
VERTEX
  5
1BE
100
AcDbEntity
  8
_X______
  6
CONTINUOUS
 62
         7
100
AcDbVertex
100
AcDb2dVertex
 10
1251.8621578683
 20
152.1556600525
 30
0.0
 70
         1
  0
VERTEX
  5
1C0
100
AcDbEntity
  8
_X______
  6
CONTINUOUS
 62
         7
100
AcDbVertex
100
AcDb2dVertex
 10
1251.7280275733
 20
151.8675052179
 30
0.0
 70
         1
  0
VERTEX
  5
1C2
100
AcDbEntity
  8
_X______
  6
CONTINUOUS
 62
         7
100
AcDbVertex
100
AcDb2dVertex
 10
1251.5836285106
 20
151.485222542
 30
0.0
 70
         1
  0
VERTEX
  5
1C4
100
AcDbEntity
  8
_X______
  6
CONTINUOUS
 62
         7
100
AcDbVertex
100
AcDb2dVertex
 10
1251.477505685
 20
151.1162279315
 30
0.0
 70
         1
  0
VERTEX
  5
1C6
100
AcDbEntity
  8
_X______
  6
CONTINUOUS
 62
         7
100
AcDbVertex
100
AcDb2dVertex
 10
1251.4055585637
 20
150.7668648911
 30
0.0
 70
         1
  0
VERTEX
  5
1C8
100
AcDbEntity
  8
_X______
  6
CONTINUOUS
 62
         7
100
AcDbVertex
100
AcDb2dVertex
 10
1251.3630640199
 20
150.4412378531
 30
0.0
 70
         1
  0
VERTEX
  5
1CA
100
AcDbEntity
  8
_X______
  6
CONTINUOUS
 62
         7
100
AcDbVertex
100
AcDb2dVertex
 10
1251.345169897
 20
150.1415340596
 30
0.0
 70
         1
  0
VERTEX
  5
1CC
100
AcDbEntity
  8
_X______
  6
CONTINUOUS
 62
         7
100
AcDbVertex
100
AcDb2dVertex
 10
1251.3472427386
 20
149.8684264459
 30
0.0
 70
         1
  0
VERTEX
  5
1CE
100
AcDbEntity
  8
_X______
  6
CONTINUOUS
 62
         7
100
AcDbVertex
100
AcDb2dVertex
 10
1251.3742560107
 20
149.5417785942
 30
0.0
 70
         1
  0
VERTEX
  5
1D0
100
AcDbEntity
  8
_X______
  6
CONTINUOUS
 62
         7
100
AcDbVertex
100
AcDb2dVertex
 10
1251.4212060226
 20
149.2593941461
 30
0.0
 70
         1
  0
VERTEX
  5
1D2
100
AcDbEntity
  8
_X______
  6
CONTINUOUS
 62
         7
100
AcDbVertex
100
AcDb2dVertex
 10
1251.4811885758
 20
149.0169156255
 30
0.0
 70
         1
  0
VERTEX
  5
1D4
100
AcDbEntity
  8
_X______
  6
CONTINUOUS
 62
         7
100
AcDbVertex
100
AcDb2dVertex
 10
1251.5738569938
 20
148.7441130432
 30
0.0
 70
         1
  0
VERTEX
  5
1D6
100
AcDbEntity
  8
_X______
  6
CONTINUOUS
 62
         7
100
AcDbVertex
100
AcDb2dVertex
 10
1251.6718116667
 20
148.5239606999
 30
0.0
 70
         1
  0
VERTEX
  5
1D8
100
AcDbEntity
  8
_X______
  6
CONTINUOUS
 62
         7
100
AcDbVertex
100
AcDb2dVertex
 10
1251.7693332906
 20
148.346272975
 30
0.0
 70
         1
  0
VERTEX
  5
1DA
100
AcDbEntity
  8
_X______
  6
CONTINUOUS
 62
         7
100
AcDbVertex
100
AcDb2dVertex
 10
1251.8952723859
 20
148.1579045175
 30
0.0
 70
         1
  0
VERTEX
  5
1DC
100
AcDbEntity
  8
_X______
  6
CONTINUOUS
 62
         7
100
AcDbVertex
100
AcDb2dVertex
 10
1252.0492108225
 20
147.9722975776
 30
0.0
 70
         1
  0
VERTEX
  5
1DE
100
AcDbEntity
  8
_X______
  6
CONTINUOUS
 62
         7
100
AcDbVertex
100
AcDb2dVertex
 10
1252.1798356651
 20
147.8436382679
 30
0.0
 70
         1
  0
VERTEX
  5
1E0
100
AcDbEntity
  8
_X______
  6
CONTINUOUS
 62
         7
100
AcDbVertex
100
AcDb2dVertex
 10
1252.3248621636
 20
147.7252706189
 30
0.0
 70
         1
  0
VERTEX
  5
1E2
100
AcDbEntity
  8
_X______
  6
CONTINUOUS
 62
         7
100
AcDbVertex
100
AcDb2dVertex
 10
1252.4723220883
 20
147.6268529333
 30
0.0
 70
         1
  0
VERTEX
  5
1E4
100
AcDbEntity
  8
_X______
  6
CONTINUOUS
 62
         7
100
AcDbVertex
100
AcDb2dVertex
 10
1252.6491077801
 20
147.5335392838
 30
0.0
 70
         1
  0
VERTEX
  5
1E6
100
AcDbEntity
  8
_X______
  6
CONTINUOUS
 62
         7
100
AcDbVertex
100
AcDb2dVertex
 10
1252.7834127318
 20
147.4783800449
 30
0.0
 70
         1
  0
VERTEX
  5
1E8
100
AcDbEntity
  8
_X______
  6
CONTINUOUS
 62
         7
100
AcDbVertex
100
AcDb2dVertex
 10
1252.7834127318
 20
147.4783800449
 30
0.0
 70
         1
  0
VERTEX
  5
1EA
100
AcDbEntity
  8
_X______
  6
CONTINUOUS
 62
         7
100
AcDbVertex
100
AcDb2dVertex
 10
1253.1634137965
 20
147.3854086999
 30
0.0
 70
         1
  0
VERTEX
  5
1EC
100
AcDbEntity
  8
_X______
  6
CONTINUOUS
 62
         7
100
AcDbVertex
100
AcDb2dVertex
 10
1253.3404824638
 20
147.3704072021
 30
0.0
 70
         1
  0
VERTEX
  5
1EE
100
AcDbEntity
  8
_X______
  6
CONTINUOUS
 62
         7
100
AcDbVertex
100
AcDb2dVertex
 10
1253.5251097339
 20
147.3722403415
 30
0.0
 70
         1
  0
VERTEX
  5
1F0
100
AcDbEntity
  8
_X______
  6
CONTINUOUS
 62
         7
100
AcDbVertex
100
AcDb2dVertex
 10
1253.7161165836
 20
147.3920773926
 30
0.0
 70
         1
  0
VERTEX
  5
1F2
100
AcDbEntity
  8
_X______
  6
CONTINUOUS
 62
         7
100
AcDbVertex
100
AcDb2dVertex
 10
1253.9121013113
 20
147.4308336639
 30
0.0
 70
         1
  0
VERTEX
  5
1F4
100
AcDbEntity
  8
_X______
  6
CONTINUOUS
 62
         7
100
AcDbVertex
100
AcDb2dVertex
 10
1254.1114639433
 20
147.4891155231
 30
0.0
 70
         1
  0
VERTEX
  5
1F6
100
AcDbEntity
  8
_X______
  6
CONTINUOUS
 62
         7
100
AcDbVertex
100
AcDb2dVertex
 10
1254.3124431757
 20
147.5671748836
 30
0.0
 70
         1
  0
VERTEX
  5
1F8
100
AcDbEntity
  8
_X______
  6
CONTINUOUS
 62
         7
100
AcDbVertex
100
AcDb2dVertex
 10
1254.5131647025
 20
147.664877446
 30
0.0
 70
         1
  0
VERTEX
  5
1FA
100
AcDbEntity
  8
_X______
  6
CONTINUOUS
 62
         7
100
AcDbVertex
100
AcDb2dVertex
 10
1254.7116985724
 20
147.7816882026
 30
0.0
 70
         1
  0
VERTEX
  5
1FC
100
AcDbEntity
  8
_X______
  6
CONTINUOUS
 62
         7
100
AcDbVertex
100
AcDb2dVertex
 10
1254.906122152
 20
147.9166764161
 30
0.0
 70
         1
  0
VERTEX
  5
1FE
100
AcDbEntity
  8
_X______
  6
CONTINUOUS
 62
         7
100
AcDbVertex
100
AcDb2dVertex
 10
1255.0945845227
 20
148.068540599
 30
0.0
 70
         1
  0
VERTEX
  5
200
100
AcDbEntity
  8
_X______
  6
CONTINUOUS
 62
         7
100
AcDbVertex
100
AcDb2dVertex
 10
1255.3349133231
 20
148.2957231496
 30
0.0
 70
         1
  0
VERTEX
  5
202
100
AcDbEntity
  8
_X______
  6
CONTINUOUS
 62
         7
100
AcDbVertex
100
AcDb2dVertex
 10
1255.5578734028
 20
148.5456318257
 30
0.0
 70
         1
  0
VERTEX
  5
204
100
AcDbEntity
  8
_X______
  6
CONTINUOUS
 62
         7
100
AcDbVertex
100
AcDb2dVertex
 10
1255.760651757
 20
148.8130689378
 30
0.0
 70
         1
  0
VERTEX
  5
206
100
AcDbEntity
  8
_X______
  6
CONTINUOUS
 62
         7
100
AcDbVertex
100
AcDb2dVertex
 10
1255.9413113243
 20
149.0926158729
 30
0.0
 70
         1
  0
VERTEX
  5
208
100
AcDbEntity
  8
_X______
  6
CONTINUOUS
 62
         7
100
AcDbVertex
100
AcDb2dVertex
 10
1256.0988085985
 20
149.3789483828
 30
0.0
 70
         1
  0
VERTEX
  5
20A
100
AcDbEntity
  8
_X______
  6
CONTINUOUS
 62
         7
100
AcDbVertex
100
AcDb2dVertex
 10
1256.2329388935
 20
149.6671032173
 30
0.0
 70
         1
  0
VERTEX
  5
20C
100
AcDbEntity
  8
_X______
  6
CONTINUOUS
 62
         7
100
AcDbVertex
100
AcDb2dVertex
 10
1256.3773379562
 20
150.0493858933
 30
0.0
 70
         1
  0
VERTEX
  5
20E
100
AcDbEntity
  8
_X______
  6
CONTINUOUS
 62
         7
100
AcDbVertex
100
AcDb2dVertex
 10
1256.4834607818
 20
150.4183805037
 30
0.0
 70
         1
  0
VERTEX
  5
210
100
AcDbEntity
  8
_X______
  6
CONTINUOUS
 62
         7
100
AcDbVertex
100
AcDb2dVertex
 10
1256.5554079031
 20
150.7677435441
 30
0.0
 70
         1
  0
VERTEX
  5
212
100
AcDbEntity
  8
_X______
  6
CONTINUOUS
 62
         7
100
AcDbVertex
100
AcDb2dVertex
 10
1256.5979024469
 20
151.0933705821
 30
0.0
 70
         1
  0
VERTEX
  5
214
100
AcDbEntity
  8
_X______
  6
CONTINUOUS
 62
         7
100
AcDbVertex
100
AcDb2dVertex
 10
1256.6157965698
 20
151.3930743756
 30
0.0
 70
         1
  0
VERTEX
  5
216
100
AcDbEntity
  8
_X______
  6
CONTINUOUS
 62
         7
100
AcDbVertex
100
AcDb2dVertex
 10
1256.6137237282
 20
151.6661819893
 30
0.0
 70
         1
  0
VERTEX
  5
218
100
AcDbEntity
  8
_X______
  6
CONTINUOUS
 62
         7
100
AcDbVertex
100
AcDb2dVertex
 10
1256.5867104561
 20
151.992829841
 30
0.0
 70
         1
  0
VERTEX
  5
21A
100
AcDbEntity
  8
_X______
  6
CONTINUOUS
 62
         7
100
AcDbVertex
100
AcDb2dVertex
 10
1256.5397604442
 20
152.2752142891
 30
0.0
 70
         1
  0
VERTEX
  5
21C
100
AcDbEntity
  8
_X______
  6
CONTINUOUS
 62
         7
100
AcDbVertex
100
AcDb2dVertex
 10
1256.479777891
 20
152.5176928097
 30
0.0
 70
         1
  0
VERTEX
  5
21E
100
AcDbEntity
  8
_X______
  6
CONTINUOUS
 62
         7
100
AcDbVertex
100
AcDb2dVertex
 10
1256.387109473
 20
152.790495392
 30
0.0
 70
         1
  0
VERTEX
  5
220
100
AcDbEntity
  8
_X______
  6
CONTINUOUS
 62
         7
100
AcDbVertex
100
AcDb2dVertex
 10
1256.2891548001
 20
153.0106477353
 30
0.0
 70
         1
  0
VERTEX
  5
222
100
AcDbEntity
  8
_X______
  6
CONTINUOUS
 62
         7
100
AcDbVertex
100
AcDb2dVertex
 10
1256.1916331762
 20
153.1883354603
 30
0.0
 70
         1
  0
VERTEX
  5
224
100
AcDbEntity
  8
_X______
  6
CONTINUOUS
 62
         7
100
AcDbVertex
100
AcDb2dVertex
 10
1256.0656940809
 20
153.3767039178
 30
0.0
 70
         1
  0
VERTEX
  5
226
100
AcDbEntity
  8
_X______
  6
CONTINUOUS
 62
         7
100
AcDbVertex
100
AcDb2dVertex
 10
1255.9117556443
 20
153.5623108576
 30
0.0
 70
         1
  0
VERTEX
  5
228
100
AcDbEntity
  8
_X______
  6
CONTINUOUS
 62
         7
100
AcDbVertex
100
AcDb2dVertex
 10
1255.7811308017
 20
153.6909701673
 30
0.0
 70
         1
  0
VERTEX
  5
22A
100
AcDbEntity
  8
_X______
  6
CONTINUOUS
 62
         7
100
AcDbVertex
100
AcDb2dVertex
 10
1255.6361043032
 20
153.8093378163
 30
0.0
 70
         1
  0
VERTEX
  5
22C
100
AcDbEntity
  8
_X______
  6
CONTINUOUS
 62
         7
100
AcDbVertex
100
AcDb2dVertex
 10
1255.4886443785
 20
153.9077555019
 30
0.0
 70
         1
  0
VERTEX
  5
22E
100
AcDbEntity
  8
_X______
  6
CONTINUOUS
 62
         7
100
AcDbVertex
100
AcDb2dVertex
 10
1255.3118586867
 20
154.0010691514
 30
0.0
 70
         1
  0
VERTEX
  5
230
100
AcDbEntity
  8
_X______
  6
CONTINUOUS
 62
         7
100
AcDbVertex
100
AcDb2dVertex
 10
1255.177553735
 20
154.0562283904
 30
0.0
 70
         1
  0
SEQEND
  5
232
100
AcDbEntity
  8
_X______
  6
CONTINUOUS
 62
         7
  0
LINE
  5
233
100
AcDbEntity
  8
_X______
  6
CENTER
 62
         1
100
AcDbLine
 10
1258.6789463373
 20
149.057203501
 30
0.0
 11
1249.2820201295
 21
152.4774049342
 31
0.0
  0
POLYLINE
  5
235
100
AcDbEntity
  8
_X______
  6
CONTINUOUS
 62
         7
100
AcDb3dPolyline
 66
         1
 10
0.0
 20
0.0
 30
0.0
 70
         8
  0
VERTEX
  5
237
100
AcDbEntity
  8
_X______
  6
CONTINUOUS
 62
         7
100
AcDbVertex
100
AcDb3dPolylineVertex
 10
1253.1887669199
 20
153.3129273476
 30
0.0
 70
        32
  0
VERTEX
  5
239
100
AcDbEntity
  8
_X______
  6
CONTINUOUS
 62
         7
100
AcDbVertex
100
AcDb3dPolylineVertex
 10
1253.1887669199
 20
153.3129273476
 30
0.0
 70
        32
  0
SEQEND
  5
23B
100
AcDbEntity
  8
_X______
  6
CONTINUOUS
 62
         7
  0
POLYLINE
  5
23D
100
AcDbEntity
  8
_X______
  6
CONTINUOUS
 62
         7
100
AcDb2dPolyline
 66
         1
 10
0.0
 20
0.0
 30
0.0
 70
         2
  0
VERTEX
  5
23F
100
AcDbEntity
  8
_X______
  6
CONTINUOUS
 62
         7
100
AcDbVertex
100
AcDb2dVertex
 10
1227.0632680208
 20
77.0264488322
 30
0.0
 70
         1
  0
VERTEX
  5
241
100
AcDbEntity
  8
_X______
  6
CONTINUOUS
 62
         7
100
AcDbVertex
100
AcDb2dVertex
 10
1226.683266956
 20
77.1194201772
 30
0.0
 70
         1
  0
VERTEX
  5
243
100
AcDbEntity
  8
_X______
  6
CONTINUOUS
 62
         7
100
AcDbVertex
100
AcDb2dVertex
 10
1226.5061982887
 20
77.134421675
 30
0.0
 70
         1
  0
VERTEX
  5
245
100
AcDbEntity
  8
_X______
  6
CONTINUOUS
 62
         7
100
AcDbVertex
100
AcDb2dVertex
 10
1226.3215710186
 20
77.1325885356
 30
0.0
 70
         1
  0
VERTEX
  5
247
100
AcDbEntity
  8
_X______
  6
CONTINUOUS
 62
         7
100
AcDbVertex
100
AcDb2dVertex
 10
1226.130564169
 20
77.1127514845
 30
0.0
 70
         1
  0
VERTEX
  5
249
100
AcDbEntity
  8
_X______
  6
CONTINUOUS
 62
         7
100
AcDbVertex
100
AcDb2dVertex
 10
1225.9345794412
 20
77.0739952132
 30
0.0
 70
         1
  0
VERTEX
  5
24B
100
AcDbEntity
  8
_X______
  6
CONTINUOUS
 62
         7
100
AcDbVertex
100
AcDb2dVertex
 10
1225.7352168092
 20
77.015713354
 30
0.0
 70
         1
  0
VERTEX
  5
24D
100
AcDbEntity
  8
_X______
  6
CONTINUOUS
 62
         7
100
AcDbVertex
100
AcDb2dVertex
 10
1225.5342375768
 20
76.9376539934
 30
0.0
 70
         1
  0
VERTEX
  5
24F
100
AcDbEntity
  8
_X______
  6
CONTINUOUS
 62
         7
100
AcDbVertex
100
AcDb2dVertex
 10
1225.33351605
 20
76.8399514311
 30
0.0
 70
         1
  0
VERTEX
  5
251
100
AcDbEntity
  8
_X______
  6
CONTINUOUS
 62
         7
100
AcDbVertex
100
AcDb2dVertex
 10
1225.1349821801
 20
76.7231406745
 30
0.0
 70
         1
  0
VERTEX
  5
253
100
AcDbEntity
  8
_X______
  6
CONTINUOUS
 62
         7
100
AcDbVertex
100
AcDb2dVertex
 10
1224.9405586005
 20
76.588152461
 30
0.0
 70
         1
  0
VERTEX
  5
255
100
AcDbEntity
  8
_X______
  6
CONTINUOUS
 62
         7
100
AcDbVertex
100
AcDb2dVertex
 10
1224.7520962298
 20
76.4362882781
 30
0.0
 70
         1
  0
VERTEX
  5
257
100
AcDbEntity
  8
_X______
  6
CONTINUOUS
 62
         7
100
AcDbVertex
100
AcDb2dVertex
 10
1224.5117674294
 20
76.2091057275
 30
0.0
 70
         1
  0
VERTEX
  5
259
100
AcDbEntity
  8
_X______
  6
CONTINUOUS
 62
         7
100
AcDbVertex
100
AcDb2dVertex
 10
1224.2888073497
 20
75.9591970514
 30
0.0
 70
         1
  0
VERTEX
  5
25B
100
AcDbEntity
  8
_X______
  6
CONTINUOUS
 62
         7
100
AcDbVertex
100
AcDb2dVertex
 10
1224.0860289955
 20
75.6917599393
 30
0.0
 70
         1
  0
VERTEX
  5
25D
100
AcDbEntity
  8
_X______
  6
CONTINUOUS
 62
         7
100
AcDbVertex
100
AcDb2dVertex
 10
1223.9053694283
 20
75.4122130042
 30
0.0
 70
         1
  0
VERTEX
  5
25F
100
AcDbEntity
  8
_X______
  6
CONTINUOUS
 62
         7
100
AcDbVertex
100
AcDb2dVertex
 10
1223.747872154
 20
75.1258804943
 30
0.0
 70
         1
  0
VERTEX
  5
261
100
AcDbEntity
  8
_X______
  6
CONTINUOUS
 62
         7
100
AcDbVertex
100
AcDb2dVertex
 10
1223.613741859
 20
74.8377256597
 30
0.0
 70
         1
  0
VERTEX
  5
263
100
AcDbEntity
  8
_X______
  6
CONTINUOUS
 62
         7
100
AcDbVertex
100
AcDb2dVertex
 10
1223.4693427963
 20
74.4554429838
 30
0.0
 70
         1
  0
VERTEX
  5
265
100
AcDbEntity
  8
_X______
  6
CONTINUOUS
 62
         7
100
AcDbVertex
100
AcDb2dVertex
 10
1223.3632199707
 20
74.0864483734
 30
0.0
 70
         1
  0
VERTEX
  5
267
100
AcDbEntity
  8
_X______
  6
CONTINUOUS
 62
         7
100
AcDbVertex
100
AcDb2dVertex
 10
1223.2912728494
 20
73.737085333
 30
0.0
 70
         1
  0
VERTEX
  5
269
100
AcDbEntity
  8
_X______
  6
CONTINUOUS
 62
         7
100
AcDbVertex
100
AcDb2dVertex
 10
1223.2487783056
 20
73.411458295
 30
0.0
 70
         1
  0
VERTEX
  5
26B
100
AcDbEntity
  8
_X______
  6
CONTINUOUS
 62
         7
100
AcDbVertex
100
AcDb2dVertex
 10
1223.2308841827
 20
73.1117545015
 30
0.0
 70
         1
  0
VERTEX
  5
26D
100
AcDbEntity
  8
_X______
  6
CONTINUOUS
 62
         7
100
AcDbVertex
100
AcDb2dVertex
 10
1223.2329570243
 20
72.8386468878
 30
0.0
 70
         1
  0
VERTEX
  5
26F
100
AcDbEntity
  8
_X______
  6
CONTINUOUS
 62
         7
100
AcDbVertex
100
AcDb2dVertex
 10
1223.2599702964
 20
72.5119990361
 30
0.0
 70
         1
  0
VERTEX
  5
271
100
AcDbEntity
  8
_X______
  6
CONTINUOUS
 62
         7
100
AcDbVertex
100
AcDb2dVertex
 10
1223.3069203083
 20
72.229614588
 30
0.0
 70
         1
  0
VERTEX
  5
273
100
AcDbEntity
  8
_X______
  6
CONTINUOUS
 62
         7
100
AcDbVertex
100
AcDb2dVertex
 10
1223.3669028615
 20
71.9871360674
 30
0.0
 70
         1
  0
VERTEX
  5
275
100
AcDbEntity
  8
_X______
  6
CONTINUOUS
 62
         7
100
AcDbVertex
100
AcDb2dVertex
 10
1223.4595712795
 20
71.7143334851
 30
0.0
 70
         1
  0
VERTEX
  5
277
100
AcDbEntity
  8
_X______
  6
CONTINUOUS
 62
         7
100
AcDbVertex
100
AcDb2dVertex
 10
1223.5575259524
 20
71.4941811418
 30
0.0
 70
         1
  0
VERTEX
  5
279
100
AcDbEntity
  8
_X______
  6
CONTINUOUS
 62
         7
100
AcDbVertex
100
AcDb2dVertex
 10
1223.6550475763
 20
71.3164934168
 30
0.0
 70
         1
  0
VERTEX
  5
27B
100
AcDbEntity
  8
_X______
  6
CONTINUOUS
 62
         7
100
AcDbVertex
100
AcDb2dVertex
 10
1223.7809866716
 20
71.1281249593
 30
0.0
 70
         1
  0
VERTEX
  5
27D
100
AcDbEntity
  8
_X______
  6
CONTINUOUS
 62
         7
100
AcDbVertex
100
AcDb2dVertex
 10
1223.9349251082
 20
70.9425180195
 30
0.0
 70
         1
  0
VERTEX
  5
27F
100
AcDbEntity
  8
_X______
  6
CONTINUOUS
 62
         7
100
AcDbVertex
100
AcDb2dVertex
 10
1224.0655499508
 20
70.8138587098
 30
0.0
 70
         1
  0
VERTEX
  5
281
100
AcDbEntity
  8
_X______
  6
CONTINUOUS
 62
         7
100
AcDbVertex
100
AcDb2dVertex
 10
1224.2105764493
 20
70.6954910608
 30
0.0
 70
         1
  0
VERTEX
  5
283
100
AcDbEntity
  8
_X______
  6
CONTINUOUS
 62
         7
100
AcDbVertex
100
AcDb2dVertex
 10
1224.358036374
 20
70.5970733752
 30
0.0
 70
         1
  0
VERTEX
  5
285
100
AcDbEntity
  8
_X______
  6
CONTINUOUS
 62
         7
100
AcDbVertex
100
AcDb2dVertex
 10
1224.5348220658
 20
70.5037597257
 30
0.0
 70
         1
  0
VERTEX
  5
287
100
AcDbEntity
  8
_X______
  6
CONTINUOUS
 62
         7
100
AcDbVertex
100
AcDb2dVertex
 10
1224.6691270175
 20
70.4486004867
 30
0.0
 70
         1
  0
VERTEX
  5
289
100
AcDbEntity
  8
_X______
  6
CONTINUOUS
 62
         7
100
AcDbVertex
100
AcDb2dVertex
 10
1224.6691270175
 20
70.4486004867
 30
0.0
 70
         1
  0
VERTEX
  5
28B
100
AcDbEntity
  8
_X______
  6
CONTINUOUS
 62
         7
100
AcDbVertex
100
AcDb2dVertex
 10
1225.0491280822
 20
70.3556291418
 30
0.0
 70
         1
  0
VERTEX
  5
28D
100
AcDbEntity
  8
_X______
  6
CONTINUOUS
 62
         7
100
AcDbVertex
100
AcDb2dVertex
 10
1225.2261967495
 20
70.3406276439
 30
0.0
 70
         1
  0
VERTEX
  5
28F
100
AcDbEntity
  8
_X______
  6
CONTINUOUS
 62
         7
100
AcDbVertex
100
AcDb2dVertex
 10
1225.4108240196
 20
70.3424607834
 30
0.0
 70
         1
  0
VERTEX
  5
291
100
AcDbEntity
  8
_X______
  6
CONTINUOUS
 62
         7
100
AcDbVertex
100
AcDb2dVertex
 10
1225.6018308693
 20
70.3622978345
 30
0.0
 70
         1
  0
VERTEX
  5
293
100
AcDbEntity
  8
_X______
  6
CONTINUOUS
 62
         7
100
AcDbVertex
100
AcDb2dVertex
 10
1225.797815597
 20
70.4010541058
 30
0.0
 70
         1
  0
VERTEX
  5
295
100
AcDbEntity
  8
_X______
  6
CONTINUOUS
 62
         7
100
AcDbVertex
100
AcDb2dVertex
 10
1225.997178229
 20
70.459335965
 30
0.0
 70
         1
  0
VERTEX
  5
297
100
AcDbEntity
  8
_X______
  6
CONTINUOUS
 62
         7
100
AcDbVertex
100
AcDb2dVertex
 10
1226.1981574615
 20
70.5373953255
 30
0.0
 70
         1
  0
VERTEX
  5
299
100
AcDbEntity
  8
_X______
  6
CONTINUOUS
 62
         7
100
AcDbVertex
100
AcDb2dVertex
 10
1226.3988789882
 20
70.6350978879
 30
0.0
 70
         1
  0
VERTEX
  5
29B
100
AcDbEntity
  8
_X______
  6
CONTINUOUS
 62
         7
100
AcDbVertex
100
AcDb2dVertex
 10
1226.5974128582
 20
70.7519086445
 30
0.0
 70
         1
  0
VERTEX
  5
29D
100
AcDbEntity
  8
_X______
  6
CONTINUOUS
 62
         7
100
AcDbVertex
100
AcDb2dVertex
 10
1226.7918364377
 20
70.8868968579
 30
0.0
 70
         1
  0
VERTEX
  5
29F
100
AcDbEntity
  8
_X______
  6
CONTINUOUS
 62
         7
100
AcDbVertex
100
AcDb2dVertex
 10
1226.9802988084
 20
71.0387610408
 30
0.0
 70
         1
  0
VERTEX
  5
2A1
100
AcDbEntity
  8
_X______
  6
CONTINUOUS
 62
         7
100
AcDbVertex
100
AcDb2dVertex
 10
1227.2206276088
 20
71.2659435914
 30
0.0
 70
         1
  0
VERTEX
  5
2A3
100
AcDbEntity
  8
_X______
  6
CONTINUOUS
 62
         7
100
AcDbVertex
100
AcDb2dVertex
 10
1227.4435876885
 20
71.5158522676
 30
0.0
 70
         1
  0
VERTEX
  5
2A5
100
AcDbEntity
  8
_X______
  6
CONTINUOUS
 62
         7
100
AcDbVertex
100
AcDb2dVertex
 10
1227.6463660427
 20
71.7832893797
 30
0.0
 70
         1
  0
VERTEX
  5
2A7
100
AcDbEntity
  8
_X______
  6
CONTINUOUS
 62
         7
100
AcDbVertex
100
AcDb2dVertex
 10
1227.82702561
 20
72.0628363148
 30
0.0
 70
         1
  0
VERTEX
  5
2A9
100
AcDbEntity
  8
_X______
  6
CONTINUOUS
 62
         7
100
AcDbVertex
100
AcDb2dVertex
 10
1227.9845228842
 20
72.3491688246
 30
0.0
 70
         1
  0
VERTEX
  5
2AB
100
AcDbEntity
  8
_X______
  6
CONTINUOUS
 62
         7
100
AcDbVertex
100
AcDb2dVertex
 10
1228.1186531792
 20
72.6373236592
 30
0.0
 70
         1
  0
VERTEX
  5
2AD
100
AcDbEntity
  8
_X______
  6
CONTINUOUS
 62
         7
100
AcDbVertex
100
AcDb2dVertex
 10
1228.2630522419
 20
73.0196063351
 30
0.0
 70
         1
  0
VERTEX
  5
2AF
100
AcDbEntity
  8
_X______
  6
CONTINUOUS
 62
         7
100
AcDbVertex
100
AcDb2dVertex
 10
1228.3691750675
 20
73.3886009455
 30
0.0
 70
         1
  0
VERTEX
  5
2B1
100
AcDbEntity
  8
_X______
  6
CONTINUOUS
 62
         7
100
AcDbVertex
100
AcDb2dVertex
 10
1228.4411221888
 20
73.737963986
 30
0.0
 70
         1
  0
VERTEX
  5
2B3
100
AcDbEntity
  8
_X______
  6
CONTINUOUS
 62
         7
100
AcDbVertex
100
AcDb2dVertex
 10
1228.4836167326
 20
74.063591024
 30
0.0
 70
         1
  0
VERTEX
  5
2B5
100
AcDbEntity
  8
_X______
  6
CONTINUOUS
 62
         7
100
AcDbVertex
100
AcDb2dVertex
 10
1228.5015108555
 20
74.3632948174
 30
0.0
 70
         1
  0
VERTEX
  5
2B7
100
AcDbEntity
  8
_X______
  6
CONTINUOUS
 62
         7
100
AcDbVertex
100
AcDb2dVertex
 10
1228.4994380139
 20
74.6364024311
 30
0.0
 70
         1
  0
VERTEX
  5
2B9
100
AcDbEntity
  8
_X______
  6
CONTINUOUS
 62
         7
100
AcDbVertex
100
AcDb2dVertex
 10
1228.4724247418
 20
74.9630502829
 30
0.0
 70
         1
  0
VERTEX
  5
2BB
100
AcDbEntity
  8
_X______
  6
CONTINUOUS
 62
         7
100
AcDbVertex
100
AcDb2dVertex
 10
1228.4254747299
 20
75.245434731
 30
0.0
 70
         1
  0
VERTEX
  5
2BD
100
AcDbEntity
  8
_X______
  6
CONTINUOUS
 62
         7
100
AcDbVertex
100
AcDb2dVertex
 10
1228.3654921767
 20
75.4879132515
 30
0.0
 70
         1
  0
VERTEX
  5
2BF
100
AcDbEntity
  8
_X______
  6
CONTINUOUS
 62
         7
100
AcDbVertex
100
AcDb2dVertex
 10
1228.2728237587
 20
75.7607158339
 30
0.0
 70
         1
  0
VERTEX
  5
2C1
100
AcDbEntity
  8
_X______
  6
CONTINUOUS
 62
         7
100
AcDbVertex
100
AcDb2dVertex
 10
1228.1748690858
 20
75.9808681771
 30
0.0
 70
         1
  0
VERTEX
  5
2C3
100
AcDbEntity
  8
_X______
  6
CONTINUOUS
 62
         7
100
AcDbVertex
100
AcDb2dVertex
 10
1228.0773474619
 20
76.1585559021
 30
0.0
 70
         1
  0
VERTEX
  5
2C5
100
AcDbEntity
  8
_X______
  6
CONTINUOUS
 62
         7
100
AcDbVertex
100
AcDb2dVertex
 10
1227.9514083666
 20
76.3469243596
 30
0.0
 70
         1
  0
VERTEX
  5
2C7
100
AcDbEntity
  8
_X______
  6
CONTINUOUS
 62
         7
100
AcDbVertex
100
AcDb2dVertex
 10
1227.79746993
 20
76.5325312995
 30
0.0
 70
         1
  0
VERTEX
  5
2C9
100
AcDbEntity
  8
_X______
  6
CONTINUOUS
 62
         7
100
AcDbVertex
100
AcDb2dVertex
 10
1227.6668450875
 20
76.6611906092
 30
0.0
 70
         1
  0
VERTEX
  5
2CB
100
AcDbEntity
  8
_X______
  6
CONTINUOUS
 62
         7
100
AcDbVertex
100
AcDb2dVertex
 10
1227.521818589
 20
76.7795582582
 30
0.0
 70
         1
  0
VERTEX
  5
2CD
100
AcDbEntity
  8
_X______
  6
CONTINUOUS
 62
         7
100
AcDbVertex
100
AcDb2dVertex
 10
1227.3743586643
 20
76.8779759438
 30
0.0
 70
         1
  0
VERTEX
  5
2CF
100
AcDbEntity
  8
_X______
  6
CONTINUOUS
 62
         7
100
AcDbVertex
100
AcDb2dVertex
 10
1227.1975729724
 20
76.9712895933
 30
0.0
 70
         1
  0
VERTEX
  5
2D1
100
AcDbEntity
  8
_X______
  6
CONTINUOUS
 62
         7
100
AcDbVertex
100
AcDb2dVertex
 10
1227.0632680208
 20
77.0264488322
 30
0.0
 70
         1
  0
SEQEND
  5
2D3
100
AcDbEntity
  8
_X______
  6
CONTINUOUS
 62
         7
  0
LINE
  5
2D4
100
AcDbEntity
  8
_X______
  6
CENTER
 62
         1
100
AcDbLine
 10
1230.564660623
 20
72.0274239428
 30
0.0
 11
1221.1677344152
 21
75.4476253761
 31
0.0
  0
LINE
  5
2D5
100
AcDbEntity
  8
_X______
  6
CENTER
 62
         1
100
AcDbLine
 10
1257.3639808204
 20
160.1701802397
 30
0.0
 11
1219.8166451685
 21
57.0097233753
 31
0.0
  0
LINE
  5
2D6
100
AcDbEntity
  8
_X______
  6
CENTER
 62
         1
100
AcDbLine
 10
1534.8786999334
 20
-78.7087953246
 30
0.0
 11
1534.8786999334
 21
-116.3436751498
 31
0.0
  0
LINE
  5
2D7
100
AcDbEntity
  8
_X______
  6
CONTINUOUS
 62
         7
100
AcDbLine
 10
1536.5286999334
 20
-94.2177984316
 30
0.0
 11
1536.5286999334
 21
-116.3436751498
 31
0.0
  0
LINE
  5
2D8
100
AcDbEntity
  8
_X______
  6
CONTINUOUS
 62
         7
100
AcDbLine
 10
1533.2286999334
 20
-116.3436751498
 30
0.0
 11
1533.2286999334
 21
-92.1682501989
 31
0.0
  0
LINE
  5
2D9
100
AcDbEntity
  8
_X______
  6
CONTINUOUS
 62
         7
100
AcDbLine
 10
1533.2286999334
 20
-85.4539899607
 30
0.0
 11
1534.5445975948
 21
-86.3753914227
 31
0.0
  0
LINE
  5
2DA
100
AcDbEntity
  8
_X______
  6
CONTINUOUS
 62
         7
100
AcDbLine
 10
1533.2286999334
 20
-86.0643772551
 30
0.0
 11
1533.2286999334
 21
-85.4539899607
 31
0.0
  0
LINE
  5
2DB
100
AcDbEntity
  8
_X______
  6
CONTINUOUS
 62
         7
100
AcDbLine
 10
1531.3899271948
 20
-90.8807276663
 30
0.0
 11
1533.2286999334
 21
-88.2546880449
 31
0.0
  0
LINE
  5
2DC
100
AcDbEntity
  8
_X______
  6
CONTINUOUS
 62
         7
100
AcDbLine
 10
1533.2286999334
 20
-86.0643772551
 30
0.0
 11
1530.1620491551
 21
-83.9170852631
 31
0.0
  0
LINE
  5
2DD
100
AcDbEntity
  8
_X______
  6
CONTINUOUS
 62
         7
100
AcDbLine
 10
1536.5286999334
 20
-94.0024803964
 30
0.0
 11
1539.1727216423
 21
-90.226426063
 31
0.0
  0
LINE
  5
2DE
100
AcDbEntity
  8
_X______
  6
CONTINUOUS
 62
         7
100
AcDbLine
 10
1538.9211246846
 20
-93.1021924485
 30
0.0
 11
1536.5286999334
 21
-94.2177984316
 31
0.0
  0
LINE
  5
2DF
100
AcDbEntity
  8
_X______
  6
CONTINUOUS
 62
         7
100
AcDbLine
 10
1538.9211246846
 20
-93.1021924485
 30
0.0
 11
1539.1727216423
 21
-90.226426063
 31
0.0
  0
LINE
  5
2E0
100
AcDbEntity
  8
_X______
  6
CONTINUOUS
 62
         4
100
AcDbLine
 10
1530.4488373733
 20
-83.507509241
 30
0.0
 11
1533.2286999334
 21
-85.4539899607
 31
0.0
  0
LINE
  5
2E1
100
AcDbEntity
  8
_X______
  6
CONTINUOUS
 62
         7
100
AcDbLine
 10
1531.1031389767
 20
-91.2903036885
 30
0.0
 11
1531.3899271948
 21
-90.8807276663
 31
0.0
  0
LINE
  5
2E2
100
AcDbEntity
  8
_X______
  6
CONTINUOUS
 62
         7
100
AcDbLine
 10
1530.4488373733
 20
-83.507509241
 30
0.0
 11
1530.4775161951
 21
-83.4665516388
 31
0.0
  0
LINE
  5
2E3
100
AcDbEntity
  8
_X______
  6
CONTINUOUS
 62
         4
100
AcDbLine
 10
1532.8786999334
 20
-85.1150166132
 30
0.0
 11
1536.8786999334
 21
-85.1150166132
 31
0.0
  0
LINE
  5
2E4
100
AcDbEntity
  8
_X______
  6
CONTINUOUS
 62
         7
100
AcDbLine
 10
1532.8786999334
 20
-85.1150166132
 30
0.0
 11
1533.2286999334
 21
-85.3170892074
 31
0.0
  0
LINE
  5
2E5
100
AcDbEntity
  8
_X______
  6
CONTINUOUS
 62
         7
100
AcDbLine
 10
1533.2286999334
 20
-85.3170892074
 30
0.0
 11
1536.5286999334
 21
-85.3170892074
 31
0.0
  0
LINE
  5
2E6
100
AcDbEntity
  8
_X______
  6
CONTINUOUS
 62
         7
100
AcDbLine
 10
1536.8786999334
 20
-85.1150166132
 30
0.0
 11
1536.5286999334
 21
-85.3170892074
 31
0.0
  0
LINE
  5
2E7
100
AcDbEntity
  8
_X______
  6
CONTINUOUS
 62
         7
100
AcDbLine
 10
1536.5286999334
 20
-85.3170892074
 30
0.0
 11
1536.5286999334
 21
-88.3750621312
 31
0.0
  0
LINE
  5
2E8
100
AcDbEntity
  8
_X______
  6
CONTINUOUS
 62
         7
100
AcDbLine
 10
1539.1727216423
 20
-90.226426063
 30
0.0
 11
1536.5286999334
 21
-88.3750621312
 31
0.0
  0
LINE
  5
2E9
100
AcDbEntity
  8
_X______
  6
CONTINUOUS
 62
         4
100
AcDbLine
 10
1536.5286999334
 20
-88.3750621312
 30
0.0
 11
1533.2286999334
 21
-86.0643772551
 31
0.0
  0
LINE
  5
2EA
100
AcDbEntity
  8
_X______
  6
CONTINUOUS
 62
         4
100
AcDbLine
 10
1536.3048394606
 20
-94.3221862844
 30
0.0
 11
1533.2286999334
 21
-92.1682501989
 31
0.0
  0
LINE
  5
2EB
100
AcDbEntity
  8
_X______
  6
CONTINUOUS
 62
         4
100
AcDbLine
 10
1536.3048394606
 20
-94.3221862844
 30
0.0
 11
1536.5286999334
 21
-94.0024803964
 31
0.0
  0
LINE
  5
2EC
100
AcDbEntity
  8
_X______
  6
CONTINUOUS
 62
         4
100
AcDbLine
 10
1536.5286999334
 20
-94.2177984316
 30
0.0
 11
1536.3048394606
 21
-94.3221862844
 31
0.0
  0
LINE
  5
2ED
100
AcDbEntity
  8
_X______
  6
CONTINUOUS
 62
         4
100
AcDbLine
 10
1533.2286999334
 20
-88.2546880449
 30
0.0
 11
1534.5445975948
 21
-86.3753914227
 31
0.0
  0
LINE
  5
2EE
100
AcDbEntity
  8
_X______
  6
CONTINUOUS
 62
         7
100
AcDbLine
 10
1533.2286999334
 20
-85.4539899607
 30
0.0
 11
1533.2286999334
 21
-85.3170892074
 31
0.0
  0
LINE
  5
2EF
100
AcDbEntity
  8
_X______
  6
CONTINUOUS
 62
         4
100
AcDbLine
 10
1536.5286999334
 20
-88.3750621312
 30
0.0
 11
1536.5286999334
 21
-94.2177984316
 31
0.0
  0
LINE
  5
2F0
100
AcDbEntity
  8
_X______
  6
CONTINUOUS
 62
         4
100
AcDbLine
 10
1533.2286999334
 20
-86.0643772551
 30
0.0
 11
1533.2286999334
 21
-92.1682501989
 31
0.0
  0
LINE
  5
2F1
100
AcDbEntity
  8
_X______
  6
CENTER
 62
         1
100
AcDbLine
 10
1539.0645187937
 20
-92.8974044374
 30
0.0
 11
1527.1220940425
 21
-84.5352286021
 31
0.0
  0
LINE
  5
2F2
100
AcDbEntity
  8
_X______
  6
CONTINUOUS
 62
         7
100
AcDbLine
 10
1536.8786999334
 20
-80.6509149981
 30
0.0
 11
1536.8786999334
 21
-85.1150166132
 31
0.0
  0
LINE
  5
2F3
100
AcDbEntity
  8
_X______
  6
CONTINUOUS
 62
         7
100
AcDbLine
 10
1532.8786999334
 20
-80.6509149981
 30
0.0
 11
1532.8786999334
 21
-85.1150166132
 31
0.0
  0
LINE
  5
2F4
100
AcDbEntity
  8
_X______
  6
CONTINUOUS
 62
         7
100
AcDbLine
 10
1530.4775161951
 20
-83.4665516388
 30
0.0
 11
1526.9786999334
 21
-81.0166541175
 31
0.0
  0
LINE
  5
2F5
100
AcDbEntity
  8
_X______
  6
CONTINUOUS
 62
         7
100
AcDbLine
 10
1527.0073787552
 20
-88.4224215067
 30
0.0
 11
1530.4488373733
 21
-83.507509241
 31
0.0
  0
LINE
  5
2F6
100
AcDbEntity
  8
_X______
  6
CONTINUOUS
 62
         7
100
AcDbLine
 10
1533.2286999334
 20
-92.1682501989
 30
0.0
 11
1527.2941669734
 21
-88.0128454846
 31
0.0
  0
LINE
  5
2F7
100
AcDbEntity
  8
_X______
  6
CONTINUOUS
 62
         4
100
AcDbLine
 10
1531.1031389767
 20
-91.2903036885
 30
0.0
 11
1527.0073787552
 21
-88.4224215067
 31
0.0
  0
DIMENSION
  5
2FB
100
AcDbEntity
  8
L1_150
  6
CONTINUOUS
 62
         4
100
AcDbDimension
  2
*D1
 10
1681.6492848731
 20
126.2524144385
 30
0.0
 11
1679.0242848731
 21
101.9158460912
 31
0.0
  3
DIMSTYLE1
100
AcDbAlignedDimension
 13
1645.3401983801
 23
126.2524144385
 33
0.0
 14
1645.3401983801
 24
98.2524144385
 34
0.0
 50
90.0
100
AcDbRotatedDimension
  0
LINE
  5
308
100
AcDbEntity
  8
L1_150
  6
CONTINUOUS
 62
         7
100
AcDbLine
 10
1422.1786999334
 20
130.1987502026
 30
0.0
 11
1422.1786999334
 21
94.3060786745
 31
0.0
  0
LINE
  5
309
100
AcDbEntity
  8
L1_150
  6
CONTINUOUS
 62
         7
100
AcDbLine
 10
1526.9786999334
 20
159.5024144385
 30
0.0
 11
1526.9786999334
 21
65.0024144385
 31
0.0
  0
LINE
  5
30A
100
AcDbEntity
  8
L1_150
  6
CENTER
 62
         1
100
AcDbLine
 10
1523.7786999334
 20
151.9774144385
 30
0.0
 11
1523.7786999334
 21
73.981360093
 31
0.0
  0
DIMENSION
  5
30D
100
AcDbEntity
  8
L1_150
  6
CONTINUOUS
 62
         4
100
AcDbDimension
  2
*D2
 10
1422.1786999334
 20
222.9450912428
 30
0.0
 11
1534.4987630581
 21
225.5700912428
 31
0.0
  3
DIMSTYLE1
100
AcDbAlignedDimension
 13
1422.1786999334
 23
130.1987502026
 33
0.0
 14
1663.1786999334
 24
112.2524144385
 34
0.0
100
AcDbRotatedDimension
  0
LINE
  5
319
100
AcDbEntity
  8
L1_150
  6
CENTER
 62
         1
100
AcDbLine
 10
1542.8786999334
 20
112.2524144385
 30
0.0
 11
1664.5524110866
 21
112.2524144385
 31
0.0
  0
LINE
  5
31A
100
AcDbEntity
  8
L1_150
  6
CONTINUOUS
 62
         7
100
AcDbLine
 10
1623.6153093625
 20
126.2524144385
 30
0.0
 11
1645.3401983801
 21
126.2524144385
 31
0.0
  0
ARC
  5
31B
100
AcDbEntity
  8
L1_150
  6
CONTINUOUS
 62
         7
100
AcDbCircle
 10
1645.3401983801
 20
124.2524144385
 30
0.0
 40
2.0
100
AcDbArc
 50
15.0
 51
90.0
  0
ARC
  5
31C
100
AcDbEntity
  8
L1_150
  6
CONTINUOUS
 62
         7
100
AcDbCircle
 10
1648.4460269214
 20
124.2524144385
 30
0.0
 40
1.0
100
AcDbArc
 50
195.0
 51
270.0
  0
LINE
  5
31D
100
AcDbEntity
  8
L1_150
  6
CONTINUOUS
 62
         7
100
AcDbLine
 10
1647.4801010951
 20
123.9935953934
 30
0.0
 11
1647.2720500327
 21
124.7700525288
 31
0.0
  0
LINE
  5
31E
100
AcDbEntity
  8
L1_150
  6
CONTINUOUS
 62
         7
100
AcDbLine
 10
1647.4801010951
 20
100.5112334837
 30
0.0
 11
1647.2720500327
 21
99.7347763483
 31
0.0
  0
ARC
  5
31F
100
AcDbEntity
  8
L1_150
  6
CONTINUOUS
 62
         7
100
AcDbCircle
 10
1648.4460269214
 20
100.2524144385
 30
0.0
 40
1.0
100
AcDbArc
 50
90.0
 51
165.0
  0
ARC
  5
320
100
AcDbEntity
  8
L1_150
  6
CONTINUOUS
 62
         7
100
AcDbCircle
 10
1645.3401983801
 20
100.2524144385
 30
0.0
 40
2.0
100
AcDbArc
 50
270.0
 51
345.0
  0
LINE
  5
321
100
AcDbEntity
  8
L1_150
  6
CONTINUOUS
 62
         7
100
AcDbLine
 10
1623.1786999334
 20
98.2524144385
 30
0.0
 11
1645.3401983801
 21
98.2524144385
 31
0.0
  0
LINE
  5
322
100
AcDbEntity
  8
L1_150
  6
CONTINUOUS
 62
         4
100
AcDbLine
 10
1647.6786999334
 20
123.6111584105
 30
0.0
 11
1647.6786999334
 21
100.8936704666
 31
0.0
  0
DIMENSION
  5
325
100
AcDbEntity
  8
L1_150
  6
CONTINUOUS
 62
         4
100
AcDbDimension
  2
*D3
 10
1647.6786999334
 20
182.158743897
 30
0.0
 11
1638.3536705201
 21
184.783743897
 31
0.0
  3
DIMSTYLE1
100
AcDbAlignedDimension
 13
1647.6786999334
 23
123.6111584105
 33
0.0
 14
1663.1786999334
 24
122.2524144385
 34
0.0
100
AcDbRotatedDimension
  0
LINE
  5
332
100
AcDbEntity
  8
L1_150
  6
CONTINUOUS
 62
         7
100
AcDbLine
 10
1648.4460269214
 20
123.2524144385
 30
0.0
 11
1661.6786999334
 21
123.2524144385
 31
0.0
  0
LINE
  5
333
100
AcDbEntity
  8
L1_150
  6
CONTINUOUS
 62
         7
100
AcDbLine
 10
1648.4460269214
 20
101.2524144385
 30
0.0
 11
1661.6786999334
 21
101.2524144385
 31
0.0
  0
LINE
  5
334
100
AcDbEntity
  8
L1_150
  6
CONTINUOUS
 62
         4
100
AcDbLine
 10
1663.0929134958
 20
122.2524144385
 30
0.0
 11
1650.1786999334
 21
122.2524144385
 31
0.0
  0
LINE
  5
335
100
AcDbEntity
  8
L1_150
  6
CONTINUOUS
 62
         4
100
AcDbLine
 10
1663.0929134958
 20
102.2524144385
 30
0.0
 11
1650.1786999334
 21
102.2524144385
 31
0.0
  0
LINE
  5
336
100
AcDbEntity
  8
L1_150
  6
CONTINUOUS
 62
         7
100
AcDbLine
 10
1650.1786999334
 20
123.2524144385
 30
0.0
 11
1650.1786999334
 21
101.2524144385
 31
0.0
  0
LINE
  5
337
100
AcDbEntity
  8
L1_150
  6
CONTINUOUS
 62
         7
100
AcDbLine
 10
1663.1786999334
 20
102.7524144385
 30
0.0
 11
1663.1786999334
 21
121.7524144385
 31
0.0
  0
ARC
  5
338
100
AcDbEntity
  8
L1_150
  6
CONTINUOUS
 62
         7
100
AcDbCircle
 10
1661.6786999334
 20
121.7524144385
 30
0.0
 40
1.5
100
AcDbArc
 50
0.0
 51
90.0
  0
ARC
  5
339
100
AcDbEntity
  8
L1_150
  6
CONTINUOUS
 62
         7
100
AcDbCircle
 10
1661.6786999334
 20
102.7524144385
 30
0.0
 40
1.5
100
AcDbArc
 50
270.0
 51
360.0
  0
ARC
  5
33A
100
AcDbEntity
  8
L1_150
  6
CONTINUOUS
 62
         4
100
AcDbCircle
 10
1845.8340594905
 20
112.2524144385
 30
0.0
 40
10.0
100
AcDbArc
 50
250.2170796992
 51
556.8024117489
  0
CIRCLE
  5
33B
100
AcDbEntity
  8
L1_150
  6
CONTINUOUS
 62
         7
100
AcDbCircle
 10
1845.8340594905
 20
112.2524144385
 30
0.0
 40
11.0
  0
CIRCLE
  5
33C
100
AcDbEntity
  8
L1_150
  6
CONTINUOUS
 62
         7
100
AcDbCircle
 10
1845.8340594905
 20
112.2524144385
 30
0.0
 40
8.0
  0
LINE
  5
33D
100
AcDbEntity
  8
L1_150
  6
CENTER
 62
         1
100
AcDbLine
 10
1812.3135069148
 20
112.2524144385
 30
0.0
 11
1883.8203526036
 21
112.2524144385
 31
0.0
  0
LINE
  5
33E
100
AcDbEntity
  8
L1_150
  6
CENTER
 62
         1
100
AcDbLine
 10
1845.8340594905
 20
78.7318618628
 30
0.0
 11
1845.8340594905
 21
150.2387075516
 31
0.0
  0
CIRCLE
  5
33F
100
AcDbEntity
  8
L1_150
  6
CONTINUOUS
 62
         7
100
AcDbCircle
 10
1845.8340594905
 20
112.2524144385
 30
0.0
 40
14.0
  0
ARC
  5
340
100
AcDbEntity
  8
L1_150
  6
CONTINUOUS
 62
         7
100
AcDbCircle
 10
1661.6786999334
 20
-136.2400166132
 30
0.0
 40
1.5
100
AcDbArc
 50
270.0
 51
360.0
  0
ARC
  5
341
100
AcDbEntity
  8
L1_150
  6
CONTINUOUS
 62
         7
100
AcDbCircle
 10
1661.6786999334
 20
-117.2400166132
 30
0.0
 40
1.5
100
AcDbArc
 50
0.0
 51
90.0
  0
LINE
  5
342
100
AcDbEntity
  8
L1_150
  6
CONTINUOUS
 62
         4
100
AcDbLine
 10
1663.0929134958
 20
-136.7400166132
 30
0.0
 11
1650.1786999334
 21
-136.7400166132
 31
0.0
  0
LINE
  5
343
100
AcDbEntity
  8
L1_150
  6
CONTINUOUS
 62
         4
100
AcDbLine
 10
1663.0929134958
 20
-116.7400166132
 30
0.0
 11
1650.1786999334
 21
-116.7400166132
 31
0.0
  0
LINE
  5
344
100
AcDbEntity
  8
L1_150
  6
CONTINUOUS
 62
         7
100
AcDbLine
 10
1663.1786999334
 20
-117.2400166132
 30
0.0
 11
1663.1786999334
 21
-136.2400166132
 31
0.0
  0
LINE
  5
345
100
AcDbEntity
  8
L1_150
  6
CENTER
 62
         1
100
AcDbLine
 10
1572.2216315982
 20
-126.7400166132
 30
0.0
 11
1665.3410755515
 21
-126.7400166132
 31
0.0
  0
LINE
  5
346
100
AcDbEntity
  8
L1_150
  6
CONTINUOUS
 62
         7
100
AcDbLine
 10
1623.1786999334
 20
-112.7400166132
 30
0.0
 11
1645.3401983801
 21
-112.7400166132
 31
0.0
  0
ARC
  5
347
100
AcDbEntity
  8
L1_150
  6
CONTINUOUS
 62
         7
100
AcDbCircle
 10
1645.3401983801
 20
-114.7400166132
 30
0.0
 40
2.0
100
AcDbArc
 50
15.0
 51
90.0
  0
LINE
  5
348
100
AcDbEntity
  8
L1_150
  6
CONTINUOUS
 62
         7
100
AcDbLine
 10
1647.4801010951
 20
-114.9988356583
 30
0.0
 11
1647.2720500327
 21
-114.222378523
 31
0.0
  0
ARC
  5
349
100
AcDbEntity
  8
L1_150
  6
CONTINUOUS
 62
         7
100
AcDbCircle
 10
1648.4460269214
 20
-114.7400166132
 30
0.0
 40
1.0
100
AcDbArc
 50
195.0
 51
270.0
  0
ARC
  5
34A
100
AcDbEntity
  8
L1_150
  6
CONTINUOUS
 62
         7
100
AcDbCircle
 10
1648.4460269214
 20
-138.7400166132
 30
0.0
 40
1.0
100
AcDbArc
 50
90.0
 51
165.0
  0
LINE
  5
34B
100
AcDbEntity
  8
L1_150
  6
CONTINUOUS
 62
         7
100
AcDbLine
 10
1647.4801010951
 20
-138.4811975681
 30
0.0
 11
1647.2720500327
 21
-139.2576547034
 31
0.0
  0
ARC
  5
34C
100
AcDbEntity
  8
L1_150
  6
CONTINUOUS
 62
         7
100
AcDbCircle
 10
1645.3401983801
 20
-138.7400166132
 30
0.0
 40
2.0
100
AcDbArc
 50
270.0
 51
345.0
  0
LINE
  5
34D
100
AcDbEntity
  8
L1_150
  6
CONTINUOUS
 62
         7
100
AcDbLine
 10
1623.1786999334
 20
-140.7400166132
 30
0.0
 11
1645.3401983801
 21
-140.7400166132
 31
0.0
  0
LINE
  5
34E
100
AcDbEntity
  8
L1_150
  6
CONTINUOUS
 62
         7
100
AcDbLine
 10
1648.4460269214
 20
-137.7400166132
 30
0.0
 11
1661.6786999334
 21
-137.7400166132
 31
0.0
  0
LINE
  5
34F
100
AcDbEntity
  8
L1_150
  6
CONTINUOUS
 62
         7
100
AcDbLine
 10
1648.4460269214
 20
-115.7400166132
 30
0.0
 11
1661.6786999334
 21
-115.7400166132
 31
0.0
  0
LINE
  5
350
100
AcDbEntity
  8
L1_150
  6
CONTINUOUS
 62
         7
100
AcDbLine
 10
1650.1786999334
 20
-115.7400166132
 30
0.0
 11
1650.1786999334
 21
-116.7400166132
 31
0.0
  0
LINE
  5
351
100
AcDbEntity
  8
L1_150
  6
CONTINUOUS
 62
         7
100
AcDbLine
 10
1650.1786999334
 20
-136.7400166132
 30
0.0
 11
1650.1786999334
 21
-137.7400166132
 31
0.0
  0
LINE
  5
352
100
AcDbEntity
  8
L1_150
  6
CONTINUOUS
 62
         7
100
AcDbLine
 10
1583.1786999334
 20
-121.1850166132
 30
0.0
 11
1583.1786999334
 21
-132.2950166132
 31
0.0
  0
LINE
  5
353
100
AcDbEntity
  8
L1_150
  6
CONTINUOUS
 62
         7
100
AcDbLine
 10
1646.1346561848
 20
-121.1350166132
 30
0.0
 11
1661.8874595848
 21
-118.9211044745
 31
0.0
  0
LINE
  5
354
100
AcDbEntity
  8
L1_150
  6
CONTINUOUS
 62
         7
100
AcDbLine
 10
1646.1346561848
 20
-132.3450166132
 30
0.0
 11
1661.8874595848
 21
-134.5589287519
 31
0.0
  0
LINE
  5
355
100
AcDbEntity
  8
L1_150
  6
CONTINUOUS
 62
         4
100
AcDbLine
 10
1661.8874595848
 20
-134.5589287519
 30
0.0
 11
1661.8874595848
 21
-118.9211044745
 31
0.0
  0
ARC
  5
356
100
AcDbEntity
  8
L1_150
  6
CONTINUOUS
 62
         7
100
AcDbCircle
 10
1661.6786999334
 20
-117.4357023713
 30
0.0
 40
1.5
100
AcDbArc
 50
278.0
 51
360.0
  0
ARC
  5
357
100
AcDbEntity
  8
L1_150
  6
CONTINUOUS
 62
         7
100
AcDbCircle
 10
1661.6786999334
 20
-136.044330855
 30
0.0
 40
1.5
100
AcDbArc
 50
0.0
 51
82.0
  0
LINE
  5
358
100
AcDbEntity
  8
L1_150
  6
CENTER
 62
         1
100
AcDbLine
 10
1570.0458002288
 20
-126.7400166132
 30
0.0
 11
1665.3410755515
 21
-126.7400166132
 31
0.0
  0
DIMENSION
  5
35B
100
AcDbEntity
  8
L1_150
  6
CONTINUOUS
 62
         4
100
AcDbDimension
  2
*D4
 10
1583.1786999334
 20
-183.7394784637
 30
0.0
 11
1619.3594497976
 21
-181.1144784637
 31
0.0
  3
DIMSTYLE1
100
AcDbAlignedDimension
 13
1583.1786999334
 23
-131.7400166132
 33
0.0
 14
1663.1786999334
 24
-136.7400166132
 34
0.0
100
AcDbRotatedDimension
  0
DIMENSION
  5
369
100
AcDbEntity
  8
L1_150
  6
CONTINUOUS
 62
         4
100
AcDbDimension
  2
*D5
 10
1573.1786999334
 20
-191.7615782846
 30
0.0
 11
1613.2408990868
 21
-189.1365782846
 31
0.0
  3
DIMSTYLE1
100
AcDbAlignedDimension
 13
1573.1786999334
 23
-130.9900166132
 33
0.0
 14
1663.1786999334
 24
-136.7400166132
 34
0.0
100
AcDbRotatedDimension
  0
CIRCLE
  5
375
100
AcDbEntity
  8
L1_150
  6
CONTINUOUS
 62
         7
100
AcDbCircle
 10
1845.8340594905
 20
112.2524144385
 30
0.0
 40
5.75
  0
CIRCLE
  5
376
100
AcDbEntity
  8
L1_150
  6
CONTINUOUS
 62
         7
100
AcDbCircle
 10
1845.8340594905
 20
112.2524144385
 30
0.0
 40
4.97
  0
ARC
  5
377
100
AcDbEntity
  8
L1_150
  6
CONTINUOUS
 62
         4
100
AcDbCircle
 10
1845.8340594905
 20
112.2524144385
 30
0.0
 40
5.4
100
AcDbArc
 50
180.0
 51
450.0
  0
LINE
  5
378
100
AcDbEntity
  8
L1_150
  6
CONTINUOUS
 62
         4
100
AcDbLine
 10
1623.1786999334
 20
98.2524144385
 30
0.0
 11
1623.1786999334
 21
126.2524144385
 31
0.0
  0
LINE
  5
379
100
AcDbEntity
  8
L1_150
  6
CONTINUOUS
 62
         7
100
AcDbLine
 10
1622.743751935
 20
126.2904674576
 30
0.0
 11
1563.3949212197
 21
131.4828173387
 31
0.0
  0
LINE
  5
37A
100
AcDbEntity
  8
L1_150
  6
CONTINUOUS
 62
         7
100
AcDbLine
 10
1623.1786999334
 20
98.2524144385
 30
0.0
 11
1563.3949212197
 21
93.0220115384
 31
0.0
  0
ARC
  5
37B
100
AcDbEntity
  8
L1_150
  6
CONTINUOUS
 62
         7
100
AcDbCircle
 10
1563.8306999334
 20
136.4637908292
 30
0.0
 40
5.0
100
AcDbArc
 50
180.0
 51
265.0
  0
ARC
  5
37C
100
AcDbEntity
  8
L1_150
  6
CONTINUOUS
 62
         7
100
AcDbCircle
 10
1563.8306999334
 20
88.0410380479
 30
0.0
 40
5.0
100
AcDbArc
 50
95.0
 51
180.0
  0
ARC
  5
37D
100
AcDbEntity
  8
L1_150
  6
CONTINUOUS
 62
         7
100
AcDbCircle
 10
1563.8306999334
 20
-102.5286402225
 30
0.0
 40
5.0
100
AcDbArc
 50
180.0
 51
265.0
  0
LINE
  5
37E
100
AcDbEntity
  8
L1_150
  6
CONTINUOUS
 62
         7
100
AcDbLine
 10
1623.1786999334
 20
-112.7400166132
 30
0.0
 11
1563.3949212197
 21
-107.509613713
 31
0.0
  0
ARC
  5
37F
100
AcDbEntity
  8
L1_150
  6
CONTINUOUS
 62
         7
100
AcDbCircle
 10
1563.8306999334
 20
-150.9513930039
 30
0.0
 40
5.0
100
AcDbArc
 50
95.0
 51
180.0
  0
LINE
  5
380
100
AcDbEntity
  8
L1_150
  6
CONTINUOUS
 62
         7
100
AcDbLine
 10
1623.1786999334
 20
-140.7400166132
 30
0.0
 11
1563.3949212197
 21
-145.9704195134
 31
0.0
  0
LINE
  5
381
100
AcDbEntity
  8
L1_150
  6
CONTINUOUS
 62
         7
100
AcDbLine
 10
1558.8306999334
 20
-93.6150166132
 30
0.0
 11
1558.8306999334
 21
-102.5286402225
 31
0.0
  0
LINE
  5
382
100
AcDbEntity
  8
L1_150
  6
CONTINUOUS
 62
         7
100
AcDbLine
 10
1558.8306999334
 20
-150.9513930039
 30
0.0
 11
1558.8306999334
 21
-159.8650166132
 31
0.0
  0
ARC
  5
383
100
AcDbEntity
  8
L1_150
  6
CONTINUOUS
 62
         7
100
AcDbCircle
 10
1623.6153093625
 20
136.2524144385
 30
0.0
 40
10.0
100
AcDbArc
 50
265.0
 51
270.0
  0
LINE
  5
384
100
AcDbEntity
  8
L1_150
  6
CONTINUOUS
 62
         7
100
AcDbLine
 10
1570.0458002288
 20
-116.3436751498
 30
0.0
 11
1458.3570259582
 21
-116.3436751498
 31
0.0
  0
LINE
  5
385
100
AcDbEntity
  8
L1_150
  6
CONTINUOUS
 62
         7
100
AcDbLine
 10
1570.0458002288
 20
-137.1363580766
 30
0.0
 11
1458.3570259582
 21
-137.1363580766
 31
0.0
  0
LINE
  5
386
100
AcDbEntity
  8
L1_150
  6
CONTINUOUS
 62
         7
100
AcDbLine
 10
1570.0458002288
 20
-116.3436751498
 30
0.0
 11
1573.1180781551
 21
-121.6650166132
 31
0.0
  0
LINE
  5
387
100
AcDbEntity
  8
L1_150
  6
CONTINUOUS
 62
         7
100
AcDbLine
 10
1570.0458002288
 20
-137.1363580766
 30
0.0
 11
1573.1180781551
 21
-131.8150166132
 31
0.0
  0
LINE
  5
388
100
AcDbEntity
  8
L1_150
  6
CONTINUOUS
 62
         7
100
AcDbLine
 10
1570.0458002288
 20
-116.3436751498
 30
0.0
 11
1570.0458002288
 21
-137.1363580766
 31
0.0
  0
LINE
  5
389
100
AcDbEntity
  8
L1_150
  6
CENTER
 62
         1
100
AcDbLine
 10
1422.0286999334
 20
-126.7400166132
 30
0.0
 11
1542.8786999334
 21
-126.7400166132
 31
0.0
  0
LINE
  5
38A
100
AcDbEntity
  8
L1_150
  6
CONTINUOUS
 62
         7
100
AcDbLine
 10
1669.0786999334
 20
122.0524144385
 30
0.0
 11
1669.0786999334
 21
119.4524144385
 31
0.0
  0
LINE
  5
38B
100
AcDbEntity
  8
L1_150
  6
CONTINUOUS
 62
         7
100
AcDbLine
 10
1656.8918459193
 20
102.0644144385
 30
0.0
 11
1656.8918459193
 21
122.4404144385
 31
0.0
  0
LINE
  5
38C
100
AcDbEntity
  8
L1_150
  6
CONTINUOUS
 62
         7
100
AcDbLine
 10
1656.2786999334
 20
101.0024144385
 30
0.0
 11
1656.8918459193
 21
102.0644144385
 31
0.0
  0
LINE
  5
38D
100
AcDbEntity
  8
L1_150
  6
CONTINUOUS
 62
         7
100
AcDbLine
 10
1656.2786999334
 20
123.5024144385
 30
0.0
 11
1656.8918459193
 21
122.4404144385
 31
0.0
  0
LINE
  5
38E
100
AcDbEntity
  8
L1_150
  6
CONTINUOUS
 62
         7
100
AcDbLine
 10
1673.0570120969
 20
99.7524144385
 30
0.0
 11
1662.7220756064
 21
99.7524144385
 31
0.0
  0
LINE
  5
38F
100
AcDbEntity
  8
L1_150
  6
CONTINUOUS
 62
         7
100
AcDbLine
 10
1661.2786999334
 20
98.2524144385
 30
0.0
 11
1661.8560502026
 21
99.2524144385
 31
0.0
  0
LINE
  5
390
100
AcDbEntity
  8
L1_150
  6
CONTINUOUS
 62
         7
100
AcDbLine
 10
1661.2786999334
 20
126.2524144385
 30
0.0
 11
1661.8560502026
 21
125.2524144385
 31
0.0
  0
LINE
  5
391
100
AcDbEntity
  8
L1_150
  6
CONTINUOUS
 62
         7
100
AcDbLine
 10
1673.0570120969
 20
124.7524144385
 30
0.0
 11
1662.7220756064
 21
124.7524144385
 31
0.0
  0
LINE
  5
392
100
AcDbEntity
  8
L1_150
  6
CONTINUOUS
 62
         7
100
AcDbLine
 10
1661.2786999334
 20
98.2524144385
 30
0.0
 11
1657.7786999334
 21
98.2524144385
 31
0.0
  0
ARC
  5
393
100
AcDbEntity
  8
L1_150
  6
CONTINUOUS
 62
         7
100
AcDbCircle
 10
-1672.2786999334
 20
101.4043382272
 30
0.0
 40
1.5
210
0.0
220
0.0
230
-1.0
100
AcDbArc
 50
180.0
 51
210.0
  0
LINE
  5
394
100
AcDbEntity
  8
L1_150
  6
CONTINUOUS
 62
         7
100
AcDbLine
 10
1673.5777380391
 20
100.6543382272
 30
0.0
 11
1673.0570120969
 21
99.7524144385
 31
0.0
  0
ARC
  5
395
100
AcDbEntity
  8
L1_150
  6
CONTINUOUS
 62
         7
100
AcDbCircle
 10
-1657.7786999334
 20
99.7524144385
 30
0.0
 40
1.5
210
0.0
220
0.0
230
-1.0
100
AcDbArc
 50
270.0
 51
360.0
  0
ARC
  5
396
100
AcDbEntity
  8
L1_150
  6
CONTINUOUS
 62
         7
100
AcDbCircle
 10
-1657.7786999334
 20
124.7524144385
 30
0.0
 40
1.5
210
0.0
220
0.0
230
-1.0
100
AcDbArc
 50
0.0
 51
90.0
  0
LINE
  5
397
100
AcDbEntity
  8
L1_150
  6
CONTINUOUS
 62
         7
100
AcDbLine
 10
1661.2786999334
 20
126.2524144385
 30
0.0
 11
1657.7786999334
 21
126.2524144385
 31
0.0
  0
ARC
  5
398
100
AcDbEntity
  8
L1_150
  6
CONTINUOUS
 62
         7
100
AcDbCircle
 10
-1672.2786999334
 20
123.1004906499
 30
0.0
 40
1.5
210
0.0
220
0.0
230
-1.0
100
AcDbArc
 50
150.0
 51
180.0
  0
LINE
  5
399
100
AcDbEntity
  8
L1_150
  6
CONTINUOUS
 62
         7
100
AcDbLine
 10
1673.5777380391
 20
123.8504906499
 30
0.0
 11
1673.0570120969
 21
124.7524144385
 31
0.0
  0
LINE
  5
39A
100
AcDbEntity
  8
L1_150
  6
CONTINUOUS
 62
         7
100
AcDbLine
 10
1664.9786999334
 20
100.7524144385
 30
0.0
 11
1663.6666999334
 21
102.0644144385
 31
0.0
  0
ARC
  5
39B
100
AcDbEntity
  8
L1_150
  6
CONTINUOUS
 62
         7
100
AcDbCircle
 10
-1666.9786999334
 20
122.7524144385
 30
0.0
 40
1.0
210
0.0
220
0.0
230
-1.0
100
AcDbArc
 50
90.0
 51
180.0
  0
ARC
  5
39C
100
AcDbEntity
  8
L1_150
  6
CONTINUOUS
 62
         7
100
AcDbCircle
 10
-1666.9786999334
 20
101.7524144385
 30
0.0
 40
1.0
210
0.0
220
0.0
230
-1.0
100
AcDbArc
 50
180.0
 51
270.0
  0
LINE
  5
39D
100
AcDbEntity
  8
L1_150
  6
CONTINUOUS
 62
         7
100
AcDbLine
 10
1670.0786999334
 20
122.0524144385
 30
0.0
 11
1669.0786999334
 21
122.0524144385
 31
0.0
  0
LINE
  5
39E
100
AcDbEntity
  8
L1_150
  6
CONTINUOUS
 62
         7
100
AcDbLine
 10
1670.0786999334
 20
102.4524144385
 30
0.0
 11
1667.9786999334
 21
102.4524144385
 31
0.0
  0
LINE
  5
39F
100
AcDbEntity
  8
L1_150
  6
CONTINUOUS
 62
         7
100
AcDbLine
 10
1670.0786999334
 20
122.0524144385
 30
0.0
 11
1670.0786999334
 21
102.4524144385
 31
0.0
  0
LINE
  5
3A0
100
AcDbEntity
  8
L1_150
  6
CONTINUOUS
 62
         7
100
AcDbLine
 10
1666.9786999334
 20
100.7524144385
 30
0.0
 11
1664.9786999334
 21
100.7524144385
 31
0.0
  0
LINE
  5
3A1
100
AcDbEntity
  8
L1_150
  6
CONTINUOUS
 62
         7
100
AcDbLine
 10
1666.9786999334
 20
123.7524144385
 30
0.0
 11
1664.9786999334
 21
123.7524144385
 31
0.0
  0
LINE
  5
3A2
100
AcDbEntity
  8
L1_150
  6
CONTINUOUS
 62
         7
100
AcDbLine
 10
1664.9786999334
 20
123.7524144385
 30
0.0
 11
1664.9786999334
 21
100.7524144385
 31
0.0
  0
LINE
  5
3A3
100
AcDbEntity
  8
L1_150
  6
CONTINUOUS
 62
         4
100
AcDbLine
 10
1664.4786999334
 20
101.2524144385
 30
0.0
 11
1656.4230375007
 21
101.2524144385
 31
0.0
  0
LINE
  5
3A4
100
AcDbEntity
  8
L1_150
  6
CONTINUOUS
 62
         4
100
AcDbLine
 10
1664.4786999334
 20
123.2524144385
 30
0.0
 11
1656.4230375007
 21
123.2524144385
 31
0.0
  0
LINE
  5
3A5
100
AcDbEntity
  8
L1_150
  6
CONTINUOUS
 62
         7
100
AcDbLine
 10
1663.6666999334
 20
102.0644144385
 30
0.0
 11
1656.8918459193
 21
102.0644144385
 31
0.0
  0
LINE
  5
3A6
100
AcDbEntity
  8
L1_150
  6
CONTINUOUS
 62
         7
100
AcDbLine
 10
1663.6666999334
 20
122.4404144385
 30
0.0
 11
1656.8918459193
 21
122.4404144385
 31
0.0
  0
LINE
  5
3A7
100
AcDbEntity
  8
L1_150
  6
CONTINUOUS
 62
         7
100
AcDbLine
 10
1669.0786999334
 20
119.4524144385
 30
0.0
 11
1667.9786999334
 21
119.4524144385
 31
0.0
  0
LINE
  5
3A8
100
AcDbEntity
  8
L1_150
  6
CONTINUOUS
 62
         7
100
AcDbLine
 10
1670.0786999334
 20
103.9747647077
 30
0.0
 11
1673.7786999334
 21
106.1109607037
 31
0.0
  0
LINE
  5
3A9
100
AcDbEntity
  8
L1_150
  6
CONTINUOUS
 62
         7
100
AcDbLine
 10
1670.0786999334
 20
120.5300641694
 30
0.0
 11
1673.7786999334
 21
118.3938681734
 31
0.0
  0
LINE
  5
3AA
100
AcDbEntity
  8
L1_150
  6
CONTINUOUS
 62
         7
100
AcDbLine
 10
1667.9786999334
 20
122.7524144385
 30
0.0
 11
1667.9786999334
 21
101.7524144385
 31
0.0
  0
LINE
  5
3AB
100
AcDbEntity
  8
L1_150
  6
CONTINUOUS
 62
         7
100
AcDbLine
 10
1669.0786999334
 20
119.4524144385
 30
0.0
 11
1669.0786999334
 21
102.4524144385
 31
0.0
  0
LINE
  5
3AC
100
AcDbEntity
  8
L1_150
  6
CONTINUOUS
 62
         7
100
AcDbLine
 10
1673.7786999334
 20
123.1004906499
 30
0.0
 11
1673.7786999334
 21
101.4043382272
 31
0.0
  0
LINE
  5
3AD
100
AcDbEntity
  8
L1_150
  6
CENTER
 62
         1
100
AcDbLine
 10
1675.3700885063
 20
112.2524144385
 30
0.0
 11
1654.5431178269
 21
112.2524144385
 31
0.0
  0
LINE
  5
3AE
100
AcDbEntity
  8
L1_150
  6
CONTINUOUS
 62
         7
100
AcDbLine
 10
1656.2786999334
 20
124.7524144385
 30
0.0
 11
1656.2786999334
 21
99.7524144385
 31
0.0
  0
ARC
  5
3AF
100
AcDbEntity
  8
L1_150
  6
CONTINUOUS
 62
         7
100
AcDbCircle
 10
-1662.7220756064
 20
125.7524144385
 30
0.0
 40
1.0
210
0.0
220
0.0
230
-1.0
100
AcDbArc
 50
270.0
 51
330.0
  0
ARC
  5
3B0
100
AcDbEntity
  8
L1_150
  6
CONTINUOUS
 62
         7
100
AcDbCircle
 10
-1662.7220756064
 20
98.7524144385
 30
0.0
 40
1.0
210
0.0
220
0.0
230
-1.0
100
AcDbArc
 50
30.0
 51
90.0
  0
LINE
  5
3B1
100
AcDbEntity
  8
L1_150
  6
CONTINUOUS
 62
         7
100
AcDbLine
 10
1663.6666999334
 20
102.0644144385
 30
0.0
 11
1663.6666999334
 21
122.4404144385
 31
0.0
  0
LINE
  5
3B2
100
AcDbEntity
  8
L1_150
  6
CONTINUOUS
 62
         7
100
AcDbLine
 10
1664.9786999334
 20
123.7524144385
 30
0.0
 11
1663.6666999334
 21
122.4404144385
 31
0.0
  0
LINE
  5
3B3
100
AcDbEntity
  8
L1_150
  6
CONTINUOUS
 62
         7
100
AcDbLine
 10
1669.0786999334
 20
-116.9400166132
 30
0.0
 11
1669.0786999334
 21
-119.5400166132
 31
0.0
  0
LINE
  5
3B4
100
AcDbEntity
  8
L1_150
  6
CONTINUOUS
 62
         7
100
AcDbLine
 10
1656.8918459193
 20
-136.9280166132
 30
0.0
 11
1656.8918459193
 21
-116.5520166132
 31
0.0
  0
LINE
  5
3B5
100
AcDbEntity
  8
L1_150
  6
CONTINUOUS
 62
         7
100
AcDbLine
 10
1656.2786999334
 20
-137.9900166132
 30
0.0
 11
1656.8918459193
 21
-136.9280166132
 31
0.0
  0
LINE
  5
3B6
100
AcDbEntity
  8
L1_150
  6
CONTINUOUS
 62
         7
100
AcDbLine
 10
1656.2786999334
 20
-115.4900166132
 30
0.0
 11
1656.8918459193
 21
-116.5520166132
 31
0.0
  0
LINE
  5
3B7
100
AcDbEntity
  8
L1_150
  6
CONTINUOUS
 62
         7
100
AcDbLine
 10
1673.0570120969
 20
-139.2400166132
 30
0.0
 11
1662.7220756064
 21
-139.2400166132
 31
0.0
  0
LINE
  5
3B8
100
AcDbEntity
  8
L1_150
  6
CONTINUOUS
 62
         7
100
AcDbLine
 10
1661.2786999334
 20
-140.7400166132
 30
0.0
 11
1661.8560502026
 21
-139.7400166132
 31
0.0
  0
LINE
  5
3B9
100
AcDbEntity
  8
L1_150
  6
CONTINUOUS
 62
         7
100
AcDbLine
 10
1661.2786999334
 20
-112.7400166132
 30
0.0
 11
1661.8560502026
 21
-113.7400166132
 31
0.0
  0
LINE
  5
3BA
100
AcDbEntity
  8
L1_150
  6
CONTINUOUS
 62
         7
100
AcDbLine
 10
1673.0570120969
 20
-114.2400166132
 30
0.0
 11
1662.7220756064
 21
-114.2400166132
 31
0.0
  0
LINE
  5
3BB
100
AcDbEntity
  8
L1_150
  6
CONTINUOUS
 62
         7
100
AcDbLine
 10
1661.2786999334
 20
-140.7400166132
 30
0.0
 11
1657.7786999334
 21
-140.7400166132
 31
0.0
  0
ARC
  5
3BC
100
AcDbEntity
  8
L1_150
  6
CONTINUOUS
 62
         7
100
AcDbCircle
 10
-1672.2786999334
 20
-137.5880928246
 30
0.0
 40
1.5
210
0.0
220
0.0
230
-1.0
100
AcDbArc
 50
180.0
 51
210.0
  0
LINE
  5
3BD
100
AcDbEntity
  8
L1_150
  6
CONTINUOUS
 62
         7
100
AcDbLine
 10
1673.5777380391
 20
-138.3380928246
 30
0.0
 11
1673.0570120969
 21
-139.2400166132
 31
0.0
  0
ARC
  5
3BE
100
AcDbEntity
  8
L1_150
  6
CONTINUOUS
 62
         7
100
AcDbCircle
 10
-1657.7786999334
 20
-139.2400166132
 30
0.0
 40
1.5
210
0.0
220
0.0
230
-1.0
100
AcDbArc
 50
270.0
 51
360.0
  0
ARC
  5
3BF
100
AcDbEntity
  8
L1_150
  6
CONTINUOUS
 62
         7
100
AcDbCircle
 10
-1657.7786999334
 20
-114.2400166132
 30
0.0
 40
1.5
210
0.0
220
0.0
230
-1.0
100
AcDbArc
 50
0.0
 51
90.0
  0
LINE
  5
3C0
100
AcDbEntity
  8
L1_150
  6
CONTINUOUS
 62
         7
100
AcDbLine
 10
1661.2786999334
 20
-112.7400166132
 30
0.0
 11
1657.7786999334
 21
-112.7400166132
 31
0.0
  0
ARC
  5
3C1
100
AcDbEntity
  8
L1_150
  6
CONTINUOUS
 62
         7
100
AcDbCircle
 10
-1672.2786999334
 20
-115.8919404018
 30
0.0
 40
1.5
210
0.0
220
0.0
230
-1.0
100
AcDbArc
 50
150.0
 51
180.0
  0
LINE
  5
3C2
100
AcDbEntity
  8
L1_150
  6
CONTINUOUS
 62
         7
100
AcDbLine
 10
1673.5777380391
 20
-115.1419404018
 30
0.0
 11
1673.0570120969
 21
-114.2400166132
 31
0.0
  0
LINE
  5
3C3
100
AcDbEntity
  8
L1_150
  6
CONTINUOUS
 62
         7
100
AcDbLine
 10
1664.9786999334
 20
-138.2400166132
 30
0.0
 11
1663.6666999334
 21
-136.9280166132
 31
0.0
  0
ARC
  5
3C4
100
AcDbEntity
  8
L1_150
  6
CONTINUOUS
 62
         7
100
AcDbCircle
 10
-1666.9786999334
 20
-116.2400166132
 30
0.0
 40
1.0
210
0.0
220
0.0
230
-1.0
100
AcDbArc
 50
90.0
 51
180.0
  0
ARC
  5
3C5
100
AcDbEntity
  8
L1_150
  6
CONTINUOUS
 62
         7
100
AcDbCircle
 10
-1666.9786999334
 20
-137.2400166132
 30
0.0
 40
1.0
210
0.0
220
0.0
230
-1.0
100
AcDbArc
 50
180.0
 51
270.0
  0
LINE
  5
3C6
100
AcDbEntity
  8
L1_150
  6
CONTINUOUS
 62
         7
100
AcDbLine
 10
1670.0786999334
 20
-116.9400166132
 30
0.0
 11
1669.0786999334
 21
-116.9400166132
 31
0.0
  0
LINE
  5
3C7
100
AcDbEntity
  8
L1_150
  6
CONTINUOUS
 62
         7
100
AcDbLine
 10
1670.0786999334
 20
-136.5400166132
 30
0.0
 11
1667.9786999334
 21
-136.5400166132
 31
0.0
  0
LINE
  5
3C8
100
AcDbEntity
  8
L1_150
  6
CONTINUOUS
 62
         7
100
AcDbLine
 10
1670.0786999334
 20
-116.9400166132
 30
0.0
 11
1670.0786999334
 21
-136.5400166132
 31
0.0
  0
LINE
  5
3C9
100
AcDbEntity
  8
L1_150
  6
CONTINUOUS
 62
         7
100
AcDbLine
 10
1666.9786999334
 20
-138.2400166132
 30
0.0
 11
1664.9786999334
 21
-138.2400166132
 31
0.0
  0
LINE
  5
3CA
100
AcDbEntity
  8
L1_150
  6
CONTINUOUS
 62
         7
100
AcDbLine
 10
1666.9786999334
 20
-115.2400166132
 30
0.0
 11
1664.9786999334
 21
-115.2400166132
 31
0.0
  0
LINE
  5
3CB
100
AcDbEntity
  8
L1_150
  6
CONTINUOUS
 62
         7
100
AcDbLine
 10
1664.9786999334
 20
-115.2400166132
 30
0.0
 11
1664.9786999334
 21
-138.2400166132
 31
0.0
  0
LINE
  5
3CC
100
AcDbEntity
  8
L1_150
  6
CONTINUOUS
 62
         4
100
AcDbLine
 10
1664.4786999334
 20
-137.7400166132
 30
0.0
 11
1656.4230375007
 21
-137.7400166132
 31
0.0
  0
LINE
  5
3CD
100
AcDbEntity
  8
L1_150
  6
CONTINUOUS
 62
         4
100
AcDbLine
 10
1664.4786999334
 20
-115.7400166132
 30
0.0
 11
1656.4230375007
 21
-115.7400166132
 31
0.0
  0
LINE
  5
3CE
100
AcDbEntity
  8
L1_150
  6
CONTINUOUS
 62
         7
100
AcDbLine
 10
1663.6666999334
 20
-136.9280166132
 30
0.0
 11
1656.8918459193
 21
-136.9280166132
 31
0.0
  0
LINE
  5
3CF
100
AcDbEntity
  8
L1_150
  6
CONTINUOUS
 62
         7
100
AcDbLine
 10
1663.6666999334
 20
-116.5520166132
 30
0.0
 11
1656.8918459193
 21
-116.5520166132
 31
0.0
  0
LINE
  5
3D0
100
AcDbEntity
  8
L1_150
  6
CONTINUOUS
 62
         7
100
AcDbLine
 10
1669.0786999334
 20
-119.5400166132
 30
0.0
 11
1667.9786999334
 21
-119.5400166132
 31
0.0
  0
LINE
  5
3D1
100
AcDbEntity
  8
L1_150
  6
CONTINUOUS
 62
         7
100
AcDbLine
 10
1670.0786999334
 20
-135.017666344
 30
0.0
 11
1673.7786999334
 21
-132.881470348
 31
0.0
  0
LINE
  5
3D2
100
AcDbEntity
  8
L1_150
  6
CONTINUOUS
 62
         7
100
AcDbLine
 10
1670.0786999334
 20
-118.4623668824
 30
0.0
 11
1673.7786999334
 21
-120.5985628784
 31
0.0
  0
LINE
  5
3D3
100
AcDbEntity
  8
L1_150
  6
CONTINUOUS
 62
         7
100
AcDbLine
 10
1667.9786999334
 20
-116.2400166132
 30
0.0
 11
1667.9786999334
 21
-137.2400166132
 31
0.0
  0
LINE
  5
3D4
100
AcDbEntity
  8
L1_150
  6
CONTINUOUS
 62
         7
100
AcDbLine
 10
1669.0786999334
 20
-119.5400166132
 30
0.0
 11
1669.0786999334
 21
-136.5400166132
 31
0.0
  0
LINE
  5
3D5
100
AcDbEntity
  8
L1_150
  6
CONTINUOUS
 62
         7
100
AcDbLine
 10
1673.7786999334
 20
-115.8919404018
 30
0.0
 11
1673.7786999334
 21
-137.5880928246
 31
0.0
  0
LINE
  5
3D6
100
AcDbEntity
  8
L1_150
  6
CENTER
 62
         1
100
AcDbLine
 10
1675.3700885063
 20
-126.7400166132
 30
0.0
 11
1654.5431178269
 21
-126.7400166132
 31
0.0
  0
LINE
  5
3D7
100
AcDbEntity
  8
L1_150
  6
CONTINUOUS
 62
         7
100
AcDbLine
 10
1656.2786999334
 20
-114.2400166132
 30
0.0
 11
1656.2786999334
 21
-139.2400166132
 31
0.0
  0
ARC
  5
3D8
100
AcDbEntity
  8
L1_150
  6
CONTINUOUS
 62
         7
100
AcDbCircle
 10
-1662.7220756064
 20
-113.2400166132
 30
0.0
 40
1.0
210
0.0
220
0.0
230
-1.0
100
AcDbArc
 50
270.0
 51
330.0
  0
ARC
  5
3D9
100
AcDbEntity
  8
L1_150
  6
CONTINUOUS
 62
         7
100
AcDbCircle
 10
-1662.7220756064
 20
-140.2400166132
 30
0.0
 40
1.0
210
0.0
220
0.0
230
-1.0
100
AcDbArc
 50
30.0
 51
90.0
  0
LINE
  5
3DA
100
AcDbEntity
  8
L1_150
  6
CONTINUOUS
 62
         7
100
AcDbLine
 10
1663.6666999334
 20
-136.9280166132
 30
0.0
 11
1663.6666999334
 21
-116.5520166132
 31
0.0
  0
LINE
  5
3DB
100
AcDbEntity
  8
L1_150
  6
CONTINUOUS
 62
         7
100
AcDbLine
 10
1664.9786999334
 20
-115.2400166132
 30
0.0
 11
1663.6666999334
 21
-116.5520166132
 31
0.0
  0
TEXT
  5
3DD
100
AcDbEntity
  8
L1_150
  6
CONTINUOUS
 62
         2
100
AcDbText
 10
1830.4058372732
 20
186.4382511173
 30
0.0
 40
4.5
  1
531434
 41
0.98
  7
BOX
100
AcDbText
  0
ENDSEC
  0
SECTION
  2
OBJECTS
  0
DICTIONARY
  5
19
100
AcDbDictionary
  3
ACAD_GROUP
350
1A
  3
ACAD_MLINESTYLE
350
1B
  0
DICTIONARY
  5
1A
102
{ACAD_REACTORS
330
19
102
}
100
AcDbDictionary
  0
DICTIONARY
  5
1B
102
{ACAD_REACTORS
330
19
102
}
100
AcDbDictionary
  3
STANDARD
350
1C
  0
MLINESTYLE
  5
1C
102
{ACAD_REACTORS
330
1B
102
}
100
AcDbMlineStyle
  2
STANDARD
 70
         0
  3

 62
         0
 51
90.0
 52
90.0
 71
         2
 49
0.5
 62
       256
  6
BYLAYER
 49
-0.5
 62
       256
  6
BYLAYER
  0
ENDSEC
  0
EOF
