  0
SECTION
  2
HEADER
  9
$ACADVER
  1
AC1014
  9
$ACADMAINTVER
 70
         0
  9
$DWGCODEPAGE
  3
BIG5
  9
$INSBASE
 10
0.0
 20
0.0
 30
0.0
  9
$EXTMIN
 10
1108.372879961
 20
-195.5884939711
 30
0.0
  9
$EXTMAX
 10
1985.393317525
 20
246.5780079025
 30
0.0
  9
$LIMMIN
 10
0.0
 20
0.0
  9
$LIMMAX
 10
0.0
 20
0.0
  9
$ORTHOMODE
 70
         0
  9
$REGENMODE
 70
         1
  9
$FILLMODE
 70
         1
  9
$QTEXTMODE
 70
         0
  9
$MIRRTEXT
 70
         1
  9
$DRAGMODE
 70
         2
  9
$LTSCALE
 40
1.0
  9
$OSMODE
 70
         0
  9
$ATTMODE
 70
         1
  9
$TEXTSIZE
 40
1.7
  9
$TRACEWID
 40
0.05
  9
$TEXTSTYLE
  7
STANDARD
  9
$CLAYER
  8
0
  9
$CELTYPE
  6
CONTINUOUS
  9
$CECOLOR
 62
         4
  9
$CELTSCALE
 40
1.0
  9
$DELOBJ
 70
         1
  9
$DISPSILH
 70
         0
  9
$DIMSCALE
 40
1.0
  9
$DIMASZ
 40
0.18
  9
$DIMEXO
 40
0.0625
  9
$DIMDLI
 40
0.38
  9
$DIMRND
 40
0.0
  9
$DIMDLE
 40
0.0
  9
$DIMEXE
 40
0.25
  9
$DIMTP
 40
0.01
  9
$DIMTM
 40
-0.01
  9
$DIMTXT
 40
3.5
  9
$DIMCEN
 40
0.09
  9
$DIMTSZ
 40
0.0
  9
$DIMTOL
 70
         0
  9
$DIMLIM
 70
         0
  9
$DIMTIH
 70
         1
  9
$DIMTOH
 70
         1
  9
$DIMSE1
 70
         0
  9
$DIMSE2
 70
         0
  9
$DIMTAD
 70
         0
  9
$DIMZIN
 70
         0
  9
$DIMBLK
  1

  9
$DIMASO
 70
         1
  9
$DIMSHO
 70
         1
  9
$DIMPOST
  1

  9
$DIMAPOST
  1

  9
$DIMALT
 70
         0
  9
$DIMALTD
 70
         2
  9
$DIMALTF
 40
25.4
  9
$DIMLFAC
 40
1.0
  9
$DIMTOFL
 70
         0
  9
$DIMTVP
 40
0.0
  9
$DIMTIX
 70
         0
  9
$DIMSOXD
 70
         0
  9
$DIMSAH
 70
         0
  9
$DIMBLK1
  1

  9
$DIMBLK2
  1

  9
$DIMSTYLE
  2
STANDARD
  9
$DIMCLRD
 70
         0
  9
$DIMCLRE
 70
         0
  9
$DIMCLRT
 70
         4
  9
$DIMTFAC
 40
1.0
  9
$DIMGAP
 40
0.09
  9
$DIMJUST
 70
         0
  9
$DIMSD1
 70
         0
  9
$DIMSD2
 70
         0
  9
$DIMTOLJ
 70
         1
  9
$DIMTZIN
 70
         0
  9
$DIMALTZ
 70
         0
  9
$DIMALTTZ
 70
         0
  9
$DIMFIT
 70
         3
  9
$DIMUPT
 70
         0
  9
$DIMUNIT
 70
         2
  9
$DIMDEC
 70
         4
  9
$DIMTDEC
 70
         4
  9
$DIMALTU
 70
         2
  9
$DIMALTTD
 70
         2
  9
$DIMTXSTY
  7
STANDARD
  9
$DIMAUNIT
 70
         0
  9
$LUNITS
 70
         2
  9
$LUPREC
 70
        10
  9
$SKETCHINC
 40
0.1
  9
$FILLETRAD
 40
0.0
  9
$AUNITS
 70
         0
  9
$AUPREC
 70
         0
  9
$MENU
  1
acad
  9
$ELEVATION
 40
0.0
  9
$PELEVATION
 40
0.0
  9
$THICKNESS
 40
0.0
  9
$LIMCHECK
 70
         0
  9
$BLIPMODE
 70
         1
  9
$CHAMFERA
 40
0.0
  9
$CHAMFERB
 40
0.0
  9
$CHAMFERC
 40
0.0
  9
$CHAMFERD
 40
0.0
  9
$SKPOLY
 70
         0
  9
$TDCREATE
 40
0.000000000
  9
$TDUPDATE
 40
0.000000000
  9
$TDINDWG
 40
0.0000000000
  9
$TDUSRTIMER
 40
0.0000000000
  9
$USRTIMER
 70
         1
  9
$ANGBASE
 50
0.0
  9
$ANGDIR
 70
         0
  9
$PDMODE
 70
         2
  9
$PDSIZE
 40
0.0
  9
$PLINEWID
 40
0.0
  9
$COORDS
 70
         1
  9
$SPLFRAME
 70
         0
  9
$SPLINETYPE
 70
         6
  9
$SPLINESEGS
 70
         8
  9
$ATTDIA
 70
         0
  9
$ATTREQ
 70
         1
  9
$HANDLING
 70
         1
  9
$HANDSEED
  5
4EA
  9
$SURFTAB1
 70
         6
  9
$SURFTAB2
 70
         6
  9
$SURFTYPE
 70
         6
  9
$SURFU
 70
         6
  9
$SURFV
 70
         6
  9
$UCSNAME
  2

  9
$UCSORG
 10
0.0
 20
0.0
 30
0.0
  9
$UCSXDIR
 10
1.0
 20
0.0
 30
0.0
  9
$UCSYDIR
 10
0.0
 20
1.0
 30
0.0
  9
$PUCSNAME
  2

  9
$PUCSORG
 10
0.0
 20
0.0
 30
0.0
  9
$PUCSXDIR
 10
1.0
 20
0.0
 30
0.0
  9
$PUCSYDIR
 10
0.0
 20
1.0
 30
0.0
  9
$USERI1
 70
         0
  9
$USERI2
 70
         0
  9
$USERI3
 70
         0
  9
$USERI4
 70
         0
  9
$USERI5
 70
         0
  9
$USERR1
 40
0.0
  9
$USERR2
 40
0.0
  9
$USERR3
 40
0.0
  9
$USERR4
 40
0.0
  9
$USERR5
 40
0.0
  9
$WORLDVIEW
 70
         1
  9
$SHADEDGE
 70
         3
  9
$SHADEDIF
 70
        70
  9
$TILEMODE
 70
         1
  9
$MAXACTVP
 70
        16
  9
$PINSBASE
 10
0.0
 20
0.0
 30
0.0
  9
$PLIMCHECK
 70
         0
  9
$PEXTMIN
 10
1.0000000000E+20
 20
1.0000000000E+20
 30
1.0000000000E+20
  9
$PEXTMAX
 10
-1.0000000000E+20
 20
-1.0000000000E+20
 30
-1.0000000000E+20
  9
$PLIMMIN
 10
0.0
 20
0.0
  9
$PLIMMAX
 10
12.0
 20
9.0
  9
$UNITMODE
 70
         0
  9
$VISRETAIN
 70
         0
  9
$PLINEGEN
 70
         1
  9
$PSLTSCALE
 70
         0
  9
$TREEDEPTH
 70
      3020
  9
$PICKSTYLE
 70
         1
  9
$CMLSTYLE
  2
STANDARD
  9
$CMLJUST
 70
         0
  9
$CMLSCALE
 40
1.0
  9
$PROXYGRAPHICS
 70
         0
  9
$MEASUREMENT
 70
         0
  0
ENDSEC
  0
SECTION
  2
CLASSES
  0
CLASS
  1
LWPOLYLINE
  2
AcDbPolyline
  3
"AutoCAD"
 90
        0
280
         0
281
         1
  0
CLASS
  1
IMAGE
  2
AcDbRasterImage
  3
ISM
 90
      127
280
         0
281
         1
  0
CLASS
  1
OLE2FRAME
  2
AcDbOle2Frame
  3
""
 90
        0
280
         0
281
         1
  0
CLASS
  1
HATCH
  2
AcDbHatch
  3
"ACAD_SEDONA"
 90
        0
280
         0
281
         1
  0
CLASS
  1
DICTIONARYVAR
  2
AcDbDictionaryVar
  3
"AutoCAD"
 90
        0
280
         0
281
         0
  0
CLASS
  1
RASTERVARIABLES
  2
AcDbRasterVariables
  3
ISM
 90
        0
280
         0
281
         0
  0
CLASS
  1
IMAGEDEF
  2
AcDbRasterImageDef
  3
ISM
 90
        0
280
         0
281
         0
  0
CLASS
  1
IMAGEDEF_REACTOR
  2
AcDbRasterImageDefReactor
  3
ISM
 90
        1
280
         0
281
         0
  0
CLASS
  1
IDBUFFER
  2
AcDbIdBuffer
  3
"Acad"
 90
        0
280
         0
281
         0
  0
CLASS
  1
SPATIAL_FILTER
  2
AcDbSpatialFilter
  3
"Acad"
 90
        0
280
         0
281
         0
  0
CLASS
  1
XRECORD
  2
AcDbXrecord
  3
"<Built In>"
 90
        0
280
         0
281
         0
  0
CLASS
  1
SORTENTSTABLE
  2
AcDbSortentsTable
  3
"AutoCAD"
 90
        0
280
         0
281
         0
  0
CLASS
  1
LAYER_INDEX
  2
AcDbLayerIndex
  3
"Acad"
 90
        0
280
         0
281
         0
  0
CLASS
  1
SPATIAL_INDEX
  2
AcDbSpatialIndex
  3
"Acad"
 90
        0
280
         0
281
         0
  0
CLASS
  1
OBJECT_PTR
  2
CAseDLPNTableRecord
  3
"ASE-LPNTableRecord"
 90
        1
280
         0
281
         0
  0
CLASS
  1
LAYOUT
  2
AcDbLayout
  3
"AutoCAD 2000"
 90
        1
280
         0
281
         0
  0
CLASS
  1
PLOTSETTINGS
  2
AcDbPlotSettings
  3
"AutoCAD 2000"
 90
        1
280
         0
281
         0
  0
CLASS
  1
ACDBDICTIONARYWDFLT
  2
AcDbDictionaryWithDefault
  3
"AutoCAD 2000"
 90
        1
280
         0
281
         0
  0
CLASS
  1
ACDBPLACEHOLDER
  2
AcDbPlaceHolder
  3
"AutoCAD 2000"
 90
        1
280
         0
281
         0
  0
CLASS
  1
VBA_PROJECT
  2
AcDbVbaProject
  3
"acadvba"
 90
        1
280
         0
281
         0
  0
CLASS
  1
WIPEOUT
  2
AcDbWipeout
  3
WipeOut|AutoCAD Express Tool|expresstools@autodesk.com
 90
      127
280
         0
281
         1
  0
CLASS
  1
WIPEOUTVARIABLES
  2
AcDbWipeoutVariables
  3
WipeOut|AutoCAD Express Tool|expresstools@autodesk.com
 90
        0
280
         0
281
         0
  0
CLASS
  1
RTEXT
  2
RText
  3
RText|AutoCAD Express Tool|expresstools@autodesk.com
 90
        0
280
         0
281
         1
  0
CLASS
  1
ARCALIGNEDTEXT
  2
AcDbArcAlignedText
  3
ATEXT|AutoCAD Express Tool|expresstools@autodesk.com
 90
        0
280
         0
281
         1
  0
ENDSEC
  0
SECTION
  2
TABLES
  0
TABLE
  2
VPORT
  5
7
100
AcDbSymbolTable
 70
         1
  0
VPORT
  5
15
100
AcDbSymbolTableRecord
100
AcDbViewportTableRecord
  2
*ACTIVE
 70
         0
 10
0.0
 20
0.0
 11
1.0
 21
1.0
 12
1546.883098743
 22
25.4947569657
 13
0.0
 23
0.0
 14
1.0
 24
1.0
 15
0.0
 25
0.0
 16
0.0
 26
0.0
 36
1.0
 17
0.0
 27
0.0
 37
0.0
 40
442.1665018735
 41
1.9834619625
 42
50.0
 43
0.0
 44
0.0
 50
0.0
 51
0.0
 71
         0
 72
       100
 73
         1
 74
         1
 75
         0
 76
         0
 77
         0
 78
         0
  0
ENDTAB
  0
TABLE
  2
LTYPE
  5
4
100
AcDbSymbolTable
 70
         6
  0
LTYPE
  5
11
100
AcDbSymbolTableRecord
100
AcDbLinetypeTableRecord
  2
BYBLOCK
 70
        64
  3

 72
        65
 73
         0
 40
0.0
  0
LTYPE
  5
12
100
AcDbSymbolTableRecord
100
AcDbLinetypeTableRecord
  2
BYLAYER
 70
        64
  3

 72
        65
 73
         0
 40
0.0
  0
LTYPE
  5
13
100
AcDbSymbolTableRecord
100
AcDbLinetypeTableRecord
  2
CONTINUOUS
 70
        64
  3
Solid line
 72
        65
 73
         0
 40
0.0
  0
LTYPE
  5
1D
100
AcDbSymbolTableRecord
100
AcDbLinetypeTableRecord
  2
DASHED
 70
        64
  3
_ _ _ _ _ _ _ _ _ _ _ _ _ _ _ _
 72
        65
 73
         2
 40
0.2
 49
0.1
 74
         0
 49
-0.1
 74
         0
  0
LTYPE
  5
1E
100
AcDbSymbolTableRecord
100
AcDbLinetypeTableRecord
  2
CENTER
 70
        64
  3
___ _ ___ _ ___ _ ___ _ ___ _ ___ _ ___ _ ___ _
 72
        65
 73
         4
 40
0.95
 49
0.625
 74
         0
 49
-0.125
 74
         0
 49
0.075
 74
         0
 49
-0.125
 74
         0
  0
LTYPE
  5
1F
100
AcDbSymbolTableRecord
100
AcDbLinetypeTableRecord
  2
PHANTOM
 70
        64
  3
______  __  __  ______  __  __  ______  __  __  
 72
        65
 73
         6
 40
1.025
 49
0.625
 74
         0
 49
-0.125
 74
         0
 49
0.075
 74
         0
 49
-0.125
 74
         0
 49
0.075
 74
         0
 49
-0.125
 74
         0
  0
ENDTAB
  0
TABLE
  2
LAYER
  5
2
100
AcDbSymbolTable
 70
        11
  0
LAYER
  5
14
100
AcDbSymbolTableRecord
100
AcDbLayerTableRecord
  2
0
 70
         0
 62
         7
  6
CONTINUOUS
  0
LAYER
  5
21
100
AcDbSymbolTableRecord
100
AcDbLayerTableRecord
  2
_____U
 70
         1
 62
         7
  6
CONTINUOUS
  0
LAYER
  5
22
100
AcDbSymbolTableRecord
100
AcDbLayerTableRecord
  2
___T______
 70
         1
 62
         7
  6
CONTINUOUS
  0
LAYER
  5
23
100
AcDbSymbolTableRecord
100
AcDbLayerTableRecord
  2
_____T______
 70
         1
 62
         7
  6
CONTINUOUS
  0
LAYER
  5
24
100
AcDbSymbolTableRecord
100
AcDbLayerTableRecord
  2
______L_______
 70
         1
 62
         7
  6
CONTINUOUS
  0
LAYER
  5
25
100
AcDbSymbolTableRecord
100
AcDbLayerTableRecord
  2
_____M_____M____
 70
         1
 62
         7
  6
CONTINUOUS
  0
LAYER
  5
26
100
AcDbSymbolTableRecord
100
AcDbLayerTableRecord
  2
___L_W______
 70
         1
 62
         7
  6
CONTINUOUS
  0
LAYER
  5
27
100
AcDbSymbolTableRecord
100
AcDbLayerTableRecord
  2
_Y__________
 70
         0
 62
         7
  6
CONTINUOUS
  0
LAYER
  5
28
100
AcDbSymbolTableRecord
100
AcDbLayerTableRecord
  2
_X______
 70
         0
 62
         7
  6
CONTINUOUS
  0
LAYER
  5
29
100
AcDbSymbolTableRecord
100
AcDbLayerTableRecord
  2
L1_150
 70
         0
 62
         7
  6
CONTINUOUS
  0
LAYER
  5
305
100
AcDbSymbolTableRecord
100
AcDbLayerTableRecord
  2
DEFPOINTS
 70
         0
 62
        -7
  6
CONTINUOUS
  0
ENDTAB
  0
TABLE
  2
STYLE
  5
3
100
AcDbSymbolTable
 70
        13
  0
STYLE
  5
17
100
AcDbSymbolTableRecord
100
AcDbTextStyleTableRecord
  2
STANDARD
 70
         0
 40
0.0
 41
1.0
 50
0.0
 71
         0
 42
0.0
  3
txt
  4

  0
STYLE
  5
30E
100
AcDbSymbolTableRecord
100
AcDbTextStyleTableRecord
  2
BOX
 70
         0
 40
1.0
 41
1.0
 50
0.0
 71
         0
 42
0.2
  3
txt.shx
  4

  0
STYLE
  5
31C
100
AcDbSymbolTableRecord
100
AcDbTextStyleTableRecord
  2
BOX
 70
         0
 40
1.0
 41
1.0
 50
0.0
 71
         0
 42
0.2
  3
txt.shx
  4

  0
STYLE
  5
32A
100
AcDbSymbolTableRecord
100
AcDbTextStyleTableRecord
  2
BOX
 70
         0
 40
1.0
 41
1.0
 50
0.0
 71
         0
 42
0.2
  3
txt.shx
  4

  0
STYLE
  5
338
100
AcDbSymbolTableRecord
100
AcDbTextStyleTableRecord
  2
BOX
 70
         0
 40
1.0
 41
1.0
 50
0.0
 71
         0
 42
0.2
  3
txt.shx
  4

  0
STYLE
  5
35B
100
AcDbSymbolTableRecord
100
AcDbTextStyleTableRecord
  2
BOX
 70
         0
 40
1.0
 41
1.0
 50
0.0
 71
         0
 42
0.2
  3
txt.shx
  4

  0
STYLE
  5
382
100
AcDbSymbolTableRecord
100
AcDbTextStyleTableRecord
  2
BOX
 70
         0
 40
1.0
 41
1.0
 50
0.0
 71
         0
 42
0.2
  3
txt.shx
  4

  0
STYLE
  5
3A4
100
AcDbSymbolTableRecord
100
AcDbTextStyleTableRecord
  2
BOX
 70
         0
 40
1.0
 41
1.0
 50
0.0
 71
         0
 42
0.2
  3
txt.shx
  4

  0
STYLE
  5
3B7
100
AcDbSymbolTableRecord
100
AcDbTextStyleTableRecord
  2
BOX
 70
         0
 40
1.0
 41
1.0
 50
0.0
 71
         0
 42
0.2
  3
txt.shx
  4

  0
STYLE
  5
3CC
100
AcDbSymbolTableRecord
100
AcDbTextStyleTableRecord
  2
BOX
 70
         0
 40
1.0
 41
1.0
 50
0.0
 71
         0
 42
0.2
  3
txt.shx
  4

  0
STYLE
  5
3DA
100
AcDbSymbolTableRecord
100
AcDbTextStyleTableRecord
  2
BOX
 70
         0
 40
1.0
 41
1.0
 50
0.0
 71
         0
 42
0.2
  3
txt.shx
  4

  0
STYLE
  5
439
100
AcDbSymbolTableRecord
100
AcDbTextStyleTableRecord
  2
BOX
 70
         0
 40
1.0
 41
1.0
 50
0.0
 71
         0
 42
0.2
  3
txt.shx
  4

  0
STYLE
  5
4E8
100
AcDbSymbolTableRecord
100
AcDbTextStyleTableRecord
  2
BOX
 70
         0
 40
1.0
 41
1.0
 50
0.0
 71
         0
 42
0.2
  3
txt.shx
  4

  0
ENDTAB
  0
TABLE
  2
VIEW
  5
5
100
AcDbSymbolTable
 70
         0
  0
ENDTAB
  0
TABLE
  2
UCS
  5
6
100
AcDbSymbolTable
 70
         1
  0
UCS
  5
20
100
AcDbSymbolTableRecord
100
AcDbUCSTableRecord
  2
CK_VIEW_1
 70
         0
 10
0.0
 20
0.0
 30
1.0
 11
1.0
 21
0.0
 31
0.0
 12
0.0
 22
1.0
 32
0.0
  0
ENDTAB
  0
TABLE
  2
APPID
  5
8
100
AcDbSymbolTable
 70
         1
  0
APPID
  5
16
100
AcDbSymbolTableRecord
100
AcDbRegAppTableRecord
  2
ACAD
 70
         0
  0
ENDTAB
  0
TABLE
  2
DIMSTYLE
  5
9
100
AcDbSymbolTable
 70
         3
  0
DIMSTYLE
105
18
100
AcDbSymbolTableRecord
100
AcDbDimStyleTableRecord
  2
STANDARD
 70
         0
  3

  4

  5

  6

  7

 40
1.0
 41
0.18
 42
0.0625
 43
0.38
 44
0.18
 45
0.0
 46
0.0
 47
0.0
 48
0.0
 71
         0
 72
         0
 73
         1
 74
         1
 75
         0
 76
         0
 77
         0
 78
         0
140
0.18
141
0.09
142
0.0
143
25.4
144
1.0
145
0.0
146
1.0
147
0.09
170
         0
171
         2
172
         0
173
         0
174
         0
175
         0
176
         0
177
         0
178
         0
270
         2
271
         4
272
         4
273
         2
274
         2
275
         0
280
         0
281
         0
282
         0
283
         1
284
         0
285
         0
286
         0
287
         0
288
         0
340
17
  0
DIMSTYLE
105
301
100
AcDbSymbolTableRecord
100
AcDbDimStyleTableRecord
  2
DIMSTYLE1
 70
         0
  3

  4

  5

  6

  7

 40
1.0
 41
3.5
 42
0.0625
 43
0.38
 44
3.5
 45
0.0
 46
0.0
 47
0.0
 48
0.0
 71
         0
 72
         0
 73
         1
 74
         1
 75
         0
 76
         0
 77
         0
 78
         0
140
3.5
141
0.09
142
0.0
143
25.4
144
1.0
145
0.0
146
1.0
147
0.09
170
         0
171
         2
172
         0
173
         0
174
         0
175
         0
176
         0
177
         0
178
         0
270
         2
271
         4
272
         4
273
         2
274
         2
275
         0
280
         0
281
         0
282
         0
283
         1
284
         0
285
         0
286
         0
287
         0
288
         0
340
17
  0
DIMSTYLE
105
376
100
AcDbSymbolTableRecord
100
AcDbDimStyleTableRecord
  2
DIMSTYLE2
 70
         0
  3

  4

  5

  6

  7

 40
1.0
 41
2.7
 42
0.0625
 43
0.38
 44
2.7
 45
0.0
 46
0.0
 47
0.0
 48
0.0
 71
         0
 72
         0
 73
         1
 74
         1
 75
         0
 76
         0
 77
         0
 78
         0
140
2.7
141
0.09
142
0.0
143
25.4
144
1.0
145
0.0
146
1.0
147
0.09
170
         0
171
         2
172
         0
173
         0
174
         0
175
         0
176
         0
177
         0
178
         0
270
         2
271
         4
272
         4
273
         2
274
         2
275
         0
280
         0
281
         0
282
         0
283
         1
284
         0
285
         0
286
         0
287
         0
288
         0
340
17
  0
ENDTAB
  0
TABLE
  2
BLOCK_RECORD
  5
1
100
AcDbSymbolTable
 70
        24
  0
BLOCK_RECORD
  5
A
100
AcDbSymbolTableRecord
100
AcDbBlockTableRecord
  2
*MODEL_SPACE
  0
BLOCK_RECORD
  5
B
100
AcDbSymbolTableRecord
100
AcDbBlockTableRecord
  2
*PAPER_SPACE
  0
BLOCK_RECORD
  5
2A
100
AcDbSymbolTableRecord
100
AcDbBlockTableRecord
  2
*X0
  0
BLOCK_RECORD
  5
302
100
AcDbSymbolTableRecord
100
AcDbBlockTableRecord
  2
*D1
  0
BLOCK_RECORD
  5
311
100
AcDbSymbolTableRecord
100
AcDbBlockTableRecord
  2
*D2
  0
BLOCK_RECORD
  5
31F
100
AcDbSymbolTableRecord
100
AcDbBlockTableRecord
  2
*D3
  0
BLOCK_RECORD
  5
32D
100
AcDbSymbolTableRecord
100
AcDbBlockTableRecord
  2
*D4
  0
BLOCK_RECORD
  5
350
100
AcDbSymbolTableRecord
100
AcDbBlockTableRecord
  2
*D5
  0
BLOCK_RECORD
  5
377
100
AcDbSymbolTableRecord
100
AcDbBlockTableRecord
  2
*D6
  0
BLOCK_RECORD
  5
399
100
AcDbSymbolTableRecord
100
AcDbBlockTableRecord
  2
*D7
  0
BLOCK_RECORD
  5
3AA
100
AcDbSymbolTableRecord
100
AcDbBlockTableRecord
  2
*D8
  0
BLOCK_RECORD
  5
3C1
100
AcDbSymbolTableRecord
100
AcDbBlockTableRecord
  2
*D9
  0
BLOCK_RECORD
  5
3CF
100
AcDbSymbolTableRecord
100
AcDbBlockTableRecord
  2
*D10
  0
BLOCK_RECORD
  5
405
100
AcDbSymbolTableRecord
100
AcDbBlockTableRecord
  2
*X11
  0
BLOCK_RECORD
  5
411
100
AcDbSymbolTableRecord
100
AcDbBlockTableRecord
  2
*X12
  0
BLOCK_RECORD
  5
418
100
AcDbSymbolTableRecord
100
AcDbBlockTableRecord
  2
*X13
  0
BLOCK_RECORD
  5
420
100
AcDbSymbolTableRecord
100
AcDbBlockTableRecord
  2
*X14
  0
BLOCK_RECORD
  5
42E
100
AcDbSymbolTableRecord
100
AcDbBlockTableRecord
  2
*D15
  0
BLOCK_RECORD
  5
449
100
AcDbSymbolTableRecord
100
AcDbBlockTableRecord
  2
*X16
  0
BLOCK_RECORD
  5
457
100
AcDbSymbolTableRecord
100
AcDbBlockTableRecord
  2
*X17
  0
BLOCK_RECORD
  5
45F
100
AcDbSymbolTableRecord
100
AcDbBlockTableRecord
  2
*X18
  0
BLOCK_RECORD
  5
466
100
AcDbSymbolTableRecord
100
AcDbBlockTableRecord
  2
*X19
  0
BLOCK_RECORD
  5
499
100
AcDbSymbolTableRecord
100
AcDbBlockTableRecord
  2
*X20
  0
BLOCK_RECORD
  5
4A7
100
AcDbSymbolTableRecord
100
AcDbBlockTableRecord
  2
*X21
  0
BLOCK_RECORD
  5
4AF
100
AcDbSymbolTableRecord
100
AcDbBlockTableRecord
  2
*X22
  0
BLOCK_RECORD
  5
4B6
100
AcDbSymbolTableRecord
100
AcDbBlockTableRecord
  2
*X23
  0
ENDTAB
  0
ENDSEC
  0
SECTION
  2
BLOCKS
  0
BLOCK
  5
D
100
AcDbEntity
  8
0
100
AcDbBlockBegin
  2
*MODEL_SPACE
 70
         0
 10
0.0
 20
0.0
 30
0.0
  3
*MODEL_SPACE
  1

  0
ENDBLK
  5
E
100
AcDbEntity
  8
0
100
AcDbBlockEnd
  0
BLOCK
  5
F
100
AcDbEntity
 67
         1
  8
0
100
AcDbBlockBegin
  2
*PAPER_SPACE
 70
         0
 10
0.0
 20
0.0
 30
0.0
  3
*PAPER_SPACE
  1

  0
ENDBLK
  5
10
100
AcDbEntity
 67
         1
  8
0
100
AcDbBlockEnd
  0
BLOCK
  5
2B
100
AcDbEntity
  8
0
100
AcDbBlockBegin
  2
*X0
 70
        65
 10
0.0
 20
0.0
 30
0.0
  3
*X0
  1

  0
LINE
  5
2C
100
AcDbEntity
  8
L1_150
  6
CONTINUOUS
 62
         4
100
AcDbLine
 10
1658.7375382935
 20
-146.7400166132
 30
0.0
 11
1660.7786999334
 21
-144.6988549733
 31
0.0
  0
LINE
  5
2D
100
AcDbEntity
  8
L1_150
  6
CONTINUOUS
 62
         4
100
AcDbLine
 10
1654.4948976064
 20
-146.7400166132
 30
0.0
 11
1658.7763145233
 21
-142.4585996963
 31
0.0
  0
LINE
  5
2E
100
AcDbEntity
  8
L1_150
  6
CONTINUOUS
 62
         4
100
AcDbLine
 10
1650.2522569193
 20
-146.7400166132
 30
0.0
 11
1655.0564646433
 21
-141.9358088892
 31
0.0
  0
LINE
  5
2F
100
AcDbEntity
  8
L1_150
  6
CONTINUOUS
 62
         4
100
AcDbLine
 10
1646.0096162322
 20
-146.7400166132
 30
0.0
 11
1651.3366147633
 21
-141.4130180821
 31
0.0
  0
LINE
  5
30
100
AcDbEntity
  8
L1_150
  6
CONTINUOUS
 62
         4
100
AcDbLine
 10
1636.816975545
 20
-151.6900166132
 30
0.0
 11
1647.6167648833
 21
-140.890227275
 31
0.0
  0
LINE
  5
31
100
AcDbEntity
  8
L1_150
  6
CONTINUOUS
 62
         4
100
AcDbLine
 10
1632.5743348579
 20
-151.6900166132
 30
0.0
 11
1643.8969150033
 21
-140.3674364679
 31
0.0
  0
LINE
  5
32
100
AcDbEntity
  8
L1_150
  6
CONTINUOUS
 62
         4
100
AcDbLine
 10
1628.3316941708
 20
-151.6900166132
 30
0.0
 11
1640.1770651232
 21
-139.8446456607
 31
0.0
  0
LINE
  5
33
100
AcDbEntity
  8
L1_150
  6
CONTINUOUS
 62
         4
100
AcDbLine
 10
1624.0890534837
 20
-151.6900166132
 30
0.0
 11
1636.4572152432
 21
-139.3218548536
 31
0.0
  0
LINE
  5
34
100
AcDbEntity
  8
L1_150
  6
CONTINUOUS
 62
         4
100
AcDbLine
 10
1619.8464127966
 20
-151.6900166132
 30
0.0
 11
1632.7373653632
 21
-138.7990640465
 31
0.0
  0
LINE
  5
35
100
AcDbEntity
  8
L1_150
  6
CONTINUOUS
 62
         4
100
AcDbLine
 10
1615.6037721094
 20
-151.6900166132
 30
0.0
 11
1628.5037721094
 21
-138.7900166132
 31
0.0
  0
LINE
  5
36
100
AcDbEntity
  8
L1_150
  6
CONTINUOUS
 62
         4
100
AcDbLine
 10
1655.8629017262
 20
-111.4308869965
 30
0.0
 11
1660.0759707016
 21
-107.217818021
 31
0.0
  0
LINE
  5
37
100
AcDbEntity
  8
L1_150
  6
CONTINUOUS
 62
         4
100
AcDbLine
 10
1611.3611314223
 20
-151.6900166132
 30
0.0
 11
1624.2611314223
 21
-138.7900166132
 31
0.0
  0
LINE
  5
38
100
AcDbEntity
  8
L1_150
  6
CONTINUOUS
 62
         4
100
AcDbLine
 10
1650.9264942057
 20
-112.1246538298
 30
0.0
 11
1656.3111314223
 21
-106.7400166132
 31
0.0
  0
LINE
  5
39
100
AcDbEntity
  8
L1_150
  6
CONTINUOUS
 62
         4
100
AcDbLine
 10
1607.1184907352
 20
-151.6900166132
 30
0.0
 11
1620.7584907352
 21
-138.0500166132
 31
0.0
  0
LINE
  5
3A
100
AcDbEntity
  8
L1_150
  6
CONTINUOUS
 62
         4
100
AcDbLine
 10
1645.9900866852
 20
-112.8184206632
 30
0.0
 11
1652.0684907352
 21
-106.7400166132
 31
0.0
  0
LINE
  5
3B
100
AcDbEntity
  8
L1_150
  6
CONTINUOUS
 62
         4
100
AcDbLine
 10
1602.8758500481
 20
-151.6900166132
 30
0.0
 11
1616.5158500481
 21
-138.0500166132
 31
0.0
  0
LINE
  5
3C
100
AcDbEntity
  8
L1_150
  6
CONTINUOUS
 62
         4
100
AcDbLine
 10
1641.0536791647
 20
-113.5121874965
 30
0.0
 11
1647.8258500481
 21
-106.7400166132
 31
0.0
  0
LINE
  5
3D
100
AcDbEntity
  8
L1_150
  6
CONTINUOUS
 62
         4
100
AcDbLine
 10
1598.633209361
 20
-151.6900166132
 30
0.0
 11
1612.273209361
 21
-138.0500166132
 31
0.0
  0
LINE
  5
3E
100
AcDbEntity
  8
L1_150
  6
CONTINUOUS
 62
         4
100
AcDbLine
 10
1636.1172716443
 20
-114.2059543299
 30
0.0
 11
1643.583209361
 21
-106.7400166132
 31
0.0
  0
LINE
  5
3F
100
AcDbEntity
  8
L1_150
  6
CONTINUOUS
 62
         4
100
AcDbLine
 10
1594.3905686738
 20
-151.6900166132
 30
0.0
 11
1608.0305686738
 21
-138.0500166132
 31
0.0
  0
LINE
  5
40
100
AcDbEntity
  8
L1_150
  6
CONTINUOUS
 62
         4
100
AcDbLine
 10
1631.3905686738
 20
-114.6900166132
 30
0.0
 11
1641.6577997404
 21
-104.4227855466
 31
0.0
  0
LINE
  5
41
100
AcDbEntity
  8
L1_150
  6
CONTINUOUS
 62
         4
100
AcDbLine
 10
1590.1479279867
 20
-151.6900166132
 30
0.0
 11
1603.7879279867
 21
-138.0500166132
 31
0.0
  0
LINE
  5
42
100
AcDbEntity
  8
L1_150
  6
CONTINUOUS
 62
         4
100
AcDbLine
 10
1627.1479279867
 20
-114.6900166132
 30
0.0
 11
1639.9701214539
 21
-101.867823146
 31
0.0
  0
LINE
  5
43
100
AcDbEntity
  8
L1_150
  6
CONTINUOUS
 62
         4
100
AcDbLine
 10
1585.9052872996
 20
-151.6900166132
 30
0.0
 11
1599.5452872996
 21
-138.0500166132
 31
0.0
  0
LINE
  5
44
100
AcDbEntity
  8
L1_150
  6
CONTINUOUS
 62
         4
100
AcDbLine
 10
1622.1652872996
 20
-115.4300166132
 30
0.0
 11
1635.8052872996
 21
-101.7900166132
 31
0.0
  0
LINE
  5
45
100
AcDbEntity
  8
L1_150
  6
CONTINUOUS
 62
         4
100
AcDbLine
 10
1581.6626466125
 20
-151.6900166132
 30
0.0
 11
1595.3026466125
 21
-138.0500166132
 31
0.0
  0
LINE
  5
46
100
AcDbEntity
  8
L1_150
  6
CONTINUOUS
 62
         4
100
AcDbLine
 10
1617.9226466125
 20
-115.4300166132
 30
0.0
 11
1631.5626466125
 21
-101.7900166132
 31
0.0
  0
LINE
  5
47
100
AcDbEntity
  8
L1_150
  6
CONTINUOUS
 62
         4
100
AcDbLine
 10
1577.4200059254
 20
-151.6900166132
 30
0.0
 11
1591.0600059254
 21
-138.0500166132
 31
0.0
  0
LINE
  5
48
100
AcDbEntity
  8
L1_150
  6
CONTINUOUS
 62
         4
100
AcDbLine
 10
1613.6800059254
 20
-115.4300166132
 30
0.0
 11
1627.3200059254
 21
-101.7900166132
 31
0.0
  0
LINE
  5
49
100
AcDbEntity
  8
L1_150
  6
CONTINUOUS
 62
         4
100
AcDbLine
 10
1573.1773652382
 20
-151.6900166132
 30
0.0
 11
1586.8173652382
 21
-138.0500166132
 31
0.0
  0
LINE
  5
4A
100
AcDbEntity
  8
L1_150
  6
CONTINUOUS
 62
         4
100
AcDbLine
 10
1609.4373652382
 20
-115.4300166132
 30
0.0
 11
1623.0773652382
 21
-101.7900166132
 31
0.0
  0
LINE
  5
4B
100
AcDbEntity
  8
L1_150
  6
CONTINUOUS
 62
         4
100
AcDbLine
 10
1568.9347245511
 20
-151.6900166132
 30
0.0
 11
1582.5747245511
 21
-138.0500166132
 31
0.0
  0
LINE
  5
4C
100
AcDbEntity
  8
L1_150
  6
CONTINUOUS
 62
         4
100
AcDbLine
 10
1605.1947245511
 20
-115.4300166132
 30
0.0
 11
1618.8347245511
 21
-101.7900166132
 31
0.0
  0
LINE
  5
4D
100
AcDbEntity
  8
L1_150
  6
CONTINUOUS
 62
         4
100
AcDbLine
 10
1540.892083864
 20
-175.4900166132
 30
0.0
 11
1542.8786999334
 21
-173.5034005438
 31
0.0
  0
LINE
  5
4E
100
AcDbEntity
  8
L1_150
  6
CONTINUOUS
 62
         4
100
AcDbLine
 10
1554.717083864
 20
-161.6650166132
 30
0.0
 11
1558.8306999334
 21
-157.5514005438
 31
0.0
  0
LINE
  5
4F
100
AcDbEntity
  8
L1_150
  6
CONTINUOUS
 62
         4
100
AcDbLine
 10
1564.692083864
 20
-151.6900166132
 30
0.0
 11
1578.332083864
 21
-138.0500166132
 31
0.0
  0
LINE
  5
50
100
AcDbEntity
  8
L1_150
  6
CONTINUOUS
 62
         4
100
AcDbLine
 10
1600.952083864
 20
-115.4300166132
 30
0.0
 11
1614.592083864
 21
-101.7900166132
 31
0.0
  0
LINE
  5
51
100
AcDbEntity
  8
L1_150
  6
CONTINUOUS
 62
         4
100
AcDbLine
 10
1537.7687425423
 20
-174.3707172478
 30
0.0
 11
1542.8786999334
 21
-169.2607598567
 31
0.0
  0
LINE
  5
52
100
AcDbEntity
  8
L1_150
  6
CONTINUOUS
 62
         4
100
AcDbLine
 10
1550.4744431769
 20
-161.6650166132
 30
0.0
 11
1574.0894431769
 21
-138.0500166132
 31
0.0
  0
LINE
  5
53
100
AcDbEntity
  8
L1_150
  6
CONTINUOUS
 62
         4
100
AcDbLine
 10
1596.7094431769
 20
-115.4300166132
 30
0.0
 11
1610.3494431769
 21
-101.7900166132
 31
0.0
  0
LINE
  5
54
100
AcDbEntity
  8
L1_150
  6
CONTINUOUS
 62
         4
100
AcDbLine
 10
1535.5318024898
 20
-172.3650166132
 30
0.0
 11
1542.8786999334
 21
-165.0181191696
 31
0.0
  0
LINE
  5
55
100
AcDbEntity
  8
L1_150
  6
CONTINUOUS
 62
         4
100
AcDbLine
 10
1546.2318024898
 20
-161.6650166132
 30
0.0
 11
1569.8468024898
 21
-138.0500166132
 31
0.0
  0
LINE
  5
56
100
AcDbEntity
  8
L1_150
  6
CONTINUOUS
 62
         4
100
AcDbLine
 10
1592.4668024898
 20
-115.4300166132
 30
0.0
 11
1606.1068024898
 21
-101.7900166132
 31
0.0
  0
LINE
  5
57
100
AcDbEntity
  8
L1_150
  6
CONTINUOUS
 62
         4
100
AcDbLine
 10
1528.1918457163
 20
-175.4623326996
 30
0.0
 11
1565.6041618026
 21
-138.0500166132
 31
0.0
  0
LINE
  5
58
100
AcDbEntity
  8
L1_150
  6
CONTINUOUS
 62
         4
100
AcDbLine
 10
1588.2241618026
 20
-115.4300166132
 30
0.0
 11
1601.8641618026
 21
-101.7900166132
 31
0.0
  0
LINE
  5
59
100
AcDbEntity
  8
L1_150
  6
CONTINUOUS
 62
         4
100
AcDbLine
 10
1526.9786999334
 20
-172.4328377953
 30
0.0
 11
1561.3615211155
 21
-138.0500166132
 31
0.0
  0
LINE
  5
5A
100
AcDbEntity
  8
L1_150
  6
CONTINUOUS
 62
         4
100
AcDbLine
 10
1583.9815211155
 20
-115.4300166132
 30
0.0
 11
1597.6215211155
 21
-101.7900166132
 31
0.0
  0
LINE
  5
5B
100
AcDbEntity
  8
L1_150
  6
CONTINUOUS
 62
         4
100
AcDbLine
 10
1526.9786999334
 20
-168.1901971082
 30
0.0
 11
1557.1188804284
 21
-138.0500166132
 31
0.0
  0
LINE
  5
5C
100
AcDbEntity
  8
L1_150
  6
CONTINUOUS
 62
         4
100
AcDbLine
 10
1579.7388804284
 20
-115.4300166132
 30
0.0
 11
1593.3788804284
 21
-101.7900166132
 31
0.0
  0
LINE
  5
5D
100
AcDbEntity
  8
L1_150
  6
CONTINUOUS
 62
         4
100
AcDbLine
 10
1526.9786999334
 20
-163.9475564211
 30
0.0
 11
1552.8762397413
 21
-138.0500166132
 31
0.0
  0
LINE
  5
5E
100
AcDbEntity
  8
L1_150
  6
CONTINUOUS
 62
         4
100
AcDbLine
 10
1575.4962397413
 20
-115.4300166132
 30
0.0
 11
1589.1362397413
 21
-101.7900166132
 31
0.0
  0
LINE
  5
5F
100
AcDbEntity
  8
L1_150
  6
CONTINUOUS
 62
         4
100
AcDbLine
 10
1525.447211613
 20
-161.2364040544
 30
0.0
 11
1548.6335990542
 21
-138.0500166132
 31
0.0
  0
LINE
  5
60
100
AcDbEntity
  8
L1_150
  6
CONTINUOUS
 62
         4
100
AcDbLine
 10
1571.2535990542
 20
-115.4300166132
 30
0.0
 11
1584.8935990542
 21
-101.7900166132
 31
0.0
  0
LINE
  5
61
100
AcDbEntity
  8
L1_150
  6
CONTINUOUS
 62
         4
100
AcDbLine
 10
1521.1581286157
 20
-161.2828463646
 30
0.0
 11
1544.3909583671
 21
-138.0500166132
 31
0.0
  0
LINE
  5
62
100
AcDbEntity
  8
L1_150
  6
CONTINUOUS
 62
         4
100
AcDbLine
 10
1567.0109583671
 20
-115.4300166132
 30
0.0
 11
1580.6509583671
 21
-101.7900166132
 31
0.0
  0
LINE
  5
63
100
AcDbEntity
  8
L1_150
  6
CONTINUOUS
 62
         4
100
AcDbLine
 10
1517.4554648164
 20
-160.7428694767
 30
0.0
 11
1540.7786999334
 21
-137.4196343597
 31
0.0
  0
LINE
  5
64
100
AcDbEntity
  8
L1_150
  6
CONTINUOUS
 62
         4
100
AcDbLine
 10
1562.7683176799
 20
-115.4300166132
 30
0.0
 11
1576.4083176799
 21
-101.7900166132
 31
0.0
  0
LINE
  5
65
100
AcDbEntity
  8
L1_150
  6
CONTINUOUS
 62
         4
100
AcDbLine
 10
1513.7528010172
 20
-160.2028925888
 30
0.0
 11
1536.8193355294
 21
-137.1363580766
 31
0.0
  0
LINE
  5
66
100
AcDbEntity
  8
L1_150
  6
CONTINUOUS
 62
         4
100
AcDbLine
 10
1558.5256769928
 20
-115.4300166132
 30
0.0
 11
1572.1656769928
 21
-101.7900166132
 31
0.0
  0
LINE
  5
67
100
AcDbEntity
  8
L1_150
  6
CONTINUOUS
 62
         4
100
AcDbLine
 10
1510.050137218
 20
-159.6629157009
 30
0.0
 11
1532.5766948423
 21
-137.1363580766
 31
0.0
  0
LINE
  5
68
100
AcDbEntity
  8
L1_150
  6
CONTINUOUS
 62
         4
100
AcDbLine
 10
1554.2830363057
 20
-115.4300166132
 30
0.0
 11
1567.9230363057
 21
-101.7900166132
 31
0.0
  0
LINE
  5
69
100
AcDbEntity
  8
L1_150
  6
CONTINUOUS
 62
         4
100
AcDbLine
 10
1506.3474734188
 20
-159.122938813
 30
0.0
 11
1528.3340541552
 21
-137.1363580766
 31
0.0
  0
LINE
  5
6A
100
AcDbEntity
  8
L1_150
  6
CONTINUOUS
 62
         4
100
AcDbLine
 10
1550.0403956186
 20
-115.4300166132
 30
0.0
 11
1563.6825897623
 21
-101.7878224695
 31
0.0
  0
LINE
  5
6B
100
AcDbEntity
  8
L1_150
  6
CONTINUOUS
 62
         4
100
AcDbLine
 10
1502.6448096195
 20
-158.5829619251
 30
0.0
 11
1524.091413468
 21
-137.1363580766
 31
0.0
  0
LINE
  5
6C
100
AcDbEntity
  8
L1_150
  6
CONTINUOUS
 62
         4
100
AcDbLine
 10
1545.7977549315
 20
-115.4300166132
 30
0.0
 11
1560.6117466224
 21
-100.6160249223
 31
0.0
  0
LINE
  5
6D
100
AcDbEntity
  8
L1_150
  6
CONTINUOUS
 62
         4
100
AcDbLine
 10
1498.9421458203
 20
-158.0429850372
 30
0.0
 11
1519.8487727809
 21
-137.1363580766
 31
0.0
  0
LINE
  5
6E
100
AcDbEntity
  8
L1_150
  6
CONTINUOUS
 62
         4
100
AcDbLine
 10
1540.6414557078
 20
-116.3436751498
 30
0.0
 11
1540.7786999334
 21
-116.2064309241
 31
0.0
  0
LINE
  5
6F
100
AcDbEntity
  8
L1_150
  6
CONTINUOUS
 62
         4
100
AcDbLine
 10
1541.5551142443
 20
-115.4300166132
 30
0.0
 11
1558.9804775061
 21
-98.0046533514
 31
0.0
  0
LINE
  5
70
100
AcDbEntity
  8
L1_150
  6
CONTINUOUS
 62
         4
100
AcDbLine
 10
1495.2394820211
 20
-157.5030081493
 30
0.0
 11
1515.6061320938
 21
-137.1363580766
 31
0.0
  0
LINE
  5
71
100
AcDbEntity
  8
L1_150
  6
CONTINUOUS
 62
         4
100
AcDbLine
 10
1536.5286999334
 20
-116.213790237
 30
0.0
 11
1558.8306999334
 21
-93.911790237
 31
0.0
  0
LINE
  5
72
100
AcDbEntity
  8
L1_150
  6
CONTINUOUS
 62
         4
100
AcDbLine
 10
1491.5368182219
 20
-156.9630312614
 30
0.0
 11
1511.3634914067
 21
-137.1363580766
 31
0.0
  0
LINE
  5
73
100
AcDbEntity
  8
L1_150
  6
CONTINUOUS
 62
         4
100
AcDbLine
 10
1532.1561743335
 20
-116.3436751498
 30
0.0
 11
1533.2286999334
 21
-115.2711495499
 31
0.0
  0
LINE
  5
74
100
AcDbEntity
  8
L1_150
  6
CONTINUOUS
 62
         4
100
AcDbLine
 10
1536.5286999334
 20
-111.9711495499
 30
0.0
 11
1556.6848328701
 21
-91.8150166132
 31
0.0
  0
LINE
  5
75
100
AcDbEntity
  8
L1_150
  6
CONTINUOUS
 62
         4
100
AcDbLine
 10
1487.8341544226
 20
-156.4230543735
 30
0.0
 11
1507.1208507196
 21
-137.1363580766
 31
0.0
  0
LINE
  5
76
100
AcDbEntity
  8
L1_150
  6
CONTINUOUS
 62
         4
100
AcDbLine
 10
1527.9135336464
 20
-116.3436751498
 30
0.0
 11
1533.2286999334
 21
-111.0285088628
 31
0.0
  0
LINE
  5
77
100
AcDbEntity
  8
L1_150
  6
CONTINUOUS
 62
         4
100
AcDbLine
 10
1536.5286999334
 20
-107.7285088628
 30
0.0
 11
1552.442192183
 21
-91.8150166132
 31
0.0
  0
LINE
  5
78
100
AcDbEntity
  8
L1_150
  6
CONTINUOUS
 62
         4
100
AcDbLine
 10
1484.1314906234
 20
-155.8830774856
 30
0.0
 11
1502.8782100324
 21
-137.1363580766
 31
0.0
  0
LINE
  5
79
100
AcDbEntity
  8
L1_150
  6
CONTINUOUS
 62
         4
100
AcDbLine
 10
1523.6708929593
 20
-116.3436751498
 30
0.0
 11
1533.2286999334
 21
-106.7858681757
 31
0.0
  0
LINE
  5
7A
100
AcDbEntity
  8
L1_150
  6
CONTINUOUS
 62
         4
100
AcDbLine
 10
1536.5286999334
 20
-103.4858681757
 30
0.0
 11
1548.1995514959
 21
-91.8150166132
 31
0.0
  0
LINE
  5
7B
100
AcDbEntity
  8
L1_150
  6
CONTINUOUS
 62
         4
100
AcDbLine
 10
1480.4288268242
 20
-155.3431005977
 30
0.0
 11
1498.6355693453
 21
-137.1363580766
 31
0.0
  0
LINE
  5
7C
100
AcDbEntity
  8
L1_150
  6
CONTINUOUS
 62
         4
100
AcDbLine
 10
1519.4282522722
 20
-116.3436751498
 30
0.0
 11
1533.2286999334
 21
-102.5432274885
 31
0.0
  0
LINE
  5
7D
100
AcDbEntity
  8
L1_150
  6
CONTINUOUS
 62
         4
100
AcDbLine
 10
1536.5286999334
 20
-99.2432274885
 30
0.0
 11
1543.9569108087
 21
-91.8150166132
 31
0.0
  0
LINE
  5
7E
100
AcDbEntity
  8
L1_150
  6
CONTINUOUS
 62
         4
100
AcDbLine
 10
1476.726163025
 20
-154.8031237099
 30
0.0
 11
1494.3929286582
 21
-137.1363580766
 31
0.0
  0
LINE
  5
7F
100
AcDbEntity
  8
L1_150
  6
CONTINUOUS
 62
         4
100
AcDbLine
 10
1515.185611585
 20
-116.3436751498
 30
0.0
 11
1533.2286999334
 21
-98.3005868014
 31
0.0
  0
LINE
  5
80
100
AcDbEntity
  8
L1_150
  6
CONTINUOUS
 62
         4
100
AcDbLine
 10
1536.5286999334
 20
-95.0005868014
 30
0.0
 11
1537.9954408035
 21
-93.5338459313
 31
0.0
  0
LINE
  5
81
100
AcDbEntity
  8
L1_150
  6
CONTINUOUS
 62
         4
100
AcDbLine
 10
1538.9684907365
 20
-92.5607959983
 30
0.0
 11
1542.8786999334
 21
-88.6505868014
 31
0.0
  0
LINE
  5
82
100
AcDbEntity
  8
L1_150
  6
CONTINUOUS
 62
         4
100
AcDbLine
 10
1473.0234992257
 20
-154.263146822
 30
0.0
 11
1490.1502879711
 21
-137.1363580766
 31
0.0
  0
LINE
  5
83
100
AcDbEntity
  8
L1_150
  6
CONTINUOUS
 62
         4
100
AcDbLine
 10
1510.9429708979
 20
-116.3436751498
 30
0.0
 11
1533.2286999334
 21
-94.0579461143
 31
0.0
  0
LINE
  5
84
100
AcDbEntity
  8
L1_150
  6
CONTINUOUS
 62
         4
100
AcDbLine
 10
1537.930225294
 20
-89.3564207537
 30
0.0
 11
1542.8786999334
 21
-84.4079461143
 31
0.0
  0
LINE
  5
85
100
AcDbEntity
  8
L1_150
  6
CONTINUOUS
 62
         4
100
AcDbLine
 10
1469.3208354265
 20
-153.7231699341
 30
0.0
 11
1485.907647284
 21
-137.1363580766
 31
0.0
  0
LINE
  5
86
100
AcDbEntity
  8
L1_150
  6
CONTINUOUS
 62
         4
100
AcDbLine
 10
1506.7003302108
 20
-116.3436751498
 30
0.0
 11
1531.8447837238
 21
-91.1992216367
 31
0.0
  0
LINE
  5
87
100
AcDbEntity
  8
L1_150
  6
CONTINUOUS
 62
         4
100
AcDbLine
 10
1536.5286999334
 20
-86.5153054272
 30
0.0
 11
1542.8786999334
 21
-80.1653054272
 31
0.0
  0
LINE
  5
88
100
AcDbEntity
  8
L1_150
  6
CONTINUOUS
 62
         4
100
AcDbLine
 10
1465.6181716273
 20
-153.1831930462
 30
0.0
 11
1481.6650065968
 21
-137.1363580766
 31
0.0
  0
LINE
  5
89
100
AcDbEntity
  8
L1_150
  6
CONTINUOUS
 62
         4
100
AcDbLine
 10
1502.4576895237
 20
-116.3436751498
 30
0.0
 11
1526.4984117756
 21
-92.3029528979
 31
0.0
  0
LINE
  5
8A
100
AcDbEntity
  8
L1_150
  6
CONTINUOUS
 62
         4
100
AcDbLine
 10
1526.9666362181
 20
-91.8347284554
 30
0.0
 11
1529.349417369
 21
-89.4519473045
 31
0.0
  0
LINE
  5
8B
100
AcDbEntity
  8
L1_150
  6
CONTINUOUS
 62
         4
100
AcDbLine
 10
1532.9394925843
 20
-85.8618720892
 30
0.0
 11
1533.2286999334
 21
-85.5726647401
 31
0.0
  0
LINE
  5
8C
100
AcDbEntity
  8
L1_150
  6
CONTINUOUS
 62
         4
100
AcDbLine
 10
1536.8786999334
 20
-81.9226647401
 30
0.0
 11
1540.8113480603
 21
-77.9900166132
 31
0.0
  0
LINE
  5
8D
100
AcDbEntity
  8
L1_150
  6
CONTINUOUS
 62
         4
100
AcDbLine
 10
1461.9155078281
 20
-152.6432161583
 30
0.0
 11
1477.4223659097
 21
-137.1363580766
 31
0.0
  0
LINE
  5
8E
100
AcDbEntity
  8
L1_150
  6
CONTINUOUS
 62
         4
100
AcDbLine
 10
1498.2150488366
 20
-116.3436751498
 30
0.0
 11
1522.5669993785
 21
-91.9917246078
 31
0.0
  0
LINE
  5
8F
100
AcDbEntity
  8
L1_150
  6
CONTINUOUS
 62
         4
100
AcDbLine
 10
1530.4441262294
 20
-84.1145977569
 30
0.0
 11
1532.8786999334
 21
-81.6800240529
 31
0.0
  0
LINE
  5
90
100
AcDbEntity
  8
L1_150
  6
CONTINUOUS
 62
         4
100
AcDbLine
 10
1458.2128440288
 20
-152.1032392704
 30
0.0
 11
1473.1797252226
 21
-137.1363580766
 31
0.0
  0
LINE
  5
91
100
AcDbEntity
  8
L1_150
  6
CONTINUOUS
 62
         4
100
AcDbLine
 10
1493.9724081494
 20
-116.3436751498
 30
0.0
 11
1517.5999974192
 21
-92.71608588
 31
0.0
  0
LINE
  5
92
100
AcDbEntity
  8
L1_150
  6
CONTINUOUS
 62
         4
100
AcDbLine
 10
1528.3436681483
 20
-81.972415151
 30
0.0
 11
1531.7024657201
 21
-78.6136175791
 31
0.0
  0
LINE
  5
93
100
AcDbEntity
  8
L1_150
  6
CONTINUOUS
 62
         4
100
AcDbLine
 10
1454.5101802296
 20
-151.5632623825
 30
0.0
 11
1468.9370845355
 21
-137.1363580766
 31
0.0
  0
LINE
  5
94
100
AcDbEntity
  8
L1_150
  6
CONTINUOUS
 62
         4
100
AcDbLine
 10
1489.7297674623
 20
-116.3436751498
 30
0.0
 11
1512.6329954599
 21
-93.4404471522
 31
0.0
  0
LINE
  5
95
100
AcDbEntity
  8
L1_150
  6
CONTINUOUS
 62
         4
100
AcDbLine
 10
1527.0546344003
 20
-79.0188082118
 30
0.0
 11
1528.007491532
 21
-78.0659510802
 31
0.0
  0
LINE
  5
96
100
AcDbEntity
  8
L1_150
  6
CONTINUOUS
 62
         4
100
AcDbLine
 10
1450.8075164304
 20
-151.0232854946
 30
0.0
 11
1464.6944438484
 21
-137.1363580766
 31
0.0
  0
LINE
  5
97
100
AcDbEntity
  8
L1_150
  6
CONTINUOUS
 62
         4
100
AcDbLine
 10
1485.4871267752
 20
-116.3436751498
 30
0.0
 11
1507.6659935006
 21
-94.1648084244
 31
0.0
  0
LINE
  5
98
100
AcDbEntity
  8
L1_150
  6
CONTINUOUS
 62
         4
100
AcDbLine
 10
1447.1048526312
 20
-150.4833086067
 30
0.0
 11
1460.4518031613
 21
-137.1363580766
 31
0.0
  0
LINE
  5
99
100
AcDbEntity
  8
L1_150
  6
CONTINUOUS
 62
         4
100
AcDbLine
 10
1481.2444860881
 20
-116.3436751498
 30
0.0
 11
1502.6989915412
 21
-94.8891696966
 31
0.0
  0
LINE
  5
9A
100
AcDbEntity
  8
L1_150
  6
CONTINUOUS
 62
         4
100
AcDbLine
 10
1443.402188832
 20
-149.9433317188
 30
0.0
 11
1456.2091624741
 21
-137.1363580766
 31
0.0
  0
LINE
  5
9B
100
AcDbEntity
  8
L1_150
  6
CONTINUOUS
 62
         4
100
AcDbLine
 10
1477.001845401
 20
-116.3436751498
 30
0.0
 11
1497.7319895819
 21
-95.6135309689
 31
0.0
  0
LINE
  5
9C
100
AcDbEntity
  8
L1_150
  6
CONTINUOUS
 62
         4
100
AcDbLine
 10
1439.6995250327
 20
-149.4033548309
 30
0.0
 11
1451.966521787
 21
-137.1363580766
 31
0.0
  0
LINE
  5
9D
100
AcDbEntity
  8
L1_150
  6
CONTINUOUS
 62
         4
100
AcDbLine
 10
1472.7592047138
 20
-116.3436751498
 30
0.0
 11
1492.7649876226
 21
-96.3378922411
 31
0.0
  0
LINE
  5
9E
100
AcDbEntity
  8
L1_150
  6
CONTINUOUS
 62
         4
100
AcDbLine
 10
1435.9968612335
 20
-148.863377943
 30
0.0
 11
1447.7238810999
 21
-137.1363580766
 31
0.0
  0
LINE
  5
9F
100
AcDbEntity
  8
L1_150
  6
CONTINUOUS
 62
         4
100
AcDbLine
 10
1468.5165640267
 20
-116.3436751498
 30
0.0
 11
1487.7979856632
 21
-97.0622535133
 31
0.0
  0
LINE
  5
A0
100
AcDbEntity
  8
L1_150
  6
CONTINUOUS
 62
         4
100
AcDbLine
 10
1432.2941974343
 20
-148.3234010551
 30
0.0
 11
1443.4812404128
 21
-137.1363580766
 31
0.0
  0
LINE
  5
A1
100
AcDbEntity
  8
L1_150
  6
CONTINUOUS
 62
         4
100
AcDbLine
 10
1464.2739233396
 20
-116.3436751498
 30
0.0
 11
1482.8309837039
 21
-97.7866147855
 31
0.0
  0
LINE
  5
A2
100
AcDbEntity
  8
L1_150
  6
CONTINUOUS
 62
         4
100
AcDbLine
 10
1428.5915336351
 20
-147.7834241672
 30
0.0
 11
1439.2385997257
 21
-137.1363580766
 31
0.0
  0
LINE
  5
A3
100
AcDbEntity
  8
L1_150
  6
CONTINUOUS
 62
         4
100
AcDbLine
 10
1460.0312826525
 20
-116.3436751498
 30
0.0
 11
1477.8639817446
 21
-98.5109760577
 31
0.0
  0
LINE
  5
A4
100
AcDbEntity
  8
L1_150
  6
CONTINUOUS
 62
         4
100
AcDbLine
 10
1424.8888698358
 20
-147.2434472793
 30
0.0
 11
1434.9959590385
 21
-137.1363580766
 31
0.0
  0
LINE
  5
A5
100
AcDbEntity
  8
L1_150
  6
CONTINUOUS
 62
         4
100
AcDbLine
 10
1455.7886419654
 20
-116.3436751498
 30
0.0
 11
1472.8969797853
 21
-99.2353373299
 31
0.0
  0
LINE
  5
A6
100
AcDbEntity
  8
L1_150
  6
CONTINUOUS
 62
         4
100
AcDbLine
 10
1422.334520006
 20
-145.555156422
 30
0.0
 11
1430.7533183514
 21
-137.1363580766
 31
0.0
  0
LINE
  5
A7
100
AcDbEntity
  8
L1_150
  6
CONTINUOUS
 62
         4
100
AcDbLine
 10
1451.5460012782
 20
-116.3436751498
 30
0.0
 11
1467.9299778259
 21
-99.9596986021
 31
0.0
  0
LINE
  5
A8
100
AcDbEntity
  8
L1_150
  6
CONTINUOUS
 62
         4
100
AcDbLine
 10
1422.1786999334
 20
-141.4683358075
 30
0.0
 11
1424.4070191277
 21
-139.2400166132
 31
0.0
  0
LINE
  5
A9
100
AcDbEntity
  8
L1_150
  6
CONTINUOUS
 62
         4
100
AcDbLine
 10
1447.3033605911
 20
-116.3436751498
 30
0.0
 11
1462.9629758666
 21
-100.6840598743
 31
0.0
  0
LINE
  5
AA
100
AcDbEntity
  8
L1_150
  6
CONTINUOUS
 62
         4
100
AcDbLine
 10
1443.060719904
 20
-116.3436751498
 30
0.0
 11
1457.9959739073
 21
-101.4084211465
 31
0.0
  0
LINE
  5
AB
100
AcDbEntity
  8
L1_150
  6
CONTINUOUS
 62
         4
100
AcDbLine
 10
1438.8180792169
 20
-116.3436751498
 30
0.0
 11
1453.0289719479
 21
-102.1327824187
 31
0.0
  0
LINE
  5
AC
100
AcDbEntity
  8
L1_150
  6
CONTINUOUS
 62
         4
100
AcDbLine
 10
1434.5754385298
 20
-116.3436751498
 30
0.0
 11
1448.0619699886
 21
-102.8571436909
 31
0.0
  0
LINE
  5
AD
100
AcDbEntity
  8
L1_150
  6
CONTINUOUS
 62
         4
100
AcDbLine
 10
1430.3904208688
 20
-116.2860521236
 30
0.0
 11
1443.0949680293
 21
-103.5815049631
 31
0.0
  0
LINE
  5
AE
100
AcDbEntity
  8
L1_150
  6
CONTINUOUS
 62
         4
100
AcDbLine
 10
1428.2691005252
 20
-114.1647317801
 30
0.0
 11
1438.12796607
 21
-104.3058662354
 31
0.0
  0
LINE
  5
AF
100
AcDbEntity
  8
L1_150
  6
CONTINUOUS
 62
         4
100
AcDbLine
 10
1423.951175005
 20
-114.2400166132
 30
0.0
 11
1433.1609641106
 21
-105.0302275076
 31
0.0
  0
LINE
  5
B0
100
AcDbEntity
  8
L1_150
  6
CONTINUOUS
 62
         4
100
AcDbLine
 10
1422.1786999334
 20
-111.7698509977
 30
0.0
 11
1428.1939621513
 21
-105.7545887798
 31
0.0
  0
ENDBLK
  5
B1
100
AcDbEntity
  8
0
  6
CONTINUOUS
100
AcDbBlockEnd
  0
BLOCK
  5
303
100
AcDbEntity
  8
0
100
AcDbBlockBegin
  2
*D1
 70
        65
 10
0.0
 20
0.0
 30
0.0
  3
*D1
  1

  0
POINT
  5
306
100
AcDbEntity
  8
DEFPOINTS
  6
CONTINUOUS
 62
         0
100
AcDbPoint
 10
1422.1786999334
 20
220.3545305446
 30
0.0
  0
POINT
  5
307
100
AcDbEntity
  8
DEFPOINTS
  6
CONTINUOUS
 62
         0
100
AcDbPoint
 10
1422.1786999334
 20
130.1987502026
 30
0.0
  0
POINT
  5
308
100
AcDbEntity
  8
DEFPOINTS
  6
CONTINUOUS
 62
         0
100
AcDbPoint
 10
1660.7786999334
 20
112.2524144385
 30
0.0
  0
LINE
  5
309
100
AcDbEntity
  8
L1_150
  6
CONTINUOUS
 62
         4
100
AcDbLine
 10
1422.1786999334
 20
131.9487502026
 30
0.0
 11
1422.1786999334
 21
221.2295305446
 31
0.0
  0
LINE
  5
30A
100
AcDbEntity
  8
L1_150
  6
CONTINUOUS
 62
         4
100
AcDbLine
 10
1660.7786999334
 20
114.0024144385
 30
0.0
 11
1660.7786999334
 21
221.2295305446
 31
0.0
  0
LINE
  5
30B
100
AcDbEntity
  8
L1_150
  6
CONTINUOUS
 62
         4
100
AcDbLine
 10
1422.1786999334
 20
220.3545305446
 30
0.0
 11
1660.7786999334
 21
220.3545305446
 31
0.0
  0
SOLID
  5
30C
100
AcDbEntity
  8
L1_150
  6
CONTINUOUS
 62
         4
100
AcDbTrace
 10
1422.1786999334
 20
220.3545305446
 30
0.0
 11
1425.6786999334
 21
220.8795305446
 31
0.0
 12
1425.6786999334
 22
219.8295305446
 32
0.0
 13
1422.1786999334
 23
220.3545305446
 33
0.0
  0
SOLID
  5
30D
100
AcDbEntity
  8
L1_150
  6
CONTINUOUS
 62
         4
100
AcDbTrace
 10
1660.7786999334
 20
220.3545305446
 30
0.0
 11
1657.2786999334
 21
219.8295305446
 31
0.0
 12
1657.2786999334
 22
220.8795305446
 32
0.0
 13
1660.7786999334
 23
220.3545305446
 33
0.0
  0
TEXT
  5
30F
100
AcDbEntity
  8
L1_150
  6
CONTINUOUS
 62
         4
100
AcDbText
 10
1537.5972082774
 20
222.9795305446
 30
0.0
 40
3.5
  1
238.6
  7
BOX
100
AcDbText
  0
ENDBLK
  5
310
100
AcDbEntity
  8
0
  6
CONTINUOUS
100
AcDbBlockEnd
  0
BLOCK
  5
312
100
AcDbEntity
  8
0
100
AcDbBlockBegin
  2
*D2
 70
        65
 10
0.0
 20
0.0
 30
0.0
  3
*D2
  1

  0
POINT
  5
314
100
AcDbEntity
  8
DEFPOINTS
  6
CONTINUOUS
 62
         0
100
AcDbPoint
 10
1660.7786999334
 20
212.3621219429
 30
0.0
  0
POINT
  5
315
100
AcDbEntity
  8
DEFPOINTS
  6
CONTINUOUS
 62
         0
100
AcDbPoint
 10
1660.7786999334
 20
112.2524144385
 30
0.0
  0
POINT
  5
316
100
AcDbEntity
  8
DEFPOINTS
  6
CONTINUOUS
 62
         0
100
AcDbPoint
 10
1523.7786999334
 20
151.9774144385
 30
0.0
  0
LINE
  5
317
100
AcDbEntity
  8
L1_150
  6
CONTINUOUS
 62
         4
100
AcDbLine
 10
1660.7786999334
 20
114.0024144385
 30
0.0
 11
1660.7786999334
 21
213.2371219429
 31
0.0
  0
LINE
  5
318
100
AcDbEntity
  8
L1_150
  6
CONTINUOUS
 62
         4
100
AcDbLine
 10
1523.7786999334
 20
153.7274144385
 30
0.0
 11
1523.7786999334
 21
213.2371219429
 31
0.0
  0
LINE
  5
319
100
AcDbEntity
  8
L1_150
  6
CONTINUOUS
 62
         4
100
AcDbLine
 10
1660.7786999334
 20
212.3621219429
 30
0.0
 11
1523.7786999334
 21
212.3621219429
 31
0.0
  0
SOLID
  5
31A
100
AcDbEntity
  8
L1_150
  6
CONTINUOUS
 62
         4
100
AcDbTrace
 10
1660.7786999334
 20
212.3621219429
 30
0.0
 11
1657.2786999334
 21
211.8371219429
 31
0.0
 12
1657.2786999334
 22
212.8871219429
 32
0.0
 13
1660.7786999334
 23
212.3621219429
 33
0.0
  0
SOLID
  5
31B
100
AcDbEntity
  8
L1_150
  6
CONTINUOUS
 62
         4
100
AcDbTrace
 10
1523.7786999334
 20
212.3621219429
 30
0.0
 11
1527.2786999334
 21
212.8871219429
 31
0.0
 12
1527.2786999334
 22
211.8371219429
 32
0.0
 13
1523.7786999334
 23
212.3621219429
 33
0.0
  0
TEXT
  5
31D
100
AcDbEntity
  8
L1_150
  6
CONTINUOUS
 62
         4
100
AcDbText
 10
1588.1565101238
 20
214.9871219429
 30
0.0
 40
3.5
  1
137
  7
BOX
100
AcDbText
  0
ENDBLK
  5
31E
100
AcDbEntity
  8
0
  6
CONTINUOUS
100
AcDbBlockEnd
  0
BLOCK
  5
320
100
AcDbEntity
  8
0
100
AcDbBlockBegin
  2
*D3
 70
        65
 10
0.0
 20
0.0
 30
0.0
  3
*D3
  1

  0
POINT
  5
322
100
AcDbEntity
  8
DEFPOINTS
  6
CONTINUOUS
 62
         0
100
AcDbPoint
 10
1642.2786999334
 20
73.3012367816
 30
0.0
  0
POINT
  5
323
100
AcDbEntity
  8
DEFPOINTS
  6
CONTINUOUS
 62
         0
100
AcDbPoint
 10
1642.2786999334
 20
93.2524144385
 30
0.0
  0
POINT
  5
324
100
AcDbEntity
  8
DEFPOINTS
  6
CONTINUOUS
 62
         0
100
AcDbPoint
 10
1660.7786999334
 20
93.2524144385
 30
0.0
  0
LINE
  5
325
100
AcDbEntity
  8
L1_150
  6
CONTINUOUS
 62
         4
100
AcDbLine
 10
1642.2786999334
 20
91.5024144385
 30
0.0
 11
1642.2786999334
 21
72.4262367816
 31
0.0
  0
LINE
  5
326
100
AcDbEntity
  8
L1_150
  6
CONTINUOUS
 62
         4
100
AcDbLine
 10
1660.7786999334
 20
91.5024144385
 30
0.0
 11
1660.7786999334
 21
72.4262367816
 31
0.0
  0
LINE
  5
327
100
AcDbEntity
  8
L1_150
  6
CONTINUOUS
 62
         4
100
AcDbLine
 10
1642.2786999334
 20
73.3012367816
 30
0.0
 11
1660.7786999334
 21
73.3012367816
 31
0.0
  0
SOLID
  5
328
100
AcDbEntity
  8
L1_150
  6
CONTINUOUS
 62
         4
100
AcDbTrace
 10
1642.2786999334
 20
73.3012367816
 30
0.0
 11
1645.7786999334
 21
73.8262367816
 31
0.0
 12
1645.7786999334
 22
72.7762367816
 32
0.0
 13
1642.2786999334
 23
73.3012367816
 33
0.0
  0
SOLID
  5
329
100
AcDbEntity
  8
L1_150
  6
CONTINUOUS
 62
         4
100
AcDbTrace
 10
1660.7786999334
 20
73.3012367816
 30
0.0
 11
1657.2786999334
 21
72.7762367816
 31
0.0
 12
1657.2786999334
 22
73.8262367816
 32
0.0
 13
1660.7786999334
 23
73.3012367816
 33
0.0
  0
TEXT
  5
32B
100
AcDbEntity
  8
L1_150
  6
CONTINUOUS
 62
         4
100
AcDbText
 10
1642.2397977787
 20
75.9262367816
 30
0.0
 40
3.5
  1
18.5
  7
BOX
100
AcDbText
  0
ENDBLK
  5
32C
100
AcDbEntity
  8
0
  6
CONTINUOUS
100
AcDbBlockEnd
  0
BLOCK
  5
32E
100
AcDbEntity
  8
0
100
AcDbBlockBegin
  2
*D4
 70
        65
 10
0.0
 20
0.0
 30
0.0
  3
*D4
  1

  0
POINT
  5
330
100
AcDbEntity
  8
DEFPOINTS
  6
CONTINUOUS
 62
         0
100
AcDbPoint
 10
1680.3062928797
 20
137.2024144385
 30
0.0
  0
POINT
  5
331
100
AcDbEntity
  8
DEFPOINTS
  6
CONTINUOUS
 62
         0
100
AcDbPoint
 10
1639.4176974549
 20
137.2024144385
 30
0.0
  0
POINT
  5
332
100
AcDbEntity
  8
DEFPOINTS
  6
CONTINUOUS
 62
         0
100
AcDbPoint
 10
1639.4176974549
 20
87.3024144385
 30
0.0
  0
LINE
  5
333
100
AcDbEntity
  8
L1_150
  6
CONTINUOUS
 62
         4
100
AcDbLine
 10
1641.1676974549
 20
137.2024144385
 30
0.0
 11
1681.1812928797
 21
137.2024144385
 31
0.0
  0
LINE
  5
334
100
AcDbEntity
  8
L1_150
  6
CONTINUOUS
 62
         4
100
AcDbLine
 10
1641.1676974549
 20
87.3024144385
 30
0.0
 11
1681.1812928797
 21
87.3024144385
 31
0.0
  0
LINE
  5
335
100
AcDbEntity
  8
L1_150
  6
CONTINUOUS
 62
         4
100
AcDbLine
 10
1680.3062928797
 20
137.2024144385
 30
0.0
 11
1680.3062928797
 21
87.3024144385
 31
0.0
  0
SOLID
  5
336
100
AcDbEntity
  8
L1_150
  6
CONTINUOUS
 62
         4
100
AcDbTrace
 10
1680.3062928797
 20
137.2024144385
 30
0.0
 11
1680.8312928797
 21
133.7024144385
 31
0.0
 12
1679.7812928797
 22
133.7024144385
 32
0.0
 13
1680.3062928797
 23
137.2024144385
 33
0.0
  0
SOLID
  5
337
100
AcDbEntity
  8
L1_150
  6
CONTINUOUS
 62
         4
100
AcDbTrace
 10
1680.3062928797
 20
87.3024144385
 30
0.0
 11
1679.7812928797
 21
90.8024144385
 31
0.0
 12
1680.8312928797
 22
90.8024144385
 32
0.0
 13
1680.3062928797
 23
87.3024144385
 33
0.0
  0
TEXT
  5
339
100
AcDbEntity
  8
L1_150
  6
CONTINUOUS
 62
         4
100
AcDbText
 10
1677.6812928797
 20
104.2661269826
 30
0.0
 40
3.5
  1
崷50
 50
90.0
  7
BOX
100
AcDbText
  0
ENDBLK
  5
33A
100
AcDbEntity
  8
0
  6
CONTINUOUS
100
AcDbBlockEnd
  0
BLOCK
  5
351
100
AcDbEntity
  8
0
100
AcDbBlockBegin
  2
*D5
 70
        65
 10
0.0
 20
0.0
 30
0.0
  3
*D5
  1

  0
POINT
  5
353
100
AcDbEntity
  8
DEFPOINTS
  6
CONTINUOUS
 62
         0
100
AcDbPoint
 10
1644.7786999334
 20
-166.8906981656
 30
0.0
  0
POINT
  5
354
100
AcDbEntity
  8
DEFPOINTS
  6
CONTINUOUS
 62
         0
100
AcDbPoint
 10
1644.7786999334
 20
-145.7400166132
 30
0.0
  0
POINT
  5
355
100
AcDbEntity
  8
DEFPOINTS
  6
CONTINUOUS
 62
         0
100
AcDbPoint
 10
1660.7786999334
 20
-145.7400166132
 30
0.0
  0
LINE
  5
356
100
AcDbEntity
  8
L1_150
  6
CONTINUOUS
 62
         4
100
AcDbLine
 10
1644.7786999334
 20
-147.4900166132
 30
0.0
 11
1644.7786999334
 21
-167.7656981656
 31
0.0
  0
LINE
  5
357
100
AcDbEntity
  8
L1_150
  6
CONTINUOUS
 62
         4
100
AcDbLine
 10
1660.7786999334
 20
-147.4900166132
 30
0.0
 11
1660.7786999334
 21
-167.7656981656
 31
0.0
  0
LINE
  5
358
100
AcDbEntity
  8
L1_150
  6
CONTINUOUS
 62
         4
100
AcDbLine
 10
1644.7786999334
 20
-166.8906981656
 30
0.0
 11
1660.7786999334
 21
-166.8906981656
 31
0.0
  0
SOLID
  5
359
100
AcDbEntity
  8
L1_150
  6
CONTINUOUS
 62
         4
100
AcDbTrace
 10
1644.7786999334
 20
-166.8906981656
 30
0.0
 11
1648.2786999334
 21
-166.3656981656
 31
0.0
 12
1648.2786999334
 22
-167.4156981656
 32
0.0
 13
1644.7786999334
 23
-166.8906981656
 33
0.0
  0
SOLID
  5
35A
100
AcDbEntity
  8
L1_150
  6
CONTINUOUS
 62
         4
100
AcDbTrace
 10
1660.7786999334
 20
-166.8906981656
 30
0.0
 11
1657.2786999334
 21
-167.4156981656
 31
0.0
 12
1657.2786999334
 22
-166.3656981656
 32
0.0
 13
1660.7786999334
 23
-166.8906981656
 33
0.0
  0
TEXT
  5
35C
100
AcDbEntity
  8
L1_150
  6
CONTINUOUS
 62
         4
100
AcDbText
 10
1646.7261895042
 20
-164.2656981656
 30
0.0
 40
3.5
  1
16
  7
BOX
100
AcDbText
  0
ENDBLK
  5
35D
100
AcDbEntity
  8
0
  6
CONTINUOUS
100
AcDbBlockEnd
  0
BLOCK
  5
378
100
AcDbEntity
  8
0
100
AcDbBlockBegin
  2
*D6
 70
        65
 10
0.0
 20
0.0
 30
0.0
  3
*D6
  1

  0
POINT
  5
37A
100
AcDbEntity
  8
DEFPOINTS
  6
CONTINUOUS
 62
         0
100
AcDbPoint
 10
1853.3003668935
 20
-20.77165468
 30
0.0
  0
POINT
  5
37B
100
AcDbEntity
  8
DEFPOINTS
  6
CONTINUOUS
 62
         0
100
AcDbPoint
 10
1835.0976391328
 20
-20.77165468
 30
0.0
  0
POINT
  5
37C
100
AcDbEntity
  8
DEFPOINTS
  6
CONTINUOUS
 62
         0
100
AcDbPoint
 10
1835.0976391328
 20
-44.58165468
 30
0.0
  0
LINE
  5
37D
100
AcDbEntity
  8
L1_150
  6
CONTINUOUS
 62
         4
100
AcDbLine
 10
1836.4476391328
 20
-20.77165468
 30
0.0
 11
1853.9753668935
 21
-20.77165468
 31
0.0
  0
LINE
  5
37E
100
AcDbEntity
  8
L1_150
  6
CONTINUOUS
 62
         4
100
AcDbLine
 10
1836.4476391328
 20
-44.58165468
 30
0.0
 11
1853.9753668935
 21
-44.58165468
 31
0.0
  0
LINE
  5
37F
100
AcDbEntity
  8
L1_150
  6
CONTINUOUS
 62
         4
100
AcDbLine
 10
1853.3003668935
 20
-20.77165468
 30
0.0
 11
1853.3003668935
 21
-44.58165468
 31
0.0
  0
SOLID
  5
380
100
AcDbEntity
  8
L1_150
  6
CONTINUOUS
 62
         4
100
AcDbTrace
 10
1853.3003668935
 20
-20.77165468
 30
0.0
 11
1853.7053668935
 21
-23.47165468
 31
0.0
 12
1852.8953668935
 22
-23.47165468
 32
0.0
 13
1853.3003668935
 23
-20.77165468
 33
0.0
  0
SOLID
  5
381
100
AcDbEntity
  8
L1_150
  6
CONTINUOUS
 62
         4
100
AcDbTrace
 10
1853.3003668935
 20
-44.58165468
 30
0.0
 11
1852.8953668935
 21
-41.88165468
 31
0.0
 12
1853.7053668935
 22
-41.88165468
 32
0.0
 13
1853.3003668935
 23
-44.58165468
 33
0.0
  0
TEXT
  5
383
100
AcDbEntity
  8
L1_150
  6
CONTINUOUS
 62
         4
100
AcDbText
 10
1851.2753668935
 20
-44.9825909981
 30
0.0
 40
2.7
  1
15/16"-16UN
 50
90.0
  7
BOX
100
AcDbText
  0
ENDBLK
  5
384
100
AcDbEntity
  8
0
  6
CONTINUOUS
100
AcDbBlockEnd
  0
BLOCK
  5
39A
100
AcDbEntity
  8
0
100
AcDbBlockBegin
  2
*D7
 70
        65
 10
0.0
 20
0.0
 30
0.0
  3
*D7
  1

  0
POINT
  5
39C
100
AcDbEntity
  8
DEFPOINTS
  6
CONTINUOUS
 62
         0
100
AcDbPoint
 10
1825.5726391328
 20
-13.2089440447
 30
0.0
  0
POINT
  5
39D
100
AcDbEntity
  8
DEFPOINTS
  6
CONTINUOUS
 62
         0
100
AcDbPoint
 10
1825.5726391328
 20
-24.09665468
 30
0.0
  0
POINT
  5
39E
100
AcDbEntity
  8
DEFPOINTS
  6
CONTINUOUS
 62
         0
100
AcDbPoint
 10
1838.5726391328
 20
-24.09665468
 30
0.0
  0
LINE
  5
39F
100
AcDbEntity
  8
L1_150
  6
CONTINUOUS
 62
         4
100
AcDbLine
 10
1825.5726391328
 20
-22.74665468
 30
0.0
 11
1825.5726391328
 21
-12.5339440447
 31
0.0
  0
LINE
  5
3A0
100
AcDbEntity
  8
L1_150
  6
CONTINUOUS
 62
         4
100
AcDbLine
 10
1838.5726391328
 20
-22.74665468
 30
0.0
 11
1838.5726391328
 21
-12.5339440447
 31
0.0
  0
LINE
  5
3A1
100
AcDbEntity
  8
L1_150
  6
CONTINUOUS
 62
         4
100
AcDbLine
 10
1825.5726391328
 20
-13.2089440447
 30
0.0
 11
1838.5726391328
 21
-13.2089440447
 31
0.0
  0
SOLID
  5
3A2
100
AcDbEntity
  8
L1_150
  6
CONTINUOUS
 62
         4
100
AcDbTrace
 10
1825.5726391328
 20
-13.2089440447
 30
0.0
 11
1828.2726391328
 21
-12.8039440447
 31
0.0
 12
1828.2726391328
 22
-13.6139440447
 32
0.0
 13
1825.5726391328
 23
-13.2089440447
 33
0.0
  0
SOLID
  5
3A3
100
AcDbEntity
  8
L1_150
  6
CONTINUOUS
 62
         4
100
AcDbTrace
 10
1838.5726391328
 20
-13.2089440447
 30
0.0
 11
1835.8726391328
 21
-13.6139440447
 31
0.0
 12
1835.8726391328
 22
-12.8039440447
 32
0.0
 13
1838.5726391328
 23
-13.2089440447
 33
0.0
  0
TEXT
  5
3A5
100
AcDbEntity
  8
L1_150
  6
CONTINUOUS
 62
         4
100
AcDbText
 10
1829.472031747
 20
-11.1839440447
 30
0.0
 40
2.7
  1
13
  7
BOX
100
AcDbText
  0
ENDBLK
  5
3A6
100
AcDbEntity
  8
0
  6
CONTINUOUS
100
AcDbBlockEnd
  0
BLOCK
  5
3AB
100
AcDbEntity
  8
0
100
AcDbBlockBegin
  2
*D8
 70
        65
 10
0.0
 20
0.0
 30
0.0
  3
*D8
  1

  0
POINT
  5
3AD
100
AcDbEntity
  8
DEFPOINTS
  6
CONTINUOUS
 62
         0
100
AcDbPoint
 10
1809.1766534559
 20
-14.369227331
 30
0.0
  0
POINT
  5
3AE
100
AcDbEntity
  8
DEFPOINTS
  6
CONTINUOUS
 62
         0
100
AcDbPoint
 10
1809.1766534559
 20
-23.0955347207
 30
0.0
  0
POINT
  5
3AF
100
AcDbEntity
  8
DEFPOINTS
  6
CONTINUOUS
 62
         0
100
AcDbPoint
 10
1807.1766534559
 20
-23.0955347207
 30
0.0
  0
LINE
  5
3B0
100
AcDbEntity
  8
L1_150
  6
CONTINUOUS
 62
         4
100
AcDbLine
 10
1809.1766534559
 20
-21.7455347207
 30
0.0
 11
1809.1766534559
 21
-13.694227331
 31
0.0
  0
LINE
  5
3B1
100
AcDbEntity
  8
L1_150
  6
CONTINUOUS
 62
         4
100
AcDbLine
 10
1807.1766534559
 20
-21.7455347207
 30
0.0
 11
1807.1766534559
 21
-13.694227331
 31
0.0
  0
LINE
  5
3B2
100
AcDbEntity
  8
L1_150
  6
CONTINUOUS
 62
         4
100
AcDbLine
 10
1809.1766534559
 20
-14.369227331
 30
0.0
 11
1814.5766534559
 21
-14.369227331
 31
0.0
  0
SOLID
  5
3B3
100
AcDbEntity
  8
L1_150
  6
CONTINUOUS
 62
         4
100
AcDbTrace
 10
1809.1766534559
 20
-14.369227331
 30
0.0
 11
1811.8766534559
 21
-13.964227331
 31
0.0
 12
1811.8766534559
 22
-14.774227331
 32
0.0
 13
1809.1766534559
 23
-14.369227331
 33
0.0
  0
LINE
  5
3B4
100
AcDbEntity
  8
L1_150
  6
CONTINUOUS
 62
         4
100
AcDbLine
 10
1807.1766534559
 20
-14.369227331
 30
0.0
 11
1804.1275387939
 21
-14.369227331
 31
0.0
  0
SOLID
  5
3B5
100
AcDbEntity
  8
L1_150
  6
CONTINUOUS
 62
         4
100
AcDbTrace
 10
1807.1766534559
 20
-14.369227331
 30
0.0
 11
1804.4766534559
 21
-14.774227331
 31
0.0
 12
1804.4766534559
 22
-13.964227331
 32
0.0
 13
1807.1766534559
 23
-14.369227331
 33
0.0
  0
LINE
  5
3B6
100
AcDbEntity
  8
L1_150
  6
CONTINUOUS
 62
         4
100
AcDbLine
 10
1809.1766534559
 20
-14.369227331
 30
0.0
 11
1807.1766534559
 21
-14.369227331
 31
0.0
  0
TEXT
  5
3B8
100
AcDbEntity
  8
L1_150
  6
CONTINUOUS
 62
         4
100
AcDbText
 10
1805.4775387939
 20
-12.344227331
 30
0.0
 40
2.7
  1
2
  7
BOX
100
AcDbText
  0
ENDBLK
  5
3B9
100
AcDbEntity
  8
0
  6
CONTINUOUS
100
AcDbBlockEnd
  0
BLOCK
  5
3C2
100
AcDbEntity
  8
0
100
AcDbBlockBegin
  2
*D9
 70
        65
 10
0.0
 20
0.0
 30
0.0
  3
*D9
  1

  0
POINT
  5
3C4
100
AcDbEntity
  8
DEFPOINTS
  6
CONTINUOUS
 62
         0
100
AcDbPoint
 10
1764.582390103
 20
-93.0987199045
 30
0.0
  0
POINT
  5
3C5
100
AcDbEntity
  8
DEFPOINTS
  6
CONTINUOUS
 62
         0
100
AcDbPoint
 10
1782.5117973768
 20
-93.0987199045
 30
0.0
  0
POINT
  5
3C6
100
AcDbEntity
  8
DEFPOINTS
  6
CONTINUOUS
 62
         0
100
AcDbPoint
 10
1782.5117973768
 20
-143.0987199045
 30
0.0
  0
LINE
  5
3C7
100
AcDbEntity
  8
L1_150
  6
CONTINUOUS
 62
         4
100
AcDbLine
 10
1780.7617973768
 20
-93.0987199045
 30
0.0
 11
1763.707390103
 21
-93.0987199045
 31
0.0
  0
LINE
  5
3C8
100
AcDbEntity
  8
L1_150
  6
CONTINUOUS
 62
         4
100
AcDbLine
 10
1780.7617973768
 20
-143.0987199045
 30
0.0
 11
1763.707390103
 21
-143.0987199045
 31
0.0
  0
LINE
  5
3C9
100
AcDbEntity
  8
L1_150
  6
CONTINUOUS
 62
         4
100
AcDbLine
 10
1764.582390103
 20
-93.0987199045
 30
0.0
 11
1764.582390103
 21
-143.0987199045
 31
0.0
  0
SOLID
  5
3CA
100
AcDbEntity
  8
L1_150
  6
CONTINUOUS
 62
         4
100
AcDbTrace
 10
1764.582390103
 20
-93.0987199045
 30
0.0
 11
1765.107390103
 21
-96.5987199045
 31
0.0
 12
1764.057390103
 22
-96.5987199045
 32
0.0
 13
1764.582390103
 23
-93.0987199045
 33
0.0
  0
SOLID
  5
3CB
100
AcDbEntity
  8
L1_150
  6
CONTINUOUS
 62
         4
100
AcDbTrace
 10
1764.582390103
 20
-143.0987199045
 30
0.0
 11
1764.057390103
 21
-139.5987199045
 31
0.0
 12
1765.107390103
 22
-139.5987199045
 32
0.0
 13
1764.582390103
 23
-143.0987199045
 33
0.0
  0
TEXT
  5
3CD
100
AcDbEntity
  8
L1_150
  6
CONTINUOUS
 62
         4
100
AcDbText
 10
1761.957390103
 20
-128.6048117931
 30
0.0
 40
3.5
  1
崷50
 50
90.0
  7
BOX
100
AcDbText
  0
ENDBLK
  5
3CE
100
AcDbEntity
  8
0
  6
CONTINUOUS
100
AcDbBlockEnd
  0
BLOCK
  5
3D0
100
AcDbEntity
  8
0
100
AcDbBlockBegin
  2
*D10
 70
        65
 10
0.0
 20
0.0
 30
0.0
  3
*D10
  1

  0
POINT
  5
3D2
100
AcDbEntity
  8
DEFPOINTS
  6
CONTINUOUS
 62
         0
100
AcDbPoint
 10
1774.7314368458
 20
-98.0987199045
 30
0.0
  0
POINT
  5
3D3
100
AcDbEntity
  8
DEFPOINTS
  6
CONTINUOUS
 62
         0
100
AcDbPoint
 10
1780.9448100787
 20
-98.0987199045
 30
0.0
  0
POINT
  5
3D4
100
AcDbEntity
  8
DEFPOINTS
  6
CONTINUOUS
 62
         0
100
AcDbPoint
 10
1783.3178089813
 20
-138.0987199045
 30
0.0
  0
LINE
  5
3D5
100
AcDbEntity
  8
L1_150
  6
CONTINUOUS
 62
         4
100
AcDbLine
 10
1779.1948100787
 20
-98.0987199045
 30
0.0
 11
1773.8564368458
 21
-98.0987199045
 31
0.0
  0
LINE
  5
3D6
100
AcDbEntity
  8
L1_150
  6
CONTINUOUS
 62
         4
100
AcDbLine
 10
1781.5678089813
 20
-138.0987199045
 30
0.0
 11
1773.8564368458
 21
-138.0987199045
 31
0.0
  0
LINE
  5
3D7
100
AcDbEntity
  8
L1_150
  6
CONTINUOUS
 62
         4
100
AcDbLine
 10
1774.7314368458
 20
-98.0987199045
 30
0.0
 11
1774.7314368458
 21
-138.0987199045
 31
0.0
  0
SOLID
  5
3D8
100
AcDbEntity
  8
L1_150
  6
CONTINUOUS
 62
         4
100
AcDbTrace
 10
1774.7314368458
 20
-98.0987199045
 30
0.0
 11
1775.2564368458
 21
-101.5987199045
 31
0.0
 12
1774.2064368458
 22
-101.5987199045
 32
0.0
 13
1774.7314368458
 23
-98.0987199045
 33
0.0
  0
SOLID
  5
3D9
100
AcDbEntity
  8
L1_150
  6
CONTINUOUS
 62
         4
100
AcDbTrace
 10
1774.7314368458
 20
-138.0987199045
 30
0.0
 11
1774.2064368458
 21
-134.5987199045
 31
0.0
 12
1775.2564368458
 22
-134.5987199045
 32
0.0
 13
1774.7314368458
 23
-138.0987199045
 33
0.0
  0
TEXT
  5
3DB
100
AcDbEntity
  8
L1_150
  6
CONTINUOUS
 62
         4
100
AcDbText
 10
1772.1064368458
 20
-137.6719695039
 30
0.0
 40
3.5
  1
M40xP1.5-5H
 50
90.0
  7
BOX
100
AcDbText
  0
ENDBLK
  5
3DC
100
AcDbEntity
  8
0
  6
CONTINUOUS
100
AcDbBlockEnd
  0
BLOCK
  5
406
100
AcDbEntity
  8
0
100
AcDbBlockBegin
  2
*X11
 70
        65
 10
0.0
 20
0.0
 30
0.0
  3
*X11
  1

  0
LINE
  5
407
100
AcDbEntity
  8
L1_150
  6
CONTINUOUS
 62
         4
100
AcDbLine
 10
1784.3580430181
 20
-93.0987199045
 30
0.0
 11
1780.5117973768
 21
-96.9449655458
 31
0.0
  0
LINE
  5
408
100
AcDbEntity
  8
L1_150
  6
CONTINUOUS
 62
         4
100
AcDbLine
 10
1787.5117973768
 20
-94.1876062329
 30
0.0
 11
1783.6006837052
 21
-98.0987199045
 31
0.0
  0
LINE
  5
409
100
AcDbEntity
  8
L1_150
  6
CONTINUOUS
 62
         4
100
AcDbLine
 10
1789.6433243923
 20
-96.2987199045
 30
0.0
 11
1787.8433243923
 21
-98.0987199045
 31
0.0
  0
LINE
  5
40A
100
AcDbEntity
  8
L1_150
  6
CONTINUOUS
 62
         4
100
AcDbLine
 10
1793.8859650794
 20
-96.2987199045
 30
0.0
 11
1792.5859650794
 21
-97.5987199045
 31
0.0
  0
LINE
  5
40B
100
AcDbEntity
  8
L1_150
  6
CONTINUOUS
 62
         4
100
AcDbLine
 10
1798.1286057665
 20
-96.2987199045
 30
0.0
 11
1795.1117973768
 21
-99.3155282942
 31
0.0
  0
LINE
  5
40C
100
AcDbEntity
  8
L1_150
  6
CONTINUOUS
 62
         4
100
AcDbLine
 10
1801.5694556341
 20
-97.1005107241
 30
0.0
 11
1797.8117973768
 21
-100.8581689814
 31
0.0
  0
LINE
  5
40D
100
AcDbEntity
  8
L1_150
  6
CONTINUOUS
 62
         4
100
AcDbLine
 10
1802.999493448
 20
-99.9131135973
 30
0.0
 11
1799.9227676285
 21
-102.9898394168
 31
0.0
  0
ENDBLK
  5
40E
100
AcDbEntity
  8
0
  6
CONTINUOUS
100
AcDbBlockEnd
  0
BLOCK
  5
412
100
AcDbEntity
  8
0
100
AcDbBlockBegin
  2
*X12
 70
        65
 10
0.0
 20
0.0
 30
0.0
  3
*X12
  1

  0
LINE
  5
413
100
AcDbEntity
  8
L1_150
  6
CONTINUOUS
 62
         4
100
AcDbLine
 10
1783.6006837052
 20
-98.0987199045
 30
0.0
 11
1782.7886837052
 21
-98.9107199045
 31
0.0
  0
LINE
  5
414
100
AcDbEntity
  8
L1_150
  6
CONTINUOUS
 62
         4
100
AcDbLine
 10
1787.8433243923
 20
-98.0987199045
 30
0.0
 11
1787.0313243923
 21
-98.9107199045
 31
0.0
  0
ENDBLK
  5
415
100
AcDbEntity
  8
0
  6
CONTINUOUS
100
AcDbBlockEnd
  0
BLOCK
  5
419
100
AcDbEntity
  8
0
100
AcDbBlockBegin
  2
*X13
 70
        65
 10
0.0
 20
0.0
 30
0.0
  3
*X13
  1

  0
LINE
  5
41A
100
AcDbEntity
  8
L1_150
  6
CONTINUOUS
 62
         4
100
AcDbLine
 10
1782.5964498893
 20
-137.2867199045
 30
0.0
 11
1781.7844498893
 21
-138.0987199045
 31
0.0
  0
LINE
  5
41B
100
AcDbEntity
  8
L1_150
  6
CONTINUOUS
 62
         4
100
AcDbLine
 10
1786.8390905764
 20
-137.2867199045
 30
0.0
 11
1786.0270905764
 21
-138.0987199045
 31
0.0
  0
LINE
  5
41C
100
AcDbEntity
  8
L1_150
  6
CONTINUOUS
 62
         4
100
AcDbLine
 10
1790.9407643202
 20
-137.4276868479
 30
0.0
 11
1790.2697312635
 21
-138.0987199045
 31
0.0
  0
ENDBLK
  5
41D
100
AcDbEntity
  8
0
  6
CONTINUOUS
100
AcDbBlockEnd
  0
BLOCK
  5
421
100
AcDbEntity
  8
0
100
AcDbBlockBegin
  2
*X14
 70
        65
 10
0.0
 20
0.0
 30
0.0
  3
*X14
  1

  0
LINE
  5
422
100
AcDbEntity
  8
L1_150
  6
CONTINUOUS
 62
         4
100
AcDbLine
 10
1781.7844498893
 20
-138.0987199045
 30
0.0
 11
1780.5117973768
 21
-139.371372417
 31
0.0
  0
LINE
  5
423
100
AcDbEntity
  8
L1_150
  6
CONTINUOUS
 62
         4
100
AcDbLine
 10
1786.0270905764
 20
-138.0987199045
 30
0.0
 11
1781.3788979581
 21
-142.7469125228
 31
0.0
  0
LINE
  5
424
100
AcDbEntity
  8
L1_150
  6
CONTINUOUS
 62
         4
100
AcDbLine
 10
1795.3697312635
 20
-132.9987199045
 30
0.0
 11
1795.1117973768
 21
-133.2566537912
 31
0.0
  0
LINE
  5
425
100
AcDbEntity
  8
L1_150
  6
CONTINUOUS
 62
         4
100
AcDbLine
 10
1790.2697312635
 20
-138.0987199045
 30
0.0
 11
1788.4697312635
 21
-139.8987199045
 31
0.0
  0
LINE
  5
426
100
AcDbEntity
  8
L1_150
  6
CONTINUOUS
 62
         4
100
AcDbLine
 10
1787.5117973768
 20
-140.8566537912
 30
0.0
 11
1785.2697312635
 21
-143.0987199045
 31
0.0
  0
LINE
  5
427
100
AcDbEntity
  8
L1_150
  6
CONTINUOUS
 62
         4
100
AcDbLine
 10
1798.694147029
 20
-133.9169448261
 30
0.0
 11
1797.8117973768
 21
-134.7992944783
 31
0.0
  0
LINE
  5
428
100
AcDbEntity
  8
L1_150
  6
CONTINUOUS
 62
         4
100
AcDbLine
 10
1796.8117973768
 20
-135.7992944783
 30
0.0
 11
1795.1117973768
 21
-137.4992944783
 31
0.0
  0
LINE
  5
429
100
AcDbEntity
  8
L1_150
  6
CONTINUOUS
 62
         4
100
AcDbLine
 10
1794.0123719506
 20
-138.5987199045
 30
0.0
 11
1792.7123719506
 21
-139.8987199045
 31
0.0
  0
LINE
  5
42A
100
AcDbEntity
  8
L1_150
  6
CONTINUOUS
 62
         4
100
AcDbLine
 10
1803.0117973768
 20
-133.8419351654
 30
0.0
 11
1796.9550126377
 21
-139.8987199045
 31
0.0
  0
ENDBLK
  5
42B
100
AcDbEntity
  8
0
  6
CONTINUOUS
100
AcDbBlockEnd
  0
BLOCK
  5
42F
100
AcDbEntity
  8
0
100
AcDbBlockBegin
  2
*D15
 70
        65
 10
0.0
 20
0.0
 30
0.0
  3
*D15
  1

  0
POINT
  5
431
100
AcDbEntity
  8
DEFPOINTS
  6
CONTINUOUS
 62
         0
100
AcDbPoint
 10
1803.0117973768
 20
-152.1926886299
 30
0.0
  0
POINT
  5
432
100
AcDbEntity
  8
DEFPOINTS
  6
CONTINUOUS
 62
         0
100
AcDbPoint
 10
1803.0117973768
 20
-136.0628215197
 30
0.0
  0
POINT
  5
433
100
AcDbEntity
  8
DEFPOINTS
  6
CONTINUOUS
 62
         0
100
AcDbPoint
 10
1780.5117973768
 20
-141.0987199045
 30
0.0
  0
LINE
  5
434
100
AcDbEntity
  8
L1_150
  6
CONTINUOUS
 62
         4
100
AcDbLine
 10
1803.0117973768
 20
-137.8128215197
 30
0.0
 11
1803.0117973768
 21
-153.0676886299
 31
0.0
  0
LINE
  5
435
100
AcDbEntity
  8
L1_150
  6
CONTINUOUS
 62
         4
100
AcDbLine
 10
1780.5117973768
 20
-142.8487199045
 30
0.0
 11
1780.5117973768
 21
-153.0676886299
 31
0.0
  0
LINE
  5
436
100
AcDbEntity
  8
L1_150
  6
CONTINUOUS
 62
         4
100
AcDbLine
 10
1803.0117973768
 20
-152.1926886299
 30
0.0
 11
1780.5117973768
 21
-152.1926886299
 31
0.0
  0
SOLID
  5
437
100
AcDbEntity
  8
L1_150
  6
CONTINUOUS
 62
         4
100
AcDbTrace
 10
1803.0117973768
 20
-152.1926886299
 30
0.0
 11
1799.5117973768
 21
-152.7176886299
 31
0.0
 12
1799.5117973768
 22
-151.6676886299
 32
0.0
 13
1803.0117973768
 23
-152.1926886299
 33
0.0
  0
SOLID
  5
438
100
AcDbEntity
  8
L1_150
  6
CONTINUOUS
 62
         4
100
AcDbTrace
 10
1780.5117973768
 20
-152.1926886299
 30
0.0
 11
1784.0117973768
 21
-151.6676886299
 31
0.0
 12
1784.0117973768
 22
-152.7176886299
 32
0.0
 13
1780.5117973768
 23
-152.1926886299
 33
0.0
  0
TEXT
  5
43A
100
AcDbEntity
  8
L1_150
  6
CONTINUOUS
 62
         4
100
AcDbText
 10
1787.0409689708
 20
-149.5676886299
 30
0.0
 40
3.5
  1
22.5
  7
BOX
100
AcDbText
  0
ENDBLK
  5
43B
100
AcDbEntity
  8
0
  6
CONTINUOUS
100
AcDbBlockEnd
  0
BLOCK
  5
44A
100
AcDbEntity
  8
0
100
AcDbBlockBegin
  2
*X16
 70
        65
 10
0.0
 20
0.0
 30
0.0
  3
*X16
  1

  0
LINE
  5
44B
100
AcDbEntity
  8
L1_150
  6
CONTINUOUS
 62
         4
100
AcDbLine
 10
1652.5513524458
 20
-146.7400166132
 30
0.0
 11
1651.2786999334
 21
-148.0126691256
 31
0.0
  0
LINE
  5
44C
100
AcDbEntity
  8
L1_150
  6
CONTINUOUS
 62
         4
100
AcDbLine
 10
1656.7939931329
 20
-146.7400166132
 30
0.0
 11
1652.1458005146
 21
-151.3882092315
 31
0.0
  0
LINE
  5
44D
100
AcDbEntity
  8
L1_150
  6
CONTINUOUS
 62
         4
100
AcDbLine
 10
1666.1366338201
 20
-141.6400166132
 30
0.0
 11
1665.8786999334
 21
-141.8979504999
 31
0.0
  0
LINE
  5
44E
100
AcDbEntity
  8
L1_150
  6
CONTINUOUS
 62
         4
100
AcDbLine
 10
1661.0366338201
 20
-146.7400166132
 30
0.0
 11
1659.2366338201
 21
-148.5400166132
 31
0.0
  0
LINE
  5
44F
100
AcDbEntity
  8
L1_150
  6
CONTINUOUS
 62
         4
100
AcDbLine
 10
1658.2786999334
 20
-149.4979504999
 30
0.0
 11
1656.0366338201
 21
-151.7400166132
 31
0.0
  0
LINE
  5
450
100
AcDbEntity
  8
L1_150
  6
CONTINUOUS
 62
         4
100
AcDbLine
 10
1669.4610495856
 20
-142.5582415348
 30
0.0
 11
1668.5786999334
 21
-143.440591187
 31
0.0
  0
LINE
  5
451
100
AcDbEntity
  8
L1_150
  6
CONTINUOUS
 62
         4
100
AcDbLine
 10
1667.5786999334
 20
-144.440591187
 30
0.0
 11
1665.8786999334
 21
-146.140591187
 31
0.0
  0
LINE
  5
452
100
AcDbEntity
  8
L1_150
  6
CONTINUOUS
 62
         4
100
AcDbLine
 10
1664.7792745072
 20
-147.2400166132
 30
0.0
 11
1663.4792745072
 21
-148.5400166132
 31
0.0
  0
LINE
  5
453
100
AcDbEntity
  8
L1_150
  6
CONTINUOUS
 62
         4
100
AcDbLine
 10
1673.7786999334
 20
-142.4832318741
 30
0.0
 11
1667.7219151943
 21
-148.5400166132
 31
0.0
  0
ENDBLK
  5
454
100
AcDbEntity
  8
0
  6
CONTINUOUS
100
AcDbBlockEnd
  0
BLOCK
  5
458
100
AcDbEntity
  8
0
100
AcDbBlockBegin
  2
*X17
 70
        65
 10
0.0
 20
0.0
 30
0.0
  3
*X17
  1

  0
LINE
  5
459
100
AcDbEntity
  8
L1_150
  6
CONTINUOUS
 62
         4
100
AcDbLine
 10
1653.3633524458
 20
-145.9280166132
 30
0.0
 11
1652.5513524458
 21
-146.7400166132
 31
0.0
  0
LINE
  5
45A
100
AcDbEntity
  8
L1_150
  6
CONTINUOUS
 62
         4
100
AcDbLine
 10
1657.6059931329
 20
-145.9280166132
 30
0.0
 11
1656.7939931329
 21
-146.7400166132
 31
0.0
  0
LINE
  5
45B
100
AcDbEntity
  8
L1_150
  6
CONTINUOUS
 62
         4
100
AcDbLine
 10
1661.7076668767
 20
-146.0689835565
 30
0.0
 11
1661.0366338201
 21
-146.7400166132
 31
0.0
  0
ENDBLK
  5
45C
100
AcDbEntity
  8
0
  6
CONTINUOUS
100
AcDbBlockEnd
  0
BLOCK
  5
460
100
AcDbEntity
  8
0
100
AcDbBlockBegin
  2
*X18
 70
        65
 10
0.0
 20
0.0
 30
0.0
  3
*X18
  1

  0
LINE
  5
461
100
AcDbEntity
  8
L1_150
  6
CONTINUOUS
 62
         4
100
AcDbLine
 10
1654.3675862617
 20
-106.7400166132
 30
0.0
 11
1653.5555862617
 21
-107.5520166132
 31
0.0
  0
LINE
  5
462
100
AcDbEntity
  8
L1_150
  6
CONTINUOUS
 62
         4
100
AcDbLine
 10
1658.6102269489
 20
-106.7400166132
 30
0.0
 11
1657.7982269489
 21
-107.5520166132
 31
0.0
  0
ENDBLK
  5
463
100
AcDbEntity
  8
0
  6
CONTINUOUS
100
AcDbBlockEnd
  0
BLOCK
  5
467
100
AcDbEntity
  8
0
100
AcDbBlockBegin
  2
*X19
 70
        65
 10
0.0
 20
0.0
 30
0.0
  3
*X19
  1

  0
LINE
  5
468
100
AcDbEntity
  8
L1_150
  6
CONTINUOUS
 62
         4
100
AcDbLine
 10
1655.1249455746
 20
-101.7400166132
 30
0.0
 11
1651.2786999334
 21
-105.5862622544
 31
0.0
  0
LINE
  5
469
100
AcDbEntity
  8
L1_150
  6
CONTINUOUS
 62
         4
100
AcDbLine
 10
1658.2786999334
 20
-102.8289029415
 30
0.0
 11
1654.3675862617
 21
-106.7400166132
 31
0.0
  0
LINE
  5
46A
100
AcDbEntity
  8
L1_150
  6
CONTINUOUS
 62
         4
100
AcDbLine
 10
1660.4102269489
 20
-104.9400166132
 30
0.0
 11
1658.6102269489
 21
-106.7400166132
 31
0.0
  0
LINE
  5
46B
100
AcDbEntity
  8
L1_150
  6
CONTINUOUS
 62
         4
100
AcDbLine
 10
1664.652867636
 20
-104.9400166132
 30
0.0
 11
1663.352867636
 21
-106.2400166132
 31
0.0
  0
LINE
  5
46C
100
AcDbEntity
  8
L1_150
  6
CONTINUOUS
 62
         4
100
AcDbLine
 10
1668.8955083231
 20
-104.9400166132
 30
0.0
 11
1665.8786999334
 21
-107.9568250029
 31
0.0
  0
LINE
  5
46D
100
AcDbEntity
  8
L1_150
  6
CONTINUOUS
 62
         4
100
AcDbLine
 10
1672.3363581906
 20
-105.7418074328
 30
0.0
 11
1668.5786999334
 21
-109.49946569
 31
0.0
  0
LINE
  5
46E
100
AcDbEntity
  8
L1_150
  6
CONTINUOUS
 62
         4
100
AcDbLine
 10
1673.7663960046
 20
-108.554410306
 30
0.0
 11
1670.6896701851
 21
-111.6311361255
 31
0.0
  0
ENDBLK
  5
46F
100
AcDbEntity
  8
0
  6
CONTINUOUS
100
AcDbBlockEnd
  0
BLOCK
  5
49A
100
AcDbEntity
  8
0
100
AcDbBlockBegin
  2
*X20
 70
        65
 10
0.0
 20
0.0
 30
0.0
  3
*X20
  1

  0
LINE
  5
49B
100
AcDbEntity
  8
L1_150
  6
CONTINUOUS
 62
         4
100
AcDbLine
 10
1652.5513524458
 20
92.2524144385
 30
0.0
 11
1651.2786999334
 21
90.9797619261
 31
0.0
  0
LINE
  5
49C
100
AcDbEntity
  8
L1_150
  6
CONTINUOUS
 62
         4
100
AcDbLine
 10
1656.7939931329
 20
92.2524144385
 30
0.0
 11
1652.1458005146
 21
87.6042218203
 31
0.0
  0
LINE
  5
49D
100
AcDbEntity
  8
L1_150
  6
CONTINUOUS
 62
         4
100
AcDbLine
 10
1666.1366338201
 20
97.3524144385
 30
0.0
 11
1665.8786999334
 21
97.0944805519
 31
0.0
  0
LINE
  5
49E
100
AcDbEntity
  8
L1_150
  6
CONTINUOUS
 62
         4
100
AcDbLine
 10
1661.0366338201
 20
92.2524144385
 30
0.0
 11
1659.2366338201
 21
90.4524144385
 31
0.0
  0
LINE
  5
49F
100
AcDbEntity
  8
L1_150
  6
CONTINUOUS
 62
         4
100
AcDbLine
 10
1658.2786999334
 20
89.4944805519
 30
0.0
 11
1656.0366338201
 21
87.2524144385
 31
0.0
  0
LINE
  5
4A0
100
AcDbEntity
  8
L1_150
  6
CONTINUOUS
 62
         4
100
AcDbLine
 10
1669.4610495856
 20
96.4341895169
 30
0.0
 11
1668.5786999334
 21
95.5518398648
 31
0.0
  0
LINE
  5
4A1
100
AcDbEntity
  8
L1_150
  6
CONTINUOUS
 62
         4
100
AcDbLine
 10
1667.5786999334
 20
94.5518398648
 30
0.0
 11
1665.8786999334
 21
92.8518398648
 31
0.0
  0
LINE
  5
4A2
100
AcDbEntity
  8
L1_150
  6
CONTINUOUS
 62
         4
100
AcDbLine
 10
1664.7792745072
 20
91.7524144385
 30
0.0
 11
1663.4792745072
 21
90.4524144385
 31
0.0
  0
LINE
  5
4A3
100
AcDbEntity
  8
L1_150
  6
CONTINUOUS
 62
         4
100
AcDbLine
 10
1673.7786999334
 20
96.5091991776
 30
0.0
 11
1667.7219151943
 21
90.4524144385
 31
0.0
  0
ENDBLK
  5
4A4
100
AcDbEntity
  8
0
  6
CONTINUOUS
100
AcDbBlockEnd
  0
BLOCK
  5
4A8
100
AcDbEntity
  8
0
100
AcDbBlockBegin
  2
*X21
 70
        65
 10
0.0
 20
0.0
 30
0.0
  3
*X21
  1

  0
LINE
  5
4A9
100
AcDbEntity
  8
L1_150
  6
CONTINUOUS
 62
         4
100
AcDbLine
 10
1653.3633524458
 20
93.0644144385
 30
0.0
 11
1652.5513524458
 21
92.2524144385
 31
0.0
  0
LINE
  5
4AA
100
AcDbEntity
  8
L1_150
  6
CONTINUOUS
 62
         4
100
AcDbLine
 10
1657.6059931329
 20
93.0644144385
 30
0.0
 11
1656.7939931329
 21
92.2524144385
 31
0.0
  0
LINE
  5
4AB
100
AcDbEntity
  8
L1_150
  6
CONTINUOUS
 62
         4
100
AcDbLine
 10
1661.7076668767
 20
92.9234474952
 30
0.0
 11
1661.0366338201
 21
92.2524144385
 31
0.0
  0
ENDBLK
  5
4AC
100
AcDbEntity
  8
0
  6
CONTINUOUS
100
AcDbBlockEnd
  0
BLOCK
  5
4B0
100
AcDbEntity
  8
0
100
AcDbBlockBegin
  2
*X22
 70
        65
 10
0.0
 20
0.0
 30
0.0
  3
*X22
  1

  0
LINE
  5
4B1
100
AcDbEntity
  8
L1_150
  6
CONTINUOUS
 62
         4
100
AcDbLine
 10
1654.3675862617
 20
132.2524144385
 30
0.0
 11
1653.5555862617
 21
131.4404144385
 31
0.0
  0
LINE
  5
4B2
100
AcDbEntity
  8
L1_150
  6
CONTINUOUS
 62
         4
100
AcDbLine
 10
1658.6102269489
 20
132.2524144385
 30
0.0
 11
1657.7982269489
 21
131.4404144385
 31
0.0
  0
ENDBLK
  5
4B3
100
AcDbEntity
  8
0
  6
CONTINUOUS
100
AcDbBlockEnd
  0
BLOCK
  5
4B7
100
AcDbEntity
  8
0
100
AcDbBlockBegin
  2
*X23
 70
        65
 10
0.0
 20
0.0
 30
0.0
  3
*X23
  1

  0
LINE
  5
4B8
100
AcDbEntity
  8
L1_150
  6
CONTINUOUS
 62
         4
100
AcDbLine
 10
1655.1249455746
 20
137.2524144385
 30
0.0
 11
1651.2786999334
 21
133.4061687973
 31
0.0
  0
LINE
  5
4B9
100
AcDbEntity
  8
L1_150
  6
CONTINUOUS
 62
         4
100
AcDbLine
 10
1658.2786999334
 20
136.1635281102
 30
0.0
 11
1654.3675862617
 21
132.2524144385
 31
0.0
  0
LINE
  5
4BA
100
AcDbEntity
  8
L1_150
  6
CONTINUOUS
 62
         4
100
AcDbLine
 10
1660.4102269489
 20
134.0524144385
 30
0.0
 11
1658.6102269489
 21
132.2524144385
 31
0.0
  0
LINE
  5
4BB
100
AcDbEntity
  8
L1_150
  6
CONTINUOUS
 62
         4
100
AcDbLine
 10
1664.652867636
 20
134.0524144385
 30
0.0
 11
1663.352867636
 21
132.7524144385
 31
0.0
  0
LINE
  5
4BC
100
AcDbEntity
  8
L1_150
  6
CONTINUOUS
 62
         4
100
AcDbLine
 10
1668.8955083231
 20
134.0524144385
 30
0.0
 11
1665.8786999334
 21
131.0356060488
 31
0.0
  0
LINE
  5
4BD
100
AcDbEntity
  8
L1_150
  6
CONTINUOUS
 62
         4
100
AcDbLine
 10
1672.3363581906
 20
133.2506236189
 30
0.0
 11
1668.5786999334
 21
129.4929653617
 31
0.0
  0
LINE
  5
4BE
100
AcDbEntity
  8
L1_150
  6
CONTINUOUS
 62
         4
100
AcDbLine
 10
1673.7663960046
 20
130.4380207458
 30
0.0
 11
1670.6896701851
 21
127.3612949263
 31
0.0
  0
ENDBLK
  5
4BF
100
AcDbEntity
  8
0
  6
CONTINUOUS
100
AcDbBlockEnd
  0
ENDSEC
  0
SECTION
  2
ENTITIES
  0
INSERT
  5
B3
100
AcDbEntity
  8
0
  6
CONTINUOUS
100
AcDbBlockReference
  2
*X0
 10
0.0
 20
0.0
 30
0.0
  0
LINE
  5
B4
100
AcDbEntity
  8
L1_150
  6
CONTINUOUS
 62
         7
100
AcDbLine
 10
1540.7786999334
 20
-115.4300166132
 30
0.0
 11
1623.7786999334
 21
-115.4300166132
 31
0.0
  0
LINE
  5
B5
100
AcDbEntity
  8
L1_150
  6
CONTINUOUS
 62
         4
100
AcDbLine
 10
1550.7786999334
 20
-114.8337666132
 30
0.0
 11
1623.7786999334
 21
-114.8337666132
 31
0.0
  0
LINE
  5
B6
100
AcDbEntity
  8
L1_150
  6
CONTINUOUS
 62
         7
100
AcDbLine
 10
1540.7786999334
 20
-138.0500166132
 30
0.0
 11
1623.7786999334
 21
-138.0500166132
 31
0.0
  0
LINE
  5
B7
100
AcDbEntity
  8
L1_150
  6
CONTINUOUS
 62
         4
100
AcDbLine
 10
1550.7786999334
 20
-138.6462666132
 30
0.0
 11
1623.7786999334
 21
-138.6462666132
 31
0.0
  0
LINE
  5
B8
100
AcDbEntity
  8
L1_150
  6
CONTINUOUS
 62
         7
100
AcDbLine
 10
1623.7786999334
 20
-138.7900166132
 30
0.0
 11
1623.7786999334
 21
-114.6900166132
 31
0.0
  0
LINE
  5
B9
100
AcDbEntity
  8
L1_150
  6
CONTINUOUS
 62
         7
100
AcDbLine
 10
1623.7786999334
 20
-138.7900166132
 30
0.0
 11
1632.67298953
 21
-138.7900166132
 31
0.0
  0
LINE
  5
BA
100
AcDbEntity
  8
L1_150
  6
CONTINUOUS
 62
         7
100
AcDbLine
 10
1632.67298953
 20
-138.7900166132
 30
0.0
 11
1632.67298953
 21
-114.6900166132
 31
0.0
  0
LINE
  5
BB
100
AcDbEntity
  8
L1_150
  6
CONTINUOUS
 62
         7
100
AcDbLine
 10
1623.7786999334
 20
-114.6900166132
 30
0.0
 11
1632.67298953
 21
-114.6900166132
 31
0.0
  0
LINE
  5
BC
100
AcDbEntity
  8
_X______
  6
CONTINUOUS
 62
         4
100
AcDbLine
 10
1531.1031389767
 20
-91.2903036885
 30
0.0
 11
1527.0073787552
 21
-88.4224215067
 31
0.0
  0
LINE
  5
BD
100
AcDbEntity
  8
_X______
  6
CONTINUOUS
 62
         7
100
AcDbLine
 10
1533.2286999334
 20
-92.1682501989
 30
0.0
 11
1527.2941669734
 21
-88.0128454846
 31
0.0
  0
LINE
  5
BE
100
AcDbEntity
  8
_X______
  6
CONTINUOUS
 62
         7
100
AcDbLine
 10
1527.0073787552
 20
-88.4224215067
 30
0.0
 11
1530.4488373733
 21
-83.507509241
 31
0.0
  0
LINE
  5
BF
100
AcDbEntity
  8
_X______
  6
CONTINUOUS
 62
         7
100
AcDbLine
 10
1530.4775161951
 20
-83.4665516388
 30
0.0
 11
1526.9786999334
 21
-81.0166541175
 31
0.0
  0
LINE
  5
C0
100
AcDbEntity
  8
_X______
  6
CONTINUOUS
 62
         7
100
AcDbLine
 10
1532.8786999334
 20
-80.6509149981
 30
0.0
 11
1532.8786999334
 21
-85.1150166132
 31
0.0
  0
LINE
  5
C1
100
AcDbEntity
  8
_X______
  6
CONTINUOUS
 62
         7
100
AcDbLine
 10
1536.8786999334
 20
-80.6509149981
 30
0.0
 11
1536.8786999334
 21
-85.1150166132
 31
0.0
  0
LINE
  5
C2
100
AcDbEntity
  8
_X______
  6
CENTER
 62
         1
100
AcDbLine
 10
1539.0645187937
 20
-92.8974044374
 30
0.0
 11
1527.1220940425
 21
-84.5352286021
 31
0.0
  0
LINE
  5
C3
100
AcDbEntity
  8
_X______
  6
CONTINUOUS
 62
         4
100
AcDbLine
 10
1533.2286999334
 20
-86.0643772551
 30
0.0
 11
1533.2286999334
 21
-92.1682501989
 31
0.0
  0
LINE
  5
C4
100
AcDbEntity
  8
_X______
  6
CONTINUOUS
 62
         4
100
AcDbLine
 10
1536.5286999334
 20
-88.3750621312
 30
0.0
 11
1536.5286999334
 21
-94.2177984316
 31
0.0
  0
LINE
  5
C5
100
AcDbEntity
  8
_X______
  6
CONTINUOUS
 62
         7
100
AcDbLine
 10
1533.2286999334
 20
-85.4539899607
 30
0.0
 11
1533.2286999334
 21
-85.3170892074
 31
0.0
  0
LINE
  5
C6
100
AcDbEntity
  8
_X______
  6
CONTINUOUS
 62
         4
100
AcDbLine
 10
1533.2286999334
 20
-88.2546880449
 30
0.0
 11
1534.5445975948
 21
-86.3753914227
 31
0.0
  0
LINE
  5
C7
100
AcDbEntity
  8
_X______
  6
CONTINUOUS
 62
         4
100
AcDbLine
 10
1536.5286999334
 20
-94.2177984316
 30
0.0
 11
1536.3048394606
 21
-94.3221862844
 31
0.0
  0
LINE
  5
C8
100
AcDbEntity
  8
_X______
  6
CONTINUOUS
 62
         4
100
AcDbLine
 10
1536.3048394606
 20
-94.3221862844
 30
0.0
 11
1536.5286999334
 21
-94.0024803964
 31
0.0
  0
LINE
  5
C9
100
AcDbEntity
  8
_X______
  6
CONTINUOUS
 62
         4
100
AcDbLine
 10
1536.3048394606
 20
-94.3221862844
 30
0.0
 11
1533.2286999334
 21
-92.1682501989
 31
0.0
  0
LINE
  5
CA
100
AcDbEntity
  8
_X______
  6
CONTINUOUS
 62
         4
100
AcDbLine
 10
1536.5286999334
 20
-88.3750621312
 30
0.0
 11
1533.2286999334
 21
-86.0643772551
 31
0.0
  0
LINE
  5
CB
100
AcDbEntity
  8
_X______
  6
CONTINUOUS
 62
         7
100
AcDbLine
 10
1539.1727216423
 20
-90.226426063
 30
0.0
 11
1536.5286999334
 21
-88.3750621312
 31
0.0
  0
LINE
  5
CC
100
AcDbEntity
  8
_X______
  6
CONTINUOUS
 62
         7
100
AcDbLine
 10
1536.5286999334
 20
-85.3170892074
 30
0.0
 11
1536.5286999334
 21
-88.3750621312
 31
0.0
  0
LINE
  5
CD
100
AcDbEntity
  8
_X______
  6
CONTINUOUS
 62
         7
100
AcDbLine
 10
1536.8786999334
 20
-85.1150166132
 30
0.0
 11
1536.5286999334
 21
-85.3170892074
 31
0.0
  0
LINE
  5
CE
100
AcDbEntity
  8
_X______
  6
CONTINUOUS
 62
         7
100
AcDbLine
 10
1533.2286999334
 20
-85.3170892074
 30
0.0
 11
1536.5286999334
 21
-85.3170892074
 31
0.0
  0
LINE
  5
CF
100
AcDbEntity
  8
_X______
  6
CONTINUOUS
 62
         7
100
AcDbLine
 10
1532.8786999334
 20
-85.1150166132
 30
0.0
 11
1533.2286999334
 21
-85.3170892074
 31
0.0
  0
LINE
  5
D0
100
AcDbEntity
  8
_X______
  6
CONTINUOUS
 62
         4
100
AcDbLine
 10
1532.8786999334
 20
-85.1150166132
 30
0.0
 11
1536.8786999334
 21
-85.1150166132
 31
0.0
  0
LINE
  5
D1
100
AcDbEntity
  8
_X______
  6
CONTINUOUS
 62
         7
100
AcDbLine
 10
1530.4488373733
 20
-83.507509241
 30
0.0
 11
1530.4775161951
 21
-83.4665516388
 31
0.0
  0
LINE
  5
D2
100
AcDbEntity
  8
_X______
  6
CONTINUOUS
 62
         7
100
AcDbLine
 10
1531.1031389767
 20
-91.2903036885
 30
0.0
 11
1531.3899271948
 21
-90.8807276663
 31
0.0
  0
LINE
  5
D3
100
AcDbEntity
  8
_X______
  6
CONTINUOUS
 62
         4
100
AcDbLine
 10
1530.4488373733
 20
-83.507509241
 30
0.0
 11
1533.2286999334
 21
-85.4539899607
 31
0.0
  0
LINE
  5
D4
100
AcDbEntity
  8
_X______
  6
CONTINUOUS
 62
         7
100
AcDbLine
 10
1538.9211246846
 20
-93.1021924485
 30
0.0
 11
1539.1727216423
 21
-90.226426063
 31
0.0
  0
LINE
  5
D5
100
AcDbEntity
  8
_X______
  6
CONTINUOUS
 62
         7
100
AcDbLine
 10
1538.9211246846
 20
-93.1021924485
 30
0.0
 11
1536.5286999334
 21
-94.2177984316
 31
0.0
  0
LINE
  5
D6
100
AcDbEntity
  8
_X______
  6
CONTINUOUS
 62
         7
100
AcDbLine
 10
1536.5286999334
 20
-94.0024803964
 30
0.0
 11
1539.1727216423
 21
-90.226426063
 31
0.0
  0
LINE
  5
D7
100
AcDbEntity
  8
_X______
  6
CONTINUOUS
 62
         7
100
AcDbLine
 10
1533.2286999334
 20
-86.0643772551
 30
0.0
 11
1530.1620491551
 21
-83.9170852631
 31
0.0
  0
LINE
  5
D8
100
AcDbEntity
  8
_X______
  6
CONTINUOUS
 62
         7
100
AcDbLine
 10
1531.3899271948
 20
-90.8807276663
 30
0.0
 11
1533.2286999334
 21
-88.2546880449
 31
0.0
  0
LINE
  5
D9
100
AcDbEntity
  8
_X______
  6
CONTINUOUS
 62
         7
100
AcDbLine
 10
1533.2286999334
 20
-86.0643772551
 30
0.0
 11
1533.2286999334
 21
-85.4539899607
 31
0.0
  0
LINE
  5
DA
100
AcDbEntity
  8
_X______
  6
CONTINUOUS
 62
         7
100
AcDbLine
 10
1533.2286999334
 20
-85.4539899607
 30
0.0
 11
1534.5445975948
 21
-86.3753914227
 31
0.0
  0
LINE
  5
DB
100
AcDbEntity
  8
_X______
  6
CONTINUOUS
 62
         7
100
AcDbLine
 10
1533.2286999334
 20
-116.3436751498
 30
0.0
 11
1533.2286999334
 21
-92.1682501989
 31
0.0
  0
LINE
  5
DC
100
AcDbEntity
  8
_X______
  6
CONTINUOUS
 62
         7
100
AcDbLine
 10
1536.5286999334
 20
-94.2177984316
 30
0.0
 11
1536.5286999334
 21
-116.3436751498
 31
0.0
  0
LINE
  5
DD
100
AcDbEntity
  8
_X______
  6
CENTER
 62
         1
100
AcDbLine
 10
1534.8786999334
 20
-78.7087953246
 30
0.0
 11
1534.8786999334
 21
-116.3436751498
 31
0.0
  0
LINE
  5
DE
100
AcDbEntity
  8
_X______
  6
CENTER
 62
         1
100
AcDbLine
 10
1257.3639808204
 20
160.1701802397
 30
0.0
 11
1219.8166451685
 21
57.0097233753
 31
0.0
  0
LINE
  5
DF
100
AcDbEntity
  8
_X______
  6
CENTER
 62
         1
100
AcDbLine
 10
1230.564660623
 20
72.0274239428
 30
0.0
 11
1221.1677344152
 21
75.4476253761
 31
0.0
  0
POLYLINE
  5
E1
100
AcDbEntity
  8
_X______
  6
CONTINUOUS
 62
         7
100
AcDb2dPolyline
 66
         1
 10
0.0
 20
0.0
 30
0.0
 70
         2
  0
VERTEX
  5
E3
100
AcDbEntity
  8
_X______
  6
CONTINUOUS
 62
         7
100
AcDbVertex
100
AcDb2dVertex
 10
1227.0632680208
 20
77.0264488322
 30
0.0
 70
         1
  0
VERTEX
  5
E5
100
AcDbEntity
  8
_X______
  6
CONTINUOUS
 62
         7
100
AcDbVertex
100
AcDb2dVertex
 10
1226.683266956
 20
77.1194201772
 30
0.0
 70
         1
  0
VERTEX
  5
E7
100
AcDbEntity
  8
_X______
  6
CONTINUOUS
 62
         7
100
AcDbVertex
100
AcDb2dVertex
 10
1226.5061982887
 20
77.134421675
 30
0.0
 70
         1
  0
VERTEX
  5
E9
100
AcDbEntity
  8
_X______
  6
CONTINUOUS
 62
         7
100
AcDbVertex
100
AcDb2dVertex
 10
1226.3215710186
 20
77.1325885356
 30
0.0
 70
         1
  0
VERTEX
  5
EB
100
AcDbEntity
  8
_X______
  6
CONTINUOUS
 62
         7
100
AcDbVertex
100
AcDb2dVertex
 10
1226.130564169
 20
77.1127514845
 30
0.0
 70
         1
  0
VERTEX
  5
ED
100
AcDbEntity
  8
_X______
  6
CONTINUOUS
 62
         7
100
AcDbVertex
100
AcDb2dVertex
 10
1225.9345794412
 20
77.0739952132
 30
0.0
 70
         1
  0
VERTEX
  5
EF
100
AcDbEntity
  8
_X______
  6
CONTINUOUS
 62
         7
100
AcDbVertex
100
AcDb2dVertex
 10
1225.7352168092
 20
77.015713354
 30
0.0
 70
         1
  0
VERTEX
  5
F1
100
AcDbEntity
  8
_X______
  6
CONTINUOUS
 62
         7
100
AcDbVertex
100
AcDb2dVertex
 10
1225.5342375768
 20
76.9376539934
 30
0.0
 70
         1
  0
VERTEX
  5
F3
100
AcDbEntity
  8
_X______
  6
CONTINUOUS
 62
         7
100
AcDbVertex
100
AcDb2dVertex
 10
1225.33351605
 20
76.8399514311
 30
0.0
 70
         1
  0
VERTEX
  5
F5
100
AcDbEntity
  8
_X______
  6
CONTINUOUS
 62
         7
100
AcDbVertex
100
AcDb2dVertex
 10
1225.1349821801
 20
76.7231406745
 30
0.0
 70
         1
  0
VERTEX
  5
F7
100
AcDbEntity
  8
_X______
  6
CONTINUOUS
 62
         7
100
AcDbVertex
100
AcDb2dVertex
 10
1224.9405586005
 20
76.588152461
 30
0.0
 70
         1
  0
VERTEX
  5
F9
100
AcDbEntity
  8
_X______
  6
CONTINUOUS
 62
         7
100
AcDbVertex
100
AcDb2dVertex
 10
1224.7520962298
 20
76.4362882781
 30
0.0
 70
         1
  0
VERTEX
  5
FB
100
AcDbEntity
  8
_X______
  6
CONTINUOUS
 62
         7
100
AcDbVertex
100
AcDb2dVertex
 10
1224.5117674294
 20
76.2091057275
 30
0.0
 70
         1
  0
VERTEX
  5
FD
100
AcDbEntity
  8
_X______
  6
CONTINUOUS
 62
         7
100
AcDbVertex
100
AcDb2dVertex
 10
1224.2888073497
 20
75.9591970514
 30
0.0
 70
         1
  0
VERTEX
  5
FF
100
AcDbEntity
  8
_X______
  6
CONTINUOUS
 62
         7
100
AcDbVertex
100
AcDb2dVertex
 10
1224.0860289955
 20
75.6917599393
 30
0.0
 70
         1
  0
VERTEX
  5
101
100
AcDbEntity
  8
_X______
  6
CONTINUOUS
 62
         7
100
AcDbVertex
100
AcDb2dVertex
 10
1223.9053694283
 20
75.4122130042
 30
0.0
 70
         1
  0
VERTEX
  5
103
100
AcDbEntity
  8
_X______
  6
CONTINUOUS
 62
         7
100
AcDbVertex
100
AcDb2dVertex
 10
1223.747872154
 20
75.1258804943
 30
0.0
 70
         1
  0
VERTEX
  5
105
100
AcDbEntity
  8
_X______
  6
CONTINUOUS
 62
         7
100
AcDbVertex
100
AcDb2dVertex
 10
1223.613741859
 20
74.8377256597
 30
0.0
 70
         1
  0
VERTEX
  5
107
100
AcDbEntity
  8
_X______
  6
CONTINUOUS
 62
         7
100
AcDbVertex
100
AcDb2dVertex
 10
1223.4693427963
 20
74.4554429838
 30
0.0
 70
         1
  0
VERTEX
  5
109
100
AcDbEntity
  8
_X______
  6
CONTINUOUS
 62
         7
100
AcDbVertex
100
AcDb2dVertex
 10
1223.3632199707
 20
74.0864483734
 30
0.0
 70
         1
  0
VERTEX
  5
10B
100
AcDbEntity
  8
_X______
  6
CONTINUOUS
 62
         7
100
AcDbVertex
100
AcDb2dVertex
 10
1223.2912728494
 20
73.737085333
 30
0.0
 70
         1
  0
VERTEX
  5
10D
100
AcDbEntity
  8
_X______
  6
CONTINUOUS
 62
         7
100
AcDbVertex
100
AcDb2dVertex
 10
1223.2487783056
 20
73.411458295
 30
0.0
 70
         1
  0
VERTEX
  5
10F
100
AcDbEntity
  8
_X______
  6
CONTINUOUS
 62
         7
100
AcDbVertex
100
AcDb2dVertex
 10
1223.2308841827
 20
73.1117545015
 30
0.0
 70
         1
  0
VERTEX
  5
111
100
AcDbEntity
  8
_X______
  6
CONTINUOUS
 62
         7
100
AcDbVertex
100
AcDb2dVertex
 10
1223.2329570243
 20
72.8386468878
 30
0.0
 70
         1
  0
VERTEX
  5
113
100
AcDbEntity
  8
_X______
  6
CONTINUOUS
 62
         7
100
AcDbVertex
100
AcDb2dVertex
 10
1223.2599702964
 20
72.5119990361
 30
0.0
 70
         1
  0
VERTEX
  5
115
100
AcDbEntity
  8
_X______
  6
CONTINUOUS
 62
         7
100
AcDbVertex
100
AcDb2dVertex
 10
1223.3069203083
 20
72.229614588
 30
0.0
 70
         1
  0
VERTEX
  5
117
100
AcDbEntity
  8
_X______
  6
CONTINUOUS
 62
         7
100
AcDbVertex
100
AcDb2dVertex
 10
1223.3669028615
 20
71.9871360674
 30
0.0
 70
         1
  0
VERTEX
  5
119
100
AcDbEntity
  8
_X______
  6
CONTINUOUS
 62
         7
100
AcDbVertex
100
AcDb2dVertex
 10
1223.4595712795
 20
71.7143334851
 30
0.0
 70
         1
  0
VERTEX
  5
11B
100
AcDbEntity
  8
_X______
  6
CONTINUOUS
 62
         7
100
AcDbVertex
100
AcDb2dVertex
 10
1223.5575259524
 20
71.4941811418
 30
0.0
 70
         1
  0
VERTEX
  5
11D
100
AcDbEntity
  8
_X______
  6
CONTINUOUS
 62
         7
100
AcDbVertex
100
AcDb2dVertex
 10
1223.6550475763
 20
71.3164934168
 30
0.0
 70
         1
  0
VERTEX
  5
11F
100
AcDbEntity
  8
_X______
  6
CONTINUOUS
 62
         7
100
AcDbVertex
100
AcDb2dVertex
 10
1223.7809866716
 20
71.1281249593
 30
0.0
 70
         1
  0
VERTEX
  5
121
100
AcDbEntity
  8
_X______
  6
CONTINUOUS
 62
         7
100
AcDbVertex
100
AcDb2dVertex
 10
1223.9349251082
 20
70.9425180195
 30
0.0
 70
         1
  0
VERTEX
  5
123
100
AcDbEntity
  8
_X______
  6
CONTINUOUS
 62
         7
100
AcDbVertex
100
AcDb2dVertex
 10
1224.0655499508
 20
70.8138587098
 30
0.0
 70
         1
  0
VERTEX
  5
125
100
AcDbEntity
  8
_X______
  6
CONTINUOUS
 62
         7
100
AcDbVertex
100
AcDb2dVertex
 10
1224.2105764493
 20
70.6954910608
 30
0.0
 70
         1
  0
VERTEX
  5
127
100
AcDbEntity
  8
_X______
  6
CONTINUOUS
 62
         7
100
AcDbVertex
100
AcDb2dVertex
 10
1224.358036374
 20
70.5970733752
 30
0.0
 70
         1
  0
VERTEX
  5
129
100
AcDbEntity
  8
_X______
  6
CONTINUOUS
 62
         7
100
AcDbVertex
100
AcDb2dVertex
 10
1224.5348220658
 20
70.5037597257
 30
0.0
 70
         1
  0
VERTEX
  5
12B
100
AcDbEntity
  8
_X______
  6
CONTINUOUS
 62
         7
100
AcDbVertex
100
AcDb2dVertex
 10
1224.6691270175
 20
70.4486004867
 30
0.0
 70
         1
  0
VERTEX
  5
12D
100
AcDbEntity
  8
_X______
  6
CONTINUOUS
 62
         7
100
AcDbVertex
100
AcDb2dVertex
 10
1224.6691270175
 20
70.4486004867
 30
0.0
 70
         1
  0
VERTEX
  5
12F
100
AcDbEntity
  8
_X______
  6
CONTINUOUS
 62
         7
100
AcDbVertex
100
AcDb2dVertex
 10
1225.0491280822
 20
70.3556291418
 30
0.0
 70
         1
  0
VERTEX
  5
131
100
AcDbEntity
  8
_X______
  6
CONTINUOUS
 62
         7
100
AcDbVertex
100
AcDb2dVertex
 10
1225.2261967495
 20
70.3406276439
 30
0.0
 70
         1
  0
VERTEX
  5
133
100
AcDbEntity
  8
_X______
  6
CONTINUOUS
 62
         7
100
AcDbVertex
100
AcDb2dVertex
 10
1225.4108240196
 20
70.3424607834
 30
0.0
 70
         1
  0
VERTEX
  5
135
100
AcDbEntity
  8
_X______
  6
CONTINUOUS
 62
         7
100
AcDbVertex
100
AcDb2dVertex
 10
1225.6018308693
 20
70.3622978345
 30
0.0
 70
         1
  0
VERTEX
  5
137
100
AcDbEntity
  8
_X______
  6
CONTINUOUS
 62
         7
100
AcDbVertex
100
AcDb2dVertex
 10
1225.797815597
 20
70.4010541058
 30
0.0
 70
         1
  0
VERTEX
  5
139
100
AcDbEntity
  8
_X______
  6
CONTINUOUS
 62
         7
100
AcDbVertex
100
AcDb2dVertex
 10
1225.997178229
 20
70.459335965
 30
0.0
 70
         1
  0
VERTEX
  5
13B
100
AcDbEntity
  8
_X______
  6
CONTINUOUS
 62
         7
100
AcDbVertex
100
AcDb2dVertex
 10
1226.1981574615
 20
70.5373953255
 30
0.0
 70
         1
  0
VERTEX
  5
13D
100
AcDbEntity
  8
_X______
  6
CONTINUOUS
 62
         7
100
AcDbVertex
100
AcDb2dVertex
 10
1226.3988789882
 20
70.6350978879
 30
0.0
 70
         1
  0
VERTEX
  5
13F
100
AcDbEntity
  8
_X______
  6
CONTINUOUS
 62
         7
100
AcDbVertex
100
AcDb2dVertex
 10
1226.5974128582
 20
70.7519086445
 30
0.0
 70
         1
  0
VERTEX
  5
141
100
AcDbEntity
  8
_X______
  6
CONTINUOUS
 62
         7
100
AcDbVertex
100
AcDb2dVertex
 10
1226.7918364377
 20
70.8868968579
 30
0.0
 70
         1
  0
VERTEX
  5
143
100
AcDbEntity
  8
_X______
  6
CONTINUOUS
 62
         7
100
AcDbVertex
100
AcDb2dVertex
 10
1226.9802988084
 20
71.0387610408
 30
0.0
 70
         1
  0
VERTEX
  5
145
100
AcDbEntity
  8
_X______
  6
CONTINUOUS
 62
         7
100
AcDbVertex
100
AcDb2dVertex
 10
1227.2206276088
 20
71.2659435914
 30
0.0
 70
         1
  0
VERTEX
  5
147
100
AcDbEntity
  8
_X______
  6
CONTINUOUS
 62
         7
100
AcDbVertex
100
AcDb2dVertex
 10
1227.4435876885
 20
71.5158522676
 30
0.0
 70
         1
  0
VERTEX
  5
149
100
AcDbEntity
  8
_X______
  6
CONTINUOUS
 62
         7
100
AcDbVertex
100
AcDb2dVertex
 10
1227.6463660427
 20
71.7832893797
 30
0.0
 70
         1
  0
VERTEX
  5
14B
100
AcDbEntity
  8
_X______
  6
CONTINUOUS
 62
         7
100
AcDbVertex
100
AcDb2dVertex
 10
1227.82702561
 20
72.0628363148
 30
0.0
 70
         1
  0
VERTEX
  5
14D
100
AcDbEntity
  8
_X______
  6
CONTINUOUS
 62
         7
100
AcDbVertex
100
AcDb2dVertex
 10
1227.9845228842
 20
72.3491688246
 30
0.0
 70
         1
  0
VERTEX
  5
14F
100
AcDbEntity
  8
_X______
  6
CONTINUOUS
 62
         7
100
AcDbVertex
100
AcDb2dVertex
 10
1228.1186531792
 20
72.6373236592
 30
0.0
 70
         1
  0
VERTEX
  5
151
100
AcDbEntity
  8
_X______
  6
CONTINUOUS
 62
         7
100
AcDbVertex
100
AcDb2dVertex
 10
1228.2630522419
 20
73.0196063351
 30
0.0
 70
         1
  0
VERTEX
  5
153
100
AcDbEntity
  8
_X______
  6
CONTINUOUS
 62
         7
100
AcDbVertex
100
AcDb2dVertex
 10
1228.3691750675
 20
73.3886009455
 30
0.0
 70
         1
  0
VERTEX
  5
155
100
AcDbEntity
  8
_X______
  6
CONTINUOUS
 62
         7
100
AcDbVertex
100
AcDb2dVertex
 10
1228.4411221888
 20
73.737963986
 30
0.0
 70
         1
  0
VERTEX
  5
157
100
AcDbEntity
  8
_X______
  6
CONTINUOUS
 62
         7
100
AcDbVertex
100
AcDb2dVertex
 10
1228.4836167326
 20
74.063591024
 30
0.0
 70
         1
  0
VERTEX
  5
159
100
AcDbEntity
  8
_X______
  6
CONTINUOUS
 62
         7
100
AcDbVertex
100
AcDb2dVertex
 10
1228.5015108555
 20
74.3632948174
 30
0.0
 70
         1
  0
VERTEX
  5
15B
100
AcDbEntity
  8
_X______
  6
CONTINUOUS
 62
         7
100
AcDbVertex
100
AcDb2dVertex
 10
1228.4994380139
 20
74.6364024311
 30
0.0
 70
         1
  0
VERTEX
  5
15D
100
AcDbEntity
  8
_X______
  6
CONTINUOUS
 62
         7
100
AcDbVertex
100
AcDb2dVertex
 10
1228.4724247418
 20
74.9630502829
 30
0.0
 70
         1
  0
VERTEX
  5
15F
100
AcDbEntity
  8
_X______
  6
CONTINUOUS
 62
         7
100
AcDbVertex
100
AcDb2dVertex
 10
1228.4254747299
 20
75.245434731
 30
0.0
 70
         1
  0
VERTEX
  5
161
100
AcDbEntity
  8
_X______
  6
CONTINUOUS
 62
         7
100
AcDbVertex
100
AcDb2dVertex
 10
1228.3654921767
 20
75.4879132515
 30
0.0
 70
         1
  0
VERTEX
  5
163
100
AcDbEntity
  8
_X______
  6
CONTINUOUS
 62
         7
100
AcDbVertex
100
AcDb2dVertex
 10
1228.2728237587
 20
75.7607158339
 30
0.0
 70
         1
  0
VERTEX
  5
165
100
AcDbEntity
  8
_X______
  6
CONTINUOUS
 62
         7
100
AcDbVertex
100
AcDb2dVertex
 10
1228.1748690858
 20
75.9808681771
 30
0.0
 70
         1
  0
VERTEX
  5
167
100
AcDbEntity
  8
_X______
  6
CONTINUOUS
 62
         7
100
AcDbVertex
100
AcDb2dVertex
 10
1228.0773474619
 20
76.1585559021
 30
0.0
 70
         1
  0
VERTEX
  5
169
100
AcDbEntity
  8
_X______
  6
CONTINUOUS
 62
         7
100
AcDbVertex
100
AcDb2dVertex
 10
1227.9514083666
 20
76.3469243596
 30
0.0
 70
         1
  0
VERTEX
  5
16B
100
AcDbEntity
  8
_X______
  6
CONTINUOUS
 62
         7
100
AcDbVertex
100
AcDb2dVertex
 10
1227.79746993
 20
76.5325312995
 30
0.0
 70
         1
  0
VERTEX
  5
16D
100
AcDbEntity
  8
_X______
  6
CONTINUOUS
 62
         7
100
AcDbVertex
100
AcDb2dVertex
 10
1227.6668450875
 20
76.6611906092
 30
0.0
 70
         1
  0
VERTEX
  5
16F
100
AcDbEntity
  8
_X______
  6
CONTINUOUS
 62
         7
100
AcDbVertex
100
AcDb2dVertex
 10
1227.521818589
 20
76.7795582582
 30
0.0
 70
         1
  0
VERTEX
  5
171
100
AcDbEntity
  8
_X______
  6
CONTINUOUS
 62
         7
100
AcDbVertex
100
AcDb2dVertex
 10
1227.3743586643
 20
76.8779759438
 30
0.0
 70
         1
  0
VERTEX
  5
173
100
AcDbEntity
  8
_X______
  6
CONTINUOUS
 62
         7
100
AcDbVertex
100
AcDb2dVertex
 10
1227.1975729724
 20
76.9712895933
 30
0.0
 70
         1
  0
VERTEX
  5
175
100
AcDbEntity
  8
_X______
  6
CONTINUOUS
 62
         7
100
AcDbVertex
100
AcDb2dVertex
 10
1227.0632680208
 20
77.0264488322
 30
0.0
 70
         1
  0
SEQEND
  5
177
100
AcDbEntity
  8
_X______
  6
CONTINUOUS
 62
         7
  0
POLYLINE
  5
179
100
AcDbEntity
  8
_X______
  6
CONTINUOUS
 62
         7
100
AcDb3dPolyline
 66
         1
 10
0.0
 20
0.0
 30
0.0
 70
         8
  0
VERTEX
  5
17B
100
AcDbEntity
  8
_X______
  6
CONTINUOUS
 62
         7
100
AcDbVertex
100
AcDb3dPolylineVertex
 10
1253.1887669199
 20
153.3129273476
 30
0.0
 70
        32
  0
VERTEX
  5
17D
100
AcDbEntity
  8
_X______
  6
CONTINUOUS
 62
         7
100
AcDbVertex
100
AcDb3dPolylineVertex
 10
1253.1887669199
 20
153.3129273476
 30
0.0
 70
        32
  0
SEQEND
  5
17F
100
AcDbEntity
  8
_X______
  6
CONTINUOUS
 62
         7
  0
LINE
  5
180
100
AcDbEntity
  8
_X______
  6
CENTER
 62
         1
100
AcDbLine
 10
1258.6789463373
 20
149.057203501
 30
0.0
 11
1249.2820201295
 21
152.4774049342
 31
0.0
  0
POLYLINE
  5
182
100
AcDbEntity
  8
_X______
  6
CONTINUOUS
 62
         7
100
AcDb2dPolyline
 66
         1
 10
0.0
 20
0.0
 30
0.0
 70
         2
  0
VERTEX
  5
184
100
AcDbEntity
  8
_X______
  6
CONTINUOUS
 62
         7
100
AcDbVertex
100
AcDb2dVertex
 10
1255.177553735
 20
154.0562283904
 30
0.0
 70
         1
  0
VERTEX
  5
186
100
AcDbEntity
  8
_X______
  6
CONTINUOUS
 62
         7
100
AcDbVertex
100
AcDb2dVertex
 10
1254.7975526703
 20
154.1491997353
 30
0.0
 70
         1
  0
VERTEX
  5
188
100
AcDbEntity
  8
_X______
  6
CONTINUOUS
 62
         7
100
AcDbVertex
100
AcDb2dVertex
 10
1254.620484003
 20
154.1642012332
 30
0.0
 70
         1
  0
VERTEX
  5
18A
100
AcDbEntity
  8
_X______
  6
CONTINUOUS
 62
         7
100
AcDbVertex
100
AcDb2dVertex
 10
1254.4358567329
 20
154.1623680937
 30
0.0
 70
         1
  0
VERTEX
  5
18C
100
AcDbEntity
  8
_X______
  6
CONTINUOUS
 62
         7
100
AcDbVertex
100
AcDb2dVertex
 10
1254.2448498832
 20
154.1425310426
 30
0.0
 70
         1
  0
VERTEX
  5
18E
100
AcDbEntity
  8
_X______
  6
CONTINUOUS
 62
         7
100
AcDbVertex
100
AcDb2dVertex
 10
1254.0488651555
 20
154.1037747713
 30
0.0
 70
         1
  0
VERTEX
  5
190
100
AcDbEntity
  8
_X______
  6
CONTINUOUS
 62
         7
100
AcDbVertex
100
AcDb2dVertex
 10
1253.8495025235
 20
154.0454929121
 30
0.0
 70
         1
  0
VERTEX
  5
192
100
AcDbEntity
  8
_X______
  6
CONTINUOUS
 62
         7
100
AcDbVertex
100
AcDb2dVertex
 10
1253.6485232911
 20
153.9674335516
 30
0.0
 70
         1
  0
VERTEX
  5
194
100
AcDbEntity
  8
_X______
  6
CONTINUOUS
 62
         7
100
AcDbVertex
100
AcDb2dVertex
 10
1253.4478017643
 20
153.8697309892
 30
0.0
 70
         1
  0
VERTEX
  5
196
100
AcDbEntity
  8
_X______
  6
CONTINUOUS
 62
         7
100
AcDbVertex
100
AcDb2dVertex
 10
1253.2492678944
 20
153.7529202326
 30
0.0
 70
         1
  0
VERTEX
  5
198
100
AcDbEntity
  8
_X______
  6
CONTINUOUS
 62
         7
100
AcDbVertex
100
AcDb2dVertex
 10
1253.0548443148
 20
153.6179320192
 30
0.0
 70
         1
  0
VERTEX
  5
19A
100
AcDbEntity
  8
_X______
  6
CONTINUOUS
 62
         7
100
AcDbVertex
100
AcDb2dVertex
 10
1252.8663819441
 20
153.4660678363
 30
0.0
 70
         1
  0
VERTEX
  5
19C
100
AcDbEntity
  8
_X______
  6
CONTINUOUS
 62
         7
100
AcDbVertex
100
AcDb2dVertex
 10
1252.6260531437
 20
153.2388852857
 30
0.0
 70
         1
  0
VERTEX
  5
19E
100
AcDbEntity
  8
_X______
  6
CONTINUOUS
 62
         7
100
AcDbVertex
100
AcDb2dVertex
 10
1252.403093064
 20
152.9889766095
 30
0.0
 70
         1
  0
VERTEX
  5
1A0
100
AcDbEntity
  8
_X______
  6
CONTINUOUS
 62
         7
100
AcDbVertex
100
AcDb2dVertex
 10
1252.2003147098
 20
152.7215394974
 30
0.0
 70
         1
  0
VERTEX
  5
1A2
100
AcDbEntity
  8
_X______
  6
CONTINUOUS
 62
         7
100
AcDbVertex
100
AcDb2dVertex
 10
1252.0196551425
 20
152.4419925623
 30
0.0
 70
         1
  0
VERTEX
  5
1A4
100
AcDbEntity
  8
_X______
  6
CONTINUOUS
 62
         7
100
AcDbVertex
100
AcDb2dVertex
 10
1251.8621578683
 20
152.1556600525
 30
0.0
 70
         1
  0
VERTEX
  5
1A6
100
AcDbEntity
  8
_X______
  6
CONTINUOUS
 62
         7
100
AcDbVertex
100
AcDb2dVertex
 10
1251.7280275733
 20
151.8675052179
 30
0.0
 70
         1
  0
VERTEX
  5
1A8
100
AcDbEntity
  8
_X______
  6
CONTINUOUS
 62
         7
100
AcDbVertex
100
AcDb2dVertex
 10
1251.5836285106
 20
151.485222542
 30
0.0
 70
         1
  0
VERTEX
  5
1AA
100
AcDbEntity
  8
_X______
  6
CONTINUOUS
 62
         7
100
AcDbVertex
100
AcDb2dVertex
 10
1251.477505685
 20
151.1162279315
 30
0.0
 70
         1
  0
VERTEX
  5
1AC
100
AcDbEntity
  8
_X______
  6
CONTINUOUS
 62
         7
100
AcDbVertex
100
AcDb2dVertex
 10
1251.4055585637
 20
150.7668648911
 30
0.0
 70
         1
  0
VERTEX
  5
1AE
100
AcDbEntity
  8
_X______
  6
CONTINUOUS
 62
         7
100
AcDbVertex
100
AcDb2dVertex
 10
1251.3630640199
 20
150.4412378531
 30
0.0
 70
         1
  0
VERTEX
  5
1B0
100
AcDbEntity
  8
_X______
  6
CONTINUOUS
 62
         7
100
AcDbVertex
100
AcDb2dVertex
 10
1251.345169897
 20
150.1415340596
 30
0.0
 70
         1
  0
VERTEX
  5
1B2
100
AcDbEntity
  8
_X______
  6
CONTINUOUS
 62
         7
100
AcDbVertex
100
AcDb2dVertex
 10
1251.3472427386
 20
149.8684264459
 30
0.0
 70
         1
  0
VERTEX
  5
1B4
100
AcDbEntity
  8
_X______
  6
CONTINUOUS
 62
         7
100
AcDbVertex
100
AcDb2dVertex
 10
1251.3742560107
 20
149.5417785942
 30
0.0
 70
         1
  0
VERTEX
  5
1B6
100
AcDbEntity
  8
_X______
  6
CONTINUOUS
 62
         7
100
AcDbVertex
100
AcDb2dVertex
 10
1251.4212060226
 20
149.2593941461
 30
0.0
 70
         1
  0
VERTEX
  5
1B8
100
AcDbEntity
  8
_X______
  6
CONTINUOUS
 62
         7
100
AcDbVertex
100
AcDb2dVertex
 10
1251.4811885758
 20
149.0169156255
 30
0.0
 70
         1
  0
VERTEX
  5
1BA
100
AcDbEntity
  8
_X______
  6
CONTINUOUS
 62
         7
100
AcDbVertex
100
AcDb2dVertex
 10
1251.5738569938
 20
148.7441130432
 30
0.0
 70
         1
  0
VERTEX
  5
1BC
100
AcDbEntity
  8
_X______
  6
CONTINUOUS
 62
         7
100
AcDbVertex
100
AcDb2dVertex
 10
1251.6718116667
 20
148.5239606999
 30
0.0
 70
         1
  0
VERTEX
  5
1BE
100
AcDbEntity
  8
_X______
  6
CONTINUOUS
 62
         7
100
AcDbVertex
100
AcDb2dVertex
 10
1251.7693332906
 20
148.346272975
 30
0.0
 70
         1
  0
VERTEX
  5
1C0
100
AcDbEntity
  8
_X______
  6
CONTINUOUS
 62
         7
100
AcDbVertex
100
AcDb2dVertex
 10
1251.8952723859
 20
148.1579045175
 30
0.0
 70
         1
  0
VERTEX
  5
1C2
100
AcDbEntity
  8
_X______
  6
CONTINUOUS
 62
         7
100
AcDbVertex
100
AcDb2dVertex
 10
1252.0492108225
 20
147.9722975776
 30
0.0
 70
         1
  0
VERTEX
  5
1C4
100
AcDbEntity
  8
_X______
  6
CONTINUOUS
 62
         7
100
AcDbVertex
100
AcDb2dVertex
 10
1252.1798356651
 20
147.8436382679
 30
0.0
 70
         1
  0
VERTEX
  5
1C6
100
AcDbEntity
  8
_X______
  6
CONTINUOUS
 62
         7
100
AcDbVertex
100
AcDb2dVertex
 10
1252.3248621636
 20
147.7252706189
 30
0.0
 70
         1
  0
VERTEX
  5
1C8
100
AcDbEntity
  8
_X______
  6
CONTINUOUS
 62
         7
100
AcDbVertex
100
AcDb2dVertex
 10
1252.4723220883
 20
147.6268529333
 30
0.0
 70
         1
  0
VERTEX
  5
1CA
100
AcDbEntity
  8
_X______
  6
CONTINUOUS
 62
         7
100
AcDbVertex
100
AcDb2dVertex
 10
1252.6491077801
 20
147.5335392838
 30
0.0
 70
         1
  0
VERTEX
  5
1CC
100
AcDbEntity
  8
_X______
  6
CONTINUOUS
 62
         7
100
AcDbVertex
100
AcDb2dVertex
 10
1252.7834127318
 20
147.4783800449
 30
0.0
 70
         1
  0
VERTEX
  5
1CE
100
AcDbEntity
  8
_X______
  6
CONTINUOUS
 62
         7
100
AcDbVertex
100
AcDb2dVertex
 10
1252.7834127318
 20
147.4783800449
 30
0.0
 70
         1
  0
VERTEX
  5
1D0
100
AcDbEntity
  8
_X______
  6
CONTINUOUS
 62
         7
100
AcDbVertex
100
AcDb2dVertex
 10
1253.1634137965
 20
147.3854086999
 30
0.0
 70
         1
  0
VERTEX
  5
1D2
100
AcDbEntity
  8
_X______
  6
CONTINUOUS
 62
         7
100
AcDbVertex
100
AcDb2dVertex
 10
1253.3404824638
 20
147.3704072021
 30
0.0
 70
         1
  0
VERTEX
  5
1D4
100
AcDbEntity
  8
_X______
  6
CONTINUOUS
 62
         7
100
AcDbVertex
100
AcDb2dVertex
 10
1253.5251097339
 20
147.3722403415
 30
0.0
 70
         1
  0
VERTEX
  5
1D6
100
AcDbEntity
  8
_X______
  6
CONTINUOUS
 62
         7
100
AcDbVertex
100
AcDb2dVertex
 10
1253.7161165836
 20
147.3920773926
 30
0.0
 70
         1
  0
VERTEX
  5
1D8
100
AcDbEntity
  8
_X______
  6
CONTINUOUS
 62
         7
100
AcDbVertex
100
AcDb2dVertex
 10
1253.9121013113
 20
147.4308336639
 30
0.0
 70
         1
  0
VERTEX
  5
1DA
100
AcDbEntity
  8
_X______
  6
CONTINUOUS
 62
         7
100
AcDbVertex
100
AcDb2dVertex
 10
1254.1114639433
 20
147.4891155231
 30
0.0
 70
         1
  0
VERTEX
  5
1DC
100
AcDbEntity
  8
_X______
  6
CONTINUOUS
 62
         7
100
AcDbVertex
100
AcDb2dVertex
 10
1254.3124431757
 20
147.5671748836
 30
0.0
 70
         1
  0
VERTEX
  5
1DE
100
AcDbEntity
  8
_X______
  6
CONTINUOUS
 62
         7
100
AcDbVertex
100
AcDb2dVertex
 10
1254.5131647025
 20
147.664877446
 30
0.0
 70
         1
  0
VERTEX
  5
1E0
100
AcDbEntity
  8
_X______
  6
CONTINUOUS
 62
         7
100
AcDbVertex
100
AcDb2dVertex
 10
1254.7116985724
 20
147.7816882026
 30
0.0
 70
         1
  0
VERTEX
  5
1E2
100
AcDbEntity
  8
_X______
  6
CONTINUOUS
 62
         7
100
AcDbVertex
100
AcDb2dVertex
 10
1254.906122152
 20
147.9166764161
 30
0.0
 70
         1
  0
VERTEX
  5
1E4
100
AcDbEntity
  8
_X______
  6
CONTINUOUS
 62
         7
100
AcDbVertex
100
AcDb2dVertex
 10
1255.0945845227
 20
148.068540599
 30
0.0
 70
         1
  0
VERTEX
  5
1E6
100
AcDbEntity
  8
_X______
  6
CONTINUOUS
 62
         7
100
AcDbVertex
100
AcDb2dVertex
 10
1255.3349133231
 20
148.2957231496
 30
0.0
 70
         1
  0
VERTEX
  5
1E8
100
AcDbEntity
  8
_X______
  6
CONTINUOUS
 62
         7
100
AcDbVertex
100
AcDb2dVertex
 10
1255.5578734028
 20
148.5456318257
 30
0.0
 70
         1
  0
VERTEX
  5
1EA
100
AcDbEntity
  8
_X______
  6
CONTINUOUS
 62
         7
100
AcDbVertex
100
AcDb2dVertex
 10
1255.760651757
 20
148.8130689378
 30
0.0
 70
         1
  0
VERTEX
  5
1EC
100
AcDbEntity
  8
_X______
  6
CONTINUOUS
 62
         7
100
AcDbVertex
100
AcDb2dVertex
 10
1255.9413113243
 20
149.0926158729
 30
0.0
 70
         1
  0
VERTEX
  5
1EE
100
AcDbEntity
  8
_X______
  6
CONTINUOUS
 62
         7
100
AcDbVertex
100
AcDb2dVertex
 10
1256.0988085985
 20
149.3789483828
 30
0.0
 70
         1
  0
VERTEX
  5
1F0
100
AcDbEntity
  8
_X______
  6
CONTINUOUS
 62
         7
100
AcDbVertex
100
AcDb2dVertex
 10
1256.2329388935
 20
149.6671032173
 30
0.0
 70
         1
  0
VERTEX
  5
1F2
100
AcDbEntity
  8
_X______
  6
CONTINUOUS
 62
         7
100
AcDbVertex
100
AcDb2dVertex
 10
1256.3773379562
 20
150.0493858933
 30
0.0
 70
         1
  0
VERTEX
  5
1F4
100
AcDbEntity
  8
_X______
  6
CONTINUOUS
 62
         7
100
AcDbVertex
100
AcDb2dVertex
 10
1256.4834607818
 20
150.4183805037
 30
0.0
 70
         1
  0
VERTEX
  5
1F6
100
AcDbEntity
  8
_X______
  6
CONTINUOUS
 62
         7
100
AcDbVertex
100
AcDb2dVertex
 10
1256.5554079031
 20
150.7677435441
 30
0.0
 70
         1
  0
VERTEX
  5
1F8
100
AcDbEntity
  8
_X______
  6
CONTINUOUS
 62
         7
100
AcDbVertex
100
AcDb2dVertex
 10
1256.5979024469
 20
151.0933705821
 30
0.0
 70
         1
  0
VERTEX
  5
1FA
100
AcDbEntity
  8
_X______
  6
CONTINUOUS
 62
         7
100
AcDbVertex
100
AcDb2dVertex
 10
1256.6157965698
 20
151.3930743756
 30
0.0
 70
         1
  0
VERTEX
  5
1FC
100
AcDbEntity
  8
_X______
  6
CONTINUOUS
 62
         7
100
AcDbVertex
100
AcDb2dVertex
 10
1256.6137237282
 20
151.6661819893
 30
0.0
 70
         1
  0
VERTEX
  5
1FE
100
AcDbEntity
  8
_X______
  6
CONTINUOUS
 62
         7
100
AcDbVertex
100
AcDb2dVertex
 10
1256.5867104561
 20
151.992829841
 30
0.0
 70
         1
  0
VERTEX
  5
200
100
AcDbEntity
  8
_X______
  6
CONTINUOUS
 62
         7
100
AcDbVertex
100
AcDb2dVertex
 10
1256.5397604442
 20
152.2752142891
 30
0.0
 70
         1
  0
VERTEX
  5
202
100
AcDbEntity
  8
_X______
  6
CONTINUOUS
 62
         7
100
AcDbVertex
100
AcDb2dVertex
 10
1256.479777891
 20
152.5176928097
 30
0.0
 70
         1
  0
VERTEX
  5
204
100
AcDbEntity
  8
_X______
  6
CONTINUOUS
 62
         7
100
AcDbVertex
100
AcDb2dVertex
 10
1256.387109473
 20
152.790495392
 30
0.0
 70
         1
  0
VERTEX
  5
206
100
AcDbEntity
  8
_X______
  6
CONTINUOUS
 62
         7
100
AcDbVertex
100
AcDb2dVertex
 10
1256.2891548001
 20
153.0106477353
 30
0.0
 70
         1
  0
VERTEX
  5
208
100
AcDbEntity
  8
_X______
  6
CONTINUOUS
 62
         7
100
AcDbVertex
100
AcDb2dVertex
 10
1256.1916331762
 20
153.1883354603
 30
0.0
 70
         1
  0
VERTEX
  5
20A
100
AcDbEntity
  8
_X______
  6
CONTINUOUS
 62
         7
100
AcDbVertex
100
AcDb2dVertex
 10
1256.0656940809
 20
153.3767039178
 30
0.0
 70
         1
  0
VERTEX
  5
20C
100
AcDbEntity
  8
_X______
  6
CONTINUOUS
 62
         7
100
AcDbVertex
100
AcDb2dVertex
 10
1255.9117556443
 20
153.5623108576
 30
0.0
 70
         1
  0
VERTEX
  5
20E
100
AcDbEntity
  8
_X______
  6
CONTINUOUS
 62
         7
100
AcDbVertex
100
AcDb2dVertex
 10
1255.7811308017
 20
153.6909701673
 30
0.0
 70
         1
  0
VERTEX
  5
210
100
AcDbEntity
  8
_X______
  6
CONTINUOUS
 62
         7
100
AcDbVertex
100
AcDb2dVertex
 10
1255.6361043032
 20
153.8093378163
 30
0.0
 70
         1
  0
VERTEX
  5
212
100
AcDbEntity
  8
_X______
  6
CONTINUOUS
 62
         7
100
AcDbVertex
100
AcDb2dVertex
 10
1255.4886443785
 20
153.9077555019
 30
0.0
 70
         1
  0
VERTEX
  5
214
100
AcDbEntity
  8
_X______
  6
CONTINUOUS
 62
         7
100
AcDbVertex
100
AcDb2dVertex
 10
1255.3118586867
 20
154.0010691514
 30
0.0
 70
         1
  0
VERTEX
  5
216
100
AcDbEntity
  8
_X______
  6
CONTINUOUS
 62
         7
100
AcDbVertex
100
AcDb2dVertex
 10
1255.177553735
 20
154.0562283904
 30
0.0
 70
         1
  0
SEQEND
  5
218
100
AcDbEntity
  8
_X______
  6
CONTINUOUS
 62
         7
  0
LINE
  5
219
100
AcDbEntity
  8
_X______
  6
CENTER
 62
         1
100
AcDbLine
 10
1827.5565483995
 20
162.469463445
 30
0.0
 11
1866.9196118365
 21
54.3203354914
 31
0.0
  0
LINE
  5
21A
100
AcDbEntity
  8
_X______
  6
DASHED
 62
         2
100
AcDbLine
 10
1847.7418203509
 20
102.1866072926
 30
0.0
 11
1858.4367512304
 21
72.8025261986
 31
0.0
  0
LINE
  5
21B
100
AcDbEntity
  8
_X______
  6
DASHED
 62
         2
100
AcDbLine
 10
1859.5443434151
 20
68.7361101411
 30
0.0
 11
1858.1078588132
 21
72.6828191484
 31
0.0
  0
LINE
  5
21C
100
AcDbEntity
  8
_X______
  6
DASHED
 62
         2
100
AcDbLine
 10
1861.8666292963
 20
74.0508997217
 30
0.0
 11
1858.1078588132
 21
72.6828191484
 31
0.0
  0
LINE
  5
21D
100
AcDbEntity
  8
_X______
  6
DASHED
 62
         2
100
AcDbLine
 10
1863.3031138983
 20
70.1041907144
 30
0.0
 11
1861.8666292963
 21
74.0508997217
 31
0.0
  0
LINE
  5
21E
100
AcDbEntity
  8
_X______
  6
DASHED
 62
         2
100
AcDbLine
 10
1850.8428059995
 20
103.3152737656
 30
0.0
 11
1861.537736879
 21
73.9311926715
 31
0.0
  0
LINE
  5
21F
100
AcDbEntity
  8
_X______
  6
DASHED
 62
         2
100
AcDbLine
 10
1828.3650050828
 20
154.4006381627
 30
0.0
 11
1829.8014896848
 21
150.4539291554
 31
0.0
  0
LINE
  5
220
100
AcDbEntity
  8
_X______
  6
DASHED
 62
         2
100
AcDbLine
 10
1830.130382102
 20
150.5736362055
 30
0.0
 11
1840.8253129815
 21
121.1895551115
 31
0.0
  0
LINE
  5
221
100
AcDbEntity
  8
_X______
  6
DASHED
 62
         2
100
AcDbLine
 10
1832.1237755659
 20
155.768718736
 30
0.0
 11
1833.5602601679
 21
151.8220097287
 31
0.0
  0
LINE
  5
222
100
AcDbEntity
  8
_X______
  6
DASHED
 62
         2
100
AcDbLine
 10
1829.8014896848
 20
150.4539291554
 30
0.0
 11
1833.5602601679
 21
151.8220097287
 31
0.0
  0
LINE
  5
223
100
AcDbEntity
  8
_X______
  6
DASHED
 62
         2
100
AcDbLine
 10
1833.2313677506
 20
151.7023026785
 30
0.0
 11
1843.9262986301
 21
122.3182215845
 31
0.0
  0
LINE
  5
224
100
AcDbEntity
  8
_Y__________
  6
CONTINUOUS
 62
         7
100
AcDbLine
 10
1523.7786999334
 20
147.1774144385
 30
0.0
 11
1525.7251100949
 21
146.6774144385
 31
0.0
  0
LINE
  5
225
100
AcDbEntity
  8
_Y__________
  6
CONTINUOUS
 62
         7
100
AcDbLine
 10
1523.7786999334
 20
77.3274144385
 30
0.0
 11
1525.7251100949
 21
77.8274144385
 31
0.0
  0
LINE
  5
226
100
AcDbEntity
  8
_Y__________
  6
CENTER
 62
         1
100
AcDbLine
 10
1513.0227673053
 20
112.2524144385
 30
0.0
 11
1542.8786999334
 21
112.2524144385
 31
0.0
  0
LINE
  5
227
100
AcDbEntity
  8
_Y__________
  6
CENTER
 62
         1
100
AcDbLine
 10
1417.2325573653
 20
112.2524144385
 30
0.0
 11
1491.1537903612
 21
112.2524144385
 31
0.0
  0
LINE
  5
228
100
AcDbEntity
  8
_Y__________
  6
CONTINUOUS
 62
         7
100
AcDbLine
 10
1523.7786999334
 20
147.1774144385
 30
0.0
 11
1424.3179293748
 21
132.6725821702
 31
0.0
  0
LINE
  5
229
100
AcDbEntity
  8
_Y__________
  6
CONTINUOUS
 62
         7
100
AcDbLine
 10
1523.7786999334
 20
77.3274144385
 30
0.0
 11
1424.3179293748
 21
91.8322467069
 31
0.0
  0
LINE
  5
22A
100
AcDbEntity
  8
_Y__________
  6
CONTINUOUS
 62
         7
100
AcDbLine
 10
1524.9786999334
 20
146.8691546422
 30
0.0
 11
1524.9786999334
 21
77.6356742349
 31
0.0
  0
LINE
  5
22B
100
AcDbEntity
  8
_Y__________
  6
CENTER
 62
         1
100
AcDbLine
 10
1523.7786999334
 20
151.9774144385
 30
0.0
 11
1523.7786999334
 21
73.981360093
 31
0.0
  0
LINE
  5
22C
100
AcDbEntity
  8
_Y__________
  6
CONTINUOUS
 62
         7
100
AcDbLine
 10
1525.7251100949
 20
146.6774144385
 30
0.0
 11
1525.7251100949
 21
77.8274144385
 31
0.0
  0
LINE
  5
22D
100
AcDbEntity
  8
_Y__________
  6
CONTINUOUS
 62
         7
100
AcDbLine
 10
1526.9786999334
 20
159.5024144385
 30
0.0
 11
1526.9786999334
 21
65.0024144385
 31
0.0
  0
LINE
  5
22E
100
AcDbEntity
  8
_Y__________
  6
CENTER
 62
         1
100
AcDbLine
 10
1534.8786999334
 20
167.2576777393
 30
0.0
 11
1534.8786999334
 21
57.2548581875
 31
0.0
  0
LINE
  5
22F
100
AcDbEntity
  8
_Y__________
  6
CONTINUOUS
 62
         7
100
AcDbLine
 10
1538.4149703322
 20
63.5024144385
 30
0.0
 11
1541.3786999334
 21
63.5024144385
 31
0.0
  0
ARC
  5
230
100
AcDbEntity
  8
_Y__________
  6
CONTINUOUS
 62
         7
100
AcDbCircle
 10
1526.3786999334
 20
77.2274144385
 30
0.0
 40
0.6
100
AcDbArc
 50
0.0
 51
90.0
  0
LINE
  5
231
100
AcDbEntity
  8
_Y__________
  6
CONTINUOUS
 62
         7
100
AcDbLine
 10
1525.7251100949
 20
77.8274144385
 30
0.0
 11
1526.3786999334
 21
77.8274144385
 31
0.0
  0
ARC
  5
232
100
AcDbEntity
  8
_Y__________
  6
CONTINUOUS
 62
         7
100
AcDbCircle
 10
1526.3786999334
 20
77.2274144385
 30
0.0
 40
0.6
100
AcDbArc
 50
0.0
 51
90.0
  0
ARC
  5
233
100
AcDbEntity
  8
_Y__________
  6
CONTINUOUS
 62
         7
100
AcDbCircle
 10
1536.3220756064
 20
66.1274144385
 30
0.0
 40
0.5
100
AcDbArc
 50
30.0
 51
90.0
  0
LINE
  5
234
100
AcDbEntity
  8
_Y__________
  6
CONTINUOUS
 62
         7
100
AcDbLine
 10
1533.0023115585
 20
66.3774144385
 30
0.0
 11
1531.3424295346
 21
63.5024144385
 31
0.0
  0
LINE
  5
235
100
AcDbEntity
  8
_Y__________
  6
CONTINUOUS
 62
         7
100
AcDbLine
 10
1528.4786999334
 20
63.5024144385
 30
0.0
 11
1531.3424295346
 21
63.5024144385
 31
0.0
  0
ARC
  5
236
100
AcDbEntity
  8
_Y__________
  6
CONTINUOUS
 62
         7
100
AcDbCircle
 10
1533.4353242604
 20
66.1274144385
 30
0.0
 40
0.5
100
AcDbArc
 50
90.0
 51
150.0
  0
LINE
  5
237
100
AcDbEntity
  8
_Y__________
  6
CONTINUOUS
 62
         7
100
AcDbLine
 10
1533.4353242604
 20
66.6274144385
 30
0.0
 11
1536.3220756064
 21
66.6274144385
 31
0.0
  0
LINE
  5
238
100
AcDbEntity
  8
_Y__________
  6
CONTINUOUS
 62
         7
100
AcDbLine
 10
1536.7550883083
 20
66.3774144385
 30
0.0
 11
1538.4149703322
 21
63.5024144385
 31
0.0
  0
LINE
  5
239
100
AcDbEntity
  8
_Y__________
  6
CONTINUOUS
 62
         7
100
AcDbLine
 10
1538.4149703322
 20
161.0024144385
 30
0.0
 11
1541.3786999334
 21
161.0024144385
 31
0.0
  0
ARC
  5
23A
100
AcDbEntity
  8
_Y__________
  6
CONTINUOUS
 62
         7
100
AcDbCircle
 10
1536.3220756064
 20
158.3774144385
 30
0.0
 40
0.5
100
AcDbArc
 50
270.0
 51
330.0
  0
LINE
  5
23B
100
AcDbEntity
  8
_Y__________
  6
CONTINUOUS
 62
         7
100
AcDbLine
 10
1533.0023115585
 20
158.1274144385
 30
0.0
 11
1531.3424295346
 21
161.0024144385
 31
0.0
  0
ARC
  5
23C
100
AcDbEntity
  8
_Y__________
  6
CONTINUOUS
 62
         7
100
AcDbCircle
 10
1526.3786999334
 20
147.2774144385
 30
0.0
 40
0.6
100
AcDbArc
 50
270.0
 51
360.0
  0
LINE
  5
23D
100
AcDbEntity
  8
_Y__________
  6
CONTINUOUS
 62
         7
100
AcDbLine
 10
1525.7251100949
 20
146.6774144385
 30
0.0
 11
1526.3786999334
 21
146.6774144385
 31
0.0
  0
ARC
  5
23E
100
AcDbEntity
  8
_Y__________
  6
CONTINUOUS
 62
         7
100
AcDbCircle
 10
1533.4353242604
 20
158.3774144385
 30
0.0
 40
0.5
100
AcDbArc
 50
210.0
 51
270.0
  0
LINE
  5
23F
100
AcDbEntity
  8
_Y__________
  6
CONTINUOUS
 62
         7
100
AcDbLine
 10
1528.4786999334
 20
161.0024144385
 30
0.0
 11
1531.3424295346
 21
161.0024144385
 31
0.0
  0
LINE
  5
240
100
AcDbEntity
  8
_Y__________
  6
CONTINUOUS
 62
         7
100
AcDbLine
 10
1533.4353242604
 20
157.8774144385
 30
0.0
 11
1536.3220756064
 21
157.8774144385
 31
0.0
  0
LINE
  5
241
100
AcDbEntity
  8
_Y__________
  6
CONTINUOUS
 62
         7
100
AcDbLine
 10
1536.7550883083
 20
158.1274144385
 30
0.0
 11
1538.4149703322
 21
161.0024144385
 31
0.0
  0
LINE
  5
242
100
AcDbEntity
  8
_Y__________
  6
CONTINUOUS
 62
         7
100
AcDbLine
 10
1542.8786999334
 20
159.5024144385
 30
0.0
 11
1542.8786999334
 21
65.0024144385
 31
0.0
  0
LINE
  5
243
100
AcDbEntity
  8
_Y__________
  6
CONTINUOUS
 62
         4
100
AcDbLine
 10
1423.5286999334
 20
-139.2400166132
 30
0.0
 11
1423.5286999334
 21
-114.2400166132
 31
0.0
  0
LINE
  5
244
100
AcDbEntity
  8
_Y__________
  6
CONTINUOUS
 62
         7
100
AcDbLine
 10
1430.4480438949
 20
-137.1363580766
 30
0.0
 11
1430.4480438949
 21
-116.3436751498
 31
0.0
  0
LINE
  5
245
100
AcDbEntity
  8
_Y__________
  6
CONTINUOUS
 62
         7
100
AcDbLine
 10
1428.2615426459
 20
-139.3228593257
 30
0.0
 11
1430.4480438949
 21
-137.1363580766
 31
0.0
  0
ARC
  5
246
100
AcDbEntity
  8
_Y__________
  6
CONTINUOUS
 62
         7
100
AcDbCircle
 10
1427.9786999334
 20
-139.0400166132
 30
0.0
 40
0.4
100
AcDbArc
 50
270.0
 51
315.0
  0
ARC
  5
247
100
AcDbEntity
  8
_Y__________
  6
CONTINUOUS
 62
         7
100
AcDbCircle
 10
1423.5286999334
 20
-140.7400166132
 30
0.0
 40
1.5
100
AcDbArc
 50
90.0
 51
154.1580672375
  0
LINE
  5
248
100
AcDbEntity
  8
_Y__________
  6
CONTINUOUS
 62
         7
100
AcDbLine
 10
1427.1251100949
 20
-139.4400166132
 30
0.0
 11
1426.3786999334
 21
-139.2400166132
 31
0.0
  0
LINE
  5
249
100
AcDbEntity
  8
_Y__________
  6
CONTINUOUS
 62
         7
100
AcDbLine
 10
1427.1251100949
 20
-139.4400166132
 30
0.0
 11
1427.9786999334
 21
-139.4400166132
 31
0.0
  0
LINE
  5
24A
100
AcDbEntity
  8
_Y__________
  6
CONTINUOUS
 62
         7
100
AcDbLine
 10
1423.5286999334
 20
-139.2400166132
 30
0.0
 11
1426.3786999334
 21
-139.2400166132
 31
0.0
  0
LINE
  5
24B
100
AcDbEntity
  8
_Y__________
  6
CONTINUOUS
 62
         7
100
AcDbLine
 10
1428.2615426459
 20
-114.1571739007
 30
0.0
 11
1430.4480438949
 21
-116.3436751498
 31
0.0
  0
ARC
  5
24C
100
AcDbEntity
  8
_Y__________
  6
CONTINUOUS
 62
         7
100
AcDbCircle
 10
1423.5286999334
 20
-112.7400166132
 30
0.0
 40
1.5
100
AcDbArc
 50
205.8419327625
 51
270.0
  0
LINE
  5
24D
100
AcDbEntity
  8
_Y__________
  6
CONTINUOUS
 62
         7
100
AcDbLine
 10
1427.1251100949
 20
-114.0400166132
 30
0.0
 11
1426.3786999334
 21
-114.2400166132
 31
0.0
  0
ARC
  5
24E
100
AcDbEntity
  8
_Y__________
  6
CONTINUOUS
 62
         7
100
AcDbCircle
 10
1427.9786999334
 20
-114.4400166132
 30
0.0
 40
0.4
100
AcDbArc
 50
45.0
 51
90.0
  0
LINE
  5
24F
100
AcDbEntity
  8
_Y__________
  6
CONTINUOUS
 62
         7
100
AcDbLine
 10
1426.3786999334
 20
-139.2400166132
 30
0.0
 11
1426.3786999334
 21
-114.2400166132
 31
0.0
  0
LINE
  5
250
100
AcDbEntity
  8
_Y__________
  6
CONTINUOUS
 62
         7
100
AcDbLine
 10
1427.1251100949
 20
-114.0400166132
 30
0.0
 11
1427.9786999334
 21
-114.0400166132
 31
0.0
  0
LINE
  5
251
100
AcDbEntity
  8
_Y__________
  6
CONTINUOUS
 62
         7
100
AcDbLine
 10
1428.3786999334
 20
-139.2057020382
 30
0.0
 11
1428.3786999334
 21
-114.2743311882
 31
0.0
  0
ARC
  5
252
100
AcDbEntity
  8
_Y__________
  6
CONTINUOUS
 62
         7
100
AcDbCircle
 10
1536.0334004718
 20
-173.3650166132
 30
0.0
 40
1.0
100
AcDbArc
 50
30.0
 51
90.0
  0
LINE
  5
253
100
AcDbEntity
  8
_Y__________
  6
CENTER
 62
         1
100
AcDbLine
 10
1422.0286999334
 20
-126.7400166132
 30
0.0
 11
1542.8786999334
 21
-126.7400166132
 31
0.0
  0
LINE
  5
254
100
AcDbEntity
  8
_Y__________
  6
CONTINUOUS
 62
         7
100
AcDbLine
 10
1523.7786999334
 20
-91.8150166132
 30
0.0
 11
1525.7251100949
 21
-92.3150166132
 31
0.0
  0
LINE
  5
255
100
AcDbEntity
  8
_Y__________
  6
CONTINUOUS
 62
         7
100
AcDbLine
 10
1523.7786999334
 20
-161.6650166132
 30
0.0
 11
1525.7251100949
 21
-161.1650166132
 31
0.0
  0
LINE
  5
256
100
AcDbEntity
  8
_Y__________
  6
CONTINUOUS
 62
         5
100
AcDbLine
 10
1428.8443853584
 20
-114.7400166132
 30
0.0
 11
1466.6786999334
 21
-114.7400166132
 31
0.0
  0
LINE
  5
257
100
AcDbEntity
  8
_Y__________
  6
CONTINUOUS
 62
         7
100
AcDbLine
 10
1430.4480438949
 20
-116.3436751498
 30
0.0
 11
1466.6786999334
 21
-116.3436751498
 31
0.0
  0
LINE
  5
258
100
AcDbEntity
  8
_Y__________
  6
CONTINUOUS
 62
         7
100
AcDbLine
 10
1523.7786999334
 20
-91.8150166132
 30
0.0
 11
1424.1679293748
 21
-106.3417240875
 31
0.0
  0
LINE
  5
259
100
AcDbEntity
  8
_Y__________
  6
CONTINUOUS
 62
         5
100
AcDbLine
 10
1428.8443853584
 20
-138.7400166132
 30
0.0
 11
1466.6786999334
 21
-138.7400166132
 31
0.0
  0
LINE
  5
25A
100
AcDbEntity
  8
_Y__________
  6
CONTINUOUS
 62
         7
100
AcDbLine
 10
1430.4480438949
 20
-137.1363580766
 30
0.0
 11
1466.6786999334
 21
-137.1363580766
 31
0.0
  0
LINE
  5
25B
100
AcDbEntity
  8
_Y__________
  6
CONTINUOUS
 62
         7
100
AcDbLine
 10
1523.7786999334
 20
-161.6650166132
 30
0.0
 11
1424.1679293748
 21
-147.1383091389
 31
0.0
  0
LINE
  5
25C
100
AcDbEntity
  8
_Y__________
  6
CONTINUOUS
 62
         7
100
AcDbLine
 10
1423.5286999334
 20
-114.2400166132
 30
0.0
 11
1426.3786999334
 21
-114.2400166132
 31
0.0
  0
LINE
  5
25D
100
AcDbEntity
  8
_Y__________
  6
CONTINUOUS
 62
         7
100
AcDbLine
 10
1466.6786999334
 20
-114.7400166132
 30
0.0
 11
1466.6786999334
 21
-138.7400166132
 31
0.0
  0
LINE
  5
25E
100
AcDbEntity
  8
_Y__________
  6
CONTINUOUS
 62
         7
100
AcDbLine
 10
1538.4149703322
 20
-175.4900166132
 30
0.0
 11
1541.3786999334
 21
-175.4900166132
 31
0.0
  0
ARC
  5
25F
100
AcDbEntity
  8
_Y__________
  6
CONTINUOUS
 62
         7
100
AcDbCircle
 10
1526.3786999334
 20
-161.7650166132
 30
0.0
 40
0.6
100
AcDbArc
 50
0.0
 51
90.0
  0
LINE
  5
260
100
AcDbEntity
  8
_Y__________
  6
CONTINUOUS
 62
         7
100
AcDbLine
 10
1525.7251100949
 20
-161.1650166132
 30
0.0
 11
1526.3786999334
 21
-161.1650166132
 31
0.0
  0
ARC
  5
261
100
AcDbEntity
  8
_Y__________
  6
CONTINUOUS
 62
         7
100
AcDbCircle
 10
1533.4353242604
 20
-172.8650166132
 30
0.0
 40
0.5
100
AcDbArc
 50
90.0
 51
150.0
  0
LINE
  5
262
100
AcDbEntity
  8
_Y__________
  6
CONTINUOUS
 62
         7
100
AcDbLine
 10
1533.0023115585
 20
-172.6150166132
 30
0.0
 11
1531.3424295346
 21
-175.4900166132
 31
0.0
  0
LINE
  5
263
100
AcDbEntity
  8
_Y__________
  6
CONTINUOUS
 62
         7
100
AcDbLine
 10
1528.4786999334
 20
-175.4900166132
 30
0.0
 11
1531.3424295346
 21
-175.4900166132
 31
0.0
  0
LINE
  5
264
100
AcDbEntity
  8
_Y__________
  6
CONTINUOUS
 62
         7
100
AcDbLine
 10
1533.4353242604
 20
-172.3650166132
 30
0.0
 11
1536.0334004718
 21
-172.3650166132
 31
0.0
  0
LINE
  5
265
100
AcDbEntity
  8
_Y__________
  6
CONTINUOUS
 62
         7
100
AcDbLine
 10
1526.9786999334
 20
-161.7650166132
 30
0.0
 11
1526.9786999334
 21
-173.9900166132
 31
0.0
  0
LINE
  5
266
100
AcDbEntity
  8
_Y__________
  6
CONTINUOUS
 62
         7
100
AcDbLine
 10
1536.8994258756
 20
-172.8650166132
 30
0.0
 11
1538.4149703322
 21
-175.4900166132
 31
0.0
  0
LINE
  5
267
100
AcDbEntity
  8
_Y__________
  6
CONTINUOUS
 62
         7
100
AcDbLine
 10
1538.4149703322
 20
-77.9900166132
 30
0.0
 11
1541.3786999334
 21
-77.9900166132
 31
0.0
  0
LINE
  5
268
100
AcDbEntity
  8
_Y__________
  6
CONTINUOUS
 62
         7
100
AcDbLine
 10
1533.0023115585
 20
-80.8650166132
 30
0.0
 11
1531.3424295346
 21
-77.9900166132
 31
0.0
  0
ARC
  5
269
100
AcDbEntity
  8
_Y__________
  6
CONTINUOUS
 62
         7
100
AcDbCircle
 10
1536.3220756064
 20
-80.6150166132
 30
0.0
 40
0.5
100
AcDbArc
 50
270.0
 51
330.0
  0
ARC
  5
26A
100
AcDbEntity
  8
_Y__________
  6
CONTINUOUS
 62
         7
100
AcDbCircle
 10
1533.4353242604
 20
-80.6150166132
 30
0.0
 40
0.5
100
AcDbArc
 50
210.0
 51
270.0
  0
ARC
  5
26B
100
AcDbEntity
  8
_Y__________
  6
CONTINUOUS
 62
         7
100
AcDbCircle
 10
1526.3786999334
 20
-91.7150166132
 30
0.0
 40
0.6
100
AcDbArc
 50
270.0
 51
360.0
  0
LINE
  5
26C
100
AcDbEntity
  8
_Y__________
  6
CONTINUOUS
 62
         7
100
AcDbLine
 10
1525.7251100949
 20
-92.3150166132
 30
0.0
 11
1526.3786999334
 21
-92.3150166132
 31
0.0
  0
LINE
  5
26D
100
AcDbEntity
  8
_Y__________
  6
CONTINUOUS
 62
         7
100
AcDbLine
 10
1526.9786999334
 20
-79.4900166132
 30
0.0
 11
1526.9786999334
 21
-91.7150166132
 31
0.0
  0
LINE
  5
26E
100
AcDbEntity
  8
_Y__________
  6
CONTINUOUS
 62
         7
100
AcDbLine
 10
1533.4353242604
 20
-81.1150166132
 30
0.0
 11
1536.3220756064
 21
-81.1150166132
 31
0.0
  0
LINE
  5
26F
100
AcDbEntity
  8
_Y__________
  6
CONTINUOUS
 62
         7
100
AcDbLine
 10
1528.4786999334
 20
-77.9900166132
 30
0.0
 11
1531.3424295346
 21
-77.9900166132
 31
0.0
  0
LINE
  5
270
100
AcDbEntity
  8
_Y__________
  6
CONTINUOUS
 62
         7
100
AcDbLine
 10
1536.7550883083
 20
-80.8650166132
 30
0.0
 11
1538.4149703322
 21
-77.9900166132
 31
0.0
  0
LINE
  5
271
100
AcDbEntity
  8
_Y__________
  6
CONTINUOUS
 62
         7
100
AcDbLine
 10
1533.4353242604
 20
-81.1150166132
 30
0.0
 11
1536.3220756064
 21
-81.1150166132
 31
0.0
  0
LINE
  5
272
100
AcDbEntity
  8
_Y__________
  6
CONTINUOUS
 62
         7
100
AcDbLine
 10
1526.9786999334
 20
-79.4900166132
 30
0.0
 11
1526.9786999334
 21
-91.7150166132
 31
0.0
  0
LINE
  5
273
100
AcDbEntity
  8
_Y__________
  6
CONTINUOUS
 62
         7
100
AcDbLine
 10
1525.7251100949
 20
-92.3150166132
 30
0.0
 11
1526.3786999334
 21
-92.3150166132
 31
0.0
  0
ARC
  5
274
100
AcDbEntity
  8
_Y__________
  6
CONTINUOUS
 62
         7
100
AcDbCircle
 10
1526.3786999334
 20
-91.7150166132
 30
0.0
 40
0.6
100
AcDbArc
 50
270.0
 51
360.0
  0
ARC
  5
275
100
AcDbEntity
  8
_Y__________
  6
CONTINUOUS
 62
         7
100
AcDbCircle
 10
1533.4353242604
 20
-80.6150166132
 30
0.0
 40
0.5
100
AcDbArc
 50
210.0
 51
270.0
  0
ARC
  5
276
100
AcDbEntity
  8
_Y__________
  6
CONTINUOUS
 62
         7
100
AcDbCircle
 10
1536.3220756064
 20
-80.6150166132
 30
0.0
 40
0.5
100
AcDbArc
 50
270.0
 51
330.0
  0
LINE
  5
277
100
AcDbEntity
  8
_Y__________
  6
CONTINUOUS
 62
         7
100
AcDbLine
 10
1523.7786999334
 20
-91.8150166132
 30
0.0
 11
1525.7251100949
 21
-92.3150166132
 31
0.0
  0
LINE
  5
278
100
AcDbEntity
  8
_Y__________
  6
CONTINUOUS
 62
         7
100
AcDbLine
 10
1422.1786999334
 20
130.1987502026
 30
0.0
 11
1422.1786999334
 21
94.3060786745
 31
0.0
  0
ARC
  5
279
100
AcDbEntity
  8
_Y__________
  6
CONTINUOUS
 62
         7
100
AcDbCircle
 10
1424.6786999334
 20
130.1987502026
 30
0.0
 40
2.5
100
AcDbArc
 50
98.297222
 51
180.0
  0
ARC
  5
27A
100
AcDbEntity
  8
_Y__________
  6
CONTINUOUS
 62
         7
100
AcDbCircle
 10
1424.6786999334
 20
94.3060786745
 30
0.0
 40
2.5
100
AcDbArc
 50
180.0
 51
261.702778
  0
ARC
  5
27B
100
AcDbEntity
  8
_Y__________
  6
CONTINUOUS
 62
         7
100
AcDbCircle
 10
1424.6786999334
 20
-108.7936808492
 30
0.0
 40
2.5
100
AcDbArc
 50
98.297222
 51
180.0
  0
LINE
  5
27C
100
AcDbEntity
  8
_Y__________
  6
CONTINUOUS
 62
         7
100
AcDbLine
 10
1422.1786999334
 20
-108.7936808492
 30
0.0
 11
1422.1786999334
 21
-144.6863523772
 31
0.0
  0
ARC
  5
27D
100
AcDbEntity
  8
_Y__________
  6
CONTINUOUS
 62
         7
100
AcDbCircle
 10
1424.6786999334
 20
-144.6863523772
 30
0.0
 40
2.5
100
AcDbArc
 50
180.0
 51
261.702778
  0
LINE
  5
27E
100
AcDbEntity
  8
_Y__________
  6
CONTINUOUS
 62
         7
100
AcDbLine
 10
1543.3786999334
 20
-161.6650166132
 30
0.0
 11
1558.0306999334
 21
-161.6650166132
 31
0.0
  0
LINE
  5
27F
100
AcDbEntity
  8
_Y__________
  6
CONTINUOUS
 62
         7
100
AcDbLine
 10
1543.3786999334
 20
-91.8150166132
 30
0.0
 11
1558.0306999334
 21
-91.8150166132
 31
0.0
  0
LINE
  5
280
100
AcDbEntity
  8
_Y__________
  6
CONTINUOUS
 62
         7
100
AcDbLine
 10
1526.9786999334
 20
-172.9900166132
 30
0.0
 11
1526.9786999334
 21
-173.9900166132
 31
0.0
  0
LINE
  5
281
100
AcDbEntity
  8
_Y__________
  6
CONTINUOUS
 62
         7
100
AcDbLine
 10
1542.8786999334
 20
-162.1650166132
 30
0.0
 11
1542.8786999334
 21
-173.9900166132
 31
0.0
  0
ARC
  5
282
100
AcDbEntity
  8
_Y__________
  6
CONTINUOUS
 62
         7
100
AcDbCircle
 10
1528.4786999334
 20
-173.9900166132
 30
0.0
 40
1.5
100
AcDbArc
 50
180.0
 51
270.0
  0
ARC
  5
283
100
AcDbEntity
  8
_Y__________
  6
CONTINUOUS
 62
         7
100
AcDbCircle
 10
1541.3786999334
 20
-173.9900166132
 30
0.0
 40
1.5
100
AcDbArc
 50
270.0
 51
360.0
  0
ARC
  5
284
100
AcDbEntity
  8
_Y__________
  6
CONTINUOUS
 62
         7
100
AcDbCircle
 10
1528.4786999334
 20
-79.4900166132
 30
0.0
 40
1.5
100
AcDbArc
 50
90.0
 51
180.0
  0
ARC
  5
285
100
AcDbEntity
  8
_Y__________
  6
CONTINUOUS
 62
         7
100
AcDbCircle
 10
1541.3786999334
 20
-79.4900166132
 30
0.0
 40
1.5
100
AcDbArc
 50
0.0
 51
90.0
  0
LINE
  5
286
100
AcDbEntity
  8
_Y__________
  6
CONTINUOUS
 62
         7
100
AcDbLine
 10
1540.3786999334
 20
-175.4900166132
 30
0.0
 11
1541.3786999334
 21
-175.4900166132
 31
0.0
  0
LINE
  5
287
100
AcDbEntity
  8
_Y__________
  6
CONTINUOUS
 62
         7
100
AcDbLine
 10
1528.4786999334
 20
-175.4900166132
 30
0.0
 11
1529.4786999334
 21
-175.4900166132
 31
0.0
  0
LINE
  5
288
100
AcDbEntity
  8
_Y__________
  6
CONTINUOUS
 62
         7
100
AcDbLine
 10
1542.8786999334
 20
-79.4900166132
 30
0.0
 11
1542.8786999334
 21
-91.3150166132
 31
0.0
  0
LINE
  5
289
100
AcDbEntity
  8
_Y__________
  6
CONTINUOUS
 62
         7
100
AcDbLine
 10
1540.3786999334
 20
-77.9900166132
 30
0.0
 11
1541.3786999334
 21
-77.9900166132
 31
0.0
  0
LINE
  5
28A
100
AcDbEntity
  8
_Y__________
  6
CONTINUOUS
 62
         7
100
AcDbLine
 10
1528.4786999334
 20
-77.9900166132
 30
0.0
 11
1529.4786999334
 21
-77.9900166132
 31
0.0
  0
LINE
  5
28B
100
AcDbEntity
  8
_Y__________
  6
CONTINUOUS
 62
         7
100
AcDbLine
 10
1526.9786999334
 20
-79.4900166132
 30
0.0
 11
1526.9786999334
 21
-80.4900166132
 31
0.0
  0
ARC
  5
28C
100
AcDbEntity
  8
_Y__________
  6
CONTINUOUS
 62
         7
100
AcDbCircle
 10
1543.3786999334
 20
-91.3150166132
 30
0.0
 40
0.5
100
AcDbArc
 50
180.0
 51
270.0
  0
ARC
  5
28D
100
AcDbEntity
  8
_Y__________
  6
CONTINUOUS
 62
         7
100
AcDbCircle
 10
1543.3786999334
 20
-162.1650166132
 30
0.0
 40
0.5
100
AcDbArc
 50
90.0
 51
180.0
  0
ARC
  5
28E
100
AcDbEntity
  8
_Y__________
  6
CONTINUOUS
 62
         7
100
AcDbCircle
 10
1543.3786999334
 20
76.8274144385
 30
0.0
 40
0.5
100
AcDbArc
 50
90.0
 51
180.0
  0
LINE
  5
28F
100
AcDbEntity
  8
_Y__________
  6
CONTINUOUS
 62
         7
100
AcDbLine
 10
1543.3786999334
 20
77.3274144385
 30
0.0
 11
1558.0306999334
 21
77.3274144385
 31
0.0
  0
LINE
  5
290
100
AcDbEntity
  8
_Y__________
  6
CONTINUOUS
 62
         7
100
AcDbLine
 10
1543.3786999334
 20
147.1774144385
 30
0.0
 11
1558.0306999334
 21
147.1774144385
 31
0.0
  0
ARC
  5
291
100
AcDbEntity
  8
_Y__________
  6
CONTINUOUS
 62
         7
100
AcDbCircle
 10
1543.3786999334
 20
147.6774144385
 30
0.0
 40
0.5
100
AcDbArc
 50
180.0
 51
270.0
  0
LINE
  5
292
100
AcDbEntity
  8
_Y__________
  6
CONTINUOUS
 62
         7
100
AcDbLine
 10
1526.9786999334
 20
159.5024144385
 30
0.0
 11
1526.9786999334
 21
158.5024144385
 31
0.0
  0
LINE
  5
293
100
AcDbEntity
  8
_Y__________
  6
CONTINUOUS
 62
         7
100
AcDbLine
 10
1528.4786999334
 20
161.0024144385
 30
0.0
 11
1529.4786999334
 21
161.0024144385
 31
0.0
  0
LINE
  5
294
100
AcDbEntity
  8
_Y__________
  6
CONTINUOUS
 62
         7
100
AcDbLine
 10
1540.3786999334
 20
161.0024144385
 30
0.0
 11
1541.3786999334
 21
161.0024144385
 31
0.0
  0
LINE
  5
295
100
AcDbEntity
  8
_Y__________
  6
CONTINUOUS
 62
         7
100
AcDbLine
 10
1542.8786999334
 20
159.5024144385
 30
0.0
 11
1542.8786999334
 21
147.6774144385
 31
0.0
  0
LINE
  5
296
100
AcDbEntity
  8
_Y__________
  6
CONTINUOUS
 62
         7
100
AcDbLine
 10
1528.4786999334
 20
63.5024144385
 30
0.0
 11
1529.4786999334
 21
63.5024144385
 31
0.0
  0
LINE
  5
297
100
AcDbEntity
  8
_Y__________
  6
CONTINUOUS
 62
         7
100
AcDbLine
 10
1540.3786999334
 20
63.5024144385
 30
0.0
 11
1541.3786999334
 21
63.5024144385
 31
0.0
  0
ARC
  5
298
100
AcDbEntity
  8
_Y__________
  6
CONTINUOUS
 62
         7
100
AcDbCircle
 10
1541.3786999334
 20
159.5024144385
 30
0.0
 40
1.5
100
AcDbArc
 50
0.0
 51
90.0
  0
ARC
  5
299
100
AcDbEntity
  8
_Y__________
  6
CONTINUOUS
 62
         7
100
AcDbCircle
 10
1528.4786999334
 20
159.5024144385
 30
0.0
 40
1.5
100
AcDbArc
 50
90.0
 51
180.0
  0
ARC
  5
29A
100
AcDbEntity
  8
_Y__________
  6
CONTINUOUS
 62
         7
100
AcDbCircle
 10
1541.3786999334
 20
65.0024144385
 30
0.0
 40
1.5
100
AcDbArc
 50
270.0
 51
360.0
  0
ARC
  5
29B
100
AcDbEntity
  8
_Y__________
  6
CONTINUOUS
 62
         7
100
AcDbCircle
 10
1528.4786999334
 20
65.0024144385
 30
0.0
 40
1.5
100
AcDbArc
 50
180.0
 51
270.0
  0
LINE
  5
29C
100
AcDbEntity
  8
_Y__________
  6
CONTINUOUS
 62
         7
100
AcDbLine
 10
1542.8786999334
 20
76.8274144385
 30
0.0
 11
1542.8786999334
 21
65.0024144385
 31
0.0
  0
LINE
  5
29D
100
AcDbEntity
  8
_Y__________
  6
CONTINUOUS
 62
         7
100
AcDbLine
 10
1526.9786999334
 20
66.0024144385
 30
0.0
 11
1526.9786999334
 21
65.0024144385
 31
0.0
  0
LINE
  5
29E
100
AcDbEntity
  8
_Y__________
  6
CONTINUOUS
 62
         7
100
AcDbLine
 10
1558.8306999334
 20
146.3774144385
 30
0.0
 11
1558.8306999334
 21
78.1274144385
 31
0.0
  0
ARC
  5
29F
100
AcDbEntity
  8
_Y__________
  6
CONTINUOUS
 62
         7
100
AcDbCircle
 10
1558.0306999334
 20
146.3774144385
 30
0.0
 40
0.8
100
AcDbArc
 50
0.0
 51
90.0000000003
  0
ARC
  5
2A0
100
AcDbEntity
  8
_Y__________
  6
CONTINUOUS
 62
         7
100
AcDbCircle
 10
1558.0306999334
 20
78.1274144385
 30
0.0
 40
0.8
100
AcDbArc
 50
269.9999999999
 51
360.0
  0
LINE
  5
2A1
100
AcDbEntity
  8
_Y__________
  6
CONTINUOUS
 62
         7
100
AcDbLine
 10
1558.0306999334
 20
147.1774144385
 30
0.0
 11
1557.0306999334
 21
147.1774144385
 31
0.0
  0
LINE
  5
2A2
100
AcDbEntity
  8
_Y__________
  6
CONTINUOUS
 62
         7
100
AcDbLine
 10
1558.0306999334
 20
77.3274144385
 30
0.0
 11
1557.0306999334
 21
77.3274144385
 31
0.0
  0
LINE
  5
2A3
100
AcDbEntity
  8
_Y__________
  6
CONTINUOUS
 62
         7
100
AcDbLine
 10
1558.8306999334
 20
-159.8650166132
 30
0.0
 11
1558.8306999334
 21
-160.8650166132
 31
0.0
  0
ARC
  5
2A4
100
AcDbEntity
  8
_Y__________
  6
CONTINUOUS
 62
         7
100
AcDbCircle
 10
1558.0306999334
 20
-160.8650166132
 30
0.0
 40
0.8
100
AcDbArc
 50
269.9999999999
 51
360.0
  0
ARC
  5
2A5
100
AcDbEntity
  8
_Y__________
  6
CONTINUOUS
 62
         7
100
AcDbCircle
 10
1558.0306999334
 20
-92.6150166132
 30
0.0
 40
0.8
100
AcDbArc
 50
0.0
 51
90.0000000003
  0
LINE
  5
2A6
100
AcDbEntity
  8
_Y__________
  6
CONTINUOUS
 62
         7
100
AcDbLine
 10
1558.8306999334
 20
-92.6150166132
 30
0.0
 11
1558.8306999334
 21
-93.6150166132
 31
0.0
  0
LINE
  5
2A7
100
AcDbEntity
  8
_Y__________
  6
CONTINUOUS
 62
         7
100
AcDbLine
 10
1558.0306999334
 20
-91.8150166132
 30
0.0
 11
1557.0306999334
 21
-91.8150166132
 31
0.0
  0
LINE
  5
2A8
100
AcDbEntity
  8
_Y__________
  6
CONTINUOUS
 62
         7
100
AcDbLine
 10
1558.0306999334
 20
-161.6650166132
 30
0.0
 11
1557.0306999334
 21
-161.6650166132
 31
0.0
  0
CIRCLE
  5
2A9
100
AcDbEntity
  8
_Y__________
  6
CONTINUOUS
 62
         7
100
AcDbCircle
 10
1534.8786999334
 20
112.2562679634
 30
0.0
 40
4.76
  0
LINE
  5
2AA
100
AcDbEntity
  8
_Y__________
  6
DASHED
 62
         2
100
AcDbLine
 10
1808.6340594905
 20
117.2524144385
 30
0.0
 11
1821.8480594905
 21
117.2524144385
 31
0.0
  0
LINE
  5
2AB
100
AcDbEntity
  8
_Y__________
  6
DASHED
 62
         2
100
AcDbLine
 10
1808.6340594905
 20
107.2524144385
 30
0.0
 11
1821.8480594905
 21
107.2524144385
 31
0.0
  0
LINE
  5
2AC
100
AcDbEntity
  8
_Y__________
  6
DASHED
 62
         2
100
AcDbLine
 10
1821.8480594905
 20
117.2524144385
 30
0.0
 11
1821.8480594905
 21
107.2524144385
 31
0.0
  0
LINE
  5
2AD
100
AcDbEntity
  8
_Y__________
  6
DASHED
 62
         2
100
AcDbLine
 10
1824.7348108365
 20
112.2524144385
 30
0.0
 11
1821.8480594905
 21
107.2524144385
 31
0.0
  0
LINE
  5
2AE
100
AcDbEntity
  8
_Y__________
  6
DASHED
 62
         2
100
AcDbLine
 10
1821.8480594905
 20
117.2524144385
 30
0.0
 11
1824.7348108365
 21
112.2524144385
 31
0.0
  0
LINE
  5
2AF
100
AcDbEntity
  8
_Y__________
  6
DASHED
 62
         2
100
AcDbLine
 10
1808.6340594905
 20
107.2524144385
 30
0.0
 11
1808.1340594905
 21
106.7524144385
 31
0.0
  0
LINE
  5
2B0
100
AcDbEntity
  8
_Y__________
  6
DASHED
 62
         2
100
AcDbLine
 10
1808.6340594905
 20
117.2524144385
 30
0.0
 11
1808.1340594905
 21
117.7524144385
 31
0.0
  0
LINE
  5
2B1
100
AcDbEntity
  8
_Y__________
  6
DASHED
 62
         2
100
AcDbLine
 10
1808.6340594905
 20
117.2524144385
 30
0.0
 11
1808.6340594905
 21
107.2524144385
 31
0.0
  0
CIRCLE
  5
2B2
100
AcDbEntity
  8
_Y__________
  6
CONTINUOUS
 62
         7
100
AcDbCircle
 10
1845.8340594905
 20
112.2524144385
 30
0.0
 40
34.925
  0
LINE
  5
2B3
100
AcDbEntity
  8
_Y__________
  6
CONTINUOUS
 62
         7
100
AcDbLine
 10
1277.6233403763
 20
99.9024144385
 30
0.0
 11
1278.1233403763
 21
99.4024144385
 31
0.0
  0
LINE
  5
2B4
100
AcDbEntity
  8
_Y__________
  6
CONTINUOUS
 62
         7
100
AcDbLine
 10
1278.1233403763
 20
125.1024144385
 30
0.0
 11
1277.6233403763
 21
124.6024144385
 31
0.0
  0
LINE
  5
2B5
100
AcDbEntity
  8
_Y__________
  6
CONTINUOUS
 62
         7
100
AcDbLine
 10
1203.9233403763
 20
124.6024144385
 30
0.0
 11
1203.4233403763
 21
125.1024144385
 31
0.0
  0
LINE
  5
2B6
100
AcDbEntity
  8
_Y__________
  6
CONTINUOUS
 62
         7
100
AcDbLine
 10
1203.4233403763
 20
99.4024144385
 30
0.0
 11
1203.9233403763
 21
99.9024144385
 31
0.0
  0
LINE
  5
2B7
100
AcDbEntity
  8
_Y__________
  6
CONTINUOUS
 62
         7
100
AcDbLine
 10
1286.664542757
 20
98.4024144385
 30
0.0
 11
1285.664542757
 21
99.4024144385
 31
0.0
  0
LINE
  5
2B8
100
AcDbEntity
  8
_Y__________
  6
CONTINUOUS
 62
         7
100
AcDbLine
 10
1285.664542757
 20
99.4024144385
 30
0.0
 11
1278.1233403763
 21
99.4024144385
 31
0.0
  0
LINE
  5
2B9
100
AcDbEntity
  8
_Y__________
  6
CONTINUOUS
 62
         7
100
AcDbLine
 10
1285.664542757
 20
125.1024144385
 30
0.0
 11
1278.1233403763
 21
125.1024144385
 31
0.0
  0
LINE
  5
2BA
100
AcDbEntity
  8
_Y__________
  6
CONTINUOUS
 62
         7
100
AcDbLine
 10
1277.6233403763
 20
99.9024144385
 30
0.0
 11
1277.6233403763
 21
124.6024144385
 31
0.0
  0
LINE
  5
2BB
100
AcDbEntity
  8
_Y__________
  6
CONTINUOUS
 62
         7
100
AcDbLine
 10
1194.1821379955
 20
125.1024144385
 30
0.0
 11
1203.4233403763
 21
125.1024144385
 31
0.0
  0
LINE
  5
2BC
100
AcDbEntity
  8
_Y__________
  6
CONTINUOUS
 62
         7
100
AcDbLine
 10
1193.1821379955
 20
126.1024144385
 30
0.0
 11
1194.1821379955
 21
125.1024144385
 31
0.0
  0
LINE
  5
2BD
100
AcDbEntity
  8
_Y__________
  6
CONTINUOUS
 62
         7
100
AcDbLine
 10
1193.1821379955
 20
98.4024144385
 30
0.0
 11
1194.1821379955
 21
99.4024144385
 31
0.0
  0
LINE
  5
2BE
100
AcDbEntity
  8
_Y__________
  6
CONTINUOUS
 62
         7
100
AcDbLine
 10
1194.1821379955
 20
99.4024144385
 30
0.0
 11
1203.4233403763
 21
99.4024144385
 31
0.0
  0
LINE
  5
2BF
100
AcDbEntity
  8
_Y__________
  6
CONTINUOUS
 62
         7
100
AcDbLine
 10
1203.9233403763
 20
99.9024144385
 30
0.0
 11
1203.9233403763
 21
124.6024144385
 31
0.0
  0
CIRCLE
  5
2C0
100
AcDbEntity
  8
_Y__________
  6
CONTINUOUS
 62
         7
100
AcDbCircle
 10
1239.9233403763
 20
112.2524144385
 30
0.0
 40
12.6589889012
  0
ARC
  5
2C1
100
AcDbEntity
  8
_Y__________
  6
CONTINUOUS
 62
         4
100
AcDbCircle
 10
1239.9233403763
 20
112.2524144385
 30
0.0
 40
12.0
100
AcDbArc
 50
278.1340859252
 51
549.6704111119
  0
CIRCLE
  5
2C2
100
AcDbEntity
  8
_Y__________
  6
CONTINUOUS
 62
         7
100
AcDbCircle
 10
1239.9233403763
 20
112.2524144385
 30
0.0
 40
10.3963414634
  0
CIRCLE
  5
2C3
100
AcDbEntity
  8
_Y__________
  6
CONTINUOUS
 62
         7
100
AcDbCircle
 10
1239.9233403763
 20
112.2524144385
 30
0.0
 40
20.3982925257
  0
CIRCLE
  5
2C4
100
AcDbEntity
  8
_Y__________
  6
CONTINUOUS
 62
         7
100
AcDbCircle
 10
1239.9233403763
 20
112.2524144385
 30
0.0
 40
34.925
  0
ARC
  5
2C5
100
AcDbEntity
  8
_Y__________
  6
CONTINUOUS
 62
         7
100
AcDbCircle
 10
1239.9233403763
 20
112.2524144385
 30
0.0
 40
48.75
100
AcDbArc
 50
196.5052120024
 51
343.4947879976
  0
LINE
  5
2C6
100
AcDbEntity
  8
_Y__________
  6
CENTER
 62
         1
100
AcDbLine
 10
1283.2887501132
 20
112.2524144385
 30
0.0
 11
1193.3587947809
 21
112.2524144385
 31
0.0
  0
ARC
  5
2C7
100
AcDbEntity
  8
_Y__________
  6
CONTINUOUS
 62
         7
100
AcDbCircle
 10
1239.9233403763
 20
112.2524144385
 30
0.0
 40
48.75
100
AcDbArc
 50
16.5052120024
 51
163.4947879976
  0
LINE
  5
2C8
100
AcDbEntity
  8
_Y__________
  6
CENTER
 62
         1
100
AcDbLine
 10
1239.9233403763
 20
165.6922817905
 30
0.0
 11
1239.9233403763
 21
50.6023837096
 31
0.0
  0
LINE
  5
2C9
100
AcDbEntity
  8
_Y__________
  6
CONTINUOUS
 62
         7
100
AcDbLine
 10
1800.0928571098
 20
99.4024144385
 30
0.0
 11
1807.6340594905
 21
99.4024144385
 31
0.0
  0
LINE
  5
2CA
100
AcDbEntity
  8
_Y__________
  6
CONTINUOUS
 62
         7
100
AcDbLine
 10
1799.0928571098
 20
98.4024144385
 30
0.0
 11
1800.0928571098
 21
99.4024144385
 31
0.0
  0
LINE
  5
2CB
100
AcDbEntity
  8
_Y__________
  6
CONTINUOUS
 62
         7
100
AcDbLine
 10
1800.0928571098
 20
125.1024144385
 30
0.0
 11
1807.6340594905
 21
125.1024144385
 31
0.0
  0
LINE
  5
2CC
100
AcDbEntity
  8
_Y__________
  6
CONTINUOUS
 62
         7
100
AcDbLine
 10
1799.0928571098
 20
126.1024144385
 30
0.0
 11
1800.0928571098
 21
125.1024144385
 31
0.0
  0
LINE
  5
2CD
100
AcDbEntity
  8
_Y__________
  6
CONTINUOUS
 62
         7
100
AcDbLine
 10
1808.1340594905
 20
124.6024144385
 30
0.0
 11
1808.1340594905
 21
99.9024144385
 31
0.0
  0
LINE
  5
2CE
100
AcDbEntity
  8
_Y__________
  6
CONTINUOUS
 62
         7
100
AcDbLine
 10
1807.6340594905
 20
125.1024144385
 30
0.0
 11
1808.1340594905
 21
124.6024144385
 31
0.0
  0
LINE
  5
2CF
100
AcDbEntity
  8
_Y__________
  6
CONTINUOUS
 62
         7
100
AcDbLine
 10
1808.1340594905
 20
99.9024144385
 30
0.0
 11
1807.6340594905
 21
99.4024144385
 31
0.0
  0
LINE
  5
2D0
100
AcDbEntity
  8
_Y__________
  6
CONTINUOUS
 62
         7
100
AcDbLine
 10
1881.3340594905
 20
99.9024144385
 30
0.0
 11
1881.8340594905
 21
99.4024144385
 31
0.0
  0
LINE
  5
2D1
100
AcDbEntity
  8
_Y__________
  6
CONTINUOUS
 62
         7
100
AcDbLine
 10
1881.3340594905
 20
124.6024144385
 30
0.0
 11
1881.8340594905
 21
125.1024144385
 31
0.0
  0
LINE
  5
2D2
100
AcDbEntity
  8
_Y__________
  6
CONTINUOUS
 62
         7
100
AcDbLine
 10
1891.5752618713
 20
99.4024144385
 30
0.0
 11
1881.8340594905
 21
99.4024144385
 31
0.0
  0
LINE
  5
2D3
100
AcDbEntity
  8
_Y__________
  6
CONTINUOUS
 62
         7
100
AcDbLine
 10
1892.5752618713
 20
98.4024144385
 30
0.0
 11
1891.5752618713
 21
99.4024144385
 31
0.0
  0
LINE
  5
2D4
100
AcDbEntity
  8
_Y__________
  6
CONTINUOUS
 62
         7
100
AcDbLine
 10
1892.5752618713
 20
126.1024144385
 30
0.0
 11
1891.5752618713
 21
125.1024144385
 31
0.0
  0
LINE
  5
2D5
100
AcDbEntity
  8
_Y__________
  6
CONTINUOUS
 62
         7
100
AcDbLine
 10
1891.5752618713
 20
125.1024144385
 30
0.0
 11
1881.8340594905
 21
125.1024144385
 31
0.0
  0
LINE
  5
2D6
100
AcDbEntity
  8
_Y__________
  6
CONTINUOUS
 62
         7
100
AcDbLine
 10
1881.3340594905
 20
124.6024144385
 30
0.0
 11
1881.3340594905
 21
99.9024144385
 31
0.0
  0
LINE
  5
2D7
100
AcDbEntity
  8
_Y__________
  6
CENTER
 62
         1
100
AcDbLine
 10
1845.8340594905
 20
57.5024144385
 30
0.0
 11
1845.8340594905
 21
164.4170373134
 31
0.0
  0
LINE
  5
2D8
100
AcDbEntity
  8
_Y__________
  6
CENTER
 62
         1
100
AcDbLine
 10
1791.0840594905
 20
112.2524144385
 30
0.0
 11
1900.5840594905
 21
112.2524144385
 31
0.0
  0
ARC
  5
2D9
100
AcDbEntity
  8
_Y__________
  6
CONTINUOUS
 62
         7
100
AcDbCircle
 10
1845.8340594905
 20
112.2524144385
 30
0.0
 40
48.75
100
AcDbArc
 50
196.5052120024
 51
343.4947879976
  0
ARC
  5
2DA
100
AcDbEntity
  8
_Y__________
  6
DASHED
 62
         2
100
AcDbCircle
 10
1845.8340594905
 20
112.2524144385
 30
0.0
 40
45.625
100
AcDbArc
 50
16.3583384794
 51
163.6416615206
  0
ARC
  5
2DB
100
AcDbEntity
  8
_Y__________
  6
CONTINUOUS
 62
         7
100
AcDbCircle
 10
1845.8340594905
 20
112.2524144385
 30
0.0
 40
48.75
100
AcDbArc
 50
16.5052120024
 51
163.4947879976
  0
ARC
  5
2DC
100
AcDbEntity
  8
_Y__________
  6
DASHED
 62
         2
100
AcDbCircle
 10
1845.8340594905
 20
112.2524144385
 30
0.0
 40
45.625
100
AcDbArc
 50
197.6716498685
 51
343.6416615206
  0
LINE
  5
2DD
100
AcDbEntity
  8
_Y__________
  6
CONTINUOUS
 62
         7
100
AcDbLine
 10
1531.3424295346
 20
161.0024144385
 30
0.0
 11
1531.3424295346
 21
126.1024144385
 31
0.0
  0
LINE
  5
2DE
100
AcDbEntity
  8
_Y__________
  6
CONTINUOUS
 62
         7
100
AcDbLine
 10
1533.0036999334
 20
158.125024977
 30
0.0
 11
1533.0036999334
 21
125.0823202736
 31
0.0
  0
LINE
  5
2DF
100
AcDbEntity
  8
_Y__________
  6
CONTINUOUS
 62
         7
100
AcDbLine
 10
1536.7536999334
 20
158.125024977
 30
0.0
 11
1536.7536999334
 21
125.0823202736
 31
0.0
  0
LINE
  5
2E0
100
AcDbEntity
  8
_Y__________
  6
CONTINUOUS
 62
         7
100
AcDbLine
 10
1538.4149703322
 20
161.0024144385
 30
0.0
 11
1538.4149703322
 21
126.1024144385
 31
0.0
  0
LINE
  5
2E1
100
AcDbEntity
  8
_Y__________
  6
CONTINUOUS
 62
         7
100
AcDbLine
 10
1542.7786999334
 20
126.1024144385
 30
0.0
 11
1541.7586057685
 21
125.0823202736
 31
0.0
  0
LINE
  5
2E2
100
AcDbEntity
  8
_Y__________
  6
CONTINUOUS
 62
         7
100
AcDbLine
 10
1536.7536999334
 20
125.0823202736
 30
0.0
 11
1538.4149703322
 21
126.1024144385
 31
0.0
  0
LINE
  5
2E3
100
AcDbEntity
  8
_Y__________
  6
CONTINUOUS
 62
         7
100
AcDbLine
 10
1541.7586057685
 20
125.0823202736
 30
0.0
 11
1527.9987940983
 21
125.0823202736
 31
0.0
  0
LINE
  5
2E4
100
AcDbEntity
  8
_Y__________
  6
CONTINUOUS
 62
         7
100
AcDbLine
 10
1541.7586057685
 20
125.0823202736
 30
0.0
 11
1527.9987940983
 21
125.0823202736
 31
0.0
  0
LINE
  5
2E5
100
AcDbEntity
  8
_Y__________
  6
CONTINUOUS
 62
         7
100
AcDbLine
 10
1531.3424295346
 20
126.1024144385
 30
0.0
 11
1526.9786999334
 21
126.1024144385
 31
0.0
  0
LINE
  5
2E6
100
AcDbEntity
  8
_Y__________
  6
CONTINUOUS
 62
         7
100
AcDbLine
 10
1526.9786999334
 20
126.1024144385
 30
0.0
 11
1527.9987940983
 21
125.0823202736
 31
0.0
  0
LINE
  5
2E7
100
AcDbEntity
  8
_Y__________
  6
CONTINUOUS
 62
         7
100
AcDbLine
 10
1531.3424295346
 20
126.1024144385
 30
0.0
 11
1533.0036999334
 21
125.0823202736
 31
0.0
  0
LINE
  5
2E8
100
AcDbEntity
  8
_Y__________
  6
CONTINUOUS
 62
         7
100
AcDbLine
 10
1542.8786999334
 20
126.1024144385
 30
0.0
 11
1538.4149703322
 21
126.1024144385
 31
0.0
  0
LINE
  5
2E9
100
AcDbEntity
  8
_Y__________
  6
CONTINUOUS
 62
         7
100
AcDbLine
 10
1531.3424295346
 20
98.4024144385
 30
0.0
 11
1531.3424295346
 21
63.5024144385
 31
0.0
  0
LINE
  5
2EA
100
AcDbEntity
  8
_Y__________
  6
CONTINUOUS
 62
         7
100
AcDbLine
 10
1533.0036999334
 20
99.4225086035
 30
0.0
 11
1533.0036999334
 21
66.3798039001
 31
0.0
  0
LINE
  5
2EB
100
AcDbEntity
  8
_Y__________
  6
CONTINUOUS
 62
         7
100
AcDbLine
 10
1536.7536999334
 20
99.4225086035
 30
0.0
 11
1536.7536999334
 21
66.3798039001
 31
0.0
  0
LINE
  5
2EC
100
AcDbEntity
  8
_Y__________
  6
CONTINUOUS
 62
         7
100
AcDbLine
 10
1538.4149703322
 20
98.4024144385
 30
0.0
 11
1538.4149703322
 21
63.5024144385
 31
0.0
  0
LINE
  5
2ED
100
AcDbEntity
  8
_Y__________
  6
CONTINUOUS
 62
         7
100
AcDbLine
 10
1542.7786999334
 20
98.4024144385
 30
0.0
 11
1541.7586057685
 21
99.4225086035
 31
0.0
  0
LINE
  5
2EE
100
AcDbEntity
  8
_Y__________
  6
CONTINUOUS
 62
         7
100
AcDbLine
 10
1536.7536999334
 20
99.4225086035
 30
0.0
 11
1538.4149703322
 21
98.4024144385
 31
0.0
  0
LINE
  5
2EF
100
AcDbEntity
  8
_Y__________
  6
CONTINUOUS
 62
         7
100
AcDbLine
 10
1541.7586057685
 20
99.4225086035
 30
0.0
 11
1527.9987940983
 21
99.4225086035
 31
0.0
  0
LINE
  5
2F0
100
AcDbEntity
  8
_Y__________
  6
CONTINUOUS
 62
         7
100
AcDbLine
 10
1541.7586057685
 20
99.4225086035
 30
0.0
 11
1527.9987940983
 21
99.4225086035
 31
0.0
  0
LINE
  5
2F1
100
AcDbEntity
  8
_Y__________
  6
CONTINUOUS
 62
         7
100
AcDbLine
 10
1531.3424295346
 20
98.4024144385
 30
0.0
 11
1533.0036999334
 21
99.4225086035
 31
0.0
  0
LINE
  5
2F2
100
AcDbEntity
  8
_Y__________
  6
CONTINUOUS
 62
         7
100
AcDbLine
 10
1526.9786999334
 20
98.4024144385
 30
0.0
 11
1527.9987940983
 21
99.4225086035
 31
0.0
  0
LINE
  5
2F3
100
AcDbEntity
  8
_Y__________
  6
CONTINUOUS
 62
         7
100
AcDbLine
 10
1531.3424295346
 20
98.4024144385
 30
0.0
 11
1526.9786999334
 21
98.4024144385
 31
0.0
  0
LINE
  5
2F4
100
AcDbEntity
  8
_Y__________
  6
CONTINUOUS
 62
         7
100
AcDbLine
 10
1542.8786999334
 20
98.4024144385
 30
0.0
 11
1538.4149703322
 21
98.4024144385
 31
0.0
  0
ARC
  5
2F5
100
AcDbEntity
  8
L1_150
  6
CONTINUOUS
 62
         4
100
AcDbCircle
 10
1845.8340594905
 20
112.2524144385
 30
0.0
 40
11.11
100
AcDbArc
 50
180.0
 51
450.0
  0
CIRCLE
  5
2F6
100
AcDbEntity
  8
L1_150
  6
CONTINUOUS
 62
         7
100
AcDbCircle
 10
1845.8340594905
 20
112.2524144385
 30
0.0
 40
10.245
  0
CIRCLE
  5
2F7
100
AcDbEntity
  8
L1_150
  6
CONTINUOUS
 62
         7
100
AcDbCircle
 10
1845.8340594905
 20
112.2524144385
 30
0.0
 40
12.5
  0
ARC
  5
2F8
100
AcDbEntity
  8
L1_150
  6
CONTINUOUS
 62
         4
100
AcDbCircle
 10
1845.8340594905
 20
112.2524144385
 30
0.0
 40
19.0
100
AcDbArc
 50
165.9957742927
 51
464.626061893
  0
CIRCLE
  5
2F9
100
AcDbEntity
  8
L1_150
  6
CONTINUOUS
 62
         7
100
AcDbCircle
 10
1845.8340594905
 20
112.2524144385
 30
0.0
 40
16.0
  0
CIRCLE
  5
2FA
100
AcDbEntity
  8
L1_150
  6
CONTINUOUS
 62
         7
100
AcDbCircle
 10
1845.8340594905
 20
112.2524144385
 30
0.0
 40
20.0
  0
LINE
  5
2FB
100
AcDbEntity
  8
L1_150
  6
CENTER
 62
         1
100
AcDbLine
 10
1818.4561993217
 20
112.2524144385
 30
0.0
 11
1872.830161162
 21
112.2524144385
 31
0.0
  0
LINE
  5
2FC
100
AcDbEntity
  8
L1_150
  6
CENTER
 62
         1
100
AcDbLine
 10
1845.8340594905
 20
140.357150312
 30
0.0
 11
1845.8340594905
 21
85.6120351486
 31
0.0
  0
CIRCLE
  5
2FD
100
AcDbEntity
  8
L1_150
  6
CONTINUOUS
 62
         7
100
AcDbCircle
 10
1845.8340594905
 20
112.2524144385
 30
0.0
 40
24.95
  0
LINE
  5
2FE
100
AcDbEntity
  8
L1_150
  6
CONTINUOUS
 62
         7
100
AcDbLine
 10
1422.1786999334
 20
130.1987502026
 30
0.0
 11
1422.1786999334
 21
94.3060786745
 31
0.0
  0
LINE
  5
2FF
100
AcDbEntity
  8
L1_150
  6
CONTINUOUS
 62
         7
100
AcDbLine
 10
1526.9786999334
 20
159.5024144385
 30
0.0
 11
1526.9786999334
 21
65.0024144385
 31
0.0
  0
LINE
  5
300
100
AcDbEntity
  8
L1_150
  6
CENTER
 62
         1
100
AcDbLine
 10
1523.7786999334
 20
151.9774144385
 30
0.0
 11
1523.7786999334
 21
73.981360093
 31
0.0
  0
DIMENSION
  5
304
100
AcDbEntity
  8
L1_150
  6
CONTINUOUS
 62
         4
100
AcDbDimension
  2
*D1
 10
1422.1786999334
 20
220.3545305446
 30
0.0
 11
1537.5972082774
 21
222.9795305446
 31
0.0
  3
DIMSTYLE1
100
AcDbAlignedDimension
 13
1422.1786999334
 23
130.1987502026
 33
0.0
 14
1660.7786999334
 24
112.2524144385
 34
0.0
100
AcDbRotatedDimension
  0
DIMENSION
  5
313
100
AcDbEntity
  8
L1_150
  6
CONTINUOUS
 62
         4
100
AcDbDimension
  2
*D2
 10
1660.7786999334
 20
212.3621219429
 30
0.0
 11
1588.1565101238
 21
214.9871219429
 31
0.0
  3
DIMSTYLE1
100
AcDbAlignedDimension
 13
1660.7786999334
 23
112.2524144385
 33
0.0
 14
1523.7786999334
 24
151.9774144385
 34
0.0
100
AcDbRotatedDimension
  0
DIMENSION
  5
321
100
AcDbEntity
  8
L1_150
  6
CONTINUOUS
 62
         4
100
AcDbDimension
  2
*D3
 10
1642.2786999334
 20
73.3012367816
 30
0.0
 11
1642.2397977787
 21
75.9262367816
 31
0.0
  3
DIMSTYLE1
100
AcDbAlignedDimension
 13
1642.2786999334
 23
93.2524144385
 33
0.0
 14
1660.7786999334
 24
93.2524144385
 34
0.0
100
AcDbRotatedDimension
  0
DIMENSION
  5
32F
100
AcDbEntity
  8
L1_150
  6
CONTINUOUS
 62
         4
100
AcDbDimension
  2
*D4
 10
1680.3062928797
 20
137.2024144385
 30
0.0
 11
1677.6812928797
 21
104.2661269826
 31
0.0
  3
DIMSTYLE1
100
AcDbAlignedDimension
 13
1639.4176974549
 23
137.2024144385
 33
0.0
 14
1639.4176974549
 24
87.3024144385
 34
0.0
 50
90.0
100
AcDbRotatedDimension
  0
LINE
  5
33B
100
AcDbEntity
  8
L1_150
  6
CONTINUOUS
 62
         7
100
AcDbLine
 10
1563.8306999334
 20
87.3024144385
 30
0.0
 11
1641.7786999334
 21
87.3024144385
 31
0.0
  0
LINE
  5
33C
100
AcDbEntity
  8
L1_150
  6
CONTINUOUS
 62
         7
100
AcDbLine
 10
1658.7786999334
 20
92.2524144385
 30
0.0
 11
1642.7786999334
 21
92.2524144385
 31
0.0
  0
LINE
  5
33D
100
AcDbEntity
  8
L1_150
  6
CONTINUOUS
 62
         7
100
AcDbLine
 10
1658.7786999334
 20
132.2524144385
 30
0.0
 11
1642.7786999334
 21
132.2524144385
 31
0.0
  0
LINE
  5
33E
100
AcDbEntity
  8
L1_150
  6
CENTER
 62
         1
100
AcDbLine
 10
1552.926208515
 20
112.2524144385
 30
0.0
 11
1663.2986520234
 21
112.2524144385
 31
0.0
  0
LINE
  5
33F
100
AcDbEntity
  8
L1_150
  6
CONTINUOUS
 62
         7
100
AcDbLine
 10
1660.7786999334
 20
94.2524144385
 30
0.0
 11
1660.7786999334
 21
130.2524144385
 31
0.0
  0
LINE
  5
340
100
AcDbEntity
  8
L1_150
  6
CONTINUOUS
 62
         7
100
AcDbLine
 10
1563.8306999334
 20
137.2024144385
 30
0.0
 11
1641.7786999334
 21
137.2024144385
 31
0.0
  0
LINE
  5
341
100
AcDbEntity
  8
L1_150
  6
CONTINUOUS
 62
         4
100
AcDbLine
 10
1644.7786999334
 20
131.2524144385
 30
0.0
 11
1660.510750741
 21
131.2524144385
 31
0.0
  0
LINE
  5
342
100
AcDbEntity
  8
L1_150
  6
CONTINUOUS
 62
         4
100
AcDbLine
 10
1644.7786999334
 20
93.2524144385
 30
0.0
 11
1660.510750741
 21
93.2524144385
 31
0.0
  0
LINE
  5
343
100
AcDbEntity
  8
L1_150
  6
CONTINUOUS
 62
         7
100
AcDbLine
 10
1644.7786999334
 20
92.2524144385
 30
0.0
 11
1644.7786999334
 21
132.2524144385
 31
0.0
  0
ARC
  5
344
100
AcDbEntity
  8
L1_150
  6
CONTINUOUS
 62
         7
100
AcDbCircle
 10
1658.7786999334
 20
130.2524144385
 30
0.0
 40
2.0
100
AcDbArc
 50
0.0
 51
90.0
  0
ARC
  5
345
100
AcDbEntity
  8
L1_150
  6
CONTINUOUS
 62
         7
100
AcDbCircle
 10
1658.7786999334
 20
94.2524144385
 30
0.0
 40
2.0
100
AcDbArc
 50
270.0
 51
360.0
  0
LINE
  5
346
100
AcDbEntity
  8
L1_150
  6
CONTINUOUS
 62
         7
100
AcDbLine
 10
1658.7786999334
 20
-106.7400166132
 30
0.0
 11
1642.5801010951
 21
-106.7400166132
 31
0.0
  0
LINE
  5
347
100
AcDbEntity
  8
L1_150
  6
CONTINUOUS
 62
         7
100
AcDbLine
 10
1658.7786999334
 20
-146.7400166132
 30
0.0
 11
1642.5801010951
 21
-146.7400166132
 31
0.0
  0
LINE
  5
348
100
AcDbEntity
  8
L1_150
  6
CONTINUOUS
 62
         7
100
AcDbLine
 10
1563.8306999334
 20
-151.6900166132
 30
0.0
 11
1641.5801010951
 21
-151.6900166132
 31
0.0
  0
LINE
  5
349
100
AcDbEntity
  8
L1_150
  6
CONTINUOUS
 62
         7
100
AcDbLine
 10
1563.8306999334
 20
-101.7900166132
 30
0.0
 11
1641.5801010951
 21
-101.7900166132
 31
0.0
  0
LINE
  5
34A
100
AcDbEntity
  8
L1_150
  6
CONTINUOUS
 62
         7
100
AcDbLine
 10
1660.7786999334
 20
-144.7400166132
 30
0.0
 11
1660.7786999334
 21
-108.7400166132
 31
0.0
  0
LINE
  5
34B
100
AcDbEntity
  8
L1_150
  6
CONTINUOUS
 62
         7
100
AcDbLine
 10
1644.7786999334
 20
-146.7400166132
 30
0.0
 11
1644.7786999334
 21
-145.7400166132
 31
0.0
  0
LINE
  5
34C
100
AcDbEntity
  8
L1_150
  6
CONTINUOUS
 62
         4
100
AcDbLine
 10
1644.7786999334
 20
-107.7400166132
 30
0.0
 11
1660.510750741
 21
-107.7400166132
 31
0.0
  0
LINE
  5
34D
100
AcDbEntity
  8
L1_150
  6
CONTINUOUS
 62
         4
100
AcDbLine
 10
1644.7786999334
 20
-145.7400166132
 30
0.0
 11
1660.510750741
 21
-145.7400166132
 31
0.0
  0
LINE
  5
34E
100
AcDbEntity
  8
L1_150
  6
CONTINUOUS
 62
         7
100
AcDbLine
 10
1644.7786999334
 20
-107.7400166132
 30
0.0
 11
1644.7786999334
 21
-106.7400166132
 31
0.0
  0
LINE
  5
34F
100
AcDbEntity
  8
L1_150
  6
CENTER
 62
         1
100
AcDbLine
 10
1640.787114886
 20
-126.7400166132
 30
0.0
 11
1662.9879634981
 21
-126.7400166132
 31
0.0
  0
DIMENSION
  5
352
100
AcDbEntity
  8
L1_150
  6
CONTINUOUS
 62
         4
100
AcDbDimension
  2
*D5
 10
1644.7786999334
 20
-166.8906981656
 30
0.0
 11
1646.7261895042
 21
-164.2656981656
 31
0.0
  3
DIMSTYLE1
100
AcDbAlignedDimension
 13
1644.7786999334
 23
-145.7400166132
 33
0.0
 14
1660.7786999334
 24
-145.7400166132
 34
0.0
100
AcDbRotatedDimension
  0
ARC
  5
35E
100
AcDbEntity
  8
L1_150
  6
CONTINUOUS
 62
         7
100
AcDbCircle
 10
1658.7786999334
 20
-108.7400166132
 30
0.0
 40
2.0
100
AcDbArc
 50
0.0
 51
90.0
  0
ARC
  5
35F
100
AcDbEntity
  8
L1_150
  6
CONTINUOUS
 62
         7
100
AcDbCircle
 10
1658.7786999334
 20
-144.7400166132
 30
0.0
 40
2.0
100
AcDbArc
 50
270.0
 51
360.0
  0
LINE
  5
360
100
AcDbEntity
  8
L1_150
  6
CENTER
 62
         1
100
AcDbLine
 10
1542.8786999334
 20
-126.7400166132
 30
0.0
 11
1662.9879634981
 21
-126.7400166132
 31
0.0
  0
LINE
  5
361
100
AcDbEntity
  8
L1_150
  6
CONTINUOUS
 62
         7
100
AcDbLine
 10
1659.4874595848
 20
-110.9214886096
 30
0.0
 11
1632.67298953
 21
-114.6900166132
 31
0.0
  0
LINE
  5
362
100
AcDbEntity
  8
L1_150
  6
CONTINUOUS
 62
         4
100
AcDbLine
 10
1659.4874595848
 20
-142.5585446168
 30
0.0
 11
1659.4874595848
 21
-110.9214886096
 31
0.0
  0
LINE
  5
363
100
AcDbEntity
  8
L1_150
  6
CONTINUOUS
 62
         7
100
AcDbLine
 10
1550.7786999334
 20
-138.6462666132
 30
0.0
 11
1550.7786999334
 21
-114.8337666132
 31
0.0
  0
LINE
  5
364
100
AcDbEntity
  8
L1_150
  6
CONTINUOUS
 62
         7
100
AcDbLine
 10
1540.7786999334
 20
-138.0500166132
 30
0.0
 11
1540.7786999334
 21
-115.4300166132
 31
0.0
  0
LINE
  5
365
100
AcDbEntity
  8
L1_150
  6
CONTINUOUS
 62
         7
100
AcDbLine
 10
1659.4874595848
 20
-142.5585446168
 30
0.0
 11
1632.67298953
 21
-138.7900166132
 31
0.0
  0
ARC
  5
366
100
AcDbEntity
  8
L1_150
  6
CONTINUOUS
 62
         7
100
AcDbCircle
 10
1659.2786999334
 20
-109.4360865065
 30
0.0
 40
1.5
100
AcDbArc
 50
278.0
 51
360.0
  0
ARC
  5
367
100
AcDbEntity
  8
L1_150
  6
CONTINUOUS
 62
         7
100
AcDbCircle
 10
1659.2786999334
 20
-144.0439467199
 30
0.0
 40
1.5
100
AcDbArc
 50
0.0
 51
82.0
  0
ARC
  5
368
100
AcDbEntity
  8
L1_150
  6
CONTINUOUS
 62
         7
100
AcDbCircle
 10
1563.8306999334
 20
142.2024144385
 30
0.0
 40
5.0
100
AcDbArc
 50
180.0
 51
270.0
  0
ARC
  5
369
100
AcDbEntity
  8
L1_150
  6
CONTINUOUS
 62
         7
100
AcDbCircle
 10
1563.8306999334
 20
82.3024144385
 30
0.0
 40
5.0
100
AcDbArc
 50
90.0
 51
180.0
  0
LINE
  5
36A
100
AcDbEntity
  8
L1_150
  6
CONTINUOUS
 62
         7
100
AcDbLine
 10
1558.8306999334
 20
-160.8650166132
 30
0.0
 11
1558.8306999334
 21
-156.6900166132
 31
0.0
  0
LINE
  5
36B
100
AcDbEntity
  8
L1_150
  6
CONTINUOUS
 62
         7
100
AcDbLine
 10
1558.8306999334
 20
-96.7900166132
 30
0.0
 11
1558.8306999334
 21
-92.6150166132
 31
0.0
  0
ARC
  5
36C
100
AcDbEntity
  8
L1_150
  6
CONTINUOUS
 62
         7
100
AcDbCircle
 10
1563.8306999334
 20
-96.7900166132
 30
0.0
 40
5.0
100
AcDbArc
 50
180.0
 51
270.0
  0
ARC
  5
36D
100
AcDbEntity
  8
L1_150
  6
CONTINUOUS
 62
         7
100
AcDbCircle
 10
1563.8306999334
 20
-156.6900166132
 30
0.0
 40
5.0
100
AcDbArc
 50
90.0
 51
180.0
  0
LINE
  5
36E
100
AcDbEntity
  8
L1_150
  6
CONTINUOUS
 62
         7
100
AcDbLine
 10
1540.7786999334
 20
-116.3436751498
 30
0.0
 11
1460.8310800517
 21
-116.3436751498
 31
0.0
  0
LINE
  5
36F
100
AcDbEntity
  8
L1_150
  6
CONTINUOUS
 62
         7
100
AcDbLine
 10
1540.7786999334
 20
-137.1363580766
 30
0.0
 11
1460.8310800517
 21
-137.1363580766
 31
0.0
  0
LINE
  5
370
100
AcDbEntity
  8
L1_150
  6
CENTER
 62
         6
100
AcDbLine
 10
1660.7786999334
 20
-105.7400166132
 30
0.0
 11
1644.7786999334
 21
-105.7400166132
 31
0.0
  0
LINE
  5
371
100
AcDbEntity
  8
L1_150
  6
CENTER
 62
         6
100
AcDbLine
 10
1660.7786999334
 20
-147.7400166132
 30
0.0
 11
1644.7786999334
 21
-147.7400166132
 31
0.0
  0
CIRCLE
  5
372
100
AcDbEntity
  8
L1_150
  6
CONTINUOUS
 62
         7
100
AcDbCircle
 10
1808.1766534559
 20
-32.67665468
 30
0.0
 40
11.905
  0
CIRCLE
  5
373
100
AcDbEntity
  8
L1_150
  6
CONTINUOUS
 62
         7
100
AcDbCircle
 10
1808.1766534559
 20
-32.67665468
 30
0.0
 40
10.4948350988
  0
LINE
  5
374
100
AcDbEntity
  8
L1_150
  6
CENTER
 62
         1
100
AcDbLine
 10
1821.5833401171
 20
-32.67665468
 30
0.0
 11
1793.6676985474
 21
-32.67665468
 31
0.0
  0
LINE
  5
375
100
AcDbEntity
  8
L1_150
  6
CENTER
 62
         1
100
AcDbLine
 10
1808.1766534559
 20
-46.55057606
 30
0.0
 11
1808.1766534559
 21
-17.9473571118
 31
0.0
  0
DIMENSION
  5
379
100
AcDbEntity
  8
L1_150
  6
CONTINUOUS
 62
         4
100
AcDbDimension
  2
*D6
 10
1853.3003668935
 20
-20.77165468
 30
0.0
 11
1851.2753668935
 21
-44.9825909981
 31
0.0
  3
DIMSTYLE2
100
AcDbAlignedDimension
 13
1835.0976391328
 23
-20.77165468
 33
0.0
 14
1835.0976391328
 24
-44.58165468
 34
0.0
 50
90.0
100
AcDbRotatedDimension
  0
LINE
  5
385
100
AcDbEntity
  8
L1_150
  6
CONTINUOUS
 62
         7
100
AcDbLine
 10
1838.0726391328
 20
-43.10665468
 30
0.0
 11
1838.0726391328
 21
-22.24665468
 31
0.0
  0
LINE
  5
386
100
AcDbEntity
  8
L1_150
  6
CONTINUOUS
 62
         7
100
AcDbLine
 10
1825.5726391328
 20
-42.60665468
 30
0.0
 11
1825.5726391328
 21
-22.74665468
 31
0.0
  0
LINE
  5
387
100
AcDbEntity
  8
L1_150
  6
CONTINUOUS
 62
         7
100
AcDbLine
 10
1838.5726391328
 20
-42.60665468
 30
0.0
 11
1838.5726391328
 21
-22.74665468
 31
0.0
  0
LINE
  5
388
100
AcDbEntity
  8
L1_150
  6
CONTINUOUS
 62
         7
100
AcDbLine
 10
1838.0726391328
 20
-43.10665468
 30
0.0
 11
1838.5726391328
 21
-42.60665468
 31
0.0
  0
LINE
  5
389
100
AcDbEntity
  8
L1_150
  6
CONTINUOUS
 62
         7
100
AcDbLine
 10
1826.0726391328
 20
-43.10665468
 30
0.0
 11
1825.5726391328
 21
-42.60665468
 31
0.0
  0
LINE
  5
38A
100
AcDbEntity
  8
L1_150
  6
CONTINUOUS
 62
         7
100
AcDbLine
 10
1838.0726391328
 20
-22.24665468
 30
0.0
 11
1838.5726391328
 21
-22.74665468
 31
0.0
  0
LINE
  5
38B
100
AcDbEntity
  8
L1_150
  6
CONTINUOUS
 62
         7
100
AcDbLine
 10
1826.0726391328
 20
-22.24665468
 30
0.0
 11
1825.5726391328
 21
-22.74665468
 31
0.0
  0
LINE
  5
38C
100
AcDbEntity
  8
L1_150
  6
CONTINUOUS
 62
         7
100
AcDbLine
 10
1827.5726391328
 20
-43.10665468
 30
0.0
 11
1827.5726391328
 21
-22.24665468
 31
0.0
  0
LINE
  5
38D
100
AcDbEntity
  8
L1_150
  6
CONTINUOUS
 62
         7
100
AcDbLine
 10
1836.5726391328
 20
-43.10665468
 30
0.0
 11
1836.5726391328
 21
-22.24665468
 31
0.0
  0
LINE
  5
38E
100
AcDbEntity
  8
L1_150
  6
CONTINUOUS
 62
         7
100
AcDbLine
 10
1826.0726391328
 20
-43.10665468
 30
0.0
 11
1826.0726391328
 21
-22.24665468
 31
0.0
  0
LINE
  5
38F
100
AcDbEntity
  8
L1_150
  6
CONTINUOUS
 62
         7
100
AcDbLine
 10
1835.0976391328
 20
-44.58165468
 30
0.0
 11
1836.5726391328
 21
-43.10665468
 31
0.0
  0
LINE
  5
390
100
AcDbEntity
  8
L1_150
  6
CONTINUOUS
 62
         7
100
AcDbLine
 10
1836.5726391328
 20
-43.10665468
 30
0.0
 11
1838.0726391328
 21
-43.10665468
 31
0.0
  0
LINE
  5
391
100
AcDbEntity
  8
L1_150
  6
CONTINUOUS
 62
         7
100
AcDbLine
 10
1826.0726391328
 20
-43.10665468
 30
0.0
 11
1827.5726391328
 21
-43.10665468
 31
0.0
  0
LINE
  5
392
100
AcDbEntity
  8
L1_150
  6
CONTINUOUS
 62
         4
100
AcDbLine
 10
1828.2576391328
 20
-43.79165468
 30
0.0
 11
1835.8876391328
 21
-43.79165468
 31
0.0
  0
LINE
  5
393
100
AcDbEntity
  8
L1_150
  6
CONTINUOUS
 62
         7
100
AcDbLine
 10
1826.0726391328
 20
-22.24665468
 30
0.0
 11
1827.5726391328
 21
-22.24665468
 31
0.0
  0
LINE
  5
394
100
AcDbEntity
  8
L1_150
  6
CONTINUOUS
 62
         7
100
AcDbLine
 10
1829.0476391328
 20
-20.77165468
 30
0.0
 11
1835.0976391328
 21
-20.77165468
 31
0.0
  0
LINE
  5
395
100
AcDbEntity
  8
L1_150
  6
CONTINUOUS
 62
         7
100
AcDbLine
 10
1836.5726391328
 20
-22.24665468
 30
0.0
 11
1838.0726391328
 21
-22.24665468
 31
0.0
  0
LINE
  5
396
100
AcDbEntity
  8
L1_150
  6
CONTINUOUS
 62
         7
100
AcDbLine
 10
1835.0976391328
 20
-20.77165468
 30
0.0
 11
1836.5726391328
 21
-22.24665468
 31
0.0
  0
LINE
  5
397
100
AcDbEntity
  8
L1_150
  6
CONTINUOUS
 62
         7
100
AcDbLine
 10
1829.0476391328
 20
-20.77165468
 30
0.0
 11
1827.5726391328
 21
-22.24665468
 31
0.0
  0
LINE
  5
398
100
AcDbEntity
  8
L1_150
  6
CONTINUOUS
 62
         4
100
AcDbLine
 10
1828.2576391328
 20
-21.56165468
 30
0.0
 11
1835.8876391328
 21
-21.56165468
 31
0.0
  0
DIMENSION
  5
39B
100
AcDbEntity
  8
L1_150
  6
CONTINUOUS
 62
         4
100
AcDbDimension
  2
*D7
 10
1825.5726391328
 20
-13.2089440447
 30
0.0
 11
1829.472031747
 21
-11.1839440447
 31
0.0
  3
DIMSTYLE2
100
AcDbAlignedDimension
 13
1825.5726391328
 23
-24.09665468
 33
0.0
 14
1838.5726391328
 24
-24.09665468
 34
0.0
100
AcDbRotatedDimension
  0
LINE
  5
3A7
100
AcDbEntity
  8
L1_150
  6
CENTER
 62
         1
100
AcDbLine
 10
1824.2706822974
 20
-32.67665468
 30
0.0
 11
1839.7702110449
 21
-32.67665468
 31
0.0
  0
LINE
  5
3A8
100
AcDbEntity
  8
L1_150
  6
DASHED
 62
         2
100
AcDbLine
 10
1836.7726391328
 20
-43.10665468
 30
0.0
 11
1836.7726391328
 21
-22.24665468
 31
0.0
  0
LINE
  5
3A9
100
AcDbEntity
  8
L1_150
  6
DASHED
 62
         2
100
AcDbLine
 10
1827.3726391328
 20
-43.10665468
 30
0.0
 11
1827.3726391328
 21
-22.24665468
 31
0.0
  0
DIMENSION
  5
3AC
100
AcDbEntity
  8
L1_150
  6
CONTINUOUS
 62
         4
100
AcDbDimension
  2
*D8
 10
1809.1766534559
 20
-14.369227331
 30
0.0
 11
1805.4775387939
 21
-12.344227331
 31
0.0
  3
DIMSTYLE2
100
AcDbAlignedDimension
 13
1809.1766534559
 23
-23.0955347207
 33
0.0
 14
1807.1766534559
 24
-23.0955347207
 34
0.0
100
AcDbRotatedDimension
  0
LINE
  5
3BA
100
AcDbEntity
  8
L1_150
  6
CONTINUOUS
 62
         7
100
AcDbLine
 10
1809.1766534559
 20
-31.5586206913
 30
0.0
 11
1809.1766534559
 21
-22.2295706969
 31
0.0
  0
LINE
  5
3BB
100
AcDbEntity
  8
L1_150
  6
CONTINUOUS
 62
         7
100
AcDbLine
 10
1807.1766534559
 20
-31.5586206913
 30
0.0
 11
1807.1766534559
 21
-22.2295706969
 31
0.0
  0
CIRCLE
  5
3BC
100
AcDbEntity
  8
L1_150
  6
CONTINUOUS
 62
         7
100
AcDbCircle
 10
1808.1766534559
 20
-32.67665468
 30
0.0
 40
1.5
  0
LINE
  5
3BD
100
AcDbEntity
  8
L1_150
  6
CONTINUOUS
 62
         7
100
AcDbLine
 10
1809.1766534559
 20
-43.1237386631
 30
0.0
 11
1809.1766534559
 21
-33.7946886688
 31
0.0
  0
LINE
  5
3BE
100
AcDbEntity
  8
L1_150
  6
CONTINUOUS
 62
         7
100
AcDbLine
 10
1807.1766534559
 20
-43.1237386631
 30
0.0
 11
1807.1766534559
 21
-33.7946886688
 31
0.0
  0
LINE
  5
3BF
100
AcDbEntity
  8
L1_150
  6
DASHED
 62
         2
100
AcDbLine
 10
1827.3726391328
 20
-31.17665468
 30
0.0
 11
1836.7726391328
 21
-31.17665468
 31
0.0
  0
LINE
  5
3C0
100
AcDbEntity
  8
L1_150
  6
DASHED
 62
         2
100
AcDbLine
 10
1827.3726391328
 20
-34.17665468
 30
0.0
 11
1836.7726391328
 21
-34.17665468
 31
0.0
  0
DIMENSION
  5
3C3
100
AcDbEntity
  8
L1_150
  6
CONTINUOUS
 62
         4
100
AcDbDimension
  2
*D9
 10
1764.582390103
 20
-93.0987199045
 30
0.0
 11
1761.957390103
 21
-128.6048117931
 31
0.0
  3
DIMSTYLE2
100
AcDbAlignedDimension
 13
1782.5117973768
 23
-93.0987199045
 33
0.0
 14
1782.5117973768
 24
-143.0987199045
 34
0.0
 50
90.0
100
AcDbRotatedDimension
  0
DIMENSION
  5
3D1
100
AcDbEntity
  8
L1_150
  6
CONTINUOUS
 62
         4
100
AcDbDimension
  2
*D10
 10
1774.7314368458
 20
-98.0987199045
 30
0.0
 11
1772.1064368458
 21
-137.6719695039
 31
0.0
  3
DIMSTYLE2
100
AcDbAlignedDimension
 13
1780.9448100787
 23
-98.0987199045
 33
0.0
 14
1783.3178089813
 24
-138.0987199045
 34
0.0
 50
90.0
100
AcDbRotatedDimension
  0
LINE
  5
3DD
100
AcDbEntity
  8
L1_150
  6
CONTINUOUS
 62
         7
100
AcDbLine
 10
1790.7997973768
 20
-98.9107199045
 30
0.0
 11
1790.7997973768
 21
-137.2867199045
 31
0.0
  0
LINE
  5
3DE
100
AcDbEntity
  8
L1_150
  6
CONTINUOUS
 62
         7
100
AcDbLine
 10
1797.8117973768
 20
-99.9987199045
 30
0.0
 11
1795.1117973768
 21
-99.9987199045
 31
0.0
  0
LINE
  5
3DF
100
AcDbEntity
  8
L1_150
  6
CONTINUOUS
 62
         7
100
AcDbLine
 10
1787.5117973768
 20
-93.0987199045
 30
0.0
 11
1787.5117973768
 21
-96.2987199045
 31
0.0
  0
LINE
  5
3E0
100
AcDbEntity
  8
L1_150
  6
CONTINUOUS
 62
         7
100
AcDbLine
 10
1801.1065414885
 20
-96.2987199045
 30
0.0
 11
1787.5117973768
 21
-96.2987199045
 31
0.0
  0
LINE
  5
3E1
100
AcDbEntity
  8
L1_150
  6
CONTINUOUS
 62
         7
100
AcDbLine
 10
1787.5117973768
 20
-143.0987199045
 30
0.0
 11
1787.5117973768
 21
-139.8987199045
 31
0.0
  0
LINE
  5
3E2
100
AcDbEntity
  8
L1_150
  6
CONTINUOUS
 62
         7
100
AcDbLine
 10
1801.1065414885
 20
-139.8987199045
 30
0.0
 11
1787.5117973768
 21
-139.8987199045
 31
0.0
  0
ARC
  5
3E3
100
AcDbEntity
  8
L1_150
  6
CONTINUOUS
 62
         7
100
AcDbCircle
 10
1798.1043200887
 20
-141.0987199045
 30
0.0
 40
2.0
100
AcDbArc
 50
270.0
 51
330.0
  0
ARC
  5
3E4
100
AcDbEntity
  8
L1_150
  6
CONTINUOUS
 62
         7
100
AcDbCircle
 10
1801.0117973768
 20
-136.0628215197
 30
0.0
 40
2.0
100
AcDbArc
 50
330.0
 51
360.0
  0
ARC
  5
3E5
100
AcDbEntity
  8
L1_150
  6
CONTINUOUS
 62
         7
100
AcDbCircle
 10
1801.0117973768
 20
-100.1346182894
 30
0.0
 40
2.0
100
AcDbArc
 50
0.0
 51
30.0
  0
ARC
  5
3E6
100
AcDbEntity
  8
L1_150
  6
CONTINUOUS
 62
         7
100
AcDbCircle
 10
1798.1043200887
 20
-95.0987199045
 30
0.0
 40
2.0
100
AcDbArc
 50
30.0
 51
90.0
  0
LINE
  5
3E7
100
AcDbEntity
  8
L1_150
  6
CONTINUOUS
 62
         7
100
AcDbLine
 10
1802.7438481844
 20
-99.1346182894
 30
0.0
 11
1799.8363708963
 21
-94.0987199045
 31
0.0
  0
LINE
  5
3E8
100
AcDbEntity
  8
L1_150
  6
CONTINUOUS
 62
         7
100
AcDbLine
 10
1802.7438481844
 20
-137.0628215197
 30
0.0
 11
1799.8363708963
 21
-142.0987199045
 31
0.0
  0
LINE
  5
3E9
100
AcDbEntity
  8
L1_150
  6
CONTINUOUS
 62
         7
100
AcDbLine
 10
1781.4136184973
 20
-98.9107199045
 30
0.0
 11
1781.4136184973
 21
-137.2867199045
 31
0.0
  0
LINE
  5
3EA
100
AcDbEntity
  8
L1_150
  6
CONTINUOUS
 62
         7
100
AcDbLine
 10
1780.5117973768
 20
-97.3487199045
 30
0.0
 11
1781.4136184973
 21
-98.9107199045
 31
0.0
  0
LINE
  5
3EB
100
AcDbEntity
  8
L1_150
  6
CONTINUOUS
 62
         7
100
AcDbLine
 10
1780.5117973768
 20
-138.8487199045
 30
0.0
 11
1781.4136184973
 21
-137.2867199045
 31
0.0
  0
ARC
  5
3EC
100
AcDbEntity
  8
L1_150
  6
CONTINUOUS
 62
         7
100
AcDbCircle
 10
1782.5117973768
 20
-95.0987199045
 30
0.0
 40
2.0
100
AcDbArc
 50
90.0
 51
180.0
  0
ARC
  5
3ED
100
AcDbEntity
  8
L1_150
  6
CONTINUOUS
 62
         7
100
AcDbCircle
 10
1782.5117973768
 20
-141.0987199045
 30
0.0
 40
2.0
100
AcDbArc
 50
180.0
 51
270.0
  0
LINE
  5
3EE
100
AcDbEntity
  8
L1_150
  6
CONTINUOUS
 62
         7
100
AcDbLine
 10
1792.1117973768
 20
-138.5987199045
 30
0.0
 11
1790.7997973768
 21
-137.2867199045
 31
0.0
  0
ARC
  5
3EF
100
AcDbEntity
  8
L1_150
  6
CONTINUOUS
 62
         7
100
AcDbCircle
 10
1794.1117973768
 20
-137.5987199045
 30
0.0
 40
1.0
100
AcDbArc
 50
270.0
 51
360.0
  0
LINE
  5
3F0
100
AcDbEntity
  8
L1_150
  6
CONTINUOUS
 62
         7
100
AcDbLine
 10
1792.1117973768
 20
-97.5987199045
 30
0.0
 11
1790.7997973768
 21
-98.9107199045
 31
0.0
  0
ARC
  5
3F1
100
AcDbEntity
  8
L1_150
  6
CONTINUOUS
 62
         7
100
AcDbCircle
 10
1794.1117973768
 20
-98.5987199045
 30
0.0
 40
1.0
100
AcDbArc
 50
360.0
 51
450.0
  0
LINE
  5
3F2
100
AcDbEntity
  8
L1_150
  6
CONTINUOUS
 62
         7
100
AcDbLine
 10
1797.8117973768
 20
-136.1987199045
 30
0.0
 11
1796.8117973768
 21
-136.1987199045
 31
0.0
  0
LINE
  5
3F3
100
AcDbEntity
  8
L1_150
  6
CONTINUOUS
 62
         7
100
AcDbLine
 10
1797.8117973768
 20
-136.1987199045
 30
0.0
 11
1797.8117973768
 21
-99.9987199045
 31
0.0
  0
LINE
  5
3F4
100
AcDbEntity
  8
L1_150
  6
CENTER
 62
         1
100
AcDbLine
 10
1803.585844702
 20
-118.0987199045
 30
0.0
 11
1777.7417843652
 21
-118.0987199045
 31
0.0
  0
LINE
  5
3F5
100
AcDbEntity
  8
L1_150
  6
CONTINUOUS
 62
         7
100
AcDbLine
 10
1792.1117973768
 20
-138.5987199045
 30
0.0
 11
1792.1117973768
 21
-97.5987199045
 31
0.0
  0
LINE
  5
3F6
100
AcDbEntity
  8
L1_150
  6
CONTINUOUS
 62
         7
100
AcDbLine
 10
1794.1117973768
 20
-97.5987199045
 30
0.0
 11
1792.1117973768
 21
-97.5987199045
 31
0.0
  0
LINE
  5
3F7
100
AcDbEntity
  8
L1_150
  6
CONTINUOUS
 62
         7
100
AcDbLine
 10
1794.1117973768
 20
-138.5987199045
 30
0.0
 11
1792.1117973768
 21
-138.5987199045
 31
0.0
  0
LINE
  5
3F8
100
AcDbEntity
  8
L1_150
  6
CONTINUOUS
 62
         7
100
AcDbLine
 10
1790.7997973768
 20
-98.9107199045
 30
0.0
 11
1781.4136184973
 21
-98.9107199045
 31
0.0
  0
LINE
  5
3F9
100
AcDbEntity
  8
L1_150
  6
CONTINUOUS
 62
         7
100
AcDbLine
 10
1790.7997973768
 20
-137.2867199045
 30
0.0
 11
1781.4136184973
 21
-137.2867199045
 31
0.0
  0
LINE
  5
3FA
100
AcDbEntity
  8
L1_150
  6
CONTINUOUS
 62
         4
100
AcDbLine
 10
1791.6117973768
 20
-98.0987199045
 30
0.0
 11
1780.9448100787
 21
-98.0987199045
 31
0.0
  0
LINE
  5
3FB
100
AcDbEntity
  8
L1_150
  6
CONTINUOUS
 62
         4
100
AcDbLine
 10
1791.6117973768
 20
-138.0987199045
 30
0.0
 11
1780.9448100787
 21
-138.0987199045
 31
0.0
  0
LINE
  5
3FC
100
AcDbEntity
  8
L1_150
  6
CONTINUOUS
 62
         7
100
AcDbLine
 10
1797.8117973768
 20
-101.7710701737
 30
0.0
 11
1803.0117973768
 21
-104.7732915735
 31
0.0
  0
LINE
  5
3FD
100
AcDbEntity
  8
L1_150
  6
CONTINUOUS
 62
         7
100
AcDbLine
 10
1797.8117973768
 20
-134.4263696353
 30
0.0
 11
1803.0117973768
 21
-131.4241482356
 31
0.0
  0
LINE
  5
3FE
100
AcDbEntity
  8
L1_150
  6
CONTINUOUS
 62
         7
100
AcDbLine
 10
1796.8117973768
 20
-132.9987199045
 30
0.0
 11
1795.1117973768
 21
-132.9987199045
 31
0.0
  0
LINE
  5
3FF
100
AcDbEntity
  8
L1_150
  6
CONTINUOUS
 62
         7
100
AcDbLine
 10
1795.1117973768
 20
-137.5987199045
 30
0.0
 11
1795.1117973768
 21
-98.5987199045
 31
0.0
  0
LINE
  5
400
100
AcDbEntity
  8
L1_150
  6
CONTINUOUS
 62
         7
100
AcDbLine
 10
1796.8117973768
 20
-136.1987199045
 30
0.0
 11
1796.8117973768
 21
-99.9987199045
 31
0.0
  0
LINE
  5
401
100
AcDbEntity
  8
L1_150
  6
CONTINUOUS
 62
         7
100
AcDbLine
 10
1803.0117973768
 20
-136.0628215197
 30
0.0
 11
1803.0117973768
 21
-100.1346182894
 31
0.0
  0
LINE
  5
402
100
AcDbEntity
  8
L1_150
  6
CONTINUOUS
 62
         7
100
AcDbLine
 10
1798.1043200887
 20
-93.0987199045
 30
0.0
 11
1782.5117973768
 21
-93.0987199045
 31
0.0
  0
LINE
  5
403
100
AcDbEntity
  8
L1_150
  6
CONTINUOUS
 62
         7
100
AcDbLine
 10
1798.1043200887
 20
-143.0987199045
 30
0.0
 11
1782.5117973768
 21
-143.0987199045
 31
0.0
  0
LINE
  5
404
100
AcDbEntity
  8
L1_150
  6
CONTINUOUS
 62
         7
100
AcDbLine
 10
1780.5117973768
 20
-141.0987199045
 30
0.0
 11
1780.5117973768
 21
-95.0987199045
 31
0.0
  0
INSERT
  5
410
100
AcDbEntity
  8
0
  6
CONTINUOUS
100
AcDbBlockReference
  2
*X11
 10
0.0
 20
0.0
 30
0.0
  0
INSERT
  5
417
100
AcDbEntity
  8
0
  6
CONTINUOUS
100
AcDbBlockReference
  2
*X12
 10
0.0
 20
0.0
 30
0.0
  0
INSERT
  5
41F
100
AcDbEntity
  8
0
  6
CONTINUOUS
100
AcDbBlockReference
  2
*X13
 10
0.0
 20
0.0
 30
0.0
  0
INSERT
  5
42D
100
AcDbEntity
  8
0
  6
CONTINUOUS
100
AcDbBlockReference
  2
*X14
 10
0.0
 20
0.0
 30
0.0
  0
DIMENSION
  5
430
100
AcDbEntity
  8
L1_150
  6
CONTINUOUS
 62
         4
100
AcDbDimension
  2
*D15
 10
1803.0117973768
 20
-152.1926886299
 30
0.0
 11
1787.0409689708
 21
-149.5676886299
 31
0.0
  3
DIMSTYLE2
100
AcDbAlignedDimension
 13
1803.0117973768
 23
-136.0628215197
 33
0.0
 14
1780.5117973768
 24
-141.0987199045
 34
0.0
100
AcDbRotatedDimension
  0
ARC
  5
43C
100
AcDbEntity
  8
L1_150
  6
CONTINUOUS
 62
         7
100
AcDbCircle
 10
1642.7786999334
 20
132.7524144385
 30
0.0
 40
0.5
100
AcDbArc
 50
180.0
 51
270.0
  0
LINE
  5
43D
100
AcDbEntity
  8
L1_150
  6
CONTINUOUS
 62
         7
100
AcDbLine
 10
1641.7786999334
 20
137.2024144385
 30
0.0
 11
1642.2786999334
 21
136.7024144385
 31
0.0
  0
ARC
  5
43E
100
AcDbEntity
  8
L1_150
  6
CONTINUOUS
 62
         7
100
AcDbCircle
 10
1642.7786999334
 20
91.7524144385
 30
0.0
 40
0.5
100
AcDbArc
 50
90.0
 51
180.0
  0
LINE
  5
43F
100
AcDbEntity
  8
L1_150
  6
CONTINUOUS
 62
         7
100
AcDbLine
 10
1641.7786999334
 20
87.3024144385
 30
0.0
 11
1642.2786999334
 21
87.8024144385
 31
0.0
  0
LINE
  5
440
100
AcDbEntity
  8
L1_150
  6
CONTINUOUS
 62
         7
100
AcDbLine
 10
1642.0801010951
 20
-151.1900166132
 30
0.0
 11
1642.0801010951
 21
-147.2400166132
 31
0.0
  0
ARC
  5
441
100
AcDbEntity
  8
L1_150
  6
CONTINUOUS
 62
         7
100
AcDbCircle
 10
1642.5801010951
 20
-147.2400166132
 30
0.0
 40
0.5
100
AcDbArc
 50
90.0
 51
180.0
  0
LINE
  5
442
100
AcDbEntity
  8
L1_150
  6
CONTINUOUS
 62
         7
100
AcDbLine
 10
1642.0801010951
 20
-151.1900166132
 30
0.0
 11
1641.5801010951
 21
-151.6900166132
 31
0.0
  0
ARC
  5
443
100
AcDbEntity
  8
L1_150
  6
CONTINUOUS
 62
         7
100
AcDbCircle
 10
1642.5801010951
 20
-106.2400166132
 30
0.0
 40
0.5
100
AcDbArc
 50
180.0
 51
270.0
  0
LINE
  5
444
100
AcDbEntity
  8
L1_150
  6
CONTINUOUS
 62
         7
100
AcDbLine
 10
1642.0801010951
 20
-102.2900166132
 30
0.0
 11
1642.0801010951
 21
-106.2400166132
 31
0.0
  0
LINE
  5
445
100
AcDbEntity
  8
L1_150
  6
CONTINUOUS
 62
         7
100
AcDbLine
 10
1642.0801010951
 20
-102.2900166132
 30
0.0
 11
1641.5801010951
 21
-101.7900166132
 31
0.0
  0
LINE
  5
446
100
AcDbEntity
  8
L1_150
  6
CONTINUOUS
 62
         7
100
AcDbLine
 10
1642.2786999334
 20
87.8024144385
 30
0.0
 11
1642.2786999334
 21
136.7024144385
 31
0.0
  0
LINE
  5
447
100
AcDbEntity
  8
L1_150
  6
CONTINUOUS
 62
         4
100
AcDbLine
 10
1641.7786999334
 20
137.2024144385
 30
0.0
 11
1641.7786999334
 21
87.3024144385
 31
0.0
  0
ARC
  5
448
100
AcDbEntity
  8
L1_150
  6
CONTINUOUS
 62
         7
100
AcDbCircle
 10
1653.2786999334
 20
-103.7400166132
 30
0.0
 40
2.0
100
AcDbArc
 50
90.0
 51
180.0
  0
INSERT
  5
456
100
AcDbEntity
  8
0
  6
CONTINUOUS
100
AcDbBlockReference
  2
*X16
 10
0.0
 20
0.0
 30
0.0
  0
INSERT
  5
45E
100
AcDbEntity
  8
0
  6
CONTINUOUS
100
AcDbBlockReference
  2
*X17
 10
0.0
 20
0.0
 30
0.0
  0
INSERT
  5
465
100
AcDbEntity
  8
0
  6
CONTINUOUS
100
AcDbBlockReference
  2
*X18
 10
0.0
 20
0.0
 30
0.0
  0
INSERT
  5
471
100
AcDbEntity
  8
0
  6
CONTINUOUS
100
AcDbBlockReference
  2
*X19
 10
0.0
 20
0.0
 30
0.0
  0
LINE
  5
472
100
AcDbEntity
  8
L1_150
  6
CONTINUOUS
 62
         7
100
AcDbLine
 10
1651.2786999334
 20
-149.7400166132
 30
0.0
 11
1651.2786999334
 21
-103.7400166132
 31
0.0
  0
LINE
  5
473
100
AcDbEntity
  8
L1_150
  6
CONTINUOUS
 62
         7
100
AcDbLine
 10
1668.8712226453
 20
-151.7400166132
 30
0.0
 11
1653.2786999334
 21
-151.7400166132
 31
0.0
  0
LINE
  5
474
100
AcDbEntity
  8
L1_150
  6
CONTINUOUS
 62
         7
100
AcDbLine
 10
1668.8712226453
 20
-101.7400166132
 30
0.0
 11
1653.2786999334
 21
-101.7400166132
 31
0.0
  0
LINE
  5
475
100
AcDbEntity
  8
L1_150
  6
CONTINUOUS
 62
         7
100
AcDbLine
 10
1673.7786999334
 20
-144.7041182283
 30
0.0
 11
1673.7786999334
 21
-108.7759149981
 31
0.0
  0
LINE
  5
476
100
AcDbEntity
  8
L1_150
  6
CONTINUOUS
 62
         7
100
AcDbLine
 10
1667.5786999334
 20
-144.8400166132
 30
0.0
 11
1667.5786999334
 21
-108.6400166132
 31
0.0
  0
LINE
  5
477
100
AcDbEntity
  8
L1_150
  6
CONTINUOUS
 62
         7
100
AcDbLine
 10
1665.8786999334
 20
-146.2400166132
 30
0.0
 11
1665.8786999334
 21
-107.2400166132
 31
0.0
  0
LINE
  5
478
100
AcDbEntity
  8
L1_150
  6
CONTINUOUS
 62
         7
100
AcDbLine
 10
1667.5786999334
 20
-141.6400166132
 30
0.0
 11
1665.8786999334
 21
-141.6400166132
 31
0.0
  0
LINE
  5
479
100
AcDbEntity
  8
L1_150
  6
CONTINUOUS
 62
         7
100
AcDbLine
 10
1668.5786999334
 20
-143.067666344
 30
0.0
 11
1673.7786999334
 21
-140.0654449442
 31
0.0
  0
LINE
  5
47A
100
AcDbEntity
  8
L1_150
  6
CONTINUOUS
 62
         7
100
AcDbLine
 10
1668.5786999334
 20
-110.4123668824
 30
0.0
 11
1673.7786999334
 21
-113.4145882822
 31
0.0
  0
LINE
  5
47B
100
AcDbEntity
  8
L1_150
  6
CONTINUOUS
 62
         4
100
AcDbLine
 10
1662.3786999334
 20
-146.7400166132
 30
0.0
 11
1651.7117126353
 21
-146.7400166132
 31
0.0
  0
LINE
  5
47C
100
AcDbEntity
  8
L1_150
  6
CONTINUOUS
 62
         4
100
AcDbLine
 10
1662.3786999334
 20
-106.7400166132
 30
0.0
 11
1651.7117126353
 21
-106.7400166132
 31
0.0
  0
LINE
  5
47D
100
AcDbEntity
  8
L1_150
  6
CONTINUOUS
 62
         7
100
AcDbLine
 10
1661.5666999334
 20
-145.9280166132
 30
0.0
 11
1652.1805210539
 21
-145.9280166132
 31
0.0
  0
LINE
  5
47E
100
AcDbEntity
  8
L1_150
  6
CONTINUOUS
 62
         7
100
AcDbLine
 10
1661.5666999334
 20
-107.5520166132
 30
0.0
 11
1652.1805210539
 21
-107.5520166132
 31
0.0
  0
LINE
  5
47F
100
AcDbEntity
  8
L1_150
  6
CONTINUOUS
 62
         7
100
AcDbLine
 10
1664.8786999334
 20
-147.2400166132
 30
0.0
 11
1662.8786999334
 21
-147.2400166132
 31
0.0
  0
LINE
  5
480
100
AcDbEntity
  8
L1_150
  6
CONTINUOUS
 62
         7
100
AcDbLine
 10
1664.8786999334
 20
-106.2400166132
 30
0.0
 11
1662.8786999334
 21
-106.2400166132
 31
0.0
  0
LINE
  5
481
100
AcDbEntity
  8
L1_150
  6
CONTINUOUS
 62
         7
100
AcDbLine
 10
1662.8786999334
 20
-147.2400166132
 30
0.0
 11
1662.8786999334
 21
-106.2400166132
 31
0.0
  0
LINE
  5
482
100
AcDbEntity
  8
L1_150
  6
CONTINUOUS
 62
         7
100
AcDbLine
 10
1668.5786999334
 20
-144.8400166132
 30
0.0
 11
1668.5786999334
 21
-108.6400166132
 31
0.0
  0
LINE
  5
483
100
AcDbEntity
  8
L1_150
  6
CONTINUOUS
 62
         7
100
AcDbLine
 10
1668.5786999334
 20
-144.8400166132
 30
0.0
 11
1667.5786999334
 21
-144.8400166132
 31
0.0
  0
ARC
  5
484
100
AcDbEntity
  8
L1_150
  6
CONTINUOUS
 62
         7
100
AcDbCircle
 10
1664.8786999334
 20
-107.2400166132
 30
0.0
 40
1.0
100
AcDbArc
 50
360.0
 51
450.0
  0
LINE
  5
485
100
AcDbEntity
  8
L1_150
  6
CONTINUOUS
 62
         7
100
AcDbLine
 10
1662.8786999334
 20
-106.2400166132
 30
0.0
 11
1661.5666999334
 21
-107.5520166132
 31
0.0
  0
ARC
  5
486
100
AcDbEntity
  8
L1_150
  6
CONTINUOUS
 62
         7
100
AcDbCircle
 10
1664.8786999334
 20
-146.2400166132
 30
0.0
 40
1.0
100
AcDbArc
 50
270.0
 51
360.0
  0
LINE
  5
487
100
AcDbEntity
  8
L1_150
  6
CONTINUOUS
 62
         7
100
AcDbLine
 10
1662.8786999334
 20
-147.2400166132
 30
0.0
 11
1661.5666999334
 21
-145.9280166132
 31
0.0
  0
ARC
  5
488
100
AcDbEntity
  8
L1_150
  6
CONTINUOUS
 62
         7
100
AcDbCircle
 10
1653.2786999334
 20
-149.7400166132
 30
0.0
 40
2.0
100
AcDbArc
 50
180.0
 51
270.0
  0
LINE
  5
489
100
AcDbEntity
  8
L1_150
  6
CONTINUOUS
 62
         7
100
AcDbLine
 10
1651.2786999334
 20
-147.4900166132
 30
0.0
 11
1652.1805210539
 21
-145.9280166132
 31
0.0
  0
LINE
  5
48A
100
AcDbEntity
  8
L1_150
  6
CONTINUOUS
 62
         7
100
AcDbLine
 10
1651.2786999334
 20
-105.9900166132
 30
0.0
 11
1652.1805210539
 21
-107.5520166132
 31
0.0
  0
LINE
  5
48B
100
AcDbEntity
  8
L1_150
  6
CONTINUOUS
 62
         7
100
AcDbLine
 10
1652.1805210539
 20
-107.5520166132
 30
0.0
 11
1652.1805210539
 21
-145.9280166132
 31
0.0
  0
LINE
  5
48C
100
AcDbEntity
  8
L1_150
  6
CONTINUOUS
 62
         7
100
AcDbLine
 10
1673.510750741
 20
-145.7041182283
 30
0.0
 11
1670.6032734529
 21
-150.7400166132
 31
0.0
  0
LINE
  5
48D
100
AcDbEntity
  8
L1_150
  6
CONTINUOUS
 62
         7
100
AcDbLine
 10
1673.510750741
 20
-107.7759149981
 30
0.0
 11
1670.6032734529
 21
-102.7400166132
 31
0.0
  0
ARC
  5
48E
100
AcDbEntity
  8
L1_150
  6
CONTINUOUS
 62
         7
100
AcDbCircle
 10
1668.8712226453
 20
-103.7400166132
 30
0.0
 40
2.0
100
AcDbArc
 50
30.0
 51
90.0
  0
ARC
  5
48F
100
AcDbEntity
  8
L1_150
  6
CONTINUOUS
 62
         7
100
AcDbCircle
 10
1671.7786999334
 20
-108.7759149981
 30
0.0
 40
2.0
100
AcDbArc
 50
0.0
 51
30.0
  0
ARC
  5
490
100
AcDbEntity
  8
L1_150
  6
CONTINUOUS
 62
         7
100
AcDbCircle
 10
1671.7786999334
 20
-144.7041182283
 30
0.0
 40
2.0
100
AcDbArc
 50
330.0
 51
360.0
  0
ARC
  5
491
100
AcDbEntity
  8
L1_150
  6
CONTINUOUS
 62
         7
100
AcDbCircle
 10
1668.8712226453
 20
-149.7400166132
 30
0.0
 40
2.0
100
AcDbArc
 50
270.0
 51
330.0
  0
LINE
  5
492
100
AcDbEntity
  8
L1_150
  6
CONTINUOUS
 62
         7
100
AcDbLine
 10
1671.8734440451
 20
-148.5400166132
 30
0.0
 11
1658.2786999334
 21
-148.5400166132
 31
0.0
  0
LINE
  5
493
100
AcDbEntity
  8
L1_150
  6
CONTINUOUS
 62
         7
100
AcDbLine
 10
1658.2786999334
 20
-151.7400166132
 30
0.0
 11
1658.2786999334
 21
-148.5400166132
 31
0.0
  0
LINE
  5
494
100
AcDbEntity
  8
L1_150
  6
CONTINUOUS
 62
         7
100
AcDbLine
 10
1671.8734440451
 20
-104.9400166132
 30
0.0
 11
1658.2786999334
 21
-104.9400166132
 31
0.0
  0
LINE
  5
495
100
AcDbEntity
  8
L1_150
  6
CONTINUOUS
 62
         7
100
AcDbLine
 10
1658.2786999334
 20
-101.7400166132
 30
0.0
 11
1658.2786999334
 21
-104.9400166132
 31
0.0
  0
LINE
  5
496
100
AcDbEntity
  8
L1_150
  6
CONTINUOUS
 62
         7
100
AcDbLine
 10
1668.5786999334
 20
-108.6400166132
 30
0.0
 11
1665.8786999334
 21
-108.6400166132
 31
0.0
  0
LINE
  5
497
100
AcDbEntity
  8
L1_150
  6
CONTINUOUS
 62
         7
100
AcDbLine
 10
1661.5666999334
 20
-107.5520166132
 30
0.0
 11
1661.5666999334
 21
-145.9280166132
 31
0.0
  0
ARC
  5
498
100
AcDbEntity
  8
L1_150
  6
CONTINUOUS
 62
         7
100
AcDbCircle
 10
1653.2786999334
 20
135.2524144385
 30
0.0
 40
2.0
100
AcDbArc
 50
90.0
 51
180.0
  0
INSERT
  5
4A6
100
AcDbEntity
  8
0
  6
CONTINUOUS
100
AcDbBlockReference
  2
*X20
 10
0.0
 20
0.0
 30
0.0
  0
INSERT
  5
4AE
100
AcDbEntity
  8
0
  6
CONTINUOUS
100
AcDbBlockReference
  2
*X21
 10
0.0
 20
0.0
 30
0.0
  0
INSERT
  5
4B5
100
AcDbEntity
  8
0
  6
CONTINUOUS
100
AcDbBlockReference
  2
*X22
 10
0.0
 20
0.0
 30
0.0
  0
INSERT
  5
4C1
100
AcDbEntity
  8
0
  6
CONTINUOUS
100
AcDbBlockReference
  2
*X23
 10
0.0
 20
0.0
 30
0.0
  0
LINE
  5
4C2
100
AcDbEntity
  8
L1_150
  6
CONTINUOUS
 62
         7
100
AcDbLine
 10
1651.2786999334
 20
89.2524144385
 30
0.0
 11
1651.2786999334
 21
135.2524144385
 31
0.0
  0
LINE
  5
4C3
100
AcDbEntity
  8
L1_150
  6
CONTINUOUS
 62
         7
100
AcDbLine
 10
1668.8712226453
 20
87.2524144385
 30
0.0
 11
1653.2786999334
 21
87.2524144385
 31
0.0
  0
LINE
  5
4C4
100
AcDbEntity
  8
L1_150
  6
CONTINUOUS
 62
         7
100
AcDbLine
 10
1668.8712226453
 20
137.2524144385
 30
0.0
 11
1653.2786999334
 21
137.2524144385
 31
0.0
  0
LINE
  5
4C5
100
AcDbEntity
  8
L1_150
  6
CONTINUOUS
 62
         7
100
AcDbLine
 10
1673.7786999334
 20
94.2883128234
 30
0.0
 11
1673.7786999334
 21
130.2165160537
 31
0.0
  0
LINE
  5
4C6
100
AcDbEntity
  8
L1_150
  6
CONTINUOUS
 62
         7
100
AcDbLine
 10
1667.5786999334
 20
94.1524144385
 30
0.0
 11
1667.5786999334
 21
130.3524144385
 31
0.0
  0
LINE
  5
4C7
100
AcDbEntity
  8
L1_150
  6
CONTINUOUS
 62
         7
100
AcDbLine
 10
1665.8786999334
 20
92.7524144385
 30
0.0
 11
1665.8786999334
 21
131.7524144385
 31
0.0
  0
LINE
  5
4C8
100
AcDbEntity
  8
L1_150
  6
CONTINUOUS
 62
         7
100
AcDbLine
 10
1667.5786999334
 20
97.3524144385
 30
0.0
 11
1665.8786999334
 21
97.3524144385
 31
0.0
  0
LINE
  5
4C9
100
AcDbEntity
  8
L1_150
  6
CONTINUOUS
 62
         7
100
AcDbLine
 10
1668.5786999334
 20
95.9247647077
 30
0.0
 11
1673.7786999334
 21
98.9269861075
 31
0.0
  0
LINE
  5
4CA
100
AcDbEntity
  8
L1_150
  6
CONTINUOUS
 62
         7
100
AcDbLine
 10
1668.5786999334
 20
128.5800641694
 30
0.0
 11
1673.7786999334
 21
125.5778427696
 31
0.0
  0
LINE
  5
4CB
100
AcDbEntity
  8
L1_150
  6
CONTINUOUS
 62
         4
100
AcDbLine
 10
1662.3786999334
 20
92.2524144385
 30
0.0
 11
1651.7117126353
 21
92.2524144385
 31
0.0
  0
LINE
  5
4CC
100
AcDbEntity
  8
L1_150
  6
CONTINUOUS
 62
         4
100
AcDbLine
 10
1662.3786999334
 20
132.2524144385
 30
0.0
 11
1651.7117126353
 21
132.2524144385
 31
0.0
  0
LINE
  5
4CD
100
AcDbEntity
  8
L1_150
  6
CONTINUOUS
 62
         7
100
AcDbLine
 10
1661.5666999334
 20
93.0644144385
 30
0.0
 11
1652.1805210539
 21
93.0644144385
 31
0.0
  0
LINE
  5
4CE
100
AcDbEntity
  8
L1_150
  6
CONTINUOUS
 62
         7
100
AcDbLine
 10
1661.5666999334
 20
131.4404144385
 30
0.0
 11
1652.1805210539
 21
131.4404144385
 31
0.0
  0
LINE
  5
4CF
100
AcDbEntity
  8
L1_150
  6
CONTINUOUS
 62
         7
100
AcDbLine
 10
1664.8786999334
 20
91.7524144385
 30
0.0
 11
1662.8786999334
 21
91.7524144385
 31
0.0
  0
LINE
  5
4D0
100
AcDbEntity
  8
L1_150
  6
CONTINUOUS
 62
         7
100
AcDbLine
 10
1664.8786999334
 20
132.7524144385
 30
0.0
 11
1662.8786999334
 21
132.7524144385
 31
0.0
  0
LINE
  5
4D1
100
AcDbEntity
  8
L1_150
  6
CONTINUOUS
 62
         7
100
AcDbLine
 10
1662.8786999334
 20
91.7524144385
 30
0.0
 11
1662.8786999334
 21
132.7524144385
 31
0.0
  0
LINE
  5
4D2
100
AcDbEntity
  8
L1_150
  6
CONTINUOUS
 62
         7
100
AcDbLine
 10
1668.5786999334
 20
94.1524144385
 30
0.0
 11
1668.5786999334
 21
130.3524144385
 31
0.0
  0
LINE
  5
4D3
100
AcDbEntity
  8
L1_150
  6
CONTINUOUS
 62
         7
100
AcDbLine
 10
1668.5786999334
 20
94.1524144385
 30
0.0
 11
1667.5786999334
 21
94.1524144385
 31
0.0
  0
ARC
  5
4D4
100
AcDbEntity
  8
L1_150
  6
CONTINUOUS
 62
         7
100
AcDbCircle
 10
1664.8786999334
 20
131.7524144385
 30
0.0
 40
1.0
100
AcDbArc
 50
0.0
 51
90.0
  0
LINE
  5
4D5
100
AcDbEntity
  8
L1_150
  6
CONTINUOUS
 62
         7
100
AcDbLine
 10
1662.8786999334
 20
132.7524144385
 30
0.0
 11
1661.5666999334
 21
131.4404144385
 31
0.0
  0
ARC
  5
4D6
100
AcDbEntity
  8
L1_150
  6
CONTINUOUS
 62
         7
100
AcDbCircle
 10
1664.8786999334
 20
92.7524144385
 30
0.0
 40
1.0
100
AcDbArc
 50
270.0
 51
360.0
  0
LINE
  5
4D7
100
AcDbEntity
  8
L1_150
  6
CONTINUOUS
 62
         7
100
AcDbLine
 10
1662.8786999334
 20
91.7524144385
 30
0.0
 11
1661.5666999334
 21
93.0644144385
 31
0.0
  0
ARC
  5
4D8
100
AcDbEntity
  8
L1_150
  6
CONTINUOUS
 62
         7
100
AcDbCircle
 10
1653.2786999334
 20
89.2524144385
 30
0.0
 40
2.0
100
AcDbArc
 50
180.0
 51
270.0
  0
LINE
  5
4D9
100
AcDbEntity
  8
L1_150
  6
CONTINUOUS
 62
         7
100
AcDbLine
 10
1651.2786999334
 20
91.5024144385
 30
0.0
 11
1652.1805210539
 21
93.0644144385
 31
0.0
  0
LINE
  5
4DA
100
AcDbEntity
  8
L1_150
  6
CONTINUOUS
 62
         7
100
AcDbLine
 10
1651.2786999334
 20
133.0024144385
 30
0.0
 11
1652.1805210539
 21
131.4404144385
 31
0.0
  0
LINE
  5
4DB
100
AcDbEntity
  8
L1_150
  6
CONTINUOUS
 62
         7
100
AcDbLine
 10
1652.1805210539
 20
131.4404144385
 30
0.0
 11
1652.1805210539
 21
93.0644144385
 31
0.0
  0
LINE
  5
4DC
100
AcDbEntity
  8
L1_150
  6
CONTINUOUS
 62
         7
100
AcDbLine
 10
1673.510750741
 20
93.2883128234
 30
0.0
 11
1670.6032734529
 21
88.2524144385
 31
0.0
  0
LINE
  5
4DD
100
AcDbEntity
  8
L1_150
  6
CONTINUOUS
 62
         7
100
AcDbLine
 10
1673.510750741
 20
131.2165160537
 30
0.0
 11
1670.6032734529
 21
136.2524144385
 31
0.0
  0
ARC
  5
4DE
100
AcDbEntity
  8
L1_150
  6
CONTINUOUS
 62
         7
100
AcDbCircle
 10
1668.8712226453
 20
135.2524144385
 30
0.0
 40
2.0
100
AcDbArc
 50
30.0
 51
90.0
  0
ARC
  5
4DF
100
AcDbEntity
  8
L1_150
  6
CONTINUOUS
 62
         7
100
AcDbCircle
 10
1671.7786999334
 20
130.2165160537
 30
0.0
 40
2.0
100
AcDbArc
 50
0.0
 51
30.0
  0
ARC
  5
4E0
100
AcDbEntity
  8
L1_150
  6
CONTINUOUS
 62
         7
100
AcDbCircle
 10
1671.7786999334
 20
94.2883128234
 30
0.0
 40
2.0
100
AcDbArc
 50
330.0
 51
360.0
  0
ARC
  5
4E1
100
AcDbEntity
  8
L1_150
  6
CONTINUOUS
 62
         7
100
AcDbCircle
 10
1668.8712226453
 20
89.2524144385
 30
0.0
 40
2.0
100
AcDbArc
 50
270.0
 51
330.0
  0
LINE
  5
4E2
100
AcDbEntity
  8
L1_150
  6
CONTINUOUS
 62
         7
100
AcDbLine
 10
1671.8734440451
 20
90.4524144385
 30
0.0
 11
1658.2786999334
 21
90.4524144385
 31
0.0
  0
LINE
  5
4E3
100
AcDbEntity
  8
L1_150
  6
CONTINUOUS
 62
         7
100
AcDbLine
 10
1658.2786999334
 20
87.2524144385
 30
0.0
 11
1658.2786999334
 21
90.4524144385
 31
0.0
  0
LINE
  5
4E4
100
AcDbEntity
  8
L1_150
  6
CONTINUOUS
 62
         7
100
AcDbLine
 10
1671.8734440451
 20
134.0524144385
 30
0.0
 11
1658.2786999334
 21
134.0524144385
 31
0.0
  0
LINE
  5
4E5
100
AcDbEntity
  8
L1_150
  6
CONTINUOUS
 62
         7
100
AcDbLine
 10
1658.2786999334
 20
137.2524144385
 30
0.0
 11
1658.2786999334
 21
134.0524144385
 31
0.0
  0
LINE
  5
4E6
100
AcDbEntity
  8
L1_150
  6
CONTINUOUS
 62
         7
100
AcDbLine
 10
1668.5786999334
 20
130.3524144385
 30
0.0
 11
1665.8786999334
 21
130.3524144385
 31
0.0
  0
LINE
  5
4E7
100
AcDbEntity
  8
L1_150
  6
CONTINUOUS
 62
         7
100
AcDbLine
 10
1661.5666999334
 20
131.4404144385
 30
0.0
 11
1661.5666999334
 21
93.0644144385
 31
0.0
  0
TEXT
  5
4E9
100
AcDbEntity
  8
L1_150
  6
CONTINUOUS
 62
         2
100
AcDbText
 10
1830.4058372732
 20
186.4382511173
 30
0.0
 40
4.5
  1
531456
 41
0.98
  7
BOX
100
AcDbText
  0
ENDSEC
  0
SECTION
  2
OBJECTS
  0
DICTIONARY
  5
19
100
AcDbDictionary
  3
ACAD_GROUP
350
1A
  3
ACAD_MLINESTYLE
350
1B
  0
DICTIONARY
  5
1A
102
{ACAD_REACTORS
330
19
102
}
100
AcDbDictionary
  0
DICTIONARY
  5
1B
102
{ACAD_REACTORS
330
19
102
}
100
AcDbDictionary
  3
STANDARD
350
1C
  0
MLINESTYLE
  5
1C
102
{ACAD_REACTORS
330
1B
102
}
100
AcDbMlineStyle
  2
STANDARD
 70
         0
  3

 62
         0
 51
90.0
 52
90.0
 71
         2
 49
0.5
 62
       256
  6
BYLAYER
 49
-0.5
 62
       256
  6
BYLAYER
  0
ENDSEC
  0
EOF
