  0
SECTION
  2
HEADER
  9
$ACADVER
  1
AC1014
  9
$ACADMAINTVER
 70
         0
  9
$DWGCODEPAGE
  3
BIG5
  9
$INSBASE
 10
0.0
 20
0.0
 30
0.0
  9
$EXTMIN
 10
1425.9539933238
 20
291.9746475934
 30
0.0
  9
$EXTMAX
 10
2284.2863297557
 20
724.7191885294
 30
0.0
  9
$LIMMIN
 10
0.0
 20
0.0
  9
$LIMMAX
 10
0.0
 20
0.0
  9
$ORTHOMODE
 70
         0
  9
$REGENMODE
 70
         1
  9
$FILLMODE
 70
         1
  9
$QTEXTMODE
 70
         0
  9
$MIRRTEXT
 70
         1
  9
$DRAGMODE
 70
         2
  9
$LTSCALE
 40
1.0
  9
$OSMODE
 70
         0
  9
$ATTMODE
 70
         1
  9
$TEXTSIZE
 40
3.5
  9
$TRACEWID
 40
0.05
  9
$TEXTSTYLE
  7
STANDARD
  9
$CLAYER
  8
0
  9
$CELTYPE
  6
CONTINUOUS
  9
$CECOLOR
 62
        16
  9
$CELTSCALE
 40
1.0
  9
$DELOBJ
 70
         1
  9
$DISPSILH
 70
         0
  9
$DIMSCALE
 40
1.0
  9
$DIMASZ
 40
0.18
  9
$DIMEXO
 40
0.0625
  9
$DIMDLI
 40
0.38
  9
$DIMRND
 40
0.0
  9
$DIMDLE
 40
0.0
  9
$DIMEXE
 40
0.25
  9
$DIMTP
 40
0.01
  9
$DIMTM
 40
-0.01
  9
$DIMTXT
 40
3.5
  9
$DIMCEN
 40
0.09
  9
$DIMTSZ
 40
0.0
  9
$DIMTOL
 70
         0
  9
$DIMLIM
 70
         0
  9
$DIMTIH
 70
         1
  9
$DIMTOH
 70
         1
  9
$DIMSE1
 70
         0
  9
$DIMSE2
 70
         0
  9
$DIMTAD
 70
         0
  9
$DIMZIN
 70
         0
  9
$DIMBLK
  1

  9
$DIMASO
 70
         1
  9
$DIMSHO
 70
         1
  9
$DIMPOST
  1

  9
$DIMAPOST
  1

  9
$DIMALT
 70
         0
  9
$DIMALTD
 70
         2
  9
$DIMALTF
 40
25.4
  9
$DIMLFAC
 40
1.0
  9
$DIMTOFL
 70
         0
  9
$DIMTVP
 40
0.0
  9
$DIMTIX
 70
         0
  9
$DIMSOXD
 70
         0
  9
$DIMSAH
 70
         0
  9
$DIMBLK1
  1

  9
$DIMBLK2
  1

  9
$DIMSTYLE
  2
STANDARD
  9
$DIMCLRD
 70
         0
  9
$DIMCLRE
 70
         0
  9
$DIMCLRT
 70
        16
  9
$DIMTFAC
 40
1.0
  9
$DIMGAP
 40
0.09
  9
$DIMJUST
 70
         0
  9
$DIMSD1
 70
         0
  9
$DIMSD2
 70
         0
  9
$DIMTOLJ
 70
         1
  9
$DIMTZIN
 70
         0
  9
$DIMALTZ
 70
         0
  9
$DIMALTTZ
 70
         0
  9
$DIMFIT
 70
         3
  9
$DIMUPT
 70
         0
  9
$DIMUNIT
 70
         2
  9
$DIMDEC
 70
         4
  9
$DIMTDEC
 70
         4
  9
$DIMALTU
 70
         2
  9
$DIMALTTD
 70
         2
  9
$DIMTXSTY
  7
STANDARD
  9
$DIMAUNIT
 70
         0
  9
$LUNITS
 70
         2
  9
$LUPREC
 70
        10
  9
$SKETCHINC
 40
0.1
  9
$FILLETRAD
 40
0.0
  9
$AUNITS
 70
         0
  9
$AUPREC
 70
         0
  9
$MENU
  1
acad
  9
$ELEVATION
 40
0.0
  9
$PELEVATION
 40
0.0
  9
$THICKNESS
 40
0.0
  9
$LIMCHECK
 70
         0
  9
$BLIPMODE
 70
         1
  9
$CHAMFERA
 40
0.0
  9
$CHAMFERB
 40
0.0
  9
$CHAMFERC
 40
0.0
  9
$CHAMFERD
 40
0.0
  9
$SKPOLY
 70
         0
  9
$TDCREATE
 40
0.000000000
  9
$TDUPDATE
 40
0.000000000
  9
$TDINDWG
 40
0.0000000000
  9
$TDUSRTIMER
 40
0.0000000000
  9
$USRTIMER
 70
         1
  9
$ANGBASE
 50
0.0
  9
$ANGDIR
 70
         0
  9
$PDMODE
 70
         2
  9
$PDSIZE
 40
0.0
  9
$PLINEWID
 40
0.0
  9
$COORDS
 70
         1
  9
$SPLFRAME
 70
         0
  9
$SPLINETYPE
 70
         6
  9
$SPLINESEGS
 70
         8
  9
$ATTDIA
 70
         0
  9
$ATTREQ
 70
         1
  9
$HANDLING
 70
         1
  9
$HANDSEED
  5
254
  9
$SURFTAB1
 70
         6
  9
$SURFTAB2
 70
         6
  9
$SURFTYPE
 70
         6
  9
$SURFU
 70
         6
  9
$SURFV
 70
         6
  9
$UCSNAME
  2

  9
$UCSORG
 10
0.0
 20
0.0
 30
0.0
  9
$UCSXDIR
 10
1.0
 20
0.0
 30
0.0
  9
$UCSYDIR
 10
0.0
 20
1.0
 30
0.0
  9
$PUCSNAME
  2

  9
$PUCSORG
 10
0.0
 20
0.0
 30
0.0
  9
$PUCSXDIR
 10
1.0
 20
0.0
 30
0.0
  9
$PUCSYDIR
 10
0.0
 20
1.0
 30
0.0
  9
$USERI1
 70
         0
  9
$USERI2
 70
         0
  9
$USERI3
 70
         0
  9
$USERI4
 70
         0
  9
$USERI5
 70
         0
  9
$USERR1
 40
0.0
  9
$USERR2
 40
0.0
  9
$USERR3
 40
0.0
  9
$USERR4
 40
0.0
  9
$USERR5
 40
0.0
  9
$WORLDVIEW
 70
         1
  9
$SHADEDGE
 70
         3
  9
$SHADEDIF
 70
        70
  9
$TILEMODE
 70
         1
  9
$MAXACTVP
 70
        16
  9
$PINSBASE
 10
0.0
 20
0.0
 30
0.0
  9
$PLIMCHECK
 70
         0
  9
$PEXTMIN
 10
1.0000000000E+20
 20
1.0000000000E+20
 30
1.0000000000E+20
  9
$PEXTMAX
 10
-1.0000000000E+20
 20
-1.0000000000E+20
 30
-1.0000000000E+20
  9
$PLIMMIN
 10
0.0
 20
0.0
  9
$PLIMMAX
 10
12.0
 20
9.0
  9
$UNITMODE
 70
         0
  9
$VISRETAIN
 70
         0
  9
$PLINEGEN
 70
         1
  9
$PSLTSCALE
 70
         0
  9
$TREEDEPTH
 70
      3020
  9
$PICKSTYLE
 70
         1
  9
$CMLSTYLE
  2
STANDARD
  9
$CMLJUST
 70
         0
  9
$CMLSCALE
 40
1.0
  9
$PROXYGRAPHICS
 70
         0
  9
$MEASUREMENT
 70
         0
  0
ENDSEC
  0
SECTION
  2
CLASSES
  0
CLASS
  1
LWPOLYLINE
  2
AcDbPolyline
  3
"AutoCAD"
 90
        0
280
         0
281
         1
  0
CLASS
  1
IMAGE
  2
AcDbRasterImage
  3
ISM
 90
      127
280
         0
281
         1
  0
CLASS
  1
OLE2FRAME
  2
AcDbOle2Frame
  3
""
 90
        0
280
         0
281
         1
  0
CLASS
  1
HATCH
  2
AcDbHatch
  3
"ACAD_SEDONA"
 90
        0
280
         0
281
         1
  0
CLASS
  1
DICTIONARYVAR
  2
AcDbDictionaryVar
  3
"AutoCAD"
 90
        0
280
         0
281
         0
  0
CLASS
  1
RASTERVARIABLES
  2
AcDbRasterVariables
  3
ISM
 90
        0
280
         0
281
         0
  0
CLASS
  1
IMAGEDEF
  2
AcDbRasterImageDef
  3
ISM
 90
        0
280
         0
281
         0
  0
CLASS
  1
IMAGEDEF_REACTOR
  2
AcDbRasterImageDefReactor
  3
ISM
 90
        1
280
         0
281
         0
  0
CLASS
  1
IDBUFFER
  2
AcDbIdBuffer
  3
"Acad"
 90
        0
280
         0
281
         0
  0
CLASS
  1
SPATIAL_FILTER
  2
AcDbSpatialFilter
  3
"Acad"
 90
        0
280
         0
281
         0
  0
CLASS
  1
XRECORD
  2
AcDbXrecord
  3
"<Built In>"
 90
        0
280
         0
281
         0
  0
CLASS
  1
SORTENTSTABLE
  2
AcDbSortentsTable
  3
"AutoCAD"
 90
        0
280
         0
281
         0
  0
CLASS
  1
LAYER_INDEX
  2
AcDbLayerIndex
  3
"Acad"
 90
        0
280
         0
281
         0
  0
CLASS
  1
SPATIAL_INDEX
  2
AcDbSpatialIndex
  3
"Acad"
 90
        0
280
         0
281
         0
  0
CLASS
  1
OBJECT_PTR
  2
CAseDLPNTableRecord
  3
"ASE-LPNTableRecord"
 90
        1
280
         0
281
         0
  0
CLASS
  1
LAYOUT
  2
AcDbLayout
  3
"AutoCAD 2000"
 90
        1
280
         0
281
         0
  0
CLASS
  1
PLOTSETTINGS
  2
AcDbPlotSettings
  3
"AutoCAD 2000"
 90
        1
280
         0
281
         0
  0
CLASS
  1
ACDBDICTIONARYWDFLT
  2
AcDbDictionaryWithDefault
  3
"AutoCAD 2000"
 90
        1
280
         0
281
         0
  0
CLASS
  1
ACDBPLACEHOLDER
  2
AcDbPlaceHolder
  3
"AutoCAD 2000"
 90
        1
280
         0
281
         0
  0
CLASS
  1
VBA_PROJECT
  2
AcDbVbaProject
  3
"acadvba"
 90
        1
280
         0
281
         0
  0
CLASS
  1
WIPEOUT
  2
AcDbWipeout
  3
WipeOut|AutoCAD Express Tool|expresstools@autodesk.com
 90
      127
280
         0
281
         1
  0
CLASS
  1
WIPEOUTVARIABLES
  2
AcDbWipeoutVariables
  3
WipeOut|AutoCAD Express Tool|expresstools@autodesk.com
 90
        0
280
         0
281
         0
  0
CLASS
  1
RTEXT
  2
RText
  3
RText|AutoCAD Express Tool|expresstools@autodesk.com
 90
        0
280
         0
281
         1
  0
CLASS
  1
ARCALIGNEDTEXT
  2
AcDbArcAlignedText
  3
ATEXT|AutoCAD Express Tool|expresstools@autodesk.com
 90
        0
280
         0
281
         1
  0
ENDSEC
  0
SECTION
  2
TABLES
  0
TABLE
  2
VPORT
  5
7
100
AcDbSymbolTable
 70
         1
  0
VPORT
  5
15
100
AcDbSymbolTableRecord
100
AcDbViewportTableRecord
  2
*ACTIVE
 70
         0
 10
0.0
 20
0.0
 11
1.0
 21
1.0
 12
1855.1201615398
 22
508.3469180614
 13
0.0
 23
0.0
 14
1.0
 24
1.0
 15
0.0
 25
0.0
 16
0.0
 26
0.0
 36
1.0
 17
0.0
 27
0.0
 37
0.0
 40
432.7445409359
 41
1.9834619625
 42
50.0
 43
0.0
 44
0.0
 50
0.0
 51
0.0
 71
         0
 72
       100
 73
         1
 74
         1
 75
         0
 76
         0
 77
         0
 78
         0
  0
ENDTAB
  0
TABLE
  2
LTYPE
  5
4
100
AcDbSymbolTable
 70
         6
  0
LTYPE
  5
11
100
AcDbSymbolTableRecord
100
AcDbLinetypeTableRecord
  2
BYBLOCK
 70
        64
  3

 72
        65
 73
         0
 40
0.0
  0
LTYPE
  5
12
100
AcDbSymbolTableRecord
100
AcDbLinetypeTableRecord
  2
BYLAYER
 70
        64
  3

 72
        65
 73
         0
 40
0.0
  0
LTYPE
  5
13
100
AcDbSymbolTableRecord
100
AcDbLinetypeTableRecord
  2
CONTINUOUS
 70
        64
  3
Solid line
 72
        65
 73
         0
 40
0.0
  0
LTYPE
  5
1D
100
AcDbSymbolTableRecord
100
AcDbLinetypeTableRecord
  2
DASHED
 70
        64
  3
_ _ _ _ _ _ _ _ _ _ _ _ _ _ _ _
 72
        65
 73
         2
 40
0.2
 49
0.1
 74
         0
 49
-0.1
 74
         0
  0
LTYPE
  5
1E
100
AcDbSymbolTableRecord
100
AcDbLinetypeTableRecord
  2
CENTER
 70
        64
  3
___ _ ___ _ ___ _ ___ _ ___ _ ___ _ ___ _ ___ _
 72
        65
 73
         4
 40
0.95
 49
0.625
 74
         0
 49
-0.125
 74
         0
 49
0.075
 74
         0
 49
-0.125
 74
         0
  0
LTYPE
  5
1F
100
AcDbSymbolTableRecord
100
AcDbLinetypeTableRecord
  2
PHANTOM
 70
        64
  3
______  __  __  ______  __  __  ______  __  __  
 72
        65
 73
         6
 40
1.025
 49
0.625
 74
         0
 49
-0.125
 74
         0
 49
0.075
 74
         0
 49
-0.125
 74
         0
 49
0.075
 74
         0
 49
-0.125
 74
         0
  0
ENDTAB
  0
TABLE
  2
LAYER
  5
2
100
AcDbSymbolTable
 70
        10
  0
LAYER
  5
14
100
AcDbSymbolTableRecord
100
AcDbLayerTableRecord
  2
0
 70
         0
 62
         7
  6
CONTINUOUS
  0
LAYER
  5
21
100
AcDbSymbolTableRecord
100
AcDbLayerTableRecord
  2
____
 70
         0
 62
         7
  6
CONTINUOUS
  0
LAYER
  5
22
100
AcDbSymbolTableRecord
100
AcDbLayerTableRecord
  2
____
 70
         1
 62
         7
  6
CONTINUOUS
  0
LAYER
  5
23
100
AcDbSymbolTableRecord
100
AcDbLayerTableRecord
  2
____
 70
         1
 62
         7
  6
CONTINUOUS
  0
LAYER
  5
24
100
AcDbSymbolTableRecord
100
AcDbLayerTableRecord
  2
____
 70
         1
 62
         7
  6
CONTINUOUS
  0
LAYER
  5
25
100
AcDbSymbolTableRecord
100
AcDbLayerTableRecord
  2
___G
 70
         1
 62
         7
  6
CONTINUOUS
  0
LAYER
  5
26
100
AcDbSymbolTableRecord
100
AcDbLayerTableRecord
  2
______
 70
         1
 62
         7
  6
CONTINUOUS
  0
LAYER
  5
27
100
AcDbSymbolTableRecord
100
AcDbLayerTableRecord
  2
____
 70
         1
 62
         7
  6
CONTINUOUS
  0
LAYER
  5
28
100
AcDbSymbolTableRecord
100
AcDbLayerTableRecord
  2
___T
 70
         1
 62
         7
  6
CONTINUOUS
  0
LAYER
  5
10D
100
AcDbSymbolTableRecord
100
AcDbLayerTableRecord
  2
DEFPOINTS
 70
         0
 62
        -7
  6
CONTINUOUS
  0
ENDTAB
  0
TABLE
  2
STYLE
  5
3
100
AcDbSymbolTable
 70
         7
  0
STYLE
  5
17
100
AcDbSymbolTableRecord
100
AcDbTextStyleTableRecord
  2
STANDARD
 70
         0
 40
0.0
 41
1.0
 50
0.0
 71
         0
 42
0.0
  3
txt
  4

  0
STYLE
  5
F4
100
AcDbSymbolTableRecord
100
AcDbTextStyleTableRecord
  2
STSL
 70
         0
 40
1.0
 41
1.0
 50
0.0
 71
         0
 42
0.2
  3

  4
Stsl
  0
STYLE
  5
116
100
AcDbSymbolTableRecord
100
AcDbTextStyleTableRecord
  2
BOX
 70
         0
 40
1.0
 41
1.0
 50
0.0
 71
         0
 42
0.2
  3
txt.shx
  4

  0
STYLE
  5
12F
100
AcDbSymbolTableRecord
100
AcDbTextStyleTableRecord
  2
BOX
 70
         0
 40
1.0
 41
1.0
 50
0.0
 71
         0
 42
0.2
  3
txt.shx
  4

  0
STYLE
  5
141
100
AcDbSymbolTableRecord
100
AcDbTextStyleTableRecord
  2
BOX
 70
         0
 40
1.0
 41
1.0
 50
0.0
 71
         0
 42
0.2
  3
txt.shx
  4

  0
STYLE
  5
24F
100
AcDbSymbolTableRecord
100
AcDbTextStyleTableRecord
  2
BOX
 70
         0
 40
1.0
 41
1.0
 50
0.0
 71
         0
 42
0.2
  3
txt.shx
  4

  0
STYLE
  5
252
100
AcDbSymbolTableRecord
100
AcDbTextStyleTableRecord
  2
BOX
 70
         0
 40
1.0
 41
1.0
 50
0.0
 71
         0
 42
0.2
  3
txt.shx
  4

  0
ENDTAB
  0
TABLE
  2
VIEW
  5
5
100
AcDbSymbolTable
 70
         0
  0
ENDTAB
  0
TABLE
  2
UCS
  5
6
100
AcDbSymbolTable
 70
         1
  0
UCS
  5
20
100
AcDbSymbolTableRecord
100
AcDbUCSTableRecord
  2
CK_VIEW_1
 70
         0
 10
0.0
 20
0.0
 30
1.0
 11
1.0
 21
0.0
 31
0.0
 12
0.0
 22
1.0
 32
0.0
  0
ENDTAB
  0
TABLE
  2
APPID
  5
8
100
AcDbSymbolTable
 70
         1
  0
APPID
  5
16
100
AcDbSymbolTableRecord
100
AcDbRegAppTableRecord
  2
ACAD
 70
         0
  0
ENDTAB
  0
TABLE
  2
DIMSTYLE
  5
9
100
AcDbSymbolTable
 70
         2
  0
DIMSTYLE
105
18
100
AcDbSymbolTableRecord
100
AcDbDimStyleTableRecord
  2
STANDARD
 70
         0
  3

  4

  5

  6

  7

 40
1.0
 41
0.18
 42
0.0625
 43
0.38
 44
0.18
 45
0.0
 46
0.0
 47
0.0
 48
0.0
 71
         0
 72
         0
 73
         1
 74
         1
 75
         0
 76
         0
 77
         0
 78
         0
140
0.18
141
0.09
142
0.0
143
25.4
144
1.0
145
0.0
146
1.0
147
0.09
170
         0
171
         2
172
         0
173
         0
174
         0
175
         0
176
         0
177
         0
178
         0
270
         2
271
         4
272
         4
273
         2
274
         2
275
         0
280
         0
281
         0
282
         0
283
         1
284
         0
285
         0
286
         0
287
         0
288
         0
340
17
  0
DIMSTYLE
105
109
100
AcDbSymbolTableRecord
100
AcDbDimStyleTableRecord
  2
DIMSTYLE1
 70
         0
  3

  4

  5

  6

  7

 40
1.0
 41
3.5
 42
0.0625
 43
0.38
 44
3.5
 45
0.0
 46
0.0
 47
0.0
 48
0.0
 71
         0
 72
         0
 73
         1
 74
         1
 75
         0
 76
         0
 77
         0
 78
         0
140
3.5
141
0.09
142
0.0
143
25.4
144
1.0
145
0.0
146
1.0
147
0.09
170
         0
171
         2
172
         0
173
         0
174
         0
175
         0
176
         0
177
         0
178
         0
270
         2
271
         4
272
         4
273
         2
274
         2
275
         0
280
         0
281
         0
282
         0
283
         1
284
         0
285
         0
286
         0
287
         0
288
         0
340
17
  0
ENDTAB
  0
TABLE
  2
BLOCK_RECORD
  5
1
100
AcDbSymbolTable
 70
        22
  0
BLOCK_RECORD
  5
A
100
AcDbSymbolTableRecord
100
AcDbBlockTableRecord
  2
*MODEL_SPACE
  0
BLOCK_RECORD
  5
B
100
AcDbSymbolTableRecord
100
AcDbBlockTableRecord
  2
*PAPER_SPACE
  0
BLOCK_RECORD
  5
10A
100
AcDbSymbolTableRecord
100
AcDbBlockTableRecord
  2
*D0
  0
BLOCK_RECORD
  5
124
100
AcDbSymbolTableRecord
100
AcDbBlockTableRecord
  2
*D1
  0
BLOCK_RECORD
  5
136
100
AcDbSymbolTableRecord
100
AcDbBlockTableRecord
  2
*D2
  0
BLOCK_RECORD
  5
144
100
AcDbSymbolTableRecord
100
AcDbBlockTableRecord
  2
*X3
  0
BLOCK_RECORD
  5
164
100
AcDbSymbolTableRecord
100
AcDbBlockTableRecord
  2
*X4
  0
BLOCK_RECORD
  5
16E
100
AcDbSymbolTableRecord
100
AcDbBlockTableRecord
  2
*X5
  0
BLOCK_RECORD
  5
17B
100
AcDbSymbolTableRecord
100
AcDbBlockTableRecord
  2
*X6
  0
BLOCK_RECORD
  5
182
100
AcDbSymbolTableRecord
100
AcDbBlockTableRecord
  2
*X7
  0
BLOCK_RECORD
  5
190
100
AcDbSymbolTableRecord
100
AcDbBlockTableRecord
  2
*X8
  0
BLOCK_RECORD
  5
1B0
100
AcDbSymbolTableRecord
100
AcDbBlockTableRecord
  2
*X9
  0
BLOCK_RECORD
  5
1C9
100
AcDbSymbolTableRecord
100
AcDbBlockTableRecord
  2
*X10
  0
BLOCK_RECORD
  5
1D1
100
AcDbSymbolTableRecord
100
AcDbBlockTableRecord
  2
*X11
  0
BLOCK_RECORD
  5
1E1
100
AcDbSymbolTableRecord
100
AcDbBlockTableRecord
  2
*X12
  0
BLOCK_RECORD
  5
1E8
100
AcDbSymbolTableRecord
100
AcDbBlockTableRecord
  2
*X13
  0
BLOCK_RECORD
  5
1EE
100
AcDbSymbolTableRecord
100
AcDbBlockTableRecord
  2
*X14
  0
BLOCK_RECORD
  5
204
100
AcDbSymbolTableRecord
100
AcDbBlockTableRecord
  2
*X15
  0
BLOCK_RECORD
  5
211
100
AcDbSymbolTableRecord
100
AcDbBlockTableRecord
  2
*X16
  0
BLOCK_RECORD
  5
221
100
AcDbSymbolTableRecord
100
AcDbBlockTableRecord
  2
*X17
  0
BLOCK_RECORD
  5
230
100
AcDbSymbolTableRecord
100
AcDbBlockTableRecord
  2
*X18
  0
BLOCK_RECORD
  5
236
100
AcDbSymbolTableRecord
100
AcDbBlockTableRecord
  2
*X19
  0
BLOCK_RECORD
  5
23D
100
AcDbSymbolTableRecord
100
AcDbBlockTableRecord
  2
*X20
  0
BLOCK_RECORD
  5
244
100
AcDbSymbolTableRecord
100
AcDbBlockTableRecord
  2
*D21
  0
ENDTAB
  0
ENDSEC
  0
SECTION
  2
BLOCKS
  0
BLOCK
  5
D
100
AcDbEntity
  8
0
100
AcDbBlockBegin
  2
*MODEL_SPACE
 70
         0
 10
0.0
 20
0.0
 30
0.0
  3
*MODEL_SPACE
  1

  0
ENDBLK
  5
E
100
AcDbEntity
  8
0
100
AcDbBlockEnd
  0
BLOCK
  5
F
100
AcDbEntity
 67
         1
  8
0
100
AcDbBlockBegin
  2
*PAPER_SPACE
 70
         0
 10
0.0
 20
0.0
 30
0.0
  3
*PAPER_SPACE
  1

  0
ENDBLK
  5
10
100
AcDbEntity
 67
         1
  8
0
100
AcDbBlockEnd
  0
BLOCK
  5
10B
100
AcDbEntity
  8
0
100
AcDbBlockBegin
  2
*D0
 70
        65
 10
0.0
 20
0.0
 30
0.0
  3
*D0
  1

  0
POINT
  5
10E
100
AcDbEntity
  8
DEFPOINTS
  6
CONTINUOUS
 62
         0
100
AcDbPoint
 10
1878.0878569013
 20
590.4416159023
 30
0.0
  0
POINT
  5
10F
100
AcDbEntity
  8
DEFPOINTS
  6
CONTINUOUS
 62
         0
100
AcDbPoint
 10
1821.1318192114
 20
590.4416159023
 30
0.0
  0
POINT
  5
110
100
AcDbEntity
  8
DEFPOINTS
  6
CONTINUOUS
 62
         0
100
AcDbPoint
 10
1821.1318192114
 20
576.2426159023
 30
0.0
  0
LINE
  5
111
100
AcDbEntity
  8
____
  6
CONTINUOUS
 62
         4
100
AcDbLine
 10
1822.8818192114
 20
590.4416159023
 30
0.0
 11
1878.9628569013
 21
590.4416159023
 31
0.0
  0
LINE
  5
112
100
AcDbEntity
  8
____
  6
CONTINUOUS
 62
         4
100
AcDbLine
 10
1822.8818192114
 20
576.2426159023
 30
0.0
 11
1878.9628569013
 21
576.2426159023
 31
0.0
  0
LINE
  5
113
100
AcDbEntity
  8
____
  6
CONTINUOUS
 62
         4
100
AcDbLine
 10
1878.0878569013
 20
590.4416159023
 30
0.0
 11
1878.0878569013
 21
576.2426159023
 31
0.0
  0
SOLID
  5
114
100
AcDbEntity
  8
____
  6
CONTINUOUS
 62
         4
100
AcDbTrace
 10
1878.0878569013
 20
590.4416159023
 30
0.0
 11
1878.6128569013
 21
586.9416159023
 31
0.0
 12
1877.5628569013
 22
586.9416159023
 32
0.0
 13
1878.0878569013
 23
590.4416159023
 33
0.0
  0
SOLID
  5
115
100
AcDbEntity
  8
____
  6
CONTINUOUS
 62
         4
100
AcDbTrace
 10
1878.0878569013
 20
576.2426159023
 30
0.0
 11
1877.5628569013
 21
579.7426159023
 31
0.0
 12
1878.6128569013
 22
579.7426159023
 32
0.0
 13
1878.0878569013
 23
576.2426159023
 33
0.0
  0
TEXT
  5
117
100
AcDbEntity
  8
____
  6
CONTINUOUS
 62
         4
100
AcDbText
 10
1875.4628569013
 20
576.1982962495
 30
0.0
 40
3.5
  1
崷14.199
 50
90.0
  7
BOX
100
AcDbText
  0
ENDBLK
  5
118
100
AcDbEntity
  8
0
  6
CONTINUOUS
100
AcDbBlockEnd
  0
BLOCK
  5
125
100
AcDbEntity
  8
0
100
AcDbBlockBegin
  2
*D1
 70
        65
 10
0.0
 20
0.0
 30
0.0
  3
*D1
  1

  0
POINT
  5
127
100
AcDbEntity
  8
DEFPOINTS
  6
CONTINUOUS
 62
         0
100
AcDbPoint
 10
1870.884256974
 20
400.1275238512
 30
0.0
  0
POINT
  5
128
100
AcDbEntity
  8
DEFPOINTS
  6
CONTINUOUS
 62
         0
100
AcDbPoint
 10
1843.3568192114
 20
400.1275238512
 30
0.0
  0
POINT
  5
129
100
AcDbEntity
  8
DEFPOINTS
  6
CONTINUOUS
 62
         0
100
AcDbPoint
 10
1843.3568192114
 20
387.7415238512
 30
0.0
  0
LINE
  5
12A
100
AcDbEntity
  8
____
  6
CONTINUOUS
 62
         4
100
AcDbLine
 10
1845.1068192114
 20
400.1275238512
 30
0.0
 11
1871.759256974
 21
400.1275238512
 31
0.0
  0
LINE
  5
12B
100
AcDbEntity
  8
____
  6
CONTINUOUS
 62
         4
100
AcDbLine
 10
1845.1068192114
 20
387.7415238512
 30
0.0
 11
1871.759256974
 21
387.7415238512
 31
0.0
  0
LINE
  5
12C
100
AcDbEntity
  8
____
  6
CONTINUOUS
 62
         4
100
AcDbLine
 10
1870.884256974
 20
400.1275238512
 30
0.0
 11
1870.884256974
 21
387.7415238512
 31
0.0
  0
SOLID
  5
12D
100
AcDbEntity
  8
____
  6
CONTINUOUS
 62
         4
100
AcDbTrace
 10
1870.884256974
 20
400.1275238512
 30
0.0
 11
1871.409256974
 21
396.6275238512
 31
0.0
 12
1870.359256974
 22
396.6275238512
 32
0.0
 13
1870.884256974
 23
400.1275238512
 33
0.0
  0
SOLID
  5
12E
100
AcDbEntity
  8
____
  6
CONTINUOUS
 62
         4
100
AcDbTrace
 10
1870.884256974
 20
387.7415238512
 30
0.0
 11
1870.359256974
 21
391.2415238512
 31
0.0
 12
1871.409256974
 22
391.2415238512
 32
0.0
 13
1870.884256974
 23
387.7415238512
 33
0.0
  0
TEXT
  5
130
100
AcDbEntity
  8
____
  6
CONTINUOUS
 62
         4
100
AcDbText
 10
1868.259256974
 20
386.0139099909
 30
0.0
 40
3.5
  1
崷12.386
 50
90.0
  7
BOX
100
AcDbText
  0
ENDBLK
  5
131
100
AcDbEntity
  8
0
  6
CONTINUOUS
100
AcDbBlockEnd
  0
BLOCK
  5
137
100
AcDbEntity
  8
0
100
AcDbBlockBegin
  2
*D2
 70
        65
 10
0.0
 20
0.0
 30
0.0
  3
*D2
  1

  0
POINT
  5
139
100
AcDbEntity
  8
DEFPOINTS
  6
CONTINUOUS
 62
         0
100
AcDbPoint
 10
1843.3568192114
 20
698.9239821232
 30
0.0
  0
POINT
  5
13A
100
AcDbEntity
  8
DEFPOINTS
  6
CONTINUOUS
 62
         0
100
AcDbPoint
 10
1843.3568192114
 20
588.5366900229
 30
0.0
  0
POINT
  5
13B
100
AcDbEntity
  8
DEFPOINTS
  6
CONTINUOUS
 62
         0
100
AcDbPoint
 10
1679.5268192114
 20
601.2665764603
 30
0.0
  0
LINE
  5
13C
100
AcDbEntity
  8
____
  6
CONTINUOUS
 62
         4
100
AcDbLine
 10
1843.3568192114
 20
590.2866900229
 30
0.0
 11
1843.3568192114
 21
699.7989821232
 31
0.0
  0
LINE
  5
13D
100
AcDbEntity
  8
____
  6
CONTINUOUS
 62
         4
100
AcDbLine
 10
1679.5268192114
 20
603.0165764603
 30
0.0
 11
1679.5268192114
 21
699.7989821232
 31
0.0
  0
LINE
  5
13E
100
AcDbEntity
  8
____
  6
CONTINUOUS
 62
         4
100
AcDbLine
 10
1843.3568192114
 20
698.9239821232
 30
0.0
 11
1679.5268192114
 21
698.9239821232
 31
0.0
  0
SOLID
  5
13F
100
AcDbEntity
  8
____
  6
CONTINUOUS
 62
         4
100
AcDbTrace
 10
1843.3568192114
 20
698.9239821232
 30
0.0
 11
1839.8568192114
 21
698.3989821232
 31
0.0
 12
1839.8568192114
 22
699.4489821232
 32
0.0
 13
1843.3568192114
 23
698.9239821232
 33
0.0
  0
SOLID
  5
140
100
AcDbEntity
  8
____
  6
CONTINUOUS
 62
         4
100
AcDbTrace
 10
1679.5268192114
 20
698.9239821232
 30
0.0
 11
1683.0268192114
 21
699.4489821232
 31
0.0
 12
1683.0268192114
 22
698.3989821232
 32
0.0
 13
1679.5268192114
 23
698.9239821232
 33
0.0
  0
TEXT
  5
142
100
AcDbEntity
  8
____
  6
CONTINUOUS
 62
         4
100
AcDbText
 10
1756.6272269943
 20
701.5489821232
 30
0.0
 40
3.5
  1
163.83
  7
BOX
100
AcDbText
  0
ENDBLK
  5
143
100
AcDbEntity
  8
0
  6
CONTINUOUS
100
AcDbBlockEnd
  0
BLOCK
  5
145
100
AcDbEntity
  8
0
100
AcDbBlockBegin
  2
*X3
 70
        65
 10
0.0
 20
0.0
 30
0.0
  3
*X3
  1

  0
LINE
  5
146
100
AcDbEntity
  8
____
  6
CONTINUOUS
 62
         4
100
AcDbLine
 10
1781.2780285391
 20
393.9345238511
 30
0.0
 11
1784.4768192114
 21
397.1333145233
 31
0.0
  0
LINE
  5
147
100
AcDbEntity
  8
____
  6
CONTINUOUS
 62
         4
100
AcDbLine
 10
1777.035387852
 20
393.9345238511
 30
0.0
 11
1784.4768192114
 21
401.3759552105
 31
0.0
  0
LINE
  5
148
100
AcDbEntity
  8
____
  6
CONTINUOUS
 62
         4
100
AcDbLine
 10
1772.7927471649
 20
393.9345238511
 30
0.0
 11
1784.4768192114
 21
405.6185958976
 31
0.0
  0
LINE
  5
149
100
AcDbEntity
  8
____
  6
CONTINUOUS
 62
         4
100
AcDbLine
 10
1768.5501064778
 20
393.9345238511
 30
0.0
 11
1784.4768192114
 21
409.8612365847
 31
0.0
  0
LINE
  5
14A
100
AcDbEntity
  8
____
  6
CONTINUOUS
 62
         4
100
AcDbLine
 10
1764.3074657907
 20
393.9345238511
 30
0.0
 11
1784.4768192114
 21
414.1038772718
 31
0.0
  0
LINE
  5
14B
100
AcDbEntity
  8
____
  6
CONTINUOUS
 62
         4
100
AcDbLine
 10
1760.0648251035
 20
393.9345238511
 30
0.0
 11
1784.4768192114
 21
418.3465179589
 31
0.0
  0
LINE
  5
14C
100
AcDbEntity
  8
____
  6
CONTINUOUS
 62
         4
100
AcDbLine
 10
1755.8221844164
 20
393.9345238511
 30
0.0
 11
1784.4768192114
 21
422.5891586461
 31
0.0
  0
LINE
  5
14D
100
AcDbEntity
  8
____
  6
CONTINUOUS
 62
         4
100
AcDbLine
 10
1751.5795437293
 20
393.9345238511
 30
0.0
 11
1784.4768192114
 21
426.8317993332
 31
0.0
  0
LINE
  5
14E
100
AcDbEntity
  8
____
  6
CONTINUOUS
 62
         4
100
AcDbLine
 10
1747.3369030422
 20
393.9345238511
 30
0.0
 11
1781.2398419323
 21
427.8374627412
 31
0.0
  0
LINE
  5
14F
100
AcDbEntity
  8
____
  6
CONTINUOUS
 62
         4
100
AcDbLine
 10
1745.5888810049
 20
396.4291425009
 30
0.0
 11
1777.463087981
 21
428.3033494771
 31
0.0
  0
LINE
  5
150
100
AcDbEntity
  8
____
  6
CONTINUOUS
 62
         4
100
AcDbLine
 10
1744.0359667343
 20
399.1188689174
 30
0.0
 11
1772.4960860217
 21
427.5789882048
 31
0.0
  0
LINE
  5
151
100
AcDbEntity
  8
____
  6
CONTINUOUS
 62
         4
100
AcDbLine
 10
1742.4830524636
 20
401.8085953339
 30
0.0
 11
1767.5290840623
 21
426.8546269326
 31
0.0
  0
LINE
  5
152
100
AcDbEntity
  8
____
  6
CONTINUOUS
 62
         4
100
AcDbLine
 10
1740.7626817571
 20
404.3308653146
 30
0.0
 11
1762.562082103
 21
426.1302656604
 31
0.0
  0
LINE
  5
153
100
AcDbEntity
  8
____
  6
CONTINUOUS
 62
         4
100
AcDbLine
 10
1736.52004107
 20
404.3308653146
 30
0.0
 11
1757.5950801437
 21
425.4059043882
 31
0.0
  0
LINE
  5
154
100
AcDbEntity
  8
____
  6
CONTINUOUS
 62
         4
100
AcDbLine
 10
1732.2774003829
 20
404.3308653146
 30
0.0
 11
1752.6280781843
 21
424.681543116
 31
0.0
  0
LINE
  5
155
100
AcDbEntity
  8
____
  6
CONTINUOUS
 62
         4
100
AcDbLine
 10
1728.0347596958
 20
404.3308653146
 30
0.0
 11
1747.661076225
 21
423.9571818438
 31
0.0
  0
LINE
  5
156
100
AcDbEntity
  8
____
  6
CONTINUOUS
 62
         4
100
AcDbLine
 10
1723.9768192114
 20
404.5155655173
 30
0.0
 11
1742.6940742657
 21
423.2328205716
 31
0.0
  0
LINE
  5
157
100
AcDbEntity
  8
____
  6
CONTINUOUS
 62
         4
100
AcDbLine
 10
1721.1531368581
 20
405.9345238512
 30
0.0
 11
1737.7270723064
 21
422.5084592994
 31
0.0
  0
LINE
  5
158
100
AcDbEntity
  8
____
  6
CONTINUOUS
 62
         4
100
AcDbLine
 10
1716.910496171
 20
405.9345238512
 30
0.0
 11
1732.760070347
 21
421.7840980272
 31
0.0
  0
LINE
  5
159
100
AcDbEntity
  8
____
  6
CONTINUOUS
 62
         4
100
AcDbLine
 10
1712.6678554839
 20
405.9345238512
 30
0.0
 11
1727.7930683877
 21
421.059736755
 31
0.0
  0
LINE
  5
15A
100
AcDbEntity
  8
____
  6
CONTINUOUS
 62
         4
100
AcDbLine
 10
1708.4252147968
 20
405.9345238512
 30
0.0
 11
1722.8260664284
 21
420.3353754828
 31
0.0
  0
LINE
  5
15B
100
AcDbEntity
  8
____
  6
CONTINUOUS
 62
         4
100
AcDbLine
 10
1704.1825741097
 20
405.9345238512
 30
0.0
 11
1717.8590644691
 21
419.6110142106
 31
0.0
  0
LINE
  5
15C
100
AcDbEntity
  8
____
  6
CONTINUOUS
 62
         4
100
AcDbLine
 10
1699.9399334225
 20
405.9345238512
 30
0.0
 11
1712.8920625097
 21
418.8866529383
 31
0.0
  0
LINE
  5
15D
100
AcDbEntity
  8
____
  6
CONTINUOUS
 62
         4
100
AcDbLine
 10
1695.6972927354
 20
405.9345238512
 30
0.0
 11
1707.9250605504
 21
418.1622916661
 31
0.0
  0
LINE
  5
15E
100
AcDbEntity
  8
____
  6
CONTINUOUS
 62
         4
100
AcDbLine
 10
1693.2258044633
 20
407.7056762661
 30
0.0
 11
1702.9580585911
 21
417.4379303939
 31
0.0
  0
LINE
  5
15F
100
AcDbEntity
  8
____
  6
CONTINUOUS
 62
         4
100
AcDbLine
 10
1693.2456222102
 20
411.9681347002
 30
0.0
 11
1697.9910566317
 21
416.7135691217
 31
0.0
  0
LINE
  5
160
100
AcDbEntity
  8
____
  6
CONTINUOUS
 62
         4
100
AcDbLine
 10
1691.9564915406
 20
414.9216447177
 30
0.0
 11
1693.0240546724
 21
415.9892078495
 31
0.0
  0
ENDBLK
  5
161
100
AcDbEntity
  8
0
  6
CONTINUOUS
100
AcDbBlockEnd
  0
BLOCK
  5
165
100
AcDbEntity
  8
0
100
AcDbBlockBegin
  2
*X4
 70
        65
 10
0.0
 20
0.0
 30
0.0
  3
*X4
  1

  0
LINE
  5
166
100
AcDbEntity
  8
____
  6
CONTINUOUS
 62
         4
100
AcDbLine
 10
1691.4546520483
 20
405.9345238512
 30
0.0
 11
1693.2258044633
 21
407.7056762661
 31
0.0
  0
LINE
  5
167
100
AcDbEntity
  8
____
  6
CONTINUOUS
 62
         4
100
AcDbLine
 10
1687.2120113612
 20
405.9345238512
 30
0.0
 11
1693.2456222102
 21
411.9681347002
 31
0.0
  0
LINE
  5
168
100
AcDbEntity
  8
____
  6
CONTINUOUS
 62
         4
100
AcDbLine
 10
1683.4693706741
 20
406.4345238512
 30
0.0
 11
1691.9564915406
 21
414.9216447177
 31
0.0
  0
LINE
  5
169
100
AcDbEntity
  8
____
  6
CONTINUOUS
 62
         4
100
AcDbLine
 10
1679.8267809733
 20
407.0345748375
 30
0.0
 11
1688.0570527131
 21
415.2648465773
 31
0.0
  0
LINE
  5
16A
100
AcDbEntity
  8
____
  6
CONTINUOUS
 62
         4
100
AcDbLine
 10
1679.5268192114
 20
410.9772537627
 30
0.0
 11
1683.0900507538
 21
414.5404853051
 31
0.0
  0
ENDBLK
  5
16B
100
AcDbEntity
  8
0
  6
CONTINUOUS
100
AcDbBlockEnd
  0
BLOCK
  5
16F
100
AcDbEntity
  8
0
100
AcDbBlockBegin
  2
*X5
 70
        65
 10
0.0
 20
0.0
 30
0.0
  3
*X5
  1

  0
LINE
  5
170
100
AcDbEntity
  8
____
  6
CONTINUOUS
 62
         4
100
AcDbLine
 10
1723.7921190087
 20
404.3308653146
 30
0.0
 11
1723.9768192114
 21
404.5155655173
 31
0.0
  0
LINE
  5
171
100
AcDbEntity
  8
____
  6
CONTINUOUS
 62
         4
100
AcDbLine
 10
1719.5494783215
 20
404.3308653146
 30
0.0
 11
1721.1531368581
 21
405.9345238512
 31
0.0
  0
LINE
  5
172
100
AcDbEntity
  8
____
  6
CONTINUOUS
 62
         4
100
AcDbLine
 10
1715.3068376344
 20
404.3308653146
 30
0.0
 11
1716.910496171
 21
405.9345238512
 31
0.0
  0
LINE
  5
173
100
AcDbEntity
  8
____
  6
CONTINUOUS
 62
         4
100
AcDbLine
 10
1711.0641969473
 20
404.3308653146
 30
0.0
 11
1712.6678554839
 21
405.9345238512
 31
0.0
  0
LINE
  5
174
100
AcDbEntity
  8
____
  6
CONTINUOUS
 62
         4
100
AcDbLine
 10
1706.8215562602
 20
404.3308653146
 30
0.0
 11
1708.4252147968
 21
405.9345238512
 31
0.0
  0
LINE
  5
175
100
AcDbEntity
  8
____
  6
CONTINUOUS
 62
         4
100
AcDbLine
 10
1702.5789155731
 20
404.3308653146
 30
0.0
 11
1704.1825741097
 21
405.9345238512
 31
0.0
  0
LINE
  5
176
100
AcDbEntity
  8
____
  6
CONTINUOUS
 62
         4
100
AcDbLine
 10
1698.3362748859
 20
404.3308653146
 30
0.0
 11
1699.9399334225
 21
405.9345238512
 31
0.0
  0
LINE
  5
177
100
AcDbEntity
  8
____
  6
CONTINUOUS
 62
         4
100
AcDbLine
 10
1694.0936341988
 20
404.3308653146
 30
0.0
 11
1695.6972927354
 21
405.9345238512
 31
0.0
  0
ENDBLK
  5
178
100
AcDbEntity
  8
0
  6
CONTINUOUS
100
AcDbBlockEnd
  0
BLOCK
  5
17C
100
AcDbEntity
  8
0
100
AcDbBlockBegin
  2
*X6
 70
        65
 10
0.0
 20
0.0
 30
0.0
  3
*X6
  1

  0
LINE
  5
17D
100
AcDbEntity
  8
____
  6
CONTINUOUS
 62
         4
100
AcDbLine
 10
1689.8509935117
 20
404.3308653146
 30
0.0
 11
1691.4546520483
 21
405.9345238512
 31
0.0
  0
LINE
  5
17E
100
AcDbEntity
  8
____
  6
CONTINUOUS
 62
         4
100
AcDbLine
 10
1686.7772579987
 20
405.4997704887
 30
0.0
 11
1687.2120113612
 21
405.9345238512
 31
0.0
  0
ENDBLK
  5
17F
100
AcDbEntity
  8
0
  6
CONTINUOUS
100
AcDbBlockEnd
  0
BLOCK
  5
183
100
AcDbEntity
  8
0
100
AcDbBlockBegin
  2
*X7
 70
        65
 10
0.0
 20
0.0
 30
0.0
  3
*X7
  1

  0
LINE
  5
184
100
AcDbEntity
  8
____
  6
CONTINUOUS
 62
         4
100
AcDbLine
 10
1722.6089809808
 20
381.9345238512
 30
0.0
 11
1723.9768192114
 21
383.3023620817
 31
0.0
  0
LINE
  5
185
100
AcDbEntity
  8
____
  6
CONTINUOUS
 62
         4
100
AcDbLine
 10
1718.3663402937
 20
381.9345238512
 30
0.0
 11
1719.9699988303
 21
383.5381823877
 31
0.0
  0
LINE
  5
186
100
AcDbEntity
  8
____
  6
CONTINUOUS
 62
         4
100
AcDbLine
 10
1714.1236996066
 20
381.9345238512
 30
0.0
 11
1715.7273581432
 21
383.5381823877
 31
0.0
  0
LINE
  5
187
100
AcDbEntity
  8
____
  6
CONTINUOUS
 62
         4
100
AcDbLine
 10
1709.8810589195
 20
381.9345238512
 30
0.0
 11
1711.4847174561
 21
383.5381823877
 31
0.0
  0
LINE
  5
188
100
AcDbEntity
  8
____
  6
CONTINUOUS
 62
         4
100
AcDbLine
 10
1705.6384182324
 20
381.9345238512
 30
0.0
 11
1707.242076769
 21
383.5381823877
 31
0.0
  0
LINE
  5
189
100
AcDbEntity
  8
____
  6
CONTINUOUS
 62
         4
100
AcDbLine
 10
1701.3957775453
 20
381.9345238512
 30
0.0
 11
1702.9994360818
 21
383.5381823877
 31
0.0
  0
LINE
  5
18A
100
AcDbEntity
  8
____
  6
CONTINUOUS
 62
         4
100
AcDbLine
 10
1697.1531368581
 20
381.9345238512
 30
0.0
 11
1698.7567953947
 21
383.5381823877
 31
0.0
  0
LINE
  5
18B
100
AcDbEntity
  8
____
  6
CONTINUOUS
 62
         4
100
AcDbLine
 10
1692.910496171
 20
381.9345238512
 30
0.0
 11
1694.5141547076
 21
383.5381823877
 31
0.0
  0
LINE
  5
18C
100
AcDbEntity
  8
____
  6
CONTINUOUS
 62
         4
100
AcDbLine
 10
1688.6678554839
 20
381.9345238512
 30
0.0
 11
1690.2715140205
 21
383.5381823877
 31
0.0
  0
ENDBLK
  5
18D
100
AcDbEntity
  8
0
  6
CONTINUOUS
100
AcDbBlockEnd
  0
BLOCK
  5
191
100
AcDbEntity
  8
0
100
AcDbBlockBegin
  2
*X8
 70
        65
 10
0.0
 20
0.0
 30
0.0
  3
*X8
  1

  0
LINE
  5
192
100
AcDbEntity
  8
____
  6
CONTINUOUS
 62
         4
100
AcDbLine
 10
1781.3468895934
 20
360.0622594085
 30
0.0
 11
1784.4768192114
 21
363.1921890264
 31
0.0
  0
LINE
  5
193
100
AcDbEntity
  8
____
  6
CONTINUOUS
 62
         4
100
AcDbLine
 10
1776.7165577414
 20
359.6745682435
 30
0.0
 11
1784.4768192114
 21
367.4348297135
 31
0.0
  0
LINE
  5
194
100
AcDbEntity
  8
____
  6
CONTINUOUS
 62
         4
100
AcDbLine
 10
1773.0138939422
 20
360.2145451314
 30
0.0
 11
1784.4768192114
 21
371.6774704006
 31
0.0
  0
LINE
  5
195
100
AcDbEntity
  8
____
  6
CONTINUOUS
 62
         4
100
AcDbLine
 10
1769.3112301429
 20
360.7545220193
 30
0.0
 11
1784.4768192114
 21
375.9201110877
 31
0.0
  0
LINE
  5
196
100
AcDbEntity
  8
____
  6
CONTINUOUS
 62
         4
100
AcDbLine
 10
1765.6085663437
 20
361.2944989072
 30
0.0
 11
1784.4768192114
 21
380.1627517749
 31
0.0
  0
LINE
  5
197
100
AcDbEntity
  8
____
  6
CONTINUOUS
 62
         4
100
AcDbLine
 10
1761.9059025445
 20
361.8344757951
 30
0.0
 11
1784.4768192114
 21
384.405392462
 31
0.0
  0
LINE
  5
198
100
AcDbEntity
  8
____
  6
CONTINUOUS
 62
         4
100
AcDbLine
 10
1758.2032387453
 20
362.374452683
 30
0.0
 11
1784.4768192114
 21
388.6480331491
 31
0.0
  0
LINE
  5
199
100
AcDbEntity
  8
____
  6
CONTINUOUS
 62
         4
100
AcDbLine
 10
1754.500574946
 20
362.9144295709
 30
0.0
 11
1784.4768192114
 21
392.8906738362
 31
0.0
  0
LINE
  5
19A
100
AcDbEntity
  8
____
  6
CONTINUOUS
 62
         4
100
AcDbLine
 10
1750.7979111468
 20
363.4544064588
 30
0.0
 11
1781.2780285392
 21
393.9345238512
 31
0.0
  0
LINE
  5
19B
100
AcDbEntity
  8
____
  6
CONTINUOUS
 62
         4
100
AcDbLine
 10
1747.0952473476
 20
363.9943833467
 30
0.0
 11
1777.035387852
 21
393.9345238512
 31
0.0
  0
LINE
  5
19C
100
AcDbEntity
  8
____
  6
CONTINUOUS
 62
         4
100
AcDbLine
 10
1743.3925835484
 20
364.5343602346
 30
0.0
 11
1772.7927471649
 21
393.9345238512
 31
0.0
  0
LINE
  5
19D
100
AcDbEntity
  8
____
  6
CONTINUOUS
 62
         4
100
AcDbLine
 10
1739.6899197491
 20
365.0743371225
 30
0.0
 11
1768.5501064778
 21
393.9345238512
 31
0.0
  0
LINE
  5
19E
100
AcDbEntity
  8
____
  6
CONTINUOUS
 62
         4
100
AcDbLine
 10
1735.9872559499
 20
365.6143140104
 30
0.0
 11
1764.3074657907
 21
393.9345238512
 31
0.0
  0
LINE
  5
19F
100
AcDbEntity
  8
____
  6
CONTINUOUS
 62
         4
100
AcDbLine
 10
1732.2845921507
 20
366.1542908983
 30
0.0
 11
1760.0648251036
 21
393.9345238512
 31
0.0
  0
LINE
  5
1A0
100
AcDbEntity
  8
____
  6
CONTINUOUS
 62
         4
100
AcDbLine
 10
1728.5819283515
 20
366.6942677862
 30
0.0
 11
1755.8221844164
 21
393.9345238512
 31
0.0
  0
LINE
  5
1A1
100
AcDbEntity
  8
____
  6
CONTINUOUS
 62
         4
100
AcDbLine
 10
1724.8792645522
 20
367.2342446741
 30
0.0
 11
1751.5795437293
 21
393.9345238512
 31
0.0
  0
LINE
  5
1A2
100
AcDbEntity
  8
____
  6
CONTINUOUS
 62
         4
100
AcDbLine
 10
1721.176600753
 20
367.774221562
 30
0.0
 11
1736.9405615787
 21
383.5381823877
 31
0.0
  0
LINE
  5
1A3
100
AcDbEntity
  8
____
  6
CONTINUOUS
 62
         4
100
AcDbLine
 10
1746.6087509439
 20
393.2063717529
 30
0.0
 11
1747.3369030422
 21
393.9345238512
 31
0.0
  0
LINE
  5
1A4
100
AcDbEntity
  8
____
  6
CONTINUOUS
 62
         4
100
AcDbLine
 10
1717.4739369538
 20
368.3141984499
 30
0.0
 11
1732.6979208916
 21
383.5381823877
 31
0.0
  0
LINE
  5
1A5
100
AcDbEntity
  8
____
  6
CONTINUOUS
 62
         4
100
AcDbLine
 10
1713.7712731546
 20
368.8541753378
 30
0.0
 11
1728.4552802045
 21
383.5381823877
 31
0.0
  0
LINE
  5
1A6
100
AcDbEntity
  8
____
  6
CONTINUOUS
 62
         4
100
AcDbLine
 10
1710.0686093553
 20
369.3941522256
 30
0.0
 11
1722.6089809808
 21
381.9345238512
 31
0.0
  0
LINE
  5
1A7
100
AcDbEntity
  8
____
  6
CONTINUOUS
 62
         4
100
AcDbLine
 10
1723.9768192114
 20
383.3023620817
 30
0.0
 11
1724.2126395174
 21
383.5381823877
 31
0.0
  0
LINE
  5
1A8
100
AcDbEntity
  8
____
  6
CONTINUOUS
 62
         4
100
AcDbLine
 10
1706.3659455561
 20
369.9341291135
 30
0.0
 11
1718.3663402937
 21
381.9345238512
 31
0.0
  0
LINE
  5
1A9
100
AcDbEntity
  8
____
  6
CONTINUOUS
 62
         4
100
AcDbLine
 10
1702.6632817569
 20
370.4741060014
 30
0.0
 11
1714.1236996066
 21
381.9345238512
 31
0.0
  0
LINE
  5
1AA
100
AcDbEntity
  8
____
  6
CONTINUOUS
 62
         4
100
AcDbLine
 10
1698.9606179577
 20
371.0140828893
 30
0.0
 11
1709.8810589195
 21
381.9345238512
 31
0.0
  0
LINE
  5
1AB
100
AcDbEntity
  8
____
  6
CONTINUOUS
 62
         4
100
AcDbLine
 10
1697.8487495766
 20
374.1448551953
 30
0.0
 11
1705.6384182324
 21
381.9345238512
 31
0.0
  0
LINE
  5
1AC
100
AcDbEntity
  8
____
  6
CONTINUOUS
 62
         4
100
AcDbLine
 10
1697.8487495766
 20
378.3874958825
 30
0.0
 11
1701.3957775453
 21
381.9345238512
 31
0.0
  0
ENDBLK
  5
1AD
100
AcDbEntity
  8
0
  6
CONTINUOUS
100
AcDbBlockEnd
  0
BLOCK
  5
1B1
100
AcDbEntity
  8
0
100
AcDbBlockBegin
  2
*X9
 70
        65
 10
0.0
 20
0.0
 30
0.0
  3
*X9
  1

  0
LINE
  5
1B2
100
AcDbEntity
  8
____
  6
CONTINUOUS
 62
         4
100
AcDbLine
 10
1695.2579541584
 20
371.5540597772
 30
0.0
 11
1697.8487495766
 21
374.1448551953
 31
0.0
  0
LINE
  5
1B3
100
AcDbEntity
  8
____
  6
CONTINUOUS
 62
         4
100
AcDbLine
 10
1691.5552903592
 20
372.0940366651
 30
0.0
 11
1697.8487495766
 21
378.3874958825
 31
0.0
  0
LINE
  5
1B4
100
AcDbEntity
  8
____
  6
CONTINUOUS
 62
         4
100
AcDbLine
 10
1687.85262656
 20
372.634013553
 30
0.0
 11
1697.1531368581
 21
381.9345238512
 31
0.0
  0
LINE
  5
1B5
100
AcDbEntity
  8
____
  6
CONTINUOUS
 62
         4
100
AcDbLine
 10
1684.1499627608
 20
373.1739904409
 30
0.0
 11
1692.910496171
 21
381.9345238512
 31
0.0
  0
LINE
  5
1B6
100
AcDbEntity
  8
____
  6
CONTINUOUS
 62
         4
100
AcDbLine
 10
1681.2715600777
 20
374.538228445
 30
0.0
 11
1688.6678554839
 21
381.9345238512
 31
0.0
  0
LINE
  5
1B7
100
AcDbEntity
  8
____
  6
CONTINUOUS
 62
         4
100
AcDbLine
 10
1679.5268192113
 20
377.0361282657
 30
0.0
 11
1683.9149876062
 21
381.4242966606
 31
0.0
  0
ENDBLK
  5
1B8
100
AcDbEntity
  8
0
  6
CONTINUOUS
100
AcDbBlockEnd
  0
BLOCK
  5
1CA
100
AcDbEntity
  8
0
100
AcDbBlockBegin
  2
*X10
 70
        65
 10
0.0
 20
0.0
 30
0.0
  3
*X10
  1

  0
LINE
  5
1CB
100
AcDbEntity
  8
____
  6
CONTINUOUS
 62
         4
100
AcDbLine
 10
1787.6823574717
 20
345.1845238512
 30
0.0
 11
1790.4226676066
 21
347.9248339861
 31
0.0
  0
LINE
  5
1CC
100
AcDbEntity
  8
____
  6
CONTINUOUS
 62
         4
100
AcDbLine
 10
1790.7847296238
 20
348.2868960033
 30
0.0
 11
1790.8073574717
 21
348.3095238512
 31
0.0
  0
LINE
  5
1CD
100
AcDbEntity
  8
____
  6
CONTINUOUS
 62
         4
100
AcDbLine
 10
1784.5330087699
 20
346.2778158365
 30
0.0
 11
1786.5647167846
 21
348.3095238512
 31
0.0
  0
ENDBLK
  5
1CE
100
AcDbEntity
  8
0
  6
CONTINUOUS
100
AcDbBlockEnd
  0
BLOCK
  5
1D2
100
AcDbEntity
  8
0
100
AcDbBlockBegin
  2
*X11
 70
        65
 10
0.0
 20
0.0
 30
0.0
  3
*X11
  1

  0
LINE
  5
1D3
100
AcDbEntity
  8
____
  6
CONTINUOUS
 62
         4
100
AcDbLine
 10
1799.2926388459
 20
348.3095238512
 30
0.0
 11
1800.3768192114
 21
349.3937042166
 31
0.0
  0
LINE
  5
1D4
100
AcDbEntity
  8
____
  6
CONTINUOUS
 62
         4
100
AcDbLine
 10
1795.0499981588
 20
348.3095238512
 30
0.0
 11
1800.3768192114
 21
353.6363449037
 31
0.0
  0
LINE
  5
1D5
100
AcDbEntity
  8
____
  6
CONTINUOUS
 62
         4
100
AcDbLine
 10
1790.8073574717
 20
348.3095238512
 30
0.0
 11
1800.3768192114
 21
357.8789855908
 31
0.0
  0
LINE
  5
1D6
100
AcDbEntity
  8
____
  6
CONTINUOUS
 62
         4
100
AcDbLine
 10
1786.5647167846
 20
348.3095238512
 30
0.0
 11
1800.3768192114
 21
362.1216262779
 31
0.0
  0
LINE
  5
1D7
100
AcDbEntity
  8
____
  6
CONTINUOUS
 62
         4
100
AcDbLine
 10
1784.4768192114
 20
350.464266965
 30
0.0
 11
1800.3768192114
 21
366.364266965
 31
0.0
  0
LINE
  5
1D8
100
AcDbEntity
  8
____
  6
CONTINUOUS
 62
         4
100
AcDbLine
 10
1784.4768192114
 20
354.7069076522
 30
0.0
 11
1800.3768192114
 21
370.6069076522
 31
0.0
  0
LINE
  5
1D9
100
AcDbEntity
  8
____
  6
CONTINUOUS
 62
         4
100
AcDbLine
 10
1784.4768192114
 20
358.9495483393
 30
0.0
 11
1800.3768192114
 21
374.8495483393
 31
0.0
  0
LINE
  5
1DA
100
AcDbEntity
  8
____
  6
CONTINUOUS
 62
         4
100
AcDbLine
 10
1784.4768192114
 20
363.1921890264
 30
0.0
 11
1799.1028532654
 21
377.8182230805
 31
0.0
  0
LINE
  5
1DB
100
AcDbEntity
  8
____
  6
CONTINUOUS
 62
         4
100
AcDbLine
 10
1784.4768192114
 20
367.4348297135
 30
0.0
 11
1795.9772650253
 21
378.9352755275
 31
0.0
  0
LINE
  5
1DC
100
AcDbEntity
  8
____
  6
CONTINUOUS
 62
         4
100
AcDbLine
 10
1784.4768192114
 20
371.6774704006
 30
0.0
 11
1791.7346243382
 21
378.9352755275
 31
0.0
  0
LINE
  5
1DD
100
AcDbEntity
  8
____
  6
CONTINUOUS
 62
         4
100
AcDbLine
 10
1784.4768192114
 20
375.9201110877
 30
0.0
 11
1787.4919836511
 21
378.9352755275
 31
0.0
  0
ENDBLK
  5
1DE
100
AcDbEntity
  8
0
  6
CONTINUOUS
100
AcDbBlockEnd
  0
BLOCK
  5
1E2
100
AcDbEntity
  8
0
100
AcDbBlockBegin
  2
*X12
 70
        65
 10
0.0
 20
0.0
 30
0.0
  3
*X12
  1

  0
LINE
  5
1E3
100
AcDbEntity
  8
____
  6
CONTINUOUS
 62
         4
100
AcDbLine
 10
1796.1676388459
 20
345.1845238512
 30
0.0
 11
1799.2926388459
 21
348.3095238512
 31
0.0
  0
LINE
  5
1E4
100
AcDbEntity
  8
____
  6
CONTINUOUS
 62
         4
100
AcDbLine
 10
1794.6254963621
 20
347.8850220544
 30
0.0
 11
1795.0499981588
 21
348.3095238512
 31
0.0
  0
ENDBLK
  5
1E5
100
AcDbEntity
  8
0
  6
CONTINUOUS
100
AcDbBlockEnd
  0
BLOCK
  5
1E9
100
AcDbEntity
  8
0
100
AcDbBlockBegin
  2
*X13
 70
        65
 10
0.0
 20
0.0
 30
0.0
  3
*X13
  1

  0
LINE
  5
1EA
100
AcDbEntity
  8
____
  6
CONTINUOUS
 62
         4
100
AcDbLine
 10
1799.1028532654
 20
377.8182230805
 30
0.0
 11
1800.2199057125
 21
378.9352755275
 31
0.0
  0
ENDBLK
  5
1EB
100
AcDbEntity
  8
0
  6
CONTINUOUS
100
AcDbBlockEnd
  0
BLOCK
  5
1EF
100
AcDbEntity
  8
0
100
AcDbBlockBegin
  2
*X14
 70
        65
 10
0.0
 20
0.0
 30
0.0
  3
*X14
  1

  0
LINE
  5
1F0
100
AcDbEntity
  8
____
  6
CONTINUOUS
 62
         4
100
AcDbLine
 10
1838.5276704147
 20
387.5445554199
 30
0.0
 11
1843.3568192114
 21
392.3737042166
 31
0.0
  0
LINE
  5
1F1
100
AcDbEntity
  8
____
  6
CONTINUOUS
 62
         4
100
AcDbLine
 10
1834.1046252065
 20
387.3641508988
 30
0.0
 11
1840.6749981588
 21
393.9345238512
 31
0.0
  0
LINE
  5
1F2
100
AcDbEntity
  8
____
  6
CONTINUOUS
 62
         4
100
AcDbLine
 10
1829.6815799983
 20
387.1837463777
 30
0.0
 11
1836.4323574717
 21
393.9345238512
 31
0.0
  0
LINE
  5
1F3
100
AcDbEntity
  8
____
  6
CONTINUOUS
 62
         4
100
AcDbLine
 10
1817.1904684609
 20
378.9352755275
 30
0.0
 11
1817.3318192114
 21
379.0766262779
 31
0.0
  0
LINE
  5
1F4
100
AcDbEntity
  8
____
  6
CONTINUOUS
 62
         4
100
AcDbLine
 10
1825.2585347901
 20
387.0033418566
 30
0.0
 11
1832.1897167846
 21
393.9345238512
 31
0.0
  0
LINE
  5
1F5
100
AcDbEntity
  8
____
  6
CONTINUOUS
 62
         4
100
AcDbLine
 10
1812.9478277738
 20
378.9352755275
 30
0.0
 11
1817.3318192114
 21
383.319266965
 31
0.0
  0
LINE
  5
1F6
100
AcDbEntity
  8
____
  6
CONTINUOUS
 62
         4
100
AcDbLine
 10
1820.8354895819
 20
386.8229373356
 30
0.0
 11
1827.9470760975
 21
393.9345238512
 31
0.0
  0
LINE
  5
1F7
100
AcDbEntity
  8
____
  6
CONTINUOUS
 62
         4
100
AcDbLine
 10
1808.7051870867
 20
378.9352755275
 30
0.0
 11
1823.7044354104
 21
393.9345238512
 31
0.0
  0
LINE
  5
1F8
100
AcDbEntity
  8
____
  6
CONTINUOUS
 62
         4
100
AcDbLine
 10
1804.4625463996
 20
378.9352755275
 30
0.0
 11
1819.4617947232
 21
393.9345238512
 31
0.0
  0
LINE
  5
1F9
100
AcDbEntity
  8
____
  6
CONTINUOUS
 62
         4
100
AcDbLine
 10
1800.2199057125
 20
378.9352755275
 30
0.0
 11
1815.2191540361
 21
393.9345238512
 31
0.0
  0
LINE
  5
1FA
100
AcDbEntity
  8
____
  6
CONTINUOUS
 62
         4
100
AcDbLine
 10
1795.9772650253
 20
378.9352755275
 30
0.0
 11
1810.976513349
 21
393.9345238512
 31
0.0
  0
LINE
  5
1FB
100
AcDbEntity
  8
____
  6
CONTINUOUS
 62
         4
100
AcDbLine
 10
1791.7346243382
 20
378.9352755275
 30
0.0
 11
1806.7338726619
 21
393.9345238512
 31
0.0
  0
LINE
  5
1FC
100
AcDbEntity
  8
____
  6
CONTINUOUS
 62
         4
100
AcDbLine
 10
1787.4919836511
 20
378.9352755275
 30
0.0
 11
1802.4912319748
 21
393.9345238512
 31
0.0
  0
LINE
  5
1FD
100
AcDbEntity
  8
____
  6
CONTINUOUS
 62
         4
100
AcDbLine
 10
1784.4768192114
 20
380.1627517749
 30
0.0
 11
1798.2485912876
 21
393.9345238512
 31
0.0
  0
LINE
  5
1FE
100
AcDbEntity
  8
____
  6
CONTINUOUS
 62
         4
100
AcDbLine
 10
1784.4768192114
 20
384.405392462
 30
0.0
 11
1794.0059506005
 21
393.9345238512
 31
0.0
  0
LINE
  5
1FF
100
AcDbEntity
  8
____
  6
CONTINUOUS
 62
         4
100
AcDbLine
 10
1784.4768192114
 20
388.6480331491
 30
0.0
 11
1789.7633099134
 21
393.9345238512
 31
0.0
  0
LINE
  5
200
100
AcDbEntity
  8
____
  6
CONTINUOUS
 62
         4
100
AcDbLine
 10
1784.4768192114
 20
392.8906738362
 30
0.0
 11
1785.5206692263
 21
393.9345238512
 31
0.0
  0
ENDBLK
  5
201
100
AcDbEntity
  8
0
  6
CONTINUOUS
100
AcDbBlockEnd
  0
BLOCK
  5
205
100
AcDbEntity
  8
0
100
AcDbBlockBegin
  2
*X15
 70
        65
 10
0.0
 20
0.0
 30
0.0
  3
*X15
  1

  0
LINE
  5
206
100
AcDbEntity
  8
____
  6
CONTINUOUS
 62
         4
100
AcDbLine
 10
1840.6749981588
 20
393.9345238512
 30
0.0
 11
1843.3568192114
 21
396.6163449037
 31
0.0
  0
LINE
  5
207
100
AcDbEntity
  8
____
  6
CONTINUOUS
 62
         4
100
AcDbLine
 10
1836.4323574717
 20
393.9345238512
 30
0.0
 11
1841.8533942085
 21
399.3555605879
 31
0.0
  0
LINE
  5
208
100
AcDbEntity
  8
____
  6
CONTINUOUS
 62
         4
100
AcDbLine
 10
1832.1897167846
 20
393.9345238512
 30
0.0
 11
1838.5776468086
 21
400.3224538751
 31
0.0
  0
LINE
  5
209
100
AcDbEntity
  8
____
  6
CONTINUOUS
 62
         4
100
AcDbLine
 10
1827.9470760975
 20
393.9345238512
 30
0.0
 11
1834.5012709025
 21
400.4887186562
 31
0.0
  0
LINE
  5
20A
100
AcDbEntity
  8
____
  6
CONTINUOUS
 62
         4
100
AcDbLine
 10
1823.7044354104
 20
393.9345238512
 30
0.0
 11
1830.4248949964
 21
400.6549834372
 31
0.0
  0
LINE
  5
20B
100
AcDbEntity
  8
____
  6
CONTINUOUS
 62
         4
100
AcDbLine
 10
1819.4617947232
 20
393.9345238512
 30
0.0
 11
1826.3485190904
 21
400.8212482183
 31
0.0
  0
LINE
  5
20C
100
AcDbEntity
  8
____
  6
CONTINUOUS
 62
         4
100
AcDbLine
 10
1817.3318192114
 20
396.0471890264
 30
0.0
 11
1822.2721431843
 21
400.9875129993
 31
0.0
  0
LINE
  5
20D
100
AcDbEntity
  8
____
  6
CONTINUOUS
 62
         4
100
AcDbLine
 10
1817.3318192114
 20
400.2898297135
 30
0.0
 11
1818.3878695477
 21
401.3458800499
 31
0.0
  0
ENDBLK
  5
20E
100
AcDbEntity
  8
0
  6
CONTINUOUS
100
AcDbBlockEnd
  0
BLOCK
  5
212
100
AcDbEntity
  8
0
100
AcDbBlockBegin
  2
*X16
 70
        65
 10
0.0
 20
0.0
 30
0.0
  3
*X16
  1

  0
LINE
  5
213
100
AcDbEntity
  8
____
  6
CONTINUOUS
 62
         4
100
AcDbLine
 10
1815.2191540361
 20
393.9345238512
 30
0.0
 11
1817.3318192114
 21
396.0471890264
 31
0.0
  0
LINE
  5
214
100
AcDbEntity
  8
____
  6
CONTINUOUS
 62
         4
100
AcDbLine
 10
1810.976513349
 20
393.9345238512
 30
0.0
 11
1817.3318192114
 21
400.2898297135
 31
0.0
  0
LINE
  5
215
100
AcDbEntity
  8
____
  6
CONTINUOUS
 62
         4
100
AcDbLine
 10
1806.7338726619
 20
393.9345238512
 30
0.0
 11
1817.3318192114
 21
404.5324704006
 31
0.0
  0
LINE
  5
216
100
AcDbEntity
  8
____
  6
CONTINUOUS
 62
         4
100
AcDbLine
 10
1802.4912319748
 20
393.9345238512
 30
0.0
 11
1817.3318192114
 21
408.7751110877
 31
0.0
  0
LINE
  5
217
100
AcDbEntity
  8
____
  6
CONTINUOUS
 62
         4
100
AcDbLine
 10
1798.2485912876
 20
393.9345238512
 30
0.0
 11
1813.249342964
 21
408.9352755275
 31
0.0
  0
LINE
  5
218
100
AcDbEntity
  8
____
  6
CONTINUOUS
 62
         4
100
AcDbLine
 10
1794.0059506005
 20
393.9345238512
 30
0.0
 11
1809.0067022769
 21
408.9352755275
 31
0.0
  0
LINE
  5
219
100
AcDbEntity
  8
____
  6
CONTINUOUS
 62
         4
100
AcDbLine
 10
1789.7633099134
 20
393.9345238512
 30
0.0
 11
1804.7640615897
 21
408.9352755275
 31
0.0
  0
LINE
  5
21A
100
AcDbEntity
  8
____
  6
CONTINUOUS
 62
         4
100
AcDbLine
 10
1785.5206692263
 20
393.9345238512
 30
0.0
 11
1800.5214209026
 21
408.9352755275
 31
0.0
  0
LINE
  5
21B
100
AcDbEntity
  8
____
  6
CONTINUOUS
 62
         4
100
AcDbLine
 10
1784.4768192114
 20
397.1333145233
 30
0.0
 11
1796.2787802155
 21
408.9352755275
 31
0.0
  0
LINE
  5
21C
100
AcDbEntity
  8
____
  6
CONTINUOUS
 62
         4
100
AcDbLine
 10
1784.4768192114
 20
401.3759552105
 30
0.0
 11
1792.0361395284
 21
408.9352755275
 31
0.0
  0
LINE
  5
21D
100
AcDbEntity
  8
____
  6
CONTINUOUS
 62
         4
100
AcDbLine
 10
1784.4768192114
 20
405.6185958976
 30
0.0
 11
1787.7934988413
 21
408.9352755275
 31
0.0
  0
ENDBLK
  5
21E
100
AcDbEntity
  8
0
  6
CONTINUOUS
100
AcDbBlockEnd
  0
BLOCK
  5
222
100
AcDbEntity
  8
0
100
AcDbBlockBegin
  2
*X17
 70
        65
 10
0.0
 20
0.0
 30
0.0
  3
*X17
  1

  0
LINE
  5
223
100
AcDbEntity
  8
____
  6
CONTINUOUS
 62
         4
100
AcDbLine
 10
1796.2787802155
 20
408.9352755275
 30
0.0
 11
1800.3768192114
 21
413.0333145233
 31
0.0
  0
LINE
  5
224
100
AcDbEntity
  8
____
  6
CONTINUOUS
 62
         4
100
AcDbLine
 10
1792.0361395284
 20
408.9352755275
 30
0.0
 11
1800.3768192114
 21
417.2759552105
 31
0.0
  0
LINE
  5
225
100
AcDbEntity
  8
____
  6
CONTINUOUS
 62
         4
100
AcDbLine
 10
1787.7934988413
 20
408.9352755275
 30
0.0
 11
1800.3768192114
 21
421.5185958976
 31
0.0
  0
LINE
  5
226
100
AcDbEntity
  8
____
  6
CONTINUOUS
 62
         4
100
AcDbLine
 10
1784.4768192114
 20
409.8612365847
 30
0.0
 11
1800.3768192114
 21
425.7612365847
 31
0.0
  0
LINE
  5
227
100
AcDbEntity
  8
____
  6
CONTINUOUS
 62
         4
100
AcDbLine
 10
1784.4768192114
 20
414.1038772718
 30
0.0
 11
1800.3768192114
 21
430.0038772718
 31
0.0
  0
LINE
  5
228
100
AcDbEntity
  8
____
  6
CONTINUOUS
 62
         4
100
AcDbLine
 10
1784.4768192114
 20
418.3465179589
 30
0.0
 11
1800.3768192114
 21
434.2465179589
 31
0.0
  0
LINE
  5
229
100
AcDbEntity
  8
____
  6
CONTINUOUS
 62
         4
100
AcDbLine
 10
1784.4768192114
 20
422.5891586461
 30
0.0
 11
1800.3768192114
 21
438.4891586461
 31
0.0
  0
LINE
  5
22A
100
AcDbEntity
  8
____
  6
CONTINUOUS
 62
         4
100
AcDbLine
 10
1784.4768192114
 20
426.8317993332
 30
0.0
 11
1797.2045437293
 21
439.5595238512
 31
0.0
  0
LINE
  5
22B
100
AcDbEntity
  8
____
  6
CONTINUOUS
 62
         4
100
AcDbLine
 10
1784.4768192114
 20
431.0744400203
 30
0.0
 11
1792.9619030422
 21
439.5595238512
 31
0.0
  0
LINE
  5
22C
100
AcDbEntity
  8
____
  6
CONTINUOUS
 62
         4
100
AcDbLine
 10
1784.4768192114
 20
435.3170807074
 30
0.0
 11
1788.7192623551
 21
439.5595238512
 31
0.0
  0
ENDBLK
  5
22D
100
AcDbEntity
  8
0
  6
CONTINUOUS
100
AcDbBlockEnd
  0
BLOCK
  5
231
100
AcDbEntity
  8
0
100
AcDbBlockBegin
  2
*X18
 70
        65
 10
0.0
 20
0.0
 30
0.0
  3
*X18
  1

  0
LINE
  5
232
100
AcDbEntity
  8
____
  6
CONTINUOUS
 62
         4
100
AcDbLine
 10
1800.5214209026
 20
408.9352755275
 30
0.0
 11
1801.3290321843
 21
409.7428868092
 31
0.0
  0
ENDBLK
  5
233
100
AcDbEntity
  8
0
  6
CONTINUOUS
100
AcDbBlockEnd
  0
BLOCK
  5
237
100
AcDbEntity
  8
0
100
AcDbBlockBegin
  2
*X19
 70
        65
 10
0.0
 20
0.0
 30
0.0
  3
*X19
  1

  0
LINE
  5
238
100
AcDbEntity
  8
____
  6
CONTINUOUS
 62
         4
100
AcDbLine
 10
1797.2045437293
 20
439.5595238512
 30
0.0
 11
1799.9135782155
 21
442.2685583374
 31
0.0
  0
LINE
  5
239
100
AcDbEntity
  8
____
  6
CONTINUOUS
 62
         4
100
AcDbLine
 10
1795.6756560464
 20
442.2732768554
 30
0.0
 11
1796.0869030422
 21
442.6845238512
 31
0.0
  0
ENDBLK
  5
23A
100
AcDbEntity
  8
0
  6
CONTINUOUS
100
AcDbBlockEnd
  0
BLOCK
  5
23E
100
AcDbEntity
  8
0
100
AcDbBlockBegin
  2
*X20
 70
        65
 10
0.0
 20
0.0
 30
0.0
  3
*X20
  1

  0
LINE
  5
23F
100
AcDbEntity
  8
____
  6
CONTINUOUS
 62
         4
100
AcDbLine
 10
1788.7192623551
 20
439.5595238512
 30
0.0
 11
1789.9399842748
 21
440.7802457709
 31
0.0
  0
LINE
  5
240
100
AcDbEntity
  8
____
  6
CONTINUOUS
 62
         4
100
AcDbLine
 10
1784.4768192114
 20
439.5597213945
 30
0.0
 11
1787.601621668
 21
442.6845238512
 31
0.0
  0
ENDBLK
  5
241
100
AcDbEntity
  8
0
  6
CONTINUOUS
100
AcDbBlockEnd
  0
BLOCK
  5
245
100
AcDbEntity
  8
0
100
AcDbBlockBegin
  2
*D21
 70
        65
 10
0.0
 20
0.0
 30
0.0
  3
*D21
  1

  0
POINT
  5
247
100
AcDbEntity
  8
DEFPOINTS
  6
CONTINUOUS
 62
         0
100
AcDbPoint
 10
1821.1318192114
 20
687.6036129874
 30
0.0
  0
POINT
  5
248
100
AcDbEntity
  8
DEFPOINTS
  6
CONTINUOUS
 62
         0
100
AcDbPoint
 10
1821.1318192114
 20
592.9603005837
 30
0.0
  0
POINT
  5
249
100
AcDbEntity
  8
DEFPOINTS
  6
CONTINUOUS
 62
         0
100
AcDbPoint
 10
1781.2768192114
 20
623.0671159023
 30
0.0
  0
LINE
  5
24A
100
AcDbEntity
  8
____
  6
CONTINUOUS
 62
         4
100
AcDbLine
 10
1821.1318192114
 20
594.7103005837
 30
0.0
 11
1821.1318192114
 21
688.4786129874
 31
0.0
  0
LINE
  5
24B
100
AcDbEntity
  8
____
  6
CONTINUOUS
 62
         4
100
AcDbLine
 10
1781.2768192114
 20
624.8171159023
 30
0.0
 11
1781.2768192114
 21
688.4786129874
 31
0.0
  0
LINE
  5
24C
100
AcDbEntity
  8
____
  6
CONTINUOUS
 62
         4
100
AcDbLine
 10
1821.1318192114
 20
687.6036129874
 30
0.0
 11
1781.2768192114
 21
687.6036129874
 31
0.0
  0
SOLID
  5
24D
100
AcDbEntity
  8
____
  6
CONTINUOUS
 62
         4
100
AcDbTrace
 10
1821.1318192114
 20
687.6036129874
 30
0.0
 11
1817.6318192114
 21
687.0786129874
 31
0.0
 12
1817.6318192114
 22
688.1286129874
 32
0.0
 13
1821.1318192114
 23
687.6036129874
 33
0.0
  0
SOLID
  5
24E
100
AcDbEntity
  8
____
  6
CONTINUOUS
 62
         4
100
AcDbTrace
 10
1781.2768192114
 20
687.6036129874
 30
0.0
 11
1784.7768192114
 21
688.1286129874
 31
0.0
 12
1784.7768192114
 22
687.0786129874
 32
0.0
 13
1781.2768192114
 23
687.6036129874
 33
0.0
  0
TEXT
  5
250
100
AcDbEntity
  8
____
  6
CONTINUOUS
 62
         4
100
AcDbText
 10
1797.7043192114
 20
690.2286129874
 30
0.0
 40
3.5
  1
40
  7
BOX
100
AcDbText
  0
ENDBLK
  5
251
100
AcDbEntity
  8
0
  6
CONTINUOUS
100
AcDbBlockEnd
  0
ENDSEC
  0
SECTION
  2
ENTITIES
  0
LINE
  5
29
100
AcDbEntity
  8
____
  6
CONTINUOUS
 62
         7
100
AcDbLine
 10
2080.6002604594
 20
570.4921159023
 30
0.0
 11
2079.6002604594
 21
569.4921159023
 31
0.0
  0
LINE
  5
2A
100
AcDbEntity
  8
____
  6
CONTINUOUS
 62
         7
100
AcDbLine
 10
2080.6002604594
 20
596.1921159023
 30
0.0
 11
2079.6002604594
 21
597.1921159023
 31
0.0
  0
LINE
  5
2B
100
AcDbEntity
  8
____
  6
CONTINUOUS
 62
         7
100
AcDbLine
 10
2079.6002604594
 20
570.9921159023
 30
0.0
 11
2079.1002604594
 21
570.4921159023
 31
0.0
  0
LINE
  5
2C
100
AcDbEntity
  8
____
  6
CONTINUOUS
 62
         7
100
AcDbLine
 10
2079.1002604594
 20
596.1921159023
 30
0.0
 11
2079.6002604594
 21
595.6921159023
 31
0.0
  0
LINE
  5
2D
100
AcDbEntity
  8
____
  6
CONTINUOUS
 62
         7
100
AcDbLine
 10
2080.6002604594
 20
596.1921159023
 30
0.0
 11
2080.6002604594
 21
570.4921159023
 31
0.0
  0
LINE
  5
2E
100
AcDbEntity
  8
____
  6
CONTINUOUS
 62
         7
100
AcDbLine
 10
2079.6002604594
 20
595.6921159023
 30
0.0
 11
2079.6002604594
 21
570.9921159023
 31
0.0
  0
LINE
  5
2F
100
AcDbEntity
  8
____
  6
CONTINUOUS
 62
         7
100
AcDbLine
 10
2152.8002604594
 20
570.9921159023
 30
0.0
 11
2153.3002604594
 21
570.4921159023
 31
0.0
  0
LINE
  5
30
100
AcDbEntity
  8
____
  6
CONTINUOUS
 62
         7
100
AcDbLine
 10
2151.8002604594
 20
570.4921159023
 30
0.0
 11
2152.8002604594
 21
569.4921159023
 31
0.0
  0
LINE
  5
31
100
AcDbEntity
  8
____
  6
CONTINUOUS
 62
         7
100
AcDbLine
 10
2152.8002604594
 20
597.1921159023
 30
0.0
 11
2151.8002604594
 21
596.1921159023
 31
0.0
  0
LINE
  5
32
100
AcDbEntity
  8
____
  6
CONTINUOUS
 62
         7
100
AcDbLine
 10
2152.8002604594
 20
595.6921159023
 30
0.0
 11
2153.3002604594
 21
596.1921159023
 31
0.0
  0
LINE
  5
33
100
AcDbEntity
  8
____
  6
CONTINUOUS
 62
         7
100
AcDbLine
 10
2070.5590580787
 20
597.1921159023
 30
0.0
 11
2071.5590580787
 21
596.1921159023
 31
0.0
  0
LINE
  5
34
100
AcDbEntity
  8
____
  6
CONTINUOUS
 62
         7
100
AcDbLine
 10
2070.5590580787
 20
597.1921159023
 30
0.0
 11
2079.6002604594
 21
597.1921159023
 31
0.0
  0
LINE
  5
35
100
AcDbEntity
  8
____
  6
CONTINUOUS
 62
         7
100
AcDbLine
 10
2071.5590580787
 20
596.1921159023
 30
0.0
 11
2079.1002604594
 21
596.1921159023
 31
0.0
  0
LINE
  5
36
100
AcDbEntity
  8
____
  6
CONTINUOUS
 62
         7
100
AcDbLine
 10
2070.5590580787
 20
569.4921159023
 30
0.0
 11
2071.5590580787
 21
570.4921159023
 31
0.0
  0
LINE
  5
37
100
AcDbEntity
  8
____
  6
CONTINUOUS
 62
         7
100
AcDbLine
 10
2070.5590580787
 20
569.4921159023
 30
0.0
 11
2079.6002604594
 21
569.4921159023
 31
0.0
  0
LINE
  5
38
100
AcDbEntity
  8
____
  6
CONTINUOUS
 62
         7
100
AcDbLine
 10
2071.5590580787
 20
570.4921159023
 30
0.0
 11
2079.1002604594
 21
570.4921159023
 31
0.0
  0
LINE
  5
39
100
AcDbEntity
  8
____
  6
CONTINUOUS
 62
         7
100
AcDbLine
 10
2164.0414628402
 20
569.4921159023
 30
0.0
 11
2152.8002604594
 21
569.4921159023
 31
0.0
  0
LINE
  5
3A
100
AcDbEntity
  8
____
  6
CONTINUOUS
 62
         7
100
AcDbLine
 10
2163.0414628402
 20
570.4921159023
 30
0.0
 11
2153.3002604594
 21
570.4921159023
 31
0.0
  0
LINE
  5
3B
100
AcDbEntity
  8
____
  6
CONTINUOUS
 62
         7
100
AcDbLine
 10
2164.0414628402
 20
569.4921159023
 30
0.0
 11
2163.0414628402
 21
570.4921159023
 31
0.0
  0
LINE
  5
3C
100
AcDbEntity
  8
____
  6
CONTINUOUS
 62
         7
100
AcDbLine
 10
2164.0414628402
 20
597.1921159023
 30
0.0
 11
2163.0414628402
 21
596.1921159023
 31
0.0
  0
LINE
  5
3D
100
AcDbEntity
  8
____
  6
CONTINUOUS
 62
         7
100
AcDbLine
 10
2164.0414628402
 20
597.1921159023
 30
0.0
 11
2152.8002604594
 21
597.1921159023
 31
0.0
  0
LINE
  5
3E
100
AcDbEntity
  8
____
  6
CONTINUOUS
 62
         7
100
AcDbLine
 10
2163.0414628402
 20
596.1921159023
 30
0.0
 11
2153.3002604594
 21
596.1921159023
 31
0.0
  0
LINE
  5
3F
100
AcDbEntity
  8
____
  6
CONTINUOUS
 62
         7
100
AcDbLine
 10
2151.8002604594
 20
596.1921159023
 30
0.0
 11
2151.8002604594
 21
570.4921159023
 31
0.0
  0
LINE
  5
40
100
AcDbEntity
  8
____
  6
CONTINUOUS
 62
         7
100
AcDbLine
 10
2152.8002604594
 20
595.6921159023
 30
0.0
 11
2152.8002604594
 21
570.9921159023
 31
0.0
  0
LINE
  5
41
100
AcDbEntity
  8
____
  6
CENTER
 62
         1
100
AcDbLine
 10
2062.5502604594
 20
583.3421159023
 30
0.0
 11
2172.0502604594
 21
583.3421159023
 31
0.0
  0
LINE
  5
42
100
AcDbEntity
  8
____
  6
DASHED
 62
         2
100
AcDbLine
 10
2080.1002604594
 20
588.3421159023
 30
0.0
 11
2093.3142604594
 21
588.3421159023
 31
0.0
  0
LINE
  5
43
100
AcDbEntity
  8
____
  6
DASHED
 62
         2
100
AcDbLine
 10
2080.1002604594
 20
578.3421159023
 30
0.0
 11
2093.3142604594
 21
578.3421159023
 31
0.0
  0
LINE
  5
44
100
AcDbEntity
  8
____
  6
DASHED
 62
         2
100
AcDbLine
 10
2093.3142604594
 20
588.3421159023
 30
0.0
 11
2093.3142604594
 21
578.3421159023
 31
0.0
  0
LINE
  5
45
100
AcDbEntity
  8
____
  6
DASHED
 62
         2
100
AcDbLine
 10
2096.2010118054
 20
583.3421159023
 30
0.0
 11
2093.3142604594
 21
578.3421159023
 31
0.0
  0
LINE
  5
46
100
AcDbEntity
  8
____
  6
DASHED
 62
         2
100
AcDbLine
 10
2093.3142604594
 20
588.3421159023
 30
0.0
 11
2096.2010118054
 21
583.3421159023
 31
0.0
  0
LINE
  5
47
100
AcDbEntity
  8
____
  6
DASHED
 62
         2
100
AcDbLine
 10
2080.1002604594
 20
578.3421159023
 30
0.0
 11
2079.6002604594
 21
577.8421159023
 31
0.0
  0
LINE
  5
48
100
AcDbEntity
  8
____
  6
DASHED
 62
         2
100
AcDbLine
 10
2080.1002604594
 20
588.3421159023
 30
0.0
 11
2079.6002604594
 21
588.8421159023
 31
0.0
  0
LINE
  5
49
100
AcDbEntity
  8
____
  6
DASHED
 62
         2
100
AcDbLine
 10
2080.1002604594
 20
588.3421159023
 30
0.0
 11
2080.1002604594
 21
578.3421159023
 31
0.0
  0
CIRCLE
  5
4A
100
AcDbEntity
  8
____
  6
CONTINUOUS
 62
         7
100
AcDbCircle
 10
2117.3002604594
 20
583.3421159023
 30
0.0
 40
34.925
  0
LINE
  5
4B
100
AcDbEntity
  8
____
  6
CONTINUOUS
 62
         7
100
AcDbLine
 10
1609.8755778973
 20
572.4921159023
 30
0.0
 11
1609.8755778973
 21
594.1921159023
 31
0.0
  0
LINE
  5
4C
100
AcDbEntity
  8
____
  6
CONTINUOUS
 62
         7
100
AcDbLine
 10
1619.9167802781
 20
569.4921159023
 30
0.0
 11
1618.9167802781
 21
570.4921159023
 31
0.0
  0
LINE
  5
4D
100
AcDbEntity
  8
____
  6
CONTINUOUS
 62
         7
100
AcDbLine
 10
1619.9167802781
 20
569.4921159023
 30
0.0
 11
1612.8755778973
 21
569.4921159023
 31
0.0
  0
LINE
  5
4E
100
AcDbEntity
  8
____
  6
CONTINUOUS
 62
         7
100
AcDbLine
 10
1618.9167802781
 20
570.4921159023
 30
0.0
 11
1612.8755778973
 21
570.4921159023
 31
0.0
  0
LINE
  5
4F
100
AcDbEntity
  8
____
  6
CONTINUOUS
 62
         7
100
AcDbLine
 10
1619.9167802781
 20
597.1921159023
 30
0.0
 11
1618.9167802781
 21
596.1921159023
 31
0.0
  0
LINE
  5
50
100
AcDbEntity
  8
____
  6
CONTINUOUS
 62
         7
100
AcDbLine
 10
1619.9167802781
 20
597.1921159023
 30
0.0
 11
1612.8755778973
 21
597.1921159023
 31
0.0
  0
ARC
  5
51
100
AcDbEntity
  8
____
  6
CONTINUOUS
 62
         7
100
AcDbCircle
 10
1612.8755778973
 20
594.1921159023
 30
0.0
 40
2.0
100
AcDbArc
 50
90.0
 51
180.0
  0
LINE
  5
52
100
AcDbEntity
  8
____
  6
CONTINUOUS
 62
         7
100
AcDbLine
 10
1618.9167802781
 20
596.1921159023
 30
0.0
 11
1612.8755778973
 21
596.1921159023
 31
0.0
  0
ARC
  5
53
100
AcDbEntity
  8
____
  6
CONTINUOUS
 62
         7
100
AcDbCircle
 10
1612.8755778973
 20
594.1921159023
 30
0.0
 40
3.0
100
AcDbArc
 50
90.0
 51
180.0
  0
LINE
  5
54
100
AcDbEntity
  8
____
  6
CONTINUOUS
 62
         7
100
AcDbLine
 10
1610.8755778973
 20
572.4921159023
 30
0.0
 11
1610.8755778973
 21
594.1921159023
 31
0.0
  0
ARC
  5
55
100
AcDbEntity
  8
____
  6
CONTINUOUS
 62
         7
100
AcDbCircle
 10
1612.8755778973
 20
572.4921159023
 30
0.0
 40
3.0
100
AcDbArc
 50
180.0
 51
270.0
  0
ARC
  5
56
100
AcDbEntity
  8
____
  6
CONTINUOUS
 62
         7
100
AcDbCircle
 10
1612.8755778973
 20
572.4921159023
 30
0.0
 40
2.0
100
AcDbArc
 50
180.0
 51
270.0
  0
LINE
  5
57
100
AcDbEntity
  8
____
  6
CONTINUOUS
 62
         7
100
AcDbLine
 10
1526.4343755166
 20
597.1921159023
 30
0.0
 11
1535.1755778973
 21
597.1921159023
 31
0.0
  0
LINE
  5
58
100
AcDbEntity
  8
____
  6
CONTINUOUS
 62
         7
100
AcDbLine
 10
1527.4343755166
 20
596.1921159023
 30
0.0
 11
1535.1755778973
 21
596.1921159023
 31
0.0
  0
LINE
  5
59
100
AcDbEntity
  8
____
  6
CONTINUOUS
 62
         7
100
AcDbLine
 10
1526.4343755166
 20
597.1921159023
 30
0.0
 11
1527.4343755166
 21
596.1921159023
 31
0.0
  0
LINE
  5
5A
100
AcDbEntity
  8
____
  6
CONTINUOUS
 62
         7
100
AcDbLine
 10
1526.4343755166
 20
569.4921159023
 30
0.0
 11
1527.4343755166
 21
570.4921159023
 31
0.0
  0
LINE
  5
5B
100
AcDbEntity
  8
____
  6
CONTINUOUS
 62
         7
100
AcDbLine
 10
1526.4343755166
 20
569.4921159023
 30
0.0
 11
1535.1755778973
 21
569.4921159023
 31
0.0
  0
LINE
  5
5C
100
AcDbEntity
  8
____
  6
CONTINUOUS
 62
         7
100
AcDbLine
 10
1527.4343755166
 20
570.4921159023
 30
0.0
 11
1535.1755778973
 21
570.4921159023
 31
0.0
  0
ARC
  5
5D
100
AcDbEntity
  8
____
  6
CONTINUOUS
 62
         7
100
AcDbCircle
 10
1535.1755778973
 20
572.4921159023
 30
0.0
 40
2.0
100
AcDbArc
 50
270.0
 51
360.0
  0
ARC
  5
5E
100
AcDbEntity
  8
____
  6
CONTINUOUS
 62
         7
100
AcDbCircle
 10
1535.1755778973
 20
572.4921159023
 30
0.0
 40
3.0
100
AcDbArc
 50
270.0
 51
360.0
  0
LINE
  5
5F
100
AcDbEntity
  8
____
  6
CONTINUOUS
 62
         7
100
AcDbLine
 10
1538.1755778973
 20
572.4921159023
 30
0.0
 11
1538.1755778973
 21
594.1921159023
 31
0.0
  0
LINE
  5
60
100
AcDbEntity
  8
____
  6
CONTINUOUS
 62
         7
100
AcDbLine
 10
1537.1755778973
 20
572.4921159023
 30
0.0
 11
1537.1755778973
 21
594.1921159023
 31
0.0
  0
ARC
  5
61
100
AcDbEntity
  8
____
  6
CONTINUOUS
 62
         7
100
AcDbCircle
 10
1535.1755778973
 20
594.1921159023
 30
0.0
 40
2.0
100
AcDbArc
 50
0.0
 51
90.0
  0
ARC
  5
62
100
AcDbEntity
  8
____
  6
CONTINUOUS
 62
         7
100
AcDbCircle
 10
1535.1755778973
 20
594.1921159023
 30
0.0
 40
3.0
100
AcDbArc
 50
0.0
 51
90.0
  0
LINE
  5
63
100
AcDbEntity
  8
____
  6
CONTINUOUS
 62
         4
100
AcDbLine
 10
1681.0268192114
 20
381.4345238512
 30
0.0
 11
1681.0268192114
 21
406.4345238512
 31
0.0
  0
LINE
  5
64
100
AcDbEntity
  8
____
  6
CONTINUOUS
 62
         7
100
AcDbLine
 10
1687.9461631729
 20
383.5381823877
 30
0.0
 11
1687.9461631729
 21
404.3308653146
 31
0.0
  0
LINE
  5
65
100
AcDbEntity
  8
____
  6
CONTINUOUS
 62
         7
100
AcDbLine
 10
1685.7596619238
 20
381.3516811387
 30
0.0
 11
1687.9461631729
 21
383.5381823877
 31
0.0
  0
ARC
  5
66
100
AcDbEntity
  8
____
  6
CONTINUOUS
 62
         7
100
AcDbCircle
 10
1685.4768192114
 20
381.6345238512
 30
0.0
 40
0.4
100
AcDbArc
 50
270.0
 51
315.0
  0
ARC
  5
67
100
AcDbEntity
  8
____
  6
CONTINUOUS
 62
         7
100
AcDbCircle
 10
1681.0268192114
 20
379.9345238512
 30
0.0
 40
1.5
100
AcDbArc
 50
90.0
 51
180.0
  0
LINE
  5
68
100
AcDbEntity
  8
____
  6
CONTINUOUS
 62
         7
100
AcDbLine
 10
1684.6232293729
 20
381.2345238512
 30
0.0
 11
1683.8768192114
 21
381.4345238512
 31
0.0
  0
LINE
  5
69
100
AcDbEntity
  8
____
  6
CONTINUOUS
 62
         7
100
AcDbLine
 10
1684.6232293729
 20
381.2345238512
 30
0.0
 11
1685.4768192114
 21
381.2345238512
 31
0.0
  0
LINE
  5
6A
100
AcDbEntity
  8
____
  6
CONTINUOUS
 62
         7
100
AcDbLine
 10
1681.0268192114
 20
381.4345238512
 30
0.0
 11
1683.8768192114
 21
381.4345238512
 31
0.0
  0
LINE
  5
6B
100
AcDbEntity
  8
____
  6
CONTINUOUS
 62
         7
100
AcDbLine
 10
1685.7596619238
 20
406.5173665636
 30
0.0
 11
1687.9461631729
 21
404.3308653146
 31
0.0
  0
ARC
  5
6C
100
AcDbEntity
  8
____
  6
CONTINUOUS
 62
         7
100
AcDbCircle
 10
1681.0268192114
 20
407.9345238512
 30
0.0
 40
1.5
100
AcDbArc
 50
180.0
 51
270.0
  0
LINE
  5
6D
100
AcDbEntity
  8
____
  6
CONTINUOUS
 62
         7
100
AcDbLine
 10
1684.6232293729
 20
406.6345238512
 30
0.0
 11
1683.8768192114
 21
406.4345238512
 31
0.0
  0
ARC
  5
6E
100
AcDbEntity
  8
____
  6
CONTINUOUS
 62
         7
100
AcDbCircle
 10
1685.4768192114
 20
406.2345238512
 30
0.0
 40
0.4
100
AcDbArc
 50
45.0
 51
90.0
  0
LINE
  5
6F
100
AcDbEntity
  8
____
  6
CONTINUOUS
 62
         7
100
AcDbLine
 10
1683.8768192113
 20
381.4345238512
 30
0.0
 11
1683.8768192114
 21
406.4345238512
 31
0.0
  0
LINE
  5
70
100
AcDbEntity
  8
____
  6
CONTINUOUS
 62
         7
100
AcDbLine
 10
1684.6232293729
 20
406.6345238512
 30
0.0
 11
1685.4768192114
 21
406.6345238512
 31
0.0
  0
LINE
  5
71
100
AcDbEntity
  8
____
  6
CONTINUOUS
 62
         7
100
AcDbLine
 10
1685.8768192113
 20
381.4688384262
 30
0.0
 11
1685.8768192114
 21
406.4002092761
 31
0.0
  0
CIRCLE
  5
72
100
AcDbEntity
  8
____
  6
CONTINUOUS
 62
         7
100
AcDbCircle
 10
1573.1755778973
 20
583.3421159023
 30
0.0
 40
12.6589889012
  0
LINE
  5
73
100
AcDbEntity
  8
____
  6
CONTINUOUS
 62
         7
100
AcDbLine
 10
1798.8768192114
 20
534.5921159023
 30
0.0
 11
1798.8768192114
 21
569.4921159023
 31
0.0
  0
LINE
  5
74
100
AcDbEntity
  8
____
  6
CONTINUOUS
 62
         7
100
AcDbLine
 10
1785.9768192114
 20
534.5921159023
 30
0.0
 11
1785.9768192114
 21
569.4921159023
 31
0.0
  0
ARC
  5
75
100
AcDbEntity
  8
____
  6
CONTINUOUS
 62
         4
100
AcDbCircle
 10
1573.1755778973
 20
583.3421159023
 30
0.0
 40
12.0
100
AcDbArc
 50
278.1340859252
 51
549.6704111119
  0
CIRCLE
  5
76
100
AcDbEntity
  8
____
  6
CONTINUOUS
 62
         7
100
AcDbCircle
 10
1573.1755778973
 20
583.3421159023
 30
0.0
 40
10.3963414634
  0
CIRCLE
  5
77
100
AcDbEntity
  8
____
  6
CONTINUOUS
 62
         7
100
AcDbCircle
 10
1573.1755778973
 20
583.3421159023
 30
0.0
 40
20.3982925257
  0
CIRCLE
  5
78
100
AcDbEntity
  8
____
  6
CONTINUOUS
 62
         7
100
AcDbCircle
 10
1573.1755778973
 20
583.3421159023
 30
0.0
 40
34.925
  0
ARC
  5
79
100
AcDbEntity
  8
____
  6
CONTINUOUS
 62
         7
100
AcDbCircle
 10
1573.1755778973
 20
583.3421159023
 30
0.0
 40
48.75
100
AcDbArc
 50
196.5052120024
 51
343.4947879976
  0
LINE
  5
7A
100
AcDbEntity
  8
____
  6
CENTER
 62
         1
100
AcDbLine
 10
1616.5409876342
 20
583.3421159023
 30
0.0
 11
1526.611032302
 21
583.3421159023
 31
0.0
  0
ARC
  5
7B
100
AcDbEntity
  8
____
  6
CONTINUOUS
 62
         7
100
AcDbCircle
 10
1573.1755778973
 20
583.3421159023
 30
0.0
 40
48.75
100
AcDbArc
 50
16.5052120024
 51
163.4947879976
  0
ARC
  5
7C
100
AcDbEntity
  8
____
  6
DASHED
 62
         2
100
AcDbCircle
 10
2117.3002604594
 20
583.3421159023
 30
0.0
 40
45.625
100
AcDbArc
 50
197.6716498685
 51
343.6416615206
  0
ARC
  5
7D
100
AcDbEntity
  8
____
  6
CONTINUOUS
 62
         7
100
AcDbCircle
 10
2117.3002604594
 20
583.3421159023
 30
0.0
 40
47.25
100
AcDbArc
 50
197.0449399911
 51
342.9550600089
  0
ARC
  5
7E
100
AcDbEntity
  8
____
  6
CONTINUOUS
 62
         7
100
AcDbCircle
 10
2117.3002604594
 20
583.3421159023
 30
0.0
 40
47.25
100
AcDbArc
 50
17.0449399911
 51
162.9550600089
  0
ARC
  5
7F
100
AcDbEntity
  8
____
  6
CONTINUOUS
 62
         7
100
AcDbCircle
 10
2117.3002604594
 20
583.3421159023
 30
0.0
 40
48.75
100
AcDbArc
 50
16.5052120024
 51
163.4947879976
  0
ARC
  5
80
100
AcDbEntity
  8
____
  6
DASHED
 62
         2
100
AcDbCircle
 10
2117.3002604594
 20
583.3421159023
 30
0.0
 40
45.625
100
AcDbArc
 50
16.3583384794
 51
163.6416615206
  0
ARC
  5
81
100
AcDbEntity
  8
____
  6
CONTINUOUS
 62
         7
100
AcDbCircle
 10
2117.3002604594
 20
583.3421159023
 30
0.0
 40
48.75
100
AcDbArc
 50
196.5052120024
 51
343.4947879976
  0
ARC
  5
82
100
AcDbEntity
  8
____
  6
CONTINUOUS
 62
         7
100
AcDbCircle
 10
1793.5315197497
 20
347.3095238512
 30
0.0
 40
1.0
100
AcDbArc
 50
30.0
 51
90.0
  0
LINE
  5
83
100
AcDbEntity
  8
____
  6
CENTER
 62
         1
100
AcDbLine
 10
1573.1755778973
 20
636.7819832542
 30
0.0
 11
1573.1755778973
 21
521.6920851734
 31
0.0
  0
LINE
  5
84
100
AcDbEntity
  8
____
  6
CENTER
 62
         1
100
AcDbLine
 10
1679.5268192114
 20
393.9345238512
 30
0.0
 11
1853.186756693
 21
393.9345238512
 31
0.0
  0
LINE
  5
85
100
AcDbEntity
  8
____
  6
CONTINUOUS
 62
         7
100
AcDbLine
 10
1781.2768192114
 20
428.8595238512
 30
0.0
 11
1783.2232293729
 21
428.3595238512
 31
0.0
  0
LINE
  5
86
100
AcDbEntity
  8
____
  6
CONTINUOUS
 62
         7
100
AcDbLine
 10
1781.2768192114
 20
359.0095238512
 30
0.0
 11
1783.2232293729
 21
359.5095238512
 31
0.0
  0
LINE
  5
87
100
AcDbEntity
  8
____
  6
CONTINUOUS
 62
         5
100
AcDbLine
 10
1686.3425046363
 20
405.9345238512
 30
0.0
 11
1723.9768192114
 21
405.9345238512
 31
0.0
  0
LINE
  5
88
100
AcDbEntity
  8
____
  6
CONTINUOUS
 62
         7
100
AcDbLine
 10
1687.9461631729
 20
404.3308653146
 30
0.0
 11
1741.0268192114
 21
404.3308653146
 31
0.0
  0
LINE
  5
89
100
AcDbEntity
  8
____
  6
CONTINUOUS
 62
         7
100
AcDbLine
 10
1781.2768192114
 20
428.8595238512
 30
0.0
 11
1681.6660486528
 21
414.3328163768
 31
0.0
  0
LINE
  5
8A
100
AcDbEntity
  8
____
  6
CONTINUOUS
 62
         5
100
AcDbLine
 10
1686.3425046363
 20
381.9345238512
 30
0.0
 11
1723.9768192114
 21
381.9345238512
 31
0.0
  0
LINE
  5
8B
100
AcDbEntity
  8
____
  6
CONTINUOUS
 62
         7
100
AcDbLine
 10
1687.9461631729
 20
383.5381823877
 30
0.0
 11
1741.0268192113
 21
383.5381823877
 31
0.0
  0
LINE
  5
8C
100
AcDbEntity
  8
____
  6
CONTINUOUS
 62
         7
100
AcDbLine
 10
1781.2768192114
 20
359.0095238512
 30
0.0
 11
1681.6660486528
 21
373.5362313255
 31
0.0
  0
LINE
  5
8D
100
AcDbEntity
  8
____
  6
CONTINUOUS
 62
         7
100
AcDbLine
 10
1679.5268192114
 20
411.8589844092
 30
0.0
 11
1679.5268192114
 21
376.0100632931
 31
0.0
  0
ARC
  5
8E
100
AcDbEntity
  8
____
  6
CONTINUOUS
 62
         7
100
AcDbCircle
 10
1682.0268192114
 20
376.0100632931
 30
0.0
 40
2.5
100
AcDbArc
 50
180.0
 51
261.702778
  0
ARC
  5
8F
100
AcDbEntity
  8
____
  6
CONTINUOUS
 62
         7
100
AcDbCircle
 10
1682.0268192114
 20
411.8589844092
 30
0.0
 40
2.5
100
AcDbArc
 50
98.297222
 51
180.0
  0
LINE
  5
90
100
AcDbEntity
  8
____
  6
CONTINUOUS
 62
         7
100
AcDbLine
 10
1681.0268192114
 20
406.4345238512
 30
0.0
 11
1683.8768192114
 21
406.4345238512
 31
0.0
  0
LINE
  5
91
100
AcDbEntity
  8
____
  6
CONTINUOUS
 62
         7
100
AcDbLine
 10
1723.9768192114
 20
405.9345238512
 30
0.0
 11
1723.9768192114
 21
381.9345238512
 31
0.0
  0
LINE
  5
92
100
AcDbEntity
  8
____
  6
CONTINUOUS
 62
         7
100
AcDbLine
 10
1795.9130896101
 20
345.1845238512
 30
0.0
 11
1798.8768192114
 21
345.1845238512
 31
0.0
  0
ARC
  5
93
100
AcDbEntity
  8
____
  6
CONTINUOUS
 62
         7
100
AcDbCircle
 10
1798.8768192114
 20
346.6845238512
 30
0.0
 40
1.5
100
AcDbArc
 50
270.0
 51
360.0
  0
LINE
  5
94
100
AcDbEntity
  8
____
  6
CONTINUOUS
 62
         7
100
AcDbLine
 10
1800.3768192114
 20
375.9352755275
 30
0.0
 11
1800.3768192114
 21
346.6845238512
 31
0.0
  0
ARC
  5
95
100
AcDbEntity
  8
____
  6
CONTINUOUS
 62
         7
100
AcDbCircle
 10
1783.8768192114
 20
358.9095238512
 30
0.0
 40
0.6
100
AcDbArc
 50
0.0
 51
90.0
  0
LINE
  5
96
100
AcDbEntity
  8
____
  6
CONTINUOUS
 62
         7
100
AcDbLine
 10
1783.2232293729
 20
359.5095238512
 30
0.0
 11
1783.8768192114
 21
359.5095238512
 31
0.0
  0
ARC
  5
97
100
AcDbEntity
  8
____
  6
CONTINUOUS
 62
         7
100
AcDbCircle
 10
1790.9334435384
 20
347.8095238512
 30
0.0
 40
0.5
100
AcDbArc
 50
90.0
 51
150.0
  0
LINE
  5
98
100
AcDbEntity
  8
____
  6
CONTINUOUS
 62
         7
100
AcDbLine
 10
1790.5004308365
 20
348.0595238512
 30
0.0
 11
1788.8405488126
 21
345.1845238512
 31
0.0
  0
ARC
  5
99
100
AcDbEntity
  8
____
  6
CONTINUOUS
 62
         7
100
AcDbCircle
 10
1785.9768192114
 20
346.6845238512
 30
0.0
 40
1.5
100
AcDbArc
 50
180.0
 51
270.0
  0
LINE
  5
9A
100
AcDbEntity
  8
____
  6
CONTINUOUS
 62
         7
100
AcDbLine
 10
1785.9768192114
 20
345.1845238512
 30
0.0
 11
1788.8405488126
 21
345.1845238512
 31
0.0
  0
LINE
  5
9B
100
AcDbEntity
  8
____
  6
CONTINUOUS
 62
         7
100
AcDbLine
 10
1790.9334435384
 20
348.3095238512
 30
0.0
 11
1793.5315197497
 21
348.3095238512
 31
0.0
  0
LINE
  5
9C
100
AcDbEntity
  8
____
  6
CONTINUOUS
 62
         7
100
AcDbLine
 10
1784.4768192114
 20
358.9095238512
 30
0.0
 11
1784.4768192114
 21
346.6845238512
 31
0.0
  0
LINE
  5
9D
100
AcDbEntity
  8
____
  6
CONTINUOUS
 62
         7
100
AcDbLine
 10
1794.3975451535
 20
347.8095238512
 30
0.0
 11
1795.9130896101
 21
345.1845238512
 31
0.0
  0
ARC
  5
9E
100
AcDbEntity
  8
____
  6
CONTINUOUS
 62
         7
100
AcDbCircle
 10
1798.8768192114
 20
441.1845238512
 30
0.0
 40
1.5
100
AcDbArc
 50
0.0
 51
90.0
  0
LINE
  5
9F
100
AcDbEntity
  8
____
  6
CONTINUOUS
 62
         7
100
AcDbLine
 10
1800.3768192114
 20
441.1845238512
 30
0.0
 11
1800.3768192114
 21
411.9352755275
 31
0.0
  0
LINE
  5
A0
100
AcDbEntity
  8
____
  6
CONTINUOUS
 62
         7
100
AcDbLine
 10
1795.9130896101
 20
442.6845238512
 30
0.0
 11
1798.8768192114
 21
442.6845238512
 31
0.0
  0
LINE
  5
A1
100
AcDbEntity
  8
____
  6
CONTINUOUS
 62
         7
100
AcDbLine
 10
1790.5004308365
 20
439.8095238512
 30
0.0
 11
1788.8405488126
 21
442.6845238512
 31
0.0
  0
ARC
  5
A2
100
AcDbEntity
  8
____
  6
CONTINUOUS
 62
         7
100
AcDbCircle
 10
1785.9768192114
 20
441.1845238512
 30
0.0
 40
1.5
100
AcDbArc
 50
90.0
 51
180.0
  0
ARC
  5
A3
100
AcDbEntity
  8
____
  6
CONTINUOUS
 62
         7
100
AcDbCircle
 10
1793.8201948843
 20
440.0595238512
 30
0.0
 40
0.5
100
AcDbArc
 50
270.0
 51
330.0
  0
ARC
  5
A4
100
AcDbEntity
  8
____
  6
CONTINUOUS
 62
         7
100
AcDbCircle
 10
1790.9334435384
 20
440.0595238512
 30
0.0
 40
0.5
100
AcDbArc
 50
210.0
 51
270.0
  0
ARC
  5
A5
100
AcDbEntity
  8
____
  6
CONTINUOUS
 62
         7
100
AcDbCircle
 10
1783.8768192114
 20
428.9595238512
 30
0.0
 40
0.6
100
AcDbArc
 50
270.0
 51
360.0
  0
LINE
  5
A6
100
AcDbEntity
  8
____
  6
CONTINUOUS
 62
         7
100
AcDbLine
 10
1783.2232293729
 20
428.3595238512
 30
0.0
 11
1783.8768192114
 21
428.3595238512
 31
0.0
  0
LINE
  5
A7
100
AcDbEntity
  8
____
  6
CONTINUOUS
 62
         7
100
AcDbLine
 10
1784.4768192114
 20
441.1845238512
 30
0.0
 11
1784.4768192114
 21
428.9595238512
 31
0.0
  0
LINE
  5
A8
100
AcDbEntity
  8
____
  6
CONTINUOUS
 62
         7
100
AcDbLine
 10
1790.9334435384
 20
439.5595238512
 30
0.0
 11
1793.8201948843
 21
439.5595238512
 31
0.0
  0
LINE
  5
A9
100
AcDbEntity
  8
____
  6
CONTINUOUS
 62
         7
100
AcDbLine
 10
1785.9768192114
 20
442.6845238512
 30
0.0
 11
1788.8405488126
 21
442.6845238512
 31
0.0
  0
LINE
  5
AA
100
AcDbEntity
  8
____
  6
CONTINUOUS
 62
         7
100
AcDbLine
 10
1794.2532075862
 20
439.8095238512
 30
0.0
 11
1795.9130896101
 21
442.6845238512
 31
0.0
  0
LINE
  5
AB
100
AcDbEntity
  8
____
  6
CONTINUOUS
 62
         7
100
AcDbLine
 10
1781.2768192114
 20
618.2671159023
 30
0.0
 11
1783.2232293729
 21
617.7671159023
 31
0.0
  0
LINE
  5
AC
100
AcDbEntity
  8
____
  6
CONTINUOUS
 62
         7
100
AcDbLine
 10
1781.2768192114
 20
548.4171159023
 30
0.0
 11
1783.2232293729
 21
548.9171159023
 31
0.0
  0
LINE
  5
AD
100
AcDbEntity
  8
____
  6
CENTER
 62
         1
100
AcDbLine
 10
1770.5208865833
 20
583.3421159023
 30
0.0
 11
1864.1206060695
 21
583.3421159023
 31
0.0
  0
LINE
  5
AE
100
AcDbEntity
  8
____
  6
CENTER
 62
         1
100
AcDbLine
 10
1674.7306766433
 20
583.3421159023
 30
0.0
 11
1748.6519096392
 21
583.3421159023
 31
0.0
  0
LINE
  5
AF
100
AcDbEntity
  8
____
  6
CONTINUOUS
 62
         7
100
AcDbLine
 10
1781.2768192114
 20
618.2671159023
 30
0.0
 11
1681.6660486528
 21
603.740408428
 31
0.0
  0
LINE
  5
B0
100
AcDbEntity
  8
____
  6
CONTINUOUS
 62
         7
100
AcDbLine
 10
1781.2768192114
 20
548.4171159023
 30
0.0
 11
1681.6660486528
 21
562.9438233766
 31
0.0
  0
LINE
  5
B1
100
AcDbEntity
  8
____
  6
CONTINUOUS
 62
         7
100
AcDbLine
 10
1679.5268192114
 20
601.2665764603
 30
0.0
 11
1679.5268192114
 21
565.4176553442
 31
0.0
  0
ARC
  5
B2
100
AcDbEntity
  8
____
  6
CONTINUOUS
 62
         7
100
AcDbCircle
 10
1682.0268192114
 20
565.4176553442
 30
0.0
 40
2.5
100
AcDbArc
 50
180.0
 51
261.702778
  0
ARC
  5
B3
100
AcDbEntity
  8
____
  6
CONTINUOUS
 62
         7
100
AcDbCircle
 10
1682.0268192114
 20
601.2665764603
 30
0.0
 40
2.5
100
AcDbArc
 50
98.297222
 51
180.0
  0
LINE
  5
B4
100
AcDbEntity
  8
____
  6
CONTINUOUS
 62
         7
100
AcDbLine
 10
1782.4768192114
 20
617.9588561059
 30
0.0
 11
1782.4768192114
 21
548.7253756986
 31
0.0
  0
LINE
  5
B5
100
AcDbEntity
  8
____
  6
CENTER
 62
         1
100
AcDbLine
 10
1781.2768192114
 20
623.0671159023
 30
0.0
 11
1781.2768192114
 21
545.0710615567
 31
0.0
  0
LINE
  5
B6
100
AcDbEntity
  8
____
  6
CONTINUOUS
 62
         7
100
AcDbLine
 10
1783.2232293729
 20
617.7671159023
 30
0.0
 11
1783.2232293729
 21
548.9171159023
 31
0.0
  0
LINE
  5
B7
100
AcDbEntity
  8
____
  6
CONTINUOUS
 62
         7
100
AcDbLine
 10
1784.4768192114
 20
630.5921159023
 30
0.0
 11
1784.4768192114
 21
536.0921159023
 31
0.0
  0
LINE
  5
B8
100
AcDbEntity
  8
____
  6
CENTER
 62
         1
100
AcDbLine
 10
1792.3768192114
 20
638.3473792031
 30
0.0
 11
1792.3768192114
 21
528.3445596513
 31
0.0
  0
LINE
  5
B9
100
AcDbEntity
  8
____
  6
CONTINUOUS
 62
         7
100
AcDbLine
 10
1795.9130896101
 20
534.5921159023
 30
0.0
 11
1798.8768192114
 21
534.5921159023
 31
0.0
  0
LINE
  5
BA
100
AcDbEntity
  8
____
  6
CONTINUOUS
 62
         7
100
AcDbLine
 10
1795.9130896101
 20
569.4921159023
 30
0.0
 11
1795.9130896101
 21
534.5921159023
 31
0.0
  0
ARC
  5
BB
100
AcDbEntity
  8
____
  6
CONTINUOUS
 62
         7
100
AcDbCircle
 10
1798.8768192114
 20
536.0921159023
 30
0.0
 40
1.5
100
AcDbArc
 50
270.0
 51
360.0
  0
LINE
  5
BC
100
AcDbEntity
  8
____
  6
CONTINUOUS
 62
         7
100
AcDbLine
 10
1800.3768192114
 20
569.4921159023
 30
0.0
 11
1795.9130896101
 21
569.4921159023
 31
0.0
  0
ARC
  5
BD
100
AcDbEntity
  8
____
  6
CONTINUOUS
 62
         7
100
AcDbCircle
 10
1783.8768192114
 20
548.3171159023
 30
0.0
 40
0.6
100
AcDbArc
 50
0.0
 51
90.0
  0
LINE
  5
BE
100
AcDbEntity
  8
____
  6
CONTINUOUS
 62
         7
100
AcDbLine
 10
1783.2232293729
 20
548.9171159023
 30
0.0
 11
1783.8768192114
 21
548.9171159023
 31
0.0
  0
ARC
  5
BF
100
AcDbEntity
  8
____
  6
CONTINUOUS
 62
         7
100
AcDbCircle
 10
1783.8768192114
 20
548.3171159023
 30
0.0
 40
0.6
100
AcDbArc
 50
0.0
 51
90.0
  0
ARC
  5
C0
100
AcDbEntity
  8
____
  6
CONTINUOUS
 62
         7
100
AcDbCircle
 10
1793.8201948843
 20
537.2171159023
 30
0.0
 40
0.5
100
AcDbArc
 50
30.0
 51
90.0
  0
ARC
  5
C1
100
AcDbEntity
  8
____
  6
CONTINUOUS
 62
         7
100
AcDbCircle
 10
1785.9768192114
 20
536.0921159023
 30
0.0
 40
1.5
100
AcDbArc
 50
180.0
 51
270.0
  0
LINE
  5
C2
100
AcDbEntity
  8
____
  6
CONTINUOUS
 62
         7
100
AcDbLine
 10
1790.5004308365
 20
537.4671159023
 30
0.0
 11
1788.8405488126
 21
534.5921159023
 31
0.0
  0
LINE
  5
C3
100
AcDbEntity
  8
____
  6
CONTINUOUS
 62
         7
100
AcDbLine
 10
1785.9768192114
 20
534.5921159023
 30
0.0
 11
1788.8405488126
 21
534.5921159023
 31
0.0
  0
ARC
  5
C4
100
AcDbEntity
  8
____
  6
CONTINUOUS
 62
         7
100
AcDbCircle
 10
1790.9334435384
 20
537.2171159023
 30
0.0
 40
0.5
100
AcDbArc
 50
90.0
 51
150.0
  0
LINE
  5
C5
100
AcDbEntity
  8
____
  6
CONTINUOUS
 62
         7
100
AcDbLine
 10
1790.9334435384
 20
537.7171159023
 30
0.0
 11
1793.8201948843
 21
537.7171159023
 31
0.0
  0
LINE
  5
C6
100
AcDbEntity
  8
____
  6
CONTINUOUS
 62
         7
100
AcDbLine
 10
1788.8405488126
 20
569.4921159023
 30
0.0
 11
1788.8405488126
 21
534.5921159023
 31
0.0
  0
LINE
  5
C7
100
AcDbEntity
  8
____
  6
CONTINUOUS
 62
         7
100
AcDbLine
 10
1794.2518192114
 20
570.5122100672
 30
0.0
 11
1794.2518192114
 21
537.4695053639
 31
0.0
  0
LINE
  5
C8
100
AcDbEntity
  8
____
  6
CONTINUOUS
 62
         7
100
AcDbLine
 10
1790.5018192114
 20
570.5122100672
 30
0.0
 11
1790.5018192114
 21
537.4695053639
 31
0.0
  0
LINE
  5
C9
100
AcDbEntity
  8
____
  6
CONTINUOUS
 62
         7
100
AcDbLine
 10
1788.8405488126
 20
569.4921159023
 30
0.0
 11
1784.4768192114
 21
569.4921159023
 31
0.0
  0
LINE
  5
CA
100
AcDbEntity
  8
____
  6
CONTINUOUS
 62
         7
100
AcDbLine
 10
1784.4768192114
 20
569.4921159023
 30
0.0
 11
1785.4969133763
 21
570.5122100672
 31
0.0
  0
LINE
  5
CB
100
AcDbEntity
  8
____
  6
CONTINUOUS
 62
         7
100
AcDbLine
 10
1788.8405488126
 20
569.4921159023
 30
0.0
 11
1790.5018192114
 21
570.5122100672
 31
0.0
  0
LINE
  5
CC
100
AcDbEntity
  8
____
  6
CONTINUOUS
 62
         7
100
AcDbLine
 10
1794.2532075862
 20
537.4671159023
 30
0.0
 11
1795.9130896101
 21
534.5921159023
 31
0.0
  0
LINE
  5
CD
100
AcDbEntity
  8
____
  6
CONTINUOUS
 62
         7
100
AcDbLine
 10
1799.2567250464
 20
570.5122100672
 30
0.0
 11
1785.4969133763
 21
570.5122100672
 31
0.0
  0
LINE
  5
CE
100
AcDbEntity
  8
____
  6
CONTINUOUS
 62
         7
100
AcDbLine
 10
1799.2567250464
 20
570.5122100672
 30
0.0
 11
1785.4969133763
 21
570.5122100672
 31
0.0
  0
LINE
  5
CF
100
AcDbEntity
  8
____
  6
CONTINUOUS
 62
         7
100
AcDbLine
 10
1794.2518192114
 20
570.5122100672
 30
0.0
 11
1795.9130896101
 21
569.4921159023
 31
0.0
  0
LINE
  5
D0
100
AcDbEntity
  8
____
  6
CONTINUOUS
 62
         7
100
AcDbLine
 10
1795.9130896101
 20
632.0921159023
 30
0.0
 11
1795.9130896101
 21
597.1921159023
 31
0.0
  0
LINE
  5
D1
100
AcDbEntity
  8
____
  6
CONTINUOUS
 62
         7
100
AcDbLine
 10
1800.3768192114
 20
597.1921159023
 30
0.0
 11
1795.9130896101
 21
597.1921159023
 31
0.0
  0
LINE
  5
D2
100
AcDbEntity
  8
____
  6
CONTINUOUS
 62
         7
100
AcDbLine
 10
1795.9130896101
 20
632.0921159023
 30
0.0
 11
1798.8768192114
 21
632.0921159023
 31
0.0
  0
ARC
  5
D3
100
AcDbEntity
  8
____
  6
CONTINUOUS
 62
         7
100
AcDbCircle
 10
1798.8768192114
 20
630.5921159023
 30
0.0
 40
1.5
100
AcDbArc
 50
0.0
 51
90.0
  0
LINE
  5
D4
100
AcDbEntity
  8
____
  6
CONTINUOUS
 62
         7
100
AcDbLine
 10
1794.2518192114
 20
629.2147264407
 30
0.0
 11
1794.2518192114
 21
596.1720217374
 31
0.0
  0
LINE
  5
D5
100
AcDbEntity
  8
____
  6
CONTINUOUS
 62
         7
100
AcDbLine
 10
1788.8405488126
 20
632.0921159023
 30
0.0
 11
1788.8405488126
 21
597.1921159023
 31
0.0
  0
LINE
  5
D6
100
AcDbEntity
  8
____
  6
CONTINUOUS
 62
         7
100
AcDbLine
 10
1790.5018192114
 20
629.2147264407
 30
0.0
 11
1790.5018192114
 21
596.1720217374
 31
0.0
  0
LINE
  5
D7
100
AcDbEntity
  8
____
  6
CONTINUOUS
 62
         7
100
AcDbLine
 10
1788.8405488126
 20
597.1921159023
 30
0.0
 11
1790.5018192114
 21
596.1720217374
 31
0.0
  0
LINE
  5
D8
100
AcDbEntity
  8
____
  6
CONTINUOUS
 62
         7
100
AcDbLine
 10
1784.4768192114
 20
597.1921159023
 30
0.0
 11
1785.4969133763
 21
596.1720217374
 31
0.0
  0
LINE
  5
D9
100
AcDbEntity
  8
____
  6
CONTINUOUS
 62
         7
100
AcDbLine
 10
1788.8405488126
 20
597.1921159023
 30
0.0
 11
1784.4768192114
 21
597.1921159023
 31
0.0
  0
ARC
  5
DA
100
AcDbEntity
  8
____
  6
CONTINUOUS
 62
         7
100
AcDbCircle
 10
1793.8201948843
 20
629.4671159023
 30
0.0
 40
0.5
100
AcDbArc
 50
270.0
 51
330.0
  0
ARC
  5
DB
100
AcDbEntity
  8
____
  6
CONTINUOUS
 62
         7
100
AcDbCircle
 10
1785.9768192114
 20
630.5921159023
 30
0.0
 40
1.5
100
AcDbArc
 50
90.0
 51
180.0
  0
LINE
  5
DC
100
AcDbEntity
  8
____
  6
CONTINUOUS
 62
         7
100
AcDbLine
 10
1790.5004308365
 20
629.2171159023
 30
0.0
 11
1788.8405488126
 21
632.0921159023
 31
0.0
  0
ARC
  5
DD
100
AcDbEntity
  8
____
  6
CONTINUOUS
 62
         7
100
AcDbCircle
 10
1783.8768192114
 20
618.3671159023
 30
0.0
 40
0.6
100
AcDbArc
 50
270.0
 51
360.0
  0
LINE
  5
DE
100
AcDbEntity
  8
____
  6
CONTINUOUS
 62
         7
100
AcDbLine
 10
1783.2232293729
 20
617.7671159023
 30
0.0
 11
1783.8768192114
 21
617.7671159023
 31
0.0
  0
ARC
  5
DF
100
AcDbEntity
  8
____
  6
CONTINUOUS
 62
         7
100
AcDbCircle
 10
1790.9334435384
 20
629.4671159023
 30
0.0
 40
0.5
100
AcDbArc
 50
210.0
 51
270.0
  0
LINE
  5
E0
100
AcDbEntity
  8
____
  6
CONTINUOUS
 62
         7
100
AcDbLine
 10
1785.9768192114
 20
632.0921159023
 30
0.0
 11
1788.8405488126
 21
632.0921159023
 31
0.0
  0
LINE
  5
E1
100
AcDbEntity
  8
____
  6
CONTINUOUS
 62
         7
100
AcDbLine
 10
1790.9334435384
 20
628.9671159023
 30
0.0
 11
1793.8201948843
 21
628.9671159023
 31
0.0
  0
LINE
  5
E2
100
AcDbEntity
  8
____
  6
CONTINUOUS
 62
         7
100
AcDbLine
 10
1799.2567250464
 20
596.1720217374
 30
0.0
 11
1785.4969133763
 21
596.1720217374
 31
0.0
  0
LINE
  5
E3
100
AcDbEntity
  8
____
  6
CONTINUOUS
 62
         7
100
AcDbLine
 10
1799.2567250464
 20
596.1720217374
 30
0.0
 11
1785.4969133763
 21
596.1720217374
 31
0.0
  0
LINE
  5
E4
100
AcDbEntity
  8
____
  6
CONTINUOUS
 62
         7
100
AcDbLine
 10
1794.2518192114
 20
596.1720217374
 30
0.0
 11
1795.9130896101
 21
597.1921159023
 31
0.0
  0
LINE
  5
E5
100
AcDbEntity
  8
____
  6
CONTINUOUS
 62
         7
100
AcDbLine
 10
1794.2532075862
 20
629.2171159023
 30
0.0
 11
1795.9130896101
 21
632.0921159023
 31
0.0
  0
LINE
  5
E6
100
AcDbEntity
  8
____
  6
CONTINUOUS
 62
         7
100
AcDbLine
 10
1790.9334435384
 20
439.5595238512
 30
0.0
 11
1793.8201948843
 21
439.5595238512
 31
0.0
  0
LINE
  5
E7
100
AcDbEntity
  8
____
  6
CONTINUOUS
 62
         7
100
AcDbLine
 10
1784.4768192114
 20
441.1845238512
 30
0.0
 11
1784.4768192114
 21
428.9595238512
 31
0.0
  0
LINE
  5
E8
100
AcDbEntity
  8
____
  6
CONTINUOUS
 62
         7
100
AcDbLine
 10
1783.2232293729
 20
428.3595238512
 30
0.0
 11
1783.8768192114
 21
428.3595238512
 31
0.0
  0
ARC
  5
E9
100
AcDbEntity
  8
____
  6
CONTINUOUS
 62
         7
100
AcDbCircle
 10
1783.8768192114
 20
428.9595238512
 30
0.0
 40
0.6
100
AcDbArc
 50
270.0
 51
360.0
  0
ARC
  5
EA
100
AcDbEntity
  8
____
  6
CONTINUOUS
 62
         7
100
AcDbCircle
 10
1790.9334435384
 20
440.0595238512
 30
0.0
 40
0.5
100
AcDbArc
 50
210.0
 51
270.0
  0
ARC
  5
EB
100
AcDbEntity
  8
____
  6
CONTINUOUS
 62
         7
100
AcDbCircle
 10
1793.8201948843
 20
440.0595238512
 30
0.0
 40
0.5
100
AcDbArc
 50
270.0
 51
330.0
  0
LINE
  5
EC
100
AcDbEntity
  8
____
  6
CONTINUOUS
 62
         7
100
AcDbLine
 10
1781.2768192114
 20
428.8595238512
 30
0.0
 11
1783.2232293729
 21
428.3595238512
 31
0.0
  0
LINE
  5
ED
100
AcDbEntity
  8
____
  6
CONTINUOUS
 62
         7
100
AcDbLine
 10
1800.2768192113
 20
597.1921159023
 30
0.0
 11
1799.2567250464
 21
596.1720217374
 31
0.0
  0
LINE
  5
EE
100
AcDbEntity
  8
____
  6
CONTINUOUS
 62
         7
100
AcDbLine
 10
1800.2768192113
 20
569.4921159023
 30
0.0
 11
1799.2567250464
 21
570.5122100672
 31
0.0
  0
LINE
  5
EF
100
AcDbEntity
  8
____
  6
CONTINUOUS
 62
         7
100
AcDbLine
 10
1800.3768192114
 20
630.5921159023
 30
0.0
 11
1800.3768192114
 21
536.0921159023
 31
0.0
  0
LINE
  5
F0
100
AcDbEntity
  8
____
  6
CONTINUOUS
 62
         7
100
AcDbLine
 10
1679.5268192113
 20
376.0100632931
 30
0.0
 11
1679.5268192114
 21
411.8589844092
 31
0.0
  0
LINE
  5
F1
100
AcDbEntity
  8
____
  6
CENTER
 62
         1
100
AcDbLine
 10
2062.5502604594
 20
583.3421159023
 30
0.0
 11
2172.0502604594
 21
583.3421159023
 31
0.0
  0
LINE
  5
F2
100
AcDbEntity
  8
____
  6
CENTER
 62
         1
100
AcDbLine
 10
2117.3002604594
 20
528.5921159023
 30
0.0
 11
2117.3002604594
 21
635.5067387771
 31
0.0
  0
CIRCLE
  5
F3
100
AcDbEntity
  8
____
  6
CONTINUOUS
 62
         7
100
AcDbCircle
 10
1792.3768192114
 20
583.3459694272
 30
0.0
 40
4.76
  0
TEXT
  5
F5
100
AcDbEntity
  8
____
  6
CONTINUOUS
 62
         4
100
AcDbText
 10
2202.986800747
 20
311.6448539996
 30
0.0
 40
4.0
  1
垂直度
 41
0.6
  7
STSL
100
AcDbText
  0
CIRCLE
  5
F6
100
AcDbEntity
  8
____
  6
CONTINUOUS
 62
         7
100
AcDbCircle
 10
2117.3002604594
 20
583.3421159023
 30
0.0
 40
15.0
  0
CIRCLE
  5
F7
100
AcDbEntity
  8
____
  6
CONTINUOUS
 62
         7
100
AcDbCircle
 10
2117.3002604594
 20
583.3421159023
 30
0.0
 40
7.0546111261
  0
CIRCLE
  5
F8
100
AcDbEntity
  8
____
  6
CONTINUOUS
 62
         7
100
AcDbCircle
 10
2117.3002604594
 20
583.3870047762
 30
0.0
 40
5.1945741206
  0
LINE
  5
F9
100
AcDbEntity
  8
____
  6
CENTER
 62
         1
100
AcDbLine
 10
2117.3002604594
 20
573.2697409048
 30
0.0
 11
2117.3002604594
 21
593.6806968306
 31
0.0
  0
LINE
  5
FA
100
AcDbEntity
  8
____
  6
CENTER
 62
         1
100
AcDbLine
 10
2128.4335091463
 20
583.3870047762
 30
0.0
 11
2106.9260969103
 21
583.3870047762
 31
0.0
  0
LINE
  5
FB
100
AcDbEntity
  8
____
  6
CONTINUOUS
 62
         7
100
AcDbLine
 10
1817.1318192114
 20
568.3421159023
 30
0.0
 11
1816.3288192114
 21
568.3421159023
 31
0.0
  0
LINE
  5
FC
100
AcDbEntity
  8
____
  6
CONTINUOUS
 62
         7
100
AcDbLine
 10
1817.1318192114
 20
598.3421159023
 30
0.0
 11
1816.3288192114
 21
598.3421159023
 31
0.0
  0
ARC
  5
FD
100
AcDbEntity
  8
____
  6
CONTINUOUS
 62
         7
100
AcDbCircle
 10
1819.1318192114
 20
574.1593781783
 30
0.0
 40
2.0
100
AcDbArc
 50
92.3356513357
 51
180.0
  0
ARC
  5
FE
100
AcDbEntity
  8
____
  6
CONTINUOUS
 62
         7
100
AcDbCircle
 10
1819.1318192114
 20
592.5248536262
 30
0.0
 40
2.0
100
AcDbArc
 50
180.0
 51
267.6643486643
  0
LINE
  5
FF
100
AcDbEntity
  8
____
  6
CONTINUOUS
 62
         7
100
AcDbLine
 10
1817.1318192114
 20
568.3421159023
 30
0.0
 11
1817.1318192114
 21
598.3421159023
 31
0.0
  0
LINE
  5
100
100
AcDbEntity
  8
____
  6
CENTER
 62
         1
100
AcDbLine
 10
1821.1318192114
 20
573.960766372
 30
0.0
 11
1821.1318192114
 21
592.9603005837
 31
0.0
  0
LINE
  5
101
100
AcDbEntity
  8
____
  6
CONTINUOUS
 62
         1
100
AcDbLine
 10
1852.1448998382
 20
583.3421159023
 30
0.0
 11
1807.5240132136
 21
583.3421159023
 31
0.0
  0
LINE
  5
102
100
AcDbEntity
  8
____
  6
CONTINUOUS
 62
         7
100
AcDbLine
 10
1842.3576471019
 20
589.577372889
 30
0.0
 11
1843.3568192114
 21
588.5366900229
 31
0.0
  0
LINE
  5
103
100
AcDbEntity
  8
____
  6
CONTINUOUS
 62
         7
100
AcDbLine
 10
1842.3576471019
 20
589.5758695364
 30
0.0
 11
1843.3568192114
 21
588.5351866702
 31
0.0
  0
LINE
  5
104
100
AcDbEntity
  8
____
  6
CONTINUOUS
 62
         7
100
AcDbLine
 10
1842.3576471019
 20
589.5758695364
 30
0.0
 11
1842.3576471019
 21
577.1083622682
 31
0.0
  0
LINE
  5
105
100
AcDbEntity
  8
____
  6
CONTINUOUS
 62
         7
100
AcDbLine
 10
1842.3576471019
 20
577.1083622682
 30
0.0
 11
1843.3568192114
 21
578.1490451343
 31
0.0
  0
LINE
  5
106
100
AcDbEntity
  8
____
  6
CONTINUOUS
 62
         7
100
AcDbLine
 10
1842.3576471019
 20
577.1083622682
 30
0.0
 11
1819.0503121781
 21
576.157716639
 31
0.0
  0
LINE
  5
107
100
AcDbEntity
  8
____
  6
CONTINUOUS
 62
         7
100
AcDbLine
 10
1843.3568192114
 20
578.1490451343
 30
0.0
 11
1843.3568192114
 21
588.5366900229
 31
0.0
  0
LINE
  5
108
100
AcDbEntity
  8
____
  6
CONTINUOUS
 62
         7
100
AcDbLine
 10
1819.0503121781
 20
590.5265151655
 30
0.0
 11
1842.3576471019
 21
589.5758695364
 31
0.0
  0
DIMENSION
  5
10C
100
AcDbEntity
  8
____
  6
CONTINUOUS
 62
         4
100
AcDbDimension
  2
*D0
 10
1878.0878569013
 20
590.4416159023
 30
0.0
 11
1875.4628569013
 21
576.1982962495
 31
0.0
  3
DIMSTYLE1
100
AcDbAlignedDimension
 13
1821.1318192114
 23
590.4416159023
 33
0.0
 14
1821.1318192114
 24
576.2426159023
 34
0.0
 50
90.0
100
AcDbRotatedDimension
  0
LINE
  5
119
100
AcDbEntity
  8
____
  6
CONTINUOUS
 62
         7
100
AcDbLine
 10
1842.3576471019
 20
400.1697808379
 30
0.0
 11
1843.3568192114
 21
399.1290979718
 31
0.0
  0
LINE
  5
11A
100
AcDbEntity
  8
____
  6
CONTINUOUS
 62
         7
100
AcDbLine
 10
1842.3576471019
 20
387.7007702171
 30
0.0
 11
1843.3568192114
 21
388.7414530832
 31
0.0
  0
LINE
  5
11B
100
AcDbEntity
  8
____
  6
CONTINUOUS
 62
         7
100
AcDbLine
 10
1842.3576471019
 20
400.1682774852
 30
0.0
 11
1843.3568192114
 21
399.1275946191
 31
0.0
  0
LINE
  5
11C
100
AcDbEntity
  8
____
  6
CONTINUOUS
 62
         7
100
AcDbLine
 10
1843.3568192114
 20
388.7414530832
 30
0.0
 11
1843.3568192114
 21
399.1290979718
 31
0.0
  0
LINE
  5
11D
100
AcDbEntity
  8
____
  6
CENTER
 62
         1
100
AcDbLine
 10
1845.0126371614
 20
393.9345238512
 30
0.0
 11
1815.5057718978
 21
393.9345238512
 31
0.0
  0
LINE
  5
11E
100
AcDbEntity
  8
____
  6
CONTINUOUS
 62
         7
100
AcDbLine
 10
1842.3576471019
 20
387.7007702171
 30
0.0
 11
1819.2272594662
 21
386.757341808
 31
0.0
  0
LINE
  5
11F
100
AcDbEntity
  8
____
  6
CONTINUOUS
 62
         7
100
AcDbLine
 10
1819.2503121781
 20
401.1107656341
 30
0.0
 11
1842.3576471019
 21
400.1682774852
 31
0.0
  0
ARC
  5
120
100
AcDbEntity
  8
____
  6
CONTINUOUS
 62
         7
100
AcDbCircle
 10
1819.3318192114
 20
384.7599436075
 30
0.0
 40
2.0
100
AcDbArc
 50
92.3356513357
 51
180.0
  0
ARC
  5
121
100
AcDbEntity
  8
____
  6
CONTINUOUS
 62
         7
100
AcDbCircle
 10
1819.3318192114
 20
403.1091040948
 30
0.0
 40
2.0
100
AcDbArc
 50
180.0
 51
267.6643486643
  0
LINE
  5
122
100
AcDbEntity
  8
____
  6
CONTINUOUS
 62
         7
100
AcDbLine
 10
1817.3318192114
 20
408.9345238512
 30
0.0
 11
1816.3288192114
 21
408.9345238512
 31
0.0
  0
LINE
  5
123
100
AcDbEntity
  8
____
  6
CONTINUOUS
 62
         7
100
AcDbLine
 10
1817.3318192114
 20
378.9352755275
 30
0.0
 11
1817.3318192114
 21
384.7599436075
 31
0.0
  0
DIMENSION
  5
126
100
AcDbEntity
  8
____
  6
CONTINUOUS
 62
         4
100
AcDbDimension
  2
*D1
 10
1870.884256974
 20
400.1275238512
 30
0.0
 11
1868.259256974
 21
386.0139099909
 31
0.0
  3
DIMSTYLE1
100
AcDbAlignedDimension
 13
1843.3568192114
 23
400.1275238512
 33
0.0
 14
1843.3568192114
 24
387.7415238512
 34
0.0
 50
90.0
100
AcDbRotatedDimension
  0
LINE
  5
132
100
AcDbEntity
  8
____
  6
CONTINUOUS
 62
         7
100
AcDbLine
 10
1817.3318192114
 20
403.1091040948
 30
0.0
 11
1817.3318192114
 21
408.9352755275
 31
0.0
  0
LINE
  5
133
100
AcDbEntity
  8
____
  6
CONTINUOUS
 62
         7
100
AcDbLine
 10
1741.0268192114
 20
404.3308653146
 30
0.0
 11
1741.0268192113
 21
383.5381823877
 31
0.0
  0
LINE
  5
134
100
AcDbEntity
  8
____
  6
CONTINUOUS
 62
         7
100
AcDbLine
 10
1741.0268192114
 20
404.3308653146
 30
0.0
 11
1747.0291497539
 21
393.9345238511
 31
0.0
  0
LINE
  5
135
100
AcDbEntity
  8
____
  6
CONTINUOUS
 62
         7
100
AcDbLine
 10
1741.0268192114
 20
383.5381823877
 30
0.0
 11
1747.0291497539
 21
393.9345238511
 31
0.0
  0
DIMENSION
  5
138
100
AcDbEntity
  8
____
  6
CONTINUOUS
 62
         4
100
AcDbDimension
  2
*D2
 10
1843.3568192114
 20
698.9239821232
 30
0.0
 11
1756.6272269943
 21
701.5489821232
 31
0.0
  3
DIMSTYLE1
100
AcDbAlignedDimension
 13
1843.3568192114
 23
588.5366900229
 33
0.0
 14
1679.5268192114
 24
601.2665764603
 34
0.0
100
AcDbRotatedDimension
  0
INSERT
  5
163
100
AcDbEntity
  8
0
  6
CONTINUOUS
100
AcDbBlockReference
  2
*X3
 10
0.0
 20
0.0
 30
0.0
  0
INSERT
  5
16D
100
AcDbEntity
  8
0
  6
CONTINUOUS
100
AcDbBlockReference
  2
*X4
 10
0.0
 20
0.0
 30
0.0
  0
INSERT
  5
17A
100
AcDbEntity
  8
0
  6
CONTINUOUS
100
AcDbBlockReference
  2
*X5
 10
0.0
 20
0.0
 30
0.0
  0
INSERT
  5
181
100
AcDbEntity
  8
0
  6
CONTINUOUS
100
AcDbBlockReference
  2
*X6
 10
0.0
 20
0.0
 30
0.0
  0
INSERT
  5
18F
100
AcDbEntity
  8
0
  6
CONTINUOUS
100
AcDbBlockReference
  2
*X7
 10
0.0
 20
0.0
 30
0.0
  0
INSERT
  5
1AF
100
AcDbEntity
  8
0
  6
CONTINUOUS
100
AcDbBlockReference
  2
*X8
 10
0.0
 20
0.0
 30
0.0
  0
INSERT
  5
1BA
100
AcDbEntity
  8
0
  6
CONTINUOUS
100
AcDbBlockReference
  2
*X9
 10
0.0
 20
0.0
 30
0.0
  0
LINE
  5
1BB
100
AcDbEntity
  8
____
  6
DASHED
 62
         2
100
AcDbLine
 10
2093.3142604594
 20
588.3421159023
 30
0.0
 11
2096.2010118054
 21
583.3421159023
 31
0.0
  0
LINE
  5
1BC
100
AcDbEntity
  8
____
  6
DASHED
 62
         2
100
AcDbLine
 10
2096.2010118054
 20
583.3421159023
 30
0.0
 11
2093.3142604594
 21
578.3421159023
 31
0.0
  0
LINE
  5
1BD
100
AcDbEntity
  8
____
  6
DASHED
 62
         2
100
AcDbLine
 10
2093.3142604594
 20
588.3421159023
 30
0.0
 11
2093.3142604594
 21
578.3421159023
 31
0.0
  0
LINE
  5
1BE
100
AcDbEntity
  8
____
  6
DASHED
 62
         2
100
AcDbLine
 10
2080.1002604594
 20
578.3421159023
 30
0.0
 11
2093.3142604594
 21
578.3421159023
 31
0.0
  0
LINE
  5
1BF
100
AcDbEntity
  8
____
  6
DASHED
 62
         2
100
AcDbLine
 10
2080.1002604594
 20
588.3421159023
 30
0.0
 11
2093.3142604594
 21
588.3421159023
 31
0.0
  0
LINE
  5
1C0
100
AcDbEntity
  8
____
  6
CONTINUOUS
 62
         7
100
AcDbLine
 10
1817.1318192114
 20
598.3421159023
 30
0.0
 11
1803.3768192114
 21
598.3421159023
 31
0.0
  0
LINE
  5
1C1
100
AcDbEntity
  8
____
  6
CONTINUOUS
 62
         7
100
AcDbLine
 10
1817.1318192114
 20
568.3421159023
 30
0.0
 11
1803.3768192114
 21
568.3421159023
 31
0.0
  0
LINE
  5
1C2
100
AcDbEntity
  8
____
  6
CONTINUOUS
 62
         7
100
AcDbLine
 10
1817.1318192114
 20
568.3421159023
 30
0.0
 11
1817.1318192114
 21
598.3421159023
 31
0.0
  0
ARC
  5
1C3
100
AcDbEntity
  8
____
  6
CONTINUOUS
 62
         7
100
AcDbCircle
 10
1803.3768192114
 20
601.3421159023
 30
0.0
 40
3.0
100
AcDbArc
 50
180.0
 51
270.0
  0
ARC
  5
1C4
100
AcDbEntity
  8
____
  6
CONTINUOUS
 62
         7
100
AcDbCircle
 10
1803.3768192114
 20
565.3421159023
 30
0.0
 40
3.0
100
AcDbArc
 50
90.0
 51
180.0
  0
ARC
  5
1C5
100
AcDbEntity
  8
____
  6
CONTINUOUS
 62
         7
100
AcDbCircle
 10
1803.3768192114
 20
411.9352755275
 30
0.0
 40
3.0
100
AcDbArc
 50
180.0
 51
270.0
  0
LINE
  5
1C6
100
AcDbEntity
  8
____
  6
CONTINUOUS
 62
         7
100
AcDbLine
 10
1817.3318192114
 20
408.9352755275
 30
0.0
 11
1803.3768192114
 21
408.9352755275
 31
0.0
  0
LINE
  5
1C7
100
AcDbEntity
  8
____
  6
CONTINUOUS
 62
         7
100
AcDbLine
 10
1817.3318192114
 20
378.9352755275
 30
0.0
 11
1803.3768192114
 21
378.9352755275
 31
0.0
  0
ARC
  5
1C8
100
AcDbEntity
  8
____
  6
CONTINUOUS
 62
         7
100
AcDbCircle
 10
1803.3768192114
 20
375.9352755275
 30
0.0
 40
3.0
100
AcDbArc
 50
90.0
 51
180.0
  0
INSERT
  5
1D0
100
AcDbEntity
  8
0
  6
CONTINUOUS
100
AcDbBlockReference
  2
*X10
 10
0.0
 20
0.0
 30
0.0
  0
INSERT
  5
1E0
100
AcDbEntity
  8
0
  6
CONTINUOUS
100
AcDbBlockReference
  2
*X11
 10
0.0
 20
0.0
 30
0.0
  0
INSERT
  5
1E7
100
AcDbEntity
  8
0
  6
CONTINUOUS
100
AcDbBlockReference
  2
*X12
 10
0.0
 20
0.0
 30
0.0
  0
INSERT
  5
1ED
100
AcDbEntity
  8
0
  6
CONTINUOUS
100
AcDbBlockReference
  2
*X13
 10
0.0
 20
0.0
 30
0.0
  0
INSERT
  5
203
100
AcDbEntity
  8
0
  6
CONTINUOUS
100
AcDbBlockReference
  2
*X14
 10
0.0
 20
0.0
 30
0.0
  0
INSERT
  5
210
100
AcDbEntity
  8
0
  6
CONTINUOUS
100
AcDbBlockReference
  2
*X15
 10
0.0
 20
0.0
 30
0.0
  0
INSERT
  5
220
100
AcDbEntity
  8
0
  6
CONTINUOUS
100
AcDbBlockReference
  2
*X16
 10
0.0
 20
0.0
 30
0.0
  0
INSERT
  5
22F
100
AcDbEntity
  8
0
  6
CONTINUOUS
100
AcDbBlockReference
  2
*X17
 10
0.0
 20
0.0
 30
0.0
  0
INSERT
  5
235
100
AcDbEntity
  8
0
  6
CONTINUOUS
100
AcDbBlockReference
  2
*X18
 10
0.0
 20
0.0
 30
0.0
  0
INSERT
  5
23C
100
AcDbEntity
  8
0
  6
CONTINUOUS
100
AcDbBlockReference
  2
*X19
 10
0.0
 20
0.0
 30
0.0
  0
INSERT
  5
243
100
AcDbEntity
  8
0
  6
CONTINUOUS
100
AcDbBlockReference
  2
*X20
 10
0.0
 20
0.0
 30
0.0
  0
DIMENSION
  5
246
100
AcDbEntity
  8
____
  6
CONTINUOUS
 62
         4
100
AcDbDimension
  2
*D21
 10
1821.1318192114
 20
687.6036129874
 30
0.0
 11
1797.7043192114
 21
690.2286129874
 31
0.0
  3
DIMSTYLE1
100
AcDbAlignedDimension
 13
1821.1318192114
 23
592.9603005837
 33
0.0
 14
1781.2768192114
 24
623.0671159023
 34
0.0
100
AcDbRotatedDimension
  0
TEXT
  5
253
100
AcDbEntity
  8
____
  6
CONTINUOUS
 62
         2
100
AcDbText
 10
2101.8720382421
 20
657.5279525811
 30
0.0
 40
4.5
  1
531500
 41
0.98
  7
BOX
100
AcDbText
  0
ENDSEC
  0
SECTION
  2
OBJECTS
  0
DICTIONARY
  5
19
100
AcDbDictionary
  3
ACAD_GROUP
350
1A
  3
ACAD_MLINESTYLE
350
1B
  0
DICTIONARY
  5
1A
102
{ACAD_REACTORS
330
19
102
}
100
AcDbDictionary
  0
DICTIONARY
  5
1B
102
{ACAD_REACTORS
330
19
102
}
100
AcDbDictionary
  3
STANDARD
350
1C
  0
MLINESTYLE
  5
1C
102
{ACAD_REACTORS
330
1B
102
}
100
AcDbMlineStyle
  2
STANDARD
 70
         0
  3

 62
         0
 51
90.0
 52
90.0
 71
         2
 49
0.5
 62
       256
  6
BYLAYER
 49
-0.5
 62
       256
  6
BYLAYER
  0
ENDSEC
  0
EOF
