  0
SECTION
  2
HEADER
  9
$ACADVER
  1
AC1014
  9
$ACADMAINTVER
 70
         0
  9
$DWGCODEPAGE
  3
BIG5
  9
$INSBASE
 10
0.0
 20
0.0
 30
0.0
  9
$EXTMIN
 10
348.5275422393
 20
1661.2591801961
 30
0.0
  9
$EXTMAX
 10
1234.3118808487
 20
2107.8441691448
 30
0.0
  9
$LIMMIN
 10
0.0
 20
0.0
  9
$LIMMAX
 10
0.0
 20
0.0
  9
$ORTHOMODE
 70
         0
  9
$REGENMODE
 70
         1
  9
$FILLMODE
 70
         1
  9
$QTEXTMODE
 70
         0
  9
$MIRRTEXT
 70
         1
  9
$DRAGMODE
 70
         2
  9
$LTSCALE
 40
1.0
  9
$OSMODE
 70
         0
  9
$ATTMODE
 70
         1
  9
$TEXTSIZE
 40
1.7
  9
$TRACEWID
 40
0.05
  9
$TEXTSTYLE
  7
STANDARD
  9
$CLAYER
  8
0
  9
$CELTYPE
  6
CONTINUOUS
  9
$CECOLOR
 62
         4
  9
$CELTSCALE
 40
1.0
  9
$DELOBJ
 70
         1
  9
$DISPSILH
 70
         0
  9
$DIMSCALE
 40
1.0
  9
$DIMASZ
 40
0.18
  9
$DIMEXO
 40
0.0625
  9
$DIMDLI
 40
0.38
  9
$DIMRND
 40
0.0
  9
$DIMDLE
 40
0.0
  9
$DIMEXE
 40
0.25
  9
$DIMTP
 40
0.01
  9
$DIMTM
 40
-0.01
  9
$DIMTXT
 40
3.5
  9
$DIMCEN
 40
0.09
  9
$DIMTSZ
 40
0.0
  9
$DIMTOL
 70
         0
  9
$DIMLIM
 70
         0
  9
$DIMTIH
 70
         1
  9
$DIMTOH
 70
         1
  9
$DIMSE1
 70
         0
  9
$DIMSE2
 70
         0
  9
$DIMTAD
 70
         0
  9
$DIMZIN
 70
         0
  9
$DIMBLK
  1

  9
$DIMASO
 70
         1
  9
$DIMSHO
 70
         1
  9
$DIMPOST
  1

  9
$DIMAPOST
  1

  9
$DIMALT
 70
         0
  9
$DIMALTD
 70
         2
  9
$DIMALTF
 40
25.4
  9
$DIMLFAC
 40
1.0
  9
$DIMTOFL
 70
         0
  9
$DIMTVP
 40
0.0
  9
$DIMTIX
 70
         0
  9
$DIMSOXD
 70
         0
  9
$DIMSAH
 70
         0
  9
$DIMBLK1
  1

  9
$DIMBLK2
  1

  9
$DIMSTYLE
  2
STANDARD
  9
$DIMCLRD
 70
         0
  9
$DIMCLRE
 70
         0
  9
$DIMCLRT
 70
         4
  9
$DIMTFAC
 40
1.0
  9
$DIMGAP
 40
0.09
  9
$DIMJUST
 70
         0
  9
$DIMSD1
 70
         0
  9
$DIMSD2
 70
         0
  9
$DIMTOLJ
 70
         1
  9
$DIMTZIN
 70
         0
  9
$DIMALTZ
 70
         0
  9
$DIMALTTZ
 70
         0
  9
$DIMFIT
 70
         3
  9
$DIMUPT
 70
         0
  9
$DIMUNIT
 70
         2
  9
$DIMDEC
 70
         4
  9
$DIMTDEC
 70
         4
  9
$DIMALTU
 70
         2
  9
$DIMALTTD
 70
         2
  9
$DIMTXSTY
  7
STANDARD
  9
$DIMAUNIT
 70
         0
  9
$LUNITS
 70
         2
  9
$LUPREC
 70
        10
  9
$SKETCHINC
 40
0.1
  9
$FILLETRAD
 40
0.0
  9
$AUNITS
 70
         0
  9
$AUPREC
 70
         0
  9
$MENU
  1
acad
  9
$ELEVATION
 40
0.0
  9
$PELEVATION
 40
0.0
  9
$THICKNESS
 40
0.0
  9
$LIMCHECK
 70
         0
  9
$BLIPMODE
 70
         1
  9
$CHAMFERA
 40
0.0
  9
$CHAMFERB
 40
0.0
  9
$CHAMFERC
 40
0.0
  9
$CHAMFERD
 40
0.0
  9
$SKPOLY
 70
         0
  9
$TDCREATE
 40
0.000000000
  9
$TDUPDATE
 40
0.000000000
  9
$TDINDWG
 40
0.0000000000
  9
$TDUSRTIMER
 40
0.0000000000
  9
$USRTIMER
 70
         1
  9
$ANGBASE
 50
0.0
  9
$ANGDIR
 70
         0
  9
$PDMODE
 70
         2
  9
$PDSIZE
 40
0.0
  9
$PLINEWID
 40
0.0
  9
$COORDS
 70
         1
  9
$SPLFRAME
 70
         0
  9
$SPLINETYPE
 70
         6
  9
$SPLINESEGS
 70
         8
  9
$ATTDIA
 70
         0
  9
$ATTREQ
 70
         1
  9
$HANDLING
 70
         1
  9
$HANDSEED
  5
1C6
  9
$SURFTAB1
 70
         6
  9
$SURFTAB2
 70
         6
  9
$SURFTYPE
 70
         6
  9
$SURFU
 70
         6
  9
$SURFV
 70
         6
  9
$UCSNAME
  2

  9
$UCSORG
 10
0.0
 20
0.0
 30
0.0
  9
$UCSXDIR
 10
1.0
 20
0.0
 30
0.0
  9
$UCSYDIR
 10
0.0
 20
1.0
 30
0.0
  9
$PUCSNAME
  2

  9
$PUCSORG
 10
0.0
 20
0.0
 30
0.0
  9
$PUCSXDIR
 10
1.0
 20
0.0
 30
0.0
  9
$PUCSYDIR
 10
0.0
 20
1.0
 30
0.0
  9
$USERI1
 70
         0
  9
$USERI2
 70
         0
  9
$USERI3
 70
         0
  9
$USERI4
 70
         0
  9
$USERI5
 70
         0
  9
$USERR1
 40
0.0
  9
$USERR2
 40
0.0
  9
$USERR3
 40
0.0
  9
$USERR4
 40
0.0
  9
$USERR5
 40
0.0
  9
$WORLDVIEW
 70
         1
  9
$SHADEDGE
 70
         3
  9
$SHADEDIF
 70
        70
  9
$TILEMODE
 70
         1
  9
$MAXACTVP
 70
        16
  9
$PINSBASE
 10
0.0
 20
0.0
 30
0.0
  9
$PLIMCHECK
 70
         0
  9
$PEXTMIN
 10
1.0000000000E+20
 20
1.0000000000E+20
 30
1.0000000000E+20
  9
$PEXTMAX
 10
-1.0000000000E+20
 20
-1.0000000000E+20
 30
-1.0000000000E+20
  9
$PLIMMIN
 10
0.0
 20
0.0
  9
$PLIMMAX
 10
12.0
 20
9.0
  9
$UNITMODE
 70
         0
  9
$VISRETAIN
 70
         0
  9
$PLINEGEN
 70
         1
  9
$PSLTSCALE
 70
         0
  9
$TREEDEPTH
 70
      3020
  9
$PICKSTYLE
 70
         1
  9
$CMLSTYLE
  2
STANDARD
  9
$CMLJUST
 70
         0
  9
$CMLSCALE
 40
1.0
  9
$PROXYGRAPHICS
 70
         0
  9
$MEASUREMENT
 70
         0
  0
ENDSEC
  0
SECTION
  2
CLASSES
  0
CLASS
  1
LWPOLYLINE
  2
AcDbPolyline
  3
"AutoCAD"
 90
        0
280
         0
281
         1
  0
CLASS
  1
IMAGE
  2
AcDbRasterImage
  3
ISM
 90
      127
280
         0
281
         1
  0
CLASS
  1
OLE2FRAME
  2
AcDbOle2Frame
  3
""
 90
        0
280
         0
281
         1
  0
CLASS
  1
HATCH
  2
AcDbHatch
  3
"ACAD_SEDONA"
 90
        0
280
         0
281
         1
  0
CLASS
  1
DICTIONARYVAR
  2
AcDbDictionaryVar
  3
"AutoCAD"
 90
        0
280
         0
281
         0
  0
CLASS
  1
RASTERVARIABLES
  2
AcDbRasterVariables
  3
ISM
 90
        0
280
         0
281
         0
  0
CLASS
  1
IMAGEDEF
  2
AcDbRasterImageDef
  3
ISM
 90
        0
280
         0
281
         0
  0
CLASS
  1
IMAGEDEF_REACTOR
  2
AcDbRasterImageDefReactor
  3
ISM
 90
        1
280
         0
281
         0
  0
CLASS
  1
IDBUFFER
  2
AcDbIdBuffer
  3
"Acad"
 90
        0
280
         0
281
         0
  0
CLASS
  1
SPATIAL_FILTER
  2
AcDbSpatialFilter
  3
"Acad"
 90
        0
280
         0
281
         0
  0
CLASS
  1
XRECORD
  2
AcDbXrecord
  3
"<Built In>"
 90
        0
280
         0
281
         0
  0
CLASS
  1
SORTENTSTABLE
  2
AcDbSortentsTable
  3
"AutoCAD"
 90
        0
280
         0
281
         0
  0
CLASS
  1
LAYER_INDEX
  2
AcDbLayerIndex
  3
"Acad"
 90
        0
280
         0
281
         0
  0
CLASS
  1
SPATIAL_INDEX
  2
AcDbSpatialIndex
  3
"Acad"
 90
        0
280
         0
281
         0
  0
CLASS
  1
OBJECT_PTR
  2
CAseDLPNTableRecord
  3
"ASE-LPNTableRecord"
 90
        1
280
         0
281
         0
  0
CLASS
  1
LAYOUT
  2
AcDbLayout
  3
"AutoCAD 2000"
 90
        1
280
         0
281
         0
  0
CLASS
  1
PLOTSETTINGS
  2
AcDbPlotSettings
  3
"AutoCAD 2000"
 90
        1
280
         0
281
         0
  0
CLASS
  1
ACDBDICTIONARYWDFLT
  2
AcDbDictionaryWithDefault
  3
"AutoCAD 2000"
 90
        1
280
         0
281
         0
  0
CLASS
  1
ACDBPLACEHOLDER
  2
AcDbPlaceHolder
  3
"AutoCAD 2000"
 90
        1
280
         0
281
         0
  0
CLASS
  1
VBA_PROJECT
  2
AcDbVbaProject
  3
"acadvba"
 90
        1
280
         0
281
         0
  0
CLASS
  1
WIPEOUT
  2
AcDbWipeout
  3
WipeOut|AutoCAD Express Tool|expresstools@autodesk.com
 90
      127
280
         0
281
         1
  0
CLASS
  1
WIPEOUTVARIABLES
  2
AcDbWipeoutVariables
  3
WipeOut|AutoCAD Express Tool|expresstools@autodesk.com
 90
        0
280
         0
281
         0
  0
CLASS
  1
RTEXT
  2
RText
  3
RText|AutoCAD Express Tool|expresstools@autodesk.com
 90
        0
280
         0
281
         1
  0
CLASS
  1
ARCALIGNEDTEXT
  2
AcDbArcAlignedText
  3
ATEXT|AutoCAD Express Tool|expresstools@autodesk.com
 90
        0
280
         0
281
         1
  0
ENDSEC
  0
SECTION
  2
TABLES
  0
TABLE
  2
VPORT
  5
7
100
AcDbSymbolTable
 70
         1
  0
VPORT
  5
15
100
AcDbSymbolTableRecord
100
AcDbViewportTableRecord
  2
*ACTIVE
 70
         0
 10
0.0
 20
0.0
 11
1.0
 21
1.0
 12
791.419711544
 22
1884.5516746704
 13
0.0
 23
0.0
 14
1.0
 24
1.0
 15
0.0
 25
0.0
 16
0.0
 26
0.0
 36
1.0
 17
0.0
 27
0.0
 37
0.0
 40
446.5849889487
 41
1.9834619625
 42
50.0
 43
0.0
 44
0.0
 50
0.0
 51
0.0
 71
         0
 72
       100
 73
         1
 74
         1
 75
         0
 76
         0
 77
         0
 78
         0
  0
ENDTAB
  0
TABLE
  2
LTYPE
  5
4
100
AcDbSymbolTable
 70
         6
  0
LTYPE
  5
11
100
AcDbSymbolTableRecord
100
AcDbLinetypeTableRecord
  2
BYBLOCK
 70
        64
  3

 72
        65
 73
         0
 40
0.0
  0
LTYPE
  5
12
100
AcDbSymbolTableRecord
100
AcDbLinetypeTableRecord
  2
BYLAYER
 70
        64
  3

 72
        65
 73
         0
 40
0.0
  0
LTYPE
  5
13
100
AcDbSymbolTableRecord
100
AcDbLinetypeTableRecord
  2
CONTINUOUS
 70
        64
  3
Solid line
 72
        65
 73
         0
 40
0.0
  0
LTYPE
  5
1D
100
AcDbSymbolTableRecord
100
AcDbLinetypeTableRecord
  2
DASHED
 70
        64
  3
_ _ _ _ _ _ _ _ _ _ _ _ _ _ _ _
 72
        65
 73
         2
 40
0.2
 49
0.1
 74
         0
 49
-0.1
 74
         0
  0
LTYPE
  5
1E
100
AcDbSymbolTableRecord
100
AcDbLinetypeTableRecord
  2
CENTER
 70
        64
  3
___ _ ___ _ ___ _ ___ _ ___ _ ___ _ ___ _ ___ _
 72
        65
 73
         4
 40
0.95
 49
0.625
 74
         0
 49
-0.125
 74
         0
 49
0.075
 74
         0
 49
-0.125
 74
         0
  0
LTYPE
  5
1F
100
AcDbSymbolTableRecord
100
AcDbLinetypeTableRecord
  2
PHANTOM
 70
        64
  3
______  __  __  ______  __  __  ______  __  __  
 72
        65
 73
         6
 40
1.025
 49
0.625
 74
         0
 49
-0.125
 74
         0
 49
0.075
 74
         0
 49
-0.125
 74
         0
 49
0.075
 74
         0
 49
-0.125
 74
         0
  0
ENDTAB
  0
TABLE
  2
LAYER
  5
2
100
AcDbSymbolTable
 70
        10
  0
LAYER
  5
14
100
AcDbSymbolTableRecord
100
AcDbLayerTableRecord
  2
0
 70
         0
 62
         7
  6
CONTINUOUS
  0
LAYER
  5
21
100
AcDbSymbolTableRecord
100
AcDbLayerTableRecord
  2
____
 70
         0
 62
         7
  6
CONTINUOUS
  0
LAYER
  5
22
100
AcDbSymbolTableRecord
100
AcDbLayerTableRecord
  2
____
 70
         1
 62
         7
  6
CONTINUOUS
  0
LAYER
  5
23
100
AcDbSymbolTableRecord
100
AcDbLayerTableRecord
  2
____
 70
         1
 62
         7
  6
CONTINUOUS
  0
LAYER
  5
24
100
AcDbSymbolTableRecord
100
AcDbLayerTableRecord
  2
____
 70
         1
 62
         7
  6
CONTINUOUS
  0
LAYER
  5
25
100
AcDbSymbolTableRecord
100
AcDbLayerTableRecord
  2
___G__
 70
         1
 62
         7
  6
CONTINUOUS
  0
LAYER
  5
26
100
AcDbSymbolTableRecord
100
AcDbLayerTableRecord
  2
______
 70
         1
 62
         7
  6
CONTINUOUS
  0
LAYER
  5
27
100
AcDbSymbolTableRecord
100
AcDbLayerTableRecord
  2
_____I
 70
         1
 62
         7
  6
CONTINUOUS
  0
LAYER
  5
28
100
AcDbSymbolTableRecord
100
AcDbLayerTableRecord
  2
___T__
 70
         1
 62
         7
  6
CONTINUOUS
  0
LAYER
  5
112
100
AcDbSymbolTableRecord
100
AcDbLayerTableRecord
  2
DEFPOINTS
 70
         0
 62
        -7
  6
CONTINUOUS
  0
ENDTAB
  0
TABLE
  2
STYLE
  5
3
100
AcDbSymbolTable
 70
         8
  0
STYLE
  5
17
100
AcDbSymbolTableRecord
100
AcDbTextStyleTableRecord
  2
STANDARD
 70
         0
 40
0.0
 41
1.0
 50
0.0
 71
         0
 42
0.0
  3
txt
  4

  0
STYLE
  5
F3
100
AcDbSymbolTableRecord
100
AcDbTextStyleTableRecord
  2
STSL
 70
         0
 40
1.0
 41
1.0
 50
0.0
 71
         0
 42
0.2
  3

  4
Stsl
  0
STYLE
  5
11B
100
AcDbSymbolTableRecord
100
AcDbTextStyleTableRecord
  2
BOX
 70
         0
 40
1.0
 41
1.0
 50
0.0
 71
         0
 42
0.2
  3
txt.shx
  4

  0
STYLE
  5
130
100
AcDbSymbolTableRecord
100
AcDbTextStyleTableRecord
  2
BOX
 70
         0
 40
1.0
 41
1.0
 50
0.0
 71
         0
 42
0.2
  3
txt.shx
  4

  0
STYLE
  5
156
100
AcDbSymbolTableRecord
100
AcDbTextStyleTableRecord
  2
BOX
 70
         0
 40
1.0
 41
1.0
 50
0.0
 71
         0
 42
0.2
  3
txt.shx
  4

  0
STYLE
  5
164
100
AcDbSymbolTableRecord
100
AcDbTextStyleTableRecord
  2
BOX
 70
         0
 40
1.0
 41
1.0
 50
0.0
 71
         0
 42
0.2
  3
txt.shx
  4

  0
STYLE
  5
1C1
100
AcDbSymbolTableRecord
100
AcDbTextStyleTableRecord
  2
BOX
 70
         0
 40
1.0
 41
1.0
 50
0.0
 71
         0
 42
0.2
  3
txt.shx
  4

  0
STYLE
  5
1C4
100
AcDbSymbolTableRecord
100
AcDbTextStyleTableRecord
  2
BOX
 70
         0
 40
1.0
 41
1.0
 50
0.0
 71
         0
 42
0.2
  3
txt.shx
  4

  0
ENDTAB
  0
TABLE
  2
VIEW
  5
5
100
AcDbSymbolTable
 70
         0
  0
ENDTAB
  0
TABLE
  2
UCS
  5
6
100
AcDbSymbolTable
 70
         1
  0
UCS
  5
20
100
AcDbSymbolTableRecord
100
AcDbUCSTableRecord
  2
CK_VIEW_1
 70
         0
 10
0.0
 20
0.0
 30
1.0
 11
1.0
 21
0.0
 31
0.0
 12
0.0
 22
1.0
 32
0.0
  0
ENDTAB
  0
TABLE
  2
APPID
  5
8
100
AcDbSymbolTable
 70
         1
  0
APPID
  5
16
100
AcDbSymbolTableRecord
100
AcDbRegAppTableRecord
  2
ACAD
 70
         0
  0
ENDTAB
  0
TABLE
  2
DIMSTYLE
  5
9
100
AcDbSymbolTable
 70
         3
  0
DIMSTYLE
105
18
100
AcDbSymbolTableRecord
100
AcDbDimStyleTableRecord
  2
STANDARD
 70
         0
  3

  4

  5

  6

  7

 40
1.0
 41
0.18
 42
0.0625
 43
0.38
 44
0.18
 45
0.0
 46
0.0
 47
0.0
 48
0.0
 71
         0
 72
         0
 73
         1
 74
         1
 75
         0
 76
         0
 77
         0
 78
         0
140
0.18
141
0.09
142
0.0
143
25.4
144
1.0
145
0.0
146
1.0
147
0.09
170
         0
171
         2
172
         0
173
         0
174
         0
175
         0
176
         0
177
         0
178
         0
270
         2
271
         4
272
         4
273
         2
274
         2
275
         0
280
         0
281
         0
282
         0
283
         1
284
         0
285
         0
286
         0
287
         0
288
         0
340
17
  0
DIMSTYLE
105
10E
100
AcDbSymbolTableRecord
100
AcDbDimStyleTableRecord
  2
DIMSTYLE1
 70
         0
  3

  4

  5

  6

  7

 40
1.0
 41
3.5
 42
0.0625
 43
0.38
 44
3.5
 45
0.0
 46
0.0
 47
0.0
 48
0.0
 71
         0
 72
         0
 73
         1
 74
         1
 75
         0
 76
         0
 77
         0
 78
         0
140
3.5
141
0.09
142
0.0
143
25.4
144
1.0
145
0.0
146
1.0
147
0.09
170
         0
171
         2
172
         0
173
         0
174
         0
175
         0
176
         0
177
         0
178
         0
270
         2
271
         4
272
         4
273
         2
274
         2
275
         0
280
         0
281
         0
282
         0
283
         1
284
         0
285
         0
286
         0
287
         0
288
         0
340
17
  0
DIMSTYLE
105
1B5
100
AcDbSymbolTableRecord
100
AcDbDimStyleTableRecord
  2
DIMSTYLE2
 70
         0
  3

  4

  5

  6

  7

 40
1.0
 41
2.7
 42
0.0625
 43
0.38
 44
2.7
 45
0.0
 46
0.0
 47
0.0
 48
0.0
 71
         0
 72
         0
 73
         1
 74
         1
 75
         0
 76
         0
 77
         0
 78
         0
140
2.7
141
0.09
142
0.0
143
25.4
144
1.0
145
0.0
146
1.0
147
0.09
170
         0
171
         2
172
         0
173
         0
174
         0
175
         0
176
         0
177
         0
178
         0
270
         2
271
         4
272
         4
273
         2
274
         2
275
         0
280
         0
281
         0
282
         0
283
         1
284
         0
285
         0
286
         0
287
         0
288
         0
340
17
  0
ENDTAB
  0
TABLE
  2
BLOCK_RECORD
  5
1
100
AcDbSymbolTable
 70
         6
  0
BLOCK_RECORD
  5
A
100
AcDbSymbolTableRecord
100
AcDbBlockTableRecord
  2
*MODEL_SPACE
  0
BLOCK_RECORD
  5
B
100
AcDbSymbolTableRecord
100
AcDbBlockTableRecord
  2
*PAPER_SPACE
  0
BLOCK_RECORD
  5
10F
100
AcDbSymbolTableRecord
100
AcDbBlockTableRecord
  2
*D0
  0
BLOCK_RECORD
  5
125
100
AcDbSymbolTableRecord
100
AcDbBlockTableRecord
  2
*D1
  0
BLOCK_RECORD
  5
14B
100
AcDbSymbolTableRecord
100
AcDbBlockTableRecord
  2
*D2
  0
BLOCK_RECORD
  5
159
100
AcDbSymbolTableRecord
100
AcDbBlockTableRecord
  2
*D3
  0
BLOCK_RECORD
  5
167
100
AcDbSymbolTableRecord
100
AcDbBlockTableRecord
  2
*X4
  0
BLOCK_RECORD
  5
1B6
100
AcDbSymbolTableRecord
100
AcDbBlockTableRecord
  2
*D5
  0
ENDTAB
  0
ENDSEC
  0
SECTION
  2
BLOCKS
  0
BLOCK
  5
D
100
AcDbEntity
  8
0
100
AcDbBlockBegin
  2
*MODEL_SPACE
 70
         0
 10
0.0
 20
0.0
 30
0.0
  3
*MODEL_SPACE
  1

  0
ENDBLK
  5
E
100
AcDbEntity
  8
0
100
AcDbBlockEnd
  0
BLOCK
  5
F
100
AcDbEntity
 67
         1
  8
0
100
AcDbBlockBegin
  2
*PAPER_SPACE
 70
         0
 10
0.0
 20
0.0
 30
0.0
  3
*PAPER_SPACE
  1

  0
ENDBLK
  5
10
100
AcDbEntity
 67
         1
  8
0
100
AcDbBlockEnd
  0
BLOCK
  5
110
100
AcDbEntity
  8
0
100
AcDbBlockBegin
  2
*D0
 70
        65
 10
0.0
 20
0.0
 30
0.0
  3
*D0
  1

  0
POINT
  5
113
100
AcDbEntity
  8
DEFPOINTS
  6
CONTINUOUS
 62
         0
100
AcDbPoint
 10
840.9455719113
 20
1966.4348136025
 30
0.0
  0
POINT
  5
114
100
AcDbEntity
  8
DEFPOINTS
  6
CONTINUOUS
 62
         0
100
AcDbPoint
 10
776.2341664874
 20
1966.4348136025
 30
0.0
  0
POINT
  5
115
100
AcDbEntity
  8
DEFPOINTS
  6
CONTINUOUS
 62
         0
100
AcDbPoint
 10
775.9395505277
 20
1931.4348136025
 30
0.0
  0
LINE
  5
116
100
AcDbEntity
  8
____
  6
CONTINUOUS
 62
         4
100
AcDbLine
 10
777.9841664874
 20
1966.4348136025
 30
0.0
 11
841.8205719113
 21
1966.4348136025
 31
0.0
  0
LINE
  5
117
100
AcDbEntity
  8
____
  6
CONTINUOUS
 62
         4
100
AcDbLine
 10
777.6895505277
 20
1931.4348136025
 30
0.0
 11
841.8205719113
 21
1931.4348136025
 31
0.0
  0
LINE
  5
118
100
AcDbEntity
  8
____
  6
CONTINUOUS
 62
         4
100
AcDbLine
 10
840.9455719113
 20
1966.4348136025
 30
0.0
 11
840.9455719113
 21
1931.4348136025
 31
0.0
  0
SOLID
  5
119
100
AcDbEntity
  8
____
  6
CONTINUOUS
 62
         4
100
AcDbTrace
 10
840.9455719113
 20
1966.4348136025
 30
0.0
 11
841.4705719113
 21
1962.9348136025
 31
0.0
 12
840.4205719113
 22
1962.9348136025
 32
0.0
 13
840.9455719113
 23
1966.4348136025
 33
0.0
  0
SOLID
  5
11A
100
AcDbEntity
  8
____
  6
CONTINUOUS
 62
         4
100
AcDbTrace
 10
840.9455719113
 20
1931.4348136025
 30
0.0
 11
840.4205719113
 21
1934.9348136025
 31
0.0
 12
841.4705719113
 22
1934.9348136025
 32
0.0
 13
840.9455719113
 23
1931.4348136025
 33
0.0
  0
TEXT
  5
11C
100
AcDbEntity
  8
____
  6
CONTINUOUS
 62
         4
100
AcDbText
 10
838.3205719113
 20
1941.3032090163
 30
0.0
 40
3.5
  1
崷35
 50
90.0
  7
BOX
100
AcDbText
  0
ENDBLK
  5
11D
100
AcDbEntity
  8
0
  6
CONTINUOUS
100
AcDbBlockEnd
  0
BLOCK
  5
126
100
AcDbEntity
  8
0
100
AcDbBlockBegin
  2
*D1
 70
        65
 10
0.0
 20
0.0
 30
0.0
  3
*D1
  1

  0
POINT
  5
128
100
AcDbEntity
  8
DEFPOINTS
  6
CONTINUOUS
 62
         0
100
AcDbPoint
 10
841.276253076
 20
1768.9532017764
 30
0.0
  0
POINT
  5
129
100
AcDbEntity
  8
DEFPOINTS
  6
CONTINUOUS
 62
         0
100
AcDbPoint
 10
816.2006393594
 20
1768.9532017764
 30
0.0
  0
POINT
  5
12A
100
AcDbEntity
  8
DEFPOINTS
  6
CONTINUOUS
 62
         0
100
AcDbPoint
 10
816.2006393594
 20
1750.1012413263
 30
0.0
  0
LINE
  5
12B
100
AcDbEntity
  8
____
  6
CONTINUOUS
 62
         4
100
AcDbLine
 10
817.9506393594
 20
1768.9532017764
 30
0.0
 11
842.151253076
 21
1768.9532017764
 31
0.0
  0
LINE
  5
12C
100
AcDbEntity
  8
____
  6
CONTINUOUS
 62
         4
100
AcDbLine
 10
817.9506393594
 20
1750.1012413263
 30
0.0
 11
842.151253076
 21
1750.1012413263
 31
0.0
  0
LINE
  5
12D
100
AcDbEntity
  8
____
  6
CONTINUOUS
 62
         4
100
AcDbLine
 10
841.276253076
 20
1768.9532017764
 30
0.0
 11
841.276253076
 21
1750.1012413263
 31
0.0
  0
SOLID
  5
12E
100
AcDbEntity
  8
____
  6
CONTINUOUS
 62
         4
100
AcDbTrace
 10
841.276253076
 20
1768.9532017764
 30
0.0
 11
841.801253076
 21
1765.4532017764
 31
0.0
 12
840.751253076
 22
1765.4532017764
 32
0.0
 13
841.276253076
 23
1768.9532017764
 33
0.0
  0
SOLID
  5
12F
100
AcDbEntity
  8
____
  6
CONTINUOUS
 62
         4
100
AcDbTrace
 10
841.276253076
 20
1750.1012413263
 30
0.0
 11
840.751253076
 21
1753.6012413263
 31
0.0
 12
841.801253076
 22
1753.6012413263
 32
0.0
 13
841.276253076
 23
1750.1012413263
 33
0.0
  0
TEXT
  5
131
100
AcDbEntity
  8
____
  6
CONTINUOUS
 62
         4
100
AcDbText
 10
838.651253076
 20
1747.068055432
 30
0.0
 40
3.5
  1
崷18.852
 50
90.0
  7
BOX
100
AcDbText
  0
ENDBLK
  5
132
100
AcDbEntity
  8
0
  6
CONTINUOUS
100
AcDbBlockEnd
  0
BLOCK
  5
14C
100
AcDbEntity
  8
0
100
AcDbBlockBegin
  2
*D2
 70
        65
 10
0.0
 20
0.0
 30
0.0
  3
*D2
  1

  0
POINT
  5
14E
100
AcDbEntity
  8
DEFPOINTS
  6
CONTINUOUS
 62
         0
100
AcDbPoint
 10
780.2446393594
 20
2069.8251336234
 30
0.0
  0
POINT
  5
14F
100
AcDbEntity
  8
DEFPOINTS
  6
CONTINUOUS
 62
         0
100
AcDbPoint
 10
780.2446393594
 20
1965.4348136025
 30
0.0
  0
POINT
  5
150
100
AcDbEntity
  8
DEFPOINTS
  6
CONTINUOUS
 62
         0
100
AcDbPoint
 10
740.2446393594
 20
1988.6598136025
 30
0.0
  0
LINE
  5
151
100
AcDbEntity
  8
____
  6
CONTINUOUS
 62
         4
100
AcDbLine
 10
780.2446393594
 20
1967.1848136025
 30
0.0
 11
780.2446393594
 21
2070.7001336234
 31
0.0
  0
LINE
  5
152
100
AcDbEntity
  8
____
  6
CONTINUOUS
 62
         4
100
AcDbLine
 10
740.2446393594
 20
1990.4098136025
 30
0.0
 11
740.2446393594
 21
2070.7001336234
 31
0.0
  0
LINE
  5
153
100
AcDbEntity
  8
____
  6
CONTINUOUS
 62
         4
100
AcDbLine
 10
780.2446393594
 20
2069.8251336234
 30
0.0
 11
740.2446393594
 21
2069.8251336234
 31
0.0
  0
SOLID
  5
154
100
AcDbEntity
  8
____
  6
CONTINUOUS
 62
         4
100
AcDbTrace
 10
780.2446393594
 20
2069.8251336234
 30
0.0
 11
776.7446393594
 21
2069.3001336234
 31
0.0
 12
776.7446393594
 22
2070.3501336234
 32
0.0
 13
780.2446393594
 23
2069.8251336234
 33
0.0
  0
SOLID
  5
155
100
AcDbEntity
  8
____
  6
CONTINUOUS
 62
         4
100
AcDbTrace
 10
740.2446393594
 20
2069.8251336234
 30
0.0
 11
743.7446393594
 21
2070.3501336234
 31
0.0
 12
743.7446393594
 22
2069.3001336234
 32
0.0
 13
740.2446393594
 23
2069.8251336234
 33
0.0
  0
TEXT
  5
157
100
AcDbEntity
  8
____
  6
CONTINUOUS
 62
         4
100
AcDbText
 10
756.7446393594
 20
2072.4501336234
 30
0.0
 40
3.5
  1
40
  7
BOX
100
AcDbText
  0
ENDBLK
  5
158
100
AcDbEntity
  8
0
  6
CONTINUOUS
100
AcDbBlockEnd
  0
BLOCK
  5
15A
100
AcDbEntity
  8
0
100
AcDbBlockBegin
  2
*D3
 70
        65
 10
0.0
 20
0.0
 30
0.0
  3
*D3
  1

  0
POINT
  5
15C
100
AcDbEntity
  8
DEFPOINTS
  6
CONTINUOUS
 62
         0
100
AcDbPoint
 10
638.4946393594
 20
2081.4198514653
 30
0.0
  0
POINT
  5
15D
100
AcDbEntity
  8
DEFPOINTS
  6
CONTINUOUS
 62
         0
100
AcDbPoint
 10
638.4946393594
 20
1966.8592741605
 30
0.0
  0
POINT
  5
15E
100
AcDbEntity
  8
DEFPOINTS
  6
CONTINUOUS
 62
         0
100
AcDbPoint
 10
816.2006393594
 20
1956.900722425
 30
0.0
  0
LINE
  5
15F
100
AcDbEntity
  8
____
  6
CONTINUOUS
 62
         4
100
AcDbLine
 10
638.4946393594
 20
1968.6092741605
 30
0.0
 11
638.4946393594
 21
2082.2948514653
 31
0.0
  0
LINE
  5
160
100
AcDbEntity
  8
____
  6
CONTINUOUS
 62
         4
100
AcDbLine
 10
816.2006393594
 20
1958.650722425
 30
0.0
 11
816.2006393594
 21
2082.2948514653
 31
0.0
  0
LINE
  5
161
100
AcDbEntity
  8
____
  6
CONTINUOUS
 62
         4
100
AcDbLine
 10
638.4946393594
 20
2081.4198514653
 30
0.0
 11
816.2006393594
 21
2081.4198514653
 31
0.0
  0
SOLID
  5
162
100
AcDbEntity
  8
____
  6
CONTINUOUS
 62
         4
100
AcDbTrace
 10
638.4946393594
 20
2081.4198514653
 30
0.0
 11
641.9946393594
 21
2081.9448514653
 31
0.0
 12
641.9946393594
 22
2080.8948514653
 32
0.0
 13
638.4946393594
 23
2081.4198514653
 33
0.0
  0
SOLID
  5
163
100
AcDbEntity
  8
____
  6
CONTINUOUS
 62
         4
100
AcDbTrace
 10
816.2006393594
 20
2081.4198514653
 30
0.0
 11
812.7006393594
 21
2080.8948514653
 31
0.0
 12
812.7006393594
 22
2081.9448514653
 32
0.0
 13
816.2006393594
 23
2081.4198514653
 33
0.0
  0
TEXT
  5
165
100
AcDbEntity
  8
____
  6
CONTINUOUS
 62
         4
100
AcDbText
 10
718.6512667744
 20
2084.0448514653
 30
0.0
 40
3.5
  1
177.56
  7
BOX
100
AcDbText
  0
ENDBLK
  5
166
100
AcDbEntity
  8
0
  6
CONTINUOUS
100
AcDbBlockEnd
  0
BLOCK
  5
168
100
AcDbEntity
  8
0
100
AcDbBlockBegin
  2
*X4
 70
        65
 10
0.0
 20
0.0
 30
0.0
  3
*X4
  1

  0
LINE
  5
169
100
AcDbEntity
  8
____
  6
CONTINUOUS
 62
         4
100
AcDbLine
 10
812.5930966329
 20
1750.0052119121
 30
0.0
 11
816.2006393594
 21
1753.6127546385
 31
0.0
  0
LINE
  5
16A
100
AcDbEntity
  8
____
  6
CONTINUOUS
 62
         4
100
AcDbLine
 10
808.2344323789
 20
1749.8891883452
 30
0.0
 11
816.2006393594
 21
1757.8553953257
 31
0.0
  0
LINE
  5
16B
100
AcDbEntity
  8
____
  6
CONTINUOUS
 62
         4
100
AcDbLine
 10
803.8757681248
 20
1749.7731647783
 30
0.0
 11
816.2006393594
 21
1762.0980360128
 31
0.0
  0
LINE
  5
16C
100
AcDbEntity
  8
____
  6
CONTINUOUS
 62
         4
100
AcDbLine
 10
774.4621842108
 20
1724.6022215514
 30
0.0
 11
774.4966393594
 21
1724.6366766999
 31
0.0
  0
LINE
  5
16D
100
AcDbEntity
  8
____
  6
CONTINUOUS
 62
         4
100
AcDbLine
 10
799.5171038708
 20
1749.6571412113
 30
0.0
 11
816.2006393594
 21
1766.3406766999
 31
0.0
  0
LINE
  5
16E
100
AcDbEntity
  8
____
  6
CONTINUOUS
 62
         4
100
AcDbLine
 10
756.3945435237
 20
1710.7772215514
 30
0.0
 11
759.3446393594
 21
1713.727317387
 31
0.0
  0
LINE
  5
16F
100
AcDbEntity
  8
____
  6
CONTINUOUS
 62
         4
100
AcDbLine
 10
770.2195435237
 20
1724.6022215514
 30
0.0
 11
774.4966393594
 21
1728.879317387
 31
0.0
  0
LINE
  5
170
100
AcDbEntity
  8
____
  6
CONTINUOUS
 62
         4
100
AcDbLine
 10
795.1584396168
 20
1749.5411176444
 30
0.0
 11
814.6127907929
 21
1768.9954688206
 31
0.0
  0
LINE
  5
171
100
AcDbEntity
  8
____
  6
CONTINUOUS
 62
         4
100
AcDbLine
 10
753.8820238978
 20
1712.5073426125
 30
0.0
 11
759.3446393594
 21
1717.9699580741
 31
0.0
  0
LINE
  5
172
100
AcDbEntity
  8
____
  6
CONTINUOUS
 62
         4
100
AcDbLine
 10
765.9769028366
 20
1724.6022215514
 30
0.0
 11
774.4966393594
 21
1733.1219580741
 31
0.0
  0
LINE
  5
173
100
AcDbEntity
  8
____
  6
CONTINUOUS
 62
         4
100
AcDbLine
 10
790.7997753627
 20
1749.4250940775
 30
0.0
 11
810.4801569544
 21
1769.1054756692
 31
0.0
  0
LINE
  5
174
100
AcDbEntity
  8
____
  6
CONTINUOUS
 62
         4
100
AcDbLine
 10
751.0342621495
 20
1713.9022215514
 30
0.0
 11
759.3446393594
 21
1722.2125987613
 31
0.0
  0
LINE
  5
175
100
AcDbEntity
  8
____
  6
CONTINUOUS
 62
         4
100
AcDbLine
 10
761.7342621495
 20
1724.6022215514
 30
0.0
 11
774.4966393594
 21
1737.3645987612
 31
0.0
  0
LINE
  5
176
100
AcDbEntity
  8
____
  6
CONTINUOUS
 62
         4
100
AcDbLine
 10
779.1592621495
 20
1742.0272215514
 30
0.0
 11
780.2446393594
 21
1743.1125987612
 31
0.0
  0
LINE
  5
177
100
AcDbEntity
  8
____
  6
CONTINUOUS
 62
         4
100
AcDbLine
 10
786.4411111087
 20
1749.3090705106
 30
0.0
 11
806.3475231159
 21
1769.2154825178
 31
0.0
  0
LINE
  5
178
100
AcDbEntity
  8
____
  6
CONTINUOUS
 62
         4
100
AcDbLine
 10
744.000793463
 20
1711.111393552
 30
0.0
 11
780.2514935118
 21
1747.3620936008
 31
0.0
  0
LINE
  5
179
100
AcDbEntity
  8
____
  6
CONTINUOUS
 62
         4
100
AcDbLine
 10
782.0792016659
 20
1749.1898017549
 30
0.0
 11
802.2148892774
 21
1769.3254893664
 31
0.0
  0
LINE
  5
17A
100
AcDbEntity
  8
____
  6
CONTINUOUS
 62
         4
100
AcDbLine
 10
743.4446393594
 20
1714.7978801355
 30
0.0
 11
798.0822554389
 21
1769.435496215
 31
0.0
  0
LINE
  5
17B
100
AcDbEntity
  8
____
  6
CONTINUOUS
 62
         4
100
AcDbLine
 10
743.4446393594
 20
1719.0405208226
 30
0.0
 11
793.9496216004
 21
1769.5455030636
 31
0.0
  0
LINE
  5
17C
100
AcDbEntity
  8
____
  6
CONTINUOUS
 62
         4
100
AcDbLine
 10
743.4446393594
 20
1723.2831615097
 30
0.0
 11
789.8169877618
 21
1769.6555099122
 31
0.0
  0
LINE
  5
17D
100
AcDbEntity
  8
____
  6
CONTINUOUS
 62
         4
100
AcDbLine
 10
740.6166122995
 20
1724.697775137
 30
0.0
 11
785.6843539233
 21
1769.7655167608
 31
0.0
  0
LINE
  5
17E
100
AcDbEntity
  8
____
  6
CONTINUOUS
 62
         4
100
AcDbLine
 10
736.7832139805
 20
1725.1070175051
 30
0.0
 11
781.6305828661
 21
1769.9543863907
 31
0.0
  0
LINE
  5
17F
100
AcDbEntity
  8
____
  6
CONTINUOUS
 62
         4
100
AcDbLine
 10
733.0805501812
 20
1725.646994393
 30
0.0
 11
780.2446393594
 21
1772.8110835711
 31
0.0
  0
LINE
  5
180
100
AcDbEntity
  8
____
  6
CONTINUOUS
 62
         4
100
AcDbLine
 10
729.377886382
 20
1726.1869712809
 30
0.0
 11
779.9383706094
 21
1776.7474555083
 31
0.0
  0
LINE
  5
181
100
AcDbEntity
  8
____
  6
CONTINUOUS
 62
         4
100
AcDbLine
 10
725.6752225828
 20
1726.7269481687
 30
0.0
 11
776.2477905729
 21
1777.2995161588
 31
0.0
  0
LINE
  5
182
100
AcDbEntity
  8
____
  6
CONTINUOUS
 62
         4
100
AcDbLine
 10
721.9725587836
 20
1727.2669250566
 30
0.0
 11
774.5052833123
 21
1779.7996495854
 31
0.0
  0
LINE
  5
183
100
AcDbEntity
  8
____
  6
CONTINUOUS
 62
         4
100
AcDbLine
 10
718.2698949843
 20
1727.8069019445
 30
0.0
 11
774.4966393594
 21
1784.0336463196
 31
0.0
  0
LINE
  5
184
100
AcDbEntity
  8
____
  6
CONTINUOUS
 62
         4
100
AcDbLine
 10
714.5672311851
 20
1728.3468788324
 30
0.0
 11
774.4966393594
 21
1788.2762870067
 31
0.0
  0
LINE
  5
185
100
AcDbEntity
  8
____
  6
CONTINUOUS
 62
         4
100
AcDbLine
 10
710.8645673859
 20
1728.8868557203
 30
0.0
 11
774.4966393594
 21
1792.5189276938
 31
0.0
  0
LINE
  5
186
100
AcDbEntity
  8
____
  6
CONTINUOUS
 62
         4
100
AcDbLine
 10
707.1619035867
 20
1729.4268326082
 30
0.0
 11
772.1872925298
 21
1794.4522215514
 31
0.0
  0
LINE
  5
187
100
AcDbEntity
  8
____
  6
CONTINUOUS
 62
         4
100
AcDbLine
 10
703.4592397874
 20
1729.9668094961
 30
0.0
 11
767.9446518427
 21
1794.4522215514
 31
0.0
  0
LINE
  5
188
100
AcDbEntity
  8
____
  6
CONTINUOUS
 62
         4
100
AcDbLine
 10
699.7565759882
 20
1730.506786384
 30
0.0
 11
763.7020111556
 21
1794.4522215514
 31
0.0
  0
LINE
  5
189
100
AcDbEntity
  8
____
  6
CONTINUOUS
 62
         4
100
AcDbLine
 10
696.053912189
 20
1731.0467632719
 30
0.0
 11
759.5531364671
 21
1794.54598755
 31
0.0
  0
LINE
  5
18A
100
AcDbEntity
  8
____
  6
CONTINUOUS
 62
         4
100
AcDbLine
 10
692.3512483898
 20
1731.5867401598
 30
0.0
 11
759.3446393594
 21
1798.5801311294
 31
0.0
  0
LINE
  5
18B
100
AcDbEntity
  8
____
  6
CONTINUOUS
 62
         4
100
AcDbLine
 10
688.6485845905
 20
1732.1267170477
 30
0.0
 11
759.3446393594
 21
1802.8227718165
 31
0.0
  0
LINE
  5
18C
100
AcDbEntity
  8
____
  6
CONTINUOUS
 62
         4
100
AcDbLine
 10
684.9459207913
 20
1732.6666939356
 30
0.0
 11
759.3211067517
 21
1807.041879896
 31
0.0
  0
LINE
  5
18D
100
AcDbEntity
  8
____
  6
CONTINUOUS
 62
         4
100
AcDbLine
 10
681.2432569921
 20
1733.2066708235
 30
0.0
 11
742.0301421217
 21
1793.9935559531
 31
0.0
  0
LINE
  5
18E
100
AcDbEntity
  8
____
  6
CONTINUOUS
 62
         4
100
AcDbLine
 10
743.4446393594
 20
1795.4080531908
 30
0.0
 11
756.31380772
 21
1808.2772215514
 31
0.0
  0
LINE
  5
18F
100
AcDbEntity
  8
____
  6
CONTINUOUS
 62
         4
100
AcDbLine
 10
677.5405931929
 20
1733.7466477114
 30
0.0
 11
692.9248255694
 21
1749.1308800879
 31
0.0
  0
LINE
  5
190
100
AcDbEntity
  8
____
  6
CONTINUOUS
 62
         4
100
AcDbLine
 10
694.2730194718
 20
1750.4790739903
 30
0.0
 11
737.9049606796
 21
1794.1110151981
 31
0.0
  0
LINE
  5
191
100
AcDbEntity
  8
____
  6
CONTINUOUS
 62
         4
100
AcDbLine
 10
743.4446393594
 20
1799.6506938779
 30
0.0
 11
749.3686613462
 21
1805.5747158647
 31
0.0
  0
LINE
  5
192
100
AcDbEntity
  8
____
  6
CONTINUOUS
 62
         4
100
AcDbLine
 10
673.8379293936
 20
1734.2866245993
 30
0.0
 11
688.6821848823
 21
1749.1308800879
 31
0.0
  0
LINE
  5
193
100
AcDbEntity
  8
____
  6
CONTINUOUS
 62
         4
100
AcDbLine
 10
699.3438089303
 20
1759.7925041359
 30
0.0
 11
732.9379587203
 21
1793.3866539259
 31
0.0
  0
LINE
  5
194
100
AcDbEntity
  8
____
  6
CONTINUOUS
 62
         4
100
AcDbLine
 10
743.4446393594
 20
1803.893334565
 30
0.0
 11
747.8157470756
 21
1808.2644422812
 31
0.0
  0
LINE
  5
195
100
AcDbEntity
  8
____
  6
CONTINUOUS
 62
         4
100
AcDbLine
 10
670.1352655944
 20
1734.8266014872
 30
0.0
 11
684.4395441952
 21
1749.1308800879
 31
0.0
  0
LINE
  5
196
100
AcDbEntity
  8
____
  6
CONTINUOUS
 62
         4
100
AcDbLine
 10
697.7908946596
 20
1762.4822305524
 30
0.0
 11
727.970956761
 21
1792.6622926537
 31
0.0
  0
LINE
  5
197
100
AcDbEntity
  8
____
  6
CONTINUOUS
 62
         4
100
AcDbLine
 10
666.4326017952
 20
1735.3665783751
 30
0.0
 11
680.1969035081
 21
1749.1308800879
 31
0.0
  0
LINE
  5
198
100
AcDbEntity
  8
____
  6
CONTINUOUS
 62
         4
100
AcDbLine
 10
696.237980389
 20
1765.1719569689
 30
0.0
 11
723.0039548016
 21
1791.9379313815
 31
0.0
  0
LINE
  5
199
100
AcDbEntity
  8
____
  6
CONTINUOUS
 62
         4
100
AcDbLine
 10
662.729937996
 20
1735.906555263
 30
0.0
 11
675.954262821
 21
1749.1308800879
 31
0.0
  0
LINE
  5
19A
100
AcDbEntity
  8
____
  6
CONTINUOUS
 62
         4
100
AcDbLine
 10
694.6850661184
 20
1767.8616833854
 30
0.0
 11
718.0369528423
 21
1791.2135701093
 31
0.0
  0
LINE
  5
19B
100
AcDbEntity
  8
____
  6
CONTINUOUS
 62
         4
100
AcDbLine
 10
659.0272741967
 20
1736.4465321509
 30
0.0
 11
671.7116221338
 21
1749.1308800879
 31
0.0
  0
LINE
  5
19C
100
AcDbEntity
  8
____
  6
CONTINUOUS
 62
         4
100
AcDbLine
 10
692.5043050607
 20
1769.9235630148
 30
0.0
 11
713.069950883
 21
1790.4892088371
 31
0.0
  0
LINE
  5
19D
100
AcDbEntity
  8
____
  6
CONTINUOUS
 62
         4
100
AcDbLine
 10
655.3246103975
 20
1736.9865090388
 30
0.0
 11
667.4689814467
 21
1749.1308800879
 31
0.0
  0
LINE
  5
19E
100
AcDbEntity
  8
____
  6
CONTINUOUS
 62
         4
100
AcDbLine
 10
688.2616643735
 20
1769.9235630148
 30
0.0
 11
708.1029489236
 21
1789.7648475649
 31
0.0
  0
LINE
  5
19F
100
AcDbEntity
  8
____
  6
CONTINUOUS
 62
         4
100
AcDbLine
 10
651.6219465983
 20
1737.5264859266
 30
0.0
 11
663.2263407596
 21
1749.1308800879
 31
0.0
  0
LINE
  5
1A0
100
AcDbEntity
  8
____
  6
CONTINUOUS
 62
         4
100
AcDbLine
 10
684.0190236864
 20
1769.9235630148
 30
0.0
 11
703.1359469643
 21
1789.0404862927
 31
0.0
  0
LINE
  5
1A1
100
AcDbEntity
  8
____
  6
CONTINUOUS
 62
         4
100
AcDbLine
 10
647.9192827991
 20
1738.0664628145
 30
0.0
 11
658.9837000725
 21
1749.1308800879
 31
0.0
  0
LINE
  5
1A2
100
AcDbEntity
  8
____
  6
CONTINUOUS
 62
         4
100
AcDbLine
 10
679.7763829993
 20
1769.9235630148
 30
0.0
 11
698.168945005
 21
1788.3161250205
 31
0.0
  0
LINE
  5
1A3
100
AcDbEntity
  8
____
  6
CONTINUOUS
 62
         4
100
AcDbLine
 10
644.2166189999
 20
1738.6064397024
 30
0.0
 11
654.7410593854
 21
1749.1308800879
 31
0.0
  0
LINE
  5
1A4
100
AcDbEntity
  8
____
  6
CONTINUOUS
 62
         4
100
AcDbLine
 10
675.5337423122
 20
1769.9235630148
 30
0.0
 11
693.2019430457
 21
1787.5917637483
 31
0.0
  0
LINE
  5
1A5
100
AcDbEntity
  8
____
  6
CONTINUOUS
 62
         4
100
AcDbLine
 10
640.5164573226
 20
1739.1489187123
 30
0.0
 11
650.4984186982
 21
1749.1308800879
 31
0.0
  0
LINE
  5
1A6
100
AcDbEntity
  8
____
  6
CONTINUOUS
 62
         4
100
AcDbLine
 10
671.2911016251
 20
1769.9235630148
 30
0.0
 11
688.2349410863
 21
1786.867402476
 31
0.0
  0
LINE
  5
1A7
100
AcDbEntity
  8
____
  6
CONTINUOUS
 62
         4
100
AcDbLine
 10
638.5046094526
 20
1741.3797115294
 30
0.0
 11
643.9521194745
 21
1746.8272215514
 31
0.0
  0
LINE
  5
1A8
100
AcDbEntity
  8
____
  6
CONTINUOUS
 62
         4
100
AcDbLine
 10
667.0484609379
 20
1769.9235630148
 30
0.0
 11
683.267939127
 21
1786.1430412038
 31
0.0
  0
LINE
  5
1A9
100
AcDbEntity
  8
____
  6
CONTINUOUS
 62
         4
100
AcDbLine
 10
638.4972069681
 20
1745.6149497321
 30
0.0
 11
639.9069111786
 21
1747.0246539426
 31
0.0
  0
LINE
  5
1AA
100
AcDbEntity
  8
____
  6
CONTINUOUS
 62
         4
100
AcDbLine
 10
662.8058202508
 20
1769.9235630148
 30
0.0
 11
678.3009371677
 21
1785.4186799316
 31
0.0
  0
LINE
  5
1AB
100
AcDbEntity
  8
____
  6
CONTINUOUS
 62
         4
100
AcDbLine
 10
658.5631795637
 20
1769.9235630148
 30
0.0
 11
673.3339352084
 21
1784.6943186594
 31
0.0
  0
LINE
  5
1AC
100
AcDbEntity
  8
____
  6
CONTINUOUS
 62
         4
100
AcDbLine
 10
654.3205388766
 20
1769.9235630148
 30
0.0
 11
668.366933249
 21
1783.9699573872
 31
0.0
  0
LINE
  5
1AD
100
AcDbEntity
  8
____
  6
CONTINUOUS
 62
         4
100
AcDbLine
 10
650.0778981895
 20
1769.9235630148
 30
0.0
 11
663.3999312897
 21
1783.245596115
 31
0.0
  0
LINE
  5
1AE
100
AcDbEntity
  8
____
  6
CONTINUOUS
 62
         4
100
AcDbLine
 10
646.3746204116
 20
1770.462925924
 30
0.0
 11
658.4329293304
 21
1782.5212348428
 31
0.0
  0
LINE
  5
1AF
100
AcDbEntity
  8
____
  6
CONTINUOUS
 62
         4
100
AcDbLine
 10
643.8962753518
 20
1772.2272215514
 30
0.0
 11
653.465927371
 21
1781.7968735706
 31
0.0
  0
LINE
  5
1B0
100
AcDbEntity
  8
____
  6
CONTINUOUS
 62
         4
100
AcDbLine
 10
639.5280492777
 20
1772.1016361643
 30
0.0
 11
648.4989254117
 21
1781.0725122984
 31
0.0
  0
LINE
  5
1B1
100
AcDbEntity
  8
____
  6
CONTINUOUS
 62
         4
100
AcDbLine
 10
638.4946393594
 20
1775.3108669331
 30
0.0
 11
643.5319234524
 21
1780.3481510262
 31
0.0
  0
ENDBLK
  5
1B2
100
AcDbEntity
  8
0
  6
CONTINUOUS
100
AcDbBlockEnd
  0
BLOCK
  5
1B7
100
AcDbEntity
  8
0
100
AcDbBlockBegin
  2
*D5
 70
        65
 10
0.0
 20
0.0
 30
0.0
  3
*D5
  1

  0
POINT
  5
1B9
100
AcDbEntity
  8
DEFPOINTS
  6
CONTINUOUS
 62
         0
100
AcDbPoint
 10
832.3619509868
 20
1938.6848136025
 30
0.0
  0
POINT
  5
1BA
100
AcDbEntity
  8
DEFPOINTS
  6
CONTINUOUS
 62
         0
100
AcDbPoint
 10
785.2446393594
 20
1938.6848136025
 30
0.0
  0
POINT
  5
1BB
100
AcDbEntity
  8
DEFPOINTS
  6
CONTINUOUS
 62
         0
100
AcDbPoint
 10
785.2446393594
 20
1959.1848136025
 30
0.0
  0
LINE
  5
1BC
100
AcDbEntity
  8
____
  6
CONTINUOUS
 62
         4
100
AcDbLine
 10
786.5946393594
 20
1938.6848136025
 30
0.0
 11
833.0369509868
 21
1938.6848136025
 31
0.0
  0
LINE
  5
1BD
100
AcDbEntity
  8
____
  6
CONTINUOUS
 62
         4
100
AcDbLine
 10
786.5946393594
 20
1959.1848136025
 30
0.0
 11
833.0369509868
 21
1959.1848136025
 31
0.0
  0
LINE
  5
1BE
100
AcDbEntity
  8
____
  6
CONTINUOUS
 62
         4
100
AcDbLine
 10
832.3619509868
 20
1938.6848136025
 30
0.0
 11
832.3619509868
 21
1959.1848136025
 31
0.0
  0
SOLID
  5
1BF
100
AcDbEntity
  8
____
  6
CONTINUOUS
 62
         4
100
AcDbTrace
 10
832.3619509868
 20
1938.6848136025
 30
0.0
 11
831.9569509868
 21
1941.3848136025
 31
0.0
 12
832.7669509868
 22
1941.3848136025
 32
0.0
 13
832.3619509868
 23
1938.6848136025
 33
0.0
  0
SOLID
  5
1C0
100
AcDbEntity
  8
____
  6
CONTINUOUS
 62
         4
100
AcDbTrace
 10
832.3619509868
 20
1959.1848136025
 30
0.0
 11
832.7669509868
 21
1956.4848136025
 31
0.0
 12
831.9569509868
 22
1956.4848136025
 32
0.0
 13
832.3619509868
 23
1959.1848136025
 33
0.0
  0
TEXT
  5
1C2
100
AcDbEntity
  8
____
  6
CONTINUOUS
 62
         4
100
AcDbText
 10
830.3369509868
 20
1939.6801611774
 30
0.0
 40
2.7
  1
崷20.599
 50
90.0
  7
BOX
100
AcDbText
  0
ENDBLK
  5
1C3
100
AcDbEntity
  8
0
  6
CONTINUOUS
100
AcDbBlockEnd
  0
ENDSEC
  0
SECTION
  2
ENTITIES
  0
LINE
  5
29
100
AcDbEntity
  8
____
  6
CONTINUOUS
 62
         7
100
AcDbLine
 10
757.8446393594
 20
1997.6848136025
 30
0.0
 11
757.8446393594
 21
1962.7848136025
 31
0.0
  0
LINE
  5
2A
100
AcDbEntity
  8
____
  6
CONTINUOUS
 62
         7
100
AcDbLine
 10
744.9446393594
 20
1997.6848136025
 30
0.0
 11
744.9446393594
 21
1962.7848136025
 31
0.0
  0
LINE
  5
2B
100
AcDbEntity
  8
____
  6
CONTINUOUS
 62
         7
100
AcDbLine
 10
568.8433980453
 20
1961.7848136025
 30
0.0
 11
569.8433980453
 21
1962.7848136025
 31
0.0
  0
LINE
  5
2C
100
AcDbEntity
  8
____
  6
CONTINUOUS
 62
         7
100
AcDbLine
 10
569.8433980453
 20
1935.0848136025
 30
0.0
 11
568.8433980453
 21
1936.0848136025
 31
0.0
  0
LINE
  5
2D
100
AcDbEntity
  8
____
  6
CONTINUOUS
 62
         7
100
AcDbLine
 10
569.8433980453
 20
1936.5848136025
 30
0.0
 11
570.3433980453
 21
1936.0848136025
 31
0.0
  0
LINE
  5
2E
100
AcDbEntity
  8
____
  6
CONTINUOUS
 62
         7
100
AcDbLine
 10
570.3433980453
 20
1961.7848136025
 30
0.0
 11
569.8433980453
 21
1961.2848136025
 31
0.0
  0
LINE
  5
2F
100
AcDbEntity
  8
____
  6
CONTINUOUS
 62
         7
100
AcDbLine
 10
496.1433980453
 20
1961.2848136025
 30
0.0
 11
495.6433980453
 21
1961.7848136025
 31
0.0
  0
LINE
  5
30
100
AcDbEntity
  8
____
  6
CONTINUOUS
 62
         7
100
AcDbLine
 10
495.6433980453
 20
1936.0848136025
 30
0.0
 11
496.1433980453
 21
1936.5848136025
 31
0.0
  0
LINE
  5
31
100
AcDbEntity
  8
____
  6
CONTINUOUS
 62
         7
100
AcDbLine
 10
497.1433980453
 20
1936.0848136025
 30
0.0
 11
496.1433980453
 21
1935.0848136025
 31
0.0
  0
LINE
  5
32
100
AcDbEntity
  8
____
  6
CONTINUOUS
 62
         7
100
AcDbLine
 10
496.1433980453
 20
1962.7848136025
 30
0.0
 11
497.1433980453
 21
1961.7848136025
 31
0.0
  0
LINE
  5
33
100
AcDbEntity
  8
____
  6
CONTINUOUS
 62
         7
100
AcDbLine
 10
1039.5680806075
 20
1936.0848136025
 30
0.0
 11
1038.5680806075
 21
1935.0848136025
 31
0.0
  0
LINE
  5
34
100
AcDbEntity
  8
____
  6
CONTINUOUS
 62
         7
100
AcDbLine
 10
1039.5680806075
 20
1961.7848136025
 30
0.0
 11
1038.5680806075
 21
1962.7848136025
 31
0.0
  0
LINE
  5
35
100
AcDbEntity
  8
____
  6
CONTINUOUS
 62
         7
100
AcDbLine
 10
1038.5680806075
 20
1936.5848136025
 30
0.0
 11
1038.0680806075
 21
1936.0848136025
 31
0.0
  0
LINE
  5
36
100
AcDbEntity
  8
____
  6
CONTINUOUS
 62
         7
100
AcDbLine
 10
1038.0680806075
 20
1961.7848136025
 30
0.0
 11
1038.5680806075
 21
1961.2848136025
 31
0.0
  0
LINE
  5
37
100
AcDbEntity
  8
____
  6
CONTINUOUS
 62
         7
100
AcDbLine
 10
1039.5680806075
 20
1961.7848136025
 30
0.0
 11
1039.5680806075
 21
1936.0848136025
 31
0.0
  0
LINE
  5
38
100
AcDbEntity
  8
____
  6
CONTINUOUS
 62
         7
100
AcDbLine
 10
1038.5680806075
 20
1961.2848136025
 30
0.0
 11
1038.5680806075
 21
1936.5848136025
 31
0.0
  0
LINE
  5
39
100
AcDbEntity
  8
____
  6
CONTINUOUS
 62
         7
100
AcDbLine
 10
1111.7680806075
 20
1936.5848136025
 30
0.0
 11
1112.2680806075
 21
1936.0848136025
 31
0.0
  0
LINE
  5
3A
100
AcDbEntity
  8
____
  6
CONTINUOUS
 62
         7
100
AcDbLine
 10
1110.7680806075
 20
1936.0848136025
 30
0.0
 11
1111.7680806075
 21
1935.0848136025
 31
0.0
  0
LINE
  5
3B
100
AcDbEntity
  8
____
  6
CONTINUOUS
 62
         7
100
AcDbLine
 10
1111.7680806075
 20
1962.7848136025
 30
0.0
 11
1110.7680806075
 21
1961.7848136025
 31
0.0
  0
LINE
  5
3C
100
AcDbEntity
  8
____
  6
CONTINUOUS
 62
         7
100
AcDbLine
 10
1111.7680806075
 20
1961.2848136025
 30
0.0
 11
1112.2680806075
 21
1961.7848136025
 31
0.0
  0
ARC
  5
3D
100
AcDbEntity
  8
____
  6
CONTINUOUS
 62
         7
100
AcDbCircle
 10
639.9946393594
 20
1745.5272215514
 30
0.0
 40
1.5
100
AcDbArc
 50
90.0
 51
180.0
  0
LINE
  5
3E
100
AcDbEntity
  8
____
  6
CONTINUOUS
 62
         7
100
AcDbLine
 10
639.9946393594
 20
1747.0272215514
 30
0.0
 11
642.8446393594
 21
1747.0272215514
 31
0.0
  0
LINE
  5
3F
100
AcDbEntity
  8
____
  6
CONTINUOUS
 62
         7
100
AcDbLine
 10
643.5910495209
 20
1746.8272215514
 30
0.0
 11
642.8446393594
 21
1747.0272215514
 31
0.0
  0
LINE
  5
40
100
AcDbEntity
  8
____
  6
CONTINUOUS
 62
         7
100
AcDbLine
 10
643.5910495209
 20
1746.8272215514
 30
0.0
 11
644.4446393594
 21
1746.8272215514
 31
0.0
  0
ARC
  5
41
100
AcDbEntity
  8
____
  6
CONTINUOUS
 62
         7
100
AcDbCircle
 10
644.4446393594
 20
1747.2272215514
 30
0.0
 40
0.4
100
AcDbArc
 50
270.0
 51
315.0
  0
LINE
  5
42
100
AcDbEntity
  8
____
  6
CONTINUOUS
 62
         7
100
AcDbLine
 10
644.7274820718
 20
1746.9443788389
 30
0.0
 11
646.9139833209
 21
1749.1308800879
 31
0.0
  0
LINE
  5
43
100
AcDbEntity
  8
____
  6
CONTINUOUS
 62
         5
100
AcDbLine
 10
645.3103247843
 20
1747.5272215514
 30
0.0
 11
682.9446393594
 21
1747.5272215514
 31
0.0
  0
LINE
  5
44
100
AcDbEntity
  8
____
  6
CONTINUOUS
 62
         7
100
AcDbLine
 10
682.9446393594
 20
1771.5272215514
 30
0.0
 11
682.9446393594
 21
1747.5272215514
 31
0.0
  0
LINE
  5
45
100
AcDbEntity
  8
____
  6
CONTINUOUS
 62
         7
100
AcDbLine
 10
646.9139833209
 20
1749.1308800879
 30
0.0
 11
646.9139833209
 21
1769.9235630148
 31
0.0
  0
LINE
  5
46
100
AcDbEntity
  8
____
  6
CONTINUOUS
 62
         5
100
AcDbLine
 10
645.3103247843
 20
1771.5272215514
 30
0.0
 11
682.9446393594
 21
1771.5272215514
 31
0.0
  0
LINE
  5
47
100
AcDbEntity
  8
____
  6
CONTINUOUS
 62
         7
100
AcDbLine
 10
644.7274820718
 20
1772.1100642638
 30
0.0
 11
646.9139833209
 21
1769.9235630148
 31
0.0
  0
LINE
  5
48
100
AcDbEntity
  8
____
  6
CONTINUOUS
 62
         7
100
AcDbLine
 10
644.8446393594
 20
1747.0615361264
 30
0.0
 11
644.8446393594
 21
1771.9929069763
 31
0.0
  0
LINE
  5
49
100
AcDbEntity
  8
____
  6
CONTINUOUS
 62
         7
100
AcDbLine
 10
643.5910495209
 20
1772.2272215514
 30
0.0
 11
644.4446393594
 21
1772.2272215514
 31
0.0
  0
ARC
  5
4A
100
AcDbEntity
  8
____
  6
CONTINUOUS
 62
         7
100
AcDbCircle
 10
644.4446393594
 20
1771.8272215514
 30
0.0
 40
0.4
100
AcDbArc
 50
45.0
 51
90.0
  0
LINE
  5
4B
100
AcDbEntity
  8
____
  6
CONTINUOUS
 62
         7
100
AcDbLine
 10
643.5910495209
 20
1772.2272215514
 30
0.0
 11
642.8446393594
 21
1772.0272215514
 31
0.0
  0
LINE
  5
4C
100
AcDbEntity
  8
____
  6
CONTINUOUS
 62
         7
100
AcDbLine
 10
642.8446393594
 20
1747.0272215514
 30
0.0
 11
642.8446393594
 21
1772.0272215514
 31
0.0
  0
LINE
  5
4D
100
AcDbEntity
  8
____
  6
CONTINUOUS
 62
         7
100
AcDbLine
 10
639.9946393594
 20
1772.0272215514
 30
0.0
 11
642.8446393594
 21
1772.0272215514
 31
0.0
  0
LINE
  5
4E
100
AcDbEntity
  8
____
  6
CONTINUOUS
 62
         4
100
AcDbLine
 10
639.9946393594
 20
1747.0272215514
 30
0.0
 11
639.9946393594
 21
1772.0272215514
 31
0.0
  0
ARC
  5
4F
100
AcDbEntity
  8
____
  6
CONTINUOUS
 62
         7
100
AcDbCircle
 10
639.9946393594
 20
1773.5272215514
 30
0.0
 40
1.5
100
AcDbArc
 50
180.0
 51
270.0
  0
LINE
  5
50
100
AcDbEntity
  8
____
  6
CONTINUOUS
 62
         7
100
AcDbLine
 10
568.8433980453
 20
1936.0848136025
 30
0.0
 11
568.8433980453
 21
1961.7848136025
 31
0.0
  0
LINE
  5
51
100
AcDbEntity
  8
____
  6
CONTINUOUS
 62
         7
100
AcDbLine
 10
578.8846004261
 20
1935.0848136025
 30
0.0
 11
577.8846004261
 21
1936.0848136025
 31
0.0
  0
LINE
  5
52
100
AcDbEntity
  8
____
  6
CONTINUOUS
 62
         7
100
AcDbLine
 10
578.8846004261
 20
1935.0848136025
 30
0.0
 11
569.8433980453
 21
1935.0848136025
 31
0.0
  0
LINE
  5
53
100
AcDbEntity
  8
____
  6
CONTINUOUS
 62
         7
100
AcDbLine
 10
577.8846004261
 20
1936.0848136025
 30
0.0
 11
570.3433980453
 21
1936.0848136025
 31
0.0
  0
LINE
  5
54
100
AcDbEntity
  8
____
  6
CONTINUOUS
 62
         7
100
AcDbLine
 10
578.8846004261
 20
1962.7848136025
 30
0.0
 11
577.8846004261
 21
1961.7848136025
 31
0.0
  0
LINE
  5
55
100
AcDbEntity
  8
____
  6
CONTINUOUS
 62
         7
100
AcDbLine
 10
578.8846004261
 20
1962.7848136025
 30
0.0
 11
569.8433980453
 21
1962.7848136025
 31
0.0
  0
LINE
  5
56
100
AcDbEntity
  8
____
  6
CONTINUOUS
 62
         7
100
AcDbLine
 10
577.8846004261
 20
1961.7848136025
 30
0.0
 11
570.3433980453
 21
1961.7848136025
 31
0.0
  0
LINE
  5
57
100
AcDbEntity
  8
____
  6
CONTINUOUS
 62
         7
100
AcDbLine
 10
569.8433980453
 20
1936.5848136025
 30
0.0
 11
569.8433980453
 21
1961.2848136025
 31
0.0
  0
LINE
  5
58
100
AcDbEntity
  8
____
  6
CONTINUOUS
 62
         7
100
AcDbLine
 10
485.4021956646
 20
1962.7848136025
 30
0.0
 11
496.1433980453
 21
1962.7848136025
 31
0.0
  0
LINE
  5
59
100
AcDbEntity
  8
____
  6
CONTINUOUS
 62
         7
100
AcDbLine
 10
486.4021956646
 20
1961.7848136025
 30
0.0
 11
495.6433980453
 21
1961.7848136025
 31
0.0
  0
LINE
  5
5A
100
AcDbEntity
  8
____
  6
CONTINUOUS
 62
         7
100
AcDbLine
 10
485.4021956646
 20
1962.7848136025
 30
0.0
 11
486.4021956646
 21
1961.7848136025
 31
0.0
  0
LINE
  5
5B
100
AcDbEntity
  8
____
  6
CONTINUOUS
 62
         7
100
AcDbLine
 10
485.4021956646
 20
1935.0848136025
 30
0.0
 11
486.4021956646
 21
1936.0848136025
 31
0.0
  0
LINE
  5
5C
100
AcDbEntity
  8
____
  6
CONTINUOUS
 62
         7
100
AcDbLine
 10
485.4021956646
 20
1935.0848136025
 30
0.0
 11
496.1433980453
 21
1935.0848136025
 31
0.0
  0
LINE
  5
5D
100
AcDbEntity
  8
____
  6
CONTINUOUS
 62
         7
100
AcDbLine
 10
486.4021956646
 20
1936.0848136025
 30
0.0
 11
495.6433980453
 21
1936.0848136025
 31
0.0
  0
LINE
  5
5E
100
AcDbEntity
  8
____
  6
CONTINUOUS
 62
         7
100
AcDbLine
 10
497.1433980453
 20
1936.0848136025
 30
0.0
 11
497.1433980453
 21
1961.7848136025
 31
0.0
  0
LINE
  5
5F
100
AcDbEntity
  8
____
  6
CONTINUOUS
 62
         7
100
AcDbLine
 10
496.1433980453
 20
1936.5848136025
 30
0.0
 11
496.1433980453
 21
1961.2848136025
 31
0.0
  0
LINE
  5
60
100
AcDbEntity
  8
____
  6
CONTINUOUS
 62
         7
100
AcDbLine
 10
1029.5268782267
 20
1962.7848136025
 30
0.0
 11
1030.5268782267
 21
1961.7848136025
 31
0.0
  0
LINE
  5
61
100
AcDbEntity
  8
____
  6
CONTINUOUS
 62
         7
100
AcDbLine
 10
1029.5268782267
 20
1962.7848136025
 30
0.0
 11
1038.5680806075
 21
1962.7848136025
 31
0.0
  0
LINE
  5
62
100
AcDbEntity
  8
____
  6
CONTINUOUS
 62
         7
100
AcDbLine
 10
1030.5268782267
 20
1961.7848136025
 30
0.0
 11
1038.0680806075
 21
1961.7848136025
 31
0.0
  0
LINE
  5
63
100
AcDbEntity
  8
____
  6
CONTINUOUS
 62
         7
100
AcDbLine
 10
1029.5268782267
 20
1935.0848136025
 30
0.0
 11
1030.5268782267
 21
1936.0848136025
 31
0.0
  0
LINE
  5
64
100
AcDbEntity
  8
____
  6
CONTINUOUS
 62
         7
100
AcDbLine
 10
1029.5268782267
 20
1935.0848136025
 30
0.0
 11
1038.5680806075
 21
1935.0848136025
 31
0.0
  0
LINE
  5
65
100
AcDbEntity
  8
____
  6
CONTINUOUS
 62
         7
100
AcDbLine
 10
1030.5268782267
 20
1936.0848136025
 30
0.0
 11
1038.0680806075
 21
1936.0848136025
 31
0.0
  0
LINE
  5
66
100
AcDbEntity
  8
____
  6
CONTINUOUS
 62
         7
100
AcDbLine
 10
1123.0092829882
 20
1935.0848136025
 30
0.0
 11
1111.7680806075
 21
1935.0848136025
 31
0.0
  0
LINE
  5
67
100
AcDbEntity
  8
____
  6
CONTINUOUS
 62
         7
100
AcDbLine
 10
1122.0092829882
 20
1936.0848136025
 30
0.0
 11
1112.2680806075
 21
1936.0848136025
 31
0.0
  0
LINE
  5
68
100
AcDbEntity
  8
____
  6
CONTINUOUS
 62
         7
100
AcDbLine
 10
1123.0092829882
 20
1935.0848136025
 30
0.0
 11
1122.0092829882
 21
1936.0848136025
 31
0.0
  0
LINE
  5
69
100
AcDbEntity
  8
____
  6
CONTINUOUS
 62
         7
100
AcDbLine
 10
1123.0092829882
 20
1962.7848136025
 30
0.0
 11
1122.0092829882
 21
1961.7848136025
 31
0.0
  0
LINE
  5
6A
100
AcDbEntity
  8
____
  6
CONTINUOUS
 62
         7
100
AcDbLine
 10
1123.0092829882
 20
1962.7848136025
 30
0.0
 11
1111.7680806075
 21
1962.7848136025
 31
0.0
  0
LINE
  5
6B
100
AcDbEntity
  8
____
  6
CONTINUOUS
 62
         7
100
AcDbLine
 10
1122.0092829882
 20
1961.7848136025
 30
0.0
 11
1112.2680806075
 21
1961.7848136025
 31
0.0
  0
LINE
  5
6C
100
AcDbEntity
  8
____
  6
CONTINUOUS
 62
         7
100
AcDbLine
 10
1110.7680806075
 20
1961.7848136025
 30
0.0
 11
1110.7680806075
 21
1936.0848136025
 31
0.0
  0
LINE
  5
6D
100
AcDbEntity
  8
____
  6
CONTINUOUS
 62
         7
100
AcDbLine
 10
1111.7680806075
 20
1961.2848136025
 30
0.0
 11
1111.7680806075
 21
1936.5848136025
 31
0.0
  0
ARC
  5
6E
100
AcDbEntity
  8
____
  6
CONTINUOUS
 62
         7
100
AcDbCircle
 10
774.4966393594
 20
1914.8098136025
 30
0.0
 40
0.8
100
AcDbArc
 50
270.0
 51
360.0
  0
ARC
  5
6F
100
AcDbEntity
  8
____
  6
CONTINUOUS
 62
         7
100
AcDbCircle
 10
774.4966393594
 20
1983.0598136025
 30
0.0
 40
0.8
100
AcDbArc
 50
0.0
 51
90.0
  0
LINE
  5
70
100
AcDbEntity
  8
____
  6
CONTINUOUS
 62
         7
100
AcDbLine
 10
759.8446393594
 20
1724.6022215514
 30
0.0
 11
774.4966393594
 21
1724.6022215514
 31
0.0
  0
LINE
  5
71
100
AcDbEntity
  8
____
  6
CONTINUOUS
 62
         7
100
AcDbLine
 10
759.8446393594
 20
1794.4522215514
 30
0.0
 11
774.4966393594
 21
1794.4522215514
 31
0.0
  0
LINE
  5
72
100
AcDbEntity
  8
____
  6
CONTINUOUS
 62
         7
100
AcDbLine
 10
775.2966393594
 20
1983.0598136025
 30
0.0
 11
775.2966393594
 21
1914.8098136025
 31
0.0
  0
LINE
  5
73
100
AcDbEntity
  8
____
  6
CONTINUOUS
 62
         7
100
AcDbLine
 10
759.8446393594
 20
1914.0098136025
 30
0.0
 11
774.4966393594
 21
1914.0098136025
 31
0.0
  0
LINE
  5
74
100
AcDbEntity
  8
____
  6
CONTINUOUS
 62
         7
100
AcDbLine
 10
759.8446393594
 20
1983.8598136025
 30
0.0
 11
774.4966393594
 21
1983.8598136025
 31
0.0
  0
CIRCLE
  5
75
100
AcDbEntity
  8
____
  6
CONTINUOUS
 62
         7
100
AcDbCircle
 10
532.1433980453
 20
1948.9348136025
 30
0.0
 40
12.6589889012
  0
LINE
  5
76
100
AcDbEntity
  8
____
  6
CONTINUOUS
 62
         7
100
AcDbLine
 10
757.8446393594
 20
1900.1848136025
 30
0.0
 11
757.8446393594
 21
1935.0848136025
 31
0.0
  0
LINE
  5
77
100
AcDbEntity
  8
____
  6
CONTINUOUS
 62
         7
100
AcDbLine
 10
744.9446393594
 20
1900.1848136025
 30
0.0
 11
744.9446393594
 21
1935.0848136025
 31
0.0
  0
ARC
  5
78
100
AcDbEntity
  8
____
  6
CONTINUOUS
 62
         4
100
AcDbCircle
 10
532.1433980453
 20
1948.9348136025
 30
0.0
 40
12.0
100
AcDbArc
 50
278.1340859252
 51
549.6704111119
  0
CIRCLE
  5
79
100
AcDbEntity
  8
____
  6
CONTINUOUS
 62
         7
100
AcDbCircle
 10
532.1433980453
 20
1948.9348136025
 30
0.0
 40
10.3963414634
  0
CIRCLE
  5
7A
100
AcDbEntity
  8
____
  6
CONTINUOUS
 62
         7
100
AcDbCircle
 10
532.1433980453
 20
1948.9348136025
 30
0.0
 40
20.3982925257
  0
CIRCLE
  5
7B
100
AcDbEntity
  8
____
  6
CONTINUOUS
 62
         7
100
AcDbCircle
 10
532.1433980453
 20
1948.9348136025
 30
0.0
 40
34.925
  0
ARC
  5
7C
100
AcDbEntity
  8
____
  6
CONTINUOUS
 62
         7
100
AcDbCircle
 10
532.1433980453
 20
1948.9348136025
 30
0.0
 40
48.75
100
AcDbArc
 50
196.5052120024
 51
343.4947879976
  0
LINE
  5
7D
100
AcDbEntity
  8
____
  6
CENTER
 62
         1
100
AcDbLine
 10
575.5088077822
 20
1948.9348136025
 30
0.0
 11
485.57885245
 21
1948.9348136025
 31
0.0
  0
ARC
  5
7E
100
AcDbEntity
  8
____
  6
CONTINUOUS
 62
         7
100
AcDbCircle
 10
532.1433980453
 20
1948.9348136025
 30
0.0
 40
48.75
100
AcDbArc
 50
16.5052120024
 51
163.4947879976
  0
ARC
  5
7F
100
AcDbEntity
  8
____
  6
DASHED
 62
         2
100
AcDbCircle
 10
1076.2680806075
 20
1948.9348136025
 30
0.0
 40
45.625
100
AcDbArc
 50
197.6716498685
 51
343.6416615206
  0
ARC
  5
80
100
AcDbEntity
  8
____
  6
CONTINUOUS
 62
         7
100
AcDbCircle
 10
1076.2680806075
 20
1948.9348136025
 30
0.0
 40
47.25
100
AcDbArc
 50
197.0449399911
 51
342.9550600089
  0
ARC
  5
81
100
AcDbEntity
  8
____
  6
CONTINUOUS
 62
         7
100
AcDbCircle
 10
1076.2680806075
 20
1948.9348136025
 30
0.0
 40
47.25
100
AcDbArc
 50
17.0449399911
 51
162.9550600089
  0
ARC
  5
82
100
AcDbEntity
  8
____
  6
CONTINUOUS
 62
         7
100
AcDbCircle
 10
1076.2680806075
 20
1948.9348136025
 30
0.0
 40
48.75
100
AcDbArc
 50
16.5052120024
 51
163.4947879976
  0
ARC
  5
83
100
AcDbEntity
  8
____
  6
DASHED
 62
         2
100
AcDbCircle
 10
1076.2680806075
 20
1948.9348136025
 30
0.0
 40
45.625
100
AcDbArc
 50
16.3583384794
 51
163.6416615206
  0
ARC
  5
84
100
AcDbEntity
  8
____
  6
CONTINUOUS
 62
         7
100
AcDbCircle
 10
1076.2680806075
 20
1948.9348136025
 30
0.0
 40
48.75
100
AcDbArc
 50
196.5052120024
 51
343.4947879976
  0
ARC
  5
85
100
AcDbEntity
  8
____
  6
CONTINUOUS
 62
         7
100
AcDbCircle
 10
752.4993398977
 20
1712.9022215514
 30
0.0
 40
1.0
100
AcDbArc
 50
30.0
 51
90.0
  0
LINE
  5
86
100
AcDbEntity
  8
____
  6
CENTER
 62
         1
100
AcDbLine
 10
532.1433980453
 20
2002.3746809544
 30
0.0
 11
532.1433980453
 21
1887.2847828736
 31
0.0
  0
LINE
  5
87
100
AcDbEntity
  8
____
  6
CENTER
 62
         1
100
AcDbLine
 10
638.4946393594
 20
1759.5272215514
 30
0.0
 11
822.1928896286
 21
1759.5272215514
 31
0.0
  0
LINE
  5
88
100
AcDbEntity
  8
____
  6
CONTINUOUS
 62
         7
100
AcDbLine
 10
740.2446393594
 20
1794.4522215514
 30
0.0
 11
742.1910495209
 21
1793.9522215514
 31
0.0
  0
LINE
  5
89
100
AcDbEntity
  8
____
  6
CONTINUOUS
 62
         7
100
AcDbLine
 10
740.2446393594
 20
1724.6022215514
 30
0.0
 11
742.1910495209
 21
1725.1022215514
 31
0.0
  0
LINE
  5
8A
100
AcDbEntity
  8
____
  6
CONTINUOUS
 62
         7
100
AcDbLine
 10
646.9139833209
 20
1769.9235630148
 30
0.0
 11
693.4946393594
 21
1769.9235630148
 31
0.0
  0
LINE
  5
8B
100
AcDbEntity
  8
____
  6
CONTINUOUS
 62
         7
100
AcDbLine
 10
740.2446393594
 20
1794.4522215514
 30
0.0
 11
640.6338688008
 21
1779.925514077
 31
0.0
  0
LINE
  5
8C
100
AcDbEntity
  8
____
  6
CONTINUOUS
 62
         7
100
AcDbLine
 10
646.9139833209
 20
1749.1308800879
 30
0.0
 11
693.4946393594
 21
1749.1308800879
 31
0.0
  0
LINE
  5
8D
100
AcDbEntity
  8
____
  6
CONTINUOUS
 62
         7
100
AcDbLine
 10
740.2446393594
 20
1724.6022215514
 30
0.0
 11
640.6338688008
 21
1739.1289290257
 31
0.0
  0
LINE
  5
8E
100
AcDbEntity
  8
____
  6
CONTINUOUS
 62
         7
100
AcDbLine
 10
638.4946393594
 20
1777.4516821094
 30
0.0
 11
638.4946393594
 21
1741.6027609933
 31
0.0
  0
ARC
  5
8F
100
AcDbEntity
  8
____
  6
CONTINUOUS
 62
         7
100
AcDbCircle
 10
640.9946393594
 20
1741.6027609933
 30
0.0
 40
2.5
100
AcDbArc
 50
180.0
 51
261.702778
  0
ARC
  5
90
100
AcDbEntity
  8
____
  6
CONTINUOUS
 62
         7
100
AcDbCircle
 10
640.9946393594
 20
1777.4516821094
 30
0.0
 40
2.5
100
AcDbArc
 50
98.297222
 51
180.0
  0
LINE
  5
91
100
AcDbEntity
  8
____
  6
CONTINUOUS
 62
         7
100
AcDbLine
 10
754.8809097581
 20
1710.7772215514
 30
0.0
 11
757.8446393594
 21
1710.7772215514
 31
0.0
  0
ARC
  5
92
100
AcDbEntity
  8
____
  6
CONTINUOUS
 62
         7
100
AcDbCircle
 10
757.8446393594
 20
1712.2772215514
 30
0.0
 40
1.5
100
AcDbArc
 50
270.0
 51
360.0
  0
LINE
  5
93
100
AcDbEntity
  8
____
  6
CONTINUOUS
 62
         7
100
AcDbLine
 10
759.3446393594
 20
1724.1022215514
 30
0.0
 11
759.3446393594
 21
1712.2772215514
 31
0.0
  0
ARC
  5
94
100
AcDbEntity
  8
____
  6
CONTINUOUS
 62
         7
100
AcDbCircle
 10
742.8446393594
 20
1724.5022215514
 30
0.0
 40
0.6
100
AcDbArc
 50
0.0
 51
90.0
  0
LINE
  5
95
100
AcDbEntity
  8
____
  6
CONTINUOUS
 62
         7
100
AcDbLine
 10
742.1910495209
 20
1725.1022215514
 30
0.0
 11
742.8446393594
 21
1725.1022215514
 31
0.0
  0
ARC
  5
96
100
AcDbEntity
  8
____
  6
CONTINUOUS
 62
         7
100
AcDbCircle
 10
749.9012636864
 20
1713.4022215514
 30
0.0
 40
0.5
100
AcDbArc
 50
90.0
 51
150.0
  0
LINE
  5
97
100
AcDbEntity
  8
____
  6
CONTINUOUS
 62
         7
100
AcDbLine
 10
749.4682509845
 20
1713.6522215514
 30
0.0
 11
747.8083689606
 21
1710.7772215514
 31
0.0
  0
ARC
  5
98
100
AcDbEntity
  8
____
  6
CONTINUOUS
 62
         7
100
AcDbCircle
 10
744.9446393594
 20
1712.2772215514
 30
0.0
 40
1.5
100
AcDbArc
 50
180.0
 51
270.0
  0
LINE
  5
99
100
AcDbEntity
  8
____
  6
CONTINUOUS
 62
         7
100
AcDbLine
 10
744.9446393594
 20
1710.7772215514
 30
0.0
 11
747.8083689606
 21
1710.7772215514
 31
0.0
  0
LINE
  5
9A
100
AcDbEntity
  8
____
  6
CONTINUOUS
 62
         7
100
AcDbLine
 10
749.9012636864
 20
1713.9022215514
 30
0.0
 11
752.4993398977
 21
1713.9022215514
 31
0.0
  0
LINE
  5
9B
100
AcDbEntity
  8
____
  6
CONTINUOUS
 62
         7
100
AcDbLine
 10
743.4446393594
 20
1724.5022215514
 30
0.0
 11
743.4446393594
 21
1712.2772215514
 31
0.0
  0
LINE
  5
9C
100
AcDbEntity
  8
____
  6
CONTINUOUS
 62
         7
100
AcDbLine
 10
753.3653653015
 20
1713.4022215514
 30
0.0
 11
754.8809097581
 21
1710.7772215514
 31
0.0
  0
ARC
  5
9D
100
AcDbEntity
  8
____
  6
CONTINUOUS
 62
         7
100
AcDbCircle
 10
757.8446393594
 20
1806.7772215514
 30
0.0
 40
1.5
100
AcDbArc
 50
0.0
 51
90.0
  0
LINE
  5
9E
100
AcDbEntity
  8
____
  6
CONTINUOUS
 62
         7
100
AcDbLine
 10
759.3446393594
 20
1806.7772215514
 30
0.0
 11
759.3446393594
 21
1794.9522215514
 31
0.0
  0
LINE
  5
9F
100
AcDbEntity
  8
____
  6
CONTINUOUS
 62
         7
100
AcDbLine
 10
754.8809097581
 20
1808.2772215514
 30
0.0
 11
757.8446393594
 21
1808.2772215514
 31
0.0
  0
LINE
  5
A0
100
AcDbEntity
  8
____
  6
CONTINUOUS
 62
         7
100
AcDbLine
 10
749.4682509845
 20
1805.4022215514
 30
0.0
 11
747.8083689606
 21
1808.2772215514
 31
0.0
  0
ARC
  5
A1
100
AcDbEntity
  8
____
  6
CONTINUOUS
 62
         7
100
AcDbCircle
 10
744.9446393594
 20
1806.7772215514
 30
0.0
 40
1.5
100
AcDbArc
 50
90.0
 51
180.0
  0
ARC
  5
A2
100
AcDbEntity
  8
____
  6
CONTINUOUS
 62
         7
100
AcDbCircle
 10
752.7880150323
 20
1805.6522215514
 30
0.0
 40
0.5
100
AcDbArc
 50
270.0
 51
330.0
  0
ARC
  5
A3
100
AcDbEntity
  8
____
  6
CONTINUOUS
 62
         7
100
AcDbCircle
 10
749.9012636864
 20
1805.6522215514
 30
0.0
 40
0.5
100
AcDbArc
 50
210.0
 51
270.0
  0
ARC
  5
A4
100
AcDbEntity
  8
____
  6
CONTINUOUS
 62
         7
100
AcDbCircle
 10
742.8446393594
 20
1794.5522215514
 30
0.0
 40
0.6
100
AcDbArc
 50
270.0
 51
360.0
  0
LINE
  5
A5
100
AcDbEntity
  8
____
  6
CONTINUOUS
 62
         7
100
AcDbLine
 10
742.1910495209
 20
1793.9522215514
 30
0.0
 11
742.8446393594
 21
1793.9522215514
 31
0.0
  0
LINE
  5
A6
100
AcDbEntity
  8
____
  6
CONTINUOUS
 62
         7
100
AcDbLine
 10
743.4446393594
 20
1806.7772215514
 30
0.0
 11
743.4446393594
 21
1794.5522215514
 31
0.0
  0
LINE
  5
A7
100
AcDbEntity
  8
____
  6
CONTINUOUS
 62
         7
100
AcDbLine
 10
749.9012636864
 20
1805.1522215514
 30
0.0
 11
752.7880150323
 21
1805.1522215514
 31
0.0
  0
LINE
  5
A8
100
AcDbEntity
  8
____
  6
CONTINUOUS
 62
         7
100
AcDbLine
 10
744.9446393594
 20
1808.2772215514
 30
0.0
 11
747.8083689606
 21
1808.2772215514
 31
0.0
  0
LINE
  5
A9
100
AcDbEntity
  8
____
  6
CONTINUOUS
 62
         7
100
AcDbLine
 10
753.2210277342
 20
1805.4022215514
 30
0.0
 11
754.8809097581
 21
1808.2772215514
 31
0.0
  0
LINE
  5
AA
100
AcDbEntity
  8
____
  6
CONTINUOUS
 62
         7
100
AcDbLine
 10
740.2446393594
 20
1983.8598136025
 30
0.0
 11
742.1910495209
 21
1983.3598136025
 31
0.0
  0
LINE
  5
AB
100
AcDbEntity
  8
____
  6
CONTINUOUS
 62
         7
100
AcDbLine
 10
740.2446393594
 20
1914.0098136025
 30
0.0
 11
742.1910495209
 21
1914.5098136025
 31
0.0
  0
LINE
  5
AC
100
AcDbEntity
  8
____
  6
CENTER
 62
         1
100
AcDbLine
 10
729.4887067313
 20
1948.9348136025
 30
0.0
 11
814.4130661752
 21
1948.9348136025
 31
0.0
  0
LINE
  5
AD
100
AcDbEntity
  8
____
  6
CENTER
 62
         1
100
AcDbLine
 10
633.6984967913
 20
1948.9348136025
 30
0.0
 11
707.6197297872
 21
1948.9348136025
 31
0.0
  0
LINE
  5
AE
100
AcDbEntity
  8
____
  6
CONTINUOUS
 62
         7
100
AcDbLine
 10
740.2446393594
 20
1983.8598136025
 30
0.0
 11
640.6338688008
 21
1969.3331061282
 31
0.0
  0
LINE
  5
AF
100
AcDbEntity
  8
____
  6
CONTINUOUS
 62
         7
100
AcDbLine
 10
740.2446393594
 20
1914.0098136025
 30
0.0
 11
640.6338688008
 21
1928.5365210768
 31
0.0
  0
LINE
  5
B0
100
AcDbEntity
  8
____
  6
CONTINUOUS
 62
         7
100
AcDbLine
 10
638.4946393594
 20
1966.8592741605
 30
0.0
 11
638.4946393594
 21
1931.0103530444
 31
0.0
  0
ARC
  5
B1
100
AcDbEntity
  8
____
  6
CONTINUOUS
 62
         7
100
AcDbCircle
 10
640.9946393594
 20
1931.0103530444
 30
0.0
 40
2.5
100
AcDbArc
 50
180.0
 51
261.702778
  0
ARC
  5
B2
100
AcDbEntity
  8
____
  6
CONTINUOUS
 62
         7
100
AcDbCircle
 10
640.9946393594
 20
1966.8592741605
 30
0.0
 40
2.5
100
AcDbArc
 50
98.297222
 51
180.0
  0
LINE
  5
B3
100
AcDbEntity
  8
____
  6
CONTINUOUS
 62
         7
100
AcDbLine
 10
741.4446393594
 20
1983.5515538061
 30
0.0
 11
741.4446393594
 21
1914.3180733988
 31
0.0
  0
LINE
  5
B4
100
AcDbEntity
  8
____
  6
CENTER
 62
         1
100
AcDbLine
 10
740.2446393594
 20
1988.6598136025
 30
0.0
 11
740.2446393594
 21
1910.6637592569
 31
0.0
  0
LINE
  5
B5
100
AcDbEntity
  8
____
  6
CONTINUOUS
 62
         7
100
AcDbLine
 10
742.1910495209
 20
1983.3598136025
 30
0.0
 11
742.1910495209
 21
1914.5098136025
 31
0.0
  0
LINE
  5
B6
100
AcDbEntity
  8
____
  6
CONTINUOUS
 62
         7
100
AcDbLine
 10
743.4446393594
 20
1996.1848136025
 30
0.0
 11
743.4446393594
 21
1901.6848136025
 31
0.0
  0
LINE
  5
B7
100
AcDbEntity
  8
____
  6
CENTER
 62
         1
100
AcDbLine
 10
751.3446393594
 20
2003.9400769033
 30
0.0
 11
751.3446393594
 21
1893.9372573515
 31
0.0
  0
LINE
  5
B8
100
AcDbEntity
  8
____
  6
CONTINUOUS
 62
         7
100
AcDbLine
 10
754.8809097581
 20
1900.1848136025
 30
0.0
 11
757.8446393594
 21
1900.1848136025
 31
0.0
  0
LINE
  5
B9
100
AcDbEntity
  8
____
  6
CONTINUOUS
 62
         7
100
AcDbLine
 10
754.8809097581
 20
1935.0848136025
 30
0.0
 11
754.8809097581
 21
1900.1848136025
 31
0.0
  0
ARC
  5
BA
100
AcDbEntity
  8
____
  6
CONTINUOUS
 62
         7
100
AcDbCircle
 10
757.8446393594
 20
1901.6848136025
 30
0.0
 40
1.5
100
AcDbArc
 50
270.0
 51
360.0
  0
LINE
  5
BB
100
AcDbEntity
  8
____
  6
CONTINUOUS
 62
         7
100
AcDbLine
 10
759.3446393594
 20
1935.0848136025
 30
0.0
 11
754.8809097581
 21
1935.0848136025
 31
0.0
  0
ARC
  5
BC
100
AcDbEntity
  8
____
  6
CONTINUOUS
 62
         7
100
AcDbCircle
 10
742.8446393594
 20
1913.9098136025
 30
0.0
 40
0.6
100
AcDbArc
 50
0.0
 51
90.0
  0
LINE
  5
BD
100
AcDbEntity
  8
____
  6
CONTINUOUS
 62
         7
100
AcDbLine
 10
742.1910495209
 20
1914.5098136025
 30
0.0
 11
742.8446393594
 21
1914.5098136025
 31
0.0
  0
ARC
  5
BE
100
AcDbEntity
  8
____
  6
CONTINUOUS
 62
         7
100
AcDbCircle
 10
742.8446393594
 20
1913.9098136025
 30
0.0
 40
0.6
100
AcDbArc
 50
0.0
 51
90.0
  0
ARC
  5
BF
100
AcDbEntity
  8
____
  6
CONTINUOUS
 62
         7
100
AcDbCircle
 10
752.7880150323
 20
1902.8098136025
 30
0.0
 40
0.5
100
AcDbArc
 50
30.0
 51
90.0
  0
ARC
  5
C0
100
AcDbEntity
  8
____
  6
CONTINUOUS
 62
         7
100
AcDbCircle
 10
744.9446393594
 20
1901.6848136025
 30
0.0
 40
1.5
100
AcDbArc
 50
180.0
 51
270.0
  0
LINE
  5
C1
100
AcDbEntity
  8
____
  6
CONTINUOUS
 62
         7
100
AcDbLine
 10
749.4682509845
 20
1903.0598136025
 30
0.0
 11
747.8083689606
 21
1900.1848136025
 31
0.0
  0
LINE
  5
C2
100
AcDbEntity
  8
____
  6
CONTINUOUS
 62
         7
100
AcDbLine
 10
744.9446393594
 20
1900.1848136025
 30
0.0
 11
747.8083689606
 21
1900.1848136025
 31
0.0
  0
ARC
  5
C3
100
AcDbEntity
  8
____
  6
CONTINUOUS
 62
         7
100
AcDbCircle
 10
749.9012636864
 20
1902.8098136025
 30
0.0
 40
0.5
100
AcDbArc
 50
90.0
 51
150.0
  0
LINE
  5
C4
100
AcDbEntity
  8
____
  6
CONTINUOUS
 62
         7
100
AcDbLine
 10
749.9012636864
 20
1903.3098136025
 30
0.0
 11
752.7880150323
 21
1903.3098136025
 31
0.0
  0
LINE
  5
C5
100
AcDbEntity
  8
____
  6
CONTINUOUS
 62
         7
100
AcDbLine
 10
747.8083689606
 20
1935.0848136025
 30
0.0
 11
747.8083689606
 21
1900.1848136025
 31
0.0
  0
LINE
  5
C6
100
AcDbEntity
  8
____
  6
CONTINUOUS
 62
         7
100
AcDbLine
 10
753.2196393594
 20
1936.1049077674
 30
0.0
 11
753.2196393594
 21
1903.0622030641
 31
0.0
  0
LINE
  5
C7
100
AcDbEntity
  8
____
  6
CONTINUOUS
 62
         7
100
AcDbLine
 10
749.4696393594
 20
1936.1049077674
 30
0.0
 11
749.4696393594
 21
1903.0622030641
 31
0.0
  0
LINE
  5
C8
100
AcDbEntity
  8
____
  6
CONTINUOUS
 62
         7
100
AcDbLine
 10
747.8083689606
 20
1935.0848136025
 30
0.0
 11
743.4446393594
 21
1935.0848136025
 31
0.0
  0
LINE
  5
C9
100
AcDbEntity
  8
____
  6
CONTINUOUS
 62
         7
100
AcDbLine
 10
743.4446393594
 20
1935.0848136025
 30
0.0
 11
744.4647335243
 21
1936.1049077674
 31
0.0
  0
LINE
  5
CA
100
AcDbEntity
  8
____
  6
CONTINUOUS
 62
         7
100
AcDbLine
 10
747.8083689606
 20
1935.0848136025
 30
0.0
 11
749.4696393594
 21
1936.1049077674
 31
0.0
  0
LINE
  5
CB
100
AcDbEntity
  8
____
  6
CONTINUOUS
 62
         7
100
AcDbLine
 10
753.2210277342
 20
1903.0598136025
 30
0.0
 11
754.8809097581
 21
1900.1848136025
 31
0.0
  0
LINE
  5
CC
100
AcDbEntity
  8
____
  6
CONTINUOUS
 62
         7
100
AcDbLine
 10
758.2245451944
 20
1936.1049077674
 30
0.0
 11
744.4647335243
 21
1936.1049077674
 31
0.0
  0
LINE
  5
CD
100
AcDbEntity
  8
____
  6
CONTINUOUS
 62
         7
100
AcDbLine
 10
758.2245451944
 20
1936.1049077674
 30
0.0
 11
744.4647335243
 21
1936.1049077674
 31
0.0
  0
LINE
  5
CE
100
AcDbEntity
  8
____
  6
CONTINUOUS
 62
         7
100
AcDbLine
 10
753.2196393594
 20
1936.1049077674
 30
0.0
 11
754.8809097581
 21
1935.0848136025
 31
0.0
  0
LINE
  5
CF
100
AcDbEntity
  8
____
  6
CONTINUOUS
 62
         7
100
AcDbLine
 10
754.8809097581
 20
1997.6848136025
 30
0.0
 11
754.8809097581
 21
1962.7848136025
 31
0.0
  0
LINE
  5
D0
100
AcDbEntity
  8
____
  6
CONTINUOUS
 62
         7
100
AcDbLine
 10
759.3446393594
 20
1962.7848136025
 30
0.0
 11
754.8809097581
 21
1962.7848136025
 31
0.0
  0
LINE
  5
D1
100
AcDbEntity
  8
____
  6
CONTINUOUS
 62
         7
100
AcDbLine
 10
754.8809097581
 20
1997.6848136025
 30
0.0
 11
757.8446393594
 21
1997.6848136025
 31
0.0
  0
ARC
  5
D2
100
AcDbEntity
  8
____
  6
CONTINUOUS
 62
         7
100
AcDbCircle
 10
757.8446393594
 20
1996.1848136025
 30
0.0
 40
1.5
100
AcDbArc
 50
0.0
 51
90.0
  0
LINE
  5
D3
100
AcDbEntity
  8
____
  6
CONTINUOUS
 62
         7
100
AcDbLine
 10
753.2196393594
 20
1994.8074241409
 30
0.0
 11
753.2196393594
 21
1961.7647194376
 31
0.0
  0
LINE
  5
D4
100
AcDbEntity
  8
____
  6
CONTINUOUS
 62
         7
100
AcDbLine
 10
747.8083689606
 20
1997.6848136025
 30
0.0
 11
747.8083689606
 21
1962.7848136025
 31
0.0
  0
LINE
  5
D5
100
AcDbEntity
  8
____
  6
CONTINUOUS
 62
         7
100
AcDbLine
 10
749.4696393594
 20
1994.8074241409
 30
0.0
 11
749.4696393594
 21
1961.7647194376
 31
0.0
  0
LINE
  5
D6
100
AcDbEntity
  8
____
  6
CONTINUOUS
 62
         7
100
AcDbLine
 10
747.8083689606
 20
1962.7848136025
 30
0.0
 11
749.4696393594
 21
1961.7647194376
 31
0.0
  0
LINE
  5
D7
100
AcDbEntity
  8
____
  6
CONTINUOUS
 62
         7
100
AcDbLine
 10
743.4446393594
 20
1962.7848136025
 30
0.0
 11
744.4647335243
 21
1961.7647194376
 31
0.0
  0
LINE
  5
D8
100
AcDbEntity
  8
____
  6
CONTINUOUS
 62
         7
100
AcDbLine
 10
747.8083689606
 20
1962.7848136025
 30
0.0
 11
743.4446393594
 21
1962.7848136025
 31
0.0
  0
ARC
  5
D9
100
AcDbEntity
  8
____
  6
CONTINUOUS
 62
         7
100
AcDbCircle
 10
752.7880150323
 20
1995.0598136025
 30
0.0
 40
0.5
100
AcDbArc
 50
270.0
 51
330.0
  0
ARC
  5
DA
100
AcDbEntity
  8
____
  6
CONTINUOUS
 62
         7
100
AcDbCircle
 10
744.9446393594
 20
1996.1848136025
 30
0.0
 40
1.5
100
AcDbArc
 50
90.0
 51
180.0
  0
LINE
  5
DB
100
AcDbEntity
  8
____
  6
CONTINUOUS
 62
         7
100
AcDbLine
 10
749.4682509845
 20
1994.8098136025
 30
0.0
 11
747.8083689606
 21
1997.6848136025
 31
0.0
  0
ARC
  5
DC
100
AcDbEntity
  8
____
  6
CONTINUOUS
 62
         7
100
AcDbCircle
 10
742.8446393594
 20
1983.9598136025
 30
0.0
 40
0.6
100
AcDbArc
 50
270.0
 51
360.0
  0
LINE
  5
DD
100
AcDbEntity
  8
____
  6
CONTINUOUS
 62
         7
100
AcDbLine
 10
742.1910495209
 20
1983.3598136025
 30
0.0
 11
742.8446393594
 21
1983.3598136025
 31
0.0
  0
ARC
  5
DE
100
AcDbEntity
  8
____
  6
CONTINUOUS
 62
         7
100
AcDbCircle
 10
749.9012636864
 20
1995.0598136025
 30
0.0
 40
0.5
100
AcDbArc
 50
210.0
 51
270.0
  0
LINE
  5
DF
100
AcDbEntity
  8
____
  6
CONTINUOUS
 62
         7
100
AcDbLine
 10
744.9446393594
 20
1997.6848136025
 30
0.0
 11
747.8083689606
 21
1997.6848136025
 31
0.0
  0
LINE
  5
E0
100
AcDbEntity
  8
____
  6
CONTINUOUS
 62
         7
100
AcDbLine
 10
749.9012636864
 20
1994.5598136025
 30
0.0
 11
752.7880150323
 21
1994.5598136025
 31
0.0
  0
LINE
  5
E1
100
AcDbEntity
  8
____
  6
CONTINUOUS
 62
         7
100
AcDbLine
 10
758.2245451944
 20
1961.7647194376
 30
0.0
 11
744.4647335243
 21
1961.7647194376
 31
0.0
  0
LINE
  5
E2
100
AcDbEntity
  8
____
  6
CONTINUOUS
 62
         7
100
AcDbLine
 10
758.2245451944
 20
1961.7647194376
 30
0.0
 11
744.4647335243
 21
1961.7647194376
 31
0.0
  0
LINE
  5
E3
100
AcDbEntity
  8
____
  6
CONTINUOUS
 62
         7
100
AcDbLine
 10
753.2196393594
 20
1961.7647194376
 30
0.0
 11
754.8809097581
 21
1962.7848136025
 31
0.0
  0
LINE
  5
E4
100
AcDbEntity
  8
____
  6
CONTINUOUS
 62
         7
100
AcDbLine
 10
753.2210277342
 20
1994.8098136025
 30
0.0
 11
754.8809097581
 21
1997.6848136025
 31
0.0
  0
LINE
  5
E5
100
AcDbEntity
  8
____
  6
CONTINUOUS
 62
         7
100
AcDbLine
 10
749.9012636864
 20
1805.1522215514
 30
0.0
 11
752.7880150323
 21
1805.1522215514
 31
0.0
  0
LINE
  5
E6
100
AcDbEntity
  8
____
  6
CONTINUOUS
 62
         7
100
AcDbLine
 10
743.4446393594
 20
1806.7772215514
 30
0.0
 11
743.4446393594
 21
1794.5522215514
 31
0.0
  0
LINE
  5
E7
100
AcDbEntity
  8
____
  6
CONTINUOUS
 62
         7
100
AcDbLine
 10
742.1910495209
 20
1793.9522215514
 30
0.0
 11
742.8446393594
 21
1793.9522215514
 31
0.0
  0
ARC
  5
E8
100
AcDbEntity
  8
____
  6
CONTINUOUS
 62
         7
100
AcDbCircle
 10
742.8446393594
 20
1794.5522215514
 30
0.0
 40
0.6
100
AcDbArc
 50
270.0
 51
360.0
  0
ARC
  5
E9
100
AcDbEntity
  8
____
  6
CONTINUOUS
 62
         7
100
AcDbCircle
 10
749.9012636864
 20
1805.6522215514
 30
0.0
 40
0.5
100
AcDbArc
 50
210.0
 51
270.0
  0
ARC
  5
EA
100
AcDbEntity
  8
____
  6
CONTINUOUS
 62
         7
100
AcDbCircle
 10
752.7880150323
 20
1805.6522215514
 30
0.0
 40
0.5
100
AcDbArc
 50
270.0
 51
330.0
  0
LINE
  5
EB
100
AcDbEntity
  8
____
  6
CONTINUOUS
 62
         7
100
AcDbLine
 10
740.2446393594
 20
1794.4522215514
 30
0.0
 11
742.1910495209
 21
1793.9522215514
 31
0.0
  0
LINE
  5
EC
100
AcDbEntity
  8
____
  6
CONTINUOUS
 62
         7
100
AcDbLine
 10
759.2446393594
 20
1962.7848136025
 30
0.0
 11
758.2245451944
 21
1961.7647194376
 31
0.0
  0
LINE
  5
ED
100
AcDbEntity
  8
____
  6
CONTINUOUS
 62
         7
100
AcDbLine
 10
759.2446393594
 20
1935.0848136025
 30
0.0
 11
758.2245451944
 21
1936.1049077674
 31
0.0
  0
LINE
  5
EE
100
AcDbEntity
  8
____
  6
CONTINUOUS
 62
         7
100
AcDbLine
 10
759.3446393594
 20
1996.1848136025
 30
0.0
 11
759.3446393594
 21
1901.6848136025
 31
0.0
  0
LINE
  5
EF
100
AcDbEntity
  8
____
  6
CONTINUOUS
 62
         7
100
AcDbLine
 10
638.4946393593
 20
1741.6027609933
 30
0.0
 11
638.4946393594
 21
1777.4516821094
 31
0.0
  0
LINE
  5
F0
100
AcDbEntity
  8
____
  6
CENTER
 62
         1
100
AcDbLine
 10
1021.5180806075
 20
1948.9348136025
 30
0.0
 11
1131.0180806075
 21
1948.9348136025
 31
0.0
  0
LINE
  5
F1
100
AcDbEntity
  8
____
  6
CENTER
 62
         1
100
AcDbLine
 10
1076.2680806075
 20
1894.1848136025
 30
0.0
 11
1076.2680806075
 21
2001.0994364773
 31
0.0
  0
CIRCLE
  5
F2
100
AcDbEntity
  8
____
  6
CONTINUOUS
 62
         7
100
AcDbCircle
 10
751.3446393594
 20
1948.9386671274
 30
0.0
 40
4.76
  0
TEXT
  5
F4
100
AcDbEntity
  8
____
  6
CONTINUOUS
 62
         4
100
AcDbText
 10
1061.7086696178
 20
1681.5584978756
 30
0.0
 40
4.0
  1
垂直度
 41
0.6
  7
STSL
100
AcDbText
  0
ARC
  5
F5
100
AcDbEntity
  8
____
  6
CONTINUOUS
 62
         7
100
AcDbCircle
 10
759.8446393594
 20
1984.3598136025
 30
0.0
 40
0.5
100
AcDbArc
 50
180.0
 51
270.0
  0
ARC
  5
F6
100
AcDbEntity
  8
____
  6
CONTINUOUS
 62
         7
100
AcDbCircle
 10
759.8446393594
 20
1913.5098136025
 30
0.0
 40
0.5
100
AcDbArc
 50
90.0
 51
180.0
  0
ARC
  5
F7
100
AcDbEntity
  8
____
  6
CONTINUOUS
 62
         7
100
AcDbCircle
 10
759.8446393594
 20
1724.1022215514
 30
0.0
 40
0.5
100
AcDbArc
 50
90.0
 51
180.0
  0
ARC
  5
F8
100
AcDbEntity
  8
____
  6
CONTINUOUS
 62
         7
100
AcDbCircle
 10
759.8446393594
 20
1794.9522215514
 30
0.0
 40
0.5
100
AcDbArc
 50
180.0
 51
270.0
  0
LINE
  5
F9
100
AcDbEntity
  8
____
  6
DASHED
 62
         2
100
AcDbLine
 10
1039.0680806075
 20
1953.9348136025
 30
0.0
 11
1052.2820806075
 21
1953.9348136025
 31
0.0
  0
LINE
  5
FA
100
AcDbEntity
  8
____
  6
DASHED
 62
         2
100
AcDbLine
 10
1039.0680806075
 20
1943.9348136025
 30
0.0
 11
1052.2820806075
 21
1943.9348136025
 31
0.0
  0
LINE
  5
FB
100
AcDbEntity
  8
____
  6
DASHED
 62
         2
100
AcDbLine
 10
1052.2820806075
 20
1953.9348136025
 30
0.0
 11
1052.2820806075
 21
1943.9348136025
 31
0.0
  0
LINE
  5
FC
100
AcDbEntity
  8
____
  6
DASHED
 62
         2
100
AcDbLine
 10
1055.1688319534
 20
1948.9348136025
 30
0.0
 11
1052.2820806075
 21
1943.9348136025
 31
0.0
  0
LINE
  5
FD
100
AcDbEntity
  8
____
  6
DASHED
 62
         2
100
AcDbLine
 10
1052.2820806075
 20
1953.9348136025
 30
0.0
 11
1055.1688319534
 21
1948.9348136025
 31
0.0
  0
LINE
  5
FE
100
AcDbEntity
  8
____
  6
DASHED
 62
         2
100
AcDbLine
 10
1039.0680806075
 20
1943.9348136025
 30
0.0
 11
1038.5680806075
 21
1943.4348136025
 31
0.0
  0
LINE
  5
FF
100
AcDbEntity
  8
____
  6
DASHED
 62
         2
100
AcDbLine
 10
1039.0680806075
 20
1953.9348136025
 30
0.0
 11
1038.5680806075
 21
1954.4348136025
 31
0.0
  0
LINE
  5
100
100
AcDbEntity
  8
____
  6
DASHED
 62
         2
100
AcDbLine
 10
1039.0680806075
 20
1953.9348136025
 30
0.0
 11
1039.0680806075
 21
1943.9348136025
 31
0.0
  0
CIRCLE
  5
101
100
AcDbEntity
  8
____
  6
CONTINUOUS
 62
         7
100
AcDbCircle
 10
1076.2680806075
 20
1948.9348136025
 30
0.0
 40
9.4755
  0
CIRCLE
  5
102
100
AcDbEntity
  8
____
  6
CONTINUOUS
 62
         7
100
AcDbCircle
 10
1076.2680806075
 20
1948.9348136025
 30
0.0
 40
10.25
  0
LINE
  5
103
100
AcDbEntity
  8
____
  6
CENTER
 62
         1
100
AcDbLine
 10
1076.2680806075
 20
1929.2805562309
 30
0.0
 11
1076.2680806075
 21
1968.5500298711
 31
0.0
  0
LINE
  5
104
100
AcDbEntity
  8
____
  6
CENTER
 62
         1
100
AcDbLine
 10
1095.0955875123
 20
1948.9348136025
 30
0.0
 11
1057.1266512786
 21
1948.9348136025
 31
0.0
  0
CIRCLE
  5
105
100
AcDbEntity
  8
____
  6
CONTINUOUS
 62
         7
100
AcDbCircle
 10
1076.2680806075
 20
1948.9348136025
 30
0.0
 40
17.5
  0
ARC
  5
106
100
AcDbEntity
  8
____
  6
CONTINUOUS
 62
         7
100
AcDbCircle
 10
779.2446393594
 20
1932.4348136025
 30
0.0
 40
1.0
100
AcDbArc
 50
270.0
 51
360.0
  0
ARC
  5
107
100
AcDbEntity
  8
____
  6
CONTINUOUS
 62
         7
100
AcDbCircle
 10
779.2446393594
 20
1965.4348136025
 30
0.0
 40
1.0
100
AcDbArc
 50
0.0
 51
90.0
  0
LINE
  5
108
100
AcDbEntity
  8
____
  6
CONTINUOUS
 62
         7
100
AcDbLine
 10
782.3311277593
 20
1938.6072586479
 30
0.0
 11
814.7006393594
 21
1939.46890478
 31
0.0
  0
LINE
  5
109
100
AcDbEntity
  8
____
  6
CONTINUOUS
 62
         7
100
AcDbLine
 10
814.7006393594
 20
1939.46890478
 30
0.0
 11
816.2006393594
 21
1940.96890478
 31
0.0
  0
LINE
  5
10A
100
AcDbEntity
  8
____
  6
CONTINUOUS
 62
         7
100
AcDbLine
 10
782.0519721073
 20
1959.2697994195
 30
0.0
 11
814.7006393594
 21
1958.400722425
 31
0.0
  0
ARC
  5
10B
100
AcDbEntity
  8
____
  6
CONTINUOUS
 62
         7
100
AcDbCircle
 10
782.2446393594
 20
1936.6091295839
 30
0.0
 40
2.0
100
AcDbArc
 50
91.4332060168
 51
180.0
  0
ARC
  5
10C
100
AcDbEntity
  8
____
  6
CONTINUOUS
 62
         7
100
AcDbCircle
 10
782.2446393594
 20
1961.2604976211
 30
0.0
 40
2.0
100
AcDbArc
 50
180.0
 51
268.5667939832
  0
LINE
  5
10D
100
AcDbEntity
  8
____
  6
CONTINUOUS
 62
         7
100
AcDbLine
 10
780.2446393594
 20
1932.4348136025
 30
0.0
 11
780.2446393594
 21
1965.4348136025
 31
0.0
  0
DIMENSION
  5
111
100
AcDbEntity
  8
____
  6
CONTINUOUS
 62
         4
100
AcDbDimension
  2
*D0
 10
840.9455719113
 20
1966.4348136025
 30
0.0
 11
838.3205719113
 21
1941.3032090163
 31
0.0
  3
DIMSTYLE1
100
AcDbAlignedDimension
 13
776.2341664874
 23
1966.4348136025
 33
0.0
 14
775.9395505277
 24
1931.4348136025
 34
0.0
 50
90.0
100
AcDbRotatedDimension
  0
LINE
  5
11E
100
AcDbEntity
  8
____
  6
CONTINUOUS
 62
         7
100
AcDbLine
 10
779.2446393594
 20
1931.4348136025
 30
0.0
 11
778.2966393594
 21
1931.4348136025
 31
0.0
  0
LINE
  5
11F
100
AcDbEntity
  8
____
  6
CONTINUOUS
 62
         7
100
AcDbLine
 10
779.2446393594
 20
1966.4348136025
 30
0.0
 11
778.2966393594
 21
1966.4348136025
 31
0.0
  0
LINE
  5
120
100
AcDbEntity
  8
____
  6
CONTINUOUS
 62
         7
100
AcDbLine
 10
814.7006393594
 20
1958.400722425
 30
0.0
 11
816.2006393594
 21
1956.900722425
 31
0.0
  0
LINE
  5
121
100
AcDbEntity
  8
____
  6
CONTINUOUS
 62
         7
100
AcDbLine
 10
814.7006393594
 20
1939.46890478
 30
0.0
 11
814.7006393594
 21
1958.400722425
 31
0.0
  0
LINE
  5
122
100
AcDbEntity
  8
____
  6
CENTER
 62
         1
100
AcDbLine
 10
785.2446393594
 20
1934.9865081613
 30
0.0
 11
785.2446393594
 21
1962.2909345071
 31
0.0
  0
LINE
  5
123
100
AcDbEntity
  8
____
  6
CONTINUOUS
 62
         7
100
AcDbLine
 10
816.2006393594
 20
1940.96890478
 30
0.0
 11
816.2006393594
 21
1956.900722425
 31
0.0
  0
LINE
  5
124
100
AcDbEntity
  8
____
  6
CENTER
 62
         1
100
AcDbLine
 10
822.326461081
 20
1948.9348136025
 30
0.0
 11
777.0764989048
 21
1948.9348136025
 31
0.0
  0
DIMENSION
  5
127
100
AcDbEntity
  8
____
  6
CONTINUOUS
 62
         4
100
AcDbDimension
  2
*D1
 10
841.276253076
 20
1768.9532017764
 30
0.0
 11
838.651253076
 21
1747.068055432
 31
0.0
  3
DIMSTYLE1
100
AcDbAlignedDimension
 13
816.2006393594
 23
1768.9532017764
 33
0.0
 14
816.2006393594
 24
1750.1012413263
 34
0.0
 50
90.0
100
AcDbRotatedDimension
  0
LINE
  5
133
100
AcDbEntity
  8
____
  6
CENTER
 62
         1
100
AcDbLine
 10
785.2446393594
 20
1745.5976806469
 30
0.0
 11
785.2446393594
 21
1772.9021069927
 31
0.0
  0
LINE
  5
134
100
AcDbEntity
  8
____
  6
CONTINUOUS
 62
         7
100
AcDbLine
 10
780.2446393594
 20
1743.0272215514
 30
0.0
 11
780.2446393594
 21
1747.1966559073
 31
0.0
  0
LINE
  5
135
100
AcDbEntity
  8
____
  6
CONTINUOUS
 62
         7
100
AcDbLine
 10
816.2006393594
 20
1751.5613127288
 30
0.0
 11
816.2006393594
 21
1767.4931303739
 31
0.0
  0
LINE
  5
136
100
AcDbEntity
  8
____
  6
CONTINUOUS
 62
         7
100
AcDbLine
 10
782.191420081
 20
1769.8584953937
 30
0.0
 11
814.7006393594
 21
1768.9931303739
 31
0.0
  0
LINE
  5
137
100
AcDbEntity
  8
____
  6
CONTINUOUS
 62
         7
100
AcDbLine
 10
782.191420081
 20
1749.195947709
 30
0.0
 11
814.7006393594
 21
1750.0613127288
 31
0.0
  0
LINE
  5
138
100
AcDbEntity
  8
____
  6
CONTINUOUS
 62
         7
100
AcDbLine
 10
814.7006393594
 20
1750.0613127288
 30
0.0
 11
816.2006393594
 21
1751.5613127288
 31
0.0
  0
LINE
  5
139
100
AcDbEntity
  8
____
  6
CONTINUOUS
 62
         7
100
AcDbLine
 10
814.7006393594
 20
1768.9931303739
 30
0.0
 11
816.2006393594
 21
1767.4931303739
 31
0.0
  0
LINE
  5
13A
100
AcDbEntity
  8
____
  6
CENTER
 62
         1
100
AcDbLine
 10
820.8825236866
 20
1759.5272215514
 30
0.0
 11
775.8764989048
 21
1759.5272215514
 31
0.0
  0
LINE
  5
13B
100
AcDbEntity
  8
____
  6
CONTINUOUS
 62
         7
100
AcDbLine
 10
780.2446393594
 20
1771.8577871954
 30
0.0
 11
780.2446393594
 21
1776.0272215514
 31
0.0
  0
LINE
  5
13C
100
AcDbEntity
  8
____
  6
CONTINUOUS
 62
         7
100
AcDbLine
 10
779.2446393594
 20
1777.0272215514
 30
0.0
 11
777.4966393594
 21
1777.0272215514
 31
0.0
  0
ARC
  5
13D
100
AcDbEntity
  8
____
  6
CONTINUOUS
 62
         7
100
AcDbCircle
 10
782.2446393594
 20
1771.8577871954
 30
0.0
 40
2.0
100
AcDbArc
 50
180.0
 51
268.4752
  0
ARC
  5
13E
100
AcDbEntity
  8
____
  6
CONTINUOUS
 62
         7
100
AcDbCircle
 10
782.2446393594
 20
1747.1966559073
 30
0.0
 40
2.0
100
AcDbArc
 50
91.5248
 51
180.0
  0
ARC
  5
13F
100
AcDbEntity
  8
____
  6
CONTINUOUS
 62
         7
100
AcDbCircle
 10
779.2446393594
 20
1776.0272215514
 30
0.0
 40
1.0
100
AcDbArc
 50
0.0
 51
90.0
  0
ARC
  5
140
100
AcDbEntity
  8
____
  6
CONTINUOUS
 62
         7
100
AcDbCircle
 10
779.2446393594
 20
1743.0272215514
 30
0.0
 40
1.0
100
AcDbArc
 50
270.0
 51
360.0
  0
LINE
  5
141
100
AcDbEntity
  8
____
  6
CONTINUOUS
 62
         7
100
AcDbLine
 10
774.4966393594
 20
1794.4522215514
 30
0.0
 11
774.4966393594
 21
1780.0272215514
 31
0.0
  0
ARC
  5
142
100
AcDbEntity
  8
____
  6
CONTINUOUS
 62
         7
100
AcDbCircle
 10
777.4966393594
 20
1780.0272215514
 30
0.0
 40
3.0
100
AcDbArc
 50
180.0
 51
270.0
  0
LINE
  5
143
100
AcDbEntity
  8
____
  6
CONTINUOUS
 62
         7
100
AcDbLine
 10
774.4966393594
 20
1724.6022215514
 30
0.0
 11
774.4966393594
 21
1739.0272215514
 31
0.0
  0
ARC
  5
144
100
AcDbEntity
  8
____
  6
CONTINUOUS
 62
         7
100
AcDbCircle
 10
777.4966393594
 20
1739.0272215514
 30
0.0
 40
3.0
100
AcDbArc
 50
90.0
 51
180.0
  0
LINE
  5
145
100
AcDbEntity
  8
____
  6
CONTINUOUS
 62
         7
100
AcDbLine
 10
779.2446393594
 20
1742.0272215514
 30
0.0
 11
777.4966393594
 21
1742.0272215514
 31
0.0
  0
LINE
  5
146
100
AcDbEntity
  8
____
  6
CONTINUOUS
 62
         7
100
AcDbLine
 10
693.4946393594
 20
1749.1308800879
 30
0.0
 11
693.4946393594
 21
1769.9235630148
 31
0.0
  0
LINE
  5
147
100
AcDbEntity
  8
____
  6
CONTINUOUS
 62
         7
100
AcDbLine
 10
693.4946393594
 20
1749.1308800879
 30
0.0
 11
699.4969699018
 21
1759.5272215514
 31
0.0
  0
LINE
  5
148
100
AcDbEntity
  8
____
  6
CONTINUOUS
 62
         7
100
AcDbLine
 10
693.4946393594
 20
1769.9235630148
 30
0.0
 11
699.4969699018
 21
1759.5272215514
 31
0.0
  0
ARC
  5
149
100
AcDbEntity
  8
____
  6
CONTINUOUS
 62
         7
100
AcDbCircle
 10
778.2966393594
 20
1969.4348136025
 30
0.0
 40
3.0
100
AcDbArc
 50
180.0
 51
270.0
  0
ARC
  5
14A
100
AcDbEntity
  8
____
  6
CONTINUOUS
 62
         7
100
AcDbCircle
 10
778.2966393594
 20
1928.4348136025
 30
0.0
 40
3.0
100
AcDbArc
 50
90.0
 51
180.0
  0
DIMENSION
  5
14D
100
AcDbEntity
  8
____
  6
CONTINUOUS
 62
         4
100
AcDbDimension
  2
*D2
 10
780.2446393594
 20
2069.8251336234
 30
0.0
 11
756.7446393594
 21
2072.4501336234
 31
0.0
  3
DIMSTYLE1
100
AcDbAlignedDimension
 13
780.2446393594
 23
1965.4348136025
 33
0.0
 14
740.2446393594
 24
1988.6598136025
 34
0.0
100
AcDbRotatedDimension
  0
DIMENSION
  5
15B
100
AcDbEntity
  8
____
  6
CONTINUOUS
 62
         4
100
AcDbDimension
  2
*D3
 10
638.4946393594
 20
2081.4198514653
 30
0.0
 11
718.6512667744
 21
2084.0448514653
 31
0.0
  3
DIMSTYLE1
100
AcDbAlignedDimension
 13
638.4946393594
 23
1966.8592741605
 33
0.0
 14
816.2006393594
 24
1956.900722425
 34
0.0
100
AcDbRotatedDimension
  0
INSERT
  5
1B4
100
AcDbEntity
  8
0
  6
CONTINUOUS
100
AcDbBlockReference
  2
*X4
 10
0.0
 20
0.0
 30
0.0
  0
DIMENSION
  5
1B8
100
AcDbEntity
  8
____
  6
CONTINUOUS
 62
         4
100
AcDbDimension
  2
*D5
 10
832.3619509868
 20
1938.6848136025
 30
0.0
 11
830.3369509868
 21
1939.6801611774
 31
0.0
  3
DIMSTYLE2
100
AcDbAlignedDimension
 13
785.2446393594
 23
1938.6848136025
 33
0.0
 14
785.2446393594
 24
1959.1848136025
 34
0.0
 50
90.0
100
AcDbRotatedDimension
  0
TEXT
  5
1C5
100
AcDbEntity
  8
____
  6
CONTINUOUS
 62
         2
100
AcDbText
 10
1060.8398583901
 20
2023.1206502813
 30
0.0
 40
4.5
  1
531502
 41
0.98
  7
BOX
100
AcDbText
  0
ENDSEC
  0
SECTION
  2
OBJECTS
  0
DICTIONARY
  5
19
100
AcDbDictionary
  3
ACAD_GROUP
350
1A
  3
ACAD_MLINESTYLE
350
1B
  0
DICTIONARY
  5
1A
102
{ACAD_REACTORS
330
19
102
}
100
AcDbDictionary
  0
DICTIONARY
  5
1B
102
{ACAD_REACTORS
330
19
102
}
100
AcDbDictionary
  3
STANDARD
350
1C
  0
MLINESTYLE
  5
1C
102
{ACAD_REACTORS
330
1B
102
}
100
AcDbMlineStyle
  2
STANDARD
 70
         0
  3

 62
         0
 51
90.0
 52
90.0
 71
         2
 49
0.5
 62
       256
  6
BYLAYER
 49
-0.5
 62
       256
  6
BYLAYER
  0
ENDSEC
  0
EOF
