  0
SECTION
  2
HEADER
  9
$ACADVER
  1
AC1014
  9
$ACADMAINTVER
 70
         0
  9
$DWGCODEPAGE
  3
BIG5
  9
$INSBASE
 10
0.0
 20
0.0
 30
0.0
  9
$EXTMIN
 10
69.2994867025
 20
16.121112115
 30
0.0
  9
$EXTMAX
 10
892.3600629801
 20
431.0827256135
 30
0.0
  9
$LIMMIN
 10
0.0
 20
0.0
  9
$LIMMAX
 10
0.0
 20
0.0
  9
$ORTHOMODE
 70
         0
  9
$REGENMODE
 70
         1
  9
$FILLMODE
 70
         1
  9
$QTEXTMODE
 70
         0
  9
$MIRRTEXT
 70
         1
  9
$DRAGMODE
 70
         2
  9
$LTSCALE
 40
1.0
  9
$OSMODE
 70
         0
  9
$ATTMODE
 70
         1
  9
$TEXTSIZE
 40
1.7
  9
$TRACEWID
 40
0.05
  9
$TEXTSTYLE
  7
STANDARD
  9
$CLAYER
  8
0
  9
$CELTYPE
  6
CONTINUOUS
  9
$CECOLOR
 62
         4
  9
$CELTSCALE
 40
1.0
  9
$DELOBJ
 70
         1
  9
$DISPSILH
 70
         0
  9
$DIMSCALE
 40
1.0
  9
$DIMASZ
 40
0.18
  9
$DIMEXO
 40
0.0625
  9
$DIMDLI
 40
0.38
  9
$DIMRND
 40
0.0
  9
$DIMDLE
 40
0.0
  9
$DIMEXE
 40
0.25
  9
$DIMTP
 40
0.01
  9
$DIMTM
 40
-0.01
  9
$DIMTXT
 40
3.5
  9
$DIMCEN
 40
0.09
  9
$DIMTSZ
 40
0.0
  9
$DIMTOL
 70
         0
  9
$DIMLIM
 70
         0
  9
$DIMTIH
 70
         1
  9
$DIMTOH
 70
         1
  9
$DIMSE1
 70
         0
  9
$DIMSE2
 70
         0
  9
$DIMTAD
 70
         0
  9
$DIMZIN
 70
         0
  9
$DIMBLK
  1

  9
$DIMASO
 70
         1
  9
$DIMSHO
 70
         1
  9
$DIMPOST
  1

  9
$DIMAPOST
  1

  9
$DIMALT
 70
         0
  9
$DIMALTD
 70
         2
  9
$DIMALTF
 40
25.4
  9
$DIMLFAC
 40
1.0
  9
$DIMTOFL
 70
         0
  9
$DIMTVP
 40
0.0
  9
$DIMTIX
 70
         0
  9
$DIMSOXD
 70
         0
  9
$DIMSAH
 70
         0
  9
$DIMBLK1
  1

  9
$DIMBLK2
  1

  9
$DIMSTYLE
  2
STANDARD
  9
$DIMCLRD
 70
         0
  9
$DIMCLRE
 70
         0
  9
$DIMCLRT
 70
         4
  9
$DIMTFAC
 40
1.0
  9
$DIMGAP
 40
0.09
  9
$DIMJUST
 70
         0
  9
$DIMSD1
 70
         0
  9
$DIMSD2
 70
         0
  9
$DIMTOLJ
 70
         1
  9
$DIMTZIN
 70
         0
  9
$DIMALTZ
 70
         0
  9
$DIMALTTZ
 70
         0
  9
$DIMFIT
 70
         3
  9
$DIMUPT
 70
         0
  9
$DIMUNIT
 70
         2
  9
$DIMDEC
 70
         4
  9
$DIMTDEC
 70
         4
  9
$DIMALTU
 70
         2
  9
$DIMALTTD
 70
         2
  9
$DIMTXSTY
  7
STANDARD
  9
$DIMAUNIT
 70
         0
  9
$LUNITS
 70
         2
  9
$LUPREC
 70
        10
  9
$SKETCHINC
 40
0.1
  9
$FILLETRAD
 40
0.0
  9
$AUNITS
 70
         0
  9
$AUPREC
 70
         0
  9
$MENU
  1
acad
  9
$ELEVATION
 40
0.0
  9
$PELEVATION
 40
0.0
  9
$THICKNESS
 40
0.0
  9
$LIMCHECK
 70
         0
  9
$BLIPMODE
 70
         1
  9
$CHAMFERA
 40
0.0
  9
$CHAMFERB
 40
0.0
  9
$CHAMFERC
 40
0.0
  9
$CHAMFERD
 40
0.0
  9
$SKPOLY
 70
         0
  9
$TDCREATE
 40
0.000000000
  9
$TDUPDATE
 40
0.000000000
  9
$TDINDWG
 40
0.0000000000
  9
$TDUSRTIMER
 40
0.0000000000
  9
$USRTIMER
 70
         1
  9
$ANGBASE
 50
0.0
  9
$ANGDIR
 70
         0
  9
$PDMODE
 70
         2
  9
$PDSIZE
 40
0.0
  9
$PLINEWID
 40
0.0
  9
$COORDS
 70
         1
  9
$SPLFRAME
 70
         0
  9
$SPLINETYPE
 70
         6
  9
$SPLINESEGS
 70
         8
  9
$ATTDIA
 70
         0
  9
$ATTREQ
 70
         1
  9
$HANDLING
 70
         1
  9
$HANDSEED
  5
20C
  9
$SURFTAB1
 70
         6
  9
$SURFTAB2
 70
         6
  9
$SURFTYPE
 70
         6
  9
$SURFU
 70
         6
  9
$SURFV
 70
         6
  9
$UCSNAME
  2

  9
$UCSORG
 10
0.0
 20
0.0
 30
0.0
  9
$UCSXDIR
 10
1.0
 20
0.0
 30
0.0
  9
$UCSYDIR
 10
0.0
 20
1.0
 30
0.0
  9
$PUCSNAME
  2

  9
$PUCSORG
 10
0.0
 20
0.0
 30
0.0
  9
$PUCSXDIR
 10
1.0
 20
0.0
 30
0.0
  9
$PUCSYDIR
 10
0.0
 20
1.0
 30
0.0
  9
$USERI1
 70
         0
  9
$USERI2
 70
         0
  9
$USERI3
 70
         0
  9
$USERI4
 70
         0
  9
$USERI5
 70
         0
  9
$USERR1
 40
0.0
  9
$USERR2
 40
0.0
  9
$USERR3
 40
0.0
  9
$USERR4
 40
0.0
  9
$USERR5
 40
0.0
  9
$WORLDVIEW
 70
         1
  9
$SHADEDGE
 70
         3
  9
$SHADEDIF
 70
        70
  9
$TILEMODE
 70
         1
  9
$MAXACTVP
 70
        16
  9
$PINSBASE
 10
0.0
 20
0.0
 30
0.0
  9
$PLIMCHECK
 70
         0
  9
$PEXTMIN
 10
1.0000000000E+20
 20
1.0000000000E+20
 30
1.0000000000E+20
  9
$PEXTMAX
 10
-1.0000000000E+20
 20
-1.0000000000E+20
 30
-1.0000000000E+20
  9
$PLIMMIN
 10
0.0
 20
0.0
  9
$PLIMMAX
 10
12.0
 20
9.0
  9
$UNITMODE
 70
         0
  9
$VISRETAIN
 70
         0
  9
$PLINEGEN
 70
         1
  9
$PSLTSCALE
 70
         0
  9
$TREEDEPTH
 70
      3020
  9
$PICKSTYLE
 70
         1
  9
$CMLSTYLE
  2
STANDARD
  9
$CMLJUST
 70
         0
  9
$CMLSCALE
 40
1.0
  9
$PROXYGRAPHICS
 70
         0
  9
$MEASUREMENT
 70
         0
  0
ENDSEC
  0
SECTION
  2
CLASSES
  0
CLASS
  1
LWPOLYLINE
  2
AcDbPolyline
  3
"AutoCAD"
 90
        0
280
         0
281
         1
  0
CLASS
  1
IMAGE
  2
AcDbRasterImage
  3
ISM
 90
      127
280
         0
281
         1
  0
CLASS
  1
OLE2FRAME
  2
AcDbOle2Frame
  3
""
 90
        0
280
         0
281
         1
  0
CLASS
  1
HATCH
  2
AcDbHatch
  3
"ACAD_SEDONA"
 90
        0
280
         0
281
         1
  0
CLASS
  1
DICTIONARYVAR
  2
AcDbDictionaryVar
  3
"AutoCAD"
 90
        0
280
         0
281
         0
  0
CLASS
  1
RASTERVARIABLES
  2
AcDbRasterVariables
  3
ISM
 90
        0
280
         0
281
         0
  0
CLASS
  1
IMAGEDEF
  2
AcDbRasterImageDef
  3
ISM
 90
        0
280
         0
281
         0
  0
CLASS
  1
IMAGEDEF_REACTOR
  2
AcDbRasterImageDefReactor
  3
ISM
 90
        1
280
         0
281
         0
  0
CLASS
  1
IDBUFFER
  2
AcDbIdBuffer
  3
"Acad"
 90
        0
280
         0
281
         0
  0
CLASS
  1
SPATIAL_FILTER
  2
AcDbSpatialFilter
  3
"Acad"
 90
        0
280
         0
281
         0
  0
CLASS
  1
XRECORD
  2
AcDbXrecord
  3
"<Built In>"
 90
        0
280
         0
281
         0
  0
CLASS
  1
SORTENTSTABLE
  2
AcDbSortentsTable
  3
"AutoCAD"
 90
        0
280
         0
281
         0
  0
CLASS
  1
LAYER_INDEX
  2
AcDbLayerIndex
  3
"Acad"
 90
        0
280
         0
281
         0
  0
CLASS
  1
SPATIAL_INDEX
  2
AcDbSpatialIndex
  3
"Acad"
 90
        0
280
         0
281
         0
  0
CLASS
  1
OBJECT_PTR
  2
CAseDLPNTableRecord
  3
"ASE-LPNTableRecord"
 90
        1
280
         0
281
         0
  0
CLASS
  1
LAYOUT
  2
AcDbLayout
  3
"AutoCAD 2000"
 90
        1
280
         0
281
         0
  0
CLASS
  1
PLOTSETTINGS
  2
AcDbPlotSettings
  3
"AutoCAD 2000"
 90
        1
280
         0
281
         0
  0
CLASS
  1
ACDBDICTIONARYWDFLT
  2
AcDbDictionaryWithDefault
  3
"AutoCAD 2000"
 90
        1
280
         0
281
         0
  0
CLASS
  1
ACDBPLACEHOLDER
  2
AcDbPlaceHolder
  3
"AutoCAD 2000"
 90
        1
280
         0
281
         0
  0
CLASS
  1
VBA_PROJECT
  2
AcDbVbaProject
  3
"acadvba"
 90
        1
280
         0
281
         0
  0
CLASS
  1
WIPEOUT
  2
AcDbWipeout
  3
WipeOut|AutoCAD Express Tool|expresstools@autodesk.com
 90
      127
280
         0
281
         1
  0
CLASS
  1
WIPEOUTVARIABLES
  2
AcDbWipeoutVariables
  3
WipeOut|AutoCAD Express Tool|expresstools@autodesk.com
 90
        0
280
         0
281
         0
  0
CLASS
  1
RTEXT
  2
RText
  3
RText|AutoCAD Express Tool|expresstools@autodesk.com
 90
        0
280
         0
281
         1
  0
CLASS
  1
ARCALIGNEDTEXT
  2
AcDbArcAlignedText
  3
ATEXT|AutoCAD Express Tool|expresstools@autodesk.com
 90
        0
280
         0
281
         1
  0
ENDSEC
  0
SECTION
  2
TABLES
  0
TABLE
  2
VPORT
  5
7
100
AcDbSymbolTable
 70
         1
  0
VPORT
  5
15
100
AcDbSymbolTableRecord
100
AcDbViewportTableRecord
  2
*ACTIVE
 70
         0
 10
0.0
 20
0.0
 11
1.0
 21
1.0
 12
480.8297748413
 22
223.6019188642
 13
0.0
 23
0.0
 14
1.0
 24
1.0
 15
0.0
 25
0.0
 16
0.0
 26
0.0
 36
1.0
 17
0.0
 27
0.0
 37
0.0
 40
414.9616134985
 41
1.9834619625
 42
50.0
 43
0.0
 44
0.0
 50
0.0
 51
0.0
 71
         0
 72
       100
 73
         1
 74
         1
 75
         0
 76
         0
 77
         0
 78
         0
  0
ENDTAB
  0
TABLE
  2
LTYPE
  5
4
100
AcDbSymbolTable
 70
         6
  0
LTYPE
  5
11
100
AcDbSymbolTableRecord
100
AcDbLinetypeTableRecord
  2
BYBLOCK
 70
        64
  3

 72
        65
 73
         0
 40
0.0
  0
LTYPE
  5
12
100
AcDbSymbolTableRecord
100
AcDbLinetypeTableRecord
  2
BYLAYER
 70
        64
  3

 72
        65
 73
         0
 40
0.0
  0
LTYPE
  5
13
100
AcDbSymbolTableRecord
100
AcDbLinetypeTableRecord
  2
CONTINUOUS
 70
        64
  3
Solid line
 72
        65
 73
         0
 40
0.0
  0
LTYPE
  5
1D
100
AcDbSymbolTableRecord
100
AcDbLinetypeTableRecord
  2
DASHED
 70
        64
  3
_ _ _ _ _ _ _ _ _ _ _ _ _ _ _ _
 72
        65
 73
         2
 40
0.2
 49
0.1
 74
         0
 49
-0.1
 74
         0
  0
LTYPE
  5
1E
100
AcDbSymbolTableRecord
100
AcDbLinetypeTableRecord
  2
CENTER
 70
        64
  3
___ _ ___ _ ___ _ ___ _ ___ _ ___ _ ___ _ ___ _
 72
        65
 73
         4
 40
0.95
 49
0.625
 74
         0
 49
-0.125
 74
         0
 49
0.075
 74
         0
 49
-0.125
 74
         0
  0
LTYPE
  5
1F
100
AcDbSymbolTableRecord
100
AcDbLinetypeTableRecord
  2
PHANTOM
 70
        64
  3
______  __  __  ______  __  __  ______  __  __  
 72
        65
 73
         6
 40
1.025
 49
0.625
 74
         0
 49
-0.125
 74
         0
 49
0.075
 74
         0
 49
-0.125
 74
         0
 49
0.075
 74
         0
 49
-0.125
 74
         0
  0
ENDTAB
  0
TABLE
  2
LAYER
  5
2
100
AcDbSymbolTable
 70
        10
  0
LAYER
  5
14
100
AcDbSymbolTableRecord
100
AcDbLayerTableRecord
  2
0
 70
         0
 62
         7
  6
CONTINUOUS
  0
LAYER
  5
21
100
AcDbSymbolTableRecord
100
AcDbLayerTableRecord
  2
______
 70
         0
 62
         7
  6
CONTINUOUS
  0
LAYER
  5
22
100
AcDbSymbolTableRecord
100
AcDbLayerTableRecord
  2
____
 70
         1
 62
         7
  6
CONTINUOUS
  0
LAYER
  5
23
100
AcDbSymbolTableRecord
100
AcDbLayerTableRecord
  2
____
 70
         1
 62
         7
  6
CONTINUOUS
  0
LAYER
  5
24
100
AcDbSymbolTableRecord
100
AcDbLayerTableRecord
  2
____
 70
         1
 62
         7
  6
CONTINUOUS
  0
LAYER
  5
25
100
AcDbSymbolTableRecord
100
AcDbLayerTableRecord
  2
___G__
 70
         1
 62
         7
  6
CONTINUOUS
  0
LAYER
  5
26
100
AcDbSymbolTableRecord
100
AcDbLayerTableRecord
  2
______
 70
         1
 62
         7
  6
CONTINUOUS
  0
LAYER
  5
27
100
AcDbSymbolTableRecord
100
AcDbLayerTableRecord
  2
_____I
 70
         1
 62
         7
  6
CONTINUOUS
  0
LAYER
  5
28
100
AcDbSymbolTableRecord
100
AcDbLayerTableRecord
  2
___T__
 70
         1
 62
         7
  6
CONTINUOUS
  0
LAYER
  5
B2
100
AcDbSymbolTableRecord
100
AcDbLayerTableRecord
  2
DEFPOINTS
 70
         0
 62
        -7
  6
CONTINUOUS
  0
ENDTAB
  0
TABLE
  2
STYLE
  5
3
100
AcDbSymbolTable
 70
         7
  0
STYLE
  5
17
100
AcDbSymbolTableRecord
100
AcDbTextStyleTableRecord
  2
STANDARD
 70
         0
 40
0.0
 41
1.0
 50
0.0
 71
         0
 42
0.0
  3
txt
  4

  0
STYLE
  5
BB
100
AcDbSymbolTableRecord
100
AcDbTextStyleTableRecord
  2
BOX
 70
         0
 40
1.0
 41
1.0
 50
0.0
 71
         0
 42
0.2
  3
txt.shx
  4

  0
STYLE
  5
C9
100
AcDbSymbolTableRecord
100
AcDbTextStyleTableRecord
  2
BOX
 70
         0
 40
1.0
 41
1.0
 50
0.0
 71
         0
 42
0.2
  3
txt.shx
  4

  0
STYLE
  5
E6
100
AcDbSymbolTableRecord
100
AcDbTextStyleTableRecord
  2
BOX
 70
         0
 40
1.0
 41
1.0
 50
0.0
 71
         0
 42
0.2
  3
txt.shx
  4

  0
STYLE
  5
F8
100
AcDbSymbolTableRecord
100
AcDbTextStyleTableRecord
  2
BOX
 70
         0
 40
1.0
 41
1.0
 50
0.0
 71
         0
 42
0.2
  3
txt.shx
  4

  0
STYLE
  5
110
100
AcDbSymbolTableRecord
100
AcDbTextStyleTableRecord
  2
BOX
 70
         0
 40
1.0
 41
1.0
 50
0.0
 71
         0
 42
0.2
  3
txt.shx
  4

  0
STYLE
  5
20A
100
AcDbSymbolTableRecord
100
AcDbTextStyleTableRecord
  2
BOX
 70
         0
 40
1.0
 41
1.0
 50
0.0
 71
         0
 42
0.2
  3
txt.shx
  4

  0
ENDTAB
  0
TABLE
  2
VIEW
  5
5
100
AcDbSymbolTable
 70
         0
  0
ENDTAB
  0
TABLE
  2
UCS
  5
6
100
AcDbSymbolTable
 70
         1
  0
UCS
  5
20
100
AcDbSymbolTableRecord
100
AcDbUCSTableRecord
  2
CK_VIEW_1
 70
         0
 10
0.0
 20
0.0
 30
1.0
 11
1.0
 21
0.0
 31
0.0
 12
0.0
 22
1.0
 32
0.0
  0
ENDTAB
  0
TABLE
  2
APPID
  5
8
100
AcDbSymbolTable
 70
         1
  0
APPID
  5
16
100
AcDbSymbolTableRecord
100
AcDbRegAppTableRecord
  2
ACAD
 70
         0
  0
ENDTAB
  0
TABLE
  2
DIMSTYLE
  5
9
100
AcDbSymbolTable
 70
         2
  0
DIMSTYLE
105
18
100
AcDbSymbolTableRecord
100
AcDbDimStyleTableRecord
  2
STANDARD
 70
         0
  3

  4

  5

  6

  7

 40
1.0
 41
0.18
 42
0.0625
 43
0.38
 44
0.18
 45
0.0
 46
0.0
 47
0.0
 48
0.0
 71
         0
 72
         0
 73
         1
 74
         1
 75
         0
 76
         0
 77
         0
 78
         0
140
0.18
141
0.09
142
0.0
143
25.4
144
1.0
145
0.0
146
1.0
147
0.09
170
         0
171
         2
172
         0
173
         0
174
         0
175
         0
176
         0
177
         0
178
         0
270
         2
271
         4
272
         4
273
         2
274
         2
275
         0
280
         0
281
         0
282
         0
283
         1
284
         0
285
         0
286
         0
287
         0
288
         0
340
17
  0
DIMSTYLE
105
AE
100
AcDbSymbolTableRecord
100
AcDbDimStyleTableRecord
  2
DIMSTYLE1
 70
         0
  3

  4

  5

  6

  7

 40
1.0
 41
3.5
 42
0.0625
 43
0.38
 44
3.5
 45
0.0
 46
0.0
 47
0.0
 48
0.0
 71
         0
 72
         0
 73
         1
 74
         1
 75
         0
 76
         0
 77
         0
 78
         0
140
3.5
141
0.09
142
0.0
143
25.4
144
1.0
145
0.0
146
1.0
147
0.09
170
         0
171
         2
172
         0
173
         0
174
         0
175
         0
176
         0
177
         0
178
         0
270
         2
271
         4
272
         4
273
         2
274
         2
275
         0
280
         0
281
         0
282
         0
283
         1
284
         0
285
         0
286
         0
287
         0
288
         0
340
17
  0
ENDTAB
  0
TABLE
  2
BLOCK_RECORD
  5
1
100
AcDbSymbolTable
 70
        12
  0
BLOCK_RECORD
  5
A
100
AcDbSymbolTableRecord
100
AcDbBlockTableRecord
  2
*MODEL_SPACE
  0
BLOCK_RECORD
  5
B
100
AcDbSymbolTableRecord
100
AcDbBlockTableRecord
  2
*PAPER_SPACE
  0
BLOCK_RECORD
  5
29
100
AcDbSymbolTableRecord
100
AcDbBlockTableRecord
  2
*X0
  0
BLOCK_RECORD
  5
32
100
AcDbSymbolTableRecord
100
AcDbBlockTableRecord
  2
*X1
  0
BLOCK_RECORD
  5
61
100
AcDbSymbolTableRecord
100
AcDbBlockTableRecord
  2
*X2
  0
BLOCK_RECORD
  5
6E
100
AcDbSymbolTableRecord
100
AcDbBlockTableRecord
  2
*X3
  0
BLOCK_RECORD
  5
7B
100
AcDbSymbolTableRecord
100
AcDbBlockTableRecord
  2
*X4
  0
BLOCK_RECORD
  5
AF
100
AcDbSymbolTableRecord
100
AcDbBlockTableRecord
  2
*D5
  0
BLOCK_RECORD
  5
BE
100
AcDbSymbolTableRecord
100
AcDbBlockTableRecord
  2
*D6
  0
BLOCK_RECORD
  5
DB
100
AcDbSymbolTableRecord
100
AcDbBlockTableRecord
  2
*D7
  0
BLOCK_RECORD
  5
ED
100
AcDbSymbolTableRecord
100
AcDbBlockTableRecord
  2
*D8
  0
BLOCK_RECORD
  5
104
100
AcDbSymbolTableRecord
100
AcDbBlockTableRecord
  2
*D9
  0
BLOCK_RECORD
  5
118
100
AcDbSymbolTableRecord
100
AcDbBlockTableRecord
  2
*X10
  0
BLOCK_RECORD
  5
126
100
AcDbSymbolTableRecord
100
AcDbBlockTableRecord
  2
*X11
  0
ENDTAB
  0
ENDSEC
  0
SECTION
  2
BLOCKS
  0
BLOCK
  5
D
100
AcDbEntity
  8
0
100
AcDbBlockBegin
  2
*MODEL_SPACE
 70
         0
 10
0.0
 20
0.0
 30
0.0
  3
*MODEL_SPACE
  1

  0
ENDBLK
  5
E
100
AcDbEntity
  8
0
100
AcDbBlockEnd
  0
BLOCK
  5
F
100
AcDbEntity
 67
         1
  8
0
100
AcDbBlockBegin
  2
*PAPER_SPACE
 70
         0
 10
0.0
 20
0.0
 30
0.0
  3
*PAPER_SPACE
  1

  0
ENDBLK
  5
10
100
AcDbEntity
 67
         1
  8
0
100
AcDbBlockEnd
  0
BLOCK
  5
2A
100
AcDbEntity
  8
0
100
AcDbBlockBegin
  2
*X0
 70
        65
 10
0.0
 20
0.0
 30
0.0
  3
*X0
  1

  0
LINE
  5
2B
100
AcDbEntity
  8
______
  6
CONTINUOUS
 62
         4
100
AcDbLine
 10
347.8650379936
 20
95.7330036377
 30
0.0
 11
353.9779339977
 21
101.8458996417
 31
0.0
  0
LINE
  5
2C
100
AcDbEntity
  8
______
  6
CONTINUOUS
 62
         4
100
AcDbLine
 10
344.1223973065
 20
96.2330036377
 30
0.0
 11
353.687525244
 21
105.7981315752
 31
0.0
  0
LINE
  5
2D
100
AcDbEntity
  8
______
  6
CONTINUOUS
 62
         4
100
AcDbLine
 10
340.445304215
 20
96.7985512333
 30
0.0
 11
348.7205232847
 21
105.073770303
 31
0.0
  0
LINE
  5
2E
100
AcDbEntity
  8
______
  6
CONTINUOUS
 62
         4
100
AcDbLine
 10
340.1186748743
 20
100.7145625797
 30
0.0
 11
343.7535213254
 21
104.3494090308
 31
0.0
  0
ENDBLK
  5
2F
100
AcDbEntity
  8
0
  6
CONTINUOUS
100
AcDbBlockEnd
  0
BLOCK
  5
33
100
AcDbEntity
  8
0
100
AcDbBlockBegin
  2
*X1
 70
        65
 10
0.0
 20
0.0
 30
0.0
  3
*X1
  1

  0
LINE
  5
34
100
AcDbEntity
  8
______
  6
CONTINUOUS
 62
         4
100
AcDbLine
 10
459.2470723496
 20
34.9830036377
 30
0.0
 11
460.9686748742
 21
36.7046061623
 31
0.0
  0
LINE
  5
35
100
AcDbEntity
  8
______
  6
CONTINUOUS
 62
         4
100
AcDbLine
 10
473.0720723496
 20
48.8080036377
 30
0.0
 11
476.9206748742
 21
52.6566061623
 31
0.0
  0
LINE
  5
36
100
AcDbEntity
  8
______
  6
CONTINUOUS
 62
         4
100
AcDbLine
 10
455.9557191728
 20
35.934291148
 30
0.0
 11
460.9686748742
 21
40.9472468494
 31
0.0
  0
LINE
  5
37
100
AcDbEntity
  8
______
  6
CONTINUOUS
 62
         4
100
AcDbLine
 10
468.8294316625
 20
48.8080036377
 30
0.0
 11
476.9206748742
 21
56.8992468494
 31
0.0
  0
LINE
  5
38
100
AcDbEntity
  8
______
  6
CONTINUOUS
 62
         4
100
AcDbLine
 10
453.8867909754
 20
38.1080036377
 30
0.0
 11
460.9686748742
 21
45.1898875365
 31
0.0
  0
LINE
  5
39
100
AcDbEntity
  8
______
  6
CONTINUOUS
 62
         4
100
AcDbLine
 10
464.5867909754
 20
48.8080036377
 30
0.0
 11
476.9206748742
 21
61.1418875365
 31
0.0
  0
LINE
  5
3A
100
AcDbEntity
  8
______
  6
CONTINUOUS
 62
         4
100
AcDbLine
 10
446.5199421242
 20
34.9837954736
 30
0.0
 11
476.9206748742
 21
65.3845282237
 31
0.0
  0
LINE
  5
3B
100
AcDbEntity
  8
______
  6
CONTINUOUS
 62
         4
100
AcDbLine
 10
480.2691502882
 20
68.7330036377
 30
0.0
 11
481.9186748742
 21
70.3825282237
 31
0.0
  0
LINE
  5
3C
100
AcDbEntity
  8
______
  6
CONTINUOUS
 62
         4
100
AcDbLine
 10
445.0686748742
 20
37.7751689108
 30
0.0
 11
485.7186748742
 21
78.4251689108
 31
0.0
  0
LINE
  5
3D
100
AcDbEntity
  8
______
  6
CONTINUOUS
 62
         4
100
AcDbLine
 10
445.0686748742
 20
42.0178095979
 30
0.0
 11
485.7186748742
 21
82.6678095979
 31
0.0
  0
LINE
  5
3E
100
AcDbEntity
  8
______
  6
CONTINUOUS
 62
         4
100
AcDbLine
 10
445.0686748742
 20
46.260450285
 30
0.0
 11
482.5412282269
 21
83.7330036377
 31
0.0
  0
LINE
  5
3F
100
AcDbEntity
  8
______
  6
CONTINUOUS
 62
         4
100
AcDbLine
 10
443.8735875398
 20
49.3080036377
 30
0.0
 11
478.2985875398
 21
83.7330036377
 31
0.0
  0
LINE
  5
40
100
AcDbEntity
  8
______
  6
CONTINUOUS
 62
         4
100
AcDbLine
 10
439.4793878275
 20
49.1564446125
 30
0.0
 11
474.0559468526
 21
83.7330036377
 31
0.0
  0
LINE
  5
41
100
AcDbEntity
  8
______
  6
CONTINUOUS
 62
         4
100
AcDbLine
 10
435.7767240283
 20
49.6964215004
 30
0.0
 11
469.8133061655
 21
83.7330036377
 31
0.0
  0
LINE
  5
42
100
AcDbEntity
  8
______
  6
CONTINUOUS
 62
         4
100
AcDbLine
 10
432.0740602291
 20
50.2363983883
 30
0.0
 11
465.5706654784
 21
83.7330036377
 31
0.0
  0
LINE
  5
43
100
AcDbEntity
  8
______
  6
CONTINUOUS
 62
         4
100
AcDbLine
 10
428.3713964298
 20
50.7763752762
 30
0.0
 11
461.3280247913
 21
83.7330036377
 31
0.0
  0
LINE
  5
44
100
AcDbEntity
  8
______
  6
CONTINUOUS
 62
         4
100
AcDbLine
 10
424.6687326306
 20
51.3163521641
 30
0.0
 11
457.0853841042
 21
83.7330036377
 31
0.0
  0
LINE
  5
45
100
AcDbEntity
  8
______
  6
CONTINUOUS
 62
         4
100
AcDbLine
 10
420.9660688314
 20
51.856329052
 30
0.0
 11
452.842743417
 21
83.7330036377
 31
0.0
  0
LINE
  5
46
100
AcDbEntity
  8
______
  6
CONTINUOUS
 62
         4
100
AcDbLine
 10
417.2634050322
 20
52.3963059399
 30
0.0
 11
448.6001027299
 21
83.7330036377
 31
0.0
  0
LINE
  5
47
100
AcDbEntity
  8
______
  6
CONTINUOUS
 62
         4
100
AcDbLine
 10
413.5607412329
 20
52.9362828278
 30
0.0
 11
444.3574620428
 21
83.7330036377
 31
0.0
  0
LINE
  5
48
100
AcDbEntity
  8
______
  6
CONTINUOUS
 62
         4
100
AcDbLine
 10
409.8580774337
 20
53.4762597157
 30
0.0
 11
440.1148213557
 21
83.7330036377
 31
0.0
  0
LINE
  5
49
100
AcDbEntity
  8
______
  6
CONTINUOUS
 62
         4
100
AcDbLine
 10
406.1554136345
 20
54.0162366036
 30
0.0
 11
435.8721806686
 21
83.7330036377
 31
0.0
  0
LINE
  5
4A
100
AcDbEntity
  8
______
  6
CONTINUOUS
 62
         4
100
AcDbLine
 10
402.4527498353
 20
54.5562134915
 30
0.0
 11
431.6295399815
 21
83.7330036377
 31
0.0
  0
LINE
  5
4B
100
AcDbEntity
  8
______
  6
CONTINUOUS
 62
         4
100
AcDbLine
 10
398.750086036
 20
55.0961903794
 30
0.0
 11
427.3868992943
 21
83.7330036377
 31
0.0
  0
LINE
  5
4C
100
AcDbEntity
  8
______
  6
CONTINUOUS
 62
         4
100
AcDbLine
 10
395.0474222368
 20
55.6361672673
 30
0.0
 11
423.1442586072
 21
83.7330036377
 31
0.0
  0
LINE
  5
4D
100
AcDbEntity
  8
______
  6
CONTINUOUS
 62
         4
100
AcDbLine
 10
391.3447584376
 20
56.1761441552
 30
0.0
 11
418.9016179201
 21
83.7330036377
 31
0.0
  0
LINE
  5
4E
100
AcDbEntity
  8
______
  6
CONTINUOUS
 62
         4
100
AcDbLine
 10
387.6420946384
 20
56.716121043
 30
0.0
 11
414.658977233
 21
83.7330036377
 31
0.0
  0
LINE
  5
4F
100
AcDbEntity
  8
______
  6
CONTINUOUS
 62
         4
100
AcDbLine
 10
383.9394308391
 20
57.2560979309
 30
0.0
 11
410.4163365459
 21
83.7330036377
 31
0.0
  0
LINE
  5
50
100
AcDbEntity
  8
______
  6
CONTINUOUS
 62
         4
100
AcDbLine
 10
380.2367670399
 20
57.7960748188
 30
0.0
 11
406.1736958587
 21
83.7330036377
 31
0.0
  0
LINE
  5
51
100
AcDbEntity
  8
______
  6
CONTINUOUS
 62
         4
100
AcDbLine
 10
376.5341032407
 20
58.3360517067
 30
0.0
 11
391.5347137082
 21
73.3366621742
 31
0.0
  0
LINE
  5
52
100
AcDbEntity
  8
______
  6
CONTINUOUS
 62
         4
100
AcDbLine
 10
400.0144568732
 20
81.8164053393
 30
0.0
 11
401.9310551716
 21
83.7330036377
 31
0.0
  0
LINE
  5
53
100
AcDbEntity
  8
______
  6
CONTINUOUS
 62
         4
100
AcDbLine
 10
372.8314394415
 20
58.8760285946
 30
0.0
 11
387.2920730211
 21
73.3366621742
 31
0.0
  0
LINE
  5
54
100
AcDbEntity
  8
______
  6
CONTINUOUS
 62
         4
100
AcDbLine
 10
369.1287756422
 20
59.4160054825
 30
0.0
 11
381.4457737974
 21
71.7330036377
 31
0.0
  0
LINE
  5
55
100
AcDbEntity
  8
______
  6
CONTINUOUS
 62
         4
100
AcDbLine
 10
365.426111843
 20
59.9559823704
 30
0.0
 11
377.2031331103
 21
71.7330036377
 31
0.0
  0
LINE
  5
56
100
AcDbEntity
  8
______
  6
CONTINUOUS
 62
         4
100
AcDbLine
 10
361.7234480438
 20
60.4959592583
 30
0.0
 11
372.9604924231
 21
71.7330036377
 31
0.0
  0
LINE
  5
57
100
AcDbEntity
  8
______
  6
CONTINUOUS
 62
         4
100
AcDbLine
 10
358.0207842446
 20
61.0359361462
 30
0.0
 11
368.717851736
 21
71.7330036377
 31
0.0
  0
LINE
  5
58
100
AcDbEntity
  8
______
  6
CONTINUOUS
 62
         4
100
AcDbLine
 10
354.3181204453
 20
61.5759130341
 30
0.0
 11
364.4752110489
 21
71.7330036377
 31
0.0
  0
LINE
  5
59
100
AcDbEntity
  8
______
  6
CONTINUOUS
 62
         4
100
AcDbLine
 10
350.6154566461
 20
62.115889922
 30
0.0
 11
360.2325703618
 21
71.7330036377
 31
0.0
  0
LINE
  5
5A
100
AcDbEntity
  8
______
  6
CONTINUOUS
 62
         4
100
AcDbLine
 10
346.9127928469
 20
62.6558668099
 30
0.0
 11
355.9899296747
 21
71.7330036377
 31
0.0
  0
LINE
  5
5B
100
AcDbEntity
  8
______
  6
CONTINUOUS
 62
         4
100
AcDbLine
 10
343.2101290477
 20
63.1958436978
 30
0.0
 11
351.7472889875
 21
71.7330036377
 31
0.0
  0
LINE
  5
5C
100
AcDbEntity
  8
______
  6
CONTINUOUS
 62
         4
100
AcDbLine
 10
340.4096425288
 20
64.6379978661
 30
0.0
 11
347.5046483004
 21
71.7330036377
 31
0.0
  0
LINE
  5
5D
100
AcDbEntity
  8
______
  6
CONTINUOUS
 62
         4
100
AcDbLine
 10
340.1186748743
 20
68.5896708986
 30
0.0
 11
342.7620076133
 21
71.2330036377
 31
0.0
  0
ENDBLK
  5
5E
100
AcDbEntity
  8
0
  6
CONTINUOUS
100
AcDbBlockEnd
  0
BLOCK
  5
62
100
AcDbEntity
  8
0
100
AcDbBlockBegin
  2
*X2
 70
        65
 10
0.0
 20
0.0
 30
0.0
  3
*X2
  1

  0
LINE
  5
63
100
AcDbEntity
  8
______
  6
CONTINUOUS
 62
         4
100
AcDbLine
 10
508.4881038698
 20
75.7387537836
 30
0.0
 11
511.1186748742
 21
78.3693247881
 31
0.0
  0
LINE
  5
64
100
AcDbEntity
  8
______
  6
CONTINUOUS
 62
         4
100
AcDbLine
 10
504.1324564242
 20
75.6257470251
 30
0.0
 11
511.1186748742
 21
82.6119654752
 31
0.0
  0
LINE
  5
65
100
AcDbEntity
  8
______
  6
CONTINUOUS
 62
         4
100
AcDbLine
 10
499.7768089785
 20
75.5127402666
 30
0.0
 11
507.9970723496
 21
83.7330036377
 31
0.0
  0
LINE
  5
66
100
AcDbEntity
  8
______
  6
CONTINUOUS
 62
         4
100
AcDbLine
 10
495.4211615329
 20
75.3997335081
 30
0.0
 11
503.7544316625
 21
83.7330036377
 31
0.0
  0
LINE
  5
67
100
AcDbEntity
  8
______
  6
CONTINUOUS
 62
         4
100
AcDbLine
 10
491.0655140872
 20
75.2867267495
 30
0.0
 11
499.5117909753
 21
83.7330036377
 31
0.0
  0
LINE
  5
68
100
AcDbEntity
  8
______
  6
CONTINUOUS
 62
         4
100
AcDbLine
 10
486.7098666416
 20
75.173719991
 30
0.0
 11
495.2691502882
 21
83.7330036377
 31
0.0
  0
LINE
  5
69
100
AcDbEntity
  8
______
  6
CONTINUOUS
 62
         4
100
AcDbLine
 10
485.7186748742
 20
78.4251689108
 30
0.0
 11
491.0265096011
 21
83.7330036377
 31
0.0
  0
LINE
  5
6A
100
AcDbEntity
  8
______
  6
CONTINUOUS
 62
         4
100
AcDbLine
 10
485.7186748742
 20
82.6678095979
 30
0.0
 11
486.783868914
 21
83.7330036377
 31
0.0
  0
ENDBLK
  5
6B
100
AcDbEntity
  8
0
  6
CONTINUOUS
100
AcDbBlockEnd
  0
BLOCK
  5
6F
100
AcDbEntity
  8
0
100
AcDbBlockBegin
  2
*X3
 70
        65
 10
0.0
 20
0.0
 30
0.0
  3
*X3
  1

  0
LINE
  5
70
100
AcDbEntity
  8
______
  6
CONTINUOUS
 62
         4
100
AcDbLine
 10
507.9970723494
 20
83.7330036377
 30
0.0
 11
511.1186748742
 21
86.8546061625
 31
0.0
  0
LINE
  5
71
100
AcDbEntity
  8
______
  6
CONTINUOUS
 62
         4
100
AcDbLine
 10
503.7544316623
 20
83.7330036377
 30
0.0
 11
510.6690119297
 21
90.647583905
 31
0.0
  0
LINE
  5
72
100
AcDbEntity
  8
______
  6
CONTINUOUS
 62
         4
100
AcDbLine
 10
499.5117909752
 20
83.7330036377
 30
0.0
 11
507.5308759934
 21
91.7520886559
 31
0.0
  0
LINE
  5
73
100
AcDbEntity
  8
______
  6
CONTINUOUS
 62
         4
100
AcDbLine
 10
495.2691502881
 20
83.7330036377
 30
0.0
 11
503.3955264615
 21
91.859379811
 31
0.0
  0
LINE
  5
74
100
AcDbEntity
  8
______
  6
CONTINUOUS
 62
         4
100
AcDbLine
 10
491.026509601
 20
83.7330036377
 30
0.0
 11
499.2601769295
 21
91.9666709662
 31
0.0
  0
LINE
  5
75
100
AcDbEntity
  8
______
  6
CONTINUOUS
 62
         4
100
AcDbLine
 10
486.7838689139
 20
83.7330036377
 30
0.0
 11
495.1248273976
 21
92.0739621214
 31
0.0
  0
LINE
  5
76
100
AcDbEntity
  8
______
  6
CONTINUOUS
 62
         4
100
AcDbLine
 10
485.7186748742
 20
86.9104502852
 30
0.0
 11
490.9894778657
 21
92.1812532766
 31
0.0
  0
LINE
  5
77
100
AcDbEntity
  8
______
  6
CONTINUOUS
 62
         4
100
AcDbLine
 10
485.7186748742
 20
91.1530909723
 30
0.0
 11
486.8541283337
 21
92.2885444318
 31
0.0
  0
ENDBLK
  5
78
100
AcDbEntity
  8
0
  6
CONTINUOUS
100
AcDbBlockEnd
  0
BLOCK
  5
7C
100
AcDbEntity
  8
0
100
AcDbBlockBegin
  2
*X4
 70
        65
 10
0.0
 20
0.0
 30
0.0
  3
*X4
  1

  0
LINE
  5
7D
100
AcDbEntity
  8
______
  6
CONTINUOUS
 62
         4
100
AcDbLine
 10
482.541228227
 20
83.7330036377
 30
0.0
 11
485.7186748742
 21
86.9104502849
 31
0.0
  0
LINE
  5
7E
100
AcDbEntity
  8
______
  6
CONTINUOUS
 62
         4
100
AcDbLine
 10
478.2985875399
 20
83.7330036377
 30
0.0
 11
485.7186748742
 21
91.153090972
 31
0.0
  0
LINE
  5
7F
100
AcDbEntity
  8
______
  6
CONTINUOUS
 62
         4
100
AcDbLine
 10
474.0559468528
 20
83.7330036377
 30
0.0
 11
482.9426482771
 21
92.619705062
 31
0.0
  0
LINE
  5
80
100
AcDbEntity
  8
______
  6
CONTINUOUS
 62
         4
100
AcDbLine
 10
469.8133061657
 20
83.7330036377
 30
0.0
 11
481.9186748742
 21
95.8383723462
 31
0.0
  0
LINE
  5
81
100
AcDbEntity
  8
______
  6
CONTINUOUS
 62
         4
100
AcDbLine
 10
465.5706654785
 20
83.7330036377
 30
0.0
 11
480.5706654786
 21
98.7330036377
 31
0.0
  0
LINE
  5
82
100
AcDbEntity
  8
______
  6
CONTINUOUS
 62
         4
100
AcDbLine
 10
461.3280247914
 20
83.7330036377
 30
0.0
 11
477.2415297181
 21
99.6465085643
 31
0.0
  0
LINE
  5
83
100
AcDbEntity
  8
______
  6
CONTINUOUS
 62
         4
100
AcDbLine
 10
457.0853841043
 20
83.7330036377
 30
0.0
 11
476.9206748742
 21
103.5682944076
 31
0.0
  0
LINE
  5
84
100
AcDbEntity
  8
______
  6
CONTINUOUS
 62
         4
100
AcDbLine
 10
452.8427434172
 20
83.7330036377
 30
0.0
 11
476.9206748742
 21
107.8109350947
 31
0.0
  0
LINE
  5
85
100
AcDbEntity
  8
______
  6
CONTINUOUS
 62
         4
100
AcDbLine
 10
448.6001027301
 20
83.7330036377
 30
0.0
 11
476.9206748742
 21
112.0535757818
 31
0.0
  0
LINE
  5
86
100
AcDbEntity
  8
______
  6
CONTINUOUS
 62
         4
100
AcDbLine
 10
444.3574620429
 20
83.7330036377
 30
0.0
 11
476.9206748742
 21
116.2962164689
 31
0.0
  0
LINE
  5
87
100
AcDbEntity
  8
______
  6
CONTINUOUS
 62
         4
100
AcDbLine
 10
440.1148213558
 20
83.7330036377
 30
0.0
 11
475.0398213558
 21
118.6580036377
 31
0.0
  0
LINE
  5
88
100
AcDbEntity
  8
______
  6
CONTINUOUS
 62
         4
100
AcDbLine
 10
435.8721806687
 20
83.7330036377
 30
0.0
 11
470.7971806687
 21
118.6580036377
 31
0.0
  0
LINE
  5
89
100
AcDbEntity
  8
______
  6
CONTINUOUS
 62
         4
100
AcDbLine
 10
431.6295399816
 20
83.7330036377
 30
0.0
 11
466.5545399816
 21
118.6580036377
 31
0.0
  0
LINE
  5
8A
100
AcDbEntity
  8
______
  6
CONTINUOUS
 62
         4
100
AcDbLine
 10
427.3868992945
 20
83.7330036377
 30
0.0
 11
462.3118992945
 21
118.6580036377
 31
0.0
  0
LINE
  5
8B
100
AcDbEntity
  8
______
  6
CONTINUOUS
 62
         4
100
AcDbLine
 10
423.1442586073
 20
83.7330036377
 30
0.0
 11
460.9686748742
 21
121.5574199045
 31
0.0
  0
LINE
  5
8C
100
AcDbEntity
  8
______
  6
CONTINUOUS
 62
         4
100
AcDbLine
 10
418.9016179202
 20
83.7330036377
 30
0.0
 11
460.9686748742
 21
125.8000605917
 31
0.0
  0
LINE
  5
8D
100
AcDbEntity
  8
______
  6
CONTINUOUS
 62
         4
100
AcDbLine
 10
414.6589772331
 20
83.7330036377
 30
0.0
 11
460.9686748742
 21
130.0427012788
 31
0.0
  0
LINE
  5
8E
100
AcDbEntity
  8
______
  6
CONTINUOUS
 62
         4
100
AcDbLine
 10
410.416336546
 20
83.7330036377
 30
0.0
 11
459.166336546
 21
132.4830036377
 31
0.0
  0
LINE
  5
8F
100
AcDbEntity
  8
______
  6
CONTINUOUS
 62
         4
100
AcDbLine
 10
406.1736958589
 20
83.7330036377
 30
0.0
 11
440.967234578
 21
118.5265423568
 31
0.0
  0
LINE
  5
90
100
AcDbEntity
  8
______
  6
CONTINUOUS
 62
         4
100
AcDbLine
 10
445.0686748742
 20
122.627982653
 30
0.0
 11
451.7986958589
 21
129.3580036377
 31
0.0
  0
LINE
  5
91
100
AcDbEntity
  8
______
  6
CONTINUOUS
 62
         4
100
AcDbLine
 10
401.9310551717
 20
83.7330036377
 30
0.0
 11
436.0002326186
 21
117.8021810845
 31
0.0
  0
LINE
  5
92
100
AcDbEntity
  8
______
  6
CONTINUOUS
 62
         4
100
AcDbLine
 10
445.0686748742
 20
126.8706233401
 30
0.0
 11
449.8894423508
 21
131.6913908166
 31
0.0
  0
LINE
  5
93
100
AcDbEntity
  8
______
  6
CONTINUOUS
 62
         4
100
AcDbLine
 10
399.8645899348
 20
85.9091790878
 30
0.0
 11
431.0332306593
 21
117.0778198123
 31
0.0
  0
LINE
  5
94
100
AcDbEntity
  8
______
  6
CONTINUOUS
 62
         4
100
AcDbLine
 10
445.0748969317
 20
131.1194860847
 30
0.0
 11
446.4321924272
 21
132.4767815802
 31
0.0
  0
LINE
  5
95
100
AcDbEntity
  8
______
  6
CONTINUOUS
 62
         4
100
AcDbLine
 10
398.3116756642
 20
88.5989055043
 30
0.0
 11
426.0662287
 21
116.3534585401
 31
0.0
  0
LINE
  5
96
100
AcDbEntity
  8
______
  6
CONTINUOUS
 62
         4
100
AcDbLine
 10
396.7587613936
 20
91.2886319208
 30
0.0
 11
421.0992267407
 21
115.6290972679
 31
0.0
  0
LINE
  5
97
100
AcDbEntity
  8
______
  6
CONTINUOUS
 62
         4
100
AcDbLine
 10
395.2058471229
 20
93.9783583373
 30
0.0
 11
416.1322247813
 21
114.9047359957
 31
0.0
  0
LINE
  5
98
100
AcDbEntity
  8
______
  6
CONTINUOUS
 62
         4
100
AcDbLine
 10
391.1141931996
 20
94.1293451011
 30
0.0
 11
411.165222822
 21
114.1803747235
 31
0.0
  0
LINE
  5
99
100
AcDbEntity
  8
______
  6
CONTINUOUS
 62
         4
100
AcDbLine
 10
386.8715525124
 20
94.1293451011
 30
0.0
 11
406.1982208627
 21
113.4560134513
 31
0.0
  0
LINE
  5
9A
100
AcDbEntity
  8
______
  6
CONTINUOUS
 62
         4
100
AcDbLine
 10
384.2325703619
 20
95.7330036377
 30
0.0
 11
401.2312189033
 21
112.7316521791
 31
0.0
  0
LINE
  5
9B
100
AcDbEntity
  8
______
  6
CONTINUOUS
 62
         4
100
AcDbLine
 10
379.9899296748
 20
95.7330036377
 30
0.0
 11
396.264216944
 21
112.0072909069
 31
0.0
  0
LINE
  5
9C
100
AcDbEntity
  8
______
  6
CONTINUOUS
 62
         4
100
AcDbLine
 10
375.7472889877
 20
95.7330036377
 30
0.0
 11
391.2972149847
 21
111.2829296347
 31
0.0
  0
LINE
  5
9D
100
AcDbEntity
  8
______
  6
CONTINUOUS
 62
         4
100
AcDbLine
 10
371.5046483005
 20
95.7330036377
 30
0.0
 11
386.3302130254
 21
110.5585683625
 31
0.0
  0
LINE
  5
9E
100
AcDbEntity
  8
______
  6
CONTINUOUS
 62
         4
100
AcDbLine
 10
367.2620076134
 20
95.7330036377
 30
0.0
 11
381.363211066
 21
109.8342070902
 31
0.0
  0
LINE
  5
9F
100
AcDbEntity
  8
______
  6
CONTINUOUS
 62
         4
100
AcDbLine
 10
363.0193669263
 20
95.7330036377
 30
0.0
 11
376.3962091067
 21
109.109845818
 31
0.0
  0
LINE
  5
A0
100
AcDbEntity
  8
______
  6
CONTINUOUS
 62
         4
100
AcDbLine
 10
358.7767262392
 20
95.7330036377
 30
0.0
 11
371.4292071474
 21
108.3854845458
 31
0.0
  0
LINE
  5
A1
100
AcDbEntity
  8
______
  6
CONTINUOUS
 62
         4
100
AcDbLine
 10
354.5340855521
 20
95.7330036377
 30
0.0
 11
366.462205188
 21
107.6611232736
 31
0.0
  0
LINE
  5
A2
100
AcDbEntity
  8
______
  6
CONTINUOUS
 62
         4
100
AcDbLine
 10
350.2914448649
 20
95.7330036377
 30
0.0
 11
361.4952032287
 21
106.9367620014
 31
0.0
  0
LINE
  5
A3
100
AcDbEntity
  8
______
  6
CONTINUOUS
 62
         4
100
AcDbLine
 10
354.2529286284
 20
103.9371280883
 30
0.0
 11
356.5282012694
 21
106.2124007292
 31
0.0
  0
ENDBLK
  5
A4
100
AcDbEntity
  8
0
  6
CONTINUOUS
100
AcDbBlockEnd
  0
BLOCK
  5
B0
100
AcDbEntity
  8
0
100
AcDbBlockBegin
  2
*D5
 70
        65
 10
0.0
 20
0.0
 30
0.0
  3
*D5
  1

  0
POINT
  5
B3
100
AcDbEntity
  8
DEFPOINTS
  6
CONTINUOUS
 62
         0
100
AcDbPoint
 10
511.1186748742
 20
406.0958340908
 30
0.0
  0
POINT
  5
B4
100
AcDbEntity
  8
DEFPOINTS
  6
CONTINUOUS
 62
         0
100
AcDbPoint
 10
511.1186748742
 20
279.6055130116
 30
0.0
  0
POINT
  5
B5
100
AcDbEntity
  8
DEFPOINTS
  6
CONTINUOUS
 62
         0
100
AcDbPoint
 10
340.1186748742
 20
291.0650562468
 30
0.0
  0
LINE
  5
B6
100
AcDbEntity
  8
______
  6
CONTINUOUS
 62
         4
100
AcDbLine
 10
511.1186748742
 20
281.3555130116
 30
0.0
 11
511.1186748742
 21
406.9708340908
 31
0.0
  0
LINE
  5
B7
100
AcDbEntity
  8
______
  6
CONTINUOUS
 62
         4
100
AcDbLine
 10
340.1186748742
 20
292.8150562468
 30
0.0
 11
340.1186748742
 21
406.9708340908
 31
0.0
  0
LINE
  5
B8
100
AcDbEntity
  8
______
  6
CONTINUOUS
 62
         4
100
AcDbLine
 10
511.1186748742
 20
406.0958340908
 30
0.0
 11
340.1186748742
 21
406.0958340908
 31
0.0
  0
SOLID
  5
B9
100
AcDbEntity
  8
______
  6
CONTINUOUS
 62
         4
100
AcDbTrace
 10
511.1186748742
 20
406.0958340908
 30
0.0
 11
507.6186748742
 21
405.5708340908
 31
0.0
 12
507.6186748742
 22
406.6208340908
 32
0.0
 13
511.1186748742
 23
406.0958340908
 33
0.0
  0
SOLID
  5
BA
100
AcDbEntity
  8
______
  6
CONTINUOUS
 62
         4
100
AcDbTrace
 10
340.1186748742
 20
406.0958340908
 30
0.0
 11
343.6186748742
 21
406.6208340908
 31
0.0
 12
343.6186748742
 22
405.5708340908
 32
0.0
 13
340.1186748742
 23
406.0958340908
 33
0.0
  0
TEXT
  5
BC
100
AcDbEntity
  8
______
  6
CONTINUOUS
 62
         4
100
AcDbText
 10
420.3686748742
 20
408.7208340908
 30
0.0
 40
3.5
  1
171
  7
BOX
100
AcDbText
  0
ENDBLK
  5
BD
100
AcDbEntity
  8
0
  6
CONTINUOUS
100
AcDbBlockEnd
  0
BLOCK
  5
BF
100
AcDbEntity
  8
0
100
AcDbBlockBegin
  2
*D6
 70
        65
 10
0.0
 20
0.0
 30
0.0
  3
*D6
  1

  0
POINT
  5
C1
100
AcDbEntity
  8
DEFPOINTS
  6
CONTINUOUS
 62
         0
100
AcDbPoint
 10
481.7186748742
 20
394.8110211497
 30
0.0
  0
POINT
  5
C2
100
AcDbEntity
  8
DEFPOINTS
  6
CONTINUOUS
 62
         0
100
AcDbPoint
 10
481.7186748742
 20
283.7729694998
 30
0.0
  0
POINT
  5
C3
100
AcDbEntity
  8
DEFPOINTS
  6
CONTINUOUS
 62
         0
100
AcDbPoint
 10
441.8686748742
 20
312.8655956888
 30
0.0
  0
LINE
  5
C4
100
AcDbEntity
  8
______
  6
CONTINUOUS
 62
         4
100
AcDbLine
 10
481.7186748742
 20
285.5229694998
 30
0.0
 11
481.7186748742
 21
395.6860211497
 31
0.0
  0
LINE
  5
C5
100
AcDbEntity
  8
______
  6
CONTINUOUS
 62
         4
100
AcDbLine
 10
441.8686748742
 20
314.6155956888
 30
0.0
 11
441.8686748742
 21
395.6860211497
 31
0.0
  0
LINE
  5
C6
100
AcDbEntity
  8
______
  6
CONTINUOUS
 62
         4
100
AcDbLine
 10
481.7186748742
 20
394.8110211497
 30
0.0
 11
441.8686748742
 21
394.8110211497
 31
0.0
  0
SOLID
  5
C7
100
AcDbEntity
  8
______
  6
CONTINUOUS
 62
         4
100
AcDbTrace
 10
481.7186748742
 20
394.8110211497
 30
0.0
 11
478.2186748742
 21
394.2860211497
 31
0.0
 12
478.2186748742
 22
395.3360211497
 32
0.0
 13
481.7186748742
 23
394.8110211497
 33
0.0
  0
SOLID
  5
C8
100
AcDbEntity
  8
______
  6
CONTINUOUS
 62
         4
100
AcDbTrace
 10
441.8686748742
 20
394.8110211497
 30
0.0
 11
445.3686748742
 21
395.3360211497
 31
0.0
 12
445.3686748742
 22
394.2860211497
 32
0.0
 13
441.8686748742
 23
394.8110211497
 33
0.0
  0
TEXT
  5
CA
100
AcDbEntity
  8
______
  6
CONTINUOUS
 62
         4
100
AcDbText
 10
458.2936748742
 20
397.4360211497
 30
0.0
 40
3.5
  1
40
  7
BOX
100
AcDbText
  0
ENDBLK
  5
CB
100
AcDbEntity
  8
0
  6
CONTINUOUS
100
AcDbBlockEnd
  0
BLOCK
  5
DC
100
AcDbEntity
  8
0
100
AcDbBlockBegin
  2
*D7
 70
        65
 10
0.0
 20
0.0
 30
0.0
  3
*D7
  1

  0
POINT
  5
DE
100
AcDbEntity
  8
DEFPOINTS
  6
CONTINUOUS
 62
         0
100
AcDbPoint
 10
547.6220598815
 20
75.8070036377
 30
0.0
  0
POINT
  5
DF
100
AcDbEntity
  8
DEFPOINTS
  6
CONTINUOUS
 62
         0
100
AcDbPoint
 10
511.1186748742
 20
75.8070036377
 30
0.0
  0
POINT
  5
E0
100
AcDbEntity
  8
DEFPOINTS
  6
CONTINUOUS
 62
         0
100
AcDbPoint
 10
511.1186748742
 20
91.6590036377
 30
0.0
  0
LINE
  5
E1
100
AcDbEntity
  8
______
  6
CONTINUOUS
 62
         4
100
AcDbLine
 10
512.8686748742
 20
75.8070036377
 30
0.0
 11
548.4970598815
 21
75.8070036377
 31
0.0
  0
LINE
  5
E2
100
AcDbEntity
  8
______
  6
CONTINUOUS
 62
         4
100
AcDbLine
 10
512.8686748742
 20
91.6590036377
 30
0.0
 11
548.4970598815
 21
91.6590036377
 31
0.0
  0
LINE
  5
E3
100
AcDbEntity
  8
______
  6
CONTINUOUS
 62
         4
100
AcDbLine
 10
547.6220598815
 20
75.8070036377
 30
0.0
 11
547.6220598815
 21
91.6590036377
 31
0.0
  0
SOLID
  5
E4
100
AcDbEntity
  8
______
  6
CONTINUOUS
 62
         4
100
AcDbTrace
 10
547.6220598815
 20
75.8070036377
 30
0.0
 11
547.0970598815
 21
79.3070036377
 31
0.0
 12
548.1470598815
 22
79.3070036377
 32
0.0
 13
547.6220598815
 23
75.8070036377
 33
0.0
  0
SOLID
  5
E5
100
AcDbEntity
  8
______
  6
CONTINUOUS
 62
         4
100
AcDbTrace
 10
547.6220598815
 20
91.6590036377
 30
0.0
 11
548.1470598815
 21
88.1590036377
 31
0.0
 12
547.0970598815
 22
88.1590036377
 32
0.0
 13
547.6220598815
 23
91.6590036377
 33
0.0
  0
TEXT
  5
E7
100
AcDbEntity
  8
______
  6
CONTINUOUS
 62
         4
100
AcDbText
 10
544.9970598815
 20
72.8524549842
 30
0.0
 40
3.5
  1
崷15.852
 50
90.0
  7
BOX
100
AcDbText
  0
ENDBLK
  5
E8
100
AcDbEntity
  8
0
  6
CONTINUOUS
100
AcDbBlockEnd
  0
BLOCK
  5
EE
100
AcDbEntity
  8
0
100
AcDbBlockBegin
  2
*D8
 70
        65
 10
0.0
 20
0.0
 30
0.0
  3
*D8
  1

  0
POINT
  5
F0
100
AcDbEntity
  8
DEFPOINTS
  6
CONTINUOUS
 62
         0
100
AcDbPoint
 10
544.086684707
 20
288.1405956888
 30
0.0
  0
POINT
  5
F1
100
AcDbEntity
  8
DEFPOINTS
  6
CONTINUOUS
 62
         0
100
AcDbPoint
 10
476.7082020023
 20
288.1405956888
 30
0.0
  0
POINT
  5
F2
100
AcDbEntity
  8
DEFPOINTS
  6
CONTINUOUS
 62
         0
100
AcDbPoint
 10
476.4135860426
 20
258.1405956888
 30
0.0
  0
LINE
  5
F3
100
AcDbEntity
  8
______
  6
CONTINUOUS
 62
         4
100
AcDbLine
 10
478.4582020023
 20
288.1405956888
 30
0.0
 11
544.961684707
 21
288.1405956888
 31
0.0
  0
LINE
  5
F4
100
AcDbEntity
  8
______
  6
CONTINUOUS
 62
         4
100
AcDbLine
 10
478.1635860426
 20
258.1405956888
 30
0.0
 11
544.961684707
 21
258.1405956888
 31
0.0
  0
LINE
  5
F5
100
AcDbEntity
  8
______
  6
CONTINUOUS
 62
         4
100
AcDbLine
 10
544.086684707
 20
288.1405956888
 30
0.0
 11
544.086684707
 21
258.1405956888
 31
0.0
  0
SOLID
  5
F6
100
AcDbEntity
  8
______
  6
CONTINUOUS
 62
         4
100
AcDbTrace
 10
544.086684707
 20
288.1405956888
 30
0.0
 11
544.611684707
 21
284.6405956888
 31
0.0
 12
543.561684707
 22
284.6405956888
 32
0.0
 13
544.086684707
 23
288.1405956888
 33
0.0
  0
SOLID
  5
F7
100
AcDbEntity
  8
______
  6
CONTINUOUS
 62
         4
100
AcDbTrace
 10
544.086684707
 20
258.1405956888
 30
0.0
 11
543.561684707
 21
261.6405956888
 31
0.0
 12
544.611684707
 22
261.6405956888
 32
0.0
 13
544.086684707
 23
258.1405956888
 33
0.0
  0
TEXT
  5
F9
100
AcDbEntity
  8
______
  6
CONTINUOUS
 62
         4
100
AcDbText
 10
541.461684707
 20
265.9051172434
 30
0.0
 40
3.5
  1
崷30
 50
90.0
  7
BOX
100
AcDbText
  0
ENDBLK
  5
FA
100
AcDbEntity
  8
0
  6
CONTINUOUS
100
AcDbBlockEnd
  0
BLOCK
  5
105
100
AcDbEntity
  8
0
100
AcDbBlockBegin
  2
*D9
 70
        65
 10
0.0
 20
0.0
 30
0.0
  3
*D9
  1

  0
POINT
  5
107
100
AcDbEntity
  8
DEFPOINTS
  6
CONTINUOUS
 62
         0
100
AcDbPoint
 10
527.7513115119
 20
281.7255956888
 30
0.0
  0
POINT
  5
108
100
AcDbEntity
  8
DEFPOINTS
  6
CONTINUOUS
 62
         0
100
AcDbPoint
 10
485.7186748742
 20
281.7255956888
 30
0.0
  0
POINT
  5
109
100
AcDbEntity
  8
DEFPOINTS
  6
CONTINUOUS
 62
         0
100
AcDbPoint
 10
485.7186748742
 20
264.5555956888
 30
0.0
  0
LINE
  5
10A
100
AcDbEntity
  8
______
  6
CONTINUOUS
 62
         4
100
AcDbLine
 10
487.4686748742
 20
281.7255956888
 30
0.0
 11
528.6263115119
 21
281.7255956888
 31
0.0
  0
LINE
  5
10B
100
AcDbEntity
  8
______
  6
CONTINUOUS
 62
         4
100
AcDbLine
 10
487.4686748742
 20
264.5555956888
 30
0.0
 11
528.6263115119
 21
264.5555956888
 31
0.0
  0
LINE
  5
10C
100
AcDbEntity
  8
______
  6
CONTINUOUS
 62
         4
100
AcDbLine
 10
527.7513115119
 20
281.7255956888
 30
0.0
 11
527.7513115119
 21
264.5555956888
 31
0.0
  0
SOLID
  5
10D
100
AcDbEntity
  8
______
  6
CONTINUOUS
 62
         4
100
AcDbTrace
 10
527.7513115119
 20
281.7255956888
 30
0.0
 11
528.2763115119
 21
278.2255956888
 31
0.0
 12
527.2263115119
 22
278.2255956888
 32
0.0
 13
527.7513115119
 23
281.7255956888
 33
0.0
  0
LINE
  5
10E
100
AcDbEntity
  8
______
  6
CONTINUOUS
 62
         4
100
AcDbLine
 10
527.7513115119
 20
281.7255956888
 30
0.0
 11
527.7513115119
 21
309.9876891684
 31
0.0
  0
SOLID
  5
10F
100
AcDbEntity
  8
______
  6
CONTINUOUS
 62
         4
100
AcDbTrace
 10
527.7513115119
 20
264.5555956888
 30
0.0
 11
527.2263115119
 21
268.0555956888
 31
0.0
 12
528.2763115119
 22
268.0555956888
 32
0.0
 13
527.7513115119
 23
264.5555956888
 33
0.0
  0
TEXT
  5
111
100
AcDbEntity
  8
______
  6
CONTINUOUS
 62
         4
100
AcDbText
 10
525.1263115119
 20
283.7376891684
 30
0.0
 40
3.5
  1
崷17.17
 50
90.0
  7
BOX
100
AcDbText
  0
ENDBLK
  5
112
100
AcDbEntity
  8
0
  6
CONTINUOUS
100
AcDbBlockEnd
  0
BLOCK
  5
119
100
AcDbEntity
  8
0
100
AcDbBlockBegin
  2
*X10
 70
        65
 10
0.0
 20
0.0
 30
0.0
  3
*X10
  1

  0
LINE
  5
11A
100
AcDbEntity
  8
______
  6
CONTINUOUS
 62
         4
100
AcDbLine
 10
381.4457737973
 20
71.7330036377
 30
0.0
 11
383.0494323339
 21
73.3366621742
 31
0.0
  0
LINE
  5
11B
100
AcDbEntity
  8
______
  6
CONTINUOUS
 62
         4
100
AcDbLine
 10
377.2031331102
 20
71.7330036377
 30
0.0
 11
378.8067916468
 21
73.3366621742
 31
0.0
  0
LINE
  5
11C
100
AcDbEntity
  8
______
  6
CONTINUOUS
 62
         4
100
AcDbLine
 10
372.9604924231
 20
71.7330036377
 30
0.0
 11
374.5641509596
 21
73.3366621742
 31
0.0
  0
LINE
  5
11D
100
AcDbEntity
  8
______
  6
CONTINUOUS
 62
         4
100
AcDbLine
 10
368.7178517359
 20
71.7330036377
 30
0.0
 11
370.3215102725
 21
73.3366621742
 31
0.0
  0
LINE
  5
11E
100
AcDbEntity
  8
______
  6
CONTINUOUS
 62
         4
100
AcDbLine
 10
364.4752110488
 20
71.7330036377
 30
0.0
 11
366.0788695854
 21
73.3366621742
 31
0.0
  0
LINE
  5
11F
100
AcDbEntity
  8
______
  6
CONTINUOUS
 62
         4
100
AcDbLine
 10
360.2325703617
 20
71.7330036377
 30
0.0
 11
361.8362288983
 21
73.3366621742
 31
0.0
  0
LINE
  5
120
100
AcDbEntity
  8
______
  6
CONTINUOUS
 62
         4
100
AcDbLine
 10
355.9899296746
 20
71.7330036377
 30
0.0
 11
357.5935882112
 21
73.3366621742
 31
0.0
  0
LINE
  5
121
100
AcDbEntity
  8
______
  6
CONTINUOUS
 62
         4
100
AcDbLine
 10
351.7472889875
 20
71.7330036377
 30
0.0
 11
353.350947524
 21
73.3366621742
 31
0.0
  0
LINE
  5
122
100
AcDbEntity
  8
______
  6
CONTINUOUS
 62
         4
100
AcDbLine
 10
347.5046483003
 20
71.7330036377
 30
0.0
 11
349.1083068369
 21
73.3366621742
 31
0.0
  0
ENDBLK
  5
123
100
AcDbEntity
  8
0
  6
CONTINUOUS
100
AcDbBlockEnd
  0
BLOCK
  5
127
100
AcDbEntity
  8
0
100
AcDbBlockBegin
  2
*X11
 70
        65
 10
0.0
 20
0.0
 30
0.0
  3
*X11
  1

  0
LINE
  5
128
100
AcDbEntity
  8
______
  6
CONTINUOUS
 62
         4
100
AcDbLine
 10
382.6289118252
 20
94.1293451011
 30
0.0
 11
384.2325703618
 21
95.7330036377
 31
0.0
  0
LINE
  5
129
100
AcDbEntity
  8
______
  6
CONTINUOUS
 62
         4
100
AcDbLine
 10
378.3862711381
 20
94.1293451011
 30
0.0
 11
379.9899296746
 21
95.7330036377
 31
0.0
  0
LINE
  5
12A
100
AcDbEntity
  8
______
  6
CONTINUOUS
 62
         4
100
AcDbLine
 10
374.1436304509
 20
94.1293451011
 30
0.0
 11
375.7472889875
 21
95.7330036377
 31
0.0
  0
LINE
  5
12B
100
AcDbEntity
  8
______
  6
CONTINUOUS
 62
         4
100
AcDbLine
 10
369.9009897638
 20
94.1293451011
 30
0.0
 11
371.5046483004
 21
95.7330036377
 31
0.0
  0
LINE
  5
12C
100
AcDbEntity
  8
______
  6
CONTINUOUS
 62
         4
100
AcDbLine
 10
365.6583490767
 20
94.1293451011
 30
0.0
 11
367.2620076133
 21
95.7330036377
 31
0.0
  0
LINE
  5
12D
100
AcDbEntity
  8
______
  6
CONTINUOUS
 62
         4
100
AcDbLine
 10
361.4157083896
 20
94.1293451011
 30
0.0
 11
363.0193669262
 21
95.7330036377
 31
0.0
  0
LINE
  5
12E
100
AcDbEntity
  8
______
  6
CONTINUOUS
 62
         4
100
AcDbLine
 10
357.1730677025
 20
94.1293451011
 30
0.0
 11
358.7767262391
 21
95.7330036377
 31
0.0
  0
LINE
  5
12F
100
AcDbEntity
  8
______
  6
CONTINUOUS
 62
         4
100
AcDbLine
 10
352.9304270153
 20
94.1293451011
 30
0.0
 11
354.5340855519
 21
95.7330036377
 31
0.0
  0
LINE
  5
130
100
AcDbEntity
  8
______
  6
CONTINUOUS
 62
         4
100
AcDbLine
 10
348.6877863282
 20
94.1293451011
 30
0.0
 11
350.2914448648
 21
95.7330036377
 31
0.0
  0
ENDBLK
  5
131
100
AcDbEntity
  8
0
  6
CONTINUOUS
100
AcDbBlockEnd
  0
ENDSEC
  0
SECTION
  2
ENTITIES
  0
INSERT
  5
31
100
AcDbEntity
  8
0
  6
CONTINUOUS
100
AcDbBlockReference
  2
*X0
 10
0.0
 20
0.0
 30
0.0
  0
INSERT
  5
60
100
AcDbEntity
  8
0
  6
CONTINUOUS
100
AcDbBlockReference
  2
*X1
 10
0.0
 20
0.0
 30
0.0
  0
INSERT
  5
6D
100
AcDbEntity
  8
0
  6
CONTINUOUS
100
AcDbBlockReference
  2
*X2
 10
0.0
 20
0.0
 30
0.0
  0
INSERT
  5
7A
100
AcDbEntity
  8
0
  6
CONTINUOUS
100
AcDbBlockReference
  2
*X3
 10
0.0
 20
0.0
 30
0.0
  0
INSERT
  5
A6
100
AcDbEntity
  8
0
  6
CONTINUOUS
100
AcDbBlockReference
  2
*X4
 10
0.0
 20
0.0
 30
0.0
  0
LINE
  5
A7
100
AcDbEntity
  8
______
  6
CONTINUOUS
 62
         7
100
AcDbLine
 10
401.1210054167
 20
83.7330036377
 30
0.0
 11
395.1186748742
 21
73.3366621742
 31
0.0
  0
LINE
  5
A8
100
AcDbEntity
  8
______
  6
CONTINUOUS
 62
         7
100
AcDbLine
 10
401.1210054167
 20
83.7330036377
 30
0.0
 11
395.1186748743
 21
94.1293451011
 31
0.0
  0
LINE
  5
A9
100
AcDbEntity
  8
______
  6
CONTINUOUS
 62
         7
100
AcDbLine
 10
395.1186748742
 20
73.3366621742
 30
0.0
 11
395.1186748743
 21
94.1293451011
 31
0.0
  0
ARC
  5
AA
100
AcDbEntity
  8
______
  6
CONTINUOUS
 62
         7
100
AcDbCircle
 10
478.9206748742
 20
100.7330036377
 30
0.0
 40
2.0
100
AcDbArc
 50
180.0
 51
270.0
  0
ARC
  5
AB
100
AcDbEntity
  8
______
  6
CONTINUOUS
 62
         7
100
AcDbCircle
 10
478.9206748742
 20
66.7330036377
 30
0.0
 40
2.0
100
AcDbArc
 50
90.0
 51
180.0
  0
ARC
  5
AC
100
AcDbEntity
  8
______
  6
CONTINUOUS
 62
         7
100
AcDbCircle
 10
478.9206748742
 20
256.1405956888
 30
0.0
 40
2.0
100
AcDbArc
 50
90.0
 51
180.0
  0
ARC
  5
AD
100
AcDbEntity
  8
______
  6
CONTINUOUS
 62
         7
100
AcDbCircle
 10
478.9206748742
 20
290.1405956888
 30
0.0
 40
2.0
100
AcDbArc
 50
180.0
 51
270.0
  0
DIMENSION
  5
B1
100
AcDbEntity
  8
______
  6
CONTINUOUS
 62
         4
100
AcDbDimension
  2
*D5
 10
511.1186748742
 20
406.0958340908
 30
0.0
 11
420.3686748742
 21
408.7208340908
 31
0.0
  3
DIMSTYLE1
100
AcDbAlignedDimension
 13
511.1186748742
 23
279.6055130116
 33
0.0
 14
340.1186748742
 24
291.0650562468
 34
0.0
100
AcDbRotatedDimension
  0
DIMENSION
  5
C0
100
AcDbEntity
  8
______
  6
CONTINUOUS
 62
         4
100
AcDbDimension
  2
*D6
 10
481.7186748742
 20
394.8110211497
 30
0.0
 11
458.2936748742
 21
397.4360211497
 31
0.0
  3
DIMSTYLE1
100
AcDbAlignedDimension
 13
481.7186748742
 23
283.7729694998
 33
0.0
 14
441.8686748742
 24
312.8655956888
 34
0.0
100
AcDbRotatedDimension
  0
LINE
  5
CC
100
AcDbEntity
  8
______
  6
CONTINUOUS
 62
         7
100
AcDbLine
 10
481.9186748742
 20
94.3653774487
 30
0.0
 11
481.9186748742
 21
97.7330036377
 31
0.0
  0
ARC
  5
CD
100
AcDbEntity
  8
______
  6
CONTINUOUS
 62
         7
100
AcDbCircle
 10
480.9186748742
 20
69.7330036377
 30
0.0
 40
1.0
100
AcDbArc
 50
270.0
 51
360.0
  0
ARC
  5
CE
100
AcDbEntity
  8
______
  6
CONTINUOUS
 62
         7
100
AcDbCircle
 10
480.9186748742
 20
97.7330036377
 30
0.0
 40
1.0
100
AcDbArc
 50
0.0
 51
90.0
  0
LINE
  5
CF
100
AcDbEntity
  8
______
  6
CONTINUOUS
 62
         7
100
AcDbLine
 10
481.9186748742
 20
69.7330036377
 30
0.0
 11
481.9186748742
 21
73.1006298266
 31
0.0
  0
LINE
  5
D0
100
AcDbEntity
  8
______
  6
CONTINUOUS
 62
         7
100
AcDbLine
 10
480.9186748742
 20
68.7330036377
 30
0.0
 11
478.9206748742
 21
68.7330036377
 31
0.0
  0
LINE
  5
D1
100
AcDbEntity
  8
______
  6
CONTINUOUS
 62
         7
100
AcDbLine
 10
480.9186748742
 20
98.7330036377
 30
0.0
 11
478.9206748742
 21
98.7330036377
 31
0.0
  0
LINE
  5
D2
100
AcDbEntity
  8
______
  6
CONTINUOUS
 62
         7
100
AcDbLine
 10
509.6186748742
 20
75.7680863148
 30
0.0
 11
511.1186748742
 21
77.2680863148
 31
0.0
  0
LINE
  5
D3
100
AcDbEntity
  8
______
  6
CONTINUOUS
 62
         7
100
AcDbLine
 10
509.6186748742
 20
91.6979209605
 30
0.0
 11
511.1186748742
 21
90.1979209605
 31
0.0
  0
LINE
  5
D4
100
AcDbEntity
  8
______
  6
CONTINUOUS
 62
         7
100
AcDbLine
 10
511.1186748742
 20
77.2680863148
 30
0.0
 11
511.1186748742
 21
90.1979209605
 31
0.0
  0
ARC
  5
D5
100
AcDbEntity
  8
______
  6
CONTINUOUS
 62
         7
100
AcDbCircle
 10
483.9186748742
 20
94.3653774487
 30
0.0
 40
2.0
100
AcDbArc
 50
180.0
 51
268.5138011797
  0
ARC
  5
D6
100
AcDbEntity
  8
______
  6
CONTINUOUS
 62
         7
100
AcDbCircle
 10
483.9186748742
 20
73.1006298266
 30
0.0
 40
2.0
100
AcDbArc
 50
91.4861988203
 51
180.0
  0
LINE
  5
D7
100
AcDbEntity
  8
______
  6
CONTINUOUS
 62
         7
100
AcDbLine
 10
509.6186748742
 20
75.7680863148
 30
0.0
 11
483.8668025661
 21
75.0999570293
 31
0.0
  0
LINE
  5
D8
100
AcDbEntity
  8
______
  6
CONTINUOUS
 62
         7
100
AcDbLine
 10
483.8668025661
 20
92.366050246
 30
0.0
 11
509.6186748742
 21
91.6979209605
 31
0.0
  0
LINE
  5
D9
100
AcDbEntity
  8
______
  6
CENTER
 62
         1
100
AcDbLine
 10
485.7186748742
 20
74.1130576659
 30
0.0
 11
485.7186748742
 21
93.9207865817
 31
0.0
  0
LINE
  5
DA
100
AcDbEntity
  8
______
  6
CENTER
 62
         1
100
AcDbLine
 10
514.4137479577
 20
83.7330036377
 30
0.0
 11
476.1196553658
 21
83.7330036377
 31
0.0
  0
DIMENSION
  5
DD
100
AcDbEntity
  8
______
  6
CONTINUOUS
 62
         4
100
AcDbDimension
  2
*D7
 10
547.6220598815
 20
75.8070036377
 30
0.0
 11
544.9970598815
 21
72.8524549842
 31
0.0
  3
DIMSTYLE1
100
AcDbAlignedDimension
 13
511.1186748742
 23
75.8070036377
 33
0.0
 14
511.1186748742
 24
91.6590036377
 34
0.0
 50
90.0
100
AcDbRotatedDimension
  0
LINE
  5
E9
100
AcDbEntity
  8
______
  6
CONTINUOUS
 62
         4
100
AcDbLine
 10
485.7598219655
 20
92.3180036377
 30
0.0
 11
485.7186748742
 21
92.3180036377
 31
0.0
  0
ARC
  5
EA
100
AcDbEntity
  8
______
  6
CONTINUOUS
 62
         7
100
AcDbCircle
 10
480.7186748742
 20
259.1405956888
 30
0.0
 40
1.0
100
AcDbArc
 50
270.0
 51
360.0
  0
ARC
  5
EB
100
AcDbEntity
  8
______
  6
CONTINUOUS
 62
         7
100
AcDbCircle
 10
480.7186748742
 20
287.1405956888
 30
0.0
 40
1.0
100
AcDbArc
 50
0.0
 51
90.0
  0
LINE
  5
EC
100
AcDbEntity
  8
______
  6
CONTINUOUS
 62
         7
100
AcDbLine
 10
481.7186748742
 20
259.1405956888
 30
0.0
 11
481.7186748742
 21
287.1405956888
 31
0.0
  0
DIMENSION
  5
EF
100
AcDbEntity
  8
______
  6
CONTINUOUS
 62
         4
100
AcDbDimension
  2
*D8
 10
544.086684707
 20
288.1405956888
 30
0.0
 11
541.461684707
 21
265.9051172434
 31
0.0
  3
DIMSTYLE1
100
AcDbAlignedDimension
 13
476.7082020023
 23
288.1405956888
 33
0.0
 14
476.4135860426
 24
258.1405956888
 34
0.0
 50
90.0
100
AcDbRotatedDimension
  0
LINE
  5
FB
100
AcDbEntity
  8
______
  6
CONTINUOUS
 62
         7
100
AcDbLine
 10
480.7186748742
 20
258.1405956888
 30
0.0
 11
478.9206748742
 21
258.1405956888
 31
0.0
  0
LINE
  5
FC
100
AcDbEntity
  8
______
  6
CONTINUOUS
 62
         7
100
AcDbLine
 10
480.7186748742
 20
288.1405956888
 30
0.0
 11
478.9206748742
 21
288.1405956888
 31
0.0
  0
LINE
  5
FD
100
AcDbEntity
  8
______
  6
CONTINUOUS
 62
         7
100
AcDbLine
 10
511.1186748742
 20
266.6756783659
 30
0.0
 11
511.1186748742
 21
279.6055130116
 31
0.0
  0
LINE
  5
FE
100
AcDbEntity
  8
______
  6
CENTER
 62
         1
100
AcDbLine
 10
485.7186748742
 20
263.520649717
 30
0.0
 11
485.7186748742
 21
283.3283786328
 31
0.0
  0
LINE
  5
FF
100
AcDbEntity
  8
______
  6
CONTINUOUS
 62
         7
100
AcDbLine
 10
483.6668025661
 20
281.7736422971
 30
0.0
 11
509.6186748742
 21
281.1055130116
 31
0.0
  0
LINE
  5
100
100
AcDbEntity
  8
______
  6
CONTINUOUS
 62
         7
100
AcDbLine
 10
509.6186748742
 20
265.1756783659
 30
0.0
 11
483.6668025661
 21
264.5075490805
 31
0.0
  0
LINE
  5
101
100
AcDbEntity
  8
______
  6
CONTINUOUS
 62
         7
100
AcDbLine
 10
509.6186748742
 20
265.1756783659
 30
0.0
 11
509.6186748742
 21
281.1055130116
 31
0.0
  0
LINE
  5
102
100
AcDbEntity
  8
______
  6
CONTINUOUS
 62
         7
100
AcDbLine
 10
509.6186748742
 20
281.1055130116
 30
0.0
 11
511.1186748742
 21
279.6055130116
 31
0.0
  0
LINE
  5
103
100
AcDbEntity
  8
______
  6
CONTINUOUS
 62
         7
100
AcDbLine
 10
509.6186748742
 20
265.1756783659
 30
0.0
 11
511.1186748742
 21
266.6756783659
 31
0.0
  0
DIMENSION
  5
106
100
AcDbEntity
  8
______
  6
CONTINUOUS
 62
         4
100
AcDbDimension
  2
*D9
 10
527.7513115119
 20
281.7255956888
 30
0.0
 11
525.1263115119
 21
283.7376891684
 31
0.0
  3
DIMSTYLE1
100
AcDbAlignedDimension
 13
485.7186748742
 23
281.7255956888
 33
0.0
 14
485.7186748742
 24
264.5555956888
 34
0.0
 50
90.0
100
AcDbRotatedDimension
  0
ARC
  5
113
100
AcDbEntity
  8
______
  6
CONTINUOUS
 62
         7
100
AcDbCircle
 10
483.7186748742
 20
283.7729694998
 30
0.0
 40
2.0
100
AcDbArc
 50
180.0
 51
268.5138011797
  0
ARC
  5
114
100
AcDbEntity
  8
______
  6
CONTINUOUS
 62
         7
100
AcDbCircle
 10
483.7186748742
 20
262.5082218777
 30
0.0
 40
2.0
100
AcDbArc
 50
91.4861988203
 51
180.0
  0
CIRCLE
  5
115
100
AcDbEntity
  8
______
  6
CONTINUOUS
 62
         7
100
AcDbCircle
 10
737.8921161223
 20
273.1405956888
 30
0.0
 40
15.0
  0
CIRCLE
  5
116
100
AcDbEntity
  8
______
  6
CONTINUOUS
 62
         7
100
AcDbCircle
 10
737.8921161223
 20
273.1405956888
 30
0.0
 40
8.585
  0
CIRCLE
  5
117
100
AcDbEntity
  8
______
  6
CONTINUOUS
 62
         7
100
AcDbCircle
 10
737.8921161223
 20
273.1405956888
 30
0.0
 40
7.926
  0
INSERT
  5
125
100
AcDbEntity
  8
0
  6
CONTINUOUS
100
AcDbBlockReference
  2
*X10
 10
0.0
 20
0.0
 30
0.0
  0
INSERT
  5
133
100
AcDbEntity
  8
0
  6
CONTINUOUS
100
AcDbBlockReference
  2
*X11
 10
0.0
 20
0.0
 30
0.0
  0
LINE
  5
134
100
AcDbEntity
  8
______
  6
CONTINUOUS
 62
         7
100
AcDbLine
 10
187.7674335602
 20
260.7905956888
 30
0.0
 11
187.7674335602
 21
285.4905956888
 31
0.0
  0
LINE
  5
135
100
AcDbEntity
  8
______
  6
CONTINUOUS
 62
         7
100
AcDbLine
 10
188.7674335602
 20
260.2905956888
 30
0.0
 11
188.7674335602
 21
285.9905956888
 31
0.0
  0
LINE
  5
136
100
AcDbEntity
  8
______
  6
CONTINUOUS
 62
         7
100
AcDbLine
 10
178.0262311795
 20
260.2905956888
 30
0.0
 11
187.2674335602
 21
260.2905956888
 31
0.0
  0
LINE
  5
137
100
AcDbEntity
  8
______
  6
CONTINUOUS
 62
         7
100
AcDbLine
 10
177.0262311795
 20
259.2905956888
 30
0.0
 11
187.7674335602
 21
259.2905956888
 31
0.0
  0
LINE
  5
138
100
AcDbEntity
  8
______
  6
CONTINUOUS
 62
         7
100
AcDbLine
 10
177.0262311795
 20
259.2905956888
 30
0.0
 11
178.0262311795
 21
260.2905956888
 31
0.0
  0
LINE
  5
139
100
AcDbEntity
  8
______
  6
CONTINUOUS
 62
         7
100
AcDbLine
 10
177.0262311795
 20
286.9905956888
 30
0.0
 11
178.0262311795
 21
285.9905956888
 31
0.0
  0
LINE
  5
13A
100
AcDbEntity
  8
______
  6
CONTINUOUS
 62
         7
100
AcDbLine
 10
178.0262311795
 20
285.9905956888
 30
0.0
 11
187.2674335602
 21
285.9905956888
 31
0.0
  0
LINE
  5
13B
100
AcDbEntity
  8
______
  6
CONTINUOUS
 62
         7
100
AcDbLine
 10
177.0262311795
 20
286.9905956888
 30
0.0
 11
187.7674335602
 21
286.9905956888
 31
0.0
  0
LINE
  5
13C
100
AcDbEntity
  8
______
  6
CONTINUOUS
 62
         7
100
AcDbLine
 10
261.4674335602
 20
260.7905956888
 30
0.0
 11
261.4674335602
 21
285.4905956888
 31
0.0
  0
LINE
  5
13D
100
AcDbEntity
  8
______
  6
CONTINUOUS
 62
         7
100
AcDbLine
 10
269.508635941
 20
285.9905956888
 30
0.0
 11
261.9674335602
 21
285.9905956888
 31
0.0
  0
LINE
  5
13E
100
AcDbEntity
  8
______
  6
CONTINUOUS
 62
         7
100
AcDbLine
 10
270.508635941
 20
286.9905956888
 30
0.0
 11
261.4674335602
 21
286.9905956888
 31
0.0
  0
LINE
  5
13F
100
AcDbEntity
  8
______
  6
CONTINUOUS
 62
         7
100
AcDbLine
 10
270.508635941
 20
286.9905956888
 30
0.0
 11
269.508635941
 21
285.9905956888
 31
0.0
  0
LINE
  5
140
100
AcDbEntity
  8
______
  6
CONTINUOUS
 62
         7
100
AcDbLine
 10
269.508635941
 20
260.2905956888
 30
0.0
 11
261.9674335602
 21
260.2905956888
 31
0.0
  0
LINE
  5
141
100
AcDbEntity
  8
______
  6
CONTINUOUS
 62
         7
100
AcDbLine
 10
270.508635941
 20
259.2905956888
 30
0.0
 11
261.4674335602
 21
259.2905956888
 31
0.0
  0
LINE
  5
142
100
AcDbEntity
  8
______
  6
CONTINUOUS
 62
         7
100
AcDbLine
 10
270.508635941
 20
259.2905956888
 30
0.0
 11
269.508635941
 21
260.2905956888
 31
0.0
  0
LINE
  5
143
100
AcDbEntity
  8
______
  6
CONTINUOUS
 62
         7
100
AcDbLine
 10
260.4674335602
 20
260.2905956888
 30
0.0
 11
260.4674335602
 21
285.9905956888
 31
0.0
  0
LINE
  5
144
100
AcDbEntity
  8
______
  6
CONTINUOUS
 62
         7
100
AcDbLine
 10
187.7674335602
 20
286.9905956888
 30
0.0
 11
188.7674335602
 21
285.9905956888
 31
0.0
  0
LINE
  5
145
100
AcDbEntity
  8
______
  6
CONTINUOUS
 62
         7
100
AcDbLine
 10
188.7674335602
 20
260.2905956888
 30
0.0
 11
187.7674335602
 21
259.2905956888
 31
0.0
  0
LINE
  5
146
100
AcDbEntity
  8
______
  6
CONTINUOUS
 62
         7
100
AcDbLine
 10
187.2674335602
 20
260.2905956888
 30
0.0
 11
187.7674335602
 21
260.7905956888
 31
0.0
  0
LINE
  5
147
100
AcDbEntity
  8
______
  6
CONTINUOUS
 62
         7
100
AcDbLine
 10
187.7674335602
 20
285.4905956888
 30
0.0
 11
187.2674335602
 21
285.9905956888
 31
0.0
  0
LINE
  5
148
100
AcDbEntity
  8
______
  6
CONTINUOUS
 62
         7
100
AcDbLine
 10
261.9674335602
 20
285.9905956888
 30
0.0
 11
261.4674335602
 21
285.4905956888
 31
0.0
  0
LINE
  5
149
100
AcDbEntity
  8
______
  6
CONTINUOUS
 62
         7
100
AcDbLine
 10
261.4674335602
 20
260.7905956888
 30
0.0
 11
261.9674335602
 21
260.2905956888
 31
0.0
  0
LINE
  5
14A
100
AcDbEntity
  8
______
  6
CONTINUOUS
 62
         7
100
AcDbLine
 10
261.4674335602
 20
259.2905956888
 30
0.0
 11
260.4674335602
 21
260.2905956888
 31
0.0
  0
LINE
  5
14B
100
AcDbEntity
  8
______
  6
CONTINUOUS
 62
         7
100
AcDbLine
 10
260.4674335602
 20
285.9905956888
 30
0.0
 11
261.4674335602
 21
286.9905956888
 31
0.0
  0
LINE
  5
14C
100
AcDbEntity
  8
______
  6
CENTER
 62
         1
100
AcDbLine
 10
223.7674335602
 20
326.1904252841
 30
0.0
 11
223.7674335602
 21
219.4486352492
 31
0.0
  0
ARC
  5
14D
100
AcDbEntity
  8
______
  6
CONTINUOUS
 62
         7
100
AcDbCircle
 10
223.7674335602
 20
273.1405956888
 30
0.0
 40
48.75
100
AcDbArc
 50
16.5052120024
 51
163.4947879976
  0
LINE
  5
14E
100
AcDbEntity
  8
______
  6
CENTER
 62
         1
100
AcDbLine
 10
272.5174335602
 20
273.1405956888
 30
0.0
 11
175.0174335602
 21
273.1405956888
 31
0.0
  0
ARC
  5
14F
100
AcDbEntity
  8
______
  6
CONTINUOUS
 62
         7
100
AcDbCircle
 10
223.7674335602
 20
273.1405956888
 30
0.0
 40
48.75
100
AcDbArc
 50
196.5052120024
 51
343.4947879976
  0
CIRCLE
  5
150
100
AcDbEntity
  8
______
  6
CONTINUOUS
 62
         7
100
AcDbCircle
 10
223.7674335602
 20
273.1405956888
 30
0.0
 40
34.925
  0
CIRCLE
  5
151
100
AcDbEntity
  8
______
  6
CONTINUOUS
 62
         7
100
AcDbCircle
 10
223.7674335602
 20
273.1405956888
 30
0.0
 40
20.3982925257
  0
CIRCLE
  5
152
100
AcDbEntity
  8
______
  6
CONTINUOUS
 62
         7
100
AcDbCircle
 10
223.7674335602
 20
273.1405956888
 30
0.0
 40
10.3963414634
  0
ARC
  5
153
100
AcDbEntity
  8
______
  6
CONTINUOUS
 62
         4
100
AcDbCircle
 10
223.7674335602
 20
273.1405956888
 30
0.0
 40
12.0
100
AcDbArc
 50
278.1340859252
 51
549.6704111119
  0
CIRCLE
  5
154
100
AcDbEntity
  8
______
  6
CONTINUOUS
 62
         7
100
AcDbCircle
 10
223.7674335602
 20
273.1405956888
 30
0.0
 40
12.6589889012
  0
LINE
  5
155
100
AcDbEntity
  8
______
  6
CONTINUOUS
 62
         7
100
AcDbLine
 10
476.9206748742
 20
100.7330036377
 30
0.0
 11
476.9206748742
 21
117.8580036377
 31
0.0
  0
ARC
  5
156
100
AcDbEntity
  8
______
  6
CONTINUOUS
 62
         7
100
AcDbCircle
 10
476.1206748742
 20
49.6080036377
 30
0.0
 40
0.8
100
AcDbArc
 50
270.0
 51
360.0
  0
ARC
  5
157
100
AcDbEntity
  8
______
  6
CONTINUOUS
 62
         7
100
AcDbCircle
 10
476.1206748742
 20
117.8580036377
 30
0.0
 40
0.8
100
AcDbArc
 50
0.0
 51
90.0
  0
LINE
  5
158
100
AcDbEntity
  8
______
  6
CONTINUOUS
 62
         7
100
AcDbLine
 10
476.9206748742
 20
49.6080036377
 30
0.0
 11
476.9206748742
 21
66.7330036377
 31
0.0
  0
ARC
  5
159
100
AcDbEntity
  8
______
  6
CONTINUOUS
 62
         7
100
AcDbCircle
 10
476.1206748742
 20
239.0155956888
 30
0.0
 40
0.8
100
AcDbArc
 50
270.0
 51
360.0
  0
ARC
  5
15A
100
AcDbEntity
  8
______
  6
CONTINUOUS
 62
         7
100
AcDbCircle
 10
476.1206748742
 20
307.2655956888
 30
0.0
 40
0.8
100
AcDbArc
 50
0.0
 51
90.0
  0
LINE
  5
15B
100
AcDbEntity
  8
______
  6
CONTINUOUS
 62
         7
100
AcDbLine
 10
461.4686748742
 20
48.8080036377
 30
0.0
 11
476.1206748742
 21
48.8080036377
 31
0.0
  0
LINE
  5
15C
100
AcDbEntity
  8
______
  6
CONTINUOUS
 62
         7
100
AcDbLine
 10
461.4686748742
 20
118.6580036377
 30
0.0
 11
476.1206748742
 21
118.6580036377
 31
0.0
  0
LINE
  5
15D
100
AcDbEntity
  8
______
  6
CONTINUOUS
 62
         4
100
AcDbLine
 10
341.6186748743
 20
71.2330036377
 30
0.0
 11
341.6186748743
 21
96.2330036377
 31
0.0
  0
LINE
  5
15E
100
AcDbEntity
  8
______
  6
CONTINUOUS
 62
         7
100
AcDbLine
 10
348.5380188358
 20
73.3366621742
 30
0.0
 11
348.5380188358
 21
94.1293451011
 31
0.0
  0
LINE
  5
15F
100
AcDbEntity
  8
______
  6
CONTINUOUS
 62
         7
100
AcDbLine
 10
346.3515175867
 20
71.1501609252
 30
0.0
 11
348.5380188358
 21
73.3366621742
 31
0.0
  0
ARC
  5
160
100
AcDbEntity
  8
______
  6
CONTINUOUS
 62
         7
100
AcDbCircle
 10
346.0686748743
 20
71.4330036377
 30
0.0
 40
0.4
100
AcDbArc
 50
270.0
 51
315.0
  0
ARC
  5
161
100
AcDbEntity
  8
______
  6
CONTINUOUS
 62
         7
100
AcDbCircle
 10
341.6186748743
 20
69.7330036377
 30
0.0
 40
1.5
100
AcDbArc
 50
90.0
 51
180.0
  0
LINE
  5
162
100
AcDbEntity
  8
______
  6
CONTINUOUS
 62
         7
100
AcDbLine
 10
345.2150850358
 20
71.0330036377
 30
0.0
 11
344.4686748742
 21
71.2330036377
 31
0.0
  0
LINE
  5
163
100
AcDbEntity
  8
______
  6
CONTINUOUS
 62
         7
100
AcDbLine
 10
345.2150850358
 20
71.0330036377
 30
0.0
 11
346.0686748743
 21
71.0330036377
 31
0.0
  0
LINE
  5
164
100
AcDbEntity
  8
______
  6
CONTINUOUS
 62
         7
100
AcDbLine
 10
341.6186748743
 20
71.2330036377
 30
0.0
 11
344.4686748742
 21
71.2330036377
 31
0.0
  0
LINE
  5
165
100
AcDbEntity
  8
______
  6
CONTINUOUS
 62
         7
100
AcDbLine
 10
346.3515175867
 20
96.3158463501
 30
0.0
 11
348.5380188358
 21
94.1293451011
 31
0.0
  0
ARC
  5
166
100
AcDbEntity
  8
______
  6
CONTINUOUS
 62
         7
100
AcDbCircle
 10
341.6186748743
 20
97.7330036377
 30
0.0
 40
1.5
100
AcDbArc
 50
180.0
 51
270.0
  0
LINE
  5
167
100
AcDbEntity
  8
______
  6
CONTINUOUS
 62
         7
100
AcDbLine
 10
345.2150850358
 20
96.4330036377
 30
0.0
 11
344.4686748742
 21
96.2330036377
 31
0.0
  0
ARC
  5
168
100
AcDbEntity
  8
______
  6
CONTINUOUS
 62
         7
100
AcDbCircle
 10
346.0686748743
 20
96.0330036377
 30
0.0
 40
0.4
100
AcDbArc
 50
45.0
 51
90.0
  0
LINE
  5
169
100
AcDbEntity
  8
______
  6
CONTINUOUS
 62
         7
100
AcDbLine
 10
344.4686748742
 20
71.2330036377
 30
0.0
 11
344.4686748743
 21
96.2330036377
 31
0.0
  0
LINE
  5
16A
100
AcDbEntity
  8
______
  6
CONTINUOUS
 62
         7
100
AcDbLine
 10
345.2150850358
 20
96.4330036377
 30
0.0
 11
346.0686748743
 21
96.4330036377
 31
0.0
  0
LINE
  5
16B
100
AcDbEntity
  8
______
  6
CONTINUOUS
 62
         7
100
AcDbLine
 10
346.4686748742
 20
71.2673182127
 30
0.0
 11
346.4686748743
 21
96.1986890626
 31
0.0
  0
LINE
  5
16C
100
AcDbEntity
  8
______
  6
CONTINUOUS
 62
         7
100
AcDbLine
 10
476.9206748742
 20
307.2655956888
 30
0.0
 11
476.9206748742
 21
239.0155956888
 31
0.0
  0
LINE
  5
16D
100
AcDbEntity
  8
______
  6
CONTINUOUS
 62
         7
100
AcDbLine
 10
461.4686748742
 20
238.2155956888
 30
0.0
 11
476.1206748742
 21
238.2155956888
 31
0.0
  0
LINE
  5
16E
100
AcDbEntity
  8
______
  6
CONTINUOUS
 62
         7
100
AcDbLine
 10
461.4686748742
 20
308.0655956888
 30
0.0
 11
476.1206748742
 21
308.0655956888
 31
0.0
  0
LINE
  5
16F
100
AcDbEntity
  8
______
  6
CONTINUOUS
 62
         7
100
AcDbLine
 10
459.4686748742
 20
224.3905956888
 30
0.0
 11
459.4686748742
 21
259.2905956888
 31
0.0
  0
LINE
  5
170
100
AcDbEntity
  8
______
  6
CONTINUOUS
 62
         7
100
AcDbLine
 10
446.5686748742
 20
224.3905956888
 30
0.0
 11
446.5686748742
 21
259.2905956888
 31
0.0
  0
ARC
  5
171
100
AcDbEntity
  8
______
  6
DASHED
 62
         2
100
AcDbCircle
 10
737.8921161223
 20
273.1405956888
 30
0.0
 40
45.625
100
AcDbArc
 50
197.6716498685
 51
343.6416615206
  0
ARC
  5
172
100
AcDbEntity
  8
______
  6
CONTINUOUS
 62
         7
100
AcDbCircle
 10
737.8921161223
 20
273.1405956888
 30
0.0
 40
47.25
100
AcDbArc
 50
197.0449399911
 51
342.9550600089
  0
ARC
  5
173
100
AcDbEntity
  8
______
  6
CONTINUOUS
 62
         7
100
AcDbCircle
 10
737.8921161223
 20
273.1405956888
 30
0.0
 40
47.25
100
AcDbArc
 50
17.0449399911
 51
162.9550600089
  0
ARC
  5
174
100
AcDbEntity
  8
______
  6
CONTINUOUS
 62
         7
100
AcDbCircle
 10
737.8921161223
 20
273.1405956888
 30
0.0
 40
48.75
100
AcDbArc
 50
16.5052120024
 51
163.4947879976
  0
ARC
  5
175
100
AcDbEntity
  8
______
  6
DASHED
 62
         2
100
AcDbCircle
 10
737.8921161223
 20
273.1405956888
 30
0.0
 40
45.625
100
AcDbArc
 50
16.3583384794
 51
163.6416615206
  0
ARC
  5
176
100
AcDbEntity
  8
______
  6
CONTINUOUS
 62
         7
100
AcDbCircle
 10
737.8921161223
 20
273.1405956888
 30
0.0
 40
48.75
100
AcDbArc
 50
196.5052120024
 51
343.4947879976
  0
ARC
  5
177
100
AcDbEntity
  8
______
  6
CONTINUOUS
 62
         7
100
AcDbCircle
 10
454.1233754126
 20
37.1080036377
 30
0.0
 40
1.0
100
AcDbArc
 50
30.0
 51
90.0
  0
LINE
  5
178
100
AcDbEntity
  8
______
  6
CENTER
 62
         1
100
AcDbLine
 10
340.1186748742
 20
83.7330036377
 30
0.0
 11
514.6127686727
 21
83.7330036377
 31
0.0
  0
LINE
  5
179
100
AcDbEntity
  8
______
  6
CONTINUOUS
 62
         7
100
AcDbLine
 10
441.8686748742
 20
118.6580036377
 30
0.0
 11
443.8150850358
 21
118.1580036377
 31
0.0
  0
LINE
  5
17A
100
AcDbEntity
  8
______
  6
CONTINUOUS
 62
         7
100
AcDbLine
 10
441.8686748742
 20
48.8080036377
 30
0.0
 11
443.8150850358
 21
49.3080036377
 31
0.0
  0
LINE
  5
17B
100
AcDbEntity
  8
______
  6
CONTINUOUS
 62
         5
100
AcDbLine
 10
346.9343602992
 20
95.7330036377
 30
0.0
 11
384.5686748742
 21
95.7330036377
 31
0.0
  0
LINE
  5
17C
100
AcDbEntity
  8
______
  6
CONTINUOUS
 62
         7
100
AcDbLine
 10
348.5380188358
 20
94.1293451011
 30
0.0
 11
395.1186748743
 21
94.1293451011
 31
0.0
  0
LINE
  5
17D
100
AcDbEntity
  8
______
  6
CONTINUOUS
 62
         7
100
AcDbLine
 10
441.8686748742
 20
118.6580036377
 30
0.0
 11
342.2579043157
 21
104.1312961633
 31
0.0
  0
LINE
  5
17E
100
AcDbEntity
  8
______
  6
CONTINUOUS
 62
         5
100
AcDbLine
 10
346.9343602992
 20
71.7330036377
 30
0.0
 11
384.5686748742
 21
71.7330036377
 31
0.0
  0
LINE
  5
17F
100
AcDbEntity
  8
______
  6
CONTINUOUS
 62
         7
100
AcDbLine
 10
348.5380188358
 20
73.3366621742
 30
0.0
 11
395.1186748742
 21
73.3366621742
 31
0.0
  0
LINE
  5
180
100
AcDbEntity
  8
______
  6
CONTINUOUS
 62
         7
100
AcDbLine
 10
441.8686748742
 20
48.8080036377
 30
0.0
 11
342.2579043157
 21
63.334711112
 31
0.0
  0
LINE
  5
181
100
AcDbEntity
  8
______
  6
CONTINUOUS
 62
         7
100
AcDbLine
 10
340.1186748742
 20
101.6574641957
 30
0.0
 11
340.1186748742
 21
65.8085430796
 31
0.0
  0
ARC
  5
182
100
AcDbEntity
  8
______
  6
CONTINUOUS
 62
         7
100
AcDbCircle
 10
342.6186748742
 20
65.8085430796
 30
0.0
 40
2.5
100
AcDbArc
 50
180.0
 51
261.702778
  0
ARC
  5
183
100
AcDbEntity
  8
______
  6
CONTINUOUS
 62
         7
100
AcDbCircle
 10
342.6186748742
 20
101.6574641957
 30
0.0
 40
2.5
100
AcDbArc
 50
98.297222
 51
180.0
  0
LINE
  5
184
100
AcDbEntity
  8
______
  6
CONTINUOUS
 62
         7
100
AcDbLine
 10
341.6186748743
 20
96.2330036377
 30
0.0
 11
344.4686748743
 21
96.2330036377
 31
0.0
  0
LINE
  5
185
100
AcDbEntity
  8
______
  6
CONTINUOUS
 62
         7
100
AcDbLine
 10
384.5686748742
 20
95.7330036377
 30
0.0
 11
384.5686748742
 21
71.7330036377
 31
0.0
  0
LINE
  5
186
100
AcDbEntity
  8
______
  6
CONTINUOUS
 62
         7
100
AcDbLine
 10
456.504945273
 20
34.9830036377
 30
0.0
 11
459.4686748742
 21
34.9830036377
 31
0.0
  0
ARC
  5
187
100
AcDbEntity
  8
______
  6
CONTINUOUS
 62
         7
100
AcDbCircle
 10
459.4686748742
 20
36.4830036377
 30
0.0
 40
1.5
100
AcDbArc
 50
270.0
 51
360.0
  0
LINE
  5
188
100
AcDbEntity
  8
______
  6
CONTINUOUS
 62
         7
100
AcDbLine
 10
460.9686748742
 20
48.3080036377
 30
0.0
 11
460.9686748742
 21
36.4830036377
 31
0.0
  0
ARC
  5
189
100
AcDbEntity
  8
______
  6
CONTINUOUS
 62
         7
100
AcDbCircle
 10
444.4686748742
 20
48.7080036377
 30
0.0
 40
0.6
100
AcDbArc
 50
0.0
 51
90.0
  0
LINE
  5
18A
100
AcDbEntity
  8
______
  6
CONTINUOUS
 62
         7
100
AcDbLine
 10
443.8150850358
 20
49.3080036377
 30
0.0
 11
444.4686748742
 21
49.3080036377
 31
0.0
  0
ARC
  5
18B
100
AcDbEntity
  8
______
  6
CONTINUOUS
 62
         7
100
AcDbCircle
 10
451.5252992013
 20
37.6080036377
 30
0.0
 40
0.5
100
AcDbArc
 50
90.0
 51
150.0
  0
LINE
  5
18C
100
AcDbEntity
  8
______
  6
CONTINUOUS
 62
         7
100
AcDbLine
 10
451.0922864994
 20
37.8580036377
 30
0.0
 11
449.4324044755
 21
34.9830036377
 31
0.0
  0
ARC
  5
18D
100
AcDbEntity
  8
______
  6
CONTINUOUS
 62
         7
100
AcDbCircle
 10
446.5686748742
 20
36.4830036377
 30
0.0
 40
1.5
100
AcDbArc
 50
180.0
 51
270.0
  0
LINE
  5
18E
100
AcDbEntity
  8
______
  6
CONTINUOUS
 62
         7
100
AcDbLine
 10
446.5686748742
 20
34.9830036377
 30
0.0
 11
449.4324044755
 21
34.9830036377
 31
0.0
  0
LINE
  5
18F
100
AcDbEntity
  8
______
  6
CONTINUOUS
 62
         7
100
AcDbLine
 10
451.5252992013
 20
38.1080036377
 30
0.0
 11
454.1233754126
 21
38.1080036377
 31
0.0
  0
LINE
  5
190
100
AcDbEntity
  8
______
  6
CONTINUOUS
 62
         7
100
AcDbLine
 10
445.0686748742
 20
48.7080036377
 30
0.0
 11
445.0686748742
 21
36.4830036377
 31
0.0
  0
LINE
  5
191
100
AcDbEntity
  8
______
  6
CONTINUOUS
 62
         7
100
AcDbLine
 10
454.9894008164
 20
37.6080036377
 30
0.0
 11
456.504945273
 21
34.9830036377
 31
0.0
  0
ARC
  5
192
100
AcDbEntity
  8
______
  6
CONTINUOUS
 62
         7
100
AcDbCircle
 10
459.4686748742
 20
130.9830036377
 30
0.0
 40
1.5
100
AcDbArc
 50
0.0
 51
90.0
  0
LINE
  5
193
100
AcDbEntity
  8
______
  6
CONTINUOUS
 62
         7
100
AcDbLine
 10
460.9686748742
 20
130.9830036377
 30
0.0
 11
460.9686748742
 21
119.1580036377
 31
0.0
  0
LINE
  5
194
100
AcDbEntity
  8
______
  6
CONTINUOUS
 62
         7
100
AcDbLine
 10
456.504945273
 20
132.4830036377
 30
0.0
 11
459.4686748742
 21
132.4830036377
 31
0.0
  0
LINE
  5
195
100
AcDbEntity
  8
______
  6
CONTINUOUS
 62
         7
100
AcDbLine
 10
451.0922864994
 20
129.6080036377
 30
0.0
 11
449.4324044755
 21
132.4830036377
 31
0.0
  0
ARC
  5
196
100
AcDbEntity
  8
______
  6
CONTINUOUS
 62
         7
100
AcDbCircle
 10
446.5686748742
 20
130.9830036377
 30
0.0
 40
1.5
100
AcDbArc
 50
90.0
 51
180.0
  0
ARC
  5
197
100
AcDbEntity
  8
______
  6
CONTINUOUS
 62
         7
100
AcDbCircle
 10
454.4120505472
 20
129.8580036377
 30
0.0
 40
0.5
100
AcDbArc
 50
270.0
 51
330.0
  0
ARC
  5
198
100
AcDbEntity
  8
______
  6
CONTINUOUS
 62
         7
100
AcDbCircle
 10
444.4686748742
 20
118.7580036377
 30
0.0
 40
0.6
100
AcDbArc
 50
270.0
 51
360.0
  0
LINE
  5
199
100
AcDbEntity
  8
______
  6
CONTINUOUS
 62
         7
100
AcDbLine
 10
443.8150850358
 20
118.1580036377
 30
0.0
 11
444.4686748742
 21
118.1580036377
 31
0.0
  0
LINE
  5
19A
100
AcDbEntity
  8
______
  6
CONTINUOUS
 62
         7
100
AcDbLine
 10
445.0686748742
 20
130.9830036377
 30
0.0
 11
445.0686748742
 21
118.7580036377
 31
0.0
  0
LINE
  5
19B
100
AcDbEntity
  8
______
  6
CONTINUOUS
 62
         7
100
AcDbLine
 10
446.5686748742
 20
132.4830036377
 30
0.0
 11
449.4324044755
 21
132.4830036377
 31
0.0
  0
LINE
  5
19C
100
AcDbEntity
  8
______
  6
CONTINUOUS
 62
         7
100
AcDbLine
 10
454.8450632491
 20
129.6080036377
 30
0.0
 11
456.504945273
 21
132.4830036377
 31
0.0
  0
LINE
  5
19D
100
AcDbEntity
  8
______
  6
CONTINUOUS
 62
         7
100
AcDbLine
 10
441.8686748742
 20
308.0655956888
 30
0.0
 11
443.8150850358
 21
307.5655956888
 31
0.0
  0
LINE
  5
19E
100
AcDbEntity
  8
______
  6
CONTINUOUS
 62
         7
100
AcDbLine
 10
441.8686748742
 20
238.2155956888
 30
0.0
 11
443.8150850358
 21
238.7155956888
 31
0.0
  0
LINE
  5
19F
100
AcDbEntity
  8
______
  6
CENTER
 62
         1
100
AcDbLine
 10
431.1127422462
 20
273.1405956888
 30
0.0
 11
514.6127686727
 21
273.1405956888
 31
0.0
  0
LINE
  5
1A0
100
AcDbEntity
  8
______
  6
CENTER
 62
         1
100
AcDbLine
 10
335.3225323062
 20
273.1405956888
 30
0.0
 11
409.2437653021
 21
273.1405956888
 31
0.0
  0
LINE
  5
1A1
100
AcDbEntity
  8
______
  6
CONTINUOUS
 62
         7
100
AcDbLine
 10
441.8686748742
 20
308.0655956888
 30
0.0
 11
342.2579043157
 21
293.5388882145
 31
0.0
  0
LINE
  5
1A2
100
AcDbEntity
  8
______
  6
CONTINUOUS
 62
         7
100
AcDbLine
 10
441.8686748742
 20
238.2155956888
 30
0.0
 11
342.2579043157
 21
252.7423031631
 31
0.0
  0
LINE
  5
1A3
100
AcDbEntity
  8
______
  6
CONTINUOUS
 62
         7
100
AcDbLine
 10
340.1186748742
 20
291.0650562468
 30
0.0
 11
340.1186748742
 21
255.2161351307
 31
0.0
  0
ARC
  5
1A4
100
AcDbEntity
  8
______
  6
CONTINUOUS
 62
         7
100
AcDbCircle
 10
342.6186748742
 20
255.2161351307
 30
0.0
 40
2.5
100
AcDbArc
 50
180.0
 51
261.702778
  0
ARC
  5
1A5
100
AcDbEntity
  8
______
  6
CONTINUOUS
 62
         7
100
AcDbCircle
 10
342.6186748742
 20
291.0650562468
 30
0.0
 40
2.5
100
AcDbArc
 50
98.297222
 51
180.0
  0
LINE
  5
1A6
100
AcDbEntity
  8
______
  6
CONTINUOUS
 62
         7
100
AcDbLine
 10
443.0686748742
 20
307.7573358924
 30
0.0
 11
443.0686748742
 21
238.5238554851
 31
0.0
  0
LINE
  5
1A7
100
AcDbEntity
  8
______
  6
CENTER
 62
         1
100
AcDbLine
 10
441.8686748742
 20
312.8655956888
 30
0.0
 11
441.8686748742
 21
234.8695413432
 31
0.0
  0
LINE
  5
1A8
100
AcDbEntity
  8
______
  6
CONTINUOUS
 62
         7
100
AcDbLine
 10
443.8150850358
 20
307.5655956888
 30
0.0
 11
443.8150850358
 21
238.7155956888
 31
0.0
  0
LINE
  5
1A9
100
AcDbEntity
  8
______
  6
CONTINUOUS
 62
         7
100
AcDbLine
 10
445.0686748742
 20
320.3905956888
 30
0.0
 11
445.0686748742
 21
225.8905956888
 31
0.0
  0
LINE
  5
1AA
100
AcDbEntity
  8
______
  6
CENTER
 62
         1
100
AcDbLine
 10
452.9686748742
 20
328.1458589896
 30
0.0
 11
452.9686748742
 21
218.1430394378
 31
0.0
  0
LINE
  5
1AB
100
AcDbEntity
  8
______
  6
CONTINUOUS
 62
         7
100
AcDbLine
 10
456.504945273
 20
224.3905956888
 30
0.0
 11
459.4686748742
 21
224.3905956888
 31
0.0
  0
LINE
  5
1AC
100
AcDbEntity
  8
______
  6
CONTINUOUS
 62
         7
100
AcDbLine
 10
456.504945273
 20
259.2905956888
 30
0.0
 11
456.504945273
 21
224.3905956888
 31
0.0
  0
ARC
  5
1AD
100
AcDbEntity
  8
______
  6
CONTINUOUS
 62
         7
100
AcDbCircle
 10
459.4686748742
 20
225.8905956888
 30
0.0
 40
1.5
100
AcDbArc
 50
270.0
 51
360.0
  0
LINE
  5
1AE
100
AcDbEntity
  8
______
  6
CONTINUOUS
 62
         7
100
AcDbLine
 10
460.9686748742
 20
259.2905956888
 30
0.0
 11
456.504945273
 21
259.2905956888
 31
0.0
  0
ARC
  5
1AF
100
AcDbEntity
  8
______
  6
CONTINUOUS
 62
         7
100
AcDbCircle
 10
444.4686748742
 20
238.1155956888
 30
0.0
 40
0.6
100
AcDbArc
 50
0.0
 51
90.0
  0
LINE
  5
1B0
100
AcDbEntity
  8
______
  6
CONTINUOUS
 62
         7
100
AcDbLine
 10
443.8150850358
 20
238.7155956888
 30
0.0
 11
444.4686748742
 21
238.7155956888
 31
0.0
  0
ARC
  5
1B1
100
AcDbEntity
  8
______
  6
CONTINUOUS
 62
         7
100
AcDbCircle
 10
444.4686748742
 20
238.1155956888
 30
0.0
 40
0.6
100
AcDbArc
 50
0.0
 51
90.0
  0
ARC
  5
1B2
100
AcDbEntity
  8
______
  6
CONTINUOUS
 62
         7
100
AcDbCircle
 10
454.4120505472
 20
227.0155956888
 30
0.0
 40
0.5
100
AcDbArc
 50
30.0
 51
90.0
  0
ARC
  5
1B3
100
AcDbEntity
  8
______
  6
CONTINUOUS
 62
         7
100
AcDbCircle
 10
446.5686748742
 20
225.8905956888
 30
0.0
 40
1.5
100
AcDbArc
 50
180.0
 51
270.0
  0
LINE
  5
1B4
100
AcDbEntity
  8
______
  6
CONTINUOUS
 62
         7
100
AcDbLine
 10
451.0922864994
 20
227.2655956888
 30
0.0
 11
449.4324044755
 21
224.3905956888
 31
0.0
  0
LINE
  5
1B5
100
AcDbEntity
  8
______
  6
CONTINUOUS
 62
         7
100
AcDbLine
 10
446.5686748742
 20
224.3905956888
 30
0.0
 11
449.4324044755
 21
224.3905956888
 31
0.0
  0
ARC
  5
1B6
100
AcDbEntity
  8
______
  6
CONTINUOUS
 62
         7
100
AcDbCircle
 10
451.5252992013
 20
227.0155956888
 30
0.0
 40
0.5
100
AcDbArc
 50
90.0
 51
150.0
  0
LINE
  5
1B7
100
AcDbEntity
  8
______
  6
CONTINUOUS
 62
         7
100
AcDbLine
 10
451.5252992013
 20
227.5155956888
 30
0.0
 11
454.4120505472
 21
227.5155956888
 31
0.0
  0
LINE
  5
1B8
100
AcDbEntity
  8
______
  6
CONTINUOUS
 62
         7
100
AcDbLine
 10
449.4324044755
 20
259.2905956888
 30
0.0
 11
449.4324044755
 21
224.3905956888
 31
0.0
  0
LINE
  5
1B9
100
AcDbEntity
  8
______
  6
CONTINUOUS
 62
         7
100
AcDbLine
 10
454.8436748742
 20
260.3106898537
 30
0.0
 11
454.8436748742
 21
227.2679851504
 31
0.0
  0
LINE
  5
1BA
100
AcDbEntity
  8
______
  6
CONTINUOUS
 62
         7
100
AcDbLine
 10
451.0936748742
 20
260.3106898537
 30
0.0
 11
451.0936748742
 21
227.2679851504
 31
0.0
  0
LINE
  5
1BB
100
AcDbEntity
  8
______
  6
CONTINUOUS
 62
         7
100
AcDbLine
 10
449.4324044755
 20
259.2905956888
 30
0.0
 11
445.0686748742
 21
259.2905956888
 31
0.0
  0
LINE
  5
1BC
100
AcDbEntity
  8
______
  6
CONTINUOUS
 62
         7
100
AcDbLine
 10
445.0686748742
 20
259.2905956888
 30
0.0
 11
446.0887690392
 21
260.3106898537
 31
0.0
  0
LINE
  5
1BD
100
AcDbEntity
  8
______
  6
CONTINUOUS
 62
         7
100
AcDbLine
 10
449.4324044755
 20
259.2905956888
 30
0.0
 11
451.0936748742
 21
260.3106898537
 31
0.0
  0
LINE
  5
1BE
100
AcDbEntity
  8
______
  6
CONTINUOUS
 62
         7
100
AcDbLine
 10
454.8450632491
 20
227.2655956888
 30
0.0
 11
456.504945273
 21
224.3905956888
 31
0.0
  0
LINE
  5
1BF
100
AcDbEntity
  8
______
  6
CONTINUOUS
 62
         7
100
AcDbLine
 10
459.8485807093
 20
260.3106898537
 30
0.0
 11
446.0887690392
 21
260.3106898537
 31
0.0
  0
LINE
  5
1C0
100
AcDbEntity
  8
______
  6
CONTINUOUS
 62
         7
100
AcDbLine
 10
459.8485807093
 20
260.3106898537
 30
0.0
 11
446.0887690392
 21
260.3106898537
 31
0.0
  0
LINE
  5
1C1
100
AcDbEntity
  8
______
  6
CONTINUOUS
 62
         7
100
AcDbLine
 10
454.8436748742
 20
260.3106898537
 30
0.0
 11
456.504945273
 21
259.2905956888
 31
0.0
  0
LINE
  5
1C2
100
AcDbEntity
  8
______
  6
CONTINUOUS
 62
         7
100
AcDbLine
 10
456.504945273
 20
321.8905956888
 30
0.0
 11
456.504945273
 21
286.9905956888
 31
0.0
  0
LINE
  5
1C3
100
AcDbEntity
  8
______
  6
CONTINUOUS
 62
         7
100
AcDbLine
 10
460.9686748742
 20
286.9905956888
 30
0.0
 11
456.504945273
 21
286.9905956888
 31
0.0
  0
LINE
  5
1C4
100
AcDbEntity
  8
______
  6
CONTINUOUS
 62
         7
100
AcDbLine
 10
456.504945273
 20
321.8905956888
 30
0.0
 11
459.4686748742
 21
321.8905956888
 31
0.0
  0
ARC
  5
1C5
100
AcDbEntity
  8
______
  6
CONTINUOUS
 62
         7
100
AcDbCircle
 10
459.4686748742
 20
320.3905956888
 30
0.0
 40
1.5
100
AcDbArc
 50
0.0
 51
90.0
  0
LINE
  5
1C6
100
AcDbEntity
  8
______
  6
CONTINUOUS
 62
         7
100
AcDbLine
 10
454.8436748742
 20
319.0132062272
 30
0.0
 11
454.8436748742
 21
285.9705015239
 31
0.0
  0
LINE
  5
1C7
100
AcDbEntity
  8
______
  6
CONTINUOUS
 62
         7
100
AcDbLine
 10
449.4324044755
 20
321.8905956888
 30
0.0
 11
449.4324044755
 21
286.9905956888
 31
0.0
  0
LINE
  5
1C8
100
AcDbEntity
  8
______
  6
CONTINUOUS
 62
         7
100
AcDbLine
 10
451.0936748742
 20
319.0132062272
 30
0.0
 11
451.0936748742
 21
285.9705015239
 31
0.0
  0
LINE
  5
1C9
100
AcDbEntity
  8
______
  6
CONTINUOUS
 62
         7
100
AcDbLine
 10
449.4324044755
 20
286.9905956888
 30
0.0
 11
451.0936748742
 21
285.9705015239
 31
0.0
  0
LINE
  5
1CA
100
AcDbEntity
  8
______
  6
CONTINUOUS
 62
         7
100
AcDbLine
 10
445.0686748742
 20
286.9905956888
 30
0.0
 11
446.0887690392
 21
285.9705015239
 31
0.0
  0
LINE
  5
1CB
100
AcDbEntity
  8
______
  6
CONTINUOUS
 62
         7
100
AcDbLine
 10
449.4324044755
 20
286.9905956888
 30
0.0
 11
445.0686748742
 21
286.9905956888
 31
0.0
  0
ARC
  5
1CC
100
AcDbEntity
  8
______
  6
CONTINUOUS
 62
         7
100
AcDbCircle
 10
454.4120505472
 20
319.2655956888
 30
0.0
 40
0.5
100
AcDbArc
 50
270.0
 51
330.0
  0
ARC
  5
1CD
100
AcDbEntity
  8
______
  6
CONTINUOUS
 62
         7
100
AcDbCircle
 10
446.5686748742
 20
320.3905956888
 30
0.0
 40
1.5
100
AcDbArc
 50
90.0
 51
180.0
  0
LINE
  5
1CE
100
AcDbEntity
  8
______
  6
CONTINUOUS
 62
         7
100
AcDbLine
 10
451.0922864994
 20
319.0155956888
 30
0.0
 11
449.4324044755
 21
321.8905956888
 31
0.0
  0
ARC
  5
1CF
100
AcDbEntity
  8
______
  6
CONTINUOUS
 62
         7
100
AcDbCircle
 10
444.4686748742
 20
308.1655956888
 30
0.0
 40
0.6
100
AcDbArc
 50
270.0
 51
360.0
  0
LINE
  5
1D0
100
AcDbEntity
  8
______
  6
CONTINUOUS
 62
         7
100
AcDbLine
 10
443.8150850358
 20
307.5655956888
 30
0.0
 11
444.4686748742
 21
307.5655956888
 31
0.0
  0
ARC
  5
1D1
100
AcDbEntity
  8
______
  6
CONTINUOUS
 62
         7
100
AcDbCircle
 10
451.5252992013
 20
319.2655956888
 30
0.0
 40
0.5
100
AcDbArc
 50
210.0
 51
270.0
  0
LINE
  5
1D2
100
AcDbEntity
  8
______
  6
CONTINUOUS
 62
         7
100
AcDbLine
 10
446.5686748742
 20
321.8905956888
 30
0.0
 11
449.4324044755
 21
321.8905956888
 31
0.0
  0
LINE
  5
1D3
100
AcDbEntity
  8
______
  6
CONTINUOUS
 62
         7
100
AcDbLine
 10
451.5252992013
 20
318.7655956888
 30
0.0
 11
454.4120505472
 21
318.7655956888
 31
0.0
  0
LINE
  5
1D4
100
AcDbEntity
  8
______
  6
CONTINUOUS
 62
         7
100
AcDbLine
 10
459.8485807093
 20
285.9705015239
 30
0.0
 11
446.0887690392
 21
285.9705015239
 31
0.0
  0
LINE
  5
1D5
100
AcDbEntity
  8
______
  6
CONTINUOUS
 62
         7
100
AcDbLine
 10
459.8485807093
 20
285.9705015239
 30
0.0
 11
446.0887690392
 21
285.9705015239
 31
0.0
  0
LINE
  5
1D6
100
AcDbEntity
  8
______
  6
CONTINUOUS
 62
         7
100
AcDbLine
 10
454.8436748742
 20
285.9705015239
 30
0.0
 11
456.504945273
 21
286.9905956888
 31
0.0
  0
LINE
  5
1D7
100
AcDbEntity
  8
______
  6
CONTINUOUS
 62
         7
100
AcDbLine
 10
454.8450632491
 20
319.0155956888
 30
0.0
 11
456.504945273
 21
321.8905956888
 31
0.0
  0
LINE
  5
1D8
100
AcDbEntity
  8
______
  6
CONTINUOUS
 62
         7
100
AcDbLine
 10
451.5252992013
 20
129.3580036377
 30
0.0
 11
454.4120505472
 21
129.3580036377
 31
0.0
  0
LINE
  5
1D9
100
AcDbEntity
  8
______
  6
CONTINUOUS
 62
         7
100
AcDbLine
 10
445.0686748742
 20
130.9830036377
 30
0.0
 11
445.0686748742
 21
118.7580036377
 31
0.0
  0
LINE
  5
1DA
100
AcDbEntity
  8
______
  6
CONTINUOUS
 62
         7
100
AcDbLine
 10
443.8150850358
 20
118.1580036377
 30
0.0
 11
444.4686748742
 21
118.1580036377
 31
0.0
  0
ARC
  5
1DB
100
AcDbEntity
  8
______
  6
CONTINUOUS
 62
         7
100
AcDbCircle
 10
444.4686748742
 20
118.7580036377
 30
0.0
 40
0.6
100
AcDbArc
 50
270.0
 51
360.0
  0
ARC
  5
1DC
100
AcDbEntity
  8
______
  6
CONTINUOUS
 62
         7
100
AcDbCircle
 10
451.5252992013
 20
129.8580036377
 30
0.0
 40
0.5
100
AcDbArc
 50
210.0
 51
270.0
  0
LINE
  5
1DD
100
AcDbEntity
  8
______
  6
CONTINUOUS
 62
         7
100
AcDbLine
 10
441.8686748742
 20
118.6580036377
 30
0.0
 11
443.8150850358
 21
118.1580036377
 31
0.0
  0
LINE
  5
1DE
100
AcDbEntity
  8
______
  6
CONTINUOUS
 62
         7
100
AcDbLine
 10
460.8686748742
 20
286.9905956888
 30
0.0
 11
459.8485807093
 21
285.9705015239
 31
0.0
  0
LINE
  5
1DF
100
AcDbEntity
  8
______
  6
CONTINUOUS
 62
         7
100
AcDbLine
 10
460.8686748742
 20
259.2905956888
 30
0.0
 11
459.8485807093
 21
260.3106898537
 31
0.0
  0
LINE
  5
1E0
100
AcDbEntity
  8
______
  6
CONTINUOUS
 62
         7
100
AcDbLine
 10
460.9686748742
 20
320.3905956888
 30
0.0
 11
460.9686748742
 21
225.8905956888
 31
0.0
  0
LINE
  5
1E1
100
AcDbEntity
  8
______
  6
CONTINUOUS
 62
         7
100
AcDbLine
 10
340.1186748742
 20
65.8085430796
 30
0.0
 11
340.1186748743
 21
101.6574641957
 31
0.0
  0
LINE
  5
1E2
100
AcDbEntity
  8
______
  6
CENTER
 62
         1
100
AcDbLine
 10
689.1421161223
 20
273.1405956888
 30
0.0
 11
786.6421161223
 21
273.1405956888
 31
0.0
  0
LINE
  5
1E3
100
AcDbEntity
  8
______
  6
CENTER
 62
         1
100
AcDbLine
 10
737.8921161223
 20
218.7912401417
 30
0.0
 11
737.8921161223
 21
325.3052185636
 31
0.0
  0
CIRCLE
  5
1E4
100
AcDbEntity
  8
______
  6
CONTINUOUS
 62
         7
100
AcDbCircle
 10
452.9686748742
 20
273.1444492137
 30
0.0
 40
4.76
  0
CIRCLE
  5
1E5
100
AcDbEntity
  8
______
  6
CONTINUOUS
 62
         7
100
AcDbCircle
 10
737.8921161223
 20
273.1405956888
 30
0.0
 40
34.925
  0
ARC
  5
1E6
100
AcDbEntity
  8
______
  6
CONTINUOUS
 62
         7
100
AcDbCircle
 10
461.4686748742
 20
237.7155956888
 30
0.0
 40
0.5
100
AcDbArc
 50
90.0
 51
180.0
  0
ARC
  5
1E7
100
AcDbEntity
  8
______
  6
CONTINUOUS
 62
         7
100
AcDbCircle
 10
461.4686748742
 20
308.5655956888
 30
0.0
 40
0.5
100
AcDbArc
 50
180.0
 51
270.0
  0
ARC
  5
1E8
100
AcDbEntity
  8
______
  6
CONTINUOUS
 62
         7
100
AcDbCircle
 10
461.4686748742
 20
48.3080036377
 30
0.0
 40
0.5
100
AcDbArc
 50
90.0
 51
180.0
  0
ARC
  5
1E9
100
AcDbEntity
  8
______
  6
CONTINUOUS
 62
         7
100
AcDbCircle
 10
461.4686748742
 20
119.1580036377
 30
0.0
 40
0.5
100
AcDbArc
 50
180.0
 51
270.0
  0
LINE
  5
1EA
100
AcDbEntity
  8
______
  6
CONTINUOUS
 62
         7
100
AcDbLine
 10
773.3921161223
 20
285.4905956888
 30
0.0
 11
773.3921161223
 21
260.7905956888
 31
0.0
  0
LINE
  5
1EB
100
AcDbEntity
  8
______
  6
CONTINUOUS
 62
         7
100
AcDbLine
 10
772.3921161223
 20
285.9905956888
 30
0.0
 11
772.3921161223
 21
260.2905956888
 31
0.0
  0
LINE
  5
1EC
100
AcDbEntity
  8
______
  6
CONTINUOUS
 62
         7
100
AcDbLine
 10
783.6333185031
 20
285.9905956888
 30
0.0
 11
773.8921161223
 21
285.9905956888
 31
0.0
  0
LINE
  5
1ED
100
AcDbEntity
  8
______
  6
CONTINUOUS
 62
         7
100
AcDbLine
 10
784.6333185031
 20
286.9905956888
 30
0.0
 11
773.3921161223
 21
286.9905956888
 31
0.0
  0
LINE
  5
1EE
100
AcDbEntity
  8
______
  6
CONTINUOUS
 62
         7
100
AcDbLine
 10
784.6333185031
 20
286.9905956888
 30
0.0
 11
783.6333185031
 21
285.9905956888
 31
0.0
  0
LINE
  5
1EF
100
AcDbEntity
  8
______
  6
CONTINUOUS
 62
         7
100
AcDbLine
 10
784.6333185031
 20
259.2905956888
 30
0.0
 11
783.6333185031
 21
260.2905956888
 31
0.0
  0
LINE
  5
1F0
100
AcDbEntity
  8
______
  6
CONTINUOUS
 62
         7
100
AcDbLine
 10
783.6333185031
 20
260.2905956888
 30
0.0
 11
773.8921161223
 21
260.2905956888
 31
0.0
  0
LINE
  5
1F1
100
AcDbEntity
  8
______
  6
CONTINUOUS
 62
         7
100
AcDbLine
 10
784.6333185031
 20
259.2905956888
 30
0.0
 11
773.3921161223
 21
259.2905956888
 31
0.0
  0
LINE
  5
1F2
100
AcDbEntity
  8
______
  6
CONTINUOUS
 62
         7
100
AcDbLine
 10
773.3921161223
 20
285.4905956888
 30
0.0
 11
773.8921161223
 21
285.9905956888
 31
0.0
  0
LINE
  5
1F3
100
AcDbEntity
  8
______
  6
CONTINUOUS
 62
         7
100
AcDbLine
 10
773.3921161223
 20
286.9905956888
 30
0.0
 11
772.3921161223
 21
285.9905956888
 31
0.0
  0
LINE
  5
1F4
100
AcDbEntity
  8
______
  6
CONTINUOUS
 62
         7
100
AcDbLine
 10
772.3921161223
 20
260.2905956888
 30
0.0
 11
773.3921161223
 21
259.2905956888
 31
0.0
  0
LINE
  5
1F5
100
AcDbEntity
  8
______
  6
CONTINUOUS
 62
         7
100
AcDbLine
 10
773.3921161223
 20
260.7905956888
 30
0.0
 11
773.8921161223
 21
260.2905956888
 31
0.0
  0
LINE
  5
1F6
100
AcDbEntity
  8
______
  6
DASHED
 62
         2
100
AcDbLine
 10
700.6921161223
 20
278.1405956888
 30
0.0
 11
700.6921161223
 21
268.1405956888
 31
0.0
  0
LINE
  5
1F7
100
AcDbEntity
  8
______
  6
DASHED
 62
         2
100
AcDbLine
 10
700.6921161223
 20
278.1405956888
 30
0.0
 11
700.1921161223
 21
278.6405956888
 31
0.0
  0
LINE
  5
1F8
100
AcDbEntity
  8
______
  6
DASHED
 62
         2
100
AcDbLine
 10
700.6921161223
 20
268.1405956888
 30
0.0
 11
700.1921161223
 21
267.6405956888
 31
0.0
  0
LINE
  5
1F9
100
AcDbEntity
  8
______
  6
DASHED
 62
         2
100
AcDbLine
 10
713.9061161223
 20
278.1405956888
 30
0.0
 11
716.7928674683
 21
273.1405956888
 31
0.0
  0
LINE
  5
1FA
100
AcDbEntity
  8
______
  6
DASHED
 62
         2
100
AcDbLine
 10
716.7928674683
 20
273.1405956888
 30
0.0
 11
713.9061161223
 21
268.1405956888
 31
0.0
  0
LINE
  5
1FB
100
AcDbEntity
  8
______
  6
DASHED
 62
         2
100
AcDbLine
 10
713.9061161223
 20
278.1405956888
 30
0.0
 11
713.9061161223
 21
268.1405956888
 31
0.0
  0
LINE
  5
1FC
100
AcDbEntity
  8
______
  6
DASHED
 62
         2
100
AcDbLine
 10
700.6921161223
 20
268.1405956888
 30
0.0
 11
713.9061161223
 21
268.1405956888
 31
0.0
  0
LINE
  5
1FD
100
AcDbEntity
  8
______
  6
DASHED
 62
         2
100
AcDbLine
 10
700.6921161223
 20
278.1405956888
 30
0.0
 11
713.9061161223
 21
278.1405956888
 31
0.0
  0
LINE
  5
1FE
100
AcDbEntity
  8
______
  6
CONTINUOUS
 62
         7
100
AcDbLine
 10
692.1509137416
 20
260.2905956888
 30
0.0
 11
699.6921161223
 21
260.2905956888
 31
0.0
  0
LINE
  5
1FF
100
AcDbEntity
  8
______
  6
CONTINUOUS
 62
         7
100
AcDbLine
 10
691.1509137416
 20
259.2905956888
 30
0.0
 11
700.1921161223
 21
259.2905956888
 31
0.0
  0
LINE
  5
200
100
AcDbEntity
  8
______
  6
CONTINUOUS
 62
         7
100
AcDbLine
 10
691.1509137416
 20
259.2905956888
 30
0.0
 11
692.1509137416
 21
260.2905956888
 31
0.0
  0
LINE
  5
201
100
AcDbEntity
  8
______
  6
CONTINUOUS
 62
         7
100
AcDbLine
 10
692.1509137416
 20
285.9905956888
 30
0.0
 11
699.6921161223
 21
285.9905956888
 31
0.0
  0
LINE
  5
202
100
AcDbEntity
  8
______
  6
CONTINUOUS
 62
         7
100
AcDbLine
 10
691.1509137416
 20
286.9905956888
 30
0.0
 11
700.1921161223
 21
286.9905956888
 31
0.0
  0
LINE
  5
203
100
AcDbEntity
  8
______
  6
CONTINUOUS
 62
         7
100
AcDbLine
 10
691.1509137416
 20
286.9905956888
 30
0.0
 11
692.1509137416
 21
285.9905956888
 31
0.0
  0
LINE
  5
204
100
AcDbEntity
  8
______
  6
CONTINUOUS
 62
         7
100
AcDbLine
 10
700.1921161223
 20
285.4905956888
 30
0.0
 11
700.1921161223
 21
260.7905956888
 31
0.0
  0
LINE
  5
205
100
AcDbEntity
  8
______
  6
CONTINUOUS
 62
         7
100
AcDbLine
 10
701.1921161223
 20
285.9905956888
 30
0.0
 11
701.1921161223
 21
260.2905956888
 31
0.0
  0
LINE
  5
206
100
AcDbEntity
  8
______
  6
CONTINUOUS
 62
         7
100
AcDbLine
 10
699.6921161223
 20
285.9905956888
 30
0.0
 11
700.1921161223
 21
285.4905956888
 31
0.0
  0
LINE
  5
207
100
AcDbEntity
  8
______
  6
CONTINUOUS
 62
         7
100
AcDbLine
 10
700.1921161223
 20
260.7905956888
 30
0.0
 11
699.6921161223
 21
260.2905956888
 31
0.0
  0
LINE
  5
208
100
AcDbEntity
  8
______
  6
CONTINUOUS
 62
         7
100
AcDbLine
 10
701.1921161223
 20
285.9905956888
 30
0.0
 11
700.1921161223
 21
286.9905956888
 31
0.0
  0
LINE
  5
209
100
AcDbEntity
  8
______
  6
CONTINUOUS
 62
         7
100
AcDbLine
 10
701.1921161223
 20
260.2905956888
 30
0.0
 11
700.1921161223
 21
259.2905956888
 31
0.0
  0
TEXT
  5
20B
100
AcDbEntity
  8
______
  6
CONTINUOUS
 62
         2
100
AcDbText
 10
722.463893905
 20
347.3264323676
 30
0.0
 40
4.5
  1
531506
 41
0.98
  7
BOX
100
AcDbText
  0
ENDSEC
  0
SECTION
  2
OBJECTS
  0
DICTIONARY
  5
19
100
AcDbDictionary
  3
ACAD_GROUP
350
1A
  3
ACAD_MLINESTYLE
350
1B
  0
DICTIONARY
  5
1A
102
{ACAD_REACTORS
330
19
102
}
100
AcDbDictionary
  0
DICTIONARY
  5
1B
102
{ACAD_REACTORS
330
19
102
}
100
AcDbDictionary
  3
STANDARD
350
1C
  0
MLINESTYLE
  5
1C
102
{ACAD_REACTORS
330
1B
102
}
100
AcDbMlineStyle
  2
STANDARD
 70
         0
  3

 62
         0
 51
90.0
 52
90.0
 71
         2
 49
0.5
 62
       256
  6
BYLAYER
 49
-0.5
 62
       256
  6
BYLAYER
  0
ENDSEC
  0
EOF
