  0
SECTION
  2
HEADER
  9
$ACADVER
  1
AC1014
  9
$ACADMAINTVER
 70
         0
  9
$DWGCODEPAGE
  3
BIG5
  9
$INSBASE
 10
0.0
 20
0.0
 30
0.0
  9
$EXTMIN
 10
1103.9422809749
 20
-75.6598486068
 30
0.0
  9
$EXTMAX
 10
1736.7296639013
 20
243.3719225518
 30
0.0
  9
$LIMMIN
 10
0.0
 20
0.0
  9
$LIMMAX
 10
0.0
 20
0.0
  9
$ORTHOMODE
 70
         0
  9
$REGENMODE
 70
         1
  9
$FILLMODE
 70
         1
  9
$QTEXTMODE
 70
         0
  9
$MIRRTEXT
 70
         1
  9
$DRAGMODE
 70
         2
  9
$LTSCALE
 40
1.0
  9
$OSMODE
 70
         0
  9
$ATTMODE
 70
         1
  9
$TEXTSIZE
 40
1.0
  9
$TRACEWID
 40
0.05
  9
$TEXTSTYLE
  7
STANDARD
  9
$CLAYER
  8
0
  9
$CELTYPE
  6
CONTINUOUS
  9
$CECOLOR
 62
         4
  9
$CELTSCALE
 40
1.0
  9
$DELOBJ
 70
         1
  9
$DISPSILH
 70
         0
  9
$DIMSCALE
 40
1.0
  9
$DIMASZ
 40
0.18
  9
$DIMEXO
 40
0.0625
  9
$DIMDLI
 40
0.38
  9
$DIMRND
 40
0.0
  9
$DIMDLE
 40
0.0
  9
$DIMEXE
 40
0.25
  9
$DIMTP
 40
0.01
  9
$DIMTM
 40
-0.01
  9
$DIMTXT
 40
2.7
  9
$DIMCEN
 40
0.09
  9
$DIMTSZ
 40
0.0
  9
$DIMTOL
 70
         0
  9
$DIMLIM
 70
         0
  9
$DIMTIH
 70
         1
  9
$DIMTOH
 70
         1
  9
$DIMSE1
 70
         0
  9
$DIMSE2
 70
         0
  9
$DIMTAD
 70
         0
  9
$DIMZIN
 70
         0
  9
$DIMBLK
  1

  9
$DIMASO
 70
         1
  9
$DIMSHO
 70
         1
  9
$DIMPOST
  1

  9
$DIMAPOST
  1

  9
$DIMALT
 70
         0
  9
$DIMALTD
 70
         2
  9
$DIMALTF
 40
25.4
  9
$DIMLFAC
 40
1.0
  9
$DIMTOFL
 70
         0
  9
$DIMTVP
 40
0.0
  9
$DIMTIX
 70
         0
  9
$DIMSOXD
 70
         0
  9
$DIMSAH
 70
         0
  9
$DIMBLK1
  1

  9
$DIMBLK2
  1

  9
$DIMSTYLE
  2
STANDARD
  9
$DIMCLRD
 70
         0
  9
$DIMCLRE
 70
         0
  9
$DIMCLRT
 70
         4
  9
$DIMTFAC
 40
1.0
  9
$DIMGAP
 40
0.09
  9
$DIMJUST
 70
         0
  9
$DIMSD1
 70
         0
  9
$DIMSD2
 70
         0
  9
$DIMTOLJ
 70
         1
  9
$DIMTZIN
 70
         0
  9
$DIMALTZ
 70
         0
  9
$DIMALTTZ
 70
         0
  9
$DIMFIT
 70
         3
  9
$DIMUPT
 70
         0
  9
$DIMUNIT
 70
         2
  9
$DIMDEC
 70
         4
  9
$DIMTDEC
 70
         4
  9
$DIMALTU
 70
         2
  9
$DIMALTTD
 70
         2
  9
$DIMTXSTY
  7
STANDARD
  9
$DIMAUNIT
 70
         0
  9
$LUNITS
 70
         2
  9
$LUPREC
 70
        10
  9
$SKETCHINC
 40
0.1
  9
$FILLETRAD
 40
0.0
  9
$AUNITS
 70
         0
  9
$AUPREC
 70
         0
  9
$MENU
  1
acad
  9
$ELEVATION
 40
0.0
  9
$PELEVATION
 40
0.0
  9
$THICKNESS
 40
0.0
  9
$LIMCHECK
 70
         0
  9
$BLIPMODE
 70
         1
  9
$CHAMFERA
 40
0.0
  9
$CHAMFERB
 40
0.0
  9
$CHAMFERC
 40
0.0
  9
$CHAMFERD
 40
0.0
  9
$SKPOLY
 70
         0
  9
$TDCREATE
 40
0.000000000
  9
$TDUPDATE
 40
0.000000000
  9
$TDINDWG
 40
0.0000000000
  9
$TDUSRTIMER
 40
0.0000000000
  9
$USRTIMER
 70
         1
  9
$ANGBASE
 50
0.0
  9
$ANGDIR
 70
         0
  9
$PDMODE
 70
         2
  9
$PDSIZE
 40
0.0
  9
$PLINEWID
 40
0.0
  9
$COORDS
 70
         1
  9
$SPLFRAME
 70
         0
  9
$SPLINETYPE
 70
         6
  9
$SPLINESEGS
 70
         8
  9
$ATTDIA
 70
         0
  9
$ATTREQ
 70
         1
  9
$HANDLING
 70
         1
  9
$HANDSEED
  5
3CB
  9
$SURFTAB1
 70
         6
  9
$SURFTAB2
 70
         6
  9
$SURFTYPE
 70
         6
  9
$SURFU
 70
         6
  9
$SURFV
 70
         6
  9
$UCSNAME
  2

  9
$UCSORG
 10
0.0
 20
0.0
 30
0.0
  9
$UCSXDIR
 10
1.0
 20
0.0
 30
0.0
  9
$UCSYDIR
 10
0.0
 20
1.0
 30
0.0
  9
$PUCSNAME
  2

  9
$PUCSORG
 10
0.0
 20
0.0
 30
0.0
  9
$PUCSXDIR
 10
1.0
 20
0.0
 30
0.0
  9
$PUCSYDIR
 10
0.0
 20
1.0
 30
0.0
  9
$USERI1
 70
         0
  9
$USERI2
 70
         0
  9
$USERI3
 70
         0
  9
$USERI4
 70
         0
  9
$USERI5
 70
         0
  9
$USERR1
 40
0.0
  9
$USERR2
 40
0.0
  9
$USERR3
 40
0.0
  9
$USERR4
 40
0.0
  9
$USERR5
 40
0.0
  9
$WORLDVIEW
 70
         1
  9
$SHADEDGE
 70
         3
  9
$SHADEDIF
 70
        70
  9
$TILEMODE
 70
         1
  9
$MAXACTVP
 70
        16
  9
$PINSBASE
 10
0.0
 20
0.0
 30
0.0
  9
$PLIMCHECK
 70
         0
  9
$PEXTMIN
 10
1.0000000000E+20
 20
1.0000000000E+20
 30
1.0000000000E+20
  9
$PEXTMAX
 10
-1.0000000000E+20
 20
-1.0000000000E+20
 30
-1.0000000000E+20
  9
$PLIMMIN
 10
0.0
 20
0.0
  9
$PLIMMAX
 10
12.0
 20
9.0
  9
$UNITMODE
 70
         0
  9
$VISRETAIN
 70
         0
  9
$PLINEGEN
 70
         1
  9
$PSLTSCALE
 70
         0
  9
$TREEDEPTH
 70
      3020
  9
$PICKSTYLE
 70
         1
  9
$CMLSTYLE
  2
STANDARD
  9
$CMLJUST
 70
         0
  9
$CMLSCALE
 40
1.0
  9
$PROXYGRAPHICS
 70
         0
  9
$MEASUREMENT
 70
         0
  0
ENDSEC
  0
SECTION
  2
CLASSES
  0
CLASS
  1
LWPOLYLINE
  2
AcDbPolyline
  3
"AutoCAD"
 90
        0
280
         0
281
         1
  0
CLASS
  1
IMAGE
  2
AcDbRasterImage
  3
ISM
 90
      127
280
         0
281
         1
  0
CLASS
  1
OLE2FRAME
  2
AcDbOle2Frame
  3
""
 90
        0
280
         0
281
         1
  0
CLASS
  1
HATCH
  2
AcDbHatch
  3
"ACAD_SEDONA"
 90
        0
280
         0
281
         1
  0
CLASS
  1
DICTIONARYVAR
  2
AcDbDictionaryVar
  3
"AutoCAD"
 90
        0
280
         0
281
         0
  0
CLASS
  1
RASTERVARIABLES
  2
AcDbRasterVariables
  3
ISM
 90
        0
280
         0
281
         0
  0
CLASS
  1
IMAGEDEF
  2
AcDbRasterImageDef
  3
ISM
 90
        0
280
         0
281
         0
  0
CLASS
  1
IMAGEDEF_REACTOR
  2
AcDbRasterImageDefReactor
  3
ISM
 90
        1
280
         0
281
         0
  0
CLASS
  1
IDBUFFER
  2
AcDbIdBuffer
  3
"Acad"
 90
        0
280
         0
281
         0
  0
CLASS
  1
SPATIAL_FILTER
  2
AcDbSpatialFilter
  3
"Acad"
 90
        0
280
         0
281
         0
  0
CLASS
  1
XRECORD
  2
AcDbXrecord
  3
"<Built In>"
 90
        0
280
         0
281
         0
  0
CLASS
  1
SORTENTSTABLE
  2
AcDbSortentsTable
  3
"AutoCAD"
 90
        0
280
         0
281
         0
  0
CLASS
  1
LAYER_INDEX
  2
AcDbLayerIndex
  3
"Acad"
 90
        0
280
         0
281
         0
  0
CLASS
  1
SPATIAL_INDEX
  2
AcDbSpatialIndex
  3
"Acad"
 90
        0
280
         0
281
         0
  0
CLASS
  1
OBJECT_PTR
  2
CAseDLPNTableRecord
  3
"ASE-LPNTableRecord"
 90
        1
280
         0
281
         0
  0
CLASS
  1
LAYOUT
  2
AcDbLayout
  3
"AutoCAD 2000"
 90
        1
280
         0
281
         0
  0
CLASS
  1
PLOTSETTINGS
  2
AcDbPlotSettings
  3
"AutoCAD 2000"
 90
        1
280
         0
281
         0
  0
CLASS
  1
ACDBDICTIONARYWDFLT
  2
AcDbDictionaryWithDefault
  3
"AutoCAD 2000"
 90
        1
280
         0
281
         0
  0
CLASS
  1
ACDBPLACEHOLDER
  2
AcDbPlaceHolder
  3
"AutoCAD 2000"
 90
        1
280
         0
281
         0
  0
CLASS
  1
VBA_PROJECT
  2
AcDbVbaProject
  3
"acadvba"
 90
        1
280
         0
281
         0
  0
CLASS
  1
WIPEOUT
  2
AcDbWipeout
  3
WipeOut|AutoCAD Express Tool|expresstools@autodesk.com
 90
      127
280
         0
281
         1
  0
CLASS
  1
WIPEOUTVARIABLES
  2
AcDbWipeoutVariables
  3
WipeOut|AutoCAD Express Tool|expresstools@autodesk.com
 90
        0
280
         0
281
         0
  0
CLASS
  1
RTEXT
  2
RText
  3
RText|AutoCAD Express Tool|expresstools@autodesk.com
 90
        0
280
         0
281
         1
  0
CLASS
  1
ARCALIGNEDTEXT
  2
AcDbArcAlignedText
  3
ATEXT|AutoCAD Express Tool|expresstools@autodesk.com
 90
        0
280
         0
281
         1
  0
ENDSEC
  0
SECTION
  2
TABLES
  0
TABLE
  2
VPORT
  5
7
100
AcDbSymbolTable
 70
         1
  0
VPORT
  5
15
100
AcDbSymbolTableRecord
100
AcDbViewportTableRecord
  2
*ACTIVE
 70
         0
 10
0.0
 20
0.0
 11
1.0
 21
1.0
 12
1420.3359724381
 22
83.8560369725
 13
0.0
 23
0.0
 14
1.0
 24
1.0
 15
0.0
 25
0.0
 16
0.0
 26
0.0
 36
1.0
 17
0.0
 27
0.0
 37
0.0
 40
319.0317711585
 41
1.9834619625
 42
50.0
 43
0.0
 44
0.0
 50
0.0
 51
0.0
 71
         0
 72
       100
 73
         1
 74
         1
 75
         0
 76
         0
 77
         0
 78
         0
  0
ENDTAB
  0
TABLE
  2
LTYPE
  5
4
100
AcDbSymbolTable
 70
         6
  0
LTYPE
  5
11
100
AcDbSymbolTableRecord
100
AcDbLinetypeTableRecord
  2
BYBLOCK
 70
        64
  3

 72
        65
 73
         0
 40
0.0
  0
LTYPE
  5
12
100
AcDbSymbolTableRecord
100
AcDbLinetypeTableRecord
  2
BYLAYER
 70
        64
  3

 72
        65
 73
         0
 40
0.0
  0
LTYPE
  5
13
100
AcDbSymbolTableRecord
100
AcDbLinetypeTableRecord
  2
CONTINUOUS
 70
        64
  3
Solid line
 72
        65
 73
         0
 40
0.0
  0
LTYPE
  5
1D
100
AcDbSymbolTableRecord
100
AcDbLinetypeTableRecord
  2
DASHED
 70
        64
  3
_ _ _ _ _ _ _ _ _ _ _ _ _ _ _ _
 72
        65
 73
         2
 40
0.2
 49
0.1
 74
         0
 49
-0.1
 74
         0
  0
LTYPE
  5
1E
100
AcDbSymbolTableRecord
100
AcDbLinetypeTableRecord
  2
CENTER
 70
        64
  3
___ _ ___ _ ___ _ ___ _ ___ _ ___ _ ___ _ ___ _
 72
        65
 73
         4
 40
0.95
 49
0.625
 74
         0
 49
-0.125
 74
         0
 49
0.075
 74
         0
 49
-0.125
 74
         0
  0
LTYPE
  5
1F
100
AcDbSymbolTableRecord
100
AcDbLinetypeTableRecord
  2
PHANTOM
 70
        64
  3
______  __  __  ______  __  __  ______  __  __  
 72
        65
 73
         6
 40
1.025
 49
0.625
 74
         0
 49
-0.125
 74
         0
 49
0.075
 74
         0
 49
-0.125
 74
         0
 49
0.075
 74
         0
 49
-0.125
 74
         0
  0
ENDTAB
  0
TABLE
  2
LAYER
  5
2
100
AcDbSymbolTable
 70
        11
  0
LAYER
  5
14
100
AcDbSymbolTableRecord
100
AcDbLayerTableRecord
  2
0
 70
         0
 62
         7
  6
CONTINUOUS
  0
LAYER
  5
21
100
AcDbSymbolTableRecord
100
AcDbLayerTableRecord
  2
_____U
 70
         1
 62
         7
  6
CONTINUOUS
  0
LAYER
  5
22
100
AcDbSymbolTableRecord
100
AcDbLayerTableRecord
  2
___T______
 70
         1
 62
         7
  6
CONTINUOUS
  0
LAYER
  5
23
100
AcDbSymbolTableRecord
100
AcDbLayerTableRecord
  2
_____T______
 70
         1
 62
         7
  6
CONTINUOUS
  0
LAYER
  5
24
100
AcDbSymbolTableRecord
100
AcDbLayerTableRecord
  2
______L_______
 70
         1
 62
         7
  6
CONTINUOUS
  0
LAYER
  5
25
100
AcDbSymbolTableRecord
100
AcDbLayerTableRecord
  2
ERTGDAOZ____
 70
         1
 62
         7
  6
CONTINUOUS
  0
LAYER
  5
26
100
AcDbSymbolTableRecord
100
AcDbLayerTableRecord
  2
_____M_____M____
 70
         1
 62
         7
  6
CONTINUOUS
  0
LAYER
  5
27
100
AcDbSymbolTableRecord
100
AcDbLayerTableRecord
  2
_Y__________
 70
         0
 62
         7
  6
CONTINUOUS
  0
LAYER
  5
28
100
AcDbSymbolTableRecord
100
AcDbLayerTableRecord
  2
_X______
 70
         0
 62
         7
  6
CONTINUOUS
  0
LAYER
  5
29
100
AcDbSymbolTableRecord
100
AcDbLayerTableRecord
  2
L1_45
 70
         0
 62
         7
  6
CONTINUOUS
  0
LAYER
  5
2E4
100
AcDbSymbolTableRecord
100
AcDbLayerTableRecord
  2
DEFPOINTS
 70
         0
 62
        -7
  6
CONTINUOUS
  0
ENDTAB
  0
TABLE
  2
STYLE
  5
3
100
AcDbSymbolTable
 70
        14
  0
STYLE
  5
17
100
AcDbSymbolTableRecord
100
AcDbTextStyleTableRecord
  2
STANDARD
 70
         0
 40
0.0
 41
1.0
 50
0.0
 71
         0
 42
0.0
  3
txt
  4

  0
STYLE
  5
2EE
100
AcDbSymbolTableRecord
100
AcDbTextStyleTableRecord
  2
BOX
 70
         0
 40
1.0
 41
1.0
 50
0.0
 71
         0
 42
0.2
  3
txt.shx
  4

  0
STYLE
  5
2FC
100
AcDbSymbolTableRecord
100
AcDbTextStyleTableRecord
  2
BOX
 70
         0
 40
1.0
 41
1.0
 50
0.0
 71
         0
 42
0.2
  3
txt.shx
  4

  0
STYLE
  5
30A
100
AcDbSymbolTableRecord
100
AcDbTextStyleTableRecord
  2
BOX
 70
         0
 40
1.0
 41
1.0
 50
0.0
 71
         0
 42
0.2
  3
txt.shx
  4

  0
STYLE
  5
320
100
AcDbSymbolTableRecord
100
AcDbTextStyleTableRecord
  2
BOX
 70
         0
 40
1.0
 41
1.0
 50
0.0
 71
         0
 42
0.2
  3
txt.shx
  4

  0
STYLE
  5
334
100
AcDbSymbolTableRecord
100
AcDbTextStyleTableRecord
  2
BOX
 70
         0
 40
1.0
 41
1.0
 50
0.0
 71
         0
 42
0.2
  3
txt.shx
  4

  0
STYLE
  5
345
100
AcDbSymbolTableRecord
100
AcDbTextStyleTableRecord
  2
BOX
 70
         0
 40
1.0
 41
1.0
 50
0.0
 71
         0
 42
0.2
  3
txt.shx
  4

  0
STYLE
  5
35B
100
AcDbSymbolTableRecord
100
AcDbTextStyleTableRecord
  2
BOX
 70
         0
 40
1.0
 41
1.0
 50
0.0
 71
         0
 42
0.2
  3
txt.shx
  4

  0
STYLE
  5
36E
100
AcDbSymbolTableRecord
100
AcDbTextStyleTableRecord
  2
BOX
 70
         0
 40
1.0
 41
1.0
 50
0.0
 71
         0
 42
0.2
  3
txt.shx
  4

  0
STYLE
  5
37C
100
AcDbSymbolTableRecord
100
AcDbTextStyleTableRecord
  2
BOX
 70
         0
 40
1.0
 41
1.0
 50
0.0
 71
         0
 42
0.2
  3
txt.shx
  4

  0
STYLE
  5
3A0
100
AcDbSymbolTableRecord
100
AcDbTextStyleTableRecord
  2
BOX
 70
         0
 40
1.0
 41
1.0
 50
0.0
 71
         0
 42
0.2
  3
txt.shx
  4

  0
STYLE
  5
3B2
100
AcDbSymbolTableRecord
100
AcDbTextStyleTableRecord
  2
BOX
 70
         0
 40
1.0
 41
1.0
 50
0.0
 71
         0
 42
0.2
  3
txt.shx
  4

  0
STYLE
  5
3C6
100
AcDbSymbolTableRecord
100
AcDbTextStyleTableRecord
  2
BOX
 70
         0
 40
1.0
 41
1.0
 50
0.0
 71
         0
 42
0.2
  3
txt.shx
  4

  0
STYLE
  5
3C9
100
AcDbSymbolTableRecord
100
AcDbTextStyleTableRecord
  2
BOX
 70
         0
 40
1.0
 41
1.0
 50
0.0
 71
         0
 42
0.2
  3
txt.shx
  4

  0
ENDTAB
  0
TABLE
  2
VIEW
  5
5
100
AcDbSymbolTable
 70
         0
  0
ENDTAB
  0
TABLE
  2
UCS
  5
6
100
AcDbSymbolTable
 70
         1
  0
UCS
  5
20
100
AcDbSymbolTableRecord
100
AcDbUCSTableRecord
  2
CK_VIEW_1
 70
         0
 10
0.0
 20
0.0
 30
1.0
 11
1.0
 21
0.0
 31
0.0
 12
0.0
 22
1.0
 32
0.0
  0
ENDTAB
  0
TABLE
  2
APPID
  5
8
100
AcDbSymbolTable
 70
         1
  0
APPID
  5
16
100
AcDbSymbolTableRecord
100
AcDbRegAppTableRecord
  2
ACAD
 70
         0
  0
ENDTAB
  0
TABLE
  2
DIMSTYLE
  5
9
100
AcDbSymbolTable
 70
         2
  0
DIMSTYLE
105
18
100
AcDbSymbolTableRecord
100
AcDbDimStyleTableRecord
  2
STANDARD
 70
         0
  3

  4

  5

  6

  7

 40
1.0
 41
0.18
 42
0.0625
 43
0.38
 44
0.18
 45
0.0
 46
0.0
 47
0.0
 48
0.0
 71
         0
 72
         0
 73
         1
 74
         1
 75
         0
 76
         0
 77
         0
 78
         0
140
0.18
141
0.09
142
0.0
143
25.4
144
1.0
145
0.0
146
1.0
147
0.09
170
         0
171
         2
172
         0
173
         0
174
         0
175
         0
176
         0
177
         0
178
         0
270
         2
271
         4
272
         4
273
         2
274
         2
275
         0
280
         0
281
         0
282
         0
283
         1
284
         0
285
         0
286
         0
287
         0
288
         0
340
17
  0
DIMSTYLE
105
2E0
100
AcDbSymbolTableRecord
100
AcDbDimStyleTableRecord
  2
DIMSTYLE1
 70
         0
  3

  4

  5

  6

  7

 40
1.0
 41
2.7
 42
0.0625
 43
0.38
 44
2.7
 45
0.0
 46
0.0
 47
0.0
 48
0.0
 71
         0
 72
         0
 73
         1
 74
         1
 75
         0
 76
         0
 77
         0
 78
         0
140
2.7
141
0.09
142
0.0
143
25.4
144
1.0
145
0.0
146
1.0
147
0.09
170
         0
171
         2
172
         0
173
         0
174
         0
175
         0
176
         0
177
         0
178
         0
270
         2
271
         4
272
         4
273
         2
274
         2
275
         0
280
         0
281
         0
282
         0
283
         1
284
         0
285
         0
286
         0
287
         0
288
         0
340
17
  0
ENDTAB
  0
TABLE
  2
BLOCK_RECORD
  5
1
100
AcDbSymbolTable
 70
        13
  0
BLOCK_RECORD
  5
A
100
AcDbSymbolTableRecord
100
AcDbBlockTableRecord
  2
*MODEL_SPACE
  0
BLOCK_RECORD
  5
B
100
AcDbSymbolTableRecord
100
AcDbBlockTableRecord
  2
*PAPER_SPACE
  0
BLOCK_RECORD
  5
2C
100
AcDbSymbolTableRecord
100
AcDbBlockTableRecord
  2
*X0
  0
BLOCK_RECORD
  5
2E1
100
AcDbSymbolTableRecord
100
AcDbBlockTableRecord
  2
*D1
  0
BLOCK_RECORD
  5
2F1
100
AcDbSymbolTableRecord
100
AcDbBlockTableRecord
  2
*D2
  0
BLOCK_RECORD
  5
2FF
100
AcDbSymbolTableRecord
100
AcDbBlockTableRecord
  2
*D3
  0
BLOCK_RECORD
  5
315
100
AcDbSymbolTableRecord
100
AcDbBlockTableRecord
  2
*D4
  0
BLOCK_RECORD
  5
329
100
AcDbSymbolTableRecord
100
AcDbBlockTableRecord
  2
*D5
  0
BLOCK_RECORD
  5
33A
100
AcDbSymbolTableRecord
100
AcDbBlockTableRecord
  2
*D6
  0
BLOCK_RECORD
  5
350
100
AcDbSymbolTableRecord
100
AcDbBlockTableRecord
  2
*D7
  0
BLOCK_RECORD
  5
363
100
AcDbSymbolTableRecord
100
AcDbBlockTableRecord
  2
*D8
  0
BLOCK_RECORD
  5
371
100
AcDbSymbolTableRecord
100
AcDbBlockTableRecord
  2
*D9
  0
BLOCK_RECORD
  5
395
100
AcDbSymbolTableRecord
100
AcDbBlockTableRecord
  2
*D10
  0
BLOCK_RECORD
  5
3A5
100
AcDbSymbolTableRecord
100
AcDbBlockTableRecord
  2
*D11
  0
BLOCK_RECORD
  5
3BB
100
AcDbSymbolTableRecord
100
AcDbBlockTableRecord
  2
*D12
  0
ENDTAB
  0
ENDSEC
  0
SECTION
  2
BLOCKS
  0
BLOCK
  5
D
100
AcDbEntity
  8
0
100
AcDbBlockBegin
  2
*MODEL_SPACE
 70
         0
 10
0.0
 20
0.0
 30
0.0
  3
*MODEL_SPACE
  1

  0
ENDBLK
  5
E
100
AcDbEntity
  8
0
100
AcDbBlockEnd
  0
BLOCK
  5
F
100
AcDbEntity
 67
         1
  8
0
100
AcDbBlockBegin
  2
*PAPER_SPACE
 70
         0
 10
0.0
 20
0.0
 30
0.0
  3
*PAPER_SPACE
  1

  0
ENDBLK
  5
10
100
AcDbEntity
 67
         1
  8
0
100
AcDbBlockEnd
  0
BLOCK
  5
2D
100
AcDbEntity
  8
0
100
AcDbBlockBegin
  2
*X0
 70
        65
 10
0.0
 20
0.0
 30
0.0
  3
*X0
  1

  0
LINE
  5
2E
100
AcDbEntity
  8
L1_45
  6
CONTINUOUS
 62
         4
100
AcDbLine
 10
1434.4087631004
 20
-35.2134853426
 30
0.0
 11
1435.0404909782
 21
-34.5817574648
 31
0.0
  0
LINE
  5
2F
100
AcDbEntity
  8
L1_45
  6
CONTINUOUS
 62
         4
100
AcDbLine
 10
1430.1512730152
 20
-35.2283347407
 30
0.0
 11
1435.0553403763
 21
-30.3242673796
 31
0.0
  0
LINE
  5
30
100
AcDbEntity
  8
L1_45
  6
CONTINUOUS
 62
         4
100
AcDbLine
 10
1439.9362730152
 20
-25.4433347407
 30
0.0
 11
1445.0033403763
 21
-20.3762673796
 31
0.0
  0
LINE
  5
31
100
AcDbEntity
  8
L1_45
  6
CONTINUOUS
 62
         4
100
AcDbLine
 10
1416.4186323279
 20
-44.7183347409
 30
0.0
 11
1419.1033403763
 21
-42.0336266925
 31
0.0
  0
LINE
  5
32
100
AcDbEntity
  8
L1_45
  6
CONTINUOUS
 62
         4
100
AcDbLine
 10
1425.9086323281
 20
-35.2283347407
 30
0.0
 11
1442.2302892884
 21
-18.9066777803
 31
0.0
  0
LINE
  5
33
100
AcDbEntity
  8
L1_45
  6
CONTINUOUS
 62
         4
100
AcDbLine
 10
1413.7378635867
 20
-43.1564627949
 30
0.0
 11
1419.1033403763
 21
-37.7909860054
 31
0.0
  0
LINE
  5
34
100
AcDbEntity
  8
L1_45
  6
CONTINUOUS
 62
         4
100
AcDbLine
 10
1421.665991641
 20
-35.2283347407
 30
0.0
 11
1438.0908810631
 21
-18.8034453186
 31
0.0
  0
LINE
  5
35
100
AcDbEntity
  8
L1_45
  6
CONTINUOUS
 62
         4
100
AcDbLine
 10
1411.5833509539
 20
-41.0683347407
 30
0.0
 11
1433.9514728377
 21
-18.7002128568
 31
0.0
  0
LINE
  5
36
100
AcDbEntity
  8
L1_45
  6
CONTINUOUS
 62
         4
100
AcDbLine
 10
1403.7832349574
 20
-44.62581005
 30
0.0
 11
1429.8120646124
 21
-18.596980395
 31
0.0
  0
LINE
  5
37
100
AcDbEntity
  8
L1_45
  6
CONTINUOUS
 62
         4
100
AcDbLine
 10
1441.4085602537
 20
-7.0004847538
 30
0.0
 11
1445.0033403763
 21
-3.4057046312
 31
0.0
  0
LINE
  5
38
100
AcDbEntity
  8
L1_45
  6
CONTINUOUS
 62
         4
100
AcDbLine
 10
1403.2033403763
 20
-40.9630639441
 30
0.0
 11
1424.4730695796
 21
-19.6933347407
 31
0.0
  0
LINE
  5
39
100
AcDbEntity
  8
L1_45
  6
CONTINUOUS
 62
         4
100
AcDbLine
 10
1437.0574063926
 20
-7.1089979277
 30
0.0
 11
1443.6242468773
 21
-0.542157443
 31
0.0
  0
LINE
  5
3A
100
AcDbEntity
  8
L1_45
  6
CONTINUOUS
 62
         4
100
AcDbLine
 10
1403.2033403763
 20
-36.7204232569
 30
0.0
 11
1420.2304288925
 21
-19.6933347407
 31
0.0
  0
LINE
  5
3B
100
AcDbEntity
  8
L1_45
  6
CONTINUOUS
 62
         4
100
AcDbLine
 10
1432.7062525316
 20
-7.2175111016
 30
0.0
 11
1439.4804288925
 21
-0.4433347407
 31
0.0
  0
LINE
  5
3C
100
AcDbEntity
  8
L1_45
  6
CONTINUOUS
 62
         4
100
AcDbLine
 10
1400.4479493908
 20
-35.2331735553
 30
0.0
 11
1417.1955642908
 21
-18.4855586552
 31
0.0
  0
LINE
  5
3D
100
AcDbEntity
  8
L1_45
  6
CONTINUOUS
 62
         4
100
AcDbLine
 10
1428.6955642908
 20
-6.9855586552
 30
0.0
 11
1435.7352959969
 21
0.0541730508
 31
0.0
  0
LINE
  5
3E
100
AcDbEntity
  8
L1_45
  6
CONTINUOUS
 62
         4
100
AcDbLine
 10
1396.7452811547
 20
-34.6932011042
 30
0.0
 11
1413.254431711
 21
-18.1840505479
 31
0.0
  0
LINE
  5
3F
100
AcDbEntity
  8
L1_45
  6
CONTINUOUS
 62
         4
100
AcDbLine
 10
1425.2451475183
 20
-6.1933347407
 30
0.0
 11
1435.0553403763
 21
3.6168581173
 31
0.0
  0
LINE
  5
40
100
AcDbEntity
  8
L1_45
  6
CONTINUOUS
 62
         4
100
AcDbLine
 10
1393.0426129187
 20
-34.1532286531
 30
0.0
 11
1409.1150234857
 21
-18.0808180862
 31
0.0
  0
LINE
  5
41
100
AcDbEntity
  8
L1_45
  6
CONTINUOUS
 62
         4
100
AcDbLine
 10
1421.0025068312
 20
-6.1933347407
 30
0.0
 11
1421.4533347738
 21
-5.7425067981
 31
0.0
  0
LINE
  5
42
100
AcDbEntity
  8
L1_45
  6
CONTINUOUS
 62
         4
100
AcDbLine
 10
1424.7533360575
 20
-2.4425055143
 30
0.0
 11
1435.0553403763
 21
7.8594988044
 31
0.0
  0
LINE
  5
43
100
AcDbEntity
  8
L1_45
  6
CONTINUOUS
 62
         4
100
AcDbLine
 10
1392.3833403763
 20
-30.5698605085
 30
0.0
 11
1404.9756152603
 21
-17.9775856244
 31
0.0
  0
LINE
  5
44
100
AcDbEntity
  8
L1_45
  6
CONTINUOUS
 62
         4
100
AcDbLine
 10
1415.3016370875
 20
-7.6515637972
 30
0.0
 11
1421.4533364242
 21
-1.4998644605
 31
0.0
  0
LINE
  5
45
100
AcDbEntity
  8
L1_45
  6
CONTINUOUS
 62
         4
100
AcDbLine
 10
1424.753337708
 20
1.8001368233
 30
0.0
 11
1432.294866144
 21
9.3416652593
 31
0.0
  0
LINE
  5
46
100
AcDbEntity
  8
L1_45
  6
CONTINUOUS
 62
         4
100
AcDbLine
 10
1392.3833403763
 20
-26.3272198213
 30
0.0
 11
1400.3320389063
 21
-18.3785212913
 31
0.0
  0
LINE
  5
47
100
AcDbEntity
  8
L1_45
  6
CONTINUOUS
 62
         4
100
AcDbLine
 10
1410.9504832265
 20
-7.7600769711
 30
0.0
 11
1419.4070133927
 21
0.6964531951
 31
0.0
  0
LINE
  5
48
100
AcDbEntity
  8
L1_45
  6
CONTINUOUS
 62
         4
100
AcDbLine
 10
1425.1033394946
 20
6.392779297
 30
0.0
 11
1428.0522254569
 21
9.3416652593
 31
0.0
  0
LINE
  5
49
100
AcDbEntity
  8
L1_45
  6
CONTINUOUS
 62
         4
100
AcDbLine
 10
1392.3833403763
 20
-22.0845791342
 30
0.0
 11
1396.0893982191
 21
-18.3785212913
 31
0.0
  0
LINE
  5
4A
100
AcDbEntity
  8
L1_45
  6
CONTINUOUS
 62
         4
100
AcDbLine
 10
1406.5993293654
 20
-7.868590145
 30
0.0
 11
1416.9116470378
 21
2.4437275274
 31
0.0
  0
LINE
  5
4B
100
AcDbEntity
  8
L1_45
  6
CONTINUOUS
 62
         4
100
AcDbLine
 10
1419.2810966799
 20
4.8131771695
 30
0.0
 11
1421.103339589
 21
6.6354200786
 31
0.0
  0
LINE
  5
4C
100
AcDbEntity
  8
L1_45
  6
CONTINUOUS
 62
         4
100
AcDbLine
 10
1402.2481755044
 20
-7.9771033189
 30
0.0
 11
1414.416280683
 21
4.1910018596
 31
0.0
  0
LINE
  5
4D
100
AcDbEntity
  8
L1_45
  6
CONTINUOUS
 62
         4
100
AcDbLine
 10
1416.7857303251
 20
6.5604515017
 30
0.0
 11
1419.5681817439
 21
9.3429029206
 31
0.0
  0
LINE
  5
4E
100
AcDbEntity
  8
L1_45
  6
CONTINUOUS
 62
         4
100
AcDbLine
 10
1398.4744899462
 20
-7.50814819
 30
0.0
 11
1411.9209143281
 21
5.9382761919
 31
0.0
  0
LINE
  5
4F
100
AcDbEntity
  8
L1_45
  6
CONTINUOUS
 62
         4
100
AcDbLine
 10
1414.2903639702
 20
8.307725834
 30
0.0
 11
1419.1033403763
 21
13.12070224
 31
0.0
  0
LINE
  5
50
100
AcDbEntity
  8
L1_45
  6
CONTINUOUS
 62
         4
100
AcDbLine
 10
1370.8266035025
 20
-30.9133939466
 30
0.0
 11
1373.1333403763
 21
-28.6066570729
 31
0.0
  0
LINE
  5
51
100
AcDbEntity
  8
L1_45
  6
CONTINUOUS
 62
         4
100
AcDbLine
 10
1394.2318492591
 20
-7.50814819
 30
0.0
 11
1409.4255479733
 21
7.6855505241
 31
0.0
  0
LINE
  5
52
100
AcDbEntity
  8
L1_45
  6
CONTINUOUS
 62
         4
100
AcDbLine
 10
1411.7949976154
 20
10.0550001662
 30
0.0
 11
1419.1033403763
 21
17.3633429271
 31
0.0
  0
LINE
  5
53
100
AcDbEntity
  8
L1_45
  6
CONTINUOUS
 62
         4
100
AcDbLine
 10
1367.1239352665
 20
-30.3734214955
 30
0.0
 11
1373.1333403763
 21
-24.3640163857
 31
0.0
  0
LINE
  5
54
100
AcDbEntity
  8
L1_45
  6
CONTINUOUS
 62
         4
100
AcDbLine
 10
1387.6540220213
 20
-9.8433347407
 30
0.0
 11
1389.003441672
 21
-8.49391509
 31
0.0
  0
LINE
  5
55
100
AcDbEntity
  8
L1_45
  6
CONTINUOUS
 62
         4
100
AcDbLine
 10
1389.9891072763
 20
-7.5082494857
 30
0.0
 11
1406.9301816184
 21
9.4328248564
 31
0.0
  0
LINE
  5
56
100
AcDbEntity
  8
L1_45
  6
CONTINUOUS
 62
         4
100
AcDbLine
 10
1409.2996312605
 20
11.8022744985
 30
0.0
 11
1416.3290220215
 21
18.8316652595
 31
0.0
  0
LINE
  5
57
100
AcDbEntity
  8
L1_45
  6
CONTINUOUS
 62
         4
100
AcDbLine
 10
1363.4212670305
 20
-29.8334490444
 30
0.0
 11
1373.1333403763
 21
-20.1213756986
 31
0.0
  0
LINE
  5
58
100
AcDbEntity
  8
L1_45
  6
CONTINUOUS
 62
         4
100
AcDbLine
 10
1383.4113813342
 20
-9.8433347407
 30
0.0
 11
1402.5113813342
 21
9.2566652593
 31
0.0
  0
LINE
  5
59
100
AcDbEntity
  8
L1_45
  6
CONTINUOUS
 62
         4
100
AcDbLine
 10
1403.2033403763
 20
9.9486243014
 30
0.0
 11
1404.4348152635
 21
11.1800991887
 31
0.0
  0
LINE
  5
5A
100
AcDbEntity
  8
L1_45
  6
CONTINUOUS
 62
         4
100
AcDbLine
 10
1406.8042649056
 20
13.5495488308
 30
0.0
 11
1409.2212527416
 21
15.9665366668
 31
0.0
  0
LINE
  5
5B
100
AcDbEntity
  8
L1_45
  6
CONTINUOUS
 62
         4
100
AcDbLine
 10
1359.7185987944
 20
-29.2934765933
 30
0.0
 11
1372.9687406471
 21
-16.0433347407
 31
0.0
  0
LINE
  5
5C
100
AcDbEntity
  8
L1_45
  6
CONTINUOUS
 62
         4
100
AcDbLine
 10
1379.1687406471
 20
-9.8433347407
 30
0.0
 11
1398.0018577665
 21
8.9897823787
 31
0.0
  0
LINE
  5
5D
100
AcDbEntity
  8
L1_45
  6
CONTINUOUS
 62
         4
100
AcDbLine
 10
1404.596104568
 20
15.5840291803
 30
0.0
 11
1407.668338471
 21
18.6562630833
 31
0.0
  0
LINE
  5
5E
100
AcDbEntity
  8
L1_45
  6
CONTINUOUS
 62
         4
100
AcDbLine
 10
1356.0159305584
 20
-28.7535041422
 30
0.0
 11
1364.82609996
 21
-19.9433347407
 31
0.0
  0
LINE
  5
5F
100
AcDbEntity
  8
L1_45
  6
CONTINUOUS
 62
         4
100
AcDbLine
 10
1374.92609996
 20
-9.8433347407
 30
0.0
 11
1393.0348637913
 21
8.2654290907
 31
0.0
  0
LINE
  5
60
100
AcDbEntity
  8
L1_45
  6
CONTINUOUS
 62
         4
100
AcDbLine
 10
1352.3132623224
 20
-28.2135316911
 30
0.0
 11
1360.5834592728
 21
-19.9433347407
 31
0.0
  0
LINE
  5
61
100
AcDbEntity
  8
L1_45
  6
CONTINUOUS
 62
         4
100
AcDbLine
 10
1370.7948251952
 20
-9.7319688183
 30
0.0
 11
1388.0678698162
 21
7.5410758026
 31
0.0
  0
LINE
  5
62
100
AcDbEntity
  8
L1_45
  6
CONTINUOUS
 62
         4
100
AcDbLine
 10
1348.6105940863
 20
-27.6735592401
 30
0.0
 11
1356.3408185857
 21
-19.9433347407
 31
0.0
  0
LINE
  5
63
100
AcDbEntity
  8
L1_45
  6
CONTINUOUS
 62
         4
100
AcDbLine
 10
1369.2419109246
 20
-7.0422424018
 30
0.0
 11
1383.100875841
 21
6.8167225146
 31
0.0
  0
LINE
  5
64
100
AcDbEntity
  8
L1_45
  6
CONTINUOUS
 62
         4
100
AcDbLine
 10
1344.9079258503
 20
-27.133586789
 30
0.0
 11
1352.0981778986
 21
-19.9433347407
 31
0.0
  0
LINE
  5
65
100
AcDbEntity
  8
L1_45
  6
CONTINUOUS
 62
         4
100
AcDbLine
 10
1366.0981778986
 20
-5.9433347407
 30
0.0
 11
1378.1338818658
 21
6.0923692266
 31
0.0
  0
LINE
  5
66
100
AcDbEntity
  8
L1_45
  6
CONTINUOUS
 62
         4
100
AcDbLine
 10
1341.2052576143
 20
-26.5936143379
 30
0.0
 11
1347.8555372115
 21
-19.9433347407
 31
0.0
  0
LINE
  5
67
100
AcDbEntity
  8
L1_45
  6
CONTINUOUS
 62
         4
100
AcDbLine
 10
1361.8555372115
 20
-5.9433347407
 30
0.0
 11
1373.1668878907
 21
5.3680159385
 31
0.0
  0
LINE
  5
68
100
AcDbEntity
  8
L1_45
  6
CONTINUOUS
 62
         4
100
AcDbLine
 10
1337.5025893782
 20
-26.0536418868
 30
0.0
 11
1343.6128965244
 21
-19.9433347407
 31
0.0
  0
LINE
  5
69
100
AcDbEntity
  8
L1_45
  6
CONTINUOUS
 62
         4
100
AcDbLine
 10
1357.6128965244
 20
-5.9433347407
 30
0.0
 11
1368.1998939155
 21
4.6436626505
 31
0.0
  0
LINE
  5
6A
100
AcDbEntity
  8
L1_45
  6
CONTINUOUS
 62
         4
100
AcDbLine
 10
1333.7999211422
 20
-25.5136694357
 30
0.0
 11
1339.3702558372
 21
-19.9433347407
 31
0.0
  0
LINE
  5
6B
100
AcDbEntity
  8
L1_45
  6
CONTINUOUS
 62
         4
100
AcDbLine
 10
1353.3702558372
 20
-5.9433347407
 30
0.0
 11
1363.2328999403
 21
3.9193093624
 31
0.0
  0
LINE
  5
6C
100
AcDbEntity
  8
L1_45
  6
CONTINUOUS
 62
         4
100
AcDbLine
 10
1331.7533403763
 20
-23.3176095145
 30
0.0
 11
1333.9776151501
 21
-21.0933347407
 31
0.0
  0
LINE
  5
6D
100
AcDbEntity
  8
L1_45
  6
CONTINUOUS
 62
         4
100
AcDbLine
 10
1349.1276151501
 20
-5.9433347407
 30
0.0
 11
1358.2659059652
 21
3.1949560744
 31
0.0
  0
LINE
  5
6E
100
AcDbEntity
  8
L1_45
  6
CONTINUOUS
 62
         4
100
AcDbLine
 10
1344.884974463
 20
-5.9433347407
 30
0.0
 11
1353.29891199
 21
2.4706027863
 31
0.0
  0
LINE
  5
6F
100
AcDbEntity
  8
L1_45
  6
CONTINUOUS
 62
         4
100
AcDbLine
 10
1340.6423337759
 20
-5.9433347407
 30
0.0
 11
1348.3319180148
 21
1.7462494983
 31
0.0
  0
LINE
  5
70
100
AcDbEntity
  8
L1_45
  6
CONTINUOUS
 62
         4
100
AcDbLine
 10
1337.0279380887
 20
-5.3150897407
 30
0.0
 11
1343.3649240397
 21
1.0218962102
 31
0.0
  0
LINE
  5
71
100
AcDbEntity
  8
L1_45
  6
CONTINUOUS
 62
         4
100
AcDbLine
 10
1333.3070524016
 20
-4.7933347407
 30
0.0
 11
1338.3979300645
 21
0.2975429222
 31
0.0
  0
LINE
  5
72
100
AcDbEntity
  8
L1_45
  6
CONTINUOUS
 62
         4
100
AcDbLine
 10
1331.7533403763
 20
-2.104406079
 30
0.0
 11
1333.4309360894
 21
-0.4268103658
 31
0.0
  0
ENDBLK
  5
73
100
AcDbEntity
  8
0
  6
CONTINUOUS
100
AcDbBlockEnd
  0
BLOCK
  5
2E2
100
AcDbEntity
  8
0
100
AcDbBlockBegin
  2
*D1
 70
        65
 10
0.0
 20
0.0
 30
0.0
  3
*D1
  1

  0
POINT
  5
2E5
100
AcDbEntity
  8
DEFPOINTS
  6
CONTINUOUS
 62
         0
100
AcDbPoint
 10
1399.2722003926
 20
-18.3785212913
 30
0.0
  0
POINT
  5
2E6
100
AcDbEntity
  8
DEFPOINTS
  6
CONTINUOUS
 62
         0
100
AcDbPoint
 10
1401.0033403763
 20
-18.3785212913
 30
0.0
  0
POINT
  5
2E7
100
AcDbEntity
  8
DEFPOINTS
  6
CONTINUOUS
 62
         0
100
AcDbPoint
 10
1401.0033403763
 20
-7.50814819
 30
0.0
  0
LINE
  5
2E8
100
AcDbEntity
  8
L1_45
  6
CONTINUOUS
 62
         4
100
AcDbLine
 10
1399.6533403763
 20
-18.3785212913
 30
0.0
 11
1398.5972003926
 21
-18.3785212913
 31
0.0
  0
LINE
  5
2E9
100
AcDbEntity
  8
L1_45
  6
CONTINUOUS
 62
         4
100
AcDbLine
 10
1399.6533403763
 20
-7.50814819
 30
0.0
 11
1398.5972003926
 21
-7.50814819
 31
0.0
  0
LINE
  5
2EA
100
AcDbEntity
  8
L1_45
  6
CONTINUOUS
 62
         4
100
AcDbLine
 10
1399.2722003926
 20
-18.3785212913
 30
0.0
 11
1399.2722003926
 21
-7.50814819
 31
0.0
  0
SOLID
  5
2EB
100
AcDbEntity
  8
L1_45
  6
CONTINUOUS
 62
         4
100
AcDbTrace
 10
1399.2722003926
 20
-18.3785212913
 30
0.0
 11
1398.8672003926
 21
-15.6785212913
 31
0.0
 12
1399.6772003926
 22
-15.6785212913
 32
0.0
 13
1399.2722003926
 23
-18.3785212913
 33
0.0
  0
LINE
  5
2EC
100
AcDbEntity
  8
L1_45
  6
CONTINUOUS
 62
         4
100
AcDbLine
 10
1399.2722003926
 20
-18.3785212913
 30
0.0
 11
1399.2722003926
 21
-58.8386342267
 31
0.0
  0
SOLID
  5
2ED
100
AcDbEntity
  8
L1_45
  6
CONTINUOUS
 62
         4
100
AcDbTrace
 10
1399.2722003926
 20
-7.50814819
 30
0.0
 11
1399.6772003926
 21
-10.20814819
 31
0.0
 12
1398.8672003926
 22
-10.20814819
 32
0.0
 13
1399.2722003926
 23
-7.50814819
 33
0.0
  0
TEXT
  5
2EF
100
AcDbEntity
  8
L1_45
  6
CONTINUOUS
 62
         4
100
AcDbText
 10
1397.2472003926
 20
-57.4886342267
 30
0.0
 40
2.7
  1
崷10.73
 50
90.0
  7
BOX
100
AcDbText
  0
ENDBLK
  5
2F0
100
AcDbEntity
  8
0
  6
CONTINUOUS
100
AcDbBlockEnd
  0
BLOCK
  5
2F2
100
AcDbEntity
  8
0
100
AcDbBlockBegin
  2
*D2
 70
        65
 10
0.0
 20
0.0
 30
0.0
  3
*D2
  1

  0
POINT
  5
2F4
100
AcDbEntity
  8
DEFPOINTS
  6
CONTINUOUS
 62
         0
100
AcDbPoint
 10
1400.0033403763
 20
217.5833488134
 30
0.0
  0
POINT
  5
2F5
100
AcDbEntity
  8
DEFPOINTS
  6
CONTINUOUS
 62
         0
100
AcDbPoint
 10
1400.0033403763
 20
172.4096417294
 30
0.0
  0
POINT
  5
2F6
100
AcDbEntity
  8
DEFPOINTS
  6
CONTINUOUS
 62
         0
100
AcDbPoint
 10
1445.0033403763
 20
150.1846417294
 30
0.0
  0
LINE
  5
2F7
100
AcDbEntity
  8
L1_45
  6
CONTINUOUS
 62
         4
100
AcDbLine
 10
1400.0033403763
 20
173.7596417294
 30
0.0
 11
1400.0033403763
 21
218.2583488134
 31
0.0
  0
LINE
  5
2F8
100
AcDbEntity
  8
L1_45
  6
CONTINUOUS
 62
         4
100
AcDbLine
 10
1445.0033403763
 20
151.5346417294
 30
0.0
 11
1445.0033403763
 21
218.2583488134
 31
0.0
  0
LINE
  5
2F9
100
AcDbEntity
  8
L1_45
  6
CONTINUOUS
 62
         4
100
AcDbLine
 10
1400.0033403763
 20
217.5833488134
 30
0.0
 11
1445.0033403763
 21
217.5833488134
 31
0.0
  0
SOLID
  5
2FA
100
AcDbEntity
  8
L1_45
  6
CONTINUOUS
 62
         4
100
AcDbTrace
 10
1400.0033403763
 20
217.5833488134
 30
0.0
 11
1402.7033403763
 21
217.9883488134
 31
0.0
 12
1402.7033403763
 22
217.1783488134
 32
0.0
 13
1400.0033403763
 23
217.5833488134
 33
0.0
  0
SOLID
  5
2FB
100
AcDbEntity
  8
L1_45
  6
CONTINUOUS
 62
         4
100
AcDbTrace
 10
1445.0033403763
 20
217.5833488134
 30
0.0
 11
1442.3033403763
 21
217.1783488134
 31
0.0
 12
1442.3033403763
 22
217.9883488134
 32
0.0
 13
1445.0033403763
 23
217.5833488134
 33
0.0
  0
TEXT
  5
2FD
100
AcDbEntity
  8
L1_45
  6
CONTINUOUS
 62
         4
100
AcDbText
 10
1419.7820729007
 20
219.6083488134
 30
0.0
 40
2.7
  1
45
  7
BOX
100
AcDbText
  0
ENDBLK
  5
2FE
100
AcDbEntity
  8
0
  6
CONTINUOUS
100
AcDbBlockEnd
  0
BLOCK
  5
300
100
AcDbEntity
  8
0
100
AcDbBlockBegin
  2
*D3
 70
        65
 10
0.0
 20
0.0
 30
0.0
  3
*D3
  1

  0
POINT
  5
302
100
AcDbEntity
  8
DEFPOINTS
  6
CONTINUOUS
 62
         0
100
AcDbPoint
 10
1331.7533403763
 20
224.0262539896
 30
0.0
  0
POINT
  5
303
100
AcDbEntity
  8
DEFPOINTS
  6
CONTINUOUS
 62
         0
100
AcDbPoint
 10
1331.7533403763
 20
161.4188234458
 30
0.0
  0
POINT
  5
304
100
AcDbEntity
  8
DEFPOINTS
  6
CONTINUOUS
 62
         0
100
AcDbPoint
 10
1445.0033403763
 20
150.1846417294
 30
0.0
  0
LINE
  5
305
100
AcDbEntity
  8
L1_45
  6
CONTINUOUS
 62
         4
100
AcDbLine
 10
1331.7533403763
 20
162.7688234458
 30
0.0
 11
1331.7533403763
 21
224.7012539896
 31
0.0
  0
LINE
  5
306
100
AcDbEntity
  8
L1_45
  6
CONTINUOUS
 62
         4
100
AcDbLine
 10
1445.0033403763
 20
151.5346417294
 30
0.0
 11
1445.0033403763
 21
224.7012539896
 31
0.0
  0
LINE
  5
307
100
AcDbEntity
  8
L1_45
  6
CONTINUOUS
 62
         4
100
AcDbLine
 10
1331.7533403763
 20
224.0262539896
 30
0.0
 11
1445.0033403763
 21
224.0262539896
 31
0.0
  0
SOLID
  5
308
100
AcDbEntity
  8
L1_45
  6
CONTINUOUS
 62
         4
100
AcDbTrace
 10
1331.7533403763
 20
224.0262539896
 30
0.0
 11
1334.4533403763
 21
224.4312539896
 31
0.0
 12
1334.4533403763
 22
223.6212539896
 32
0.0
 13
1331.7533403763
 23
224.0262539896
 33
0.0
  0
SOLID
  5
309
100
AcDbEntity
  8
L1_45
  6
CONTINUOUS
 62
         4
100
AcDbTrace
 10
1445.0033403763
 20
224.0262539896
 30
0.0
 11
1442.3033403763
 21
223.6212539896
 31
0.0
 12
1442.3033403763
 22
224.4312539896
 32
0.0
 13
1445.0033403763
 23
224.0262539896
 33
0.0
  0
TEXT
  5
30B
100
AcDbEntity
  8
L1_45
  6
CONTINUOUS
 62
         4
100
AcDbText
 10
1379.9794036991
 20
226.0512539896
 30
0.0
 40
2.7
  1
113.25
  7
BOX
100
AcDbText
  0
ENDBLK
  5
30C
100
AcDbEntity
  8
0
  6
CONTINUOUS
100
AcDbBlockEnd
  0
BLOCK
  5
316
100
AcDbEntity
  8
0
100
AcDbBlockBegin
  2
*D4
 70
        65
 10
0.0
 20
0.0
 30
0.0
  3
*D4
  1

  0
POINT
  5
318
100
AcDbEntity
  8
DEFPOINTS
  6
CONTINUOUS
 62
         0
100
AcDbPoint
 10
1456.1867427475
 20
-6.1933347407
 30
0.0
  0
POINT
  5
319
100
AcDbEntity
  8
DEFPOINTS
  6
CONTINUOUS
 62
         0
100
AcDbPoint
 10
1427.9033403763
 20
-6.1933347407
 30
0.0
  0
POINT
  5
31A
100
AcDbEntity
  8
DEFPOINTS
  6
CONTINUOUS
 62
         0
100
AcDbPoint
 10
1427.9033403763
 20
-19.6933347407
 30
0.0
  0
LINE
  5
31B
100
AcDbEntity
  8
L1_45
  6
CONTINUOUS
 62
         4
100
AcDbLine
 10
1429.2533403763
 20
-6.1933347407
 30
0.0
 11
1456.8617427475
 21
-6.1933347407
 31
0.0
  0
LINE
  5
31C
100
AcDbEntity
  8
L1_45
  6
CONTINUOUS
 62
         4
100
AcDbLine
 10
1429.2533403763
 20
-19.6933347407
 30
0.0
 11
1456.8617427475
 21
-19.6933347407
 31
0.0
  0
LINE
  5
31D
100
AcDbEntity
  8
L1_45
  6
CONTINUOUS
 62
         4
100
AcDbLine
 10
1456.1867427475
 20
-6.1933347407
 30
0.0
 11
1456.1867427475
 21
-19.6933347407
 31
0.0
  0
SOLID
  5
31E
100
AcDbEntity
  8
L1_45
  6
CONTINUOUS
 62
         4
100
AcDbTrace
 10
1456.1867427475
 20
-6.1933347407
 30
0.0
 11
1456.5917427475
 21
-8.8933347407
 31
0.0
 12
1455.7817427475
 22
-8.8933347407
 32
0.0
 13
1456.1867427475
 23
-6.1933347407
 33
0.0
  0
SOLID
  5
31F
100
AcDbEntity
  8
L1_45
  6
CONTINUOUS
 62
         4
100
AcDbTrace
 10
1456.1867427475
 20
-19.6933347407
 30
0.0
 11
1455.7817427475
 21
-16.9933347407
 31
0.0
 12
1456.5917427475
 22
-16.9933347407
 32
0.0
 13
1456.1867427475
 23
-19.6933347407
 33
0.0
  0
TEXT
  5
321
100
AcDbEntity
  8
L1_45
  6
CONTINUOUS
 62
         4
100
AcDbText
 10
1454.1617427475
 20
-17.3077276502
 30
0.0
 40
2.7
  1
崷13.5
 50
90.0
  7
BOX
100
AcDbText
  0
ENDBLK
  5
322
100
AcDbEntity
  8
0
  6
CONTINUOUS
100
AcDbBlockEnd
  0
BLOCK
  5
32A
100
AcDbEntity
  8
0
100
AcDbBlockBegin
  2
*D5
 70
        65
 10
0.0
 20
0.0
 30
0.0
  3
*D5
  1

  0
POINT
  5
32C
100
AcDbEntity
  8
DEFPOINTS
  6
CONTINUOUS
 62
         0
100
AcDbPoint
 10
1429.0033403763
 20
-39.8299286884
 30
0.0
  0
POINT
  5
32D
100
AcDbEntity
  8
DEFPOINTS
  6
CONTINUOUS
 62
         0
100
AcDbPoint
 10
1429.0033403763
 20
-19.6933347407
 30
0.0
  0
POINT
  5
32E
100
AcDbEntity
  8
DEFPOINTS
  6
CONTINUOUS
 62
         0
100
AcDbPoint
 10
1445.0033403763
 20
-23.4433347407
 30
0.0
  0
LINE
  5
32F
100
AcDbEntity
  8
L1_45
  6
CONTINUOUS
 62
         4
100
AcDbLine
 10
1429.0033403763
 20
-21.0433347407
 30
0.0
 11
1429.0033403763
 21
-40.5049286884
 31
0.0
  0
LINE
  5
330
100
AcDbEntity
  8
L1_45
  6
CONTINUOUS
 62
         4
100
AcDbLine
 10
1445.0033403763
 20
-24.7933347407
 30
0.0
 11
1445.0033403763
 21
-40.5049286884
 31
0.0
  0
LINE
  5
331
100
AcDbEntity
  8
L1_45
  6
CONTINUOUS
 62
         4
100
AcDbLine
 10
1429.0033403763
 20
-39.8299286884
 30
0.0
 11
1445.0033403763
 21
-39.8299286884
 31
0.0
  0
SOLID
  5
332
100
AcDbEntity
  8
L1_45
  6
CONTINUOUS
 62
         4
100
AcDbTrace
 10
1429.0033403763
 20
-39.8299286884
 30
0.0
 11
1431.7033403763
 21
-39.4249286884
 31
0.0
 12
1431.7033403763
 22
-40.2349286884
 32
0.0
 13
1429.0033403763
 23
-39.8299286884
 33
0.0
  0
SOLID
  5
333
100
AcDbEntity
  8
L1_45
  6
CONTINUOUS
 62
         4
100
AcDbTrace
 10
1445.0033403763
 20
-39.8299286884
 30
0.0
 11
1442.3033403763
 21
-40.2349286884
 31
0.0
 12
1442.3033403763
 22
-39.4249286884
 32
0.0
 13
1445.0033403763
 23
-39.8299286884
 33
0.0
  0
TEXT
  5
335
100
AcDbEntity
  8
L1_45
  6
CONTINUOUS
 62
         4
100
AcDbText
 10
1434.3233339442
 20
-37.8049286884
 30
0.0
 40
2.7
  1
16.2
  7
BOX
100
AcDbText
  0
ENDBLK
  5
336
100
AcDbEntity
  8
0
  6
CONTINUOUS
100
AcDbBlockEnd
  0
BLOCK
  5
33B
100
AcDbEntity
  8
0
100
AcDbBlockBegin
  2
*D6
 70
        65
 10
0.0
 20
0.0
 30
0.0
  3
*D6
  1

  0
POINT
  5
33D
100
AcDbEntity
  8
DEFPOINTS
  6
CONTINUOUS
 62
         0
100
AcDbPoint
 10
1417.0033403763
 20
-52.6985725377
 30
0.0
  0
POINT
  5
33E
100
AcDbEntity
  8
DEFPOINTS
  6
CONTINUOUS
 62
         0
100
AcDbPoint
 10
1417.0033403763
 20
-19.6933347407
 30
0.0
  0
POINT
  5
33F
100
AcDbEntity
  8
DEFPOINTS
  6
CONTINUOUS
 62
         0
100
AcDbPoint
 10
1445.0033403763
 20
-23.4433347407
 30
0.0
  0
LINE
  5
340
100
AcDbEntity
  8
L1_45
  6
CONTINUOUS
 62
         4
100
AcDbLine
 10
1417.0033403763
 20
-21.0433347407
 30
0.0
 11
1417.0033403763
 21
-53.3735725377
 31
0.0
  0
LINE
  5
341
100
AcDbEntity
  8
L1_45
  6
CONTINUOUS
 62
         4
100
AcDbLine
 10
1445.0033403763
 20
-24.7933347407
 30
0.0
 11
1445.0033403763
 21
-53.3735725377
 31
0.0
  0
LINE
  5
342
100
AcDbEntity
  8
L1_45
  6
CONTINUOUS
 62
         4
100
AcDbLine
 10
1417.0033403763
 20
-52.6985725377
 30
0.0
 11
1445.0033403763
 21
-52.6985725377
 31
0.0
  0
SOLID
  5
343
100
AcDbEntity
  8
L1_45
  6
CONTINUOUS
 62
         4
100
AcDbTrace
 10
1417.0033403763
 20
-52.6985725377
 30
0.0
 11
1419.7033403763
 21
-52.2935725377
 31
0.0
 12
1419.7033403763
 22
-53.1035725377
 32
0.0
 13
1417.0033403763
 23
-52.6985725377
 33
0.0
  0
SOLID
  5
344
100
AcDbEntity
  8
L1_45
  6
CONTINUOUS
 62
         4
100
AcDbTrace
 10
1445.0033403763
 20
-52.6985725377
 30
0.0
 11
1442.3033403763
 21
-53.1035725377
 31
0.0
 12
1442.3033403763
 22
-52.2935725377
 32
0.0
 13
1445.0033403763
 23
-52.6985725377
 33
0.0
  0
TEXT
  5
346
100
AcDbEntity
  8
L1_45
  6
CONTINUOUS
 62
         4
100
AcDbText
 10
1421.8984423449
 20
-50.6735725377
 30
0.0
 40
2.7
  1
28.2
  7
BOX
100
AcDbText
  0
ENDBLK
  5
347
100
AcDbEntity
  8
0
  6
CONTINUOUS
100
AcDbBlockEnd
  0
BLOCK
  5
351
100
AcDbEntity
  8
0
100
AcDbBlockBegin
  2
*D7
 70
        65
 10
0.0
 20
0.0
 30
0.0
  3
*D7
  1

  0
POINT
  5
353
100
AcDbEntity
  8
DEFPOINTS
  6
CONTINUOUS
 62
         0
100
AcDbPoint
 10
1463.2855799548
 20
162.6846417294
 30
0.0
  0
POINT
  5
354
100
AcDbEntity
  8
DEFPOINTS
  6
CONTINUOUS
 62
         0
100
AcDbPoint
 10
1443.0033403763
 20
162.6846417294
 30
0.0
  0
POINT
  5
355
100
AcDbEntity
  8
DEFPOINTS
  6
CONTINUOUS
 62
         0
100
AcDbPoint
 10
1443.0033403763
 20
137.6846417294
 30
0.0
  0
LINE
  5
356
100
AcDbEntity
  8
L1_45
  6
CONTINUOUS
 62
         4
100
AcDbLine
 10
1444.3533403763
 20
162.6846417294
 30
0.0
 11
1463.9605799548
 21
162.6846417294
 31
0.0
  0
LINE
  5
357
100
AcDbEntity
  8
L1_45
  6
CONTINUOUS
 62
         4
100
AcDbLine
 10
1444.3533403763
 20
137.6846417294
 30
0.0
 11
1463.9605799548
 21
137.6846417294
 31
0.0
  0
LINE
  5
358
100
AcDbEntity
  8
L1_45
  6
CONTINUOUS
 62
         4
100
AcDbLine
 10
1463.2855799548
 20
162.6846417294
 30
0.0
 11
1463.2855799548
 21
137.6846417294
 31
0.0
  0
SOLID
  5
359
100
AcDbEntity
  8
L1_45
  6
CONTINUOUS
 62
         4
100
AcDbTrace
 10
1463.2855799548
 20
162.6846417294
 30
0.0
 11
1463.6905799548
 21
159.9846417294
 31
0.0
 12
1462.8805799548
 22
159.9846417294
 32
0.0
 13
1463.2855799548
 23
162.6846417294
 33
0.0
  0
SOLID
  5
35A
100
AcDbEntity
  8
L1_45
  6
CONTINUOUS
 62
         4
100
AcDbTrace
 10
1463.2855799548
 20
137.6846417294
 30
0.0
 11
1462.8805799548
 21
140.3846417294
 31
0.0
 12
1463.6905799548
 22
140.3846417294
 32
0.0
 13
1463.2855799548
 23
137.6846417294
 33
0.0
  0
TEXT
  5
35C
100
AcDbEntity
  8
L1_45
  6
CONTINUOUS
 62
         4
100
AcDbText
 10
1461.2605799548
 20
143.1091800163
 30
0.0
 40
2.7
  1
崷25
 50
90.0
  7
BOX
100
AcDbText
  0
ENDBLK
  5
35D
100
AcDbEntity
  8
0
  6
CONTINUOUS
100
AcDbBlockEnd
  0
BLOCK
  5
364
100
AcDbEntity
  8
0
100
AcDbBlockBegin
  2
*D8
 70
        65
 10
0.0
 20
0.0
 30
0.0
  3
*D8
  1

  0
POINT
  5
366
100
AcDbEntity
  8
DEFPOINTS
  6
CONTINUOUS
 62
         0
100
AcDbPoint
 10
1389.0033403763
 20
38.0784408234
 30
0.0
  0
POINT
  5
367
100
AcDbEntity
  8
DEFPOINTS
  6
CONTINUOUS
 62
         0
100
AcDbPoint
 10
1389.0033403763
 20
-8.5829650161
 30
0.0
  0
POINT
  5
368
100
AcDbEntity
  8
DEFPOINTS
  6
CONTINUOUS
 62
         0
100
AcDbPoint
 10
1445.0033403763
 20
-2.4433347407
 30
0.0
  0
LINE
  5
369
100
AcDbEntity
  8
L1_45
  6
CONTINUOUS
 62
         4
100
AcDbLine
 10
1389.0033403763
 20
-7.2329650161
 30
0.0
 11
1389.0033403763
 21
38.7534408234
 31
0.0
  0
LINE
  5
36A
100
AcDbEntity
  8
L1_45
  6
CONTINUOUS
 62
         4
100
AcDbLine
 10
1445.0033403763
 20
-1.0933347407
 30
0.0
 11
1445.0033403763
 21
38.7534408234
 31
0.0
  0
LINE
  5
36B
100
AcDbEntity
  8
L1_45
  6
CONTINUOUS
 62
         4
100
AcDbLine
 10
1389.0033403763
 20
38.0784408234
 30
0.0
 11
1445.0033403763
 21
38.0784408234
 31
0.0
  0
SOLID
  5
36C
100
AcDbEntity
  8
L1_45
  6
CONTINUOUS
 62
         4
100
AcDbTrace
 10
1389.0033403763
 20
38.0784408234
 30
0.0
 11
1391.7033403763
 21
38.4834408234
 31
0.0
 12
1391.7033403763
 22
37.6734408234
 32
0.0
 13
1389.0033403763
 23
38.0784408234
 33
0.0
  0
SOLID
  5
36D
100
AcDbEntity
  8
L1_45
  6
CONTINUOUS
 62
         4
100
AcDbTrace
 10
1445.0033403763
 20
38.0784408234
 30
0.0
 11
1442.3033403763
 21
37.6734408234
 31
0.0
 12
1442.3033403763
 22
38.4834408234
 32
0.0
 13
1445.0033403763
 23
38.0784408234
 33
0.0
  0
TEXT
  5
36F
100
AcDbEntity
  8
L1_45
  6
CONTINUOUS
 62
         4
100
AcDbText
 10
1407.8552760934
 20
40.1034408234
 30
0.0
 40
2.7
  1
56
  7
BOX
100
AcDbText
  0
ENDBLK
  5
370
100
AcDbEntity
  8
0
  6
CONTINUOUS
100
AcDbBlockEnd
  0
BLOCK
  5
372
100
AcDbEntity
  8
0
100
AcDbBlockBegin
  2
*D9
 70
        65
 10
0.0
 20
0.0
 30
0.0
  3
*D9
  1

  0
POINT
  5
374
100
AcDbEntity
  8
DEFPOINTS
  6
CONTINUOUS
 62
         0
100
AcDbPoint
 10
1389.0033403763
 20
28.4499765234
 30
0.0
  0
POINT
  5
375
100
AcDbEntity
  8
DEFPOINTS
  6
CONTINUOUS
 62
         0
100
AcDbPoint
 10
1389.0033403763
 20
-9.8433347407
 30
0.0
  0
POINT
  5
376
100
AcDbEntity
  8
DEFPOINTS
  6
CONTINUOUS
 62
         0
100
AcDbPoint
 10
1401.0033403763
 20
-7.5829650161
 30
0.0
  0
LINE
  5
377
100
AcDbEntity
  8
L1_45
  6
CONTINUOUS
 62
         4
100
AcDbLine
 10
1389.0033403763
 20
-8.4933347407
 30
0.0
 11
1389.0033403763
 21
29.1249765234
 31
0.0
  0
LINE
  5
378
100
AcDbEntity
  8
L1_45
  6
CONTINUOUS
 62
         4
100
AcDbLine
 10
1401.0033403763
 20
-6.2329650161
 30
0.0
 11
1401.0033403763
 21
29.1249765234
 31
0.0
  0
LINE
  5
379
100
AcDbEntity
  8
L1_45
  6
CONTINUOUS
 62
         4
100
AcDbLine
 10
1389.0033403763
 20
28.4499765234
 30
0.0
 11
1401.0033403763
 21
28.4499765234
 31
0.0
  0
SOLID
  5
37A
100
AcDbEntity
  8
L1_45
  6
CONTINUOUS
 62
         4
100
AcDbTrace
 10
1389.0033403763
 20
28.4499765234
 30
0.0
 11
1391.7033403763
 21
28.8549765234
 31
0.0
 12
1391.7033403763
 22
28.0449765234
 32
0.0
 13
1389.0033403763
 23
28.4499765234
 33
0.0
  0
SOLID
  5
37B
100
AcDbEntity
  8
L1_45
  6
CONTINUOUS
 62
         4
100
AcDbTrace
 10
1401.0033403763
 20
28.4499765234
 30
0.0
 11
1398.3033403763
 21
28.0449765234
 31
0.0
 12
1398.3033403763
 22
28.8549765234
 32
0.0
 13
1401.0033403763
 23
28.4499765234
 33
0.0
  0
TEXT
  5
37D
100
AcDbEntity
  8
L1_45
  6
CONTINUOUS
 62
         4
100
AcDbText
 10
1392.0370847434
 20
30.4749765234
 30
0.0
 40
2.7
  1
12
  7
BOX
100
AcDbText
  0
ENDBLK
  5
37E
100
AcDbEntity
  8
0
  6
CONTINUOUS
100
AcDbBlockEnd
  0
BLOCK
  5
396
100
AcDbEntity
  8
0
100
AcDbBlockBegin
  2
*D10
 70
        65
 10
0.0
 20
0.0
 30
0.0
  3
*D10
  1

  0
POINT
  5
398
100
AcDbEntity
  8
DEFPOINTS
  6
CONTINUOUS
 62
         0
100
AcDbPoint
 10
1445.0033403763
 20
-60.4834044632
 30
0.0
  0
POINT
  5
399
100
AcDbEntity
  8
DEFPOINTS
  6
CONTINUOUS
 62
         0
100
AcDbPoint
 10
1445.0033403763
 20
-23.4433347407
 30
0.0
  0
POINT
  5
39A
100
AcDbEntity
  8
DEFPOINTS
  6
CONTINUOUS
 62
         0
100
AcDbPoint
 10
1392.3833403763
 20
-33.5517964045
 30
0.0
  0
LINE
  5
39B
100
AcDbEntity
  8
L1_45
  6
CONTINUOUS
 62
         4
100
AcDbLine
 10
1445.0033403763
 20
-24.7933347407
 30
0.0
 11
1445.0033403763
 21
-61.1584044632
 31
0.0
  0
LINE
  5
39C
100
AcDbEntity
  8
L1_45
  6
CONTINUOUS
 62
         4
100
AcDbLine
 10
1392.3833403763
 20
-34.9017964045
 30
0.0
 11
1392.3833403763
 21
-61.1584044632
 31
0.0
  0
LINE
  5
39D
100
AcDbEntity
  8
L1_45
  6
CONTINUOUS
 62
         4
100
AcDbLine
 10
1445.0033403763
 20
-60.4834044632
 30
0.0
 11
1392.3833403763
 21
-60.4834044632
 31
0.0
  0
SOLID
  5
39E
100
AcDbEntity
  8
L1_45
  6
CONTINUOUS
 62
         4
100
AcDbTrace
 10
1445.0033403763
 20
-60.4834044632
 30
0.0
 11
1442.3033403763
 21
-60.8884044632
 31
0.0
 12
1442.3033403763
 22
-60.0784044632
 32
0.0
 13
1445.0033403763
 23
-60.4834044632
 33
0.0
  0
SOLID
  5
39F
100
AcDbEntity
  8
L1_45
  6
CONTINUOUS
 62
         4
100
AcDbTrace
 10
1392.3833403763
 20
-60.4834044632
 30
0.0
 11
1395.0833403763
 21
-60.0784044632
 31
0.0
 12
1395.0833403763
 22
-60.8884044632
 32
0.0
 13
1392.3833403763
 23
-60.4834044632
 33
0.0
  0
TEXT
  5
3A1
100
AcDbEntity
  8
L1_45
  6
CONTINUOUS
 62
         4
100
AcDbText
 10
1415.9933403763
 20
-58.4584044632
 30
0.0
 40
2.7
  1
52
  7
BOX
100
AcDbText
  0
ENDBLK
  5
3A2
100
AcDbEntity
  8
0
  6
CONTINUOUS
100
AcDbBlockEnd
  0
BLOCK
  5
3A6
100
AcDbEntity
  8
0
100
AcDbBlockBegin
  2
*D11
 70
        65
 10
0.0
 20
0.0
 30
0.0
  3
*D11
  1

  0
POINT
  5
3A8
100
AcDbEntity
  8
DEFPOINTS
  6
CONTINUOUS
 62
         0
100
AcDbPoint
 10
1362.8379292408
 20
59.6566652595
 30
0.0
  0
POINT
  5
3A9
100
AcDbEntity
  8
DEFPOINTS
  6
CONTINUOUS
 62
         0
100
AcDbPoint
 10
1375.7333403763
 20
59.6566652595
 30
0.0
  0
POINT
  5
3AA
100
AcDbEntity
  8
DEFPOINTS
  6
CONTINUOUS
 62
         0
100
AcDbPoint
 10
1375.7333403763
 20
54.4566652595
 30
0.0
  0
LINE
  5
3AB
100
AcDbEntity
  8
L1_45
  6
CONTINUOUS
 62
         4
100
AcDbLine
 10
1374.3833403763
 20
59.6566652595
 30
0.0
 11
1362.1629292408
 21
59.6566652595
 31
0.0
  0
LINE
  5
3AC
100
AcDbEntity
  8
L1_45
  6
CONTINUOUS
 62
         4
100
AcDbLine
 10
1374.3833403763
 20
54.4566652595
 30
0.0
 11
1362.1629292408
 21
54.4566652595
 31
0.0
  0
LINE
  5
3AD
100
AcDbEntity
  8
L1_45
  6
CONTINUOUS
 62
         4
100
AcDbLine
 10
1362.8379292408
 20
59.6566652595
 30
0.0
 11
1362.8379292408
 21
65.0566652595
 31
0.0
  0
SOLID
  5
3AE
100
AcDbEntity
  8
L1_45
  6
CONTINUOUS
 62
         4
100
AcDbTrace
 10
1362.8379292408
 20
59.6566652595
 30
0.0
 11
1362.4329292408
 21
62.3566652595
 31
0.0
 12
1363.2429292408
 22
62.3566652595
 32
0.0
 13
1362.8379292408
 23
59.6566652595
 33
0.0
  0
LINE
  5
3AF
100
AcDbEntity
  8
L1_45
  6
CONTINUOUS
 62
         4
100
AcDbLine
 10
1362.8379292408
 20
54.4566652595
 30
0.0
 11
1362.8379292408
 21
49.0566652595
 31
0.0
  0
SOLID
  5
3B0
100
AcDbEntity
  8
L1_45
  6
CONTINUOUS
 62
         4
100
AcDbTrace
 10
1362.8379292408
 20
54.4566652595
 30
0.0
 11
1363.2429292408
 21
51.7566652595
 31
0.0
 12
1362.4329292408
 22
51.7566652595
 32
0.0
 13
1362.8379292408
 23
54.4566652595
 33
0.0
  0
LINE
  5
3B1
100
AcDbEntity
  8
L1_45
  6
CONTINUOUS
 62
         4
100
AcDbLine
 10
1362.8379292408
 20
59.6566652595
 30
0.0
 11
1362.8379292408
 21
54.4566652595
 31
0.0
  0
TEXT
  5
3B3
100
AcDbEntity
  8
L1_45
  6
CONTINUOUS
 62
         4
100
AcDbText
 10
1360.8129292408
 20
50.067865788
 30
0.0
 40
2.7
  1
5.2A13
 50
90.0
  7
BOX
100
AcDbText
  0
ENDBLK
  5
3B4
100
AcDbEntity
  8
0
  6
CONTINUOUS
100
AcDbBlockEnd
  0
BLOCK
  5
3BC
100
AcDbEntity
  8
0
100
AcDbBlockBegin
  2
*D12
 70
        65
 10
0.0
 20
0.0
 30
0.0
  3
*D12
  1

  0
POINT
  5
3BE
100
AcDbEntity
  8
DEFPOINTS
  6
CONTINUOUS
 62
         0
100
AcDbPoint
 10
1373.1333403763
 20
46.4382608251
 30
0.0
  0
POINT
  5
3BF
100
AcDbEntity
  8
DEFPOINTS
  6
CONTINUOUS
 62
         0
100
AcDbPoint
 10
1373.1333403763
 20
57.0566652595
 30
0.0
  0
POINT
  5
3C0
100
AcDbEntity
  8
DEFPOINTS
  6
CONTINUOUS
 62
         0
100
AcDbPoint
 10
1392.3833403762
 20
57.0566652651
 30
0.0
  0
LINE
  5
3C1
100
AcDbEntity
  8
L1_45
  6
CONTINUOUS
 62
         4
100
AcDbLine
 10
1373.1333403763
 20
55.7066652595
 30
0.0
 11
1373.1333403763
 21
45.7632608251
 31
0.0
  0
LINE
  5
3C2
100
AcDbEntity
  8
L1_45
  6
CONTINUOUS
 62
         4
100
AcDbLine
 10
1392.3833403762
 20
55.7066652651
 30
0.0
 11
1392.3833403762
 21
45.7632608251
 31
0.0
  0
LINE
  5
3C3
100
AcDbEntity
  8
L1_45
  6
CONTINUOUS
 62
         4
100
AcDbLine
 10
1373.1333403763
 20
46.4382608251
 30
0.0
 11
1392.3833403762
 21
46.4382608251
 31
0.0
  0
SOLID
  5
3C4
100
AcDbEntity
  8
L1_45
  6
CONTINUOUS
 62
         4
100
AcDbTrace
 10
1373.1333403763
 20
46.4382608251
 30
0.0
 11
1375.8333403763
 21
46.8432608251
 31
0.0
 12
1375.8333403763
 22
46.0332608251
 32
0.0
 13
1373.1333403763
 23
46.4382608251
 33
0.0
  0
SOLID
  5
3C5
100
AcDbEntity
  8
L1_45
  6
CONTINUOUS
 62
         4
100
AcDbTrace
 10
1392.3833403762
 20
46.4382608251
 30
0.0
 11
1389.6833403762
 21
46.0332608251
 31
0.0
 12
1389.6833403762
 22
46.8432608251
 32
0.0
 13
1392.3833403762
 23
46.4382608251
 33
0.0
  0
TEXT
  5
3C7
100
AcDbEntity
  8
L1_45
  6
CONTINUOUS
 62
         4
100
AcDbText
 10
1377.46693711
 20
48.4632608251
 30
0.0
 40
2.7
  1
19
  7
BOX
100
AcDbText
  0
ENDBLK
  5
3C8
100
AcDbEntity
  8
0
  6
CONTINUOUS
100
AcDbBlockEnd
  0
ENDSEC
  0
SECTION
  2
ENTITIES
  0
LINE
  5
2A
100
AcDbEntity
  8
L1_45
  6
CONTINUOUS
 62
         4
100
AcDbLine
 10
1421.4533382884
 20
3.2921572204
 30
0.0
 11
1423.0860358975
 21
-1.879626096
 31
0.0
  0
LINE
  5
2B
100
AcDbEntity
  8
L1_45
  6
CONTINUOUS
 62
         4
100
AcDbLine
 10
1421.4533367212
 20
-0.7363978252
 30
0.0
 11
1424.9788381375
 21
0.8235756501
 31
0.0
  0
INSERT
  5
75
100
AcDbEntity
  8
0
  6
CONTINUOUS
100
AcDbBlockReference
  2
*X0
 10
0.0
 20
0.0
 30
0.0
  0
ARC
  5
76
100
AcDbEntity
  8
L1_45
  6
CONTINUOUS
 62
         7
100
AcDbCircle
 10
1437.0553403763
 20
-27.4433347407
 30
0.0
 40
2.0
100
AcDbArc
 50
90.0
 51
180.0
  0
ARC
  5
77
100
AcDbEntity
  8
L1_45
  6
CONTINUOUS
 62
         7
100
AcDbCircle
 10
1437.0553403763
 20
1.5566652593
 30
0.0
 40
2.0
100
AcDbArc
 50
180.0
 51
270.0
  0
ARC
  5
78
100
AcDbEntity
  8
L1_45
  6
CONTINUOUS
 62
         7
100
AcDbCircle
 10
1437.0553403763
 20
135.6846417294
 30
0.0
 40
2.0
100
AcDbArc
 50
90.0
 51
180.0
  0
ARC
  5
79
100
AcDbEntity
  8
L1_45
  6
CONTINUOUS
 62
         7
100
AcDbCircle
 10
1437.0553403763
 20
164.6846417294
 30
0.0
 40
2.0
100
AcDbArc
 50
180.0
 51
270.0
  0
ARC
  5
7A
100
AcDbEntity
  8
L1_45
  6
CONTINUOUS
 62
         7
100
AcDbCircle
 10
1214.9233403763
 20
139.2979479887
 30
0.0
 40
9.5841679746
100
AcDbArc
 50
249.7642982324
 51
290.2357017676
  0
LINE
  5
7B
100
AcDbEntity
  8
L1_45
  6
CONTINUOUS
 62
         7
100
AcDbLine
 10
1218.2383403763
 20
133.1091312887
 30
0.0
 11
1218.2383403763
 21
130.3053370906
 31
0.0
  0
LINE
  5
7C
100
AcDbEntity
  8
L1_45
  6
DASHED
 62
         2
100
AcDbLine
 10
1218.2383403763
 20
142.3577154489
 30
0.0
 11
1218.2383403763
 21
133.1091312887
 31
0.0
  0
LINE
  5
7D
100
AcDbEntity
  8
L1_45
  6
DASHED
 62
         2
100
AcDbLine
 10
1211.6083403763
 20
142.3577154489
 30
0.0
 11
1211.6083403763
 21
133.1091312887
 31
0.0
  0
ARC
  5
7E
100
AcDbEntity
  8
L1_45
  6
CONTINUOUS
 62
         7
100
AcDbCircle
 10
1214.9233403763
 20
120.8696069049
 30
0.0
 40
12.6805040176
100
AcDbArc
 50
74.8453701596
 51
105.1546298404
  0
LINE
  5
7F
100
AcDbEntity
  8
L1_45
  6
CONTINUOUS
 62
         7
100
AcDbLine
 10
1211.6083403763
 20
133.1091312887
 30
0.0
 11
1211.6083403763
 21
130.3053370906
 31
0.0
  0
LINE
  5
80
100
AcDbEntity
  8
L1_45
  6
DASHED
 62
         2
100
AcDbLine
 10
1211.6083403763
 20
158.0115680099
 30
0.0
 11
1211.6083403763
 21
167.2601521701
 31
0.0
  0
LINE
  5
81
100
AcDbEntity
  8
L1_45
  6
DASHED
 62
         2
100
AcDbLine
 10
1218.2383403763
 20
158.0115680099
 30
0.0
 11
1218.2383403763
 21
167.2601521701
 31
0.0
  0
ARC
  5
82
100
AcDbEntity
  8
L1_45
  6
CONTINUOUS
 62
         7
100
AcDbCircle
 10
1214.9233403763
 20
179.4996765539
 30
0.0
 40
12.6805040176
100
AcDbArc
 50
254.8453701596
 51
285.1546298404
  0
LINE
  5
83
100
AcDbEntity
  8
L1_45
  6
CONTINUOUS
 62
         7
100
AcDbLine
 10
1218.2383403763
 20
167.2601521701
 30
0.0
 11
1218.2383403763
 21
170.0639463681
 31
0.0
  0
ARC
  5
84
100
AcDbEntity
  8
L1_45
  6
CONTINUOUS
 62
         7
100
AcDbCircle
 10
1214.9233403763
 20
161.07133547
 30
0.0
 40
9.5841679746
100
AcDbArc
 50
69.7642982324
 51
110.2357017676
  0
LINE
  5
85
100
AcDbEntity
  8
L1_45
  6
CONTINUOUS
 62
         7
100
AcDbLine
 10
1211.6083403763
 20
167.2601521701
 30
0.0
 11
1211.6083403763
 21
170.0639463681
 31
0.0
  0
POLYLINE
  5
87
100
AcDbEntity
  8
L1_45
  6
CONTINUOUS
 62
         7
100
AcDb2dPolyline
 66
         1
 10
0.0
 20
0.0
 30
0.0
 70
         2
  0
VERTEX
  5
89
100
AcDbEntity
  8
L1_45
  6
CONTINUOUS
 62
         7
100
AcDbVertex
100
AcDb2dVertex
 10
1425.1033406418
 20
170.9943100321
 30
0.0
 70
         1
  0
VERTEX
  5
8B
100
AcDbEntity
  8
L1_45
  6
CONTINUOUS
 62
         7
100
AcDbVertex
100
AcDb2dVertex
 10
1425.0585611822
 20
171.1401336991
 30
0.0
 70
         1
  0
VERTEX
  5
8D
100
AcDbEntity
  8
L1_45
  6
CONTINUOUS
 62
         7
100
AcDbVertex
100
AcDb2dVertex
 10
1425.009267195
 20
171.2043484816
 30
0.0
 70
         1
  0
VERTEX
  5
8F
100
AcDbEntity
  8
L1_45
  6
CONTINUOUS
 62
         7
100
AcDbVertex
100
AcDb2dVertex
 10
1424.9403033809
 20
171.268366758
 30
0.0
 70
         1
  0
VERTEX
  5
91
100
AcDbEntity
  8
L1_45
  6
CONTINUOUS
 62
         7
100
AcDbVertex
100
AcDb2dVertex
 10
1424.8512990373
 20
171.3310826225
 30
0.0
 70
         1
  0
VERTEX
  5
93
100
AcDbEntity
  8
L1_45
  6
CONTINUOUS
 62
         7
100
AcDbVertex
100
AcDb2dVertex
 10
1424.742571072
 20
171.3913397049
 30
0.0
 70
         1
  0
VERTEX
  5
95
100
AcDbEntity
  8
L1_45
  6
CONTINUOUS
 62
         7
100
AcDbVertex
100
AcDb2dVertex
 10
1424.6151710777
 20
171.447996011
 30
0.0
 70
         1
  0
VERTEX
  5
97
100
AcDbEntity
  8
L1_45
  6
CONTINUOUS
 62
         7
100
AcDbVertex
100
AcDb2dVertex
 10
1424.4708704716
 20
171.4999937709
 30
0.0
 70
         1
  0
VERTEX
  5
99
100
AcDbEntity
  8
L1_45
  6
CONTINUOUS
 62
         7
100
AcDbVertex
100
AcDb2dVertex
 10
1424.312079873
 20
171.5464259494
 30
0.0
 70
         1
  0
VERTEX
  5
9B
100
AcDbEntity
  8
L1_45
  6
CONTINUOUS
 62
         7
100
AcDbVertex
100
AcDb2dVertex
 10
1424.0811524828
 20
171.5988392392
 30
0.0
 70
         1
  0
VERTEX
  5
9D
100
AcDbEntity
  8
L1_45
  6
CONTINUOUS
 62
         7
100
AcDbVertex
100
AcDb2dVertex
 10
1423.8372290872
 20
171.6389683933
 30
0.0
 70
         1
  0
VERTEX
  5
9F
100
AcDbEntity
  8
L1_45
  6
CONTINUOUS
 62
         7
100
AcDbVertex
100
AcDb2dVertex
 10
1423.5022682908
 20
171.6733843292
 30
0.0
 70
         1
  0
VERTEX
  5
A1
100
AcDbEntity
  8
L1_45
  6
CONTINUOUS
 62
         7
100
AcDbVertex
100
AcDb2dVertex
 10
1423.0655257252
 20
171.6871861501
 30
0.0
 70
         1
  0
VERTEX
  5
A3
100
AcDbEntity
  8
L1_45
  6
CONTINUOUS
 62
         7
100
AcDbVertex
100
AcDb2dVertex
 10
1422.6739232716
 20
171.6711479801
 30
0.0
 70
         1
  0
VERTEX
  5
A5
100
AcDbEntity
  8
L1_45
  6
CONTINUOUS
 62
         7
100
AcDbVertex
100
AcDb2dVertex
 10
1422.3417188367
 20
171.6350945184
 30
0.0
 70
         1
  0
VERTEX
  5
A7
100
AcDbEntity
  8
L1_45
  6
CONTINUOUS
 62
         7
100
AcDbVertex
100
AcDb2dVertex
 10
1422.0705932128
 20
171.5877698336
 30
0.0
 70
         1
  0
VERTEX
  5
A9
100
AcDbEntity
  8
L1_45
  6
CONTINUOUS
 62
         7
100
AcDbVertex
100
AcDb2dVertex
 10
1421.8549294192
 20
171.5357232863
 30
0.0
 70
         1
  0
VERTEX
  5
AB
100
AcDbEntity
  8
L1_45
  6
CONTINUOUS
 62
         7
100
AcDbVertex
100
AcDb2dVertex
 10
1421.6861232705
 20
171.4832919962
 30
0.0
 70
         1
  0
VERTEX
  5
AD
100
AcDbEntity
  8
L1_45
  6
CONTINUOUS
 62
         7
100
AcDbVertex
100
AcDb2dVertex
 10
1421.5159664775
 20
171.4158801172
 30
0.0
 70
         1
  0
VERTEX
  5
AF
100
AcDbEntity
  8
L1_45
  6
CONTINUOUS
 62
         7
100
AcDbVertex
100
AcDb2dVertex
 10
1421.3963595924
 20
171.3554381265
 30
0.0
 70
         1
  0
VERTEX
  5
B1
100
AcDbEntity
  8
L1_45
  6
CONTINUOUS
 62
         7
100
AcDbVertex
100
AcDb2dVertex
 10
1421.2881595087
 20
171.28527049
 30
0.0
 70
         1
  0
VERTEX
  5
B3
100
AcDbEntity
  8
L1_45
  6
CONTINUOUS
 62
         7
100
AcDbVertex
100
AcDb2dVertex
 10
1421.2026194737
 20
171.2099374696
 30
0.0
 70
         1
  0
VERTEX
  5
B5
100
AcDbEntity
  8
L1_45
  6
CONTINUOUS
 62
         7
100
AcDbVertex
100
AcDb2dVertex
 10
1421.1459925402
 20
171.1366656297
 30
0.0
 70
         1
  0
VERTEX
  5
B7
100
AcDbEntity
  8
L1_45
  6
CONTINUOUS
 62
         7
100
AcDbVertex
100
AcDb2dVertex
 10
1421.110693464
 20
171.0536791695
 30
0.0
 70
         1
  0
VERTEX
  5
B9
100
AcDbEntity
  8
L1_45
  6
CONTINUOUS
 62
         7
100
AcDbVertex
100
AcDb2dVertex
 10
1421.1033406418
 20
170.9943100321
 30
0.0
 70
         1
  0
VERTEX
  5
BB
100
AcDbEntity
  8
L1_45
  6
CONTINUOUS
 62
         7
100
AcDbVertex
100
AcDb2dVertex
 10
1421.1033406418
 20
170.9943100321
 30
0.0
 70
         1
  0
VERTEX
  5
BD
100
AcDbEntity
  8
L1_45
  6
CONTINUOUS
 62
         7
100
AcDbVertex
100
AcDb2dVertex
 10
1421.1481201014
 20
170.8484863651
 30
0.0
 70
         1
  0
VERTEX
  5
BF
100
AcDbEntity
  8
L1_45
  6
CONTINUOUS
 62
         7
100
AcDbVertex
100
AcDb2dVertex
 10
1421.1974140886
 20
170.7842715826
 30
0.0
 70
         1
  0
VERTEX
  5
C1
100
AcDbEntity
  8
L1_45
  6
CONTINUOUS
 62
         7
100
AcDbVertex
100
AcDb2dVertex
 10
1421.2663779027
 20
170.7202533062
 30
0.0
 70
         1
  0
VERTEX
  5
C3
100
AcDbEntity
  8
L1_45
  6
CONTINUOUS
 62
         7
100
AcDbVertex
100
AcDb2dVertex
 10
1421.3553822463
 20
170.6575374417
 30
0.0
 70
         1
  0
VERTEX
  5
C5
100
AcDbEntity
  8
L1_45
  6
CONTINUOUS
 62
         7
100
AcDbVertex
100
AcDb2dVertex
 10
1421.4641102116
 20
170.5972803593
 30
0.0
 70
         1
  0
VERTEX
  5
C7
100
AcDbEntity
  8
L1_45
  6
CONTINUOUS
 62
         7
100
AcDbVertex
100
AcDb2dVertex
 10
1421.5915102059
 20
170.5406240533
 30
0.0
 70
         1
  0
VERTEX
  5
C9
100
AcDbEntity
  8
L1_45
  6
CONTINUOUS
 62
         7
100
AcDbVertex
100
AcDb2dVertex
 10
1421.735810812
 20
170.4886262933
 30
0.0
 70
         1
  0
VERTEX
  5
CB
100
AcDbEntity
  8
L1_45
  6
CONTINUOUS
 62
         7
100
AcDbVertex
100
AcDb2dVertex
 10
1421.8946014106
 20
170.4421941148
 30
0.0
 70
         1
  0
VERTEX
  5
CD
100
AcDbEntity
  8
L1_45
  6
CONTINUOUS
 62
         7
100
AcDbVertex
100
AcDb2dVertex
 10
1422.1255288008
 20
170.389780825
 30
0.0
 70
         1
  0
VERTEX
  5
CF
100
AcDbEntity
  8
L1_45
  6
CONTINUOUS
 62
         7
100
AcDbVertex
100
AcDb2dVertex
 10
1422.3694521964
 20
170.349651671
 30
0.0
 70
         1
  0
VERTEX
  5
D1
100
AcDbEntity
  8
L1_45
  6
CONTINUOUS
 62
         7
100
AcDbVertex
100
AcDb2dVertex
 10
1422.7044129928
 20
170.315235735
 30
0.0
 70
         1
  0
VERTEX
  5
D3
100
AcDbEntity
  8
L1_45
  6
CONTINUOUS
 62
         7
100
AcDbVertex
100
AcDb2dVertex
 10
1423.1411555584
 20
170.3014339142
 30
0.0
 70
         1
  0
VERTEX
  5
D5
100
AcDbEntity
  8
L1_45
  6
CONTINUOUS
 62
         7
100
AcDbVertex
100
AcDb2dVertex
 10
1423.532758012
 20
170.3174720841
 30
0.0
 70
         1
  0
VERTEX
  5
D7
100
AcDbEntity
  8
L1_45
  6
CONTINUOUS
 62
         7
100
AcDbVertex
100
AcDb2dVertex
 10
1423.864962447
 20
170.3535255458
 30
0.0
 70
         1
  0
VERTEX
  5
D9
100
AcDbEntity
  8
L1_45
  6
CONTINUOUS
 62
         7
100
AcDbVertex
100
AcDb2dVertex
 10
1424.1360880708
 20
170.4008502307
 30
0.0
 70
         1
  0
VERTEX
  5
DB
100
AcDbEntity
  8
L1_45
  6
CONTINUOUS
 62
         7
100
AcDbVertex
100
AcDb2dVertex
 10
1424.3517518644
 20
170.4528967779
 30
0.0
 70
         1
  0
VERTEX
  5
DD
100
AcDbEntity
  8
L1_45
  6
CONTINUOUS
 62
         7
100
AcDbVertex
100
AcDb2dVertex
 10
1424.5205580131
 20
170.505328068
 30
0.0
 70
         1
  0
VERTEX
  5
DF
100
AcDbEntity
  8
L1_45
  6
CONTINUOUS
 62
         7
100
AcDbVertex
100
AcDb2dVertex
 10
1424.6907148061
 20
170.572739947
 30
0.0
 70
         1
  0
VERTEX
  5
E1
100
AcDbEntity
  8
L1_45
  6
CONTINUOUS
 62
         7
100
AcDbVertex
100
AcDb2dVertex
 10
1424.8103216912
 20
170.6331819377
 30
0.0
 70
         1
  0
VERTEX
  5
E3
100
AcDbEntity
  8
L1_45
  6
CONTINUOUS
 62
         7
100
AcDbVertex
100
AcDb2dVertex
 10
1424.9185217749
 20
170.7033495743
 30
0.0
 70
         1
  0
VERTEX
  5
E5
100
AcDbEntity
  8
L1_45
  6
CONTINUOUS
 62
         7
100
AcDbVertex
100
AcDb2dVertex
 10
1425.0040618099
 20
170.7786825946
 30
0.0
 70
         1
  0
VERTEX
  5
E7
100
AcDbEntity
  8
L1_45
  6
CONTINUOUS
 62
         7
100
AcDbVertex
100
AcDb2dVertex
 10
1425.0606887434
 20
170.8519544345
 30
0.0
 70
         1
  0
VERTEX
  5
E9
100
AcDbEntity
  8
L1_45
  6
CONTINUOUS
 62
         7
100
AcDbVertex
100
AcDb2dVertex
 10
1425.0959878196
 20
170.9349408947
 30
0.0
 70
         1
  0
VERTEX
  5
EB
100
AcDbEntity
  8
L1_45
  6
CONTINUOUS
 62
         7
100
AcDbVertex
100
AcDb2dVertex
 10
1425.1033406418
 20
170.9943100321
 30
0.0
 70
         1
  0
SEQEND
  5
ED
100
AcDbEntity
  8
L1_45
  6
CONTINUOUS
 62
         7
  0
LINE
  5
EE
100
AcDbEntity
  8
L1_45
  6
DASHED
 62
         2
100
AcDbLine
 10
1631.3032864438
 20
133.997629804
 30
0.0
 11
1632.7397710457
 21
130.0509207967
 31
0.0
  0
LINE
  5
EF
100
AcDbEntity
  8
L1_45
  6
DASHED
 62
         2
100
AcDbLine
 10
1631.3032864438
 20
133.997629804
 30
0.0
 11
1627.5445159606
 21
132.6295492307
 31
0.0
  0
LINE
  5
F0
100
AcDbEntity
  8
L1_45
  6
DASHED
 62
         2
100
AcDbLine
 10
1627.5445159606
 20
132.6295492307
 30
0.0
 11
1628.9810005626
 21
128.6828402234
 31
0.0
  0
LINE
  5
F1
100
AcDbEntity
  8
L1_45
  6
DASHED
 62
         2
100
AcDbLine
 10
1619.0221647919
 20
167.7397342281
 30
0.0
 11
1617.5856801899
 21
171.6864432354
 31
0.0
  0
LINE
  5
F2
100
AcDbEntity
  8
L1_45
  6
DASHED
 62
         2
100
AcDbLine
 10
1619.0221647919
 20
167.7397342281
 30
0.0
 11
1615.2633943087
 21
166.3716536548
 31
0.0
  0
LINE
  5
F3
100
AcDbEntity
  8
L1_45
  6
DASHED
 62
         2
100
AcDbLine
 10
1615.2633943087
 20
166.3716536548
 30
0.0
 11
1613.8269097068
 21
170.3183626621
 31
0.0
  0
LINE
  5
F4
100
AcDbEntity
  8
_X______
  6
CONTINUOUS
 62
         7
100
AcDbLine
 10
1424.8127841454
 20
-1.0744301643
 30
0.0
 11
1423.0860358975
 21
-1.879626096
 31
0.0
  0
LINE
  5
F5
100
AcDbEntity
  8
_X______
  6
CONTINUOUS
 62
         7
100
AcDbLine
 10
1424.9788381375
 20
0.8235756501
 30
0.0
 11
1423.0860358975
 21
-1.879626096
 31
0.0
  0
LINE
  5
F6
100
AcDbEntity
  8
_X______
  6
CONTINUOUS
 62
         7
100
AcDbLine
 10
1424.9788381375
 20
0.8235756501
 30
0.0
 11
1424.8127841454
 21
-1.0744301643
 31
0.0
  0
LINE
  5
F7
100
AcDbEntity
  8
_X______
  6
CONTINUOUS
 62
         7
100
AcDbLine
 10
1424.7533373895
 20
0.9814729737
 30
0.0
 11
1424.9788381375
 21
0.8235756501
 31
0.0
  0
LINE
  5
F8
100
AcDbEntity
  8
_X______
  6
CONTINUOUS
 62
         7
100
AcDbLine
 10
1424.753336579
 20
-1.1021510198
 30
0.0
 11
1424.7533345984
 21
-6.1933347407
 31
0.0
  0
LINE
  5
F9
100
AcDbEntity
  8
_X______
  6
CONTINUOUS
 62
         7
100
AcDbLine
 10
1421.4533367212
 20
-0.7363978252
 30
0.0
 11
1421.4533345984
 21
-6.1933347407
 31
0.0
  0
LINE
  5
FA
100
AcDbEntity
  8
_X______
  6
CONTINUOUS
 62
         7
100
AcDbLine
 10
1421.1033387683
 20
5.525770741
 30
0.0
 11
1421.4533388469
 21
5.3236981014
 31
0.0
  0
LINE
  5
FB
100
AcDbEntity
  8
_X______
  6
CONTINUOUS
 62
         7
100
AcDbLine
 10
1421.4533390787
 20
5.3236978291
 30
0.0
 11
1421.4533382884
 21
3.2921572204
 31
0.0
  0
LINE
  5
FC
100
AcDbEntity
  8
_X______
  6
CONTINUOUS
 62
         7
100
AcDbLine
 10
1424.7533390787
 20
5.3236965453
 30
0.0
 11
1424.7533373895
 21
0.9814729737
 31
0.0
  0
LINE
  5
FD
100
AcDbEntity
  8
_X______
  6
CONTINUOUS
 62
         7
100
AcDbLine
 10
1425.1033387683
 20
5.5257691849
 30
0.0
 11
1424.7533386897
 21
5.3236965453
 31
0.0
  0
LINE
  5
FE
100
AcDbEntity
  8
_X______
  6
CONTINUOUS
 62
         7
100
AcDbLine
 10
1424.7533386897
 20
5.3236965453
 30
0.0
 11
1421.4533386897
 21
5.3236978291
 31
0.0
  0
LINE
  5
FF
100
AcDbEntity
  8
_X______
  6
CONTINUOUS
 62
         7
100
AcDbLine
 10
1425.1033387683
 20
5.5257691849
 30
0.0
 11
1421.1033387683
 21
5.525770741
 31
0.0
  0
LINE
  5
100
100
AcDbEntity
  8
_X______
  6
CONTINUOUS
 62
         7
100
AcDbLine
 10
1425.1033406418
 20
9.3416652593
 30
0.0
 11
1425.1033391573
 21
5.5257691849
 31
0.0
  0
LINE
  5
101
100
AcDbEntity
  8
_X______
  6
CONTINUOUS
 62
         7
100
AcDbLine
 10
1421.1033406418
 20
9.3416652593
 30
0.0
 11
1421.1033391573
 21
5.525770741
 31
0.0
  0
LINE
  5
102
100
AcDbEntity
  8
_X______
  6
CENTER
 62
         1
100
AcDbLine
 10
1423.0033403763
 20
12.829836825
 30
0.0
 11
1423.0033403763
 21
-6.1933347407
 31
0.0
  0
LINE
  5
103
100
AcDbEntity
  8
_X______
  6
CENTER
 62
         1
100
AcDbLine
 10
1226.9769621084
 20
174.5302820606
 30
0.0
 11
1221.3388063837
 21
176.5824029206
 31
0.0
  0
ARC
  5
104
100
AcDbEntity
  8
_X______
  6
CONTINUOUS
 62
         7
100
AcDbCircle
 10
1225.071478058
 20
175.2238215369
 30
0.0
 40
2.9722262277
100
AcDbArc
 50
141.257725858
 51
160.0
  0
ARC
  5
105
100
AcDbEntity
  8
_X______
  6
CONTINUOUS
 62
         7
100
AcDbCircle
 10
1224.6794007025
 20
175.5384099693
 30
0.0
 40
2.4695428935
100
AcDbArc
 50
120.6773100903
 51
141.257725858
  0
POLYLINE
  5
107
100
AcDbEntity
  8
_X______
  6
CONTINUOUS
 62
         7
100
AcDb3dPolyline
 66
         1
 10
0.0
 20
0.0
 30
0.0
 70
         8
  0
VERTEX
  5
109
100
AcDbEntity
  8
_X______
  6
CONTINUOUS
 62
         7
100
AcDbVertex
100
AcDb3dPolylineVertex
 10
1223.4194340786
 20
177.6623511666
 30
0.0
 70
        32
  0
VERTEX
  5
10B
100
AcDbEntity
  8
_X______
  6
CONTINUOUS
 62
         7
100
AcDbVertex
100
AcDb3dPolylineVertex
 10
1223.4194340786
 20
177.6623511666
 30
0.0
 70
        32
  0
SEQEND
  5
10D
100
AcDbEntity
  8
_X______
  6
CONTINUOUS
 62
         7
  0
ARC
  5
10E
100
AcDbEntity
  8
_X______
  6
CONTINUOUS
 62
         7
100
AcDbCircle
 10
1224.4796621714
 20
175.8751116619
 30
0.0
 40
2.0780540551
100
AcDbArc
 50
96.8239621528
 51
120.6773100904
  0
POLYLINE
  5
110
100
AcDbEntity
  8
_X______
  6
CONTINUOUS
 62
         7
100
AcDb3dPolyline
 66
         1
 10
0.0
 20
0.0
 30
0.0
 70
         8
  0
VERTEX
  5
112
100
AcDbEntity
  8
_X______
  6
CONTINUOUS
 62
         7
100
AcDbVertex
100
AcDb3dPolylineVertex
 10
1224.2327493795
 20
177.9384445796
 30
0.0
 70
        32
  0
VERTEX
  5
114
100
AcDbEntity
  8
_X______
  6
CONTINUOUS
 62
         7
100
AcDbVertex
100
AcDb3dPolylineVertex
 10
1224.2327493795
 20
177.9384445796
 30
0.0
 70
        32
  0
SEQEND
  5
116
100
AcDbEntity
  8
_X______
  6
CONTINUOUS
 62
         7
  0
ARC
  5
117
100
AcDbEntity
  8
_X______
  6
CONTINUOUS
 62
         7
100
AcDbCircle
 10
1224.4287518427
 20
176.3005450962
 30
0.0
 40
1.6495853065
100
AcDbArc
 50
70.0000000001
 51
96.8239621529
  0
POLYLINE
  5
119
100
AcDbEntity
  8
_X______
  6
CONTINUOUS
 62
         7
100
AcDb3dPolyline
 66
         1
 10
0.0
 20
0.0
 30
0.0
 70
         8
  0
VERTEX
  5
11B
100
AcDbEntity
  8
_X______
  6
CONTINUOUS
 62
         7
100
AcDbVertex
100
AcDb3dPolylineVertex
 10
1224.9929432457
 20
177.850648236
 30
0.0
 70
        32
  0
VERTEX
  5
11D
100
AcDbEntity
  8
_X______
  6
CONTINUOUS
 62
         7
100
AcDbVertex
100
AcDb3dPolylineVertex
 10
1224.9929432457
 20
177.850648236
 30
0.0
 70
        32
  0
SEQEND
  5
11F
100
AcDbEntity
  8
_X______
  6
CONTINUOUS
 62
         7
  0
ARC
  5
120
100
AcDbEntity
  8
_X______
  6
CONTINUOUS
 62
         7
100
AcDbCircle
 10
1224.4287518427
 20
176.3005450962
 30
0.0
 40
1.6495853065
100
AcDbArc
 50
43.1760378472
 51
70.0
  0
POLYLINE
  5
122
100
AcDbEntity
  8
_X______
  6
CONTINUOUS
 62
         7
100
AcDb3dPolyline
 66
         1
 10
0.0
 20
0.0
 30
0.0
 70
         8
  0
VERTEX
  5
124
100
AcDbEntity
  8
_X______
  6
CONTINUOUS
 62
         7
100
AcDbVertex
100
AcDb3dPolylineVertex
 10
1225.6317199344
 20
177.429260939
 30
0.0
 70
        32
  0
VERTEX
  5
126
100
AcDbEntity
  8
_X______
  6
CONTINUOUS
 62
         7
100
AcDbVertex
100
AcDb3dPolylineVertex
 10
1225.6317199344
 20
177.429260939
 30
0.0
 70
        32
  0
SEQEND
  5
128
100
AcDbEntity
  8
_X______
  6
CONTINUOUS
 62
         7
  0
ARC
  5
129
100
AcDbEntity
  8
_X______
  6
CONTINUOUS
 62
         7
100
AcDbCircle
 10
1224.1162889281
 20
176.0073687064
 30
0.0
 40
2.0780540551
100
AcDbArc
 50
19.3226899096
 51
43.1760378472
  0
POLYLINE
  5
12B
100
AcDbEntity
  8
_X______
  6
CONTINUOUS
 62
         7
100
AcDb3dPolyline
 66
         1
 10
0.0
 20
0.0
 30
0.0
 70
         8
  0
VERTEX
  5
12D
100
AcDbEntity
  8
_X______
  6
CONTINUOUS
 62
         7
100
AcDbVertex
100
AcDb3dPolylineVertex
 10
1226.0772861762
 20
176.694972116
 30
0.0
 70
        32
  0
VERTEX
  5
12F
100
AcDbEntity
  8
_X______
  6
CONTINUOUS
 62
         7
100
AcDbVertex
100
AcDb3dPolylineVertex
 10
1226.0772861762
 20
176.694972116
 30
0.0
 70
        32
  0
SEQEND
  5
131
100
AcDbEntity
  8
_X______
  6
CONTINUOUS
 62
         7
  0
ARC
  5
132
100
AcDbEntity
  8
_X______
  6
CONTINUOUS
 62
         7
100
AcDbCircle
 10
1223.7468526601
 20
175.8778296988
 30
0.0
 40
2.4695428935
100
AcDbArc
 50
358.742274142
 51
379.3226899097
  0
POLYLINE
  5
134
100
AcDbEntity
  8
_X______
  6
CONTINUOUS
 62
         7
100
AcDb3dPolyline
 66
         1
 10
0.0
 20
0.0
 30
0.0
 70
         8
  0
VERTEX
  5
136
100
AcDbEntity
  8
_X______
  6
CONTINUOUS
 62
         7
100
AcDbVertex
100
AcDb3dPolylineVertex
 10
1226.2158005825
 20
175.823623987
 30
0.0
 70
        32
  0
VERTEX
  5
138
100
AcDbEntity
  8
_X______
  6
CONTINUOUS
 62
         7
100
AcDbVertex
100
AcDb3dPolylineVertex
 10
1226.2158005825
 20
175.823623987
 30
0.0
 70
        32
  0
SEQEND
  5
13A
100
AcDbEntity
  8
_X______
  6
CONTINUOUS
 62
         7
  0
ARC
  5
13B
100
AcDbEntity
  8
_X______
  6
CONTINUOUS
 62
         7
100
AcDbCircle
 10
1223.2442904341
 20
175.8888634444
 30
0.0
 40
2.9722262277
100
AcDbArc
 50
339.9999999999
 51
358.742274142
  0
POLYLINE
  5
13D
100
AcDbEntity
  8
_X______
  6
CONTINUOUS
 62
         7
100
AcDb3dPolyline
 66
         1
 10
0.0
 20
0.0
 30
0.0
 70
         8
  0
VERTEX
  5
13F
100
AcDbEntity
  8
_X______
  6
CONTINUOUS
 62
         7
100
AcDbVertex
100
AcDb3dPolylineVertex
 10
1226.0372694876
 20
174.872302204
 30
0.0
 70
        32
  0
VERTEX
  5
141
100
AcDbEntity
  8
_X______
  6
CONTINUOUS
 62
         7
100
AcDbVertex
100
AcDb3dPolylineVertex
 10
1226.0372694876
 20
174.872302204
 30
0.0
 70
        32
  0
SEQEND
  5
143
100
AcDbEntity
  8
_X______
  6
CONTINUOUS
 62
         7
  0
ARC
  5
144
100
AcDbEntity
  8
_X______
  6
CONTINUOUS
 62
         7
100
AcDbCircle
 10
1223.2442904341
 20
175.8888634444
 30
0.0
 40
2.9722262277
100
AcDbArc
 50
321.257725858
 51
340.0
  0
POLYLINE
  5
146
100
AcDbEntity
  8
_X______
  6
CONTINUOUS
 62
         7
100
AcDb3dPolyline
 66
         1
 10
0.0
 20
0.0
 30
0.0
 70
         8
  0
VERTEX
  5
148
100
AcDbEntity
  8
_X______
  6
CONTINUOUS
 62
         7
100
AcDbVertex
100
AcDb3dPolylineVertex
 10
1225.5625343858
 20
174.0287898627
 30
0.0
 70
        32
  0
VERTEX
  5
14A
100
AcDbEntity
  8
_X______
  6
CONTINUOUS
 62
         7
100
AcDbVertex
100
AcDb3dPolylineVertex
 10
1225.5625343858
 20
174.0287898627
 30
0.0
 70
        32
  0
SEQEND
  5
14C
100
AcDbEntity
  8
_X______
  6
CONTINUOUS
 62
         7
  0
ARC
  5
14D
100
AcDbEntity
  8
_X______
  6
CONTINUOUS
 62
         7
100
AcDbCircle
 10
1223.6363677896
 20
175.5742750119
 30
0.0
 40
2.4695428935
100
AcDbArc
 50
300.6773100903
 51
321.257725858
  0
POLYLINE
  5
14F
100
AcDbEntity
  8
_X______
  6
CONTINUOUS
 62
         7
100
AcDb3dPolyline
 66
         1
 10
0.0
 20
0.0
 30
0.0
 70
         8
  0
VERTEX
  5
151
100
AcDbEntity
  8
_X______
  6
CONTINUOUS
 62
         7
100
AcDbVertex
100
AcDb3dPolylineVertex
 10
1224.8963344135
 20
173.4503338146
 30
0.0
 70
        32
  0
VERTEX
  5
153
100
AcDbEntity
  8
_X______
  6
CONTINUOUS
 62
         7
100
AcDbVertex
100
AcDb3dPolylineVertex
 10
1224.8963344135
 20
173.4503338146
 30
0.0
 70
        32
  0
SEQEND
  5
155
100
AcDbEntity
  8
_X______
  6
CONTINUOUS
 62
         7
  0
ARC
  5
156
100
AcDbEntity
  8
_X______
  6
CONTINUOUS
 62
         7
100
AcDbCircle
 10
1223.8361063207
 20
175.2375733193
 30
0.0
 40
2.0780540551
100
AcDbArc
 50
276.8239621528
 51
300.6773100904
  0
POLYLINE
  5
158
100
AcDbEntity
  8
_X______
  6
CONTINUOUS
 62
         7
100
AcDb3dPolyline
 66
         1
 10
0.0
 20
0.0
 30
0.0
 70
         8
  0
VERTEX
  5
15A
100
AcDbEntity
  8
_X______
  6
CONTINUOUS
 62
         7
100
AcDbVertex
100
AcDb3dPolylineVertex
 10
1224.0830191126
 20
173.1742404017
 30
0.0
 70
        32
  0
VERTEX
  5
15C
100
AcDbEntity
  8
_X______
  6
CONTINUOUS
 62
         7
100
AcDbVertex
100
AcDb3dPolylineVertex
 10
1224.0830191126
 20
173.1742404017
 30
0.0
 70
        32
  0
SEQEND
  5
15E
100
AcDbEntity
  8
_X______
  6
CONTINUOUS
 62
         7
  0
ARC
  5
15F
100
AcDbEntity
  8
_X______
  6
CONTINUOUS
 62
         7
100
AcDbCircle
 10
1223.8870166494
 20
174.8121398851
 30
0.0
 40
1.6495853065
100
AcDbArc
 50
250.0
 51
276.8239621528
  0
POLYLINE
  5
161
100
AcDbEntity
  8
_X______
  6
CONTINUOUS
 62
         7
100
AcDb3dPolyline
 66
         1
 10
0.0
 20
0.0
 30
0.0
 70
         8
  0
VERTEX
  5
163
100
AcDbEntity
  8
_X______
  6
CONTINUOUS
 62
         7
100
AcDbVertex
100
AcDb3dPolylineVertex
 10
1223.3228252464
 20
173.2620367452
 30
0.0
 70
        32
  0
VERTEX
  5
165
100
AcDbEntity
  8
_X______
  6
CONTINUOUS
 62
         7
100
AcDbVertex
100
AcDb3dPolylineVertex
 10
1223.3228252464
 20
173.2620367452
 30
0.0
 70
        32
  0
SEQEND
  5
167
100
AcDbEntity
  8
_X______
  6
CONTINUOUS
 62
         7
  0
ARC
  5
168
100
AcDbEntity
  8
_X______
  6
CONTINUOUS
 62
         7
100
AcDbCircle
 10
1223.8870166494
 20
174.8121398851
 30
0.0
 40
1.6495853065
100
AcDbArc
 50
223.1760378472
 51
249.9999999999
  0
POLYLINE
  5
16A
100
AcDbEntity
  8
_X______
  6
CONTINUOUS
 62
         7
100
AcDb3dPolyline
 66
         1
 10
0.0
 20
0.0
 30
0.0
 70
         8
  0
VERTEX
  5
16C
100
AcDbEntity
  8
_X______
  6
CONTINUOUS
 62
         7
100
AcDbVertex
100
AcDb3dPolylineVertex
 10
1222.6840485577
 20
173.6834240423
 30
0.0
 70
        32
  0
VERTEX
  5
16E
100
AcDbEntity
  8
_X______
  6
CONTINUOUS
 62
         7
100
AcDbVertex
100
AcDb3dPolylineVertex
 10
1222.6840485577
 20
173.6834240423
 30
0.0
 70
        32
  0
SEQEND
  5
170
100
AcDbEntity
  8
_X______
  6
CONTINUOUS
 62
         7
  0
ARC
  5
171
100
AcDbEntity
  8
_X______
  6
CONTINUOUS
 62
         7
100
AcDbCircle
 10
1224.199479564
 20
175.1053162748
 30
0.0
 40
2.0780540551
100
AcDbArc
 50
199.3226899097
 51
223.1760378473
  0
POLYLINE
  5
173
100
AcDbEntity
  8
_X______
  6
CONTINUOUS
 62
         7
100
AcDb3dPolyline
 66
         1
 10
0.0
 20
0.0
 30
0.0
 70
         8
  0
VERTEX
  5
175
100
AcDbEntity
  8
_X______
  6
CONTINUOUS
 62
         7
100
AcDbVertex
100
AcDb3dPolylineVertex
 10
1222.2384823159
 20
174.4177128652
 30
0.0
 70
        32
  0
VERTEX
  5
177
100
AcDbEntity
  8
_X______
  6
CONTINUOUS
 62
         7
100
AcDbVertex
100
AcDb3dPolylineVertex
 10
1222.2384823159
 20
174.4177128652
 30
0.0
 70
        32
  0
SEQEND
  5
179
100
AcDbEntity
  8
_X______
  6
CONTINUOUS
 62
         7
  0
ARC
  5
17A
100
AcDbEntity
  8
_X______
  6
CONTINUOUS
 62
         7
100
AcDbCircle
 10
1224.568915832
 20
175.2348552824
 30
0.0
 40
2.4695428935
100
AcDbArc
 50
178.7422741421
 51
199.3226899097
  0
POLYLINE
  5
17C
100
AcDbEntity
  8
_X______
  6
CONTINUOUS
 62
         7
100
AcDb3dPolyline
 66
         1
 10
0.0
 20
0.0
 30
0.0
 70
         8
  0
VERTEX
  5
17E
100
AcDbEntity
  8
_X______
  6
CONTINUOUS
 62
         7
100
AcDbVertex
100
AcDb3dPolylineVertex
 10
1222.0999679096
 20
175.2890609943
 30
0.0
 70
        32
  0
VERTEX
  5
180
100
AcDbEntity
  8
_X______
  6
CONTINUOUS
 62
         7
100
AcDbVertex
100
AcDb3dPolylineVertex
 10
1222.0999679096
 20
175.2890609943
 30
0.0
 70
        32
  0
SEQEND
  5
182
100
AcDbEntity
  8
_X______
  6
CONTINUOUS
 62
         7
  0
ARC
  5
183
100
AcDbEntity
  8
_X______
  6
CONTINUOUS
 62
         7
100
AcDbCircle
 10
1225.071478058
 20
175.2238215369
 30
0.0
 40
2.9722262277
100
AcDbArc
 50
160.0
 51
178.7422741421
  0
POLYLINE
  5
185
100
AcDbEntity
  8
_X______
  6
CONTINUOUS
 62
         7
100
AcDb3dPolyline
 66
         1
 10
0.0
 20
0.0
 30
0.0
 70
         8
  0
VERTEX
  5
187
100
AcDbEntity
  8
_X______
  6
CONTINUOUS
 62
         7
100
AcDbVertex
100
AcDb3dPolylineVertex
 10
1222.2784990045
 20
176.2403827773
 30
0.0
 70
        32
  0
VERTEX
  5
189
100
AcDbEntity
  8
_X______
  6
CONTINUOUS
 62
         7
100
AcDbVertex
100
AcDb3dPolylineVertex
 10
1222.2784990045
 20
176.2403827773
 30
0.0
 70
        32
  0
SEQEND
  5
18B
100
AcDbEntity
  8
_X______
  6
CONTINUOUS
 62
         7
  0
ARC
  5
18C
100
AcDbEntity
  8
_X______
  6
CONTINUOUS
 62
         7
100
AcDbCircle
 10
1205.6472011885
 20
125.263967184
 30
0.0
 40
2.0780540551
100
AcDbArc
 50
19.3226899096
 51
43.1760378472
  0
ARC
  5
18D
100
AcDbEntity
  8
_X______
  6
CONTINUOUS
 62
         7
100
AcDbCircle
 10
1205.2777649205
 20
125.1344281764
 30
0.0
 40
2.4695428935
100
AcDbArc
 50
358.742274142
 51
379.3226899097
  0
ARC
  5
18E
100
AcDbEntity
  8
_X______
  6
CONTINUOUS
 62
         7
100
AcDbCircle
 10
1206.6023903184
 20
124.4804200144
 30
0.0
 40
2.9722262277
100
AcDbArc
 50
160.0
 51
178.742274142
  0
ARC
  5
18F
100
AcDbEntity
  8
_X______
  6
CONTINUOUS
 62
         7
100
AcDbCircle
 10
1206.0998280924
 20
124.49145376
 30
0.0
 40
2.4695428935
100
AcDbArc
 50
178.742274142
 51
199.3226899096
  0
ARC
  5
190
100
AcDbEntity
  8
_X______
  6
CONTINUOUS
 62
         7
100
AcDbCircle
 10
1205.7303918245
 20
124.3619147524
 30
0.0
 40
2.0780540551
100
AcDbArc
 50
199.3226899096
 51
223.1760378473
  0
POLYLINE
  5
192
100
AcDbEntity
  8
_X______
  6
CONTINUOUS
 62
         7
100
AcDb3dPolyline
 66
         1
 10
0.0
 20
0.0
 30
0.0
 70
         8
  0
VERTEX
  5
194
100
AcDbEntity
  8
_X______
  6
CONTINUOUS
 62
         7
100
AcDbVertex
100
AcDb3dPolylineVertex
 10
1204.2149608181
 20
122.9400225198
 30
0.0
 70
        32
  0
VERTEX
  5
196
100
AcDbEntity
  8
_X______
  6
CONTINUOUS
 62
         7
100
AcDbVertex
100
AcDb3dPolylineVertex
 10
1204.2149608181
 20
122.9400225198
 30
0.0
 70
        32
  0
SEQEND
  5
198
100
AcDbEntity
  8
_X______
  6
CONTINUOUS
 62
         7
  0
ARC
  5
199
100
AcDbEntity
  8
_X______
  6
CONTINUOUS
 62
         7
100
AcDbCircle
 10
1205.4179289098
 20
124.0687383626
 30
0.0
 40
1.6495853065
100
AcDbArc
 50
223.1760378472
 51
250.0
  0
POLYLINE
  5
19B
100
AcDbEntity
  8
_X______
  6
CONTINUOUS
 62
         7
100
AcDb3dPolyline
 66
         1
 10
0.0
 20
0.0
 30
0.0
 70
         8
  0
VERTEX
  5
19D
100
AcDbEntity
  8
_X______
  6
CONTINUOUS
 62
         7
100
AcDbVertex
100
AcDb3dPolylineVertex
 10
1204.8537375068
 20
122.5186352228
 30
0.0
 70
        32
  0
VERTEX
  5
19F
100
AcDbEntity
  8
_X______
  6
CONTINUOUS
 62
         7
100
AcDbVertex
100
AcDb3dPolylineVertex
 10
1204.8537375068
 20
122.5186352228
 30
0.0
 70
        32
  0
SEQEND
  5
1A1
100
AcDbEntity
  8
_X______
  6
CONTINUOUS
 62
         7
  0
ARC
  5
1A2
100
AcDbEntity
  8
_X______
  6
CONTINUOUS
 62
         7
100
AcDbCircle
 10
1205.4179289098
 20
124.0687383626
 30
0.0
 40
1.6495853065
100
AcDbArc
 50
250.0
 51
276.8239621528
  0
POLYLINE
  5
1A4
100
AcDbEntity
  8
_X______
  6
CONTINUOUS
 62
         7
100
AcDb3dPolyline
 66
         1
 10
0.0
 20
0.0
 30
0.0
 70
         8
  0
VERTEX
  5
1A6
100
AcDbEntity
  8
_X______
  6
CONTINUOUS
 62
         7
100
AcDbVertex
100
AcDb3dPolylineVertex
 10
1205.6139313731
 20
122.4308388792
 30
0.0
 70
        32
  0
VERTEX
  5
1A8
100
AcDbEntity
  8
_X______
  6
CONTINUOUS
 62
         7
100
AcDbVertex
100
AcDb3dPolylineVertex
 10
1205.6139313731
 20
122.4308388792
 30
0.0
 70
        32
  0
SEQEND
  5
1AA
100
AcDbEntity
  8
_X______
  6
CONTINUOUS
 62
         7
  0
ARC
  5
1AB
100
AcDbEntity
  8
_X______
  6
CONTINUOUS
 62
         7
100
AcDbCircle
 10
1205.3670185811
 20
124.4941717969
 30
0.0
 40
2.0780540551
100
AcDbArc
 50
276.8239621528
 51
300.6773100903
  0
POLYLINE
  5
1AD
100
AcDbEntity
  8
_X______
  6
CONTINUOUS
 62
         7
100
AcDb3dPolyline
 66
         1
 10
0.0
 20
0.0
 30
0.0
 70
         8
  0
VERTEX
  5
1AF
100
AcDbEntity
  8
_X______
  6
CONTINUOUS
 62
         7
100
AcDbVertex
100
AcDb3dPolylineVertex
 10
1206.4272466739
 20
122.7069322922
 30
0.0
 70
        32
  0
VERTEX
  5
1B1
100
AcDbEntity
  8
_X______
  6
CONTINUOUS
 62
         7
100
AcDbVertex
100
AcDb3dPolylineVertex
 10
1206.4272466739
 20
122.7069322922
 30
0.0
 70
        32
  0
SEQEND
  5
1B3
100
AcDbEntity
  8
_X______
  6
CONTINUOUS
 62
         7
  0
ARC
  5
1B4
100
AcDbEntity
  8
_X______
  6
CONTINUOUS
 62
         7
100
AcDbCircle
 10
1205.16728005
 20
124.8308734895
 30
0.0
 40
2.4695428935
100
AcDbArc
 50
300.6773100904
 51
321.2577258581
  0
POLYLINE
  5
1B6
100
AcDbEntity
  8
_X______
  6
CONTINUOUS
 62
         7
100
AcDb3dPolyline
 66
         1
 10
0.0
 20
0.0
 30
0.0
 70
         8
  0
VERTEX
  5
1B8
100
AcDbEntity
  8
_X______
  6
CONTINUOUS
 62
         7
100
AcDbVertex
100
AcDb3dPolylineVertex
 10
1207.0934466463
 20
123.2853883403
 30
0.0
 70
        32
  0
VERTEX
  5
1BA
100
AcDbEntity
  8
_X______
  6
CONTINUOUS
 62
         7
100
AcDbVertex
100
AcDb3dPolylineVertex
 10
1207.0934466463
 20
123.2853883403
 30
0.0
 70
        32
  0
SEQEND
  5
1BC
100
AcDbEntity
  8
_X______
  6
CONTINUOUS
 62
         7
  0
ARC
  5
1BD
100
AcDbEntity
  8
_X______
  6
CONTINUOUS
 62
         7
100
AcDbCircle
 10
1204.7752026945
 20
125.1454619219
 30
0.0
 40
2.9722262277
100
AcDbArc
 50
321.257725858
 51
340.0
  0
POLYLINE
  5
1BF
100
AcDbEntity
  8
_X______
  6
CONTINUOUS
 62
         7
100
AcDb3dPolyline
 66
         1
 10
0.0
 20
0.0
 30
0.0
 70
         8
  0
VERTEX
  5
1C1
100
AcDbEntity
  8
_X______
  6
CONTINUOUS
 62
         7
100
AcDbVertex
100
AcDb3dPolylineVertex
 10
1207.568181748
 20
124.1289006815
 30
0.0
 70
        32
  0
VERTEX
  5
1C3
100
AcDbEntity
  8
_X______
  6
CONTINUOUS
 62
         7
100
AcDbVertex
100
AcDb3dPolylineVertex
 10
1207.568181748
 20
124.1289006815
 30
0.0
 70
        32
  0
SEQEND
  5
1C5
100
AcDbEntity
  8
_X______
  6
CONTINUOUS
 62
         7
  0
ARC
  5
1C6
100
AcDbEntity
  8
_X______
  6
CONTINUOUS
 62
         7
100
AcDbCircle
 10
1204.7752026945
 20
125.1454619219
 30
0.0
 40
2.9722262277
100
AcDbArc
 50
339.9999999999
 51
358.742274142
  0
POLYLINE
  5
1C8
100
AcDbEntity
  8
_X______
  6
CONTINUOUS
 62
         7
100
AcDb3dPolyline
 66
         1
 10
0.0
 20
0.0
 30
0.0
 70
         8
  0
VERTEX
  5
1CA
100
AcDbEntity
  8
_X______
  6
CONTINUOUS
 62
         7
100
AcDbVertex
100
AcDb3dPolylineVertex
 10
1207.7467128429
 20
125.0802224645
 30
0.0
 70
        32
  0
VERTEX
  5
1CC
100
AcDbEntity
  8
_X______
  6
CONTINUOUS
 62
         7
100
AcDbVertex
100
AcDb3dPolylineVertex
 10
1207.7467128429
 20
125.0802224645
 30
0.0
 70
        32
  0
SEQEND
  5
1CE
100
AcDbEntity
  8
_X______
  6
CONTINUOUS
 62
         7
  0
POLYLINE
  5
1D0
100
AcDbEntity
  8
_X______
  6
CONTINUOUS
 62
         7
100
AcDb3dPolyline
 66
         1
 10
0.0
 20
0.0
 30
0.0
 70
         8
  0
VERTEX
  5
1D2
100
AcDbEntity
  8
_X______
  6
CONTINUOUS
 62
         7
100
AcDbVertex
100
AcDb3dPolylineVertex
 10
1207.1626321948
 20
126.6858594165
 30
0.0
 70
        32
  0
VERTEX
  5
1D4
100
AcDbEntity
  8
_X______
  6
CONTINUOUS
 62
         7
100
AcDbVertex
100
AcDb3dPolylineVertex
 10
1207.1626321948
 20
126.6858594165
 30
0.0
 70
        32
  0
SEQEND
  5
1D6
100
AcDbEntity
  8
_X______
  6
CONTINUOUS
 62
         7
  0
ARC
  5
1D7
100
AcDbEntity
  8
_X______
  6
CONTINUOUS
 62
         7
100
AcDbCircle
 10
1205.9596641031
 20
125.5571435737
 30
0.0
 40
1.6495853065
100
AcDbArc
 50
43.1760378472
 51
70.0
  0
POLYLINE
  5
1D9
100
AcDbEntity
  8
_X______
  6
CONTINUOUS
 62
         7
100
AcDb3dPolyline
 66
         1
 10
0.0
 20
0.0
 30
0.0
 70
         8
  0
VERTEX
  5
1DB
100
AcDbEntity
  8
_X______
  6
CONTINUOUS
 62
         7
100
AcDbVertex
100
AcDb3dPolylineVertex
 10
1206.5238555061
 20
127.1072467136
 30
0.0
 70
        32
  0
VERTEX
  5
1DD
100
AcDbEntity
  8
_X______
  6
CONTINUOUS
 62
         7
100
AcDbVertex
100
AcDb3dPolylineVertex
 10
1206.5238555061
 20
127.1072467136
 30
0.0
 70
        32
  0
SEQEND
  5
1DF
100
AcDbEntity
  8
_X______
  6
CONTINUOUS
 62
         7
  0
ARC
  5
1E0
100
AcDbEntity
  8
_X______
  6
CONTINUOUS
 62
         7
100
AcDbCircle
 10
1205.9596641031
 20
125.5571435737
 30
0.0
 40
1.6495853065
100
AcDbArc
 50
70.0
 51
96.8239621528
  0
ARC
  5
1E1
100
AcDbEntity
  8
_X______
  6
CONTINUOUS
 62
         7
100
AcDbCircle
 10
1206.0105744318
 20
125.1317101395
 30
0.0
 40
2.0780540551
100
AcDbArc
 50
96.8239621528
 51
120.6773100904
  0
POLYLINE
  5
1E3
100
AcDbEntity
  8
_X______
  6
CONTINUOUS
 62
         7
100
AcDb3dPolyline
 66
         1
 10
0.0
 20
0.0
 30
0.0
 70
         8
  0
VERTEX
  5
1E5
100
AcDbEntity
  8
_X______
  6
CONTINUOUS
 62
         7
100
AcDbVertex
100
AcDb3dPolylineVertex
 10
1204.950346339
 20
126.9189496442
 30
0.0
 70
        32
  0
VERTEX
  5
1E7
100
AcDbEntity
  8
_X______
  6
CONTINUOUS
 62
         7
100
AcDbVertex
100
AcDb3dPolylineVertex
 10
1204.950346339
 20
126.9189496442
 30
0.0
 70
        32
  0
SEQEND
  5
1E9
100
AcDbEntity
  8
_X______
  6
CONTINUOUS
 62
         7
  0
ARC
  5
1EA
100
AcDbEntity
  8
_X______
  6
CONTINUOUS
 62
         7
100
AcDbCircle
 10
1206.2103129629
 20
124.7950084469
 30
0.0
 40
2.4695428935
100
AcDbArc
 50
120.6773100904
 51
141.257725858
  0
POLYLINE
  5
1EC
100
AcDbEntity
  8
_X______
  6
CONTINUOUS
 62
         7
100
AcDb3dPolyline
 66
         1
 10
0.0
 20
0.0
 30
0.0
 70
         8
  0
VERTEX
  5
1EE
100
AcDbEntity
  8
_X______
  6
CONTINUOUS
 62
         7
100
AcDbVertex
100
AcDb3dPolylineVertex
 10
1204.2841463667
 20
126.340493596
 30
0.0
 70
        32
  0
VERTEX
  5
1F0
100
AcDbEntity
  8
_X______
  6
CONTINUOUS
 62
         7
100
AcDbVertex
100
AcDb3dPolylineVertex
 10
1204.2841463667
 20
126.340493596
 30
0.0
 70
        32
  0
SEQEND
  5
1F2
100
AcDbEntity
  8
_X______
  6
CONTINUOUS
 62
         7
  0
ARC
  5
1F3
100
AcDbEntity
  8
_X______
  6
CONTINUOUS
 62
         7
100
AcDbCircle
 10
1206.6023903184
 20
124.4804200144
 30
0.0
 40
2.9722262277
100
AcDbArc
 50
141.257725858
 51
160.0
  0
POLYLINE
  5
1F5
100
AcDbEntity
  8
_X______
  6
CONTINUOUS
 62
         7
100
AcDb3dPolyline
 66
         1
 10
0.0
 20
0.0
 30
0.0
 70
         8
  0
VERTEX
  5
1F7
100
AcDbEntity
  8
_X______
  6
CONTINUOUS
 62
         7
100
AcDbVertex
100
AcDb3dPolylineVertex
 10
1203.8094112649
 20
125.4969812548
 30
0.0
 70
        32
  0
VERTEX
  5
1F9
100
AcDbEntity
  8
_X______
  6
CONTINUOUS
 62
         7
100
AcDbVertex
100
AcDb3dPolylineVertex
 10
1203.8094112649
 20
125.4969812548
 30
0.0
 70
        32
  0
SEQEND
  5
1FB
100
AcDbEntity
  8
_X______
  6
CONTINUOUS
 62
         7
  0
LINE
  5
1FC
100
AcDbEntity
  8
_X______
  6
CENTER
 62
         1
100
AcDbLine
 10
1208.5078743688
 20
123.7868805382
 30
0.0
 11
1202.8697186441
 21
125.8390013981
 31
0.0
  0
LINE
  5
1FD
100
AcDbEntity
  8
_X______
  6
CENTER
 62
         1
100
AcDbLine
 10
1227.1031401709
 20
183.6483666388
 30
0.0
 11
1202.8730445027
 21
117.0767259189
 31
0.0
  0
LINE
  5
1FE
100
AcDbEntity
  8
_X______
  6
CENTER
 62
         1
100
AcDbLine
 10
1611.3895898921
 20
182.8624526172
 30
0.0
 11
1635.3242136355
 21
117.102614339
 31
0.0
  0
LINE
  5
1FF
100
AcDbEntity
  8
_X______
  6
DASHED
 62
         2
100
AcDbLine
 10
1618.6932723746
 20
167.620027178
 30
0.0
 11
1622.8492745813
 21
156.20150496
 31
0.0
  0
LINE
  5
200
100
AcDbEntity
  8
_X______
  6
DASHED
 62
         2
100
AcDbLine
 10
1615.592286726
 20
166.491360705
 30
0.0
 11
1619.7482889327
 21
155.072838487
 31
0.0
  0
LINE
  5
201
100
AcDbEntity
  8
_X______
  6
DASHED
 62
         2
100
AcDbLine
 10
1626.8183918198
 20
145.2964449718
 30
0.0
 11
1630.9743940265
 21
133.8779227538
 31
0.0
  0
LINE
  5
202
100
AcDbEntity
  8
_X______
  6
DASHED
 62
         2
100
AcDbLine
 10
1623.7174061713
 20
144.1677784988
 30
0.0
 11
1627.8734083779
 21
132.7492562808
 31
0.0
  0
LINE
  5
203
100
AcDbEntity
  8
_X______
  6
CONTINUOUS
 62
         7
100
AcDbLine
 10
1405.2968943689
 20
14.6050210435
 30
0.0
 11
1424.7533373895
 21
0.9814729737
 31
0.0
  0
LINE
  5
204
100
AcDbEntity
  8
_X______
  6
CONTINUOUS
 62
         7
100
AcDbLine
 10
1403.404092129
 20
11.9018192973
 30
0.0
 11
1423.0860358975
 21
-1.879626096
 31
0.0
  0
LINE
  5
205
100
AcDbEntity
  8
_X______
  6
CENTER
 62
         1
100
AcDbLine
 10
1402.4927097209
 20
14.5542542011
 30
0.0
 11
1431.7663005111
 21
-5.9433347407
 31
0.0
  0
LINE
  5
206
100
AcDbEntity
  8
_X______
  6
CONTINUOUS
 62
         7
100
AcDbLine
 10
1403.2033403763
 20
16.5592531663
 30
0.0
 11
1405.5263249435
 21
14.9326818612
 31
0.0
  0
LINE
  5
207
100
AcDbEntity
  8
_X______
  6
CONTINUOUS
 62
         4
100
AcDbLine
 10
1405.4976461217
 20
14.891724259
 30
0.0
 11
1409.5934063431
 21
12.0238420772
 31
0.0
  0
LINE
  5
208
100
AcDbEntity
  8
_X______
  6
CONTINUOUS
 62
         7
100
AcDbLine
 10
1407.2991005977
 20
8.7472339
 30
0.0
 11
1409.5934063431
 21
12.0238420772
 31
0.0
  0
LINE
  5
209
100
AcDbEntity
  8
_X______
  6
CONTINUOUS
 62
         4
100
AcDbLine
 10
1403.2033403763
 20
11.6151160818
 30
0.0
 11
1407.2991005977
 21
8.7472339
 31
0.0
  0
LINE
  5
20A
100
AcDbEntity
  8
_X______
  6
CONTINUOUS
 62
         7
100
AcDbLine
 10
1403.2033403763
 20
11.6151160818
 30
0.0
 11
1405.5263249435
 21
14.9326818612
 31
0.0
  0
LINE
  5
20B
100
AcDbEntity
  8
L1_45
  6
CONTINUOUS
 62
         7
100
AcDbLine
 10
1368.6074562906
 20
-5.9433347407
 30
0.0
 11
1368.6074562906
 21
-19.9433347407
 31
0.0
  0
LINE
  5
20C
100
AcDbEntity
  8
L1_45
  6
CONTINUOUS
 62
         7
100
AcDbLine
 10
1368.6074562906
 20
-19.9433347407
 30
0.0
 11
1370.8591223405
 21
-16.0433347407
 31
0.0
  0
LINE
  5
20D
100
AcDbEntity
  8
L1_45
  6
CONTINUOUS
 62
         7
100
AcDbLine
 10
1370.8591223405
 20
-9.8433347407
 30
0.0
 11
1368.6074562906
 21
-5.9433347407
 31
0.0
  0
LINE
  5
20E
100
AcDbEntity
  8
L1_45
  6
CONTINUOUS
 62
         7
100
AcDbLine
 10
1368.6074562906
 20
-19.9433347407
 30
0.0
 11
1350.253577552
 21
-19.9433347407
 31
0.0
  0
LINE
  5
20F
100
AcDbEntity
  8
L1_45
  6
CONTINUOUS
 62
         7
100
AcDbLine
 10
1368.6074562906
 20
-5.9433347407
 30
0.0
 11
1350.253577552
 21
-5.9433347407
 31
0.0
  0
LINE
  5
210
100
AcDbEntity
  8
L1_45
  6
CONTINUOUS
 62
         7
100
AcDbLine
 10
1370.8591223405
 20
-16.0433347407
 30
0.0
 11
1370.8591223405
 21
-9.8433347407
 31
0.0
  0
LINE
  5
211
100
AcDbEntity
  8
L1_45
  6
CONTINUOUS
 62
         7
100
AcDbLine
 10
1389.0033403763
 20
-16.0433347407
 30
0.0
 11
1370.8591223405
 21
-16.0433347407
 31
0.0
  0
LINE
  5
212
100
AcDbEntity
  8
L1_45
  6
CONTINUOUS
 62
         7
100
AcDbLine
 10
1389.0033403763
 20
-9.8433347407
 30
0.0
 11
1370.8591223405
 21
-9.8433347407
 31
0.0
  0
ARC
  5
213
100
AcDbEntity
  8
_Y__________
  6
CONTINUOUS
 62
         7
100
AcDbCircle
 10
1332.7533403763
 20
-3.7933347407
 30
0.0
 40
1.0
100
AcDbArc
 50
180.0
 51
270.0
  0
LINE
  5
214
100
AcDbEntity
  8
_Y__________
  6
CONTINUOUS
 62
         7
100
AcDbLine
 10
1332.7533403763
 20
-4.7933347407
 30
0.0
 11
1335.5233403763
 21
-4.7933347407
 31
0.0
  0
ARC
  5
215
100
AcDbEntity
  8
_Y__________
  6
CONTINUOUS
 62
         7
100
AcDbCircle
 10
1335.9228759565
 20
-4.8933347407
 30
0.0
 40
0.2
100
AcDbArc
 50
90.0
 51
105.0
  0
LINE
  5
216
100
AcDbEntity
  8
_Y__________
  6
CONTINUOUS
 62
         7
100
AcDbLine
 10
1335.8711121475
 20
-4.7001495754
 30
0.0
 11
1335.5233403763
 21
-4.7933347407
 31
0.0
  0
LINE
  5
217
100
AcDbEntity
  8
_Y__________
  6
CONTINUOUS
 62
         7
100
AcDbLine
 10
1335.9228759565
 20
-4.6933347407
 30
0.0
 11
1336.3233403763
 21
-4.6933347407
 31
0.0
  0
LINE
  5
218
100
AcDbEntity
  8
_Y__________
  6
CONTINUOUS
 62
         7
100
AcDbLine
 10
1336.4647617325
 20
-4.7519133844
 30
0.0
 11
1337.6561830887
 21
-5.9433347407
 31
0.0
  0
ARC
  5
219
100
AcDbEntity
  8
_Y__________
  6
CONTINUOUS
 62
         7
100
AcDbCircle
 10
1336.3233403763
 20
-4.8933347407
 30
0.0
 40
0.2
100
AcDbArc
 50
45.0000000038
 51
90.0
  0
LINE
  5
21A
100
AcDbEntity
  8
_Y__________
  6
CONTINUOUS
 62
         7
100
AcDbLine
 10
1336.5233403763
 20
-5.1498119
 30
0.0
 11
1336.5233403763
 21
-20.6220880762
 31
0.0
  0
LINE
  5
21B
100
AcDbEntity
  8
_Y__________
  6
CONTINUOUS
 62
         7
100
AcDbLine
 10
1335.5233403763
 20
-4.7933347407
 30
0.0
 11
1335.5233403763
 21
-21.0933347407
 31
0.0
  0
LINE
  5
21C
100
AcDbEntity
  8
_Y__________
  6
CONTINUOUS
 62
         5
100
AcDbLine
 10
1336.6561830887
 20
-4.9433347407
 30
0.0
 11
1360.2033403763
 21
-4.9433347407
 31
0.0
  0
LINE
  5
21D
100
AcDbEntity
  8
_Y__________
  6
CONTINUOUS
 62
         7
100
AcDbLine
 10
1337.6561830887
 20
-5.9433347407
 30
0.0
 11
1360.2033403763
 21
-5.9433347407
 31
0.0
  0
LINE
  5
21E
100
AcDbEntity
  8
_Y__________
  6
CONTINUOUS
 62
         7
100
AcDbLine
 10
1337.6561830887
 20
-5.9433347407
 30
0.0
 11
1337.6561830887
 21
-19.9433347407
 31
0.0
  0
LINE
  5
21F
100
AcDbEntity
  8
_Y__________
  6
CONTINUOUS
 62
         7
100
AcDbLine
 10
1337.6561830887
 20
-19.9433347407
 30
0.0
 11
1360.2033403763
 21
-19.9433347407
 31
0.0
  0
LINE
  5
220
100
AcDbEntity
  8
_Y__________
  6
CONTINUOUS
 62
         7
100
AcDbLine
 10
1336.4647617325
 20
-21.1347560969
 30
0.0
 11
1337.6561830887
 21
-19.9433347407
 31
0.0
  0
ARC
  5
221
100
AcDbEntity
  8
_Y__________
  6
CONTINUOUS
 62
         7
100
AcDbCircle
 10
1336.3233403763
 20
-20.9933347407
 30
0.0
 40
0.2
100
AcDbArc
 50
270.0
 51
314.9999999962
  0
LINE
  5
222
100
AcDbEntity
  8
_Y__________
  6
CONTINUOUS
 62
         7
100
AcDbLine
 10
1335.9228759565
 20
-21.1933347407
 30
0.0
 11
1336.3233403763
 21
-21.1933347407
 31
0.0
  0
LINE
  5
223
100
AcDbEntity
  8
_Y__________
  6
CONTINUOUS
 62
         7
100
AcDbLine
 10
1335.8711121475
 20
-21.1865199059
 30
0.0
 11
1335.5233403763
 21
-21.0933347407
 31
0.0
  0
LINE
  5
224
100
AcDbEntity
  8
_Y__________
  6
CONTINUOUS
 62
         7
100
AcDbLine
 10
1332.7533403763
 20
-21.0933347407
 30
0.0
 11
1335.5233403763
 21
-21.0933347407
 31
0.0
  0
ARC
  5
225
100
AcDbEntity
  8
_Y__________
  6
CONTINUOUS
 62
         7
100
AcDbCircle
 10
1332.7533403763
 20
-22.0933347407
 30
0.0
 40
1.0
100
AcDbArc
 50
90.0
 51
180.0
  0
LINE
  5
226
100
AcDbEntity
  8
_Y__________
  6
CONTINUOUS
 62
         5
100
AcDbLine
 10
1336.6561830887
 20
-20.9433347407
 30
0.0
 11
1360.2033403763
 21
-20.9433347407
 31
0.0
  0
LINE
  5
227
100
AcDbEntity
  8
_Y__________
  6
CONTINUOUS
 62
         7
100
AcDbLine
 10
1360.2033403763
 20
-4.9433347407
 30
0.0
 11
1360.2033403763
 21
-20.9433347407
 31
0.0
  0
ARC
  5
228
100
AcDbEntity
  8
_Y__________
  6
CONTINUOUS
 62
         7
100
AcDbCircle
 10
1332.9533403763
 20
-24.1775164571
 30
0.0
 40
1.2
100
AcDbArc
 50
180.0
 51
261.7028550302
  0
ARC
  5
229
100
AcDbEntity
  8
_Y__________
  6
CONTINUOUS
 62
         7
100
AcDbCircle
 10
1332.9533403763
 20
-1.7091530242
 30
0.0
 40
1.2
100
AcDbArc
 50
98.2971449698
 51
180.0
  0
LINE
  5
22A
100
AcDbEntity
  8
_Y__________
  6
CONTINUOUS
 62
         7
100
AcDbLine
 10
1331.7533403763
 20
-1.7091530242
 30
0.0
 11
1331.7533403763
 21
-24.1775164571
 31
0.0
  0
ARC
  5
22B
100
AcDbEntity
  8
_Y__________
  6
CONTINUOUS
 62
         7
100
AcDbCircle
 10
1332.9533403763
 20
138.9504600129
 30
0.0
 40
1.2
100
AcDbArc
 50
180.0
 51
261.7028550302
  0
ARC
  5
22C
100
AcDbEntity
  8
_Y__________
  6
CONTINUOUS
 62
         7
100
AcDbCircle
 10
1332.9533403763
 20
161.4188234458
 30
0.0
 40
1.2
100
AcDbArc
 50
98.2971449698
 51
180.0
  0
LINE
  5
22D
100
AcDbEntity
  8
_Y__________
  6
CONTINUOUS
 62
         7
100
AcDbLine
 10
1331.7533403763
 20
161.4188234458
 30
0.0
 11
1331.7533403763
 21
138.9504600129
 31
0.0
  0
LINE
  5
22E
100
AcDbEntity
  8
_Y__________
  6
CONTINUOUS
 62
         7
100
AcDbLine
 10
1435.0553403763
 20
-27.4433347407
 30
0.0
 11
1435.0553403763
 21
-34.4283347407
 31
0.0
  0
ARC
  5
22F
100
AcDbEntity
  8
_Y__________
  6
CONTINUOUS
 62
         7
100
AcDbCircle
 10
1434.2553403763
 20
-34.4283347407
 30
0.0
 40
0.8
100
AcDbArc
 50
269.9999999999
 51
360.0
  0
LINE
  5
230
100
AcDbEntity
  8
_Y__________
  6
CONTINUOUS
 62
         7
100
AcDbLine
 10
1435.0553403763
 20
8.5416652593
 30
0.0
 11
1435.0553403763
 21
1.5566652593
 31
0.0
  0
ARC
  5
231
100
AcDbEntity
  8
_Y__________
  6
CONTINUOUS
 62
         7
100
AcDbCircle
 10
1434.2553403763
 20
8.5416652593
 30
0.0
 40
0.8
100
AcDbArc
 50
0.0
 51
90.0000000003
  0
LINE
  5
232
100
AcDbEntity
  8
_Y__________
  6
CONTINUOUS
 62
         7
100
AcDbLine
 10
1419.6033403763
 20
127.8996417294
 30
0.0
 11
1434.2553403763
 21
127.8996417294
 31
0.0
  0
ARC
  5
233
100
AcDbEntity
  8
_Y__________
  6
CONTINUOUS
 62
         7
100
AcDbCircle
 10
1434.2553403763
 20
128.6996417294
 30
0.0
 40
0.8
100
AcDbArc
 50
269.9999999999
 51
360.0
  0
LINE
  5
234
100
AcDbEntity
  8
_Y__________
  6
CONTINUOUS
 62
         7
100
AcDbLine
 10
1192.1233403763
 20
142.6346417294
 30
0.0
 11
1192.1233403763
 21
157.7346417294
 31
0.0
  0
LINE
  5
235
100
AcDbEntity
  8
_Y__________
  6
CONTINUOUS
 62
         7
100
AcDbLine
 10
1192.1233403763
 20
142.6346417294
 30
0.0
 11
1191.6233403763
 21
142.1346417294
 31
0.0
  0
LINE
  5
236
100
AcDbEntity
  8
_Y__________
  6
CONTINUOUS
 62
         7
100
AcDbLine
 10
1191.6233403763
 20
142.1346417294
 30
0.0
 11
1184.6849584247
 21
142.1346417294
 31
0.0
  0
LINE
  5
237
100
AcDbEntity
  8
_Y__________
  6
CONTINUOUS
 62
         7
100
AcDbLine
 10
1184.2908731435
 20
141.7405564482
 30
0.0
 11
1184.6849584247
 21
142.1346417294
 31
0.0
  0
LINE
  5
238
100
AcDbEntity
  8
_Y__________
  6
CONTINUOUS
 62
         7
100
AcDbLine
 10
1191.6233403763
 20
158.2346417294
 30
0.0
 11
1184.6849584247
 21
158.2346417294
 31
0.0
  0
LINE
  5
239
100
AcDbEntity
  8
_Y__________
  6
CONTINUOUS
 62
         7
100
AcDbLine
 10
1192.1233403763
 20
157.7346417294
 30
0.0
 11
1191.6233403763
 21
158.2346417294
 31
0.0
  0
LINE
  5
23A
100
AcDbEntity
  8
_Y__________
  6
CONTINUOUS
 62
         7
100
AcDbLine
 10
1184.2908731435
 20
158.6287270106
 30
0.0
 11
1184.6849584247
 21
158.2346417294
 31
0.0
  0
LINE
  5
23B
100
AcDbEntity
  8
_Y__________
  6
CONTINUOUS
 62
         7
100
AcDbLine
 10
1245.1617223278
 20
142.1346417294
 30
0.0
 11
1240.4233403763
 21
142.1346417294
 31
0.0
  0
LINE
  5
23C
100
AcDbEntity
  8
_Y__________
  6
CONTINUOUS
 62
         7
100
AcDbLine
 10
1239.9233403763
 20
142.6346417294
 30
0.0
 11
1239.9233403763
 21
157.7346417294
 31
0.0
  0
LINE
  5
23D
100
AcDbEntity
  8
_Y__________
  6
CONTINUOUS
 62
         7
100
AcDbLine
 10
1239.9233403763
 20
142.6346417294
 30
0.0
 11
1240.4233403763
 21
142.1346417294
 31
0.0
  0
LINE
  5
23E
100
AcDbEntity
  8
_Y__________
  6
CONTINUOUS
 62
         7
100
AcDbLine
 10
1245.555807609
 20
141.7405564482
 30
0.0
 11
1245.1617223278
 21
142.1346417294
 31
0.0
  0
LINE
  5
23F
100
AcDbEntity
  8
_Y__________
  6
CONTINUOUS
 62
         7
100
AcDbLine
 10
1239.9233403763
 20
157.7346417294
 30
0.0
 11
1240.4233403763
 21
158.2346417294
 31
0.0
  0
LINE
  5
240
100
AcDbEntity
  8
_Y__________
  6
CONTINUOUS
 62
         7
100
AcDbLine
 10
1245.555807609
 20
158.6287270106
 30
0.0
 11
1245.1617223278
 21
158.2346417294
 31
0.0
  0
LINE
  5
241
100
AcDbEntity
  8
_Y__________
  6
CONTINUOUS
 62
         7
100
AcDbLine
 10
1245.1617223278
 20
158.2346417294
 30
0.0
 11
1240.4233403763
 21
158.2346417294
 31
0.0
  0
CIRCLE
  5
242
100
AcDbEntity
  8
_Y__________
  6
CONTINUOUS
 62
         7
100
AcDbCircle
 10
1214.9233403763
 20
150.1846417294
 30
0.0
 40
22.225
  0
CIRCLE
  5
243
100
AcDbEntity
  8
_Y__________
  6
CONTINUOUS
 62
         7
100
AcDbCircle
 10
1214.9233403763
 20
150.1846417294
 30
0.0
 40
8.5
  0
CIRCLE
  5
244
100
AcDbEntity
  8
_Y__________
  6
CONTINUOUS
 62
         7
100
AcDbCircle
 10
1214.9233403763
 20
150.1846417294
 30
0.0
 40
9.5
  0
ARC
  5
245
100
AcDbEntity
  8
_Y__________
  6
CONTINUOUS
 62
         5
100
AcDbCircle
 10
1214.9233403763
 20
150.1846417294
 30
0.0
 40
8.0
100
AcDbArc
 50
352.9901372228
 51
621.2264515101
  0
CIRCLE
  5
246
100
AcDbEntity
  8
_Y__________
  6
CONTINUOUS
 62
         7
100
AcDbCircle
 10
1214.9233403763
 20
150.1846417294
 30
0.0
 40
7.0
  0
CIRCLE
  5
247
100
AcDbEntity
  8
_Y__________
  6
CONTINUOUS
 62
         7
100
AcDbCircle
 10
1214.9233403763
 20
150.1846417294
 30
0.0
 40
12.7165768873
  0
LINE
  5
248
100
AcDbEntity
  8
_Y__________
  6
CENTER
 62
         1
100
AcDbLine
 10
1214.9233403763
 20
114.5732894966
 30
0.0
 11
1214.9233403763
 21
185.4173498279
 31
0.0
  0
ARC
  5
249
100
AcDbEntity
  8
_Y__________
  6
CONTINUOUS
 62
         7
100
AcDbCircle
 10
1214.9233403763
 20
150.1846417294
 30
0.0
 40
31.775
100
AcDbArc
 50
15.411296411
 51
164.588703589
  0
ARC
  5
24A
100
AcDbEntity
  8
_Y__________
  6
CONTINUOUS
 62
         7
100
AcDbCircle
 10
1214.9233403763
 20
150.1846417294
 30
0.0
 40
31.775
100
AcDbArc
 50
195.411296411
 51
344.588703589
  0
LINE
  5
24B
100
AcDbEntity
  8
_Y__________
  6
CENTER
 62
         1
100
AcDbLine
 10
1183.1483403763
 20
150.1846417294
 30
0.0
 11
1246.6983403763
 21
150.1846417294
 31
0.0
  0
LINE
  5
24C
100
AcDbEntity
  8
_Y__________
  6
CENTER
 62
         1
100
AcDbLine
 10
1582.7339304179
 20
150.1846417294
 30
0.0
 11
1657.5236045
 21
150.1846417294
 31
0.0
  0
LINE
  5
24D
100
AcDbEntity
  8
_Y__________
  6
CONTINUOUS
 62
         7
100
AcDbLine
 10
1593.0449584247
 20
142.1346417294
 30
0.0
 11
1597.7833403762
 21
142.1346417294
 31
0.0
  0
LINE
  5
24E
100
AcDbEntity
  8
_Y__________
  6
CONTINUOUS
 62
         7
100
AcDbLine
 10
1592.6508731435
 20
141.7405564482
 30
0.0
 11
1593.0449584247
 21
142.1346417294
 31
0.0
  0
LINE
  5
24F
100
AcDbEntity
  8
_Y__________
  6
CONTINUOUS
 62
         7
100
AcDbLine
 10
1598.2833403762
 20
142.6346417294
 30
0.0
 11
1597.7833403762
 21
142.1346417294
 31
0.0
  0
LINE
  5
250
100
AcDbEntity
  8
_Y__________
  6
CONTINUOUS
 62
         7
100
AcDbLine
 10
1592.6508731435
 20
158.6287270106
 30
0.0
 11
1593.0449584247
 21
158.2346417294
 31
0.0
  0
LINE
  5
251
100
AcDbEntity
  8
_Y__________
  6
CONTINUOUS
 62
         7
100
AcDbLine
 10
1598.2833403762
 20
157.7346417294
 30
0.0
 11
1597.7833403762
 21
158.2346417294
 31
0.0
  0
LINE
  5
252
100
AcDbEntity
  8
_Y__________
  6
CONTINUOUS
 62
         7
100
AcDbLine
 10
1598.2833403762
 20
157.7346417294
 30
0.0
 11
1598.2833403762
 21
142.6346417294
 31
0.0
  0
LINE
  5
253
100
AcDbEntity
  8
_Y__________
  6
CONTINUOUS
 62
         7
100
AcDbLine
 10
1593.0449584247
 20
158.2346417294
 30
0.0
 11
1597.7833403762
 21
158.2346417294
 31
0.0
  0
LINE
  5
254
100
AcDbEntity
  8
_Y__________
  6
CONTINUOUS
 62
         7
100
AcDbLine
 10
1653.915807609
 20
141.7405564482
 30
0.0
 11
1653.5217223278
 21
142.1346417294
 31
0.0
  0
LINE
  5
255
100
AcDbEntity
  8
_Y__________
  6
CONTINUOUS
 62
         7
100
AcDbLine
 10
1646.0833403763
 20
142.6346417294
 30
0.0
 11
1646.5833403763
 21
142.1346417294
 31
0.0
  0
LINE
  5
256
100
AcDbEntity
  8
_Y__________
  6
CONTINUOUS
 62
         7
100
AcDbLine
 10
1646.5833403763
 20
142.1346417294
 30
0.0
 11
1653.5217223278
 21
142.1346417294
 31
0.0
  0
LINE
  5
257
100
AcDbEntity
  8
_Y__________
  6
CONTINUOUS
 62
         7
100
AcDbLine
 10
1653.915807609
 20
158.6287270106
 30
0.0
 11
1653.5217223278
 21
158.2346417294
 31
0.0
  0
LINE
  5
258
100
AcDbEntity
  8
_Y__________
  6
CONTINUOUS
 62
         7
100
AcDbLine
 10
1646.5833403763
 20
158.2346417294
 30
0.0
 11
1653.5217223278
 21
158.2346417294
 31
0.0
  0
LINE
  5
259
100
AcDbEntity
  8
_Y__________
  6
CONTINUOUS
 62
         7
100
AcDbLine
 10
1646.0833403763
 20
157.7346417294
 30
0.0
 11
1646.5833403763
 21
158.2346417294
 31
0.0
  0
LINE
  5
25A
100
AcDbEntity
  8
_Y__________
  6
CONTINUOUS
 62
         7
100
AcDbLine
 10
1646.0833403763
 20
157.7346417294
 30
0.0
 11
1646.0833403763
 21
142.6346417294
 31
0.0
  0
ARC
  5
25B
100
AcDbEntity
  8
_Y__________
  6
DASHED
 62
         2
100
AcDbCircle
 10
1623.2833403763
 20
150.1846417294
 30
0.0
 40
28.125
100
AcDbArc
 50
198.3406919436
 51
343.3680794645
  0
ARC
  5
25C
100
AcDbEntity
  8
_Y__________
  6
DASHED
 62
         2
100
AcDbCircle
 10
1623.2833403763
 20
150.1846417294
 30
0.0
 40
28.125
100
AcDbArc
 50
16.6319205355
 51
163.3680794645
  0
LINE
  5
25D
100
AcDbEntity
  8
_Y__________
  6
CENTER
 62
         1
100
AcDbLine
 10
1623.2833403763
 20
184.9596417294
 30
0.0
 11
1623.2833403763
 21
115.4096417294
 31
0.0
  0
ARC
  5
25E
100
AcDbEntity
  8
_Y__________
  6
CONTINUOUS
 62
         7
100
AcDbCircle
 10
1623.2833403763
 20
150.1846417294
 30
0.0
 40
31.775
100
AcDbArc
 50
15.411296411
 51
164.588703589
  0
ARC
  5
25F
100
AcDbEntity
  8
_Y__________
  6
CONTINUOUS
 62
         7
100
AcDbCircle
 10
1623.2833403763
 20
150.1846417294
 30
0.0
 40
31.775
100
AcDbArc
 50
195.411296411
 51
344.588703589
  0
LINE
  5
260
100
AcDbEntity
  8
_Y__________
  6
CONTINUOUS
 62
         7
100
AcDbLine
 10
1407.5670699775
 20
181.9596417294
 30
0.0
 11
1407.5670699775
 21
159.0346417294
 31
0.0
  0
LINE
  5
261
100
AcDbEntity
  8
_Y__________
  6
CONTINUOUS
 62
         7
100
AcDbLine
 10
1409.2283403763
 20
179.0822369936
 30
0.0
 11
1409.2283403763
 21
158.2346417294
 31
0.0
  0
LINE
  5
262
100
AcDbEntity
  8
_Y__________
  6
CONTINUOUS
 62
         7
100
AcDbLine
 10
1412.9783403763
 20
179.0822369936
 30
0.0
 11
1412.9783403763
 21
158.2346417294
 31
0.0
  0
LINE
  5
263
100
AcDbEntity
  8
_Y__________
  6
CONTINUOUS
 62
         7
100
AcDbLine
 10
1414.639610775
 20
181.9596417294
 30
0.0
 11
1414.639610775
 21
159.0346417294
 31
0.0
  0
LINE
  5
264
100
AcDbEntity
  8
_Y__________
  6
CONTINUOUS
 62
         7
100
AcDbLine
 10
1418.3033403763
 20
158.2346417294
 30
0.0
 11
1404.0033403763
 21
158.2346417294
 31
0.0
  0
LINE
  5
265
100
AcDbEntity
  8
_Y__________
  6
CONTINUOUS
 62
         7
100
AcDbLine
 10
1418.3033403763
 20
142.1346417294
 30
0.0
 11
1404.0033403763
 21
142.1346417294
 31
0.0
  0
LINE
  5
266
100
AcDbEntity
  8
_Y__________
  6
CONTINUOUS
 62
         7
100
AcDbLine
 10
1407.5670699775
 20
159.0346417294
 30
0.0
 11
1409.2283403763
 21
158.2346417294
 31
0.0
  0
LINE
  5
267
100
AcDbEntity
  8
_Y__________
  6
CONTINUOUS
 62
         7
100
AcDbLine
 10
1407.5670699775
 20
141.3346417294
 30
0.0
 11
1409.2283403763
 21
142.1346417294
 31
0.0
  0
LINE
  5
268
100
AcDbEntity
  8
_Y__________
  6
CONTINUOUS
 62
         7
100
AcDbLine
 10
1404.0033403763
 20
158.2346417294
 30
0.0
 11
1404.0033403763
 21
142.1346417294
 31
0.0
  0
LINE
  5
269
100
AcDbEntity
  8
_Y__________
  6
CONTINUOUS
 62
         7
100
AcDbLine
 10
1407.5670699775
 20
141.3346417294
 30
0.0
 11
1403.2033403763
 21
141.3346417294
 31
0.0
  0
LINE
  5
26A
100
AcDbEntity
  8
_Y__________
  6
CONTINUOUS
 62
         7
100
AcDbLine
 10
1404.0033403763
 20
142.1346417294
 30
0.0
 11
1403.2033403763
 21
141.3346417294
 31
0.0
  0
LINE
  5
26B
100
AcDbEntity
  8
_Y__________
  6
CONTINUOUS
 62
         7
100
AcDbLine
 10
1403.2033403763
 20
159.0346417294
 30
0.0
 11
1404.0033403763
 21
158.2346417294
 31
0.0
  0
LINE
  5
26C
100
AcDbEntity
  8
_Y__________
  6
CONTINUOUS
 62
         7
100
AcDbLine
 10
1407.5670699775
 20
159.0346417294
 30
0.0
 11
1403.2033403763
 21
159.0346417294
 31
0.0
  0
LINE
  5
26D
100
AcDbEntity
  8
_Y__________
  6
CONTINUOUS
 62
         7
100
AcDbLine
 10
1418.3033403763
 20
158.2346417294
 30
0.0
 11
1418.3033403763
 21
142.1346417294
 31
0.0
  0
LINE
  5
26E
100
AcDbEntity
  8
_Y__________
  6
CONTINUOUS
 62
         7
100
AcDbLine
 10
1419.1033403763
 20
141.3346417294
 30
0.0
 11
1414.639610775
 21
141.3346417294
 31
0.0
  0
LINE
  5
26F
100
AcDbEntity
  8
_Y__________
  6
CONTINUOUS
 62
         7
100
AcDbLine
 10
1418.3033403763
 20
142.1346417294
 30
0.0
 11
1419.1033403763
 21
141.3346417294
 31
0.0
  0
LINE
  5
270
100
AcDbEntity
  8
_Y__________
  6
CONTINUOUS
 62
         7
100
AcDbLine
 10
1412.9783403763
 20
142.1346417294
 30
0.0
 11
1414.639610775
 21
141.3346417294
 31
0.0
  0
LINE
  5
271
100
AcDbEntity
  8
_Y__________
  6
CONTINUOUS
 62
         7
100
AcDbLine
 10
1419.1033403763
 20
159.0346417294
 30
0.0
 11
1418.3033403763
 21
158.2346417294
 31
0.0
  0
LINE
  5
272
100
AcDbEntity
  8
_Y__________
  6
CONTINUOUS
 62
         7
100
AcDbLine
 10
1412.9783403763
 20
158.2346417294
 30
0.0
 11
1414.639610775
 21
159.0346417294
 31
0.0
  0
LINE
  5
273
100
AcDbEntity
  8
_Y__________
  6
CONTINUOUS
 62
         7
100
AcDbLine
 10
1419.1033403763
 20
159.0346417294
 30
0.0
 11
1414.639610775
 21
159.0346417294
 31
0.0
  0
LINE
  5
274
100
AcDbEntity
  8
_Y__________
  6
CONTINUOUS
 62
         7
100
AcDbLine
 10
1407.5670699775
 20
141.3346417294
 30
0.0
 11
1407.5670699775
 21
118.4096417294
 31
0.0
  0
LINE
  5
275
100
AcDbEntity
  8
_Y__________
  6
CONTINUOUS
 62
         7
100
AcDbLine
 10
1409.2283403763
 20
142.1346417294
 30
0.0
 11
1409.2283403763
 21
121.2870464652
 31
0.0
  0
LINE
  5
276
100
AcDbEntity
  8
_Y__________
  6
CONTINUOUS
 62
         7
100
AcDbLine
 10
1412.9783403763
 20
142.1346417294
 30
0.0
 11
1412.9783403763
 21
121.2870464652
 31
0.0
  0
LINE
  5
277
100
AcDbEntity
  8
_Y__________
  6
CONTINUOUS
 62
         7
100
AcDbLine
 10
1414.639610775
 20
141.3346417294
 30
0.0
 11
1414.639610775
 21
118.4096417294
 31
0.0
  0
CIRCLE
  5
278
100
AcDbEntity
  8
_Y__________
  6
CONTINUOUS
 62
         7
100
AcDbCircle
 10
1623.2833403763
 20
150.1846417294
 30
0.0
 40
22.225
  0
ARC
  5
279
100
AcDbEntity
  8
_Y__________
  6
CONTINUOUS
 62
         7
100
AcDbCircle
 10
1434.2553403763
 20
171.6696417294
 30
0.0
 40
0.8
100
AcDbArc
 50
0.0
 51
90.0000000003
  0
LINE
  5
27A
100
AcDbEntity
  8
_Y__________
  6
CONTINUOUS
 62
         7
100
AcDbLine
 10
1419.1033403763
 20
-35.7283347407
 30
0.0
 11
1419.1033403763
 21
-43.7183347409
 31
0.0
  0
LINE
  5
27B
100
AcDbEntity
  8
_Y__________
  6
CONTINUOUS
 62
         7
100
AcDbLine
 10
1419.1033403763
 20
17.8316652595
 30
0.0
 11
1419.1033403763
 21
9.8416652593
 31
0.0
  0
ARC
  5
27C
100
AcDbEntity
  8
_Y__________
  6
CONTINUOUS
 62
         7
100
AcDbCircle
 10
1419.6033403763
 20
172.9696417294
 30
0.0
 40
0.5
100
AcDbArc
 50
180.0
 51
270.0
  0
ARC
  5
27D
100
AcDbEntity
  8
_Y__________
  6
CONTINUOUS
 62
         7
100
AcDbCircle
 10
1419.6033403763
 20
127.3996417294
 30
0.0
 40
0.5
100
AcDbArc
 50
90.0
 51
180.0
  0
LINE
  5
27E
100
AcDbEntity
  8
_Y__________
  6
CONTINUOUS
 62
         7
100
AcDbLine
 10
1419.6033403763
 20
172.4696417294
 30
0.0
 11
1434.2553403763
 21
172.4696417294
 31
0.0
  0
LINE
  5
27F
100
AcDbEntity
  8
_Y__________
  6
CONTINUOUS
 62
         7
100
AcDbLine
 10
1435.0553403763
 20
171.6696417294
 30
0.0
 11
1435.0553403763
 21
128.6996417294
 31
0.0
  0
ARC
  5
280
100
AcDbEntity
  8
_Y__________
  6
CONTINUOUS
 62
         7
100
AcDbCircle
 10
1404.2033403763
 20
17.8316652593
 30
0.0
 40
1.0
100
AcDbArc
 50
90.0
 51
180.0
  0
LINE
  5
281
100
AcDbEntity
  8
_Y__________
  6
CONTINUOUS
 62
         7
100
AcDbLine
 10
1404.2033403763
 20
18.8316652593
 30
0.0
 11
1405.2033403763
 21
18.8316652593
 31
0.0
  0
LINE
  5
282
100
AcDbEntity
  8
_Y__________
  6
CONTINUOUS
 62
         7
100
AcDbLine
 10
1403.2033403763
 20
17.8316652593
 30
0.0
 11
1403.2033403763
 21
16.8316652593
 31
0.0
  0
LINE
  5
283
100
AcDbEntity
  8
_Y__________
  6
CONTINUOUS
 62
         7
100
AcDbLine
 10
1417.1033403763
 20
18.8316652593
 30
0.0
 11
1418.1033403763
 21
18.8316652593
 31
0.0
  0
ARC
  5
284
100
AcDbEntity
  8
_Y__________
  6
CONTINUOUS
 62
         7
100
AcDbCircle
 10
1418.1033403763
 20
17.8316652593
 30
0.0
 40
1.0
100
AcDbArc
 50
0.0
 51
90.0
  0
ARC
  5
285
100
AcDbEntity
  8
_Y__________
  6
CONTINUOUS
 62
         7
100
AcDbCircle
 10
1404.2033403763
 20
-43.7183347407
 30
0.0
 40
1.0
100
AcDbArc
 50
180.0
 51
270.0
  0
LINE
  5
286
100
AcDbEntity
  8
_Y__________
  6
CONTINUOUS
 62
         7
100
AcDbLine
 10
1404.2033403763
 20
-44.7183347407
 30
0.0
 11
1405.2033403763
 21
-44.7183347407
 31
0.0
  0
LINE
  5
287
100
AcDbEntity
  8
_Y__________
  6
CONTINUOUS
 62
         7
100
AcDbLine
 10
1417.1033403763
 20
-44.7183347407
 30
0.0
 11
1418.1033403763
 21
-44.7183347407
 31
0.0
  0
ARC
  5
288
100
AcDbEntity
  8
_Y__________
  6
CONTINUOUS
 62
         7
100
AcDbCircle
 10
1418.1033403763
 20
-43.7183347407
 30
0.0
 40
1.0
100
AcDbArc
 50
270.0
 51
360.0
  0
LINE
  5
289
100
AcDbEntity
  8
_Y__________
  6
CONTINUOUS
 62
         7
100
AcDbLine
 10
1419.1033403763
 20
17.8316652593
 30
0.0
 11
1419.1033403763
 21
16.8316652593
 31
0.0
  0
LINE
  5
28A
100
AcDbEntity
  8
_Y__________
  6
CONTINUOUS
 62
         7
100
AcDbLine
 10
1403.2033403763
 20
-42.7183347407
 30
0.0
 11
1403.2033403763
 21
-43.7183347407
 31
0.0
  0
LINE
  5
28B
100
AcDbEntity
  8
_Y__________
  6
CONTINUOUS
 62
         7
100
AcDbLine
 10
1419.1033403763
 20
-42.7183347407
 30
0.0
 11
1419.1033403763
 21
-43.7183347407
 31
0.0
  0
LINE
  5
28C
100
AcDbEntity
  8
_Y__________
  6
CONTINUOUS
 62
         7
100
AcDbLine
 10
1419.1033403763
 20
127.3996417294
 30
0.0
 11
1419.1033403763
 21
119.4096417294
 31
0.0
  0
LINE
  5
28D
100
AcDbEntity
  8
_Y__________
  6
CONTINUOUS
 62
         7
100
AcDbLine
 10
1403.2033403763
 20
120.4096417294
 30
0.0
 11
1403.2033403763
 21
119.4096417294
 31
0.0
  0
LINE
  5
28E
100
AcDbEntity
  8
_Y__________
  6
CONTINUOUS
 62
         7
100
AcDbLine
 10
1419.1033403763
 20
180.9596417294
 30
0.0
 11
1419.1033403763
 21
172.9696417294
 31
0.0
  0
ARC
  5
28F
100
AcDbEntity
  8
_Y__________
  6
CONTINUOUS
 62
         7
100
AcDbCircle
 10
1418.1033403763
 20
119.4096417294
 30
0.0
 40
1.0
100
AcDbArc
 50
270.0
 51
360.0
  0
LINE
  5
290
100
AcDbEntity
  8
_Y__________
  6
CONTINUOUS
 62
         7
100
AcDbLine
 10
1417.1033403763
 20
118.4096417294
 30
0.0
 11
1418.1033403763
 21
118.4096417294
 31
0.0
  0
LINE
  5
291
100
AcDbEntity
  8
_Y__________
  6
CONTINUOUS
 62
         7
100
AcDbLine
 10
1404.2033403763
 20
118.4096417294
 30
0.0
 11
1405.2033403763
 21
118.4096417294
 31
0.0
  0
ARC
  5
292
100
AcDbEntity
  8
_Y__________
  6
CONTINUOUS
 62
         7
100
AcDbCircle
 10
1404.2033403763
 20
119.4096417294
 30
0.0
 40
1.0
100
AcDbArc
 50
180.0
 51
270.0
  0
ARC
  5
293
100
AcDbEntity
  8
_Y__________
  6
CONTINUOUS
 62
         7
100
AcDbCircle
 10
1418.1033403763
 20
180.9596417294
 30
0.0
 40
1.0
100
AcDbArc
 50
0.0
 51
90.0
  0
LINE
  5
294
100
AcDbEntity
  8
_Y__________
  6
CONTINUOUS
 62
         7
100
AcDbLine
 10
1417.1033403763
 20
181.9596417294
 30
0.0
 11
1418.1033403763
 21
181.9596417294
 31
0.0
  0
LINE
  5
295
100
AcDbEntity
  8
_Y__________
  6
CONTINUOUS
 62
         7
100
AcDbLine
 10
1403.2033403763
 20
180.9596417294
 30
0.0
 11
1403.2033403763
 21
179.9596417294
 31
0.0
  0
LINE
  5
296
100
AcDbEntity
  8
_Y__________
  6
CONTINUOUS
 62
         7
100
AcDbLine
 10
1404.2033403763
 20
181.9596417294
 30
0.0
 11
1405.2033403763
 21
181.9596417294
 31
0.0
  0
ARC
  5
297
100
AcDbEntity
  8
_Y__________
  6
CONTINUOUS
 62
         7
100
AcDbCircle
 10
1404.2033403763
 20
180.9596417294
 30
0.0
 40
1.0
100
AcDbArc
 50
90.0
 51
180.0
  0
LINE
  5
298
100
AcDbEntity
  8
_Y__________
  6
CONTINUOUS
 62
         7
100
AcDbLine
 10
1419.6033403763
 20
9.3416652593
 30
0.0
 11
1434.2553403763
 21
9.3416652593
 31
0.0
  0
LINE
  5
299
100
AcDbEntity
  8
_Y__________
  6
CONTINUOUS
 62
         7
100
AcDbLine
 10
1419.6033403763
 20
-35.2283347407
 30
0.0
 11
1434.2553403763
 21
-35.2283347407
 31
0.0
  0
ARC
  5
29A
100
AcDbEntity
  8
_Y__________
  6
CONTINUOUS
 62
         7
100
AcDbCircle
 10
1419.6033403763
 20
-35.7283347407
 30
0.0
 40
0.5
100
AcDbArc
 50
90.0
 51
180.0
  0
ARC
  5
29B
100
AcDbEntity
  8
_Y__________
  6
CONTINUOUS
 62
         7
100
AcDbCircle
 10
1419.6033403763
 20
9.8416652593
 30
0.0
 40
0.5
100
AcDbArc
 50
180.0
 51
270.0
  0
LINE
  5
29C
100
AcDbEntity
  8
_Y__________
  6
CONTINUOUS
 62
         7
100
AcDbLine
 10
1414.639610775
 20
-44.7183347409
 30
0.0
 11
1418.1033403763
 21
-44.7183347409
 31
0.0
  0
LINE
  5
29D
100
AcDbEntity
  8
_Y__________
  6
CONTINUOUS
 62
         7
100
AcDbLine
 10
1412.9783403763
 20
-41.8409300049
 30
0.0
 11
1414.639610775
 21
-44.7183347407
 31
0.0
  0
ARC
  5
29E
100
AcDbEntity
  8
_Y__________
  6
CONTINUOUS
 62
         7
100
AcDbCircle
 10
1412.0045400445
 20
-42.0683347409
 30
0.0
 40
1.0
100
AcDbArc
 50
13.1443256895
 51
90.0
  0
LINE
  5
29F
100
AcDbEntity
  8
_Y__________
  6
CONTINUOUS
 62
         7
100
AcDbLine
 10
1410.202140708
 20
-41.0683347407
 30
0.0
 11
1412.0045400445
 21
-41.0683347407
 31
0.0
  0
ARC
  5
2A0
100
AcDbEntity
  8
_Y__________
  6
CONTINUOUS
 62
         7
100
AcDbCircle
 10
1410.202140708
 20
-42.0683347407
 30
0.0
 40
1.0
100
AcDbArc
 50
90.0
 51
166.8556743105
  0
LINE
  5
2A1
100
AcDbEntity
  8
_Y__________
  6
CONTINUOUS
 62
         7
100
AcDbLine
 10
1409.2283403763
 20
-41.8409300049
 30
0.0
 11
1407.5670699775
 21
-44.7183347407
 31
0.0
  0
LINE
  5
2A2
100
AcDbEntity
  8
_Y__________
  6
CONTINUOUS
 62
         7
100
AcDbLine
 10
1403.2033403763
 20
-35.7433347409
 30
0.0
 11
1403.2033403763
 21
-43.7183347409
 31
0.0
  0
LINE
  5
2A3
100
AcDbEntity
  8
_Y__________
  6
CONTINUOUS
 62
         7
100
AcDbLine
 10
1404.2033403763
 20
-44.7183347409
 30
0.0
 11
1407.5670699775
 21
-44.7183347409
 31
0.0
  0
ARC
  5
2A4
100
AcDbEntity
  8
_Y__________
  6
CONTINUOUS
 62
         7
100
AcDbCircle
 10
1402.6033403763
 20
-35.7433347407
 30
0.0
 40
0.6
100
AcDbArc
 50
0.0
 51
90.0
  0
LINE
  5
2A5
100
AcDbEntity
  8
_Y__________
  6
CONTINUOUS
 62
         7
100
AcDbLine
 10
1401.9497505378
 20
-35.1433347407
 30
0.0
 11
1402.6033403763
 21
-35.1433347407
 31
0.0
  0
LINE
  5
2A6
100
AcDbEntity
  8
_Y__________
  6
CONTINUOUS
 62
         7
100
AcDbLine
 10
1401.2033403763
 20
-35.3433347409
 30
0.0
 11
1401.9497505378
 21
-35.1433347409
 31
0.0
  0
LINE
  5
2A7
100
AcDbEntity
  8
_Y__________
  6
CENTER
 62
         1
100
AcDbLine
 10
1328.5556074009
 20
-12.9433347407
 30
0.0
 11
1448.6024972787
 21
-12.9433347407
 31
0.0
  0
LINE
  5
2A8
100
AcDbEntity
  8
_Y__________
  6
CONTINUOUS
 62
         7
100
AcDbLine
 10
1332.6301721046
 20
-25.3430810344
 30
0.0
 11
1401.2033403767
 21
-35.3433347407
 31
0.0
  0
LINE
  5
2A9
100
AcDbEntity
  8
_Y__________
  6
CONTINUOUS
 62
         7
100
AcDbLine
 10
1401.2033403763
 20
9.4566652593
 30
0.0
 11
1401.9497505378
 21
9.2566652593
 31
0.0
  0
LINE
  5
2AA
100
AcDbEntity
  8
_Y__________
  6
CONTINUOUS
 62
         7
100
AcDbLine
 10
1332.6301721046
 20
-0.543588447
 30
0.0
 11
1401.2033403763
 21
9.4566652593
 31
0.0
  0
LINE
  5
2AB
100
AcDbEntity
  8
_Y__________
  6
CONTINUOUS
 62
         7
100
AcDbLine
 10
1401.9497505378
 20
9.2566652593
 30
0.0
 11
1402.6033403763
 21
9.2566652593
 31
0.0
  0
ARC
  5
2AC
100
AcDbEntity
  8
_Y__________
  6
CONTINUOUS
 62
         7
100
AcDbCircle
 10
1402.6033403763
 20
9.8566652593
 30
0.0
 40
0.6
100
AcDbArc
 50
270.0
 51
360.0
  0
LINE
  5
2AD
100
AcDbEntity
  8
_Y__________
  6
CONTINUOUS
 62
         7
100
AcDbLine
 10
1403.2033403763
 20
9.8566652593
 30
0.0
 11
1403.2033403763
 21
17.8316652595
 31
0.0
  0
LINE
  5
2AE
100
AcDbEntity
  8
_Y__________
  6
CONTINUOUS
 62
         7
100
AcDbLine
 10
1404.2033403763
 20
18.8316652595
 30
0.0
 11
1407.5670699775
 21
18.8316652595
 31
0.0
  0
LINE
  5
2AF
100
AcDbEntity
  8
_Y__________
  6
CONTINUOUS
 62
         7
100
AcDbLine
 10
1409.2283403763
 20
15.9542605235
 30
0.0
 11
1407.5670699775
 21
18.8316652593
 31
0.0
  0
ARC
  5
2B0
100
AcDbEntity
  8
_Y__________
  6
CONTINUOUS
 62
         7
100
AcDbCircle
 10
1410.202140708
 20
16.1816652595
 30
0.0
 40
1.0
100
AcDbArc
 50
193.1443256895
 51
270.0
  0
LINE
  5
2B1
100
AcDbEntity
  8
_Y__________
  6
CONTINUOUS
 62
         7
100
AcDbLine
 10
1410.202140708
 20
15.1816652595
 30
0.0
 11
1412.0045400445
 21
15.1816652595
 31
0.0
  0
ARC
  5
2B2
100
AcDbEntity
  8
_Y__________
  6
CONTINUOUS
 62
         7
100
AcDbCircle
 10
1412.0045400445
 20
16.1816652595
 30
0.0
 40
1.0
100
AcDbArc
 50
270.0
 51
346.8556743105
  0
LINE
  5
2B3
100
AcDbEntity
  8
_Y__________
  6
CONTINUOUS
 62
         7
100
AcDbLine
 10
1412.9783403763
 20
15.9542605237
 30
0.0
 11
1414.639610775
 21
18.8316652595
 31
0.0
  0
LINE
  5
2B4
100
AcDbEntity
  8
_Y__________
  6
CONTINUOUS
 62
         7
100
AcDbLine
 10
1414.639610775
 20
18.8316652595
 30
0.0
 11
1418.1033403763
 21
18.8316652595
 31
0.0
  0
LINE
  5
2B5
100
AcDbEntity
  8
_Y__________
  6
CONTINUOUS
 62
         7
100
AcDbLine
 10
1409.2283403763
 20
179.0822369936
 30
0.0
 11
1407.5670699775
 21
181.9596417294
 31
0.0
  0
LINE
  5
2B6
100
AcDbEntity
  8
_Y__________
  6
CONTINUOUS
 62
         7
100
AcDbLine
 10
1409.2283403763
 20
121.2870464652
 30
0.0
 11
1407.5670699775
 21
118.4096417294
 31
0.0
  0
LINE
  5
2B7
100
AcDbEntity
  8
_Y__________
  6
CONTINUOUS
 62
         7
100
AcDbLine
 10
1403.2033403763
 20
180.9596417294
 30
0.0
 11
1403.2033403763
 21
119.4096417294
 31
0.0
  0
LINE
  5
2B8
100
AcDbEntity
  8
_Y__________
  6
CENTER
 62
         1
100
AcDbLine
 10
1400.0033403763
 20
172.4096417294
 30
0.0
 11
1400.0033403763
 21
127.9596417294
 31
0.0
  0
LINE
  5
2B9
100
AcDbEntity
  8
_Y__________
  6
CONTINUOUS
 62
         7
100
AcDbLine
 10
1404.2033403763
 20
118.4096417294
 30
0.0
 11
1407.5670699775
 21
118.4096417294
 31
0.0
  0
LINE
  5
2BA
100
AcDbEntity
  8
_Y__________
  6
CONTINUOUS
 62
         7
100
AcDbLine
 10
1404.2033403763
 20
181.9596417294
 30
0.0
 11
1407.5670699775
 21
181.9596417294
 31
0.0
  0
LINE
  5
2BB
100
AcDbEntity
  8
_Y__________
  6
CONTINUOUS
 62
         7
100
AcDbLine
 10
1419.1033403763
 20
180.9596417294
 30
0.0
 11
1419.1033403763
 21
119.4096417294
 31
0.0
  0
LINE
  5
2BC
100
AcDbEntity
  8
_Y__________
  6
CONTINUOUS
 62
         7
100
AcDbLine
 10
1419.1033403763
 20
180.9596417294
 30
0.0
 11
1419.1033403763
 21
169.1846417294
 31
0.0
  0
LINE
  5
2BD
100
AcDbEntity
  8
_Y__________
  6
CONTINUOUS
 62
         7
100
AcDbLine
 10
1410.202140708
 20
122.0596417294
 30
0.0
 11
1412.0045400445
 21
122.0596417294
 31
0.0
  0
ARC
  5
2BE
100
AcDbEntity
  8
_Y__________
  6
CONTINUOUS
 62
         7
100
AcDbCircle
 10
1410.202140708
 20
121.0596417294
 30
0.0
 40
1.0
100
AcDbArc
 50
90.0
 51
166.8556743105
  0
LINE
  5
2BF
100
AcDbEntity
  8
_Y__________
  6
CONTINUOUS
 62
         7
100
AcDbLine
 10
1412.9783403763
 20
121.2870464652
 30
0.0
 11
1414.639610775
 21
118.4096417294
 31
0.0
  0
ARC
  5
2C0
100
AcDbEntity
  8
_Y__________
  6
CONTINUOUS
 62
         7
100
AcDbCircle
 10
1412.0045400445
 20
121.0596417294
 30
0.0
 40
1.0
100
AcDbArc
 50
13.1443256895
 51
90.0
  0
LINE
  5
2C1
100
AcDbEntity
  8
_Y__________
  6
CONTINUOUS
 62
         7
100
AcDbLine
 10
1414.639610775
 20
118.4096417294
 30
0.0
 11
1418.1033403763
 21
118.4096417294
 31
0.0
  0
LINE
  5
2C2
100
AcDbEntity
  8
_Y__________
  6
CONTINUOUS
 62
         7
100
AcDbLine
 10
1412.9783403763
 20
179.0822369936
 30
0.0
 11
1414.639610775
 21
181.9596417294
 31
0.0
  0
LINE
  5
2C3
100
AcDbEntity
  8
_Y__________
  6
CONTINUOUS
 62
         7
100
AcDbLine
 10
1414.639610775
 20
181.9596417294
 30
0.0
 11
1418.1033403763
 21
181.9596417294
 31
0.0
  0
LINE
  5
2C4
100
AcDbEntity
  8
_Y__________
  6
CONTINUOUS
 62
         7
100
AcDbLine
 10
1410.202140708
 20
178.3096417294
 30
0.0
 11
1412.0045400445
 21
178.3096417294
 31
0.0
  0
ARC
  5
2C5
100
AcDbEntity
  8
_Y__________
  6
CONTINUOUS
 62
         7
100
AcDbCircle
 10
1410.202140708
 20
179.3096417294
 30
0.0
 40
1.0
100
AcDbArc
 50
193.1443256895
 51
270.0
  0
ARC
  5
2C6
100
AcDbEntity
  8
_Y__________
  6
CONTINUOUS
 62
         7
100
AcDbCircle
 10
1412.0045400445
 20
179.3096417294
 30
0.0
 40
1.0
100
AcDbArc
 50
270.0
 51
346.8556743105
  0
LINE
  5
2C7
100
AcDbEntity
  8
_Y__________
  6
CENTER
 62
         1
100
AcDbLine
 10
1411.1033403763
 20
187.6899050302
 30
0.0
 11
1411.1033403763
 21
112.6870854784
 31
0.0
  0
LINE
  5
2C8
100
AcDbEntity
  8
_Y__________
  6
CONTINUOUS
 62
         7
100
AcDbLine
 10
1332.7801721046
 20
137.7630204357
 30
0.0
 11
1401.2033403763
 21
127.7846417294
 31
0.0
  0
LINE
  5
2C9
100
AcDbEntity
  8
_Y__________
  6
CENTER
 62
         1
100
AcDbLine
 10
1329.3598386453
 20
150.1846417294
 30
0.0
 11
1378.4659535144
 21
150.1846417294
 31
0.0
  0
LINE
  5
2CA
100
AcDbEntity
  8
_Y__________
  6
CONTINUOUS
 62
         7
100
AcDbLine
 10
1332.7801721046
 20
162.6062630231
 30
0.0
 11
1401.2033403763
 21
172.5846417294
 31
0.0
  0
LINE
  5
2CB
100
AcDbEntity
  8
_Y__________
  6
CENTER
 62
         1
100
AcDbLine
 10
1396.6508489578
 20
150.1846417294
 30
0.0
 11
1448.8854127335
 21
150.1846417294
 31
0.0
  0
LINE
  5
2CC
100
AcDbEntity
  8
_Y__________
  6
CONTINUOUS
 62
         7
100
AcDbLine
 10
1401.9497505378
 20
127.9846417294
 30
0.0
 11
1402.6033403763
 21
127.9846417294
 31
0.0
  0
LINE
  5
2CD
100
AcDbEntity
  8
_Y__________
  6
CONTINUOUS
 62
         7
100
AcDbLine
 10
1401.2033403763
 20
127.7846417294
 30
0.0
 11
1401.9497505378
 21
127.9846417294
 31
0.0
  0
ARC
  5
2CE
100
AcDbEntity
  8
_Y__________
  6
CONTINUOUS
 62
         7
100
AcDbCircle
 10
1402.6033403763
 20
127.3846417294
 30
0.0
 40
0.6
100
AcDbArc
 50
0.0
 51
90.0
  0
LINE
  5
2CF
100
AcDbEntity
  8
_Y__________
  6
CONTINUOUS
 62
         7
100
AcDbLine
 10
1401.9497505378
 20
127.9846417294
 30
0.0
 11
1401.9497505378
 21
172.3846417294
 31
0.0
  0
LINE
  5
2D0
100
AcDbEntity
  8
_Y__________
  6
CONTINUOUS
 62
         7
100
AcDbLine
 10
1401.2033403763
 20
127.7846417294
 30
0.0
 11
1401.2033403763
 21
172.5846417294
 31
0.0
  0
LINE
  5
2D1
100
AcDbEntity
  8
_Y__________
  6
CONTINUOUS
 62
         7
100
AcDbLine
 10
1401.9497505378
 20
172.3846417294
 30
0.0
 11
1402.6033403763
 21
172.3846417294
 31
0.0
  0
LINE
  5
2D2
100
AcDbEntity
  8
_Y__________
  6
CONTINUOUS
 62
         7
100
AcDbLine
 10
1401.2033403763
 20
172.5846417294
 30
0.0
 11
1401.9497505378
 21
172.3846417294
 31
0.0
  0
ARC
  5
2D3
100
AcDbEntity
  8
_Y__________
  6
CONTINUOUS
 62
         7
100
AcDbCircle
 10
1402.6033403763
 20
172.9846417294
 30
0.0
 40
0.6
100
AcDbArc
 50
270.0
 51
360.0
  0
CIRCLE
  5
2D4
100
AcDbEntity
  8
_Y__________
  6
CONTINUOUS
 62
         7
100
AcDbCircle
 10
1411.1033403763
 20
150.1846417294
 30
0.0
 40
5.0
  0
LINE
  5
2D5
100
AcDbEntity
  8
_Y__________
  6
DASHED
 62
         2
100
AcDbLine
 10
1598.7833403762
 20
145.1846417294
 30
0.0
 11
1598.2833403762
 21
144.6846417294
 31
0.0
  0
LINE
  5
2D6
100
AcDbEntity
  8
_Y__________
  6
DASHED
 62
         2
100
AcDbLine
 10
1598.7833403762
 20
155.1846417294
 30
0.0
 11
1598.2833403762
 21
155.6846417294
 31
0.0
  0
LINE
  5
2D7
100
AcDbEntity
  8
_Y__________
  6
DASHED
 62
         2
100
AcDbLine
 10
1598.7833403762
 20
155.1846417294
 30
0.0
 11
1598.7833403762
 21
145.1846417294
 31
0.0
  0
LINE
  5
2D8
100
AcDbEntity
  8
_Y__________
  6
DASHED
 62
         2
100
AcDbLine
 10
1598.7833403762
 20
145.1846417294
 30
0.0
 11
1604.9573403762
 21
145.1846417294
 31
0.0
  0
LINE
  5
2D9
100
AcDbEntity
  8
_Y__________
  6
DASHED
 62
         2
100
AcDbLine
 10
1607.8440917222
 20
150.1846417294
 30
0.0
 11
1604.9573403762
 21
145.1846417294
 31
0.0
  0
LINE
  5
2DA
100
AcDbEntity
  8
_Y__________
  6
DASHED
 62
         2
100
AcDbLine
 10
1604.9573403762
 20
155.1846417294
 30
0.0
 11
1607.8440917222
 21
150.1846417294
 31
0.0
  0
LINE
  5
2DB
100
AcDbEntity
  8
_Y__________
  6
DASHED
 62
         2
100
AcDbLine
 10
1604.9573403762
 20
155.1846417294
 30
0.0
 11
1604.9573403762
 21
145.1846417294
 31
0.0
  0
LINE
  5
2DC
100
AcDbEntity
  8
_Y__________
  6
DASHED
 62
         2
100
AcDbLine
 10
1598.7833403762
 20
155.1846417294
 30
0.0
 11
1604.9573403762
 21
155.1846417294
 31
0.0
  0
LINE
  5
2DD
100
AcDbEntity
  8
_Y__________
  6
CONTINUOUS
 62
         7
100
AcDbLine
 10
1598.2833403762
 20
155.6846417294
 30
0.0
 11
1598.2833403762
 21
144.6846417294
 31
0.0
  0
LINE
  5
2DE
100
AcDbEntity
  8
_Y__________
  6
CONTINUOUS
 62
         7
100
AcDbLine
 10
1419.1033403763
 20
120.4096417294
 30
0.0
 11
1419.1033403763
 21
119.4096417294
 31
0.0
  0
LINE
  5
2DF
100
AcDbEntity
  8
_Y__________
  6
CONTINUOUS
 62
         7
100
AcDbLine
 10
1419.1033403763
 20
180.9596417294
 30
0.0
 11
1419.1033403763
 21
179.9596417294
 31
0.0
  0
DIMENSION
  5
2E3
100
AcDbEntity
  8
L1_45
  6
CONTINUOUS
 62
         4
100
AcDbDimension
  2
*D1
 10
1399.2722003926
 20
-18.3785212913
 30
0.0
 11
1397.2472003926
 21
-57.4886342267
 31
0.0
  3
DIMSTYLE1
100
AcDbAlignedDimension
 13
1401.0033403763
 23
-18.3785212913
 33
0.0
 14
1401.0033403763
 24
-7.50814819
 34
0.0
 50
90.0
100
AcDbRotatedDimension
  0
DIMENSION
  5
2F3
100
AcDbEntity
  8
L1_45
  6
CONTINUOUS
 62
         4
100
AcDbDimension
  2
*D2
 10
1400.0033403763
 20
217.5833488134
 30
0.0
 11
1419.7820729007
 21
219.6083488134
 31
0.0
  3
DIMSTYLE1
100
AcDbAlignedDimension
 13
1400.0033403763
 23
172.4096417294
 33
0.0
 14
1445.0033403763
 24
150.1846417294
 34
0.0
100
AcDbRotatedDimension
  0
DIMENSION
  5
301
100
AcDbEntity
  8
L1_45
  6
CONTINUOUS
 62
         4
100
AcDbDimension
  2
*D3
 10
1331.7533403763
 20
224.0262539896
 30
0.0
 11
1379.9794036991
 21
226.0512539896
 31
0.0
  3
DIMSTYLE1
100
AcDbAlignedDimension
 13
1331.7533403763
 23
161.4188234458
 33
0.0
 14
1445.0033403763
 24
150.1846417294
 34
0.0
100
AcDbRotatedDimension
  0
LINE
  5
30D
100
AcDbEntity
  8
L1_45
  6
CONTINUOUS
 62
         7
100
AcDbLine
 10
1403.2033403763
 20
180.9596417294
 30
0.0
 11
1403.2033403763
 21
119.4096417294
 31
0.0
  0
LINE
  5
30E
100
AcDbEntity
  8
L1_45
  6
CENTER
 62
         1
100
AcDbLine
 10
1400.0033403763
 20
172.4096417294
 30
0.0
 11
1400.0033403763
 21
127.9596417294
 31
0.0
  0
LINE
  5
30F
100
AcDbEntity
  8
L1_45
  6
CONTINUOUS
 62
         7
100
AcDbLine
 10
1331.7533403763
 20
161.4188234458
 30
0.0
 11
1331.7533403763
 21
138.9504600129
 31
0.0
  0
CIRCLE
  5
310
100
AcDbEntity
  8
L1_45
  6
CONTINUOUS
 62
         7
100
AcDbCircle
 10
1623.2833403763
 20
150.1846417294
 30
0.0
 40
12.5
  0
CIRCLE
  5
311
100
AcDbEntity
  8
L1_45
  6
CONTINUOUS
 62
         7
100
AcDbCircle
 10
1623.2833403763
 20
150.1846417294
 30
0.0
 40
4.7
  0
CIRCLE
  5
312
100
AcDbEntity
  8
L1_45
  6
CONTINUOUS
 62
         7
100
AcDbCircle
 10
1623.2833403763
 20
150.1846417294
 30
0.0
 40
6.0325
  0
LINE
  5
313
100
AcDbEntity
  8
L1_45
  6
CONTINUOUS
 62
         7
100
AcDbLine
 10
1444.0282715665
 20
-6.9351519252
 30
0.0
 11
1429.0033403763
 21
-7.3098578132
 31
0.0
  0
LINE
  5
314
100
AcDbEntity
  8
L1_45
  6
CONTINUOUS
 62
         7
100
AcDbLine
 10
1444.0282715665
 20
-18.9515175562
 30
0.0
 11
1429.0033403763
 21
-18.5768116682
 31
0.0
  0
DIMENSION
  5
317
100
AcDbEntity
  8
L1_45
  6
CONTINUOUS
 62
         4
100
AcDbDimension
  2
*D4
 10
1456.1867427475
 20
-6.1933347407
 30
0.0
 11
1454.1617427475
 21
-17.3077276502
 31
0.0
  3
DIMSTYLE1
100
AcDbAlignedDimension
 13
1427.9033403763
 23
-6.1933347407
 33
0.0
 14
1427.9033403763
 24
-19.6933347407
 34
0.0
 50
90.0
100
AcDbRotatedDimension
  0
LINE
  5
323
100
AcDbEntity
  8
L1_45
  6
CONTINUOUS
 62
         7
100
AcDbLine
 10
1427.9033403763
 20
-6.1933347407
 30
0.0
 11
1427.9033403763
 21
-19.6933347407
 31
0.0
  0
LINE
  5
324
100
AcDbEntity
  8
L1_45
  6
CONTINUOUS
 62
         7
100
AcDbLine
 10
1418.4033403763
 20
-6.1933347407
 30
0.0
 11
1418.4033403763
 21
-19.6933347407
 31
0.0
  0
LINE
  5
325
100
AcDbEntity
  8
L1_45
  6
CONTINUOUS
 62
         7
100
AcDbLine
 10
1427.9033403763
 20
-19.6933347407
 30
0.0
 11
1429.0033403763
 21
-18.5933347407
 31
0.0
  0
LINE
  5
326
100
AcDbEntity
  8
L1_45
  6
CONTINUOUS
 62
         7
100
AcDbLine
 10
1417.0033403763
 20
-18.2933347407
 30
0.0
 11
1418.4033403763
 21
-19.6933347407
 31
0.0
  0
LINE
  5
327
100
AcDbEntity
  8
L1_45
  6
CONTINUOUS
 62
         7
100
AcDbLine
 10
1427.9033403763
 20
-6.1933347407
 30
0.0
 11
1429.0033403763
 21
-7.2933347407
 31
0.0
  0
LINE
  5
328
100
AcDbEntity
  8
L1_45
  6
CONTINUOUS
 62
         7
100
AcDbLine
 10
1417.0033403763
 20
-7.5933347407
 30
0.0
 11
1418.4033403763
 21
-6.1933347407
 31
0.0
  0
DIMENSION
  5
32B
100
AcDbEntity
  8
L1_45
  6
CONTINUOUS
 62
         4
100
AcDbDimension
  2
*D5
 10
1429.0033403763
 20
-39.8299286884
 30
0.0
 11
1434.3233339442
 21
-37.8049286884
 31
0.0
  3
DIMSTYLE1
100
AcDbAlignedDimension
 13
1429.0033403763
 23
-19.6933347407
 33
0.0
 14
1445.0033403763
 24
-23.4433347407
 34
0.0
100
AcDbRotatedDimension
  0
LINE
  5
337
100
AcDbEntity
  8
L1_45
  6
CONTINUOUS
 62
         7
100
AcDbLine
 10
1429.0033403763
 20
-7.2933347407
 30
0.0
 11
1429.0033403763
 21
-18.5933347407
 31
0.0
  0
ARC
  5
338
100
AcDbEntity
  8
L1_45
  6
CONTINUOUS
 62
         7
100
AcDbCircle
 10
1444.0033403763
 20
-19.9511261268
 30
0.0
 40
1.0
100
AcDbArc
 50
0.0
 51
88.5666667
  0
ARC
  5
339
100
AcDbEntity
  8
L1_45
  6
CONTINUOUS
 62
         7
100
AcDbCircle
 10
1444.0033403763
 20
-5.9355433545
 30
0.0
 40
1.0
100
AcDbArc
 50
271.4333333
 51
360.0
  0
DIMENSION
  5
33C
100
AcDbEntity
  8
L1_45
  6
CONTINUOUS
 62
         4
100
AcDbDimension
  2
*D6
 10
1417.0033403763
 20
-52.6985725377
 30
0.0
 11
1421.8984423449
 21
-50.6735725377
 31
0.0
  3
DIMSTYLE1
100
AcDbAlignedDimension
 13
1417.0033403763
 23
-19.6933347407
 33
0.0
 14
1445.0033403763
 24
-23.4433347407
 34
0.0
100
AcDbRotatedDimension
  0
LINE
  5
348
100
AcDbEntity
  8
L1_45
  6
CONTINUOUS
 62
         7
100
AcDbLine
 10
1418.4033403763
 20
-19.6933347407
 30
0.0
 11
1427.9033403763
 21
-19.6933347407
 31
0.0
  0
LINE
  5
349
100
AcDbEntity
  8
L1_45
  6
CONTINUOUS
 62
         7
100
AcDbLine
 10
1418.4033403763
 20
-6.1933347407
 30
0.0
 11
1427.9033403763
 21
-6.1933347407
 31
0.0
  0
LINE
  5
34A
100
AcDbEntity
  8
L1_45
  6
CONTINUOUS
 62
         7
100
AcDbLine
 10
1417.0033403763
 20
-7.5933347407
 30
0.0
 11
1417.0033403763
 21
-18.2933347407
 31
0.0
  0
LINE
  5
34B
100
AcDbEntity
  8
L1_45
  6
CONTINUOUS
 62
         7
100
AcDbLine
 10
1445.0033403763
 20
-2.4433347407
 30
0.0
 11
1445.0033403763
 21
-23.4433347407
 31
0.0
  0
LINE
  5
34C
100
AcDbEntity
  8
L1_45
  6
CONTINUOUS
 62
         7
100
AcDbLine
 10
1437.0553403763
 20
-0.4433347407
 30
0.0
 11
1443.0033403763
 21
-0.4433347407
 31
0.0
  0
LINE
  5
34D
100
AcDbEntity
  8
L1_45
  6
CONTINUOUS
 62
         7
100
AcDbLine
 10
1437.0553403763
 20
-25.4433347407
 30
0.0
 11
1443.0033403763
 21
-25.4433347407
 31
0.0
  0
ARC
  5
34E
100
AcDbEntity
  8
L1_45
  6
CONTINUOUS
 62
         7
100
AcDbCircle
 10
1443.0033403763
 20
-2.4433347407
 30
0.0
 40
2.0
100
AcDbArc
 50
0.0
 51
90.0
  0
ARC
  5
34F
100
AcDbEntity
  8
L1_45
  6
CONTINUOUS
 62
         7
100
AcDbCircle
 10
1443.0033403763
 20
-23.4433347407
 30
0.0
 40
2.0
100
AcDbArc
 50
270.0
 51
360.0
  0
DIMENSION
  5
352
100
AcDbEntity
  8
L1_45
  6
CONTINUOUS
 62
         4
100
AcDbDimension
  2
*D7
 10
1463.2855799548
 20
162.6846417294
 30
0.0
 11
1461.2605799548
 21
143.1091800163
 31
0.0
  3
DIMSTYLE1
100
AcDbAlignedDimension
 13
1443.0033403763
 23
162.6846417294
 33
0.0
 14
1443.0033403763
 24
137.6846417294
 34
0.0
 50
90.0
100
AcDbRotatedDimension
  0
ARC
  5
35E
100
AcDbEntity
  8
L1_45
  6
CONTINUOUS
 62
         7
100
AcDbCircle
 10
1443.0033403763
 20
139.6846417294
 30
0.0
 40
2.0
100
AcDbArc
 50
270.0
 51
360.0
  0
ARC
  5
35F
100
AcDbEntity
  8
L1_45
  6
CONTINUOUS
 62
         7
100
AcDbCircle
 10
1443.0033403763
 20
160.6846417294
 30
0.0
 40
2.0
100
AcDbArc
 50
0.0
 51
90.0
  0
LINE
  5
360
100
AcDbEntity
  8
L1_45
  6
CONTINUOUS
 62
         7
100
AcDbLine
 10
1437.0553403763
 20
137.6846417294
 30
0.0
 11
1443.0033403763
 21
137.6846417294
 31
0.0
  0
LINE
  5
361
100
AcDbEntity
  8
L1_45
  6
CONTINUOUS
 62
         7
100
AcDbLine
 10
1437.0553403763
 20
162.6846417294
 30
0.0
 11
1443.0033403763
 21
162.6846417294
 31
0.0
  0
LINE
  5
362
100
AcDbEntity
  8
L1_45
  6
CONTINUOUS
 62
         7
100
AcDbLine
 10
1445.0033403763
 20
160.6846417294
 30
0.0
 11
1445.0033403763
 21
139.6846417294
 31
0.0
  0
DIMENSION
  5
365
100
AcDbEntity
  8
L1_45
  6
CONTINUOUS
 62
         4
100
AcDbDimension
  2
*D8
 10
1389.0033403763
 20
38.0784408234
 30
0.0
 11
1407.8552760934
 21
40.1034408234
 31
0.0
  3
DIMSTYLE1
100
AcDbAlignedDimension
 13
1389.0033403763
 23
-8.5829650161
 33
0.0
 14
1445.0033403763
 24
-2.4433347407
 34
0.0
100
AcDbRotatedDimension
  0
DIMENSION
  5
373
100
AcDbEntity
  8
L1_45
  6
CONTINUOUS
 62
         4
100
AcDbDimension
  2
*D9
 10
1389.0033403763
 20
28.4499765234
 30
0.0
 11
1392.0370847434
 21
30.4749765234
 31
0.0
  3
DIMSTYLE1
100
AcDbAlignedDimension
 13
1389.0033403763
 23
-9.8433347407
 33
0.0
 14
1401.0033403763
 24
-7.5829650161
 34
0.0
100
AcDbRotatedDimension
  0
LINE
  5
37F
100
AcDbEntity
  8
L1_45
  6
CONTINUOUS
 62
         7
100
AcDbLine
 10
1389.0033403763
 20
-16.0433347407
 30
0.0
 11
1389.0033403763
 21
-9.8433347407
 31
0.0
  0
LINE
  5
380
100
AcDbEntity
  8
L1_45
  6
CONTINUOUS
 62
         7
100
AcDbLine
 10
1401.0033403763
 20
-7.50814819
 30
0.0
 11
1392.3833403763
 21
-7.50814819
 31
0.0
  0
LINE
  5
381
100
AcDbEntity
  8
L1_45
  6
CONTINUOUS
 62
         7
100
AcDbLine
 10
1401.0033403763
 20
-18.3785212913
 30
0.0
 11
1392.3833403763
 21
-18.3785212913
 31
0.0
  0
ARC
  5
382
100
AcDbEntity
  8
L1_45
  6
CONTINUOUS
 62
         7
100
AcDbCircle
 10
1390.0033403763
 20
-8.50814819
 30
0.0
 40
1.0
100
AcDbArc
 50
90.0
 51
180.0
  0
ARC
  5
383
100
AcDbEntity
  8
L1_45
  6
CONTINUOUS
 62
         7
100
AcDbCircle
 10
1390.0033403763
 20
-17.3785212913
 30
0.0
 40
1.0
100
AcDbArc
 50
180.0
 51
270.0
  0
LINE
  5
384
100
AcDbEntity
  8
L1_45
  6
CONTINUOUS
 62
         7
100
AcDbLine
 10
1392.3833403763
 20
-7.50814819
 30
0.0
 11
1390.0033403763
 21
-7.50814819
 31
0.0
  0
LINE
  5
385
100
AcDbEntity
  8
L1_45
  6
CONTINUOUS
 62
         7
100
AcDbLine
 10
1392.3833403763
 20
-18.3785212913
 30
0.0
 11
1390.0033403763
 21
-18.3785212913
 31
0.0
  0
LINE
  5
386
100
AcDbEntity
  8
L1_45
  6
CONTINUOUS
 62
         7
100
AcDbLine
 10
1389.0033403763
 20
-17.3785212913
 30
0.0
 11
1389.0033403763
 21
-16.0433347407
 31
0.0
  0
LINE
  5
387
100
AcDbEntity
  8
L1_45
  6
CONTINUOUS
 62
         7
100
AcDbLine
 10
1389.0033403763
 20
-9.8433347407
 30
0.0
 11
1389.0033403763
 21
-8.50814819
 31
0.0
  0
LINE
  5
388
100
AcDbEntity
  8
L1_45
  6
CONTINUOUS
 62
         7
100
AcDbLine
 10
1417.0033403763
 20
-7.6091251175
 30
0.0
 11
1401.0033403763
 21
-8.00814819
 31
0.0
  0
LINE
  5
389
100
AcDbEntity
  8
L1_45
  6
CONTINUOUS
 62
         7
100
AcDbLine
 10
1417.0033403763
 20
-18.2775443638
 30
0.0
 11
1401.0033403763
 21
-17.8785212913
 31
0.0
  0
LINE
  5
38A
100
AcDbEntity
  8
L1_45
  6
CONTINUOUS
 62
         7
100
AcDbLine
 10
1401.0033403763
 20
-18.3785212913
 30
0.0
 11
1401.0033403763
 21
-7.50814819
 31
0.0
  0
LINE
  5
38B
100
AcDbEntity
  8
L1_45
  6
DASHED
 62
         2
100
AcDbLine
 10
1373.1333403763
 20
-9.8433347407
 30
0.0
 11
1373.1333403763
 21
4.8578344289
 31
0.0
  0
LINE
  5
38C
100
AcDbEntity
  8
L1_45
  6
CONTINUOUS
 62
         7
100
AcDbLine
 10
1373.1333403763
 20
-30.744520168
 30
0.0
 11
1373.1333403763
 21
-16.0433347407
 31
0.0
  0
LINE
  5
38D
100
AcDbEntity
  8
L1_45
  6
DASHED
 62
         2
100
AcDbLine
 10
1372.6923607424
 20
5.2988140627
 30
0.0
 11
1373.1333403763
 21
4.8578344289
 31
0.0
  0
LINE
  5
38E
100
AcDbEntity
  8
L1_45
  6
DASHED
 62
         2
100
AcDbLine
 10
1392.3833403763
 20
-7.50814819
 30
0.0
 11
1392.3833403763
 21
7.6651106654
 31
0.0
  0
LINE
  5
38F
100
AcDbEntity
  8
L1_45
  6
DASHED
 62
         2
100
AcDbLine
 10
1373.1333403763
 20
4.8578344289
 30
0.0
 11
1392.3833403763
 21
7.6651106654
 31
0.0
  0
LINE
  5
390
100
AcDbEntity
  8
L1_45
  6
DASHED
 62
         2
100
AcDbLine
 10
1392.9748974527
 20
8.2566677419
 30
0.0
 11
1392.3833403763
 21
7.6651106654
 31
0.0
  0
LINE
  5
391
100
AcDbEntity
  8
L1_45
  6
CONTINUOUS
 62
         7
100
AcDbLine
 10
1372.6923607424
 20
-31.1854998018
 30
0.0
 11
1373.1333403763
 21
-30.744520168
 31
0.0
  0
LINE
  5
392
100
AcDbEntity
  8
L1_45
  6
CONTINUOUS
 62
         7
100
AcDbLine
 10
1392.3833403763
 20
-33.5517964045
 30
0.0
 11
1392.3833403763
 21
-18.3785212913
 31
0.0
  0
LINE
  5
393
100
AcDbEntity
  8
L1_45
  6
CONTINUOUS
 62
         7
100
AcDbLine
 10
1373.1333403763
 20
-30.744520168
 30
0.0
 11
1392.3833403763
 21
-33.5517964045
 31
0.0
  0
LINE
  5
394
100
AcDbEntity
  8
L1_45
  6
CONTINUOUS
 62
         7
100
AcDbLine
 10
1392.9748974527
 20
-34.143353481
 30
0.0
 11
1392.3833403763
 21
-33.5517964045
 31
0.0
  0
DIMENSION
  5
397
100
AcDbEntity
  8
L1_45
  6
CONTINUOUS
 62
         4
100
AcDbDimension
  2
*D10
 10
1445.0033403763
 20
-60.4834044632
 30
0.0
 11
1415.9933403763
 21
-58.4584044632
 31
0.0
  3
DIMSTYLE1
100
AcDbAlignedDimension
 13
1445.0033403763
 23
-23.4433347407
 33
0.0
 14
1392.3833403763
 24
-33.5517964045
 34
0.0
100
AcDbRotatedDimension
  0
ARC
  5
3A3
100
AcDbEntity
  8
L1_45
  6
CONTINUOUS
 62
         7
100
AcDbCircle
 10
1389.7833403763
 20
57.0566652651
 30
0.0
 40
2.6
100
AcDbArc
 50
270.0
 51
450.0
  0
LINE
  5
3A4
100
AcDbEntity
  8
L1_45
  6
CENTER
 62
         1
100
AcDbLine
 10
1389.7833403763
 20
52.4899013882
 30
0.0
 11
1389.7833403763
 21
61.8492159223
 31
0.0
  0
DIMENSION
  5
3A7
100
AcDbEntity
  8
L1_45
  6
CONTINUOUS
 62
         4
100
AcDbDimension
  2
*D11
 10
1362.8379292408
 20
59.6566652595
 30
0.0
 11
1360.8129292408
 21
50.067865788
 31
0.0
  3
DIMSTYLE1
100
AcDbAlignedDimension
 13
1375.7333403763
 23
59.6566652595
 33
0.0
 14
1375.7333403763
 24
54.4566652595
 34
0.0
 50
90.0
100
AcDbRotatedDimension
  0
ARC
  5
3B5
100
AcDbEntity
  8
L1_45
  6
CONTINUOUS
 62
         7
100
AcDbCircle
 10
1375.7333403763
 20
57.0566652595
 30
0.0
 40
2.6
100
AcDbArc
 50
90.0
 51
270.0
  0
LINE
  5
3B6
100
AcDbEntity
  8
L1_45
  6
CENTER
 62
         1
100
AcDbLine
 10
1375.7333403763
 20
52.6770876733
 30
0.0
 11
1375.7333403763
 21
61.2408604721
 31
0.0
  0
LINE
  5
3B7
100
AcDbEntity
  8
L1_45
  6
CENTER
 62
         1
100
AcDbLine
 10
1375.7333403763
 20
52.6770876733
 30
0.0
 11
1375.7333403763
 21
61.2408604721
 31
0.0
  0
LINE
  5
3B8
100
AcDbEntity
  8
L1_45
  6
CONTINUOUS
 62
         7
100
AcDbLine
 10
1389.7833403763
 20
59.6566652651
 30
0.0
 11
1375.7333403763
 21
59.6566652595
 31
0.0
  0
LINE
  5
3B9
100
AcDbEntity
  8
L1_45
  6
CONTINUOUS
 62
         7
100
AcDbLine
 10
1375.7333403763
 20
54.4566652595
 30
0.0
 11
1389.7833403763
 21
54.4566652651
 31
0.0
  0
LINE
  5
3BA
100
AcDbEntity
  8
L1_45
  6
CENTER
 62
         1
100
AcDbLine
 10
1394.1150209101
 20
57.0566652651
 30
0.0
 11
1371.5833758312
 21
57.0566652595
 31
0.0
  0
DIMENSION
  5
3BD
100
AcDbEntity
  8
L1_45
  6
CONTINUOUS
 62
         4
100
AcDbDimension
  2
*D12
 10
1373.1333403763
 20
46.4382608251
 30
0.0
 11
1377.46693711
 21
48.4632608251
 31
0.0
  3
DIMSTYLE1
100
AcDbAlignedDimension
 13
1373.1333403763
 23
57.0566652595
 33
0.0
 14
1392.3833403762
 24
57.0566652651
 34
0.0
100
AcDbRotatedDimension
  0
TEXT
  5
3CA
100
AcDbEntity
  8
L1_45
  6
CONTINUOUS
 62
         2
100
AcDbText
 10
1607.8551181589
 20
224.3704784082
 30
0.0
 40
4.5
  1
531510
 41
0.98
  7
BOX
100
AcDbText
  0
ENDSEC
  0
SECTION
  2
OBJECTS
  0
DICTIONARY
  5
19
100
AcDbDictionary
  3
ACAD_GROUP
350
1A
  3
ACAD_MLINESTYLE
350
1B
  0
DICTIONARY
  5
1A
102
{ACAD_REACTORS
330
19
102
}
100
AcDbDictionary
  0
DICTIONARY
  5
1B
102
{ACAD_REACTORS
330
19
102
}
100
AcDbDictionary
  3
STANDARD
350
1C
  0
MLINESTYLE
  5
1C
102
{ACAD_REACTORS
330
1B
102
}
100
AcDbMlineStyle
  2
STANDARD
 70
         0
  3

 62
         0
 51
90.0
 52
90.0
 71
         2
 49
0.5
 62
       256
  6
BYLAYER
 49
-0.5
 62
       256
  6
BYLAYER
  0
ENDSEC
  0
EOF
