  0
SECTION
  2
HEADER
  9
$ACADVER
  1
AC1014
  9
$ACADMAINTVER
 70
         0
  9
$DWGCODEPAGE
  3
BIG5
  9
$INSBASE
 10
0.0
 20
0.0
 30
0.0
  9
$EXTMIN
 10
1089.9270847391
 20
-87.4132767241
 30
0.0
  9
$EXTMAX
 10
1747.1370632462
 20
243.931609605
 30
0.0
  9
$LIMMIN
 10
0.0
 20
0.0
  9
$LIMMAX
 10
0.0
 20
0.0
  9
$ORTHOMODE
 70
         0
  9
$REGENMODE
 70
         1
  9
$FILLMODE
 70
         1
  9
$QTEXTMODE
 70
         0
  9
$MIRRTEXT
 70
         1
  9
$DRAGMODE
 70
         2
  9
$LTSCALE
 40
1.0
  9
$OSMODE
 70
         0
  9
$ATTMODE
 70
         1
  9
$TEXTSIZE
 40
1.2
  9
$TRACEWID
 40
0.05
  9
$TEXTSTYLE
  7
STANDARD
  9
$CLAYER
  8
0
  9
$CELTYPE
  6
CONTINUOUS
  9
$CECOLOR
 62
         5
  9
$CELTSCALE
 40
1.0
  9
$DELOBJ
 70
         1
  9
$DISPSILH
 70
         0
  9
$DIMSCALE
 40
1.0
  9
$DIMASZ
 40
0.18
  9
$DIMEXO
 40
0.0625
  9
$DIMDLI
 40
0.38
  9
$DIMRND
 40
0.0
  9
$DIMDLE
 40
0.0
  9
$DIMEXE
 40
0.25
  9
$DIMTP
 40
0.01
  9
$DIMTM
 40
-0.01
  9
$DIMTXT
 40
2.7
  9
$DIMCEN
 40
0.09
  9
$DIMTSZ
 40
0.0
  9
$DIMTOL
 70
         0
  9
$DIMLIM
 70
         0
  9
$DIMTIH
 70
         1
  9
$DIMTOH
 70
         1
  9
$DIMSE1
 70
         0
  9
$DIMSE2
 70
         0
  9
$DIMTAD
 70
         0
  9
$DIMZIN
 70
         0
  9
$DIMBLK
  1

  9
$DIMASO
 70
         1
  9
$DIMSHO
 70
         1
  9
$DIMPOST
  1

  9
$DIMAPOST
  1

  9
$DIMALT
 70
         0
  9
$DIMALTD
 70
         2
  9
$DIMALTF
 40
25.4
  9
$DIMLFAC
 40
1.0
  9
$DIMTOFL
 70
         0
  9
$DIMTVP
 40
0.0
  9
$DIMTIX
 70
         0
  9
$DIMSOXD
 70
         0
  9
$DIMSAH
 70
         0
  9
$DIMBLK1
  1

  9
$DIMBLK2
  1

  9
$DIMSTYLE
  2
STANDARD
  9
$DIMCLRD
 70
         0
  9
$DIMCLRE
 70
         0
  9
$DIMCLRT
 70
         5
  9
$DIMTFAC
 40
1.0
  9
$DIMGAP
 40
0.09
  9
$DIMJUST
 70
         0
  9
$DIMSD1
 70
         0
  9
$DIMSD2
 70
         0
  9
$DIMTOLJ
 70
         1
  9
$DIMTZIN
 70
         0
  9
$DIMALTZ
 70
         0
  9
$DIMALTTZ
 70
         0
  9
$DIMFIT
 70
         3
  9
$DIMUPT
 70
         0
  9
$DIMUNIT
 70
         2
  9
$DIMDEC
 70
         4
  9
$DIMTDEC
 70
         4
  9
$DIMALTU
 70
         2
  9
$DIMALTTD
 70
         2
  9
$DIMTXSTY
  7
STANDARD
  9
$DIMAUNIT
 70
         0
  9
$LUNITS
 70
         2
  9
$LUPREC
 70
        10
  9
$SKETCHINC
 40
0.1
  9
$FILLETRAD
 40
0.0
  9
$AUNITS
 70
         0
  9
$AUPREC
 70
         0
  9
$MENU
  1
acad
  9
$ELEVATION
 40
0.0
  9
$PELEVATION
 40
0.0
  9
$THICKNESS
 40
0.0
  9
$LIMCHECK
 70
         0
  9
$BLIPMODE
 70
         1
  9
$CHAMFERA
 40
0.0
  9
$CHAMFERB
 40
0.0
  9
$CHAMFERC
 40
0.0
  9
$CHAMFERD
 40
0.0
  9
$SKPOLY
 70
         0
  9
$TDCREATE
 40
0.000000000
  9
$TDUPDATE
 40
0.000000000
  9
$TDINDWG
 40
0.0000000000
  9
$TDUSRTIMER
 40
0.0000000000
  9
$USRTIMER
 70
         1
  9
$ANGBASE
 50
0.0
  9
$ANGDIR
 70
         0
  9
$PDMODE
 70
         2
  9
$PDSIZE
 40
0.0
  9
$PLINEWID
 40
0.0
  9
$COORDS
 70
         1
  9
$SPLFRAME
 70
         0
  9
$SPLINETYPE
 70
         6
  9
$SPLINESEGS
 70
         8
  9
$ATTDIA
 70
         0
  9
$ATTREQ
 70
         1
  9
$HANDLING
 70
         1
  9
$HANDSEED
  5
44D
  9
$SURFTAB1
 70
         6
  9
$SURFTAB2
 70
         6
  9
$SURFTYPE
 70
         6
  9
$SURFU
 70
         6
  9
$SURFV
 70
         6
  9
$UCSNAME
  2

  9
$UCSORG
 10
0.0
 20
0.0
 30
0.0
  9
$UCSXDIR
 10
1.0
 20
0.0
 30
0.0
  9
$UCSYDIR
 10
0.0
 20
1.0
 30
0.0
  9
$PUCSNAME
  2

  9
$PUCSORG
 10
0.0
 20
0.0
 30
0.0
  9
$PUCSXDIR
 10
1.0
 20
0.0
 30
0.0
  9
$PUCSYDIR
 10
0.0
 20
1.0
 30
0.0
  9
$USERI1
 70
         0
  9
$USERI2
 70
         0
  9
$USERI3
 70
         0
  9
$USERI4
 70
         0
  9
$USERI5
 70
         0
  9
$USERR1
 40
0.0
  9
$USERR2
 40
0.0
  9
$USERR3
 40
0.0
  9
$USERR4
 40
0.0
  9
$USERR5
 40
0.0
  9
$WORLDVIEW
 70
         1
  9
$SHADEDGE
 70
         3
  9
$SHADEDIF
 70
        70
  9
$TILEMODE
 70
         1
  9
$MAXACTVP
 70
        16
  9
$PINSBASE
 10
0.0
 20
0.0
 30
0.0
  9
$PLIMCHECK
 70
         0
  9
$PEXTMIN
 10
1.0000000000E+20
 20
1.0000000000E+20
 30
1.0000000000E+20
  9
$PEXTMAX
 10
-1.0000000000E+20
 20
-1.0000000000E+20
 30
-1.0000000000E+20
  9
$PLIMMIN
 10
0.0
 20
0.0
  9
$PLIMMAX
 10
12.0
 20
9.0
  9
$UNITMODE
 70
         0
  9
$VISRETAIN
 70
         0
  9
$PLINEGEN
 70
         1
  9
$PSLTSCALE
 70
         0
  9
$TREEDEPTH
 70
      3020
  9
$PICKSTYLE
 70
         1
  9
$CMLSTYLE
  2
STANDARD
  9
$CMLJUST
 70
         0
  9
$CMLSCALE
 40
1.0
  9
$PROXYGRAPHICS
 70
         0
  9
$MEASUREMENT
 70
         0
  0
ENDSEC
  0
SECTION
  2
CLASSES
  0
CLASS
  1
LWPOLYLINE
  2
AcDbPolyline
  3
"AutoCAD"
 90
        0
280
         0
281
         1
  0
CLASS
  1
IMAGE
  2
AcDbRasterImage
  3
ISM
 90
      127
280
         0
281
         1
  0
CLASS
  1
OLE2FRAME
  2
AcDbOle2Frame
  3
""
 90
        0
280
         0
281
         1
  0
CLASS
  1
HATCH
  2
AcDbHatch
  3
"ACAD_SEDONA"
 90
        0
280
         0
281
         1
  0
CLASS
  1
DICTIONARYVAR
  2
AcDbDictionaryVar
  3
"AutoCAD"
 90
        0
280
         0
281
         0
  0
CLASS
  1
RASTERVARIABLES
  2
AcDbRasterVariables
  3
ISM
 90
        0
280
         0
281
         0
  0
CLASS
  1
IMAGEDEF
  2
AcDbRasterImageDef
  3
ISM
 90
        0
280
         0
281
         0
  0
CLASS
  1
IMAGEDEF_REACTOR
  2
AcDbRasterImageDefReactor
  3
ISM
 90
        1
280
         0
281
         0
  0
CLASS
  1
IDBUFFER
  2
AcDbIdBuffer
  3
"Acad"
 90
        0
280
         0
281
         0
  0
CLASS
  1
SPATIAL_FILTER
  2
AcDbSpatialFilter
  3
"Acad"
 90
        0
280
         0
281
         0
  0
CLASS
  1
XRECORD
  2
AcDbXrecord
  3
"<Built In>"
 90
        0
280
         0
281
         0
  0
CLASS
  1
SORTENTSTABLE
  2
AcDbSortentsTable
  3
"AutoCAD"
 90
        0
280
         0
281
         0
  0
CLASS
  1
LAYER_INDEX
  2
AcDbLayerIndex
  3
"Acad"
 90
        0
280
         0
281
         0
  0
CLASS
  1
SPATIAL_INDEX
  2
AcDbSpatialIndex
  3
"Acad"
 90
        0
280
         0
281
         0
  0
CLASS
  1
OBJECT_PTR
  2
CAseDLPNTableRecord
  3
"ASE-LPNTableRecord"
 90
        1
280
         0
281
         0
  0
CLASS
  1
LAYOUT
  2
AcDbLayout
  3
"AutoCAD 2000"
 90
        1
280
         0
281
         0
  0
CLASS
  1
PLOTSETTINGS
  2
AcDbPlotSettings
  3
"AutoCAD 2000"
 90
        1
280
         0
281
         0
  0
CLASS
  1
ACDBDICTIONARYWDFLT
  2
AcDbDictionaryWithDefault
  3
"AutoCAD 2000"
 90
        1
280
         0
281
         0
  0
CLASS
  1
ACDBPLACEHOLDER
  2
AcDbPlaceHolder
  3
"AutoCAD 2000"
 90
        1
280
         0
281
         0
  0
CLASS
  1
VBA_PROJECT
  2
AcDbVbaProject
  3
"acadvba"
 90
        1
280
         0
281
         0
  0
CLASS
  1
WIPEOUT
  2
AcDbWipeout
  3
WipeOut|AutoCAD Express Tool|expresstools@autodesk.com
 90
      127
280
         0
281
         1
  0
CLASS
  1
WIPEOUTVARIABLES
  2
AcDbWipeoutVariables
  3
WipeOut|AutoCAD Express Tool|expresstools@autodesk.com
 90
        0
280
         0
281
         0
  0
CLASS
  1
RTEXT
  2
RText
  3
RText|AutoCAD Express Tool|expresstools@autodesk.com
 90
        0
280
         0
281
         1
  0
CLASS
  1
ARCALIGNEDTEXT
  2
AcDbArcAlignedText
  3
ATEXT|AutoCAD Express Tool|expresstools@autodesk.com
 90
        0
280
         0
281
         1
  0
ENDSEC
  0
SECTION
  2
TABLES
  0
TABLE
  2
VPORT
  5
7
100
AcDbSymbolTable
 70
         1
  0
VPORT
  5
15
100
AcDbSymbolTableRecord
100
AcDbViewportTableRecord
  2
*ACTIVE
 70
         0
 10
0.0
 20
0.0
 11
1.0
 21
1.0
 12
1418.5320739926
 22
78.2591664404
 13
0.0
 23
0.0
 14
1.0
 24
1.0
 15
0.0
 25
0.0
 16
0.0
 26
0.0
 36
1.0
 17
0.0
 27
0.0
 37
0.0
 40
331.344886329
 41
1.9834619625
 42
50.0
 43
0.0
 44
0.0
 50
0.0
 51
0.0
 71
         0
 72
       100
 73
         1
 74
         1
 75
         0
 76
         0
 77
         0
 78
         0
  0
ENDTAB
  0
TABLE
  2
LTYPE
  5
4
100
AcDbSymbolTable
 70
         6
  0
LTYPE
  5
11
100
AcDbSymbolTableRecord
100
AcDbLinetypeTableRecord
  2
BYBLOCK
 70
        64
  3

 72
        65
 73
         0
 40
0.0
  0
LTYPE
  5
12
100
AcDbSymbolTableRecord
100
AcDbLinetypeTableRecord
  2
BYLAYER
 70
        64
  3

 72
        65
 73
         0
 40
0.0
  0
LTYPE
  5
13
100
AcDbSymbolTableRecord
100
AcDbLinetypeTableRecord
  2
CONTINUOUS
 70
        64
  3
Solid line
 72
        65
 73
         0
 40
0.0
  0
LTYPE
  5
1D
100
AcDbSymbolTableRecord
100
AcDbLinetypeTableRecord
  2
DASHED
 70
        64
  3
_ _ _ _ _ _ _ _ _ _ _ _ _ _ _ _
 72
        65
 73
         2
 40
0.2
 49
0.1
 74
         0
 49
-0.1
 74
         0
  0
LTYPE
  5
1E
100
AcDbSymbolTableRecord
100
AcDbLinetypeTableRecord
  2
CENTER
 70
        64
  3
___ _ ___ _ ___ _ ___ _ ___ _ ___ _ ___ _ ___ _
 72
        65
 73
         4
 40
0.95
 49
0.625
 74
         0
 49
-0.125
 74
         0
 49
0.075
 74
         0
 49
-0.125
 74
         0
  0
LTYPE
  5
1F
100
AcDbSymbolTableRecord
100
AcDbLinetypeTableRecord
  2
PHANTOM
 70
        64
  3
______  __  __  ______  __  __  ______  __  __  
 72
        65
 73
         6
 40
1.025
 49
0.625
 74
         0
 49
-0.125
 74
         0
 49
0.075
 74
         0
 49
-0.125
 74
         0
 49
0.075
 74
         0
 49
-0.125
 74
         0
  0
ENDTAB
  0
TABLE
  2
LAYER
  5
2
100
AcDbSymbolTable
 70
        10
  0
LAYER
  5
14
100
AcDbSymbolTableRecord
100
AcDbLayerTableRecord
  2
0
 70
         0
 62
         7
  6
CONTINUOUS
  0
LAYER
  5
21
100
AcDbSymbolTableRecord
100
AcDbLayerTableRecord
  2
_____U
 70
         1
 62
         7
  6
CONTINUOUS
  0
LAYER
  5
22
100
AcDbSymbolTableRecord
100
AcDbLayerTableRecord
  2
___T______
 70
         1
 62
         7
  6
CONTINUOUS
  0
LAYER
  5
23
100
AcDbSymbolTableRecord
100
AcDbLayerTableRecord
  2
______L_______
 70
         1
 62
         7
  6
CONTINUOUS
  0
LAYER
  5
24
100
AcDbSymbolTableRecord
100
AcDbLayerTableRecord
  2
ERTGDAOZ____
 70
         1
 62
         7
  6
CONTINUOUS
  0
LAYER
  5
25
100
AcDbSymbolTableRecord
100
AcDbLayerTableRecord
  2
_____M_____M____
 70
         1
 62
         7
  6
CONTINUOUS
  0
LAYER
  5
26
100
AcDbSymbolTableRecord
100
AcDbLayerTableRecord
  2
_Y__________
 70
         0
 62
         7
  6
CONTINUOUS
  0
LAYER
  5
27
100
AcDbSymbolTableRecord
100
AcDbLayerTableRecord
  2
_X______
 70
         0
 62
         7
  6
CONTINUOUS
  0
LAYER
  5
28
100
AcDbSymbolTableRecord
100
AcDbLayerTableRecord
  2
L1_60
 70
         0
 62
         7
  6
CONTINUOUS
  0
LAYER
  5
2F
100
AcDbSymbolTableRecord
100
AcDbLayerTableRecord
  2
DEFPOINTS
 70
         0
 62
        -7
  6
CONTINUOUS
  0
ENDTAB
  0
TABLE
  2
STYLE
  5
3
100
AcDbSymbolTable
 70
        14
  0
STYLE
  5
17
100
AcDbSymbolTableRecord
100
AcDbTextStyleTableRecord
  2
STANDARD
 70
         0
 40
0.0
 41
1.0
 50
0.0
 71
         0
 42
0.0
  3
txt
  4

  0
STYLE
  5
39
100
AcDbSymbolTableRecord
100
AcDbTextStyleTableRecord
  2
BOX
 70
         0
 40
1.0
 41
1.0
 50
0.0
 71
         0
 42
0.2
  3
txt.shx
  4

  0
STYLE
  5
52
100
AcDbSymbolTableRecord
100
AcDbTextStyleTableRecord
  2
BOX
 70
         0
 40
1.0
 41
1.0
 50
0.0
 71
         0
 42
0.2
  3
txt.shx
  4

  0
STYLE
  5
60
100
AcDbSymbolTableRecord
100
AcDbTextStyleTableRecord
  2
BOX
 70
         0
 40
1.0
 41
1.0
 50
0.0
 71
         0
 42
0.2
  3
txt.shx
  4

  0
STYLE
  5
6E
100
AcDbSymbolTableRecord
100
AcDbTextStyleTableRecord
  2
BOX
 70
         0
 40
1.0
 41
1.0
 50
0.0
 71
         0
 42
0.2
  3
txt.shx
  4

  0
STYLE
  5
7C
100
AcDbSymbolTableRecord
100
AcDbTextStyleTableRecord
  2
BOX
 70
         0
 40
1.0
 41
1.0
 50
0.0
 71
         0
 42
0.2
  3
txt.shx
  4

  0
STYLE
  5
9C
100
AcDbSymbolTableRecord
100
AcDbTextStyleTableRecord
  2
BOX
 70
         0
 40
1.0
 41
1.0
 50
0.0
 71
         0
 42
0.2
  3
txt.shx
  4

  0
STYLE
  5
AF
100
AcDbSymbolTableRecord
100
AcDbTextStyleTableRecord
  2
BOX
 70
         0
 40
1.0
 41
1.0
 50
0.0
 71
         0
 42
0.2
  3
txt.shx
  4

  0
STYLE
  5
C3
100
AcDbSymbolTableRecord
100
AcDbTextStyleTableRecord
  2
BOX
 70
         0
 40
1.0
 41
1.0
 50
0.0
 71
         0
 42
0.2
  3
txt.shx
  4

  0
STYLE
  5
D1
100
AcDbSymbolTableRecord
100
AcDbTextStyleTableRecord
  2
BOX
 70
         0
 40
1.0
 41
1.0
 50
0.0
 71
         0
 42
0.2
  3
txt.shx
  4

  0
STYLE
  5
E2
100
AcDbSymbolTableRecord
100
AcDbTextStyleTableRecord
  2
BOX
 70
         0
 40
1.0
 41
1.0
 50
0.0
 71
         0
 42
0.2
  3
txt.shx
  4

  0
STYLE
  5
100
100
AcDbSymbolTableRecord
100
AcDbTextStyleTableRecord
  2
BOX
 70
         0
 40
1.0
 41
1.0
 50
0.0
 71
         0
 42
0.2
  3
txt.shx
  4

  0
STYLE
  5
2EF
100
AcDbSymbolTableRecord
100
AcDbTextStyleTableRecord
  2
BOX
 70
         0
 40
1.0
 41
1.0
 50
0.0
 71
         0
 42
0.2
  3
txt.shx
  4

  0
STYLE
  5
44B
100
AcDbSymbolTableRecord
100
AcDbTextStyleTableRecord
  2
BOX
 70
         0
 40
1.0
 41
1.0
 50
0.0
 71
         0
 42
0.2
  3
txt.shx
  4

  0
ENDTAB
  0
TABLE
  2
VIEW
  5
5
100
AcDbSymbolTable
 70
         0
  0
ENDTAB
  0
TABLE
  2
UCS
  5
6
100
AcDbSymbolTable
 70
         1
  0
UCS
  5
20
100
AcDbSymbolTableRecord
100
AcDbUCSTableRecord
  2
CK_VIEW_1
 70
         0
 10
0.0
 20
0.0
 30
1.0
 11
1.0
 21
0.0
 31
0.0
 12
0.0
 22
1.0
 32
0.0
  0
ENDTAB
  0
TABLE
  2
APPID
  5
8
100
AcDbSymbolTable
 70
         1
  0
APPID
  5
16
100
AcDbSymbolTableRecord
100
AcDbRegAppTableRecord
  2
ACAD
 70
         0
  0
ENDTAB
  0
TABLE
  2
DIMSTYLE
  5
9
100
AcDbSymbolTable
 70
         2
  0
DIMSTYLE
105
18
100
AcDbSymbolTableRecord
100
AcDbDimStyleTableRecord
  2
STANDARD
 70
         0
  3

  4

  5

  6

  7

 40
1.0
 41
0.18
 42
0.0625
 43
0.38
 44
0.18
 45
0.0
 46
0.0
 47
0.0
 48
0.0
 71
         0
 72
         0
 73
         1
 74
         1
 75
         0
 76
         0
 77
         0
 78
         0
140
0.18
141
0.09
142
0.0
143
25.4
144
1.0
145
0.0
146
1.0
147
0.09
170
         0
171
         2
172
         0
173
         0
174
         0
175
         0
176
         0
177
         0
178
         0
270
         2
271
         4
272
         4
273
         2
274
         2
275
         0
280
         0
281
         0
282
         0
283
         1
284
         0
285
         0
286
         0
287
         0
288
         0
340
17
  0
DIMSTYLE
105
2B
100
AcDbSymbolTableRecord
100
AcDbDimStyleTableRecord
  2
DIMSTYLE1
 70
         0
  3

  4

  5

  6

  7

 40
1.0
 41
2.7
 42
0.0625
 43
0.38
 44
2.7
 45
0.0
 46
0.0
 47
0.0
 48
0.0
 71
         0
 72
         0
 73
         1
 74
         1
 75
         0
 76
         0
 77
         0
 78
         0
140
2.7
141
0.09
142
0.0
143
25.4
144
1.0
145
0.0
146
1.0
147
0.09
170
         0
171
         2
172
         0
173
         0
174
         0
175
         0
176
         0
177
         0
178
         0
270
         2
271
         4
272
         4
273
         2
274
         2
275
         0
280
         0
281
         0
282
         0
283
         1
284
         0
285
         0
286
         0
287
         0
288
         0
340
17
  0
ENDTAB
  0
TABLE
  2
BLOCK_RECORD
  5
1
100
AcDbSymbolTable
 70
        13
  0
BLOCK_RECORD
  5
A
100
AcDbSymbolTableRecord
100
AcDbBlockTableRecord
  2
*MODEL_SPACE
  0
BLOCK_RECORD
  5
B
100
AcDbSymbolTableRecord
100
AcDbBlockTableRecord
  2
*PAPER_SPACE
  0
BLOCK_RECORD
  5
2C
100
AcDbSymbolTableRecord
100
AcDbBlockTableRecord
  2
*D0
  0
BLOCK_RECORD
  5
45
100
AcDbSymbolTableRecord
100
AcDbBlockTableRecord
  2
*D1
  0
BLOCK_RECORD
  5
55
100
AcDbSymbolTableRecord
100
AcDbBlockTableRecord
  2
*D2
  0
BLOCK_RECORD
  5
63
100
AcDbSymbolTableRecord
100
AcDbBlockTableRecord
  2
*D3
  0
BLOCK_RECORD
  5
71
100
AcDbSymbolTableRecord
100
AcDbBlockTableRecord
  2
*D4
  0
BLOCK_RECORD
  5
91
100
AcDbSymbolTableRecord
100
AcDbBlockTableRecord
  2
*D5
  0
BLOCK_RECORD
  5
A4
100
AcDbSymbolTableRecord
100
AcDbBlockTableRecord
  2
*D6
  0
BLOCK_RECORD
  5
B8
100
AcDbSymbolTableRecord
100
AcDbBlockTableRecord
  2
*D7
  0
BLOCK_RECORD
  5
C6
100
AcDbSymbolTableRecord
100
AcDbBlockTableRecord
  2
*D8
  0
BLOCK_RECORD
  5
D7
100
AcDbSymbolTableRecord
100
AcDbBlockTableRecord
  2
*D9
  0
BLOCK_RECORD
  5
F5
100
AcDbSymbolTableRecord
100
AcDbBlockTableRecord
  2
*D10
  0
BLOCK_RECORD
  5
2E4
100
AcDbSymbolTableRecord
100
AcDbBlockTableRecord
  2
*D11
  0
BLOCK_RECORD
  5
3FA
100
AcDbSymbolTableRecord
100
AcDbBlockTableRecord
  2
*X12
  0
ENDTAB
  0
ENDSEC
  0
SECTION
  2
BLOCKS
  0
BLOCK
  5
D
100
AcDbEntity
  8
0
100
AcDbBlockBegin
  2
*MODEL_SPACE
 70
         0
 10
0.0
 20
0.0
 30
0.0
  3
*MODEL_SPACE
  1

  0
ENDBLK
  5
E
100
AcDbEntity
  8
0
100
AcDbBlockEnd
  0
BLOCK
  5
F
100
AcDbEntity
 67
         1
  8
0
100
AcDbBlockBegin
  2
*PAPER_SPACE
 70
         0
 10
0.0
 20
0.0
 30
0.0
  3
*PAPER_SPACE
  1

  0
ENDBLK
  5
10
100
AcDbEntity
 67
         1
  8
0
100
AcDbBlockEnd
  0
BLOCK
  5
2D
100
AcDbEntity
  8
0
100
AcDbBlockBegin
  2
*D0
 70
        65
 10
0.0
 20
0.0
 30
0.0
  3
*D0
  1

  0
POINT
  5
30
100
AcDbEntity
  8
DEFPOINTS
  6
CONTINUOUS
 62
         0
100
AcDbPoint
 10
1405.1633018631
 20
-4.9892318671
 30
0.0
  0
POINT
  5
31
100
AcDbEntity
  8
DEFPOINTS
  6
CONTINUOUS
 62
         0
100
AcDbPoint
 10
1407.0033403763
 20
-4.9892318671
 30
0.0
  0
POINT
  5
32
100
AcDbEntity
  8
DEFPOINTS
  6
CONTINUOUS
 62
         0
100
AcDbPoint
 10
1407.0033403763
 20
-20.8974376142
 30
0.0
  0
LINE
  5
33
100
AcDbEntity
  8
L1_60
  6
CONTINUOUS
 62
         4
100
AcDbLine
 10
1405.6533403763
 20
-4.9892318671
 30
0.0
 11
1404.4883018631
 21
-4.9892318671
 31
0.0
  0
LINE
  5
34
100
AcDbEntity
  8
L1_60
  6
CONTINUOUS
 62
         4
100
AcDbLine
 10
1405.6533403763
 20
-20.8974376142
 30
0.0
 11
1404.4883018631
 21
-20.8974376142
 31
0.0
  0
LINE
  5
35
100
AcDbEntity
  8
L1_60
  6
CONTINUOUS
 62
         4
100
AcDbLine
 10
1405.1633018631
 20
-4.9892318671
 30
0.0
 11
1405.1633018631
 21
-20.8974376142
 31
0.0
  0
SOLID
  5
36
100
AcDbEntity
  8
L1_60
  6
CONTINUOUS
 62
         4
100
AcDbTrace
 10
1405.1633018631
 20
-4.9892318671
 30
0.0
 11
1405.5683018631
 21
-7.6892318671
 31
0.0
 12
1404.7583018631
 22
-7.6892318671
 32
0.0
 13
1405.1633018631
 23
-4.9892318671
 33
0.0
  0
LINE
  5
37
100
AcDbEntity
  8
L1_60
  6
CONTINUOUS
 62
         4
100
AcDbLine
 10
1405.1633018631
 20
-20.8974376142
 30
0.0
 11
1405.1633018631
 21
-69.2531146308
 31
0.0
  0
SOLID
  5
38
100
AcDbEntity
  8
L1_60
  6
CONTINUOUS
 62
         4
100
AcDbTrace
 10
1405.1633018631
 20
-20.8974376142
 30
0.0
 11
1404.7583018631
 21
-18.1974376142
 31
0.0
 12
1405.5683018631
 22
-18.1974376142
 32
0.0
 13
1405.1633018631
 23
-20.8974376142
 33
0.0
  0
TEXT
  5
3A
100
AcDbEntity
  8
L1_60
  6
CONTINUOUS
 62
         4
100
AcDbText
 10
1403.1383018631
 20
-67.9031146308
 30
0.0
 40
2.7
  1
崷15.99
 50
90.0
  7
BOX
100
AcDbText
  0
ENDBLK
  5
3B
100
AcDbEntity
  8
0
  6
CONTINUOUS
100
AcDbBlockEnd
  0
BLOCK
  5
46
100
AcDbEntity
  8
0
100
AcDbBlockBegin
  2
*D1
 70
        65
 10
0.0
 20
0.0
 30
0.0
  3
*D1
  1

  0
POINT
  5
48
100
AcDbEntity
  8
DEFPOINTS
  6
CONTINUOUS
 62
         0
100
AcDbPoint
 10
1369.3121844897
 20
60.2066652593
 30
0.0
  0
POINT
  5
49
100
AcDbEntity
  8
DEFPOINTS
  6
CONTINUOUS
 62
         0
100
AcDbPoint
 10
1378.2833403763
 20
60.2066652593
 30
0.0
  0
POINT
  5
4A
100
AcDbEntity
  8
DEFPOINTS
  6
CONTINUOUS
 62
         0
100
AcDbPoint
 10
1378.2833403763
 20
53.9066652593
 30
0.0
  0
LINE
  5
4B
100
AcDbEntity
  8
L1_60
  6
CONTINUOUS
 62
         4
100
AcDbLine
 10
1376.9333403763
 20
60.2066652593
 30
0.0
 11
1368.6371844897
 21
60.2066652593
 31
0.0
  0
LINE
  5
4C
100
AcDbEntity
  8
L1_60
  6
CONTINUOUS
 62
         4
100
AcDbLine
 10
1376.9333403763
 20
53.9066652593
 30
0.0
 11
1368.6371844897
 21
53.9066652593
 31
0.0
  0
LINE
  5
4D
100
AcDbEntity
  8
L1_60
  6
CONTINUOUS
 62
         4
100
AcDbLine
 10
1369.3121844897
 20
60.2066652593
 30
0.0
 11
1369.3121844897
 21
65.6066652593
 31
0.0
  0
SOLID
  5
4E
100
AcDbEntity
  8
L1_60
  6
CONTINUOUS
 62
         4
100
AcDbTrace
 10
1369.3121844897
 20
60.2066652593
 30
0.0
 11
1368.9071844897
 21
62.9066652593
 31
0.0
 12
1369.7171844897
 22
62.9066652593
 32
0.0
 13
1369.3121844897
 23
60.2066652593
 33
0.0
  0
LINE
  5
4F
100
AcDbEntity
  8
L1_60
  6
CONTINUOUS
 62
         4
100
AcDbLine
 10
1369.3121844897
 20
53.9066652593
 30
0.0
 11
1369.3121844897
 21
48.5066652593
 31
0.0
  0
SOLID
  5
50
100
AcDbEntity
  8
L1_60
  6
CONTINUOUS
 62
         4
100
AcDbTrace
 10
1369.3121844897
 20
53.9066652593
 30
0.0
 11
1369.7171844897
 21
51.2066652593
 31
0.0
 12
1368.9071844897
 22
51.2066652593
 32
0.0
 13
1369.3121844897
 23
53.9066652593
 33
0.0
  0
LINE
  5
51
100
AcDbEntity
  8
L1_60
  6
CONTINUOUS
 62
         4
100
AcDbLine
 10
1369.3121844897
 20
60.2066652593
 30
0.0
 11
1369.3121844897
 21
53.9066652593
 31
0.0
  0
TEXT
  5
53
100
AcDbEntity
  8
L1_60
  6
CONTINUOUS
 62
         4
100
AcDbText
 10
1367.2871844897
 20
49.6133083457
 30
0.0
 40
2.7
  1
6.3A13
 50
90.0
  7
BOX
100
AcDbText
  0
ENDBLK
  5
54
100
AcDbEntity
  8
0
  6
CONTINUOUS
100
AcDbBlockEnd
  0
BLOCK
  5
56
100
AcDbEntity
  8
0
100
AcDbBlockBegin
  2
*D2
 70
        65
 10
0.0
 20
0.0
 30
0.0
  3
*D2
  1

  0
POINT
  5
58
100
AcDbEntity
  8
DEFPOINTS
  6
CONTINUOUS
 62
         0
100
AcDbPoint
 10
1393.0033403763
 20
30.2302818577
 30
0.0
  0
POINT
  5
59
100
AcDbEntity
  8
DEFPOINTS
  6
CONTINUOUS
 62
         0
100
AcDbPoint
 10
1393.0033403763
 20
-5.9892318671
 30
0.0
  0
POINT
  5
5A
100
AcDbEntity
  8
DEFPOINTS
  6
CONTINUOUS
 62
         0
100
AcDbPoint
 10
1407.0033403763
 20
-4.9892318671
 30
0.0
  0
LINE
  5
5B
100
AcDbEntity
  8
L1_60
  6
CONTINUOUS
 62
         4
100
AcDbLine
 10
1393.0033403763
 20
-4.6392318671
 30
0.0
 11
1393.0033403763
 21
30.9052818577
 31
0.0
  0
LINE
  5
5C
100
AcDbEntity
  8
L1_60
  6
CONTINUOUS
 62
         4
100
AcDbLine
 10
1407.0033403763
 20
-3.6392318671
 30
0.0
 11
1407.0033403763
 21
30.9052818577
 31
0.0
  0
LINE
  5
5D
100
AcDbEntity
  8
L1_60
  6
CONTINUOUS
 62
         4
100
AcDbLine
 10
1393.0033403763
 20
30.2302818577
 30
0.0
 11
1407.0033403763
 21
30.2302818577
 31
0.0
  0
SOLID
  5
5E
100
AcDbEntity
  8
L1_60
  6
CONTINUOUS
 62
         4
100
AcDbTrace
 10
1393.0033403763
 20
30.2302818577
 30
0.0
 11
1395.7033403763
 21
30.6352818577
 31
0.0
 12
1395.7033403763
 22
29.8252818577
 32
0.0
 13
1393.0033403763
 23
30.2302818577
 33
0.0
  0
SOLID
  5
5F
100
AcDbEntity
  8
L1_60
  6
CONTINUOUS
 62
         4
100
AcDbTrace
 10
1407.0033403763
 20
30.2302818577
 30
0.0
 11
1404.3033403763
 21
29.8252818577
 31
0.0
 12
1404.3033403763
 22
30.6352818577
 32
0.0
 13
1407.0033403763
 23
30.2302818577
 33
0.0
  0
TEXT
  5
61
100
AcDbEntity
  8
L1_60
  6
CONTINUOUS
 62
         4
100
AcDbText
 10
1397.5492810079
 20
32.2552818577
 30
0.0
 40
2.7
  1
14
  7
BOX
100
AcDbText
  0
ENDBLK
  5
62
100
AcDbEntity
  8
0
  6
CONTINUOUS
100
AcDbBlockEnd
  0
BLOCK
  5
64
100
AcDbEntity
  8
0
100
AcDbBlockBegin
  2
*D3
 70
        65
 10
0.0
 20
0.0
 30
0.0
  3
*D3
  1

  0
POINT
  5
66
100
AcDbEntity
  8
DEFPOINTS
  6
CONTINUOUS
 62
         0
100
AcDbPoint
 10
1393.0033403763
 20
36.8988383263
 30
0.0
  0
POINT
  5
67
100
AcDbEntity
  8
DEFPOINTS
  6
CONTINUOUS
 62
         0
100
AcDbPoint
 10
1393.0033403763
 20
-5.9892318671
 30
0.0
  0
POINT
  5
68
100
AcDbEntity
  8
DEFPOINTS
  6
CONTINUOUS
 62
         0
100
AcDbPoint
 10
1460.0033403763
 20
1.0566652593
 30
0.0
  0
LINE
  5
69
100
AcDbEntity
  8
L1_60
  6
CONTINUOUS
 62
         4
100
AcDbLine
 10
1393.0033403763
 20
-4.6392318671
 30
0.0
 11
1393.0033403763
 21
37.5738383263
 31
0.0
  0
LINE
  5
6A
100
AcDbEntity
  8
L1_60
  6
CONTINUOUS
 62
         4
100
AcDbLine
 10
1460.0033403763
 20
2.4066652593
 30
0.0
 11
1460.0033403763
 21
37.5738383263
 31
0.0
  0
LINE
  5
6B
100
AcDbEntity
  8
L1_60
  6
CONTINUOUS
 62
         4
100
AcDbLine
 10
1393.0033403763
 20
36.8988383263
 30
0.0
 11
1460.0033403763
 21
36.8988383263
 31
0.0
  0
SOLID
  5
6C
100
AcDbEntity
  8
L1_60
  6
CONTINUOUS
 62
         4
100
AcDbTrace
 10
1393.0033403763
 20
36.8988383263
 30
0.0
 11
1395.7033403763
 21
37.3038383263
 31
0.0
 12
1395.7033403763
 22
36.4938383263
 32
0.0
 13
1393.0033403763
 23
36.8988383263
 33
0.0
  0
SOLID
  5
6D
100
AcDbEntity
  8
L1_60
  6
CONTINUOUS
 62
         4
100
AcDbTrace
 10
1460.0033403763
 20
36.8988383263
 30
0.0
 11
1457.3033403763
 21
36.4938383263
 31
0.0
 12
1457.3033403763
 22
37.3038383263
 32
0.0
 13
1460.0033403763
 23
36.8988383263
 33
0.0
  0
TEXT
  5
6F
100
AcDbEntity
  8
L1_60
  6
CONTINUOUS
 62
         4
100
AcDbText
 10
1422.684609236
 20
38.9238383263
 30
0.0
 40
2.7
  1
67
  7
BOX
100
AcDbText
  0
ENDBLK
  5
70
100
AcDbEntity
  8
0
  6
CONTINUOUS
100
AcDbBlockEnd
  0
BLOCK
  5
72
100
AcDbEntity
  8
0
100
AcDbBlockBegin
  2
*D4
 70
        65
 10
0.0
 20
0.0
 30
0.0
  3
*D4
  1

  0
POINT
  5
74
100
AcDbEntity
  8
DEFPOINTS
  6
CONTINUOUS
 62
         0
100
AcDbPoint
 10
1472.903372517
 20
-3.1933347407
 30
0.0
  0
POINT
  5
75
100
AcDbEntity
  8
DEFPOINTS
  6
CONTINUOUS
 62
         0
100
AcDbPoint
 10
1436.5939536496
 20
-3.1933347407
 30
0.0
  0
POINT
  5
76
100
AcDbEntity
  8
DEFPOINTS
  6
CONTINUOUS
 62
         0
100
AcDbPoint
 10
1429.6624483423
 20
-22.6933347407
 30
0.0
  0
LINE
  5
77
100
AcDbEntity
  8
L1_60
  6
CONTINUOUS
 62
         4
100
AcDbLine
 10
1437.9439536496
 20
-3.1933347407
 30
0.0
 11
1473.578372517
 21
-3.1933347407
 31
0.0
  0
LINE
  5
78
100
AcDbEntity
  8
L1_60
  6
CONTINUOUS
 62
         4
100
AcDbLine
 10
1431.0124483423
 20
-22.6933347407
 30
0.0
 11
1473.578372517
 21
-22.6933347407
 31
0.0
  0
LINE
  5
79
100
AcDbEntity
  8
L1_60
  6
CONTINUOUS
 62
         4
100
AcDbLine
 10
1472.903372517
 20
-3.1933347407
 30
0.0
 11
1472.903372517
 21
-22.6933347407
 31
0.0
  0
SOLID
  5
7A
100
AcDbEntity
  8
L1_60
  6
CONTINUOUS
 62
         4
100
AcDbTrace
 10
1472.903372517
 20
-3.1933347407
 30
0.0
 11
1473.308372517
 21
-5.8933347407
 31
0.0
 12
1472.498372517
 22
-5.8933347407
 32
0.0
 13
1472.903372517
 23
-3.1933347407
 33
0.0
  0
SOLID
  5
7B
100
AcDbEntity
  8
L1_60
  6
CONTINUOUS
 62
         4
100
AcDbTrace
 10
1472.903372517
 20
-22.6933347407
 30
0.0
 11
1472.498372517
 21
-19.9933347407
 31
0.0
 12
1473.308372517
 22
-19.9933347407
 32
0.0
 13
1472.903372517
 23
-22.6933347407
 33
0.0
  0
TEXT
  5
7D
100
AcDbEntity
  8
L1_60
  6
CONTINUOUS
 62
         4
100
AcDbText
 10
1470.878372517
 20
-20.9760205957
 30
0.0
 40
2.7
  1
崷19.5
 50
90.0
  7
BOX
100
AcDbText
  0
ENDBLK
  5
7E
100
AcDbEntity
  8
0
  6
CONTINUOUS
100
AcDbBlockEnd
  0
BLOCK
  5
92
100
AcDbEntity
  8
0
100
AcDbBlockBegin
  2
*D5
 70
        65
 10
0.0
 20
0.0
 30
0.0
  3
*D5
  1

  0
POINT
  5
94
100
AcDbEntity
  8
DEFPOINTS
  6
CONTINUOUS
 62
         0
100
AcDbPoint
 10
1460.0033403763
 20
-49.0478245388
 30
0.0
  0
POINT
  5
95
100
AcDbEntity
  8
DEFPOINTS
  6
CONTINUOUS
 62
         0
100
AcDbPoint
 10
1460.0033403763
 20
-26.9433347407
 30
0.0
  0
POINT
  5
96
100
AcDbEntity
  8
DEFPOINTS
  6
CONTINUOUS
 62
         0
100
AcDbPoint
 10
1438.0033403763
 20
-22.6933347407
 30
0.0
  0
LINE
  5
97
100
AcDbEntity
  8
L1_60
  6
CONTINUOUS
 62
         4
100
AcDbLine
 10
1460.0033403763
 20
-28.2933347407
 30
0.0
 11
1460.0033403763
 21
-49.7228245388
 31
0.0
  0
LINE
  5
98
100
AcDbEntity
  8
L1_60
  6
CONTINUOUS
 62
         4
100
AcDbLine
 10
1438.0033403763
 20
-24.0433347407
 30
0.0
 11
1438.0033403763
 21
-49.7228245388
 31
0.0
  0
LINE
  5
99
100
AcDbEntity
  8
L1_60
  6
CONTINUOUS
 62
         4
100
AcDbLine
 10
1460.0033403763
 20
-49.0478245388
 30
0.0
 11
1438.0033403763
 21
-49.0478245388
 31
0.0
  0
SOLID
  5
9A
100
AcDbEntity
  8
L1_60
  6
CONTINUOUS
 62
         4
100
AcDbTrace
 10
1460.0033403763
 20
-49.0478245388
 30
0.0
 11
1457.3033403763
 21
-49.4528245388
 31
0.0
 12
1457.3033403763
 22
-48.6428245388
 32
0.0
 13
1460.0033403763
 23
-49.0478245388
 33
0.0
  0
SOLID
  5
9B
100
AcDbEntity
  8
L1_60
  6
CONTINUOUS
 62
         4
100
AcDbTrace
 10
1438.0033403763
 20
-49.0478245388
 30
0.0
 11
1440.7033403763
 21
-48.6428245388
 31
0.0
 12
1440.7033403763
 22
-49.4528245388
 32
0.0
 13
1438.0033403763
 23
-49.0478245388
 33
0.0
  0
TEXT
  5
9D
100
AcDbEntity
  8
L1_60
  6
CONTINUOUS
 62
         4
100
AcDbText
 10
1439.5364372194
 20
-47.0228245388
 30
0.0
 40
2.7
  1
22.2
  7
BOX
100
AcDbText
  0
ENDBLK
  5
9E
100
AcDbEntity
  8
0
  6
CONTINUOUS
100
AcDbBlockEnd
  0
BLOCK
  5
A5
100
AcDbEntity
  8
0
100
AcDbBlockBegin
  2
*D6
 70
        65
 10
0.0
 20
0.0
 30
0.0
  3
*D6
  1

  0
POINT
  5
A7
100
AcDbEntity
  8
DEFPOINTS
  6
CONTINUOUS
 62
         0
100
AcDbPoint
 10
1476.0928158946
 20
166.1846417294
 30
0.0
  0
POINT
  5
A8
100
AcDbEntity
  8
DEFPOINTS
  6
CONTINUOUS
 62
         0
100
AcDbPoint
 10
1458.0033403763
 20
166.1846417294
 30
0.0
  0
POINT
  5
A9
100
AcDbEntity
  8
DEFPOINTS
  6
CONTINUOUS
 62
         0
100
AcDbPoint
 10
1458.0033403763
 20
134.1846417294
 30
0.0
  0
LINE
  5
AA
100
AcDbEntity
  8
L1_60
  6
CONTINUOUS
 62
         4
100
AcDbLine
 10
1459.3533403763
 20
166.1846417294
 30
0.0
 11
1476.7678158946
 21
166.1846417294
 31
0.0
  0
LINE
  5
AB
100
AcDbEntity
  8
L1_60
  6
CONTINUOUS
 62
         4
100
AcDbLine
 10
1459.3533403763
 20
134.1846417294
 30
0.0
 11
1476.7678158946
 21
134.1846417294
 31
0.0
  0
LINE
  5
AC
100
AcDbEntity
  8
L1_60
  6
CONTINUOUS
 62
         4
100
AcDbLine
 10
1476.0928158946
 20
166.1846417294
 30
0.0
 11
1476.0928158946
 21
134.1846417294
 31
0.0
  0
SOLID
  5
AD
100
AcDbEntity
  8
L1_60
  6
CONTINUOUS
 62
         4
100
AcDbTrace
 10
1476.0928158946
 20
166.1846417294
 30
0.0
 11
1476.4978158946
 21
163.4846417294
 31
0.0
 12
1475.6878158946
 22
163.4846417294
 32
0.0
 13
1476.0928158946
 23
166.1846417294
 33
0.0
  0
SOLID
  5
AE
100
AcDbEntity
  8
L1_60
  6
CONTINUOUS
 62
         4
100
AcDbTrace
 10
1476.0928158946
 20
134.1846417294
 30
0.0
 11
1475.6878158946
 21
136.8846417294
 31
0.0
 12
1476.4978158946
 22
136.8846417294
 32
0.0
 13
1476.0928158946
 23
134.1846417294
 33
0.0
  0
TEXT
  5
B0
100
AcDbEntity
  8
L1_60
  6
CONTINUOUS
 62
         4
100
AcDbText
 10
1474.0678158946
 20
146.1252584461
 30
0.0
 40
2.7
  1
崷32
 50
90.0
  7
BOX
100
AcDbText
  0
ENDBLK
  5
B1
100
AcDbEntity
  8
0
  6
CONTINUOUS
100
AcDbBlockEnd
  0
BLOCK
  5
B9
100
AcDbEntity
  8
0
100
AcDbBlockBegin
  2
*D7
 70
        65
 10
0.0
 20
0.0
 30
0.0
  3
*D7
  1

  0
POINT
  5
BB
100
AcDbEntity
  8
DEFPOINTS
  6
CONTINUOUS
 62
         0
100
AcDbPoint
 10
1400.0033403763
 20
217.3538924576
 30
0.0
  0
POINT
  5
BC
100
AcDbEntity
  8
DEFPOINTS
  6
CONTINUOUS
 62
         0
100
AcDbPoint
 10
1400.0033403763
 20
172.4096417294
 30
0.0
  0
POINT
  5
BD
100
AcDbEntity
  8
DEFPOINTS
  6
CONTINUOUS
 62
         0
100
AcDbPoint
 10
1460.0033403763
 20
150.1846417294
 30
0.0
  0
LINE
  5
BE
100
AcDbEntity
  8
L1_60
  6
CONTINUOUS
 62
         4
100
AcDbLine
 10
1400.0033403763
 20
173.7596417294
 30
0.0
 11
1400.0033403763
 21
218.0288924576
 31
0.0
  0
LINE
  5
BF
100
AcDbEntity
  8
L1_60
  6
CONTINUOUS
 62
         4
100
AcDbLine
 10
1460.0033403763
 20
151.5346417294
 30
0.0
 11
1460.0033403763
 21
218.0288924576
 31
0.0
  0
LINE
  5
C0
100
AcDbEntity
  8
L1_60
  6
CONTINUOUS
 62
         4
100
AcDbLine
 10
1400.0033403763
 20
217.3538924576
 30
0.0
 11
1460.0033403763
 21
217.3538924576
 31
0.0
  0
SOLID
  5
C1
100
AcDbEntity
  8
L1_60
  6
CONTINUOUS
 62
         4
100
AcDbTrace
 10
1400.0033403763
 20
217.3538924576
 30
0.0
 11
1402.7033403763
 21
217.7588924576
 31
0.0
 12
1402.7033403763
 22
216.9488924576
 32
0.0
 13
1400.0033403763
 23
217.3538924576
 33
0.0
  0
SOLID
  5
C2
100
AcDbEntity
  8
L1_60
  6
CONTINUOUS
 62
         4
100
AcDbTrace
 10
1460.0033403763
 20
217.3538924576
 30
0.0
 11
1457.3033403763
 21
216.9488924576
 31
0.0
 12
1457.3033403763
 22
217.7588924576
 32
0.0
 13
1460.0033403763
 23
217.3538924576
 33
0.0
  0
TEXT
  5
C4
100
AcDbEntity
  8
L1_60
  6
CONTINUOUS
 62
         4
100
AcDbText
 10
1426.0082798314
 20
219.3788924576
 30
0.0
 40
2.7
  1
60
  7
BOX
100
AcDbText
  0
ENDBLK
  5
C5
100
AcDbEntity
  8
0
  6
CONTINUOUS
100
AcDbBlockEnd
  0
BLOCK
  5
C7
100
AcDbEntity
  8
0
100
AcDbBlockBegin
  2
*D8
 70
        65
 10
0.0
 20
0.0
 30
0.0
  3
*D8
  1

  0
POINT
  5
C9
100
AcDbEntity
  8
DEFPOINTS
  6
CONTINUOUS
 62
         0
100
AcDbPoint
 10
1331.7533403763
 20
223.6370824914
 30
0.0
  0
POINT
  5
CA
100
AcDbEntity
  8
DEFPOINTS
  6
CONTINUOUS
 62
         0
100
AcDbPoint
 10
1331.7533403763
 20
161.4188234458
 30
0.0
  0
POINT
  5
CB
100
AcDbEntity
  8
DEFPOINTS
  6
CONTINUOUS
 62
         0
100
AcDbPoint
 10
1460.0033403763
 20
150.1846417294
 30
0.0
  0
LINE
  5
CC
100
AcDbEntity
  8
L1_60
  6
CONTINUOUS
 62
         4
100
AcDbLine
 10
1331.7533403763
 20
162.7688234458
 30
0.0
 11
1331.7533403763
 21
224.3120824914
 31
0.0
  0
LINE
  5
CD
100
AcDbEntity
  8
L1_60
  6
CONTINUOUS
 62
         4
100
AcDbLine
 10
1460.0033403763
 20
151.5346417294
 30
0.0
 11
1460.0033403763
 21
224.3120824914
 31
0.0
  0
LINE
  5
CE
100
AcDbEntity
  8
L1_60
  6
CONTINUOUS
 62
         4
100
AcDbLine
 10
1331.7533403763
 20
223.6370824914
 30
0.0
 11
1460.0033403763
 21
223.6370824914
 31
0.0
  0
SOLID
  5
CF
100
AcDbEntity
  8
L1_60
  6
CONTINUOUS
 62
         4
100
AcDbTrace
 10
1331.7533403763
 20
223.6370824914
 30
0.0
 11
1334.4533403763
 21
224.0420824914
 31
0.0
 12
1334.4533403763
 22
223.2320824914
 32
0.0
 13
1331.7533403763
 23
223.6370824914
 33
0.0
  0
SOLID
  5
D0
100
AcDbEntity
  8
L1_60
  6
CONTINUOUS
 62
         4
100
AcDbTrace
 10
1460.0033403763
 20
223.6370824914
 30
0.0
 11
1457.3033403763
 21
223.2320824914
 31
0.0
 12
1457.3033403763
 22
224.0420824914
 32
0.0
 13
1460.0033403763
 23
223.6370824914
 33
0.0
  0
TEXT
  5
D2
100
AcDbEntity
  8
L1_60
  6
CONTINUOUS
 62
         4
100
AcDbText
 10
1387.0257124092
 20
225.6620824914
 30
0.0
 40
2.7
  1
128.25
  7
BOX
100
AcDbText
  0
ENDBLK
  5
D3
100
AcDbEntity
  8
0
  6
CONTINUOUS
100
AcDbBlockEnd
  0
BLOCK
  5
D8
100
AcDbEntity
  8
0
100
AcDbBlockBegin
  2
*D9
 70
        65
 10
0.0
 20
0.0
 30
0.0
  3
*D9
  1

  0
POINT
  5
DA
100
AcDbEntity
  8
DEFPOINTS
  6
CONTINUOUS
 62
         0
100
AcDbPoint
 10
1397.3833403763
 20
45.3246721518
 30
0.0
  0
POINT
  5
DB
100
AcDbEntity
  8
DEFPOINTS
  6
CONTINUOUS
 62
         0
100
AcDbPoint
 10
1397.3833403763
 20
57.0566652593
 30
0.0
  0
POINT
  5
DC
100
AcDbEntity
  8
DEFPOINTS
  6
CONTINUOUS
 62
         0
100
AcDbPoint
 10
1375.1333403763
 20
57.0566652593
 30
0.0
  0
LINE
  5
DD
100
AcDbEntity
  8
L1_60
  6
CONTINUOUS
 62
         4
100
AcDbLine
 10
1397.3833403763
 20
55.7066652593
 30
0.0
 11
1397.3833403763
 21
44.6496721518
 31
0.0
  0
LINE
  5
DE
100
AcDbEntity
  8
L1_60
  6
CONTINUOUS
 62
         4
100
AcDbLine
 10
1375.1333403763
 20
55.7066652593
 30
0.0
 11
1375.1333403763
 21
44.6496721518
 31
0.0
  0
LINE
  5
DF
100
AcDbEntity
  8
L1_60
  6
CONTINUOUS
 62
         4
100
AcDbLine
 10
1397.3833403763
 20
45.3246721518
 30
0.0
 11
1375.1333403763
 21
45.3246721518
 31
0.0
  0
SOLID
  5
E0
100
AcDbEntity
  8
L1_60
  6
CONTINUOUS
 62
         4
100
AcDbTrace
 10
1397.3833403763
 20
45.3246721518
 30
0.0
 11
1394.6833403763
 21
44.9196721518
 31
0.0
 12
1394.6833403763
 22
45.7296721518
 32
0.0
 13
1397.3833403763
 23
45.3246721518
 33
0.0
  0
SOLID
  5
E1
100
AcDbEntity
  8
L1_60
  6
CONTINUOUS
 62
         4
100
AcDbTrace
 10
1375.1333403763
 20
45.3246721518
 30
0.0
 11
1377.8333403763
 21
45.7296721518
 31
0.0
 12
1377.8333403763
 22
44.9196721518
 32
0.0
 13
1375.1333403763
 23
45.3246721518
 33
0.0
  0
TEXT
  5
E3
100
AcDbEntity
  8
L1_60
  6
CONTINUOUS
 62
         4
100
AcDbText
 10
1381.2278516233
 20
47.3496721518
 30
0.0
 40
2.7
  1
22
  7
BOX
100
AcDbText
  0
ENDBLK
  5
E4
100
AcDbEntity
  8
0
  6
CONTINUOUS
100
AcDbBlockEnd
  0
BLOCK
  5
F6
100
AcDbEntity
  8
0
100
AcDbBlockBegin
  2
*D10
 70
        65
 10
0.0
 20
0.0
 30
0.0
  3
*D10
  1

  0
POINT
  5
F8
100
AcDbEntity
  8
DEFPOINTS
  6
CONTINUOUS
 62
         0
100
AcDbPoint
 10
1460.0033403763
 20
-71.6771455273
 30
0.0
  0
POINT
  5
F9
100
AcDbEntity
  8
DEFPOINTS
  6
CONTINUOUS
 62
         0
100
AcDbPoint
 10
1460.0033403763
 20
-26.9433347407
 30
0.0
  0
POINT
  5
FA
100
AcDbEntity
  8
DEFPOINTS
  6
CONTINUOUS
 62
         0
100
AcDbPoint
 10
1397.3833403763
 20
-34.2809630712
 30
0.0
  0
LINE
  5
FB
100
AcDbEntity
  8
L1_60
  6
CONTINUOUS
 62
         4
100
AcDbLine
 10
1460.0033403763
 20
-28.2933347407
 30
0.0
 11
1460.0033403763
 21
-72.3521455273
 31
0.0
  0
LINE
  5
FC
100
AcDbEntity
  8
L1_60
  6
CONTINUOUS
 62
         4
100
AcDbLine
 10
1397.3833403763
 20
-35.6309630712
 30
0.0
 11
1397.3833403763
 21
-72.3521455273
 31
0.0
  0
LINE
  5
FD
100
AcDbEntity
  8
L1_60
  6
CONTINUOUS
 62
         4
100
AcDbLine
 10
1460.0033403763
 20
-71.6771455273
 30
0.0
 11
1397.3833403763
 21
-71.6771455273
 31
0.0
  0
SOLID
  5
FE
100
AcDbEntity
  8
L1_60
  6
CONTINUOUS
 62
         4
100
AcDbTrace
 10
1460.0033403763
 20
-71.6771455273
 30
0.0
 11
1457.3033403763
 21
-72.0821455273
 31
0.0
 12
1457.3033403763
 22
-71.2721455273
 32
0.0
 13
1460.0033403763
 23
-71.6771455273
 33
0.0
  0
SOLID
  5
FF
100
AcDbEntity
  8
L1_60
  6
CONTINUOUS
 62
         4
100
AcDbTrace
 10
1397.3833403763
 20
-71.6771455273
 30
0.0
 11
1400.0833403763
 21
-71.2721455273
 31
0.0
 12
1400.0833403763
 22
-72.0821455273
 32
0.0
 13
1397.3833403763
 23
-71.6771455273
 33
0.0
  0
TEXT
  5
101
100
AcDbEntity
  8
L1_60
  6
CONTINUOUS
 62
         4
100
AcDbText
 10
1425.4696346217
 20
-69.6521455273
 30
0.0
 40
2.7
  1
62
  7
BOX
100
AcDbText
  0
ENDBLK
  5
102
100
AcDbEntity
  8
0
  6
CONTINUOUS
100
AcDbBlockEnd
  0
BLOCK
  5
2E5
100
AcDbEntity
  8
0
100
AcDbBlockBegin
  2
*D11
 70
        65
 10
0.0
 20
0.0
 30
0.0
  3
*D11
  1

  0
POINT
  5
2E7
100
AcDbEntity
  8
DEFPOINTS
  6
CONTINUOUS
 62
         0
100
AcDbPoint
 10
1425.9521169712
 20
-59.131356171
 30
0.0
  0
POINT
  5
2E8
100
AcDbEntity
  8
DEFPOINTS
  6
CONTINUOUS
 62
         0
100
AcDbPoint
 10
1425.9521169712
 20
-20.9830033695
 30
0.0
  0
POINT
  5
2E9
100
AcDbEntity
  8
DEFPOINTS
  6
CONTINUOUS
 62
         0
100
AcDbPoint
 10
1460.0033403763
 20
-26.9433347407
 30
0.0
  0
LINE
  5
2EA
100
AcDbEntity
  8
L1_60
  6
CONTINUOUS
 62
         4
100
AcDbLine
 10
1425.9521169712
 20
-22.3330033695
 30
0.0
 11
1425.9521169712
 21
-59.806356171
 31
0.0
  0
LINE
  5
2EB
100
AcDbEntity
  8
L1_60
  6
CONTINUOUS
 62
         4
100
AcDbLine
 10
1460.0033403763
 20
-28.2933347407
 30
0.0
 11
1460.0033403763
 21
-59.806356171
 31
0.0
  0
LINE
  5
2EC
100
AcDbEntity
  8
L1_60
  6
CONTINUOUS
 62
         4
100
AcDbLine
 10
1425.9521169712
 20
-59.131356171
 30
0.0
 11
1460.0033403763
 21
-59.131356171
 31
0.0
  0
SOLID
  5
2ED
100
AcDbEntity
  8
L1_60
  6
CONTINUOUS
 62
         4
100
AcDbTrace
 10
1425.9521169712
 20
-59.131356171
 30
0.0
 11
1428.6521169712
 21
-58.726356171
 31
0.0
 12
1428.6521169712
 22
-59.536356171
 32
0.0
 13
1425.9521169712
 23
-59.131356171
 33
0.0
  0
SOLID
  5
2EE
100
AcDbEntity
  8
L1_60
  6
CONTINUOUS
 62
         4
100
AcDbTrace
 10
1460.0033403763
 20
-59.131356171
 30
0.0
 11
1457.3033403763
 21
-59.536356171
 31
0.0
 12
1457.3033403763
 22
-58.726356171
 32
0.0
 13
1460.0033403763
 23
-59.131356171
 33
0.0
  0
TEXT
  5
2F0
100
AcDbEntity
  8
L1_60
  6
CONTINUOUS
 62
         4
100
AcDbText
 10
1435.1981736102
 20
-57.106356171
 30
0.0
 40
2.7
  1
34.2
  7
BOX
100
AcDbText
  0
ENDBLK
  5
2F1
100
AcDbEntity
  8
0
  6
CONTINUOUS
100
AcDbBlockEnd
  0
BLOCK
  5
3FB
100
AcDbEntity
  8
0
100
AcDbBlockBegin
  2
*X12
 70
        65
 10
0.0
 20
0.0
 30
0.0
  3
*X12
  1

  0
LINE
  5
3FC
100
AcDbEntity
  8
L1_60
  6
CONTINUOUS
 62
         4
100
AcDbLine
 10
1456.6252433478
 20
-28.9433347407
 30
0.0
 11
1460.0033403763
 21
-25.5652377122
 31
0.0
  0
LINE
  5
3FD
100
AcDbEntity
  8
L1_60
  6
CONTINUOUS
 62
         4
100
AcDbLine
 10
1452.3826026607
 20
-28.9433347407
 30
0.0
 11
1459.424328964
 21
-21.9016084374
 31
0.0
  0
LINE
  5
3FE
100
AcDbEntity
  8
L1_60
  6
CONTINUOUS
 62
         4
100
AcDbLine
 10
1448.1399619736
 20
-28.9433347407
 30
0.0
 11
1455.3657719081
 21
-21.7175248061
 31
0.0
  0
LINE
  5
3FF
100
AcDbEntity
  8
L1_60
  6
CONTINUOUS
 62
         4
100
AcDbLine
 10
1443.8973212865
 20
-28.9433347407
 30
0.0
 11
1451.2264976898
 21
-21.6141583373
 31
0.0
  0
LINE
  5
400
100
AcDbEntity
  8
L1_60
  6
CONTINUOUS
 62
         4
100
AcDbLine
 10
1433.3696805993
 20
-35.2283347407
 30
0.0
 11
1435.0553403763
 21
-33.5426749638
 31
0.0
  0
LINE
  5
401
100
AcDbEntity
  8
L1_60
  6
CONTINUOUS
 62
         4
100
AcDbLine
 10
1439.6546805993
 20
-28.9433347407
 30
0.0
 11
1447.0872234715
 21
-21.5107918685
 31
0.0
  0
LINE
  5
402
100
AcDbEntity
  8
L1_60
  6
CONTINUOUS
 62
         4
100
AcDbLine
 10
1429.1270399122
 20
-35.2283347407
 30
0.0
 11
1442.9479492532
 21
-21.4074253997
 31
0.0
  0
LINE
  5
403
100
AcDbEntity
  8
L1_60
  6
CONTINUOUS
 62
         4
100
AcDbLine
 10
1415.3943992249
 20
-44.7183347409
 30
0.0
 11
1419.1033403763
 21
-41.0093935895
 31
0.0
  0
LINE
  5
404
100
AcDbEntity
  8
L1_60
  6
CONTINUOUS
 62
         4
100
AcDbLine
 10
1424.8843992251
 20
-35.2283347407
 30
0.0
 11
1438.8086750349
 21
-21.3040589309
 31
0.0
  0
LINE
  5
405
100
AcDbEntity
  8
L1_60
  6
CONTINUOUS
 62
         4
100
AcDbLine
 10
1455.9583881775
 20
-4.1543457883
 30
0.0
 11
1460.0033403763
 21
-0.1093935895
 31
0.0
  0
LINE
  5
406
100
AcDbEntity
  8
L1_60
  6
CONTINUOUS
 62
         4
100
AcDbLine
 10
1413.3629682516
 20
-42.507125027
 30
0.0
 11
1419.1033403763
 21
-36.7667529024
 31
0.0
  0
LINE
  5
407
100
AcDbEntity
  8
L1_60
  6
CONTINUOUS
 62
         4
100
AcDbLine
 10
1420.641758538
 20
-35.2283347407
 30
0.0
 11
1433.176758538
 21
-22.6933347407
 31
0.0
  0
LINE
  5
408
100
AcDbEntity
  8
L1_60
  6
CONTINUOUS
 62
         4
100
AcDbLine
 10
1451.6070862391
 20
-4.2630070396
 30
0.0
 11
1458.7728120068
 21
2.9027187282
 31
0.0
  0
LINE
  5
409
100
AcDbEntity
  8
L1_60
  6
CONTINUOUS
 62
         4
100
AcDbLine
 10
1406.9091178507
 20
-44.7183347409
 30
0.0
 11
1408.4658492969
 21
-43.1616032947
 31
0.0
  0
LINE
  5
40A
100
AcDbEntity
  8
L1_60
  6
CONTINUOUS
 62
         4
100
AcDbLine
 10
1410.5591178509
 20
-41.0683347407
 30
0.0
 11
1428.9341178509
 21
-22.6933347407
 31
0.0
  0
LINE
  5
40B
100
AcDbEntity
  8
L1_60
  6
CONTINUOUS
 62
         4
100
AcDbLine
 10
1447.2557843006
 20
-4.3716682909
 30
0.0
 11
1454.6841178509
 21
3.0566652593
 31
0.0
  0
LINE
  5
40C
100
AcDbEntity
  8
L1_60
  6
CONTINUOUS
 62
         4
100
AcDbLine
 10
1403.28073412
 20
-44.1040777845
 30
0.0
 11
1426.176962753
 21
-21.2078491514
 31
0.0
  0
LINE
  5
40D
100
AcDbEntity
  8
L1_60
  6
CONTINUOUS
 62
         4
100
AcDbLine
 10
1442.9044823622
 20
-4.4803295422
 30
0.0
 11
1450.4414771638
 21
3.0566652593
 31
0.0
  0
LINE
  5
40E
100
AcDbEntity
  8
L1_60
  6
CONTINUOUS
 62
         4
100
AcDbLine
 10
1403.2033403763
 20
-39.9388308411
 30
0.0
 11
1422.2515781616
 21
-20.8905930557
 31
0.0
  0
LINE
  5
40F
100
AcDbEntity
  8
L1_60
  6
CONTINUOUS
 62
         4
100
AcDbLine
 10
1438.5531804238
 20
-4.5889907935
 30
0.0
 11
1446.1988364766
 21
3.0566652593
 31
0.0
  0
LINE
  5
410
100
AcDbEntity
  8
L1_60
  6
CONTINUOUS
 62
         4
100
AcDbLine
 10
1403.2016185497
 20
-35.6979119805
 30
0.0
 11
1418.1123039432
 21
-20.787226587
 31
0.0
  0
LINE
  5
411
100
AcDbEntity
  8
L1_60
  6
CONTINUOUS
 62
         4
100
AcDbLine
 10
1435.7061957895
 20
-3.1933347407
 30
0.0
 11
1441.9561957895
 21
3.0566652593
 31
0.0
  0
LINE
  5
412
100
AcDbEntity
  8
L1_60
  6
CONTINUOUS
 62
         4
100
AcDbLine
 10
1399.5540732282
 20
-35.1028166149
 30
0.0
 11
1413.9730297249
 21
-20.6838601182
 31
0.0
  0
LINE
  5
413
100
AcDbEntity
  8
L1_60
  6
CONTINUOUS
 62
         4
100
AcDbLine
 10
1431.4635551024
 20
-3.1933347407
 30
0.0
 11
1437.7311257448
 21
3.0742359018
 31
0.0
  0
LINE
  5
414
100
AcDbEntity
  8
L1_60
  6
CONTINUOUS
 62
         4
100
AcDbLine
 10
1397.3833403763
 20
-33.0309087797
 30
0.0
 11
1409.8337555066
 21
-20.5804936494
 31
0.0
  0
LINE
  5
415
100
AcDbEntity
  8
L1_60
  6
CONTINUOUS
 62
         4
100
AcDbLine
 10
1425.4992746085
 20
-4.9149745474
 30
0.0
 11
1426.2906959404
 21
-4.1235532155
 31
0.0
  0
LINE
  5
416
100
AcDbEntity
  8
L1_60
  6
CONTINUOUS
 62
         4
100
AcDbLine
 10
1428.6601455825
 20
-1.7541035734
 30
0.0
 11
1435.2952862961
 21
4.8810371401
 31
0.0
  0
LINE
  5
417
100
AcDbEntity
  8
L1_60
  6
CONTINUOUS
 62
         4
100
AcDbLine
 10
1397.3833403763
 20
-28.7882680926
 30
0.0
 11
1405.2741708546
 21
-20.8974376142
 31
0.0
  0
LINE
  5
418
100
AcDbEntity
  8
L1_60
  6
CONTINUOUS
 62
         4
100
AcDbLine
 10
1421.1479726701
 20
-5.0236357987
 30
0.0
 11
1423.7953295856
 21
-2.3762788832
 31
0.0
  0
LINE
  5
419
100
AcDbEntity
  8
L1_60
  6
CONTINUOUS
 62
         4
100
AcDbLine
 10
1426.1647792277
 20
-0.0068292411
 30
0.0
 11
1435.00158286
 21
8.8299743911
 31
0.0
  0
LINE
  5
41A
100
AcDbEntity
  8
L1_60
  6
CONTINUOUS
 62
         4
100
AcDbLine
 10
1397.3833403763
 20
-24.5456274055
 30
0.0
 11
1401.0315301675
 21
-20.8974376142
 31
0.0
  0
LINE
  5
41B
100
AcDbEntity
  8
L1_60
  6
CONTINUOUS
 62
         4
100
AcDbLine
 10
1416.7966707317
 20
-5.13229705
 30
0.0
 11
1421.2999632307
 21
-0.629004551
 31
0.0
  0
LINE
  5
41C
100
AcDbEntity
  8
L1_60
  6
CONTINUOUS
 62
         4
100
AcDbLine
 10
1423.6694128728
 20
1.7404450911
 30
0.0
 11
1431.270633041
 21
9.3416652593
 31
0.0
  0
LINE
  5
41D
100
AcDbEntity
  8
L1_60
  6
CONTINUOUS
 62
         4
100
AcDbLine
 10
1412.4453687933
 20
-5.2409583013
 30
0.0
 11
1418.8045968759
 21
1.1182697813
 31
0.0
  0
LINE
  5
41E
100
AcDbEntity
  8
L1_60
  6
CONTINUOUS
 62
         4
100
AcDbLine
 10
1421.174046518
 20
3.4877194234
 30
0.0
 11
1427.0279923539
 21
9.3416652593
 31
0.0
  0
LINE
  5
41F
100
AcDbEntity
  8
L1_60
  6
CONTINUOUS
 62
         4
100
AcDbLine
 10
1408.0940668549
 20
-5.3496195526
 30
0.0
 11
1416.309230521
 21
2.8655441136
 31
0.0
  0
LINE
  5
420
100
AcDbEntity
  8
L1_60
  6
CONTINUOUS
 62
         4
100
AcDbLine
 10
1418.6786801631
 20
5.2349937557
 30
0.0
 11
1422.7853516668
 21
9.3416652593
 31
0.0
  0
LINE
  5
421
100
AcDbEntity
  8
L1_60
  6
CONTINUOUS
 62
         4
100
AcDbLine
 10
1404.2118138532
 20
-4.9892318671
 30
0.0
 11
1413.8138641662
 21
4.6128184458
 31
0.0
  0
LINE
  5
422
100
AcDbEntity
  8
L1_60
  6
CONTINUOUS
 62
         4
100
AcDbLine
 10
1416.1833138083
 20
6.9822680879
 30
0.0
 11
1419.1033403763
 21
9.9022946559
 31
0.0
  0
LINE
  5
423
100
AcDbEntity
  8
L1_60
  6
CONTINUOUS
 62
         4
100
AcDbLine
 10
1373.6353955759
 20
-31.3230094573
 30
0.0
 11
1375.1333403763
 21
-29.825064657
 31
0.0
  0
LINE
  5
424
100
AcDbEntity
  8
L1_60
  6
CONTINUOUS
 62
         4
100
AcDbLine
 10
1399.9691731661
 20
-4.9892318671
 30
0.0
 11
1411.3184978113
 21
6.3600927781
 31
0.0
  0
LINE
  5
425
100
AcDbEntity
  8
L1_60
  6
CONTINUOUS
 62
         4
100
AcDbLine
 10
1413.6879474534
 20
8.7295424202
 30
0.0
 11
1419.1033403763
 21
14.144935343
 31
0.0
  0
LINE
  5
426
100
AcDbEntity
  8
L1_60
  6
CONTINUOUS
 62
         4
100
AcDbLine
 10
1369.9327273399
 20
-30.7830370062
 30
0.0
 11
1375.1333403763
 21
-25.5824239699
 31
0.0
  0
LINE
  5
427
100
AcDbEntity
  8
L1_60
  6
CONTINUOUS
 62
         4
100
AcDbLine
 10
1395.726532479
 20
-4.9892318671
 30
0.0
 11
1408.8231314565
 21
8.1073671103
 31
0.0
  0
LINE
  5
428
100
AcDbEntity
  8
L1_60
  6
CONTINUOUS
 62
         4
100
AcDbLine
 10
1411.1925810986
 20
10.4768167525
 30
0.0
 11
1418.9967240923
 21
18.2809597462
 31
0.0
  0
LINE
  5
429
100
AcDbEntity
  8
L1_60
  6
CONTINUOUS
 62
         4
100
AcDbLine
 10
1366.2300591039
 20
-30.2430645551
 30
0.0
 11
1375.1333403763
 21
-21.3397832827
 31
0.0
  0
LINE
  5
42A
100
AcDbEntity
  8
L1_60
  6
CONTINUOUS
 62
         4
100
AcDbLine
 10
1388.7797889183
 20
-7.6933347407
 30
0.0
 11
1406.3277651016
 21
9.8546414426
 31
0.0
  0
LINE
  5
42B
100
AcDbEntity
  8
L1_60
  6
CONTINUOUS
 62
         4
100
AcDbLine
 10
1408.6972147437
 20
12.2240910847
 30
0.0
 11
1411.6547889185
 21
15.1816652595
 31
0.0
  0
LINE
  5
42C
100
AcDbEntity
  8
L1_60
  6
CONTINUOUS
 62
         4
100
AcDbLine
 10
1413.730960533
 20
17.257836874
 30
0.0
 11
1415.3047889185
 21
18.8316652595
 31
0.0
  0
LINE
  5
42D
100
AcDbEntity
  8
L1_60
  6
CONTINUOUS
 62
         4
100
AcDbLine
 10
1362.5273908678
 20
-29.703092104
 30
0.0
 11
1374.0371482312
 21
-18.1933347407
 31
0.0
  0
LINE
  5
42E
100
AcDbEntity
  8
L1_60
  6
CONTINUOUS
 62
         4
100
AcDbLine
 10
1384.5371482312
 20
-7.6933347407
 30
0.0
 11
1401.5849076014
 21
9.3544246295
 31
0.0
  0
LINE
  5
42F
100
AcDbEntity
  8
L1_60
  6
CONTINUOUS
 62
         4
100
AcDbLine
 10
1403.2033403763
 20
10.9728574044
 30
0.0
 11
1403.8323987467
 21
11.6019157749
 31
0.0
  0
LINE
  5
430
100
AcDbEntity
  8
L1_60
  6
CONTINUOUS
 62
         4
100
AcDbLine
 10
1406.2018483889
 20
13.971365417
 30
0.0
 11
1408.8463574065
 21
16.6158744347
 31
0.0
  0
LINE
  5
431
100
AcDbEntity
  8
L1_60
  6
CONTINUOUS
 62
         4
100
AcDbLine
 10
1358.8247226318
 20
-29.1631196529
 30
0.0
 11
1368.0445075441
 21
-19.9433347407
 31
0.0
  0
LINE
  5
432
100
AcDbEntity
  8
L1_60
  6
CONTINUOUS
 62
         4
100
AcDbLine
 10
1380.2945075441
 20
-7.6933347407
 30
0.0
 11
1396.8027555971
 21
8.8149133124
 31
0.0
  0
LINE
  5
433
100
AcDbEntity
  8
L1_60
  6
CONTINUOUS
 62
         4
100
AcDbLine
 10
1403.9936880512
 20
16.0058457665
 30
0.0
 11
1406.8195075443
 21
18.8316652595
 31
0.0
  0
LINE
  5
434
100
AcDbEntity
  8
L1_60
  6
CONTINUOUS
 62
         4
100
AcDbLine
 10
1355.1220543958
 20
-28.6231472019
 30
0.0
 11
1363.801866857
 21
-19.9433347407
 31
0.0
  0
LINE
  5
435
100
AcDbEntity
  8
L1_60
  6
CONTINUOUS
 62
         4
100
AcDbLine
 10
1376.051866857
 20
-7.6933347407
 30
0.0
 11
1391.835761622
 21
8.0905600243
 31
0.0
  0
LINE
  5
436
100
AcDbEntity
  8
L1_60
  6
CONTINUOUS
 62
         4
100
AcDbLine
 10
1351.4193861598
 20
-28.0831747508
 30
0.0
 11
1359.5592261698
 21
-19.9433347407
 31
0.0
  0
LINE
  5
437
100
AcDbEntity
  8
L1_60
  6
CONTINUOUS
 62
         4
100
AcDbLine
 10
1372.4143086536
 20
-7.0882522569
 30
0.0
 11
1386.8687676468
 21
7.3662067363
 31
0.0
  0
LINE
  5
438
100
AcDbEntity
  8
L1_60
  6
CONTINUOUS
 62
         4
100
AcDbLine
 10
1347.7167179237
 20
-27.5432022997
 30
0.0
 11
1355.3165854827
 21
-19.9433347407
 31
0.0
  0
LINE
  5
439
100
AcDbEntity
  8
L1_60
  6
CONTINUOUS
 62
         4
100
AcDbLine
 10
1369.3165854827
 20
-5.9433347407
 30
0.0
 11
1381.9017736716
 21
6.6418534482
 31
0.0
  0
LINE
  5
43A
100
AcDbEntity
  8
L1_60
  6
CONTINUOUS
 62
         4
100
AcDbLine
 10
1344.0140496877
 20
-27.0032298486
 30
0.0
 11
1351.0739447956
 21
-19.9433347407
 31
0.0
  0
LINE
  5
43B
100
AcDbEntity
  8
L1_60
  6
CONTINUOUS
 62
         4
100
AcDbLine
 10
1365.0739447956
 20
-5.9433347407
 30
0.0
 11
1376.9347796965
 21
5.9175001602
 31
0.0
  0
LINE
  5
43C
100
AcDbEntity
  8
L1_60
  6
CONTINUOUS
 62
         4
100
AcDbLine
 10
1340.3113814517
 20
-26.4632573975
 30
0.0
 11
1346.8313041085
 21
-19.9433347407
 31
0.0
  0
LINE
  5
43D
100
AcDbEntity
  8
L1_60
  6
CONTINUOUS
 62
         4
100
AcDbLine
 10
1360.8313041085
 20
-5.9433347407
 30
0.0
 11
1371.9677857213
 21
5.1931468721
 31
0.0
  0
LINE
  5
43E
100
AcDbEntity
  8
L1_60
  6
CONTINUOUS
 62
         4
100
AcDbLine
 10
1336.6087132156
 20
-25.9232849464
 30
0.0
 11
1342.5886634214
 21
-19.9433347407
 31
0.0
  0
LINE
  5
43F
100
AcDbEntity
  8
L1_60
  6
CONTINUOUS
 62
         4
100
AcDbLine
 10
1356.5886634214
 20
-5.9433347407
 30
0.0
 11
1367.0007917461
 21
4.4687935841
 31
0.0
  0
LINE
  5
440
100
AcDbEntity
  8
L1_60
  6
CONTINUOUS
 62
         4
100
AcDbLine
 10
1332.9060449796
 20
-25.3833124953
 30
0.0
 11
1338.3460227342
 21
-19.9433347407
 31
0.0
  0
LINE
  5
441
100
AcDbEntity
  8
L1_60
  6
CONTINUOUS
 62
         4
100
AcDbLine
 10
1352.3460227342
 20
-5.9433347407
 30
0.0
 11
1362.033797771
 21
3.7444402961
 31
0.0
  0
LINE
  5
442
100
AcDbEntity
  8
L1_60
  6
CONTINUOUS
 62
         4
100
AcDbLine
 10
1331.7533403763
 20
-22.2933764115
 30
0.0
 11
1332.9533820471
 21
-21.0933347407
 31
0.0
  0
LINE
  5
443
100
AcDbEntity
  8
L1_60
  6
CONTINUOUS
 62
         4
100
AcDbLine
 10
1348.1033820471
 20
-5.9433347407
 30
0.0
 11
1357.0668037958
 21
3.020087008
 31
0.0
  0
LINE
  5
444
100
AcDbEntity
  8
L1_60
  6
CONTINUOUS
 62
         4
100
AcDbLine
 10
1343.86074136
 20
-5.9433347407
 30
0.0
 11
1352.0998098207
 21
2.29573372
 31
0.0
  0
LINE
  5
445
100
AcDbEntity
  8
L1_60
  6
CONTINUOUS
 62
         4
100
AcDbLine
 10
1339.6181006729
 20
-5.9433347407
 30
0.0
 11
1347.1328158455
 21
1.5713804319
 31
0.0
  0
LINE
  5
446
100
AcDbEntity
  8
L1_60
  6
CONTINUOUS
 62
         4
100
AcDbLine
 10
1336.5158215372
 20
-4.8029731892
 30
0.0
 11
1342.1658218703
 21
0.8470271439
 31
0.0
  0
LINE
  5
447
100
AcDbEntity
  8
L1_60
  6
CONTINUOUS
 62
         4
100
AcDbLine
 10
1332.3624023118
 20
-4.7137517276
 30
0.0
 11
1337.1988278952
 21
0.1226738558
 31
0.0
  0
ENDBLK
  5
448
100
AcDbEntity
  8
0
  6
CONTINUOUS
100
AcDbBlockEnd
  0
ENDSEC
  0
SECTION
  2
ENTITIES
  0
LINE
  5
29
100
AcDbEntity
  8
_X______
  6
CONTINUOUS
 62
         6
100
AcDbLine
 10
1214.9233403763
 20
112.4479255375
 30
0.0
 11
1214.9233403763
 21
116.2654174932
 31
0.0
  0
LINE
  5
2A
100
AcDbEntity
  8
_X______
  6
CONTINUOUS
 62
         6
100
AcDbLine
 10
1227.8300574568
 20
185.6455554676
 30
0.0
 11
1226.524398311
 21
182.0582864469
 31
0.0
  0
DIMENSION
  5
2E
100
AcDbEntity
  8
L1_60
  6
CONTINUOUS
 62
         4
100
AcDbDimension
  2
*D0
 10
1405.1633018631
 20
-4.9892318671
 30
0.0
 11
1403.1383018631
 21
-67.9031146308
 31
0.0
  3
DIMSTYLE1
100
AcDbAlignedDimension
 13
1407.0033403763
 23
-4.9892318671
 33
0.0
 14
1407.0033403763
 24
-20.8974376142
 34
0.0
 50
90.0
100
AcDbRotatedDimension
  0
LINE
  5
3C
100
AcDbEntity
  8
L1_60
  6
CENTER
 62
         1
100
AcDbLine
 10
1378.2833403763
 20
52.2149722771
 30
0.0
 11
1378.2833403763
 21
62.0030032896
 31
0.0
  0
LINE
  5
3D
100
AcDbEntity
  8
L1_60
  6
CENTER
 62
         1
100
AcDbLine
 10
1398.8288529443
 20
57.0566652593
 30
0.0
 11
1373.2231916549
 21
57.0566652593
 31
0.0
  0
LINE
  5
3E
100
AcDbEntity
  8
L1_60
  6
CENTER
 62
         1
100
AcDbLine
 10
1394.2333403763
 20
52.6452153985
 30
0.0
 11
1394.2333403763
 21
61.7878817288
 31
0.0
  0
ARC
  5
3F
100
AcDbEntity
  8
L1_60
  6
CONTINUOUS
 62
         7
100
AcDbCircle
 10
1394.2333403763
 20
57.0566652593
 30
0.0
 40
3.15
100
AcDbArc
 50
0.0
 51
90.0
  0
ARC
  5
40
100
AcDbEntity
  8
L1_60
  6
CONTINUOUS
 62
         7
100
AcDbCircle
 10
1394.2333403763
 20
57.0566652593
 30
0.0
 40
3.15
100
AcDbArc
 50
270.0
 51
360.0
  0
LINE
  5
41
100
AcDbEntity
  8
L1_60
  6
CONTINUOUS
 62
         7
100
AcDbLine
 10
1378.2833403763
 20
53.9066652593
 30
0.0
 11
1394.2333403763
 21
53.9066652593
 31
0.0
  0
ARC
  5
42
100
AcDbEntity
  8
L1_60
  6
CONTINUOUS
 62
         7
100
AcDbCircle
 10
1378.2833403763
 20
57.0566652593
 30
0.0
 40
3.15
100
AcDbArc
 50
180.0
 51
270.0
  0
LINE
  5
43
100
AcDbEntity
  8
L1_60
  6
CONTINUOUS
 62
         7
100
AcDbLine
 10
1378.2833403763
 20
60.2066652593
 30
0.0
 11
1394.2333403763
 21
60.2066652593
 31
0.0
  0
ARC
  5
44
100
AcDbEntity
  8
L1_60
  6
CONTINUOUS
 62
         7
100
AcDbCircle
 10
1378.2833403763
 20
57.0566652593
 30
0.0
 40
3.15
100
AcDbArc
 50
90.0
 51
180.0
  0
DIMENSION
  5
47
100
AcDbEntity
  8
L1_60
  6
CONTINUOUS
 62
         4
100
AcDbDimension
  2
*D1
 10
1369.3121844897
 20
60.2066652593
 30
0.0
 11
1367.2871844897
 21
49.6133083457
 31
0.0
  3
DIMSTYLE1
100
AcDbAlignedDimension
 13
1378.2833403763
 23
60.2066652593
 33
0.0
 14
1378.2833403763
 24
53.9066652593
 34
0.0
 50
90.0
100
AcDbRotatedDimension
  0
DIMENSION
  5
57
100
AcDbEntity
  8
L1_60
  6
CONTINUOUS
 62
         4
100
AcDbDimension
  2
*D2
 10
1393.0033403763
 20
30.2302818577
 30
0.0
 11
1397.5492810079
 21
32.2552818577
 31
0.0
  3
DIMSTYLE1
100
AcDbAlignedDimension
 13
1393.0033403763
 23
-5.9892318671
 33
0.0
 14
1407.0033403763
 24
-4.9892318671
 34
0.0
100
AcDbRotatedDimension
  0
DIMENSION
  5
65
100
AcDbEntity
  8
L1_60
  6
CONTINUOUS
 62
         4
100
AcDbDimension
  2
*D3
 10
1393.0033403763
 20
36.8988383263
 30
0.0
 11
1422.684609236
 21
38.9238383263
 31
0.0
  3
DIMSTYLE1
100
AcDbAlignedDimension
 13
1393.0033403763
 23
-5.9892318671
 33
0.0
 14
1460.0033403763
 24
1.0566652593
 34
0.0
100
AcDbRotatedDimension
  0
DIMENSION
  5
73
100
AcDbEntity
  8
L1_60
  6
CONTINUOUS
 62
         4
100
AcDbDimension
  2
*D4
 10
1472.903372517
 20
-3.1933347407
 30
0.0
 11
1470.878372517
 21
-20.9760205957
 31
0.0
  3
DIMSTYLE1
100
AcDbAlignedDimension
 13
1436.5939536496
 23
-3.1933347407
 33
0.0
 14
1429.6624483423
 24
-22.6933347407
 34
0.0
 50
90.0
100
AcDbRotatedDimension
  0
LINE
  5
7F
100
AcDbEntity
  8
L1_60
  6
CONTINUOUS
 62
         7
100
AcDbLine
 10
1459.0283047174
 20
-4.077683452
 30
0.0
 11
1438.0033403763
 21
-4.6027214673
 31
0.0
  0
LINE
  5
80
100
AcDbEntity
  8
L1_60
  6
CONTINUOUS
 62
         7
100
AcDbLine
 10
1459.0283047174
 20
-21.8089860294
 30
0.0
 11
1438.0033403763
 21
-21.283948014
 31
0.0
  0
ARC
  5
81
100
AcDbEntity
  8
L1_60
  6
CONTINUOUS
 62
         7
100
AcDbCircle
 10
1459.0033403763
 20
-22.8086743716
 30
0.0
 40
1.0
100
AcDbArc
 50
0.0
 51
88.5695
  0
ARC
  5
82
100
AcDbEntity
  8
L1_60
  6
CONTINUOUS
 62
         7
100
AcDbCircle
 10
1459.0033403763
 20
-3.0779951097
 30
0.0
 40
1.0
100
AcDbArc
 50
271.4305
 51
360.0
  0
ARC
  5
83
100
AcDbEntity
  8
L1_60
  6
CONTINUOUS
 62
         7
100
AcDbCircle
 10
1458.0033403763
 20
-26.9433347407
 30
0.0
 40
2.0
100
AcDbArc
 50
270.0
 51
360.0
  0
LINE
  5
84
100
AcDbEntity
  8
L1_60
  6
CONTINUOUS
 62
         7
100
AcDbLine
 10
1438.0553403763
 20
-28.9433347407
 30
0.0
 11
1458.0033403763
 21
-28.9433347407
 31
0.0
  0
LINE
  5
85
100
AcDbEntity
  8
L1_60
  6
CONTINUOUS
 62
         7
100
AcDbLine
 10
1436.5939536496
 20
-22.6933347407
 30
0.0
 11
1436.5939536496
 21
-3.1933347407
 31
0.0
  0
LINE
  5
86
100
AcDbEntity
  8
L1_60
  6
CONTINUOUS
 62
         7
100
AcDbLine
 10
1427.6624483423
 20
-22.6933347407
 30
0.0
 11
1436.5939536496
 21
-22.6933347407
 31
0.0
  0
LINE
  5
87
100
AcDbEntity
  8
L1_60
  6
CONTINUOUS
 62
         7
100
AcDbLine
 10
1438.0033403763
 20
-21.283948014
 30
0.0
 11
1438.0033403763
 21
-4.6027214673
 31
0.0
  0
LINE
  5
88
100
AcDbEntity
  8
L1_60
  6
CONTINUOUS
 62
         7
100
AcDbLine
 10
1436.5939536496
 20
-22.6933347407
 30
0.0
 11
1438.0033403763
 21
-21.283948014
 31
0.0
  0
LINE
  5
89
100
AcDbEntity
  8
L1_60
  6
CONTINUOUS
 62
         7
100
AcDbLine
 10
1425.9521169712
 20
-20.9830033695
 30
0.0
 11
1407.0033403763
 21
-20.5098121719
 31
0.0
  0
ARC
  5
8A
100
AcDbEntity
  8
L1_60
  6
CONTINUOUS
 62
         7
100
AcDbCircle
 10
1458.0033403763
 20
1.0566652593
 30
0.0
 40
2.0
100
AcDbArc
 50
0.0
 51
90.0
  0
LINE
  5
8B
100
AcDbEntity
  8
L1_60
  6
CONTINUOUS
 62
         7
100
AcDbLine
 10
1438.0553403763
 20
3.0566652593
 30
0.0
 11
1458.0033403763
 21
3.0566652593
 31
0.0
  0
LINE
  5
8C
100
AcDbEntity
  8
L1_60
  6
CONTINUOUS
 62
         7
100
AcDbLine
 10
1427.6624483423
 20
-3.1933347407
 30
0.0
 11
1436.5939536496
 21
-3.1933347407
 31
0.0
  0
LINE
  5
8D
100
AcDbEntity
  8
L1_60
  6
CONTINUOUS
 62
         7
100
AcDbLine
 10
1436.5939536496
 20
-3.1933347407
 30
0.0
 11
1438.0033403763
 21
-4.6027214673
 31
0.0
  0
LINE
  5
8E
100
AcDbEntity
  8
L1_60
  6
CONTINUOUS
 62
         7
100
AcDbLine
 10
1425.9521169712
 20
-4.9036661118
 30
0.0
 11
1407.0033403763
 21
-5.3768573094
 31
0.0
  0
LINE
  5
8F
100
AcDbEntity
  8
L1_60
  6
CENTER
 62
         1
100
AcDbLine
 10
1373.6416074009
 20
-12.9433347407
 30
0.0
 11
1463.3305945419
 21
-12.9433347407
 31
0.0
  0
LINE
  5
90
100
AcDbEntity
  8
L1_60
  6
CONTINUOUS
 62
         7
100
AcDbLine
 10
1460.0033403763
 20
1.0566652593
 30
0.0
 11
1460.0033403763
 21
-26.9433347407
 31
0.0
  0
DIMENSION
  5
93
100
AcDbEntity
  8
L1_60
  6
CONTINUOUS
 62
         4
100
AcDbDimension
  2
*D5
 10
1460.0033403763
 20
-49.0478245388
 30
0.0
 11
1439.5364372194
 21
-47.0228245388
 31
0.0
  3
DIMSTYLE1
100
AcDbAlignedDimension
 13
1460.0033403763
 23
-26.9433347407
 33
0.0
 14
1438.0033403763
 24
-22.6933347407
 34
0.0
100
AcDbRotatedDimension
  0
LINE
  5
9F
100
AcDbEntity
  8
L1_60
  6
CENTER
 62
         1
100
AcDbLine
 10
1623.2833403763
 20
184.9596417294
 30
0.0
 11
1623.2833403763
 21
115.4096417294
 31
0.0
  0
LINE
  5
A0
100
AcDbEntity
  8
L1_60
  6
CENTER
 62
         1
100
AcDbLine
 10
1595.4489825838
 20
150.1846417294
 30
0.0
 11
1650.7694097755
 21
150.1846417294
 31
0.0
  0
CIRCLE
  5
A1
100
AcDbEntity
  8
L1_60
  6
CONTINUOUS
 62
         7
100
AcDbCircle
 10
1623.2833403763
 20
150.1846417294
 30
0.0
 40
16.0
  0
CIRCLE
  5
A2
100
AcDbEntity
  8
L1_60
  6
CONTINUOUS
 62
         7
100
AcDbCircle
 10
1623.2833403763
 20
150.1846417294
 30
0.0
 40
7.35
  0
CIRCLE
  5
A3
100
AcDbEntity
  8
L1_60
  6
CONTINUOUS
 62
         7
100
AcDbCircle
 10
1623.2833403763
 20
150.1846417294
 30
0.0
 40
8.89
  0
DIMENSION
  5
A6
100
AcDbEntity
  8
L1_60
  6
CONTINUOUS
 62
         4
100
AcDbDimension
  2
*D6
 10
1476.0928158946
 20
166.1846417294
 30
0.0
 11
1474.0678158946
 21
146.1252584461
 31
0.0
  3
DIMSTYLE1
100
AcDbAlignedDimension
 13
1458.0033403763
 23
166.1846417294
 33
0.0
 14
1458.0033403763
 24
134.1846417294
 34
0.0
 50
90.0
100
AcDbRotatedDimension
  0
ARC
  5
B2
100
AcDbEntity
  8
L1_60
  6
CONTINUOUS
 62
         7
100
AcDbCircle
 10
1458.0033403763
 20
136.1846417294
 30
0.0
 40
2.0
100
AcDbArc
 50
270.0
 51
360.0
  0
ARC
  5
B3
100
AcDbEntity
  8
L1_60
  6
CONTINUOUS
 62
         7
100
AcDbCircle
 10
1458.0033403763
 20
164.1846417294
 30
0.0
 40
2.0
100
AcDbArc
 50
0.0
 51
90.0
  0
LINE
  5
B4
100
AcDbEntity
  8
L1_60
  6
CONTINUOUS
 62
         7
100
AcDbLine
 10
1438.0553403763
 20
134.1846417294
 30
0.0
 11
1458.0033403763
 21
134.1846417294
 31
0.0
  0
LINE
  5
B5
100
AcDbEntity
  8
L1_60
  6
CONTINUOUS
 62
         7
100
AcDbLine
 10
1438.0553403763
 20
166.1846417294
 30
0.0
 11
1458.0033403763
 21
166.1846417294
 31
0.0
  0
LINE
  5
B6
100
AcDbEntity
  8
L1_60
  6
CENTER
 62
         1
100
AcDbLine
 10
1406.6508489578
 20
150.1846417294
 30
0.0
 11
1465.7871791329
 21
150.1846417294
 31
0.0
  0
LINE
  5
B7
100
AcDbEntity
  8
L1_60
  6
CONTINUOUS
 62
         7
100
AcDbLine
 10
1460.0033403763
 20
164.1846417294
 30
0.0
 11
1460.0033403763
 21
136.1846417294
 31
0.0
  0
DIMENSION
  5
BA
100
AcDbEntity
  8
L1_60
  6
CONTINUOUS
 62
         4
100
AcDbDimension
  2
*D7
 10
1400.0033403763
 20
217.3538924576
 30
0.0
 11
1426.0082798314
 21
219.3788924576
 31
0.0
  3
DIMSTYLE1
100
AcDbAlignedDimension
 13
1400.0033403763
 23
172.4096417294
 33
0.0
 14
1460.0033403763
 24
150.1846417294
 34
0.0
100
AcDbRotatedDimension
  0
DIMENSION
  5
C8
100
AcDbEntity
  8
L1_60
  6
CONTINUOUS
 62
         4
100
AcDbDimension
  2
*D8
 10
1331.7533403763
 20
223.6370824914
 30
0.0
 11
1387.0257124092
 21
225.6620824914
 31
0.0
  3
DIMSTYLE1
100
AcDbAlignedDimension
 13
1331.7533403763
 23
161.4188234458
 33
0.0
 14
1460.0033403763
 24
150.1846417294
 34
0.0
100
AcDbRotatedDimension
  0
LINE
  5
D4
100
AcDbEntity
  8
L1_60
  6
CONTINUOUS
 62
         7
100
AcDbLine
 10
1403.2033403763
 20
180.9596417294
 30
0.0
 11
1403.2033403763
 21
119.4096417294
 31
0.0
  0
LINE
  5
D5
100
AcDbEntity
  8
L1_60
  6
CENTER
 62
         1
100
AcDbLine
 10
1400.0033403763
 20
172.4096417294
 30
0.0
 11
1400.0033403763
 21
127.9596417294
 31
0.0
  0
LINE
  5
D6
100
AcDbEntity
  8
L1_60
  6
CONTINUOUS
 62
         7
100
AcDbLine
 10
1331.7533403763
 20
161.4188234458
 30
0.0
 11
1331.7533403763
 21
138.9504600129
 31
0.0
  0
DIMENSION
  5
D9
100
AcDbEntity
  8
L1_60
  6
CONTINUOUS
 62
         4
100
AcDbDimension
  2
*D9
 10
1397.3833403763
 20
45.3246721518
 30
0.0
 11
1381.2278516233
 21
47.3496721518
 31
0.0
  3
DIMSTYLE1
100
AcDbAlignedDimension
 13
1397.3833403763
 23
57.0566652593
 33
0.0
 14
1375.1333403763
 24
57.0566652593
 34
0.0
100
AcDbRotatedDimension
  0
ARC
  5
E5
100
AcDbEntity
  8
L1_60
  6
CONTINUOUS
 62
         7
100
AcDbCircle
 10
1394.0033403763
 20
-19.8974376142
 30
0.0
 40
1.0
100
AcDbArc
 50
180.0
 51
270.0
  0
ARC
  5
E6
100
AcDbEntity
  8
L1_60
  6
CONTINUOUS
 62
         7
100
AcDbCircle
 10
1394.0033403763
 20
-5.9892318671
 30
0.0
 40
1.0
100
AcDbArc
 50
90.0
 51
180.0
  0
LINE
  5
E7
100
AcDbEntity
  8
L1_60
  6
CONTINUOUS
 62
         7
100
AcDbLine
 10
1375.1333403763
 20
-31.0361892393
 30
0.0
 11
1375.1333403763
 21
-18.1933347407
 31
0.0
  0
LINE
  5
E8
100
AcDbEntity
  8
L1_60
  6
DASHED
 62
         2
100
AcDbLine
 10
1375.1333403763
 20
5.1495010955
 30
0.0
 11
1375.1333403763
 21
-7.6933347407
 31
0.0
  0
LINE
  5
E9
100
AcDbEntity
  8
L1_60
  6
CONTINUOUS
 62
         7
100
AcDbLine
 10
1397.3833403763
 20
-34.2809630712
 30
0.0
 11
1397.3833403763
 21
-20.8974376142
 31
0.0
  0
LINE
  5
EA
100
AcDbEntity
  8
L1_60
  6
DASHED
 62
         2
100
AcDbLine
 10
1397.3833403763
 20
-4.9892318671
 30
0.0
 11
1397.3833403763
 21
8.3942749274
 31
0.0
  0
LINE
  5
EB
100
AcDbEntity
  8
L1_60
  6
CONTINUOUS
 62
         7
100
AcDbLine
 10
1397.3833403763
 20
-4.9892318671
 30
0.0
 11
1407.0033403763
 21
-4.9892318671
 31
0.0
  0
LINE
  5
EC
100
AcDbEntity
  8
L1_60
  6
CONTINUOUS
 62
         7
100
AcDbLine
 10
1394.0033403763
 20
-20.8974376142
 30
0.0
 11
1407.0033403763
 21
-20.8974376142
 31
0.0
  0
LINE
  5
ED
100
AcDbEntity
  8
L1_60
  6
CONTINUOUS
 62
         7
100
AcDbLine
 10
1393.0033403763
 20
-19.8974376142
 30
0.0
 11
1393.0033403763
 21
-7.6933347407
 31
0.0
  0
LINE
  5
EE
100
AcDbEntity
  8
L1_60
  6
CONTINUOUS
 62
         7
100
AcDbLine
 10
1407.0033403763
 20
-4.9892318671
 30
0.0
 11
1407.0033403763
 21
-20.8974376142
 31
0.0
  0
LINE
  5
EF
100
AcDbEntity
  8
L1_60
  6
DASHED
 62
         2
100
AcDbLine
 10
1374.6923607424
 20
5.5904807294
 30
0.0
 11
1375.1333403763
 21
5.1495010955
 31
0.0
  0
LINE
  5
F0
100
AcDbEntity
  8
L1_60
  6
DASHED
 62
         2
100
AcDbLine
 10
1375.1333403763
 20
5.1495010955
 30
0.0
 11
1397.3833403763
 21
8.3942749274
 31
0.0
  0
LINE
  5
F1
100
AcDbEntity
  8
L1_60
  6
DASHED
 62
         2
100
AcDbLine
 10
1397.9748974527
 20
8.9858320039
 30
0.0
 11
1397.3833403763
 21
8.3942749274
 31
0.0
  0
LINE
  5
F2
100
AcDbEntity
  8
L1_60
  6
CONTINUOUS
 62
         7
100
AcDbLine
 10
1374.6923607424
 20
-31.4771688732
 30
0.0
 11
1375.1333403763
 21
-31.0361892393
 31
0.0
  0
LINE
  5
F3
100
AcDbEntity
  8
L1_60
  6
CONTINUOUS
 62
         7
100
AcDbLine
 10
1375.1333403763
 20
-31.0361892393
 30
0.0
 11
1397.3833403763
 21
-34.2809630712
 31
0.0
  0
LINE
  5
F4
100
AcDbEntity
  8
L1_60
  6
CONTINUOUS
 62
         7
100
AcDbLine
 10
1397.9748974527
 20
-34.8725201477
 30
0.0
 11
1397.3833403763
 21
-34.2809630712
 31
0.0
  0
DIMENSION
  5
F7
100
AcDbEntity
  8
L1_60
  6
CONTINUOUS
 62
         4
100
AcDbDimension
  2
*D10
 10
1460.0033403763
 20
-71.6771455273
 30
0.0
 11
1425.4696346217
 21
-69.6521455273
 31
0.0
  3
DIMSTYLE1
100
AcDbAlignedDimension
 13
1460.0033403763
 23
-26.9433347407
 33
0.0
 14
1397.3833403763
 24
-34.2809630712
 34
0.0
100
AcDbRotatedDimension
  0
LINE
  5
103
100
AcDbEntity
  8
L1_60
  6
CENTER
 62
         1
100
AcDbLine
 10
1379.3033403763
 20
-34.6131255311
 30
0.0
 11
1379.3033403763
 21
7.8498440576
 31
0.0
  0
LINE
  5
104
100
AcDbEntity
  8
L1_60
  6
CENTER
 62
         1
100
AcDbLine
 10
1394.7033403763
 20
-34.1356097693
 30
0.0
 11
1394.7033403763
 21
10.887011623
 31
0.0
  0
LINE
  5
105
100
AcDbEntity
  8
L1_60
  6
CONTINUOUS
 62
         7
100
AcDbLine
 10
1419.1033403763
 20
9.8416652593
 30
0.0
 11
1419.1033403763
 21
17.8316652593
 31
0.0
  0
LINE
  5
106
100
AcDbEntity
  8
L1_60
  6
CONTINUOUS
 62
         7
100
AcDbLine
 10
1375.1333403763
 20
-7.6933347407
 30
0.0
 11
1372.7636531885
 21
-7.6933347407
 31
0.0
  0
LINE
  5
107
100
AcDbEntity
  8
L1_60
  6
CONTINUOUS
 62
         7
100
AcDbLine
 10
1393.0033403763
 20
-18.1933347407
 30
0.0
 11
1372.7636531885
 21
-18.1933347407
 31
0.0
  0
LINE
  5
108
100
AcDbEntity
  8
L1_60
  6
CONTINUOUS
 62
         7
100
AcDbLine
 10
1371.7532902174
 20
-5.9433347407
 30
0.0
 11
1353.6992971091
 21
-5.9433347407
 31
0.0
  0
LINE
  5
109
100
AcDbEntity
  8
L1_60
  6
CONTINUOUS
 62
         7
100
AcDbLine
 10
1371.7532902174
 20
-19.9433347407
 30
0.0
 11
1353.6992971091
 21
-19.9433347407
 31
0.0
  0
LINE
  5
10A
100
AcDbEntity
  8
L1_60
  6
CONTINUOUS
 62
         7
100
AcDbLine
 10
1372.7636531885
 20
-18.1933347407
 30
0.0
 11
1372.7636531885
 21
-7.6933347407
 31
0.0
  0
LINE
  5
10B
100
AcDbEntity
  8
L1_60
  6
CONTINUOUS
 62
         7
100
AcDbLine
 10
1372.7636531885
 20
-7.6933347407
 30
0.0
 11
1371.7532902174
 21
-5.9433347407
 31
0.0
  0
LINE
  5
10C
100
AcDbEntity
  8
L1_60
  6
CONTINUOUS
 62
         7
100
AcDbLine
 10
1372.7636531885
 20
-18.1933347407
 30
0.0
 11
1371.7532902174
 21
-19.9433347407
 31
0.0
  0
LINE
  5
10D
100
AcDbEntity
  8
L1_60
  6
CONTINUOUS
 62
         7
100
AcDbLine
 10
1371.7532902174
 20
-5.9433347407
 30
0.0
 11
1371.7532902174
 21
-19.9433347407
 31
0.0
  0
LINE
  5
10E
100
AcDbEntity
  8
_Y__________
  6
CONTINUOUS
 62
         7
100
AcDbLine
 10
1419.1033403763
 20
180.9596417294
 30
0.0
 11
1419.1033403763
 21
179.9596417294
 31
0.0
  0
LINE
  5
10F
100
AcDbEntity
  8
_Y__________
  6
CONTINUOUS
 62
         7
100
AcDbLine
 10
1419.1033403763
 20
120.4096417294
 30
0.0
 11
1419.1033403763
 21
119.4096417294
 31
0.0
  0
LINE
  5
110
100
AcDbEntity
  8
_Y__________
  6
CONTINUOUS
 62
         7
100
AcDbLine
 10
1598.2833403762
 20
155.6846417294
 30
0.0
 11
1598.2833403762
 21
144.6846417294
 31
0.0
  0
LINE
  5
111
100
AcDbEntity
  8
_Y__________
  6
DASHED
 62
         2
100
AcDbLine
 10
1598.7833403762
 20
155.1846417294
 30
0.0
 11
1604.9573403762
 21
155.1846417294
 31
0.0
  0
LINE
  5
112
100
AcDbEntity
  8
_Y__________
  6
DASHED
 62
         2
100
AcDbLine
 10
1604.9573403762
 20
155.1846417294
 30
0.0
 11
1604.9573403762
 21
145.1846417294
 31
0.0
  0
LINE
  5
113
100
AcDbEntity
  8
_Y__________
  6
DASHED
 62
         2
100
AcDbLine
 10
1604.9573403762
 20
155.1846417294
 30
0.0
 11
1607.8440917222
 21
150.1846417294
 31
0.0
  0
LINE
  5
114
100
AcDbEntity
  8
_Y__________
  6
DASHED
 62
         2
100
AcDbLine
 10
1607.8440917222
 20
150.1846417294
 30
0.0
 11
1604.9573403762
 21
145.1846417294
 31
0.0
  0
LINE
  5
115
100
AcDbEntity
  8
_Y__________
  6
DASHED
 62
         2
100
AcDbLine
 10
1598.7833403762
 20
145.1846417294
 30
0.0
 11
1604.9573403762
 21
145.1846417294
 31
0.0
  0
LINE
  5
116
100
AcDbEntity
  8
_Y__________
  6
DASHED
 62
         2
100
AcDbLine
 10
1598.7833403762
 20
155.1846417294
 30
0.0
 11
1598.7833403762
 21
145.1846417294
 31
0.0
  0
LINE
  5
117
100
AcDbEntity
  8
_Y__________
  6
DASHED
 62
         2
100
AcDbLine
 10
1598.7833403762
 20
155.1846417294
 30
0.0
 11
1598.2833403762
 21
155.6846417294
 31
0.0
  0
LINE
  5
118
100
AcDbEntity
  8
_Y__________
  6
DASHED
 62
         2
100
AcDbLine
 10
1598.7833403762
 20
145.1846417294
 30
0.0
 11
1598.2833403762
 21
144.6846417294
 31
0.0
  0
CIRCLE
  5
119
100
AcDbEntity
  8
_Y__________
  6
CONTINUOUS
 62
         7
100
AcDbCircle
 10
1411.1033403763
 20
150.1846417294
 30
0.0
 40
5.0
  0
ARC
  5
11A
100
AcDbEntity
  8
_Y__________
  6
CONTINUOUS
 62
         7
100
AcDbCircle
 10
1402.6033403763
 20
172.9846417294
 30
0.0
 40
0.6
100
AcDbArc
 50
270.0
 51
360.0
  0
LINE
  5
11B
100
AcDbEntity
  8
_Y__________
  6
CONTINUOUS
 62
         7
100
AcDbLine
 10
1401.2033403763
 20
172.5846417294
 30
0.0
 11
1401.9497505378
 21
172.3846417294
 31
0.0
  0
LINE
  5
11C
100
AcDbEntity
  8
_Y__________
  6
CONTINUOUS
 62
         7
100
AcDbLine
 10
1401.9497505378
 20
172.3846417294
 30
0.0
 11
1402.6033403763
 21
172.3846417294
 31
0.0
  0
LINE
  5
11D
100
AcDbEntity
  8
_Y__________
  6
CONTINUOUS
 62
         7
100
AcDbLine
 10
1401.2033403763
 20
127.7846417294
 30
0.0
 11
1401.2033403763
 21
172.5846417294
 31
0.0
  0
LINE
  5
11E
100
AcDbEntity
  8
_Y__________
  6
CONTINUOUS
 62
         7
100
AcDbLine
 10
1401.9497505378
 20
127.9846417294
 30
0.0
 11
1401.9497505378
 21
172.3846417294
 31
0.0
  0
ARC
  5
11F
100
AcDbEntity
  8
_Y__________
  6
CONTINUOUS
 62
         7
100
AcDbCircle
 10
1402.6033403763
 20
127.3846417294
 30
0.0
 40
0.6
100
AcDbArc
 50
0.0
 51
90.0
  0
LINE
  5
120
100
AcDbEntity
  8
_Y__________
  6
CONTINUOUS
 62
         7
100
AcDbLine
 10
1401.2033403763
 20
127.7846417294
 30
0.0
 11
1401.9497505378
 21
127.9846417294
 31
0.0
  0
LINE
  5
121
100
AcDbEntity
  8
_Y__________
  6
CONTINUOUS
 62
         7
100
AcDbLine
 10
1401.9497505378
 20
127.9846417294
 30
0.0
 11
1402.6033403763
 21
127.9846417294
 31
0.0
  0
LINE
  5
122
100
AcDbEntity
  8
_Y__________
  6
CENTER
 62
         1
100
AcDbLine
 10
1396.6508489578
 20
150.1846417294
 30
0.0
 11
1419.1033403763
 21
150.1846417294
 31
0.0
  0
LINE
  5
123
100
AcDbEntity
  8
_Y__________
  6
CONTINUOUS
 62
         7
100
AcDbLine
 10
1332.7801721046
 20
162.6062630231
 30
0.0
 11
1401.2033403763
 21
172.5846417294
 31
0.0
  0
LINE
  5
124
100
AcDbEntity
  8
_Y__________
  6
CENTER
 62
         1
100
AcDbLine
 10
1329.3598386453
 20
150.1846417294
 30
0.0
 11
1378.4659535144
 21
150.1846417294
 31
0.0
  0
LINE
  5
125
100
AcDbEntity
  8
_Y__________
  6
CONTINUOUS
 62
         7
100
AcDbLine
 10
1332.7801721046
 20
137.7630204357
 30
0.0
 11
1401.2033403763
 21
127.7846417294
 31
0.0
  0
LINE
  5
126
100
AcDbEntity
  8
_Y__________
  6
CENTER
 62
         1
100
AcDbLine
 10
1411.1033403763
 20
187.6899050302
 30
0.0
 11
1411.1033403763
 21
112.6870854784
 31
0.0
  0
ARC
  5
127
100
AcDbEntity
  8
_Y__________
  6
CONTINUOUS
 62
         7
100
AcDbCircle
 10
1412.0045400445
 20
179.3096417294
 30
0.0
 40
1.0
100
AcDbArc
 50
270.0
 51
346.8556743105
  0
ARC
  5
128
100
AcDbEntity
  8
_Y__________
  6
CONTINUOUS
 62
         7
100
AcDbCircle
 10
1410.202140708
 20
179.3096417294
 30
0.0
 40
1.0
100
AcDbArc
 50
193.1443256895
 51
270.0
  0
LINE
  5
129
100
AcDbEntity
  8
_Y__________
  6
CONTINUOUS
 62
         7
100
AcDbLine
 10
1410.202140708
 20
178.3096417294
 30
0.0
 11
1412.0045400445
 21
178.3096417294
 31
0.0
  0
LINE
  5
12A
100
AcDbEntity
  8
_Y__________
  6
CONTINUOUS
 62
         7
100
AcDbLine
 10
1414.639610775
 20
181.9596417294
 30
0.0
 11
1418.1033403763
 21
181.9596417294
 31
0.0
  0
LINE
  5
12B
100
AcDbEntity
  8
_Y__________
  6
CONTINUOUS
 62
         7
100
AcDbLine
 10
1412.9783403763
 20
179.0822369936
 30
0.0
 11
1414.639610775
 21
181.9596417294
 31
0.0
  0
LINE
  5
12C
100
AcDbEntity
  8
_Y__________
  6
CONTINUOUS
 62
         7
100
AcDbLine
 10
1414.639610775
 20
118.4096417294
 30
0.0
 11
1418.1033403763
 21
118.4096417294
 31
0.0
  0
ARC
  5
12D
100
AcDbEntity
  8
_Y__________
  6
CONTINUOUS
 62
         7
100
AcDbCircle
 10
1412.0045400445
 20
121.0596417294
 30
0.0
 40
1.0
100
AcDbArc
 50
13.1443256895
 51
90.0
  0
LINE
  5
12E
100
AcDbEntity
  8
_Y__________
  6
CONTINUOUS
 62
         7
100
AcDbLine
 10
1412.9783403763
 20
121.2870464652
 30
0.0
 11
1414.639610775
 21
118.4096417294
 31
0.0
  0
ARC
  5
12F
100
AcDbEntity
  8
_Y__________
  6
CONTINUOUS
 62
         7
100
AcDbCircle
 10
1410.202140708
 20
121.0596417294
 30
0.0
 40
1.0
100
AcDbArc
 50
90.0
 51
166.8556743105
  0
LINE
  5
130
100
AcDbEntity
  8
_Y__________
  6
CONTINUOUS
 62
         7
100
AcDbLine
 10
1410.202140708
 20
122.0596417294
 30
0.0
 11
1412.0045400445
 21
122.0596417294
 31
0.0
  0
LINE
  5
131
100
AcDbEntity
  8
_Y__________
  6
CONTINUOUS
 62
         7
100
AcDbLine
 10
1419.1033403763
 20
180.9596417294
 30
0.0
 11
1419.1033403763
 21
169.1846417294
 31
0.0
  0
LINE
  5
132
100
AcDbEntity
  8
_Y__________
  6
CONTINUOUS
 62
         7
100
AcDbLine
 10
1419.1033403763
 20
180.9596417294
 30
0.0
 11
1419.1033403763
 21
119.4096417294
 31
0.0
  0
LINE
  5
133
100
AcDbEntity
  8
_Y__________
  6
CONTINUOUS
 62
         7
100
AcDbLine
 10
1404.2033403763
 20
181.9596417294
 30
0.0
 11
1407.5670699775
 21
181.9596417294
 31
0.0
  0
LINE
  5
134
100
AcDbEntity
  8
_Y__________
  6
CONTINUOUS
 62
         7
100
AcDbLine
 10
1404.2033403763
 20
118.4096417294
 30
0.0
 11
1407.5670699775
 21
118.4096417294
 31
0.0
  0
LINE
  5
135
100
AcDbEntity
  8
_Y__________
  6
CENTER
 62
         1
100
AcDbLine
 10
1400.0033403763
 20
172.4096417294
 30
0.0
 11
1400.0033403763
 21
127.9596417294
 31
0.0
  0
LINE
  5
136
100
AcDbEntity
  8
_Y__________
  6
CONTINUOUS
 62
         7
100
AcDbLine
 10
1403.2033403763
 20
180.9596417294
 30
0.0
 11
1403.2033403763
 21
119.4096417294
 31
0.0
  0
LINE
  5
137
100
AcDbEntity
  8
_Y__________
  6
CONTINUOUS
 62
         7
100
AcDbLine
 10
1409.2283403763
 20
121.2870464652
 30
0.0
 11
1407.5670699775
 21
118.4096417294
 31
0.0
  0
LINE
  5
138
100
AcDbEntity
  8
_Y__________
  6
CONTINUOUS
 62
         7
100
AcDbLine
 10
1409.2283403763
 20
179.0822369936
 30
0.0
 11
1407.5670699775
 21
181.9596417294
 31
0.0
  0
LINE
  5
139
100
AcDbEntity
  8
_Y__________
  6
CONTINUOUS
 62
         7
100
AcDbLine
 10
1414.639610775
 20
18.8316652595
 30
0.0
 11
1418.1033403763
 21
18.8316652595
 31
0.0
  0
LINE
  5
13A
100
AcDbEntity
  8
_Y__________
  6
CONTINUOUS
 62
         7
100
AcDbLine
 10
1412.9783403763
 20
15.9542605237
 30
0.0
 11
1414.639610775
 21
18.8316652595
 31
0.0
  0
ARC
  5
13B
100
AcDbEntity
  8
_Y__________
  6
CONTINUOUS
 62
         7
100
AcDbCircle
 10
1412.0045400445
 20
16.1816652595
 30
0.0
 40
1.0
100
AcDbArc
 50
270.0
 51
346.8556743105
  0
LINE
  5
13C
100
AcDbEntity
  8
_Y__________
  6
CONTINUOUS
 62
         7
100
AcDbLine
 10
1410.202140708
 20
15.1816652595
 30
0.0
 11
1412.0045400445
 21
15.1816652595
 31
0.0
  0
ARC
  5
13D
100
AcDbEntity
  8
_Y__________
  6
CONTINUOUS
 62
         7
100
AcDbCircle
 10
1410.202140708
 20
16.1816652595
 30
0.0
 40
1.0
100
AcDbArc
 50
193.1443256895
 51
270.0
  0
LINE
  5
13E
100
AcDbEntity
  8
_Y__________
  6
CONTINUOUS
 62
         7
100
AcDbLine
 10
1409.2283403763
 20
15.9542605235
 30
0.0
 11
1407.5670699775
 21
18.8316652593
 31
0.0
  0
LINE
  5
13F
100
AcDbEntity
  8
_Y__________
  6
CONTINUOUS
 62
         7
100
AcDbLine
 10
1404.2033403763
 20
18.8316652595
 30
0.0
 11
1407.5670699775
 21
18.8316652595
 31
0.0
  0
LINE
  5
140
100
AcDbEntity
  8
_Y__________
  6
CONTINUOUS
 62
         7
100
AcDbLine
 10
1403.2033403763
 20
9.8566652593
 30
0.0
 11
1403.2033403763
 21
17.8316652595
 31
0.0
  0
ARC
  5
141
100
AcDbEntity
  8
_Y__________
  6
CONTINUOUS
 62
         7
100
AcDbCircle
 10
1402.6033403763
 20
9.8566652593
 30
0.0
 40
0.6
100
AcDbArc
 50
270.0
 51
360.0
  0
LINE
  5
142
100
AcDbEntity
  8
_Y__________
  6
CONTINUOUS
 62
         7
100
AcDbLine
 10
1401.9497505378
 20
9.2566652593
 30
0.0
 11
1402.6033403763
 21
9.2566652593
 31
0.0
  0
LINE
  5
143
100
AcDbEntity
  8
_Y__________
  6
CONTINUOUS
 62
         7
100
AcDbLine
 10
1332.6301721046
 20
-0.543588447
 30
0.0
 11
1401.2033403763
 21
9.4566652593
 31
0.0
  0
LINE
  5
144
100
AcDbEntity
  8
_Y__________
  6
CONTINUOUS
 62
         7
100
AcDbLine
 10
1401.2033403763
 20
9.4566652593
 30
0.0
 11
1401.9497505378
 21
9.2566652593
 31
0.0
  0
LINE
  5
145
100
AcDbEntity
  8
_Y__________
  6
CONTINUOUS
 62
         7
100
AcDbLine
 10
1332.6301721046
 20
-25.3430810344
 30
0.0
 11
1401.2033403767
 21
-35.3433347407
 31
0.0
  0
LINE
  5
146
100
AcDbEntity
  8
_Y__________
  6
CENTER
 62
         1
100
AcDbLine
 10
1328.5556074009
 20
-12.9433347407
 30
0.0
 11
1419.1033403763
 21
-12.9433347407
 31
0.0
  0
LINE
  5
147
100
AcDbEntity
  8
_Y__________
  6
CONTINUOUS
 62
         7
100
AcDbLine
 10
1401.2033403763
 20
-35.3433347409
 30
0.0
 11
1401.9497505378
 21
-35.1433347409
 31
0.0
  0
LINE
  5
148
100
AcDbEntity
  8
_Y__________
  6
CONTINUOUS
 62
         7
100
AcDbLine
 10
1401.9497505378
 20
-35.1433347407
 30
0.0
 11
1402.6033403763
 21
-35.1433347407
 31
0.0
  0
ARC
  5
149
100
AcDbEntity
  8
_Y__________
  6
CONTINUOUS
 62
         7
100
AcDbCircle
 10
1402.6033403763
 20
-35.7433347407
 30
0.0
 40
0.6
100
AcDbArc
 50
0.0
 51
90.0
  0
LINE
  5
14A
100
AcDbEntity
  8
_Y__________
  6
CONTINUOUS
 62
         7
100
AcDbLine
 10
1404.2033403763
 20
-44.7183347409
 30
0.0
 11
1407.5670699775
 21
-44.7183347409
 31
0.0
  0
LINE
  5
14B
100
AcDbEntity
  8
_Y__________
  6
CONTINUOUS
 62
         7
100
AcDbLine
 10
1403.2033403763
 20
-35.7433347409
 30
0.0
 11
1403.2033403763
 21
-43.7183347409
 31
0.0
  0
LINE
  5
14C
100
AcDbEntity
  8
_Y__________
  6
CONTINUOUS
 62
         7
100
AcDbLine
 10
1409.2283403763
 20
-41.8409300049
 30
0.0
 11
1407.5670699775
 21
-44.7183347407
 31
0.0
  0
ARC
  5
14D
100
AcDbEntity
  8
_Y__________
  6
CONTINUOUS
 62
         7
100
AcDbCircle
 10
1410.202140708
 20
-42.0683347407
 30
0.0
 40
1.0
100
AcDbArc
 50
90.0
 51
166.8556743105
  0
LINE
  5
14E
100
AcDbEntity
  8
_Y__________
  6
CONTINUOUS
 62
         7
100
AcDbLine
 10
1410.202140708
 20
-41.0683347407
 30
0.0
 11
1412.0045400445
 21
-41.0683347407
 31
0.0
  0
ARC
  5
14F
100
AcDbEntity
  8
_Y__________
  6
CONTINUOUS
 62
         7
100
AcDbCircle
 10
1412.0045400445
 20
-42.0683347409
 30
0.0
 40
1.0
100
AcDbArc
 50
13.1443256895
 51
90.0
  0
LINE
  5
150
100
AcDbEntity
  8
_Y__________
  6
CONTINUOUS
 62
         7
100
AcDbLine
 10
1412.9783403763
 20
-41.8409300049
 30
0.0
 11
1414.639610775
 21
-44.7183347407
 31
0.0
  0
LINE
  5
151
100
AcDbEntity
  8
_Y__________
  6
CONTINUOUS
 62
         7
100
AcDbLine
 10
1414.639610775
 20
-44.7183347409
 30
0.0
 11
1418.1033403763
 21
-44.7183347409
 31
0.0
  0
ARC
  5
152
100
AcDbEntity
  8
_Y__________
  6
CONTINUOUS
 62
         7
100
AcDbCircle
 10
1419.6033403763
 20
9.8416652593
 30
0.0
 40
0.5
100
AcDbArc
 50
180.0
 51
270.0
  0
ARC
  5
153
100
AcDbEntity
  8
_Y__________
  6
CONTINUOUS
 62
         7
100
AcDbCircle
 10
1419.6033403763
 20
-35.7283347407
 30
0.0
 40
0.5
100
AcDbArc
 50
90.0
 51
180.0
  0
LINE
  5
154
100
AcDbEntity
  8
_Y__________
  6
CONTINUOUS
 62
         7
100
AcDbLine
 10
1419.6033403763
 20
-35.2283347407
 30
0.0
 11
1434.2553403763
 21
-35.2283347407
 31
0.0
  0
LINE
  5
155
100
AcDbEntity
  8
_Y__________
  6
CONTINUOUS
 62
         7
100
AcDbLine
 10
1419.6033403763
 20
9.3416652593
 30
0.0
 11
1434.2553403763
 21
9.3416652593
 31
0.0
  0
ARC
  5
156
100
AcDbEntity
  8
_Y__________
  6
CONTINUOUS
 62
         7
100
AcDbCircle
 10
1404.2033403763
 20
180.9596417294
 30
0.0
 40
1.0
100
AcDbArc
 50
90.0
 51
180.0
  0
LINE
  5
157
100
AcDbEntity
  8
_Y__________
  6
CONTINUOUS
 62
         7
100
AcDbLine
 10
1404.2033403763
 20
181.9596417294
 30
0.0
 11
1405.2033403763
 21
181.9596417294
 31
0.0
  0
LINE
  5
158
100
AcDbEntity
  8
_Y__________
  6
CONTINUOUS
 62
         7
100
AcDbLine
 10
1403.2033403763
 20
180.9596417294
 30
0.0
 11
1403.2033403763
 21
179.9596417294
 31
0.0
  0
LINE
  5
159
100
AcDbEntity
  8
_Y__________
  6
CONTINUOUS
 62
         7
100
AcDbLine
 10
1417.1033403763
 20
181.9596417294
 30
0.0
 11
1418.1033403763
 21
181.9596417294
 31
0.0
  0
ARC
  5
15A
100
AcDbEntity
  8
_Y__________
  6
CONTINUOUS
 62
         7
100
AcDbCircle
 10
1418.1033403763
 20
180.9596417294
 30
0.0
 40
1.0
100
AcDbArc
 50
0.0
 51
90.0
  0
ARC
  5
15B
100
AcDbEntity
  8
_Y__________
  6
CONTINUOUS
 62
         7
100
AcDbCircle
 10
1404.2033403763
 20
119.4096417294
 30
0.0
 40
1.0
100
AcDbArc
 50
180.0
 51
270.0
  0
LINE
  5
15C
100
AcDbEntity
  8
_Y__________
  6
CONTINUOUS
 62
         7
100
AcDbLine
 10
1404.2033403763
 20
118.4096417294
 30
0.0
 11
1405.2033403763
 21
118.4096417294
 31
0.0
  0
LINE
  5
15D
100
AcDbEntity
  8
_Y__________
  6
CONTINUOUS
 62
         7
100
AcDbLine
 10
1417.1033403763
 20
118.4096417294
 30
0.0
 11
1418.1033403763
 21
118.4096417294
 31
0.0
  0
ARC
  5
15E
100
AcDbEntity
  8
_Y__________
  6
CONTINUOUS
 62
         7
100
AcDbCircle
 10
1418.1033403763
 20
119.4096417294
 30
0.0
 40
1.0
100
AcDbArc
 50
270.0
 51
360.0
  0
LINE
  5
15F
100
AcDbEntity
  8
_Y__________
  6
CONTINUOUS
 62
         7
100
AcDbLine
 10
1419.1033403763
 20
180.9596417294
 30
0.0
 11
1419.1033403763
 21
172.9696417294
 31
0.0
  0
LINE
  5
160
100
AcDbEntity
  8
_Y__________
  6
CONTINUOUS
 62
         7
100
AcDbLine
 10
1403.2033403763
 20
120.4096417294
 30
0.0
 11
1403.2033403763
 21
119.4096417294
 31
0.0
  0
LINE
  5
161
100
AcDbEntity
  8
_Y__________
  6
CONTINUOUS
 62
         7
100
AcDbLine
 10
1419.1033403763
 20
127.3996417294
 30
0.0
 11
1419.1033403763
 21
119.4096417294
 31
0.0
  0
LINE
  5
162
100
AcDbEntity
  8
_Y__________
  6
CONTINUOUS
 62
         7
100
AcDbLine
 10
1419.1033403763
 20
-42.7183347407
 30
0.0
 11
1419.1033403763
 21
-43.7183347407
 31
0.0
  0
LINE
  5
163
100
AcDbEntity
  8
_Y__________
  6
CONTINUOUS
 62
         7
100
AcDbLine
 10
1403.2033403763
 20
-42.7183347407
 30
0.0
 11
1403.2033403763
 21
-43.7183347407
 31
0.0
  0
LINE
  5
164
100
AcDbEntity
  8
_Y__________
  6
CONTINUOUS
 62
         7
100
AcDbLine
 10
1419.1033403763
 20
17.8316652593
 30
0.0
 11
1419.1033403763
 21
16.8316652593
 31
0.0
  0
ARC
  5
165
100
AcDbEntity
  8
_Y__________
  6
CONTINUOUS
 62
         7
100
AcDbCircle
 10
1418.1033403763
 20
-43.7183347407
 30
0.0
 40
1.0
100
AcDbArc
 50
270.0
 51
360.0
  0
LINE
  5
166
100
AcDbEntity
  8
_Y__________
  6
CONTINUOUS
 62
         7
100
AcDbLine
 10
1417.1033403763
 20
-44.7183347407
 30
0.0
 11
1418.1033403763
 21
-44.7183347407
 31
0.0
  0
LINE
  5
167
100
AcDbEntity
  8
_Y__________
  6
CONTINUOUS
 62
         7
100
AcDbLine
 10
1404.2033403763
 20
-44.7183347407
 30
0.0
 11
1405.2033403763
 21
-44.7183347407
 31
0.0
  0
ARC
  5
168
100
AcDbEntity
  8
_Y__________
  6
CONTINUOUS
 62
         7
100
AcDbCircle
 10
1404.2033403763
 20
-43.7183347407
 30
0.0
 40
1.0
100
AcDbArc
 50
180.0
 51
270.0
  0
ARC
  5
169
100
AcDbEntity
  8
_Y__________
  6
CONTINUOUS
 62
         7
100
AcDbCircle
 10
1418.1033403763
 20
17.8316652593
 30
0.0
 40
1.0
100
AcDbArc
 50
0.0
 51
90.0
  0
LINE
  5
16A
100
AcDbEntity
  8
_Y__________
  6
CONTINUOUS
 62
         7
100
AcDbLine
 10
1417.1033403763
 20
18.8316652593
 30
0.0
 11
1418.1033403763
 21
18.8316652593
 31
0.0
  0
LINE
  5
16B
100
AcDbEntity
  8
_Y__________
  6
CONTINUOUS
 62
         7
100
AcDbLine
 10
1403.2033403763
 20
17.8316652593
 30
0.0
 11
1403.2033403763
 21
16.8316652593
 31
0.0
  0
LINE
  5
16C
100
AcDbEntity
  8
_Y__________
  6
CONTINUOUS
 62
         7
100
AcDbLine
 10
1404.2033403763
 20
18.8316652593
 30
0.0
 11
1405.2033403763
 21
18.8316652593
 31
0.0
  0
ARC
  5
16D
100
AcDbEntity
  8
_Y__________
  6
CONTINUOUS
 62
         7
100
AcDbCircle
 10
1404.2033403763
 20
17.8316652593
 30
0.0
 40
1.0
100
AcDbArc
 50
90.0
 51
180.0
  0
LINE
  5
16E
100
AcDbEntity
  8
_Y__________
  6
CONTINUOUS
 62
         7
100
AcDbLine
 10
1435.0553403763
 20
171.6696417294
 30
0.0
 11
1435.0553403763
 21
128.6996417294
 31
0.0
  0
LINE
  5
16F
100
AcDbEntity
  8
_Y__________
  6
CONTINUOUS
 62
         7
100
AcDbLine
 10
1419.6033403763
 20
172.4696417294
 30
0.0
 11
1434.2553403763
 21
172.4696417294
 31
0.0
  0
ARC
  5
170
100
AcDbEntity
  8
_Y__________
  6
CONTINUOUS
 62
         7
100
AcDbCircle
 10
1419.6033403763
 20
127.3996417294
 30
0.0
 40
0.5
100
AcDbArc
 50
90.0
 51
180.0
  0
ARC
  5
171
100
AcDbEntity
  8
_Y__________
  6
CONTINUOUS
 62
         7
100
AcDbCircle
 10
1419.6033403763
 20
172.9696417294
 30
0.0
 40
0.5
100
AcDbArc
 50
180.0
 51
270.0
  0
LINE
  5
172
100
AcDbEntity
  8
_Y__________
  6
CONTINUOUS
 62
         7
100
AcDbLine
 10
1419.1033403763
 20
-35.7283347407
 30
0.0
 11
1419.1033403763
 21
-43.7183347409
 31
0.0
  0
ARC
  5
173
100
AcDbEntity
  8
_Y__________
  6
CONTINUOUS
 62
         7
100
AcDbCircle
 10
1434.2553403763
 20
171.6696417294
 30
0.0
 40
0.8
100
AcDbArc
 50
0.0
 51
90.0000000003
  0
CIRCLE
  5
174
100
AcDbEntity
  8
_Y__________
  6
CONTINUOUS
 62
         7
100
AcDbCircle
 10
1623.2833403763
 20
150.1846417294
 30
0.0
 40
22.225
  0
LINE
  5
175
100
AcDbEntity
  8
_Y__________
  6
CONTINUOUS
 62
         7
100
AcDbLine
 10
1414.639610775
 20
141.3346417294
 30
0.0
 11
1414.639610775
 21
118.4096417294
 31
0.0
  0
LINE
  5
176
100
AcDbEntity
  8
_Y__________
  6
CONTINUOUS
 62
         7
100
AcDbLine
 10
1412.9783403763
 20
142.1346417294
 30
0.0
 11
1412.9783403763
 21
121.2870464652
 31
0.0
  0
LINE
  5
177
100
AcDbEntity
  8
_Y__________
  6
CONTINUOUS
 62
         7
100
AcDbLine
 10
1409.2283403763
 20
142.1346417294
 30
0.0
 11
1409.2283403763
 21
121.2870464652
 31
0.0
  0
LINE
  5
178
100
AcDbEntity
  8
_Y__________
  6
CONTINUOUS
 62
         7
100
AcDbLine
 10
1407.5670699775
 20
141.3346417294
 30
0.0
 11
1407.5670699775
 21
118.4096417294
 31
0.0
  0
LINE
  5
179
100
AcDbEntity
  8
_Y__________
  6
CONTINUOUS
 62
         7
100
AcDbLine
 10
1419.1033403763
 20
159.0346417294
 30
0.0
 11
1414.639610775
 21
159.0346417294
 31
0.0
  0
LINE
  5
17A
100
AcDbEntity
  8
_Y__________
  6
CONTINUOUS
 62
         7
100
AcDbLine
 10
1412.9783403763
 20
158.2346417294
 30
0.0
 11
1414.639610775
 21
159.0346417294
 31
0.0
  0
LINE
  5
17B
100
AcDbEntity
  8
_Y__________
  6
CONTINUOUS
 62
         7
100
AcDbLine
 10
1419.1033403763
 20
159.0346417294
 30
0.0
 11
1418.3033403763
 21
158.2346417294
 31
0.0
  0
LINE
  5
17C
100
AcDbEntity
  8
_Y__________
  6
CONTINUOUS
 62
         7
100
AcDbLine
 10
1412.9783403763
 20
142.1346417294
 30
0.0
 11
1414.639610775
 21
141.3346417294
 31
0.0
  0
LINE
  5
17D
100
AcDbEntity
  8
_Y__________
  6
CONTINUOUS
 62
         7
100
AcDbLine
 10
1418.3033403763
 20
142.1346417294
 30
0.0
 11
1419.1033403763
 21
141.3346417294
 31
0.0
  0
LINE
  5
17E
100
AcDbEntity
  8
_Y__________
  6
CONTINUOUS
 62
         7
100
AcDbLine
 10
1419.1033403763
 20
141.3346417294
 30
0.0
 11
1414.639610775
 21
141.3346417294
 31
0.0
  0
LINE
  5
17F
100
AcDbEntity
  8
_Y__________
  6
CONTINUOUS
 62
         7
100
AcDbLine
 10
1418.3033403763
 20
158.2346417294
 30
0.0
 11
1418.3033403763
 21
142.1346417294
 31
0.0
  0
LINE
  5
180
100
AcDbEntity
  8
_Y__________
  6
CONTINUOUS
 62
         7
100
AcDbLine
 10
1407.5670699775
 20
159.0346417294
 30
0.0
 11
1403.2033403763
 21
159.0346417294
 31
0.0
  0
LINE
  5
181
100
AcDbEntity
  8
_Y__________
  6
CONTINUOUS
 62
         7
100
AcDbLine
 10
1403.2033403763
 20
159.0346417294
 30
0.0
 11
1404.0033403763
 21
158.2346417294
 31
0.0
  0
LINE
  5
182
100
AcDbEntity
  8
_Y__________
  6
CONTINUOUS
 62
         7
100
AcDbLine
 10
1404.0033403763
 20
142.1346417294
 30
0.0
 11
1403.2033403763
 21
141.3346417294
 31
0.0
  0
LINE
  5
183
100
AcDbEntity
  8
_Y__________
  6
CONTINUOUS
 62
         7
100
AcDbLine
 10
1407.5670699775
 20
141.3346417294
 30
0.0
 11
1403.2033403763
 21
141.3346417294
 31
0.0
  0
LINE
  5
184
100
AcDbEntity
  8
_Y__________
  6
CONTINUOUS
 62
         7
100
AcDbLine
 10
1404.0033403763
 20
158.2346417294
 30
0.0
 11
1404.0033403763
 21
142.1346417294
 31
0.0
  0
LINE
  5
185
100
AcDbEntity
  8
_Y__________
  6
CONTINUOUS
 62
         7
100
AcDbLine
 10
1407.5670699775
 20
141.3346417294
 30
0.0
 11
1409.2283403763
 21
142.1346417294
 31
0.0
  0
LINE
  5
186
100
AcDbEntity
  8
_Y__________
  6
CONTINUOUS
 62
         7
100
AcDbLine
 10
1407.5670699775
 20
159.0346417294
 30
0.0
 11
1409.2283403763
 21
158.2346417294
 31
0.0
  0
LINE
  5
187
100
AcDbEntity
  8
_Y__________
  6
CONTINUOUS
 62
         7
100
AcDbLine
 10
1418.3033403763
 20
142.1346417294
 30
0.0
 11
1404.0033403763
 21
142.1346417294
 31
0.0
  0
LINE
  5
188
100
AcDbEntity
  8
_Y__________
  6
CONTINUOUS
 62
         7
100
AcDbLine
 10
1418.3033403763
 20
158.2346417294
 30
0.0
 11
1404.0033403763
 21
158.2346417294
 31
0.0
  0
LINE
  5
189
100
AcDbEntity
  8
_Y__________
  6
CONTINUOUS
 62
         7
100
AcDbLine
 10
1414.639610775
 20
181.9596417294
 30
0.0
 11
1414.639610775
 21
159.0346417294
 31
0.0
  0
LINE
  5
18A
100
AcDbEntity
  8
_Y__________
  6
CONTINUOUS
 62
         7
100
AcDbLine
 10
1412.9783403763
 20
179.0822369936
 30
0.0
 11
1412.9783403763
 21
158.2346417294
 31
0.0
  0
LINE
  5
18B
100
AcDbEntity
  8
_Y__________
  6
CONTINUOUS
 62
         7
100
AcDbLine
 10
1409.2283403763
 20
179.0822369936
 30
0.0
 11
1409.2283403763
 21
158.2346417294
 31
0.0
  0
LINE
  5
18C
100
AcDbEntity
  8
_Y__________
  6
CONTINUOUS
 62
         7
100
AcDbLine
 10
1407.5670699775
 20
181.9596417294
 30
0.0
 11
1407.5670699775
 21
159.0346417294
 31
0.0
  0
ARC
  5
18D
100
AcDbEntity
  8
_Y__________
  6
CONTINUOUS
 62
         7
100
AcDbCircle
 10
1623.2833403763
 20
150.1846417294
 30
0.0
 40
31.775
100
AcDbArc
 50
195.411296411
 51
344.588703589
  0
ARC
  5
18E
100
AcDbEntity
  8
_Y__________
  6
CONTINUOUS
 62
         7
100
AcDbCircle
 10
1623.2833403763
 20
150.1846417294
 30
0.0
 40
31.775
100
AcDbArc
 50
15.411296411
 51
164.588703589
  0
LINE
  5
18F
100
AcDbEntity
  8
_Y__________
  6
CENTER
 62
         1
100
AcDbLine
 10
1623.2833403763
 20
184.9596417294
 30
0.0
 11
1623.2833403763
 21
115.4096417294
 31
0.0
  0
ARC
  5
190
100
AcDbEntity
  8
_Y__________
  6
DASHED
 62
         2
100
AcDbCircle
 10
1623.2833403763
 20
150.1846417294
 30
0.0
 40
28.125
100
AcDbArc
 50
16.6319205355
 51
163.3680794645
  0
ARC
  5
191
100
AcDbEntity
  8
_Y__________
  6
DASHED
 62
         2
100
AcDbCircle
 10
1623.2833403763
 20
150.1846417294
 30
0.0
 40
28.125
100
AcDbArc
 50
198.3406919436
 51
343.3680794645
  0
LINE
  5
192
100
AcDbEntity
  8
_Y__________
  6
CONTINUOUS
 62
         7
100
AcDbLine
 10
1646.0833403763
 20
157.7346417294
 30
0.0
 11
1646.0833403763
 21
142.6346417294
 31
0.0
  0
LINE
  5
193
100
AcDbEntity
  8
_Y__________
  6
CONTINUOUS
 62
         7
100
AcDbLine
 10
1646.0833403763
 20
157.7346417294
 30
0.0
 11
1646.5833403763
 21
158.2346417294
 31
0.0
  0
LINE
  5
194
100
AcDbEntity
  8
_Y__________
  6
CONTINUOUS
 62
         7
100
AcDbLine
 10
1646.5833403763
 20
158.2346417294
 30
0.0
 11
1653.5217223278
 21
158.2346417294
 31
0.0
  0
LINE
  5
195
100
AcDbEntity
  8
_Y__________
  6
CONTINUOUS
 62
         7
100
AcDbLine
 10
1653.915807609
 20
158.6287270106
 30
0.0
 11
1653.5217223278
 21
158.2346417294
 31
0.0
  0
LINE
  5
196
100
AcDbEntity
  8
_Y__________
  6
CONTINUOUS
 62
         7
100
AcDbLine
 10
1646.5833403763
 20
142.1346417294
 30
0.0
 11
1653.5217223278
 21
142.1346417294
 31
0.0
  0
LINE
  5
197
100
AcDbEntity
  8
_Y__________
  6
CONTINUOUS
 62
         7
100
AcDbLine
 10
1646.0833403763
 20
142.6346417294
 30
0.0
 11
1646.5833403763
 21
142.1346417294
 31
0.0
  0
LINE
  5
198
100
AcDbEntity
  8
_Y__________
  6
CONTINUOUS
 62
         7
100
AcDbLine
 10
1653.915807609
 20
141.7405564482
 30
0.0
 11
1653.5217223278
 21
142.1346417294
 31
0.0
  0
LINE
  5
199
100
AcDbEntity
  8
_Y__________
  6
CONTINUOUS
 62
         7
100
AcDbLine
 10
1593.0449584247
 20
158.2346417294
 30
0.0
 11
1597.7833403762
 21
158.2346417294
 31
0.0
  0
LINE
  5
19A
100
AcDbEntity
  8
_Y__________
  6
CONTINUOUS
 62
         7
100
AcDbLine
 10
1598.2833403762
 20
157.7346417294
 30
0.0
 11
1598.2833403762
 21
142.6346417294
 31
0.0
  0
LINE
  5
19B
100
AcDbEntity
  8
_Y__________
  6
CONTINUOUS
 62
         7
100
AcDbLine
 10
1598.2833403762
 20
157.7346417294
 30
0.0
 11
1597.7833403762
 21
158.2346417294
 31
0.0
  0
LINE
  5
19C
100
AcDbEntity
  8
_Y__________
  6
CONTINUOUS
 62
         7
100
AcDbLine
 10
1592.6508731435
 20
158.6287270106
 30
0.0
 11
1593.0449584247
 21
158.2346417294
 31
0.0
  0
LINE
  5
19D
100
AcDbEntity
  8
_Y__________
  6
CONTINUOUS
 62
         7
100
AcDbLine
 10
1598.2833403762
 20
142.6346417294
 30
0.0
 11
1597.7833403762
 21
142.1346417294
 31
0.0
  0
LINE
  5
19E
100
AcDbEntity
  8
_Y__________
  6
CONTINUOUS
 62
         7
100
AcDbLine
 10
1592.6508731435
 20
141.7405564482
 30
0.0
 11
1593.0449584247
 21
142.1346417294
 31
0.0
  0
LINE
  5
19F
100
AcDbEntity
  8
_Y__________
  6
CONTINUOUS
 62
         7
100
AcDbLine
 10
1593.0449584247
 20
142.1346417294
 30
0.0
 11
1597.7833403762
 21
142.1346417294
 31
0.0
  0
LINE
  5
1A0
100
AcDbEntity
  8
_Y__________
  6
CENTER
 62
         1
100
AcDbLine
 10
1596.790952795
 20
150.1846417294
 30
0.0
 11
1650.7694097755
 21
150.1846417294
 31
0.0
  0
LINE
  5
1A1
100
AcDbEntity
  8
_Y__________
  6
CENTER
 62
         1
100
AcDbLine
 10
1183.1483403763
 20
150.1846417294
 30
0.0
 11
1246.6983403763
 21
150.1846417294
 31
0.0
  0
ARC
  5
1A2
100
AcDbEntity
  8
_Y__________
  6
CONTINUOUS
 62
         7
100
AcDbCircle
 10
1214.9233403763
 20
150.1846417294
 30
0.0
 40
31.775
100
AcDbArc
 50
195.411296411
 51
344.588703589
  0
ARC
  5
1A3
100
AcDbEntity
  8
_Y__________
  6
CONTINUOUS
 62
         7
100
AcDbCircle
 10
1214.9233403763
 20
150.1846417294
 30
0.0
 40
31.775
100
AcDbArc
 50
15.411296411
 51
164.588703589
  0
LINE
  5
1A4
100
AcDbEntity
  8
_Y__________
  6
CENTER
 62
         1
100
AcDbLine
 10
1214.9233403763
 20
114.5732894966
 30
0.0
 11
1214.9233403763
 21
185.4173498279
 31
0.0
  0
CIRCLE
  5
1A5
100
AcDbEntity
  8
_Y__________
  6
CONTINUOUS
 62
         7
100
AcDbCircle
 10
1214.9233403763
 20
150.1846417294
 30
0.0
 40
12.7165768873
  0
CIRCLE
  5
1A6
100
AcDbEntity
  8
_Y__________
  6
CONTINUOUS
 62
         7
100
AcDbCircle
 10
1214.9233403763
 20
150.1846417294
 30
0.0
 40
7.0
  0
ARC
  5
1A7
100
AcDbEntity
  8
_Y__________
  6
CONTINUOUS
 62
         5
100
AcDbCircle
 10
1214.9233403763
 20
150.1846417294
 30
0.0
 40
8.0
100
AcDbArc
 50
352.9901372228
 51
621.2264515101
  0
CIRCLE
  5
1A8
100
AcDbEntity
  8
_Y__________
  6
CONTINUOUS
 62
         7
100
AcDbCircle
 10
1214.9233403763
 20
150.1846417294
 30
0.0
 40
9.5
  0
CIRCLE
  5
1A9
100
AcDbEntity
  8
_Y__________
  6
CONTINUOUS
 62
         7
100
AcDbCircle
 10
1214.9233403763
 20
150.1846417294
 30
0.0
 40
8.5
  0
CIRCLE
  5
1AA
100
AcDbEntity
  8
_Y__________
  6
CONTINUOUS
 62
         7
100
AcDbCircle
 10
1214.9233403763
 20
150.1846417294
 30
0.0
 40
22.225
  0
LINE
  5
1AB
100
AcDbEntity
  8
_Y__________
  6
CONTINUOUS
 62
         7
100
AcDbLine
 10
1245.1617223278
 20
158.2346417294
 30
0.0
 11
1240.4233403763
 21
158.2346417294
 31
0.0
  0
LINE
  5
1AC
100
AcDbEntity
  8
_Y__________
  6
CONTINUOUS
 62
         7
100
AcDbLine
 10
1245.555807609
 20
158.6287270106
 30
0.0
 11
1245.1617223278
 21
158.2346417294
 31
0.0
  0
LINE
  5
1AD
100
AcDbEntity
  8
_Y__________
  6
CONTINUOUS
 62
         7
100
AcDbLine
 10
1239.9233403763
 20
157.7346417294
 30
0.0
 11
1240.4233403763
 21
158.2346417294
 31
0.0
  0
LINE
  5
1AE
100
AcDbEntity
  8
_Y__________
  6
CONTINUOUS
 62
         7
100
AcDbLine
 10
1245.555807609
 20
141.7405564482
 30
0.0
 11
1245.1617223278
 21
142.1346417294
 31
0.0
  0
LINE
  5
1AF
100
AcDbEntity
  8
_Y__________
  6
CONTINUOUS
 62
         7
100
AcDbLine
 10
1239.9233403763
 20
142.6346417294
 30
0.0
 11
1240.4233403763
 21
142.1346417294
 31
0.0
  0
LINE
  5
1B0
100
AcDbEntity
  8
_Y__________
  6
CONTINUOUS
 62
         7
100
AcDbLine
 10
1239.9233403763
 20
142.6346417294
 30
0.0
 11
1239.9233403763
 21
157.7346417294
 31
0.0
  0
LINE
  5
1B1
100
AcDbEntity
  8
_Y__________
  6
CONTINUOUS
 62
         7
100
AcDbLine
 10
1245.1617223278
 20
142.1346417294
 30
0.0
 11
1240.4233403763
 21
142.1346417294
 31
0.0
  0
LINE
  5
1B2
100
AcDbEntity
  8
_Y__________
  6
CONTINUOUS
 62
         7
100
AcDbLine
 10
1184.2908731435
 20
158.6287270106
 30
0.0
 11
1184.6849584247
 21
158.2346417294
 31
0.0
  0
LINE
  5
1B3
100
AcDbEntity
  8
_Y__________
  6
CONTINUOUS
 62
         7
100
AcDbLine
 10
1192.1233403763
 20
157.7346417294
 30
0.0
 11
1191.6233403763
 21
158.2346417294
 31
0.0
  0
LINE
  5
1B4
100
AcDbEntity
  8
_Y__________
  6
CONTINUOUS
 62
         7
100
AcDbLine
 10
1191.6233403763
 20
158.2346417294
 30
0.0
 11
1184.6849584247
 21
158.2346417294
 31
0.0
  0
LINE
  5
1B5
100
AcDbEntity
  8
_Y__________
  6
CONTINUOUS
 62
         7
100
AcDbLine
 10
1184.2908731435
 20
141.7405564482
 30
0.0
 11
1184.6849584247
 21
142.1346417294
 31
0.0
  0
LINE
  5
1B6
100
AcDbEntity
  8
_Y__________
  6
CONTINUOUS
 62
         7
100
AcDbLine
 10
1191.6233403763
 20
142.1346417294
 30
0.0
 11
1184.6849584247
 21
142.1346417294
 31
0.0
  0
LINE
  5
1B7
100
AcDbEntity
  8
_Y__________
  6
CONTINUOUS
 62
         7
100
AcDbLine
 10
1192.1233403763
 20
142.6346417294
 30
0.0
 11
1191.6233403763
 21
142.1346417294
 31
0.0
  0
LINE
  5
1B8
100
AcDbEntity
  8
_Y__________
  6
CONTINUOUS
 62
         7
100
AcDbLine
 10
1192.1233403763
 20
142.6346417294
 30
0.0
 11
1192.1233403763
 21
157.7346417294
 31
0.0
  0
ARC
  5
1B9
100
AcDbEntity
  8
_Y__________
  6
CONTINUOUS
 62
         7
100
AcDbCircle
 10
1434.2553403763
 20
128.6996417294
 30
0.0
 40
0.8
100
AcDbArc
 50
269.9999999999
 51
360.0
  0
LINE
  5
1BA
100
AcDbEntity
  8
_Y__________
  6
CONTINUOUS
 62
         7
100
AcDbLine
 10
1419.6033403763
 20
127.8996417294
 30
0.0
 11
1434.2553403763
 21
127.8996417294
 31
0.0
  0
ARC
  5
1BB
100
AcDbEntity
  8
_Y__________
  6
CONTINUOUS
 62
         7
100
AcDbCircle
 10
1434.2553403763
 20
8.5416652593
 30
0.0
 40
0.8
100
AcDbArc
 50
0.0
 51
90.0000000003
  0
LINE
  5
1BC
100
AcDbEntity
  8
_Y__________
  6
CONTINUOUS
 62
         7
100
AcDbLine
 10
1435.0553403763
 20
8.5416652593
 30
0.0
 11
1435.0553403763
 21
6.0566652593
 31
0.0
  0
ARC
  5
1BD
100
AcDbEntity
  8
_Y__________
  6
CONTINUOUS
 62
         7
100
AcDbCircle
 10
1434.2553403763
 20
-34.4283347407
 30
0.0
 40
0.8
100
AcDbArc
 50
269.9999999999
 51
360.0
  0
LINE
  5
1BE
100
AcDbEntity
  8
_Y__________
  6
CONTINUOUS
 62
         7
100
AcDbLine
 10
1435.0553403763
 20
-31.9433347407
 30
0.0
 11
1435.0553403763
 21
-34.4283347407
 31
0.0
  0
LINE
  5
1BF
100
AcDbEntity
  8
_Y__________
  6
CONTINUOUS
 62
         7
100
AcDbLine
 10
1331.7533403763
 20
161.4188234458
 30
0.0
 11
1331.7533403763
 21
138.9504600129
 31
0.0
  0
ARC
  5
1C0
100
AcDbEntity
  8
_Y__________
  6
CONTINUOUS
 62
         7
100
AcDbCircle
 10
1332.9533403763
 20
161.4188234458
 30
0.0
 40
1.2
100
AcDbArc
 50
98.2971449698
 51
180.0
  0
ARC
  5
1C1
100
AcDbEntity
  8
_Y__________
  6
CONTINUOUS
 62
         7
100
AcDbCircle
 10
1332.9533403763
 20
138.9504600129
 30
0.0
 40
1.2
100
AcDbArc
 50
180.0
 51
261.7028550302
  0
LINE
  5
1C2
100
AcDbEntity
  8
_Y__________
  6
CONTINUOUS
 62
         7
100
AcDbLine
 10
1331.7533403763
 20
-1.7091530242
 30
0.0
 11
1331.7533403763
 21
-24.1775164571
 31
0.0
  0
ARC
  5
1C3
100
AcDbEntity
  8
_Y__________
  6
CONTINUOUS
 62
         7
100
AcDbCircle
 10
1332.9533403763
 20
-1.7091530242
 30
0.0
 40
1.2
100
AcDbArc
 50
98.2971449698
 51
180.0
  0
ARC
  5
1C4
100
AcDbEntity
  8
_Y__________
  6
CONTINUOUS
 62
         7
100
AcDbCircle
 10
1332.9533403763
 20
-24.1775164571
 30
0.0
 40
1.2
100
AcDbArc
 50
180.0
 51
261.7028550302
  0
LINE
  5
1C5
100
AcDbEntity
  8
_Y__________
  6
CONTINUOUS
 62
         7
100
AcDbLine
 10
1360.2033403763
 20
-4.9433347407
 30
0.0
 11
1360.2033403763
 21
-20.9433347407
 31
0.0
  0
LINE
  5
1C6
100
AcDbEntity
  8
_Y__________
  6
CONTINUOUS
 62
         5
100
AcDbLine
 10
1336.6561830887
 20
-20.9433347407
 30
0.0
 11
1360.2033403763
 21
-20.9433347407
 31
0.0
  0
ARC
  5
1C7
100
AcDbEntity
  8
_Y__________
  6
CONTINUOUS
 62
         7
100
AcDbCircle
 10
1332.7533403763
 20
-22.0933347407
 30
0.0
 40
1.0
100
AcDbArc
 50
90.0
 51
180.0
  0
LINE
  5
1C8
100
AcDbEntity
  8
_Y__________
  6
CONTINUOUS
 62
         7
100
AcDbLine
 10
1332.7533403763
 20
-21.0933347407
 30
0.0
 11
1335.5233403763
 21
-21.0933347407
 31
0.0
  0
LINE
  5
1C9
100
AcDbEntity
  8
_Y__________
  6
CONTINUOUS
 62
         7
100
AcDbLine
 10
1335.8711121475
 20
-21.1865199059
 30
0.0
 11
1335.5233403763
 21
-21.0933347407
 31
0.0
  0
LINE
  5
1CA
100
AcDbEntity
  8
_Y__________
  6
CONTINUOUS
 62
         7
100
AcDbLine
 10
1335.9228759565
 20
-21.1933347407
 30
0.0
 11
1336.3233403763
 21
-21.1933347407
 31
0.0
  0
ARC
  5
1CB
100
AcDbEntity
  8
_Y__________
  6
CONTINUOUS
 62
         7
100
AcDbCircle
 10
1336.3233403763
 20
-20.9933347407
 30
0.0
 40
0.2
100
AcDbArc
 50
270.0
 51
314.9999999962
  0
LINE
  5
1CC
100
AcDbEntity
  8
_Y__________
  6
CONTINUOUS
 62
         7
100
AcDbLine
 10
1336.4647617325
 20
-21.1347560969
 30
0.0
 11
1337.6561830887
 21
-19.9433347407
 31
0.0
  0
LINE
  5
1CD
100
AcDbEntity
  8
_Y__________
  6
CONTINUOUS
 62
         7
100
AcDbLine
 10
1337.6561830887
 20
-19.9433347407
 30
0.0
 11
1360.2033403763
 21
-19.9433347407
 31
0.0
  0
LINE
  5
1CE
100
AcDbEntity
  8
_Y__________
  6
CONTINUOUS
 62
         7
100
AcDbLine
 10
1337.6561830887
 20
-5.9433347407
 30
0.0
 11
1337.6561830887
 21
-19.9433347407
 31
0.0
  0
LINE
  5
1CF
100
AcDbEntity
  8
_Y__________
  6
CONTINUOUS
 62
         7
100
AcDbLine
 10
1337.6561830887
 20
-5.9433347407
 30
0.0
 11
1360.2033403763
 21
-5.9433347407
 31
0.0
  0
LINE
  5
1D0
100
AcDbEntity
  8
_Y__________
  6
CONTINUOUS
 62
         5
100
AcDbLine
 10
1336.6561830887
 20
-4.9433347407
 30
0.0
 11
1360.2033403763
 21
-4.9433347407
 31
0.0
  0
LINE
  5
1D1
100
AcDbEntity
  8
_Y__________
  6
CONTINUOUS
 62
         7
100
AcDbLine
 10
1335.5233403763
 20
-4.7933347407
 30
0.0
 11
1335.5233403763
 21
-21.0933347407
 31
0.0
  0
LINE
  5
1D2
100
AcDbEntity
  8
_Y__________
  6
CONTINUOUS
 62
         7
100
AcDbLine
 10
1336.5233403763
 20
-5.1498119
 30
0.0
 11
1336.5233403763
 21
-20.6220880762
 31
0.0
  0
ARC
  5
1D3
100
AcDbEntity
  8
_Y__________
  6
CONTINUOUS
 62
         7
100
AcDbCircle
 10
1336.3233403763
 20
-4.8933347407
 30
0.0
 40
0.2
100
AcDbArc
 50
45.0000000038
 51
90.0
  0
LINE
  5
1D4
100
AcDbEntity
  8
_Y__________
  6
CONTINUOUS
 62
         7
100
AcDbLine
 10
1336.4647617325
 20
-4.7519133844
 30
0.0
 11
1337.6561830887
 21
-5.9433347407
 31
0.0
  0
LINE
  5
1D5
100
AcDbEntity
  8
_Y__________
  6
CONTINUOUS
 62
         7
100
AcDbLine
 10
1335.9228759565
 20
-4.6933347407
 30
0.0
 11
1336.3233403763
 21
-4.6933347407
 31
0.0
  0
LINE
  5
1D6
100
AcDbEntity
  8
_Y__________
  6
CONTINUOUS
 62
         7
100
AcDbLine
 10
1335.8711121475
 20
-4.7001495754
 30
0.0
 11
1335.5233403763
 21
-4.7933347407
 31
0.0
  0
ARC
  5
1D7
100
AcDbEntity
  8
_Y__________
  6
CONTINUOUS
 62
         7
100
AcDbCircle
 10
1335.9228759565
 20
-4.8933347407
 30
0.0
 40
0.2
100
AcDbArc
 50
90.0
 51
105.0
  0
LINE
  5
1D8
100
AcDbEntity
  8
_Y__________
  6
CONTINUOUS
 62
         7
100
AcDbLine
 10
1332.7533403763
 20
-4.7933347407
 30
0.0
 11
1335.5233403763
 21
-4.7933347407
 31
0.0
  0
ARC
  5
1D9
100
AcDbEntity
  8
_Y__________
  6
CONTINUOUS
 62
         7
100
AcDbCircle
 10
1332.7533403763
 20
-3.7933347407
 30
0.0
 40
1.0
100
AcDbArc
 50
180.0
 51
270.0
  0
LINE
  5
1DA
100
AcDbEntity
  8
_X______
  6
CONTINUOUS
 62
         7
100
AcDbLine
 10
1403.2033403763
 20
11.6151160818
 30
0.0
 11
1405.5263249435
 21
14.9326818612
 31
0.0
  0
LINE
  5
1DB
100
AcDbEntity
  8
_X______
  6
CONTINUOUS
 62
         4
100
AcDbLine
 10
1403.2033403763
 20
11.6151160818
 30
0.0
 11
1407.2991005977
 21
8.7472339
 31
0.0
  0
LINE
  5
1DC
100
AcDbEntity
  8
_X______
  6
CONTINUOUS
 62
         7
100
AcDbLine
 10
1407.2991005977
 20
8.7472339
 30
0.0
 11
1409.5934063431
 21
12.0238420772
 31
0.0
  0
LINE
  5
1DD
100
AcDbEntity
  8
_X______
  6
CONTINUOUS
 62
         4
100
AcDbLine
 10
1405.4976461217
 20
14.891724259
 30
0.0
 11
1409.5934063431
 21
12.0238420772
 31
0.0
  0
LINE
  5
1DE
100
AcDbEntity
  8
_X______
  6
CONTINUOUS
 62
         7
100
AcDbLine
 10
1403.2033403763
 20
16.5592531663
 30
0.0
 11
1405.5263249435
 21
14.9326818612
 31
0.0
  0
LINE
  5
1DF
100
AcDbEntity
  8
_X______
  6
CENTER
 62
         1
100
AcDbLine
 10
1402.4927097209
 20
14.5542542011
 30
0.0
 11
1427.8388934926
 21
-3.1933347407
 31
0.0
  0
LINE
  5
1E0
100
AcDbEntity
  8
_X______
  6
CONTINUOUS
 62
         7
100
AcDbLine
 10
1403.404092129
 20
11.9018192973
 30
0.0
 11
1426.5503900761
 21
-4.3053930069
 31
0.0
  0
LINE
  5
1E1
100
AcDbEntity
  8
_X______
  6
CONTINUOUS
 62
         7
100
AcDbLine
 10
1405.2968943689
 20
14.6050210435
 30
0.0
 11
1430.7155807053
 21
-3.1933347407
 31
0.0
  0
LINE
  5
1E2
100
AcDbEntity
  8
_X______
  6
CENTER
 62
         1
100
AcDbLine
 10
1611.3895898921
 20
182.8624526172
 30
0.0
 11
1635.3242136355
 21
117.102614339
 31
0.0
  0
LINE
  5
1E3
100
AcDbEntity
  8
_X______
  6
CENTER
 62
         1
100
AcDbLine
 10
1227.1031401709
 20
183.6483666388
 30
0.0
 11
1202.8730445027
 21
117.0767259189
 31
0.0
  0
LINE
  5
1E4
100
AcDbEntity
  8
_X______
  6
CENTER
 62
         1
100
AcDbLine
 10
1208.5078743688
 20
123.7868805382
 30
0.0
 11
1202.8697186441
 21
125.8390013981
 31
0.0
  0
POLYLINE
  5
1E6
100
AcDbEntity
  8
_X______
  6
CONTINUOUS
 62
         7
100
AcDb3dPolyline
 66
         1
 10
0.0
 20
0.0
 30
0.0
 70
         8
  0
VERTEX
  5
1E8
100
AcDbEntity
  8
_X______
  6
CONTINUOUS
 62
         7
100
AcDbVertex
100
AcDb3dPolylineVertex
 10
1203.8094112649
 20
125.4969812548
 30
0.0
 70
        32
  0
VERTEX
  5
1EA
100
AcDbEntity
  8
_X______
  6
CONTINUOUS
 62
         7
100
AcDbVertex
100
AcDb3dPolylineVertex
 10
1203.8094112649
 20
125.4969812548
 30
0.0
 70
        32
  0
SEQEND
  5
1EC
100
AcDbEntity
  8
_X______
  6
CONTINUOUS
 62
         7
  0
ARC
  5
1ED
100
AcDbEntity
  8
_X______
  6
CONTINUOUS
 62
         7
100
AcDbCircle
 10
1206.6023903184
 20
124.4804200144
 30
0.0
 40
2.9722262277
100
AcDbArc
 50
141.257725858
 51
160.0
  0
POLYLINE
  5
1EF
100
AcDbEntity
  8
_X______
  6
CONTINUOUS
 62
         7
100
AcDb3dPolyline
 66
         1
 10
0.0
 20
0.0
 30
0.0
 70
         8
  0
VERTEX
  5
1F1
100
AcDbEntity
  8
_X______
  6
CONTINUOUS
 62
         7
100
AcDbVertex
100
AcDb3dPolylineVertex
 10
1204.2841463667
 20
126.340493596
 30
0.0
 70
        32
  0
VERTEX
  5
1F3
100
AcDbEntity
  8
_X______
  6
CONTINUOUS
 62
         7
100
AcDbVertex
100
AcDb3dPolylineVertex
 10
1204.2841463667
 20
126.340493596
 30
0.0
 70
        32
  0
SEQEND
  5
1F5
100
AcDbEntity
  8
_X______
  6
CONTINUOUS
 62
         7
  0
ARC
  5
1F6
100
AcDbEntity
  8
_X______
  6
CONTINUOUS
 62
         7
100
AcDbCircle
 10
1206.2103129629
 20
124.7950084469
 30
0.0
 40
2.4695428935
100
AcDbArc
 50
120.6773100904
 51
141.257725858
  0
POLYLINE
  5
1F8
100
AcDbEntity
  8
_X______
  6
CONTINUOUS
 62
         7
100
AcDb3dPolyline
 66
         1
 10
0.0
 20
0.0
 30
0.0
 70
         8
  0
VERTEX
  5
1FA
100
AcDbEntity
  8
_X______
  6
CONTINUOUS
 62
         7
100
AcDbVertex
100
AcDb3dPolylineVertex
 10
1204.950346339
 20
126.9189496442
 30
0.0
 70
        32
  0
VERTEX
  5
1FC
100
AcDbEntity
  8
_X______
  6
CONTINUOUS
 62
         7
100
AcDbVertex
100
AcDb3dPolylineVertex
 10
1204.950346339
 20
126.9189496442
 30
0.0
 70
        32
  0
SEQEND
  5
1FE
100
AcDbEntity
  8
_X______
  6
CONTINUOUS
 62
         7
  0
ARC
  5
1FF
100
AcDbEntity
  8
_X______
  6
CONTINUOUS
 62
         7
100
AcDbCircle
 10
1206.0105744318
 20
125.1317101395
 30
0.0
 40
2.0780540551
100
AcDbArc
 50
96.8239621528
 51
120.6773100904
  0
ARC
  5
200
100
AcDbEntity
  8
_X______
  6
CONTINUOUS
 62
         7
100
AcDbCircle
 10
1205.9596641031
 20
125.5571435737
 30
0.0
 40
1.6495853065
100
AcDbArc
 50
70.0
 51
96.8239621528
  0
POLYLINE
  5
202
100
AcDbEntity
  8
_X______
  6
CONTINUOUS
 62
         7
100
AcDb3dPolyline
 66
         1
 10
0.0
 20
0.0
 30
0.0
 70
         8
  0
VERTEX
  5
204
100
AcDbEntity
  8
_X______
  6
CONTINUOUS
 62
         7
100
AcDbVertex
100
AcDb3dPolylineVertex
 10
1206.5238555061
 20
127.1072467136
 30
0.0
 70
        32
  0
VERTEX
  5
206
100
AcDbEntity
  8
_X______
  6
CONTINUOUS
 62
         7
100
AcDbVertex
100
AcDb3dPolylineVertex
 10
1206.5238555061
 20
127.1072467136
 30
0.0
 70
        32
  0
SEQEND
  5
208
100
AcDbEntity
  8
_X______
  6
CONTINUOUS
 62
         7
  0
ARC
  5
209
100
AcDbEntity
  8
_X______
  6
CONTINUOUS
 62
         7
100
AcDbCircle
 10
1205.9596641031
 20
125.5571435737
 30
0.0
 40
1.6495853065
100
AcDbArc
 50
43.1760378472
 51
70.0
  0
POLYLINE
  5
20B
100
AcDbEntity
  8
_X______
  6
CONTINUOUS
 62
         7
100
AcDb3dPolyline
 66
         1
 10
0.0
 20
0.0
 30
0.0
 70
         8
  0
VERTEX
  5
20D
100
AcDbEntity
  8
_X______
  6
CONTINUOUS
 62
         7
100
AcDbVertex
100
AcDb3dPolylineVertex
 10
1207.1626321948
 20
126.6858594165
 30
0.0
 70
        32
  0
VERTEX
  5
20F
100
AcDbEntity
  8
_X______
  6
CONTINUOUS
 62
         7
100
AcDbVertex
100
AcDb3dPolylineVertex
 10
1207.1626321948
 20
126.6858594165
 30
0.0
 70
        32
  0
SEQEND
  5
211
100
AcDbEntity
  8
_X______
  6
CONTINUOUS
 62
         7
  0
POLYLINE
  5
213
100
AcDbEntity
  8
_X______
  6
CONTINUOUS
 62
         7
100
AcDb3dPolyline
 66
         1
 10
0.0
 20
0.0
 30
0.0
 70
         8
  0
VERTEX
  5
215
100
AcDbEntity
  8
_X______
  6
CONTINUOUS
 62
         7
100
AcDbVertex
100
AcDb3dPolylineVertex
 10
1207.7467128429
 20
125.0802224645
 30
0.0
 70
        32
  0
VERTEX
  5
217
100
AcDbEntity
  8
_X______
  6
CONTINUOUS
 62
         7
100
AcDbVertex
100
AcDb3dPolylineVertex
 10
1207.7467128429
 20
125.0802224645
 30
0.0
 70
        32
  0
SEQEND
  5
219
100
AcDbEntity
  8
_X______
  6
CONTINUOUS
 62
         7
  0
ARC
  5
21A
100
AcDbEntity
  8
_X______
  6
CONTINUOUS
 62
         7
100
AcDbCircle
 10
1204.7752026945
 20
125.1454619219
 30
0.0
 40
2.9722262277
100
AcDbArc
 50
339.9999999999
 51
358.742274142
  0
POLYLINE
  5
21C
100
AcDbEntity
  8
_X______
  6
CONTINUOUS
 62
         7
100
AcDb3dPolyline
 66
         1
 10
0.0
 20
0.0
 30
0.0
 70
         8
  0
VERTEX
  5
21E
100
AcDbEntity
  8
_X______
  6
CONTINUOUS
 62
         7
100
AcDbVertex
100
AcDb3dPolylineVertex
 10
1207.568181748
 20
124.1289006815
 30
0.0
 70
        32
  0
VERTEX
  5
220
100
AcDbEntity
  8
_X______
  6
CONTINUOUS
 62
         7
100
AcDbVertex
100
AcDb3dPolylineVertex
 10
1207.568181748
 20
124.1289006815
 30
0.0
 70
        32
  0
SEQEND
  5
222
100
AcDbEntity
  8
_X______
  6
CONTINUOUS
 62
         7
  0
ARC
  5
223
100
AcDbEntity
  8
_X______
  6
CONTINUOUS
 62
         7
100
AcDbCircle
 10
1204.7752026945
 20
125.1454619219
 30
0.0
 40
2.9722262277
100
AcDbArc
 50
321.257725858
 51
340.0
  0
POLYLINE
  5
225
100
AcDbEntity
  8
_X______
  6
CONTINUOUS
 62
         7
100
AcDb3dPolyline
 66
         1
 10
0.0
 20
0.0
 30
0.0
 70
         8
  0
VERTEX
  5
227
100
AcDbEntity
  8
_X______
  6
CONTINUOUS
 62
         7
100
AcDbVertex
100
AcDb3dPolylineVertex
 10
1207.0934466463
 20
123.2853883403
 30
0.0
 70
        32
  0
VERTEX
  5
229
100
AcDbEntity
  8
_X______
  6
CONTINUOUS
 62
         7
100
AcDbVertex
100
AcDb3dPolylineVertex
 10
1207.0934466463
 20
123.2853883403
 30
0.0
 70
        32
  0
SEQEND
  5
22B
100
AcDbEntity
  8
_X______
  6
CONTINUOUS
 62
         7
  0
ARC
  5
22C
100
AcDbEntity
  8
_X______
  6
CONTINUOUS
 62
         7
100
AcDbCircle
 10
1205.16728005
 20
124.8308734895
 30
0.0
 40
2.4695428935
100
AcDbArc
 50
300.6773100904
 51
321.2577258581
  0
POLYLINE
  5
22E
100
AcDbEntity
  8
_X______
  6
CONTINUOUS
 62
         7
100
AcDb3dPolyline
 66
         1
 10
0.0
 20
0.0
 30
0.0
 70
         8
  0
VERTEX
  5
230
100
AcDbEntity
  8
_X______
  6
CONTINUOUS
 62
         7
100
AcDbVertex
100
AcDb3dPolylineVertex
 10
1206.4272466739
 20
122.7069322922
 30
0.0
 70
        32
  0
VERTEX
  5
232
100
AcDbEntity
  8
_X______
  6
CONTINUOUS
 62
         7
100
AcDbVertex
100
AcDb3dPolylineVertex
 10
1206.4272466739
 20
122.7069322922
 30
0.0
 70
        32
  0
SEQEND
  5
234
100
AcDbEntity
  8
_X______
  6
CONTINUOUS
 62
         7
  0
ARC
  5
235
100
AcDbEntity
  8
_X______
  6
CONTINUOUS
 62
         7
100
AcDbCircle
 10
1205.3670185811
 20
124.4941717969
 30
0.0
 40
2.0780540551
100
AcDbArc
 50
276.8239621528
 51
300.6773100903
  0
POLYLINE
  5
237
100
AcDbEntity
  8
_X______
  6
CONTINUOUS
 62
         7
100
AcDb3dPolyline
 66
         1
 10
0.0
 20
0.0
 30
0.0
 70
         8
  0
VERTEX
  5
239
100
AcDbEntity
  8
_X______
  6
CONTINUOUS
 62
         7
100
AcDbVertex
100
AcDb3dPolylineVertex
 10
1205.6139313731
 20
122.4308388792
 30
0.0
 70
        32
  0
VERTEX
  5
23B
100
AcDbEntity
  8
_X______
  6
CONTINUOUS
 62
         7
100
AcDbVertex
100
AcDb3dPolylineVertex
 10
1205.6139313731
 20
122.4308388792
 30
0.0
 70
        32
  0
SEQEND
  5
23D
100
AcDbEntity
  8
_X______
  6
CONTINUOUS
 62
         7
  0
ARC
  5
23E
100
AcDbEntity
  8
_X______
  6
CONTINUOUS
 62
         7
100
AcDbCircle
 10
1205.4179289098
 20
124.0687383626
 30
0.0
 40
1.6495853065
100
AcDbArc
 50
250.0
 51
276.8239621528
  0
POLYLINE
  5
240
100
AcDbEntity
  8
_X______
  6
CONTINUOUS
 62
         7
100
AcDb3dPolyline
 66
         1
 10
0.0
 20
0.0
 30
0.0
 70
         8
  0
VERTEX
  5
242
100
AcDbEntity
  8
_X______
  6
CONTINUOUS
 62
         7
100
AcDbVertex
100
AcDb3dPolylineVertex
 10
1204.8537375068
 20
122.5186352228
 30
0.0
 70
        32
  0
VERTEX
  5
244
100
AcDbEntity
  8
_X______
  6
CONTINUOUS
 62
         7
100
AcDbVertex
100
AcDb3dPolylineVertex
 10
1204.8537375068
 20
122.5186352228
 30
0.0
 70
        32
  0
SEQEND
  5
246
100
AcDbEntity
  8
_X______
  6
CONTINUOUS
 62
         7
  0
ARC
  5
247
100
AcDbEntity
  8
_X______
  6
CONTINUOUS
 62
         7
100
AcDbCircle
 10
1205.4179289098
 20
124.0687383626
 30
0.0
 40
1.6495853065
100
AcDbArc
 50
223.1760378472
 51
250.0
  0
POLYLINE
  5
249
100
AcDbEntity
  8
_X______
  6
CONTINUOUS
 62
         7
100
AcDb3dPolyline
 66
         1
 10
0.0
 20
0.0
 30
0.0
 70
         8
  0
VERTEX
  5
24B
100
AcDbEntity
  8
_X______
  6
CONTINUOUS
 62
         7
100
AcDbVertex
100
AcDb3dPolylineVertex
 10
1204.2149608181
 20
122.9400225198
 30
0.0
 70
        32
  0
VERTEX
  5
24D
100
AcDbEntity
  8
_X______
  6
CONTINUOUS
 62
         7
100
AcDbVertex
100
AcDb3dPolylineVertex
 10
1204.2149608181
 20
122.9400225198
 30
0.0
 70
        32
  0
SEQEND
  5
24F
100
AcDbEntity
  8
_X______
  6
CONTINUOUS
 62
         7
  0
ARC
  5
250
100
AcDbEntity
  8
_X______
  6
CONTINUOUS
 62
         7
100
AcDbCircle
 10
1205.7303918245
 20
124.3619147524
 30
0.0
 40
2.0780540551
100
AcDbArc
 50
199.3226899096
 51
223.1760378473
  0
ARC
  5
251
100
AcDbEntity
  8
_X______
  6
CONTINUOUS
 62
         7
100
AcDbCircle
 10
1206.0998280924
 20
124.49145376
 30
0.0
 40
2.4695428935
100
AcDbArc
 50
178.742274142
 51
199.3226899096
  0
ARC
  5
252
100
AcDbEntity
  8
_X______
  6
CONTINUOUS
 62
         7
100
AcDbCircle
 10
1206.6023903184
 20
124.4804200144
 30
0.0
 40
2.9722262277
100
AcDbArc
 50
160.0
 51
178.742274142
  0
ARC
  5
253
100
AcDbEntity
  8
_X______
  6
CONTINUOUS
 62
         7
100
AcDbCircle
 10
1205.2777649205
 20
125.1344281764
 30
0.0
 40
2.4695428935
100
AcDbArc
 50
358.742274142
 51
379.3226899097
  0
ARC
  5
254
100
AcDbEntity
  8
_X______
  6
CONTINUOUS
 62
         7
100
AcDbCircle
 10
1205.6472011885
 20
125.263967184
 30
0.0
 40
2.0780540551
100
AcDbArc
 50
19.3226899096
 51
43.1760378472
  0
POLYLINE
  5
256
100
AcDbEntity
  8
_X______
  6
CONTINUOUS
 62
         7
100
AcDb3dPolyline
 66
         1
 10
0.0
 20
0.0
 30
0.0
 70
         8
  0
VERTEX
  5
258
100
AcDbEntity
  8
_X______
  6
CONTINUOUS
 62
         7
100
AcDbVertex
100
AcDb3dPolylineVertex
 10
1222.2784990045
 20
176.2403827773
 30
0.0
 70
        32
  0
VERTEX
  5
25A
100
AcDbEntity
  8
_X______
  6
CONTINUOUS
 62
         7
100
AcDbVertex
100
AcDb3dPolylineVertex
 10
1222.2784990045
 20
176.2403827773
 30
0.0
 70
        32
  0
SEQEND
  5
25C
100
AcDbEntity
  8
_X______
  6
CONTINUOUS
 62
         7
  0
ARC
  5
25D
100
AcDbEntity
  8
_X______
  6
CONTINUOUS
 62
         7
100
AcDbCircle
 10
1225.071478058
 20
175.2238215369
 30
0.0
 40
2.9722262277
100
AcDbArc
 50
160.0
 51
178.7422741421
  0
POLYLINE
  5
25F
100
AcDbEntity
  8
_X______
  6
CONTINUOUS
 62
         7
100
AcDb3dPolyline
 66
         1
 10
0.0
 20
0.0
 30
0.0
 70
         8
  0
VERTEX
  5
261
100
AcDbEntity
  8
_X______
  6
CONTINUOUS
 62
         7
100
AcDbVertex
100
AcDb3dPolylineVertex
 10
1222.0999679096
 20
175.2890609943
 30
0.0
 70
        32
  0
VERTEX
  5
263
100
AcDbEntity
  8
_X______
  6
CONTINUOUS
 62
         7
100
AcDbVertex
100
AcDb3dPolylineVertex
 10
1222.0999679096
 20
175.2890609943
 30
0.0
 70
        32
  0
SEQEND
  5
265
100
AcDbEntity
  8
_X______
  6
CONTINUOUS
 62
         7
  0
ARC
  5
266
100
AcDbEntity
  8
_X______
  6
CONTINUOUS
 62
         7
100
AcDbCircle
 10
1224.568915832
 20
175.2348552824
 30
0.0
 40
2.4695428935
100
AcDbArc
 50
178.7422741421
 51
199.3226899097
  0
POLYLINE
  5
268
100
AcDbEntity
  8
_X______
  6
CONTINUOUS
 62
         7
100
AcDb3dPolyline
 66
         1
 10
0.0
 20
0.0
 30
0.0
 70
         8
  0
VERTEX
  5
26A
100
AcDbEntity
  8
_X______
  6
CONTINUOUS
 62
         7
100
AcDbVertex
100
AcDb3dPolylineVertex
 10
1222.2384823159
 20
174.4177128652
 30
0.0
 70
        32
  0
VERTEX
  5
26C
100
AcDbEntity
  8
_X______
  6
CONTINUOUS
 62
         7
100
AcDbVertex
100
AcDb3dPolylineVertex
 10
1222.2384823159
 20
174.4177128652
 30
0.0
 70
        32
  0
SEQEND
  5
26E
100
AcDbEntity
  8
_X______
  6
CONTINUOUS
 62
         7
  0
ARC
  5
26F
100
AcDbEntity
  8
_X______
  6
CONTINUOUS
 62
         7
100
AcDbCircle
 10
1224.199479564
 20
175.1053162748
 30
0.0
 40
2.0780540551
100
AcDbArc
 50
199.3226899097
 51
223.1760378473
  0
POLYLINE
  5
271
100
AcDbEntity
  8
_X______
  6
CONTINUOUS
 62
         7
100
AcDb3dPolyline
 66
         1
 10
0.0
 20
0.0
 30
0.0
 70
         8
  0
VERTEX
  5
273
100
AcDbEntity
  8
_X______
  6
CONTINUOUS
 62
         7
100
AcDbVertex
100
AcDb3dPolylineVertex
 10
1222.6840485577
 20
173.6834240423
 30
0.0
 70
        32
  0
VERTEX
  5
275
100
AcDbEntity
  8
_X______
  6
CONTINUOUS
 62
         7
100
AcDbVertex
100
AcDb3dPolylineVertex
 10
1222.6840485577
 20
173.6834240423
 30
0.0
 70
        32
  0
SEQEND
  5
277
100
AcDbEntity
  8
_X______
  6
CONTINUOUS
 62
         7
  0
ARC
  5
278
100
AcDbEntity
  8
_X______
  6
CONTINUOUS
 62
         7
100
AcDbCircle
 10
1223.8870166494
 20
174.8121398851
 30
0.0
 40
1.6495853065
100
AcDbArc
 50
223.1760378472
 51
249.9999999999
  0
POLYLINE
  5
27A
100
AcDbEntity
  8
_X______
  6
CONTINUOUS
 62
         7
100
AcDb3dPolyline
 66
         1
 10
0.0
 20
0.0
 30
0.0
 70
         8
  0
VERTEX
  5
27C
100
AcDbEntity
  8
_X______
  6
CONTINUOUS
 62
         7
100
AcDbVertex
100
AcDb3dPolylineVertex
 10
1223.3228252464
 20
173.2620367452
 30
0.0
 70
        32
  0
VERTEX
  5
27E
100
AcDbEntity
  8
_X______
  6
CONTINUOUS
 62
         7
100
AcDbVertex
100
AcDb3dPolylineVertex
 10
1223.3228252464
 20
173.2620367452
 30
0.0
 70
        32
  0
SEQEND
  5
280
100
AcDbEntity
  8
_X______
  6
CONTINUOUS
 62
         7
  0
ARC
  5
281
100
AcDbEntity
  8
_X______
  6
CONTINUOUS
 62
         7
100
AcDbCircle
 10
1223.8870166494
 20
174.8121398851
 30
0.0
 40
1.6495853065
100
AcDbArc
 50
250.0
 51
276.8239621528
  0
POLYLINE
  5
283
100
AcDbEntity
  8
_X______
  6
CONTINUOUS
 62
         7
100
AcDb3dPolyline
 66
         1
 10
0.0
 20
0.0
 30
0.0
 70
         8
  0
VERTEX
  5
285
100
AcDbEntity
  8
_X______
  6
CONTINUOUS
 62
         7
100
AcDbVertex
100
AcDb3dPolylineVertex
 10
1224.0830191126
 20
173.1742404017
 30
0.0
 70
        32
  0
VERTEX
  5
287
100
AcDbEntity
  8
_X______
  6
CONTINUOUS
 62
         7
100
AcDbVertex
100
AcDb3dPolylineVertex
 10
1224.0830191126
 20
173.1742404017
 30
0.0
 70
        32
  0
SEQEND
  5
289
100
AcDbEntity
  8
_X______
  6
CONTINUOUS
 62
         7
  0
ARC
  5
28A
100
AcDbEntity
  8
_X______
  6
CONTINUOUS
 62
         7
100
AcDbCircle
 10
1223.8361063207
 20
175.2375733193
 30
0.0
 40
2.0780540551
100
AcDbArc
 50
276.8239621528
 51
300.6773100904
  0
POLYLINE
  5
28C
100
AcDbEntity
  8
_X______
  6
CONTINUOUS
 62
         7
100
AcDb3dPolyline
 66
         1
 10
0.0
 20
0.0
 30
0.0
 70
         8
  0
VERTEX
  5
28E
100
AcDbEntity
  8
_X______
  6
CONTINUOUS
 62
         7
100
AcDbVertex
100
AcDb3dPolylineVertex
 10
1224.8963344135
 20
173.4503338146
 30
0.0
 70
        32
  0
VERTEX
  5
290
100
AcDbEntity
  8
_X______
  6
CONTINUOUS
 62
         7
100
AcDbVertex
100
AcDb3dPolylineVertex
 10
1224.8963344135
 20
173.4503338146
 30
0.0
 70
        32
  0
SEQEND
  5
292
100
AcDbEntity
  8
_X______
  6
CONTINUOUS
 62
         7
  0
ARC
  5
293
100
AcDbEntity
  8
_X______
  6
CONTINUOUS
 62
         7
100
AcDbCircle
 10
1223.6363677896
 20
175.5742750119
 30
0.0
 40
2.4695428935
100
AcDbArc
 50
300.6773100903
 51
321.257725858
  0
POLYLINE
  5
295
100
AcDbEntity
  8
_X______
  6
CONTINUOUS
 62
         7
100
AcDb3dPolyline
 66
         1
 10
0.0
 20
0.0
 30
0.0
 70
         8
  0
VERTEX
  5
297
100
AcDbEntity
  8
_X______
  6
CONTINUOUS
 62
         7
100
AcDbVertex
100
AcDb3dPolylineVertex
 10
1225.5625343858
 20
174.0287898627
 30
0.0
 70
        32
  0
VERTEX
  5
299
100
AcDbEntity
  8
_X______
  6
CONTINUOUS
 62
         7
100
AcDbVertex
100
AcDb3dPolylineVertex
 10
1225.5625343858
 20
174.0287898627
 30
0.0
 70
        32
  0
SEQEND
  5
29B
100
AcDbEntity
  8
_X______
  6
CONTINUOUS
 62
         7
  0
ARC
  5
29C
100
AcDbEntity
  8
_X______
  6
CONTINUOUS
 62
         7
100
AcDbCircle
 10
1223.2442904341
 20
175.8888634444
 30
0.0
 40
2.9722262277
100
AcDbArc
 50
321.257725858
 51
340.0
  0
POLYLINE
  5
29E
100
AcDbEntity
  8
_X______
  6
CONTINUOUS
 62
         7
100
AcDb3dPolyline
 66
         1
 10
0.0
 20
0.0
 30
0.0
 70
         8
  0
VERTEX
  5
2A0
100
AcDbEntity
  8
_X______
  6
CONTINUOUS
 62
         7
100
AcDbVertex
100
AcDb3dPolylineVertex
 10
1226.0372694876
 20
174.872302204
 30
0.0
 70
        32
  0
VERTEX
  5
2A2
100
AcDbEntity
  8
_X______
  6
CONTINUOUS
 62
         7
100
AcDbVertex
100
AcDb3dPolylineVertex
 10
1226.0372694876
 20
174.872302204
 30
0.0
 70
        32
  0
SEQEND
  5
2A4
100
AcDbEntity
  8
_X______
  6
CONTINUOUS
 62
         7
  0
ARC
  5
2A5
100
AcDbEntity
  8
_X______
  6
CONTINUOUS
 62
         7
100
AcDbCircle
 10
1223.2442904341
 20
175.8888634444
 30
0.0
 40
2.9722262277
100
AcDbArc
 50
339.9999999999
 51
358.742274142
  0
POLYLINE
  5
2A7
100
AcDbEntity
  8
_X______
  6
CONTINUOUS
 62
         7
100
AcDb3dPolyline
 66
         1
 10
0.0
 20
0.0
 30
0.0
 70
         8
  0
VERTEX
  5
2A9
100
AcDbEntity
  8
_X______
  6
CONTINUOUS
 62
         7
100
AcDbVertex
100
AcDb3dPolylineVertex
 10
1226.2158005825
 20
175.823623987
 30
0.0
 70
        32
  0
VERTEX
  5
2AB
100
AcDbEntity
  8
_X______
  6
CONTINUOUS
 62
         7
100
AcDbVertex
100
AcDb3dPolylineVertex
 10
1226.2158005825
 20
175.823623987
 30
0.0
 70
        32
  0
SEQEND
  5
2AD
100
AcDbEntity
  8
_X______
  6
CONTINUOUS
 62
         7
  0
ARC
  5
2AE
100
AcDbEntity
  8
_X______
  6
CONTINUOUS
 62
         7
100
AcDbCircle
 10
1223.7468526601
 20
175.8778296988
 30
0.0
 40
2.4695428935
100
AcDbArc
 50
358.742274142
 51
379.3226899097
  0
POLYLINE
  5
2B0
100
AcDbEntity
  8
_X______
  6
CONTINUOUS
 62
         7
100
AcDb3dPolyline
 66
         1
 10
0.0
 20
0.0
 30
0.0
 70
         8
  0
VERTEX
  5
2B2
100
AcDbEntity
  8
_X______
  6
CONTINUOUS
 62
         7
100
AcDbVertex
100
AcDb3dPolylineVertex
 10
1226.0772861762
 20
176.694972116
 30
0.0
 70
        32
  0
VERTEX
  5
2B4
100
AcDbEntity
  8
_X______
  6
CONTINUOUS
 62
         7
100
AcDbVertex
100
AcDb3dPolylineVertex
 10
1226.0772861762
 20
176.694972116
 30
0.0
 70
        32
  0
SEQEND
  5
2B6
100
AcDbEntity
  8
_X______
  6
CONTINUOUS
 62
         7
  0
ARC
  5
2B7
100
AcDbEntity
  8
_X______
  6
CONTINUOUS
 62
         7
100
AcDbCircle
 10
1224.1162889281
 20
176.0073687064
 30
0.0
 40
2.0780540551
100
AcDbArc
 50
19.3226899096
 51
43.1760378472
  0
POLYLINE
  5
2B9
100
AcDbEntity
  8
_X______
  6
CONTINUOUS
 62
         7
100
AcDb3dPolyline
 66
         1
 10
0.0
 20
0.0
 30
0.0
 70
         8
  0
VERTEX
  5
2BB
100
AcDbEntity
  8
_X______
  6
CONTINUOUS
 62
         7
100
AcDbVertex
100
AcDb3dPolylineVertex
 10
1225.6317199344
 20
177.429260939
 30
0.0
 70
        32
  0
VERTEX
  5
2BD
100
AcDbEntity
  8
_X______
  6
CONTINUOUS
 62
         7
100
AcDbVertex
100
AcDb3dPolylineVertex
 10
1225.6317199344
 20
177.429260939
 30
0.0
 70
        32
  0
SEQEND
  5
2BF
100
AcDbEntity
  8
_X______
  6
CONTINUOUS
 62
         7
  0
ARC
  5
2C0
100
AcDbEntity
  8
_X______
  6
CONTINUOUS
 62
         7
100
AcDbCircle
 10
1224.4287518427
 20
176.3005450962
 30
0.0
 40
1.6495853065
100
AcDbArc
 50
43.1760378472
 51
70.0
  0
POLYLINE
  5
2C2
100
AcDbEntity
  8
_X______
  6
CONTINUOUS
 62
         7
100
AcDb3dPolyline
 66
         1
 10
0.0
 20
0.0
 30
0.0
 70
         8
  0
VERTEX
  5
2C4
100
AcDbEntity
  8
_X______
  6
CONTINUOUS
 62
         7
100
AcDbVertex
100
AcDb3dPolylineVertex
 10
1224.9929432457
 20
177.850648236
 30
0.0
 70
        32
  0
VERTEX
  5
2C6
100
AcDbEntity
  8
_X______
  6
CONTINUOUS
 62
         7
100
AcDbVertex
100
AcDb3dPolylineVertex
 10
1224.9929432457
 20
177.850648236
 30
0.0
 70
        32
  0
SEQEND
  5
2C8
100
AcDbEntity
  8
_X______
  6
CONTINUOUS
 62
         7
  0
ARC
  5
2C9
100
AcDbEntity
  8
_X______
  6
CONTINUOUS
 62
         7
100
AcDbCircle
 10
1224.4287518427
 20
176.3005450962
 30
0.0
 40
1.6495853065
100
AcDbArc
 50
70.0000000001
 51
96.8239621529
  0
POLYLINE
  5
2CB
100
AcDbEntity
  8
_X______
  6
CONTINUOUS
 62
         7
100
AcDb3dPolyline
 66
         1
 10
0.0
 20
0.0
 30
0.0
 70
         8
  0
VERTEX
  5
2CD
100
AcDbEntity
  8
_X______
  6
CONTINUOUS
 62
         7
100
AcDbVertex
100
AcDb3dPolylineVertex
 10
1224.2327493795
 20
177.9384445796
 30
0.0
 70
        32
  0
VERTEX
  5
2CF
100
AcDbEntity
  8
_X______
  6
CONTINUOUS
 62
         7
100
AcDbVertex
100
AcDb3dPolylineVertex
 10
1224.2327493795
 20
177.9384445796
 30
0.0
 70
        32
  0
SEQEND
  5
2D1
100
AcDbEntity
  8
_X______
  6
CONTINUOUS
 62
         7
  0
ARC
  5
2D2
100
AcDbEntity
  8
_X______
  6
CONTINUOUS
 62
         7
100
AcDbCircle
 10
1224.4796621714
 20
175.8751116619
 30
0.0
 40
2.0780540551
100
AcDbArc
 50
96.8239621528
 51
120.6773100904
  0
POLYLINE
  5
2D4
100
AcDbEntity
  8
_X______
  6
CONTINUOUS
 62
         7
100
AcDb3dPolyline
 66
         1
 10
0.0
 20
0.0
 30
0.0
 70
         8
  0
VERTEX
  5
2D6
100
AcDbEntity
  8
_X______
  6
CONTINUOUS
 62
         7
100
AcDbVertex
100
AcDb3dPolylineVertex
 10
1223.4194340786
 20
177.6623511666
 30
0.0
 70
        32
  0
VERTEX
  5
2D8
100
AcDbEntity
  8
_X______
  6
CONTINUOUS
 62
         7
100
AcDbVertex
100
AcDb3dPolylineVertex
 10
1223.4194340786
 20
177.6623511666
 30
0.0
 70
        32
  0
SEQEND
  5
2DA
100
AcDbEntity
  8
_X______
  6
CONTINUOUS
 62
         7
  0
ARC
  5
2DB
100
AcDbEntity
  8
_X______
  6
CONTINUOUS
 62
         7
100
AcDbCircle
 10
1224.6794007025
 20
175.5384099693
 30
0.0
 40
2.4695428935
100
AcDbArc
 50
120.6773100903
 51
141.257725858
  0
ARC
  5
2DC
100
AcDbEntity
  8
_X______
  6
CONTINUOUS
 62
         7
100
AcDbCircle
 10
1225.071478058
 20
175.2238215369
 30
0.0
 40
2.9722262277
100
AcDbArc
 50
141.257725858
 51
160.0
  0
LINE
  5
2DD
100
AcDbEntity
  8
_X______
  6
CENTER
 62
         1
100
AcDbLine
 10
1226.9769621084
 20
174.5302820606
 30
0.0
 11
1221.3388063837
 21
176.5824029206
 31
0.0
  0
ARC
  5
2DE
100
AcDbEntity
  8
L1_60
  6
CONTINUOUS
 62
         7
100
AcDbCircle
 10
1438.0553403763
 20
169.1846417294
 30
0.0
 40
3.0
100
AcDbArc
 50
180.0
 51
270.0
  0
ARC
  5
2DF
100
AcDbEntity
  8
L1_60
  6
CONTINUOUS
 62
         7
100
AcDbCircle
 10
1438.0553403763
 20
131.1846417294
 30
0.0
 40
3.0
100
AcDbArc
 50
90.0
 51
180.0
  0
LINE
  5
2E0
100
AcDbEntity
  8
L1_60
  6
CONTINUOUS
 62
         7
100
AcDbLine
 10
1427.6624483423
 20
-22.6933347407
 30
0.0
 11
1427.6624483423
 21
-3.1933347407
 31
0.0
  0
LINE
  5
2E1
100
AcDbEntity
  8
L1_60
  6
CONTINUOUS
 62
         7
100
AcDbLine
 10
1427.6624483423
 20
-22.6933347407
 30
0.0
 11
1425.9521169712
 21
-20.9830033695
 31
0.0
  0
LINE
  5
2E2
100
AcDbEntity
  8
L1_60
  6
CONTINUOUS
 62
         7
100
AcDbLine
 10
1427.6624483423
 20
-3.1933347407
 30
0.0
 11
1425.9521169712
 21
-4.9036661118
 31
0.0
  0
LINE
  5
2E3
100
AcDbEntity
  8
L1_60
  6
CONTINUOUS
 62
         7
100
AcDbLine
 10
1425.9521169712
 20
-4.9036661118
 30
0.0
 11
1425.9521169712
 21
-20.9830033695
 31
0.0
  0
DIMENSION
  5
2E6
100
AcDbEntity
  8
L1_60
  6
CONTINUOUS
 62
         4
100
AcDbDimension
  2
*D11
 10
1425.9521169712
 20
-59.131356171
 30
0.0
 11
1435.1981736102
 21
-57.106356171
 31
0.0
  3
DIMSTYLE1
100
AcDbAlignedDimension
 13
1425.9521169712
 23
-20.9830033695
 33
0.0
 14
1460.0033403763
 24
-26.9433347407
 34
0.0
100
AcDbRotatedDimension
  0
ARC
  5
2F2
100
AcDbEntity
  8
L1_60
  6
CONTINUOUS
 62
         7
100
AcDbCircle
 10
1438.0553403763
 20
6.0566652593
 30
0.0
 40
3.0
100
AcDbArc
 50
180.0
 51
270.0
  0
ARC
  5
2F3
100
AcDbEntity
  8
L1_60
  6
CONTINUOUS
 62
         7
100
AcDbCircle
 10
1438.0553403763
 20
-31.9433347407
 30
0.0
 40
3.0
100
AcDbArc
 50
90.0
 51
180.0
  0
ARC
  5
2F4
100
AcDbEntity
  8
L1_60
  6
CONTINUOUS
 62
         7
100
AcDbCircle
 10
1214.9233403763
 20
150.1846417294
 30
0.0
 40
21.9291667445
100
AcDbArc
 50
261.7412180069
 51
278.2587819931
  0
ARC
  5
2F5
100
AcDbEntity
  8
L1_60
  6
CONTINUOUS
 62
         7
100
AcDbCircle
 10
1214.9233403763
 20
186.8434880569
 30
0.0
 40
18.598125
100
AcDbArc
 50
260.2486972602
 51
279.7513027398
  0
LINE
  5
2F6
100
AcDbEntity
  8
L1_60
  6
CONTINUOUS
 62
         7
100
AcDbLine
 10
1211.7733403763
 20
128.4828940092
 30
0.0
 11
1211.7733403763
 21
131.8552185656
 31
0.0
  0
LINE
  5
2F7
100
AcDbEntity
  8
L1_60
  6
CONTINUOUS
 62
         7
100
AcDbLine
 10
1218.0733403763
 20
128.4828940092
 30
0.0
 11
1218.0733403763
 21
131.8552185656
 31
0.0
  0
LINE
  5
2F8
100
AcDbEntity
  8
L1_60
  6
CONTINUOUS
 62
         7
100
AcDbLine
 10
1211.7733403763
 20
168.5140648931
 30
0.0
 11
1211.7733403763
 21
171.8863894496
 31
0.0
  0
LINE
  5
2F9
100
AcDbEntity
  8
L1_60
  6
CONTINUOUS
 62
         7
100
AcDbLine
 10
1218.0733403763
 20
168.5140648931
 30
0.0
 11
1218.0733403763
 21
171.8863894496
 31
0.0
  0
ARC
  5
2FA
100
AcDbEntity
  8
L1_60
  6
CONTINUOUS
 62
         7
100
AcDbCircle
 10
1214.9233403763
 20
150.1846417294
 30
0.0
 40
21.9291667445
100
AcDbArc
 50
81.7412180069
 51
98.2587819931
  0
ARC
  5
2FB
100
AcDbEntity
  8
L1_60
  6
CONTINUOUS
 62
         7
100
AcDbCircle
 10
1214.9233403763
 20
113.5257954019
 30
0.0
 40
18.598125
100
AcDbArc
 50
80.2486972602
 51
99.7513027398
  0
LINE
  5
2FC
100
AcDbEntity
  8
_X______
  6
CENTER
 62
         1
100
AcDbLine
 10
1611.2297186441
 20
174.5302820606
 30
0.0
 11
1616.8678743688
 21
176.5824029206
 31
0.0
  0
POLYLINE
  5
2FE
100
AcDbEntity
  8
_X______
  6
DASHED
 62
         2
100
AcDb3dPolyline
 66
         1
 10
0.0
 20
0.0
 30
0.0
 70
         8
  0
VERTEX
  5
300
100
AcDbEntity
  8
_X______
  6
DASHED
 62
         2
100
AcDbVertex
100
AcDb3dPolylineVertex
 10
1615.928181748
 20
176.2403827773
 30
0.0
 70
        32
  0
VERTEX
  5
302
100
AcDbEntity
  8
_X______
  6
DASHED
 62
         2
100
AcDbVertex
100
AcDb3dPolylineVertex
 10
1615.928181748
 20
176.2403827773
 30
0.0
 70
        32
  0
SEQEND
  5
304
100
AcDbEntity
  8
_X______
  6
DASHED
 62
         2
  0
ARC
  5
305
100
AcDbEntity
  8
_X______
  6
DASHED
 62
         2
100
AcDbCircle
 10
1613.1352026945
 20
175.2238215369
 30
0.0
 40
2.9722262277
100
AcDbArc
 50
1.2577258579
 51
20.0
  0
POLYLINE
  5
307
100
AcDbEntity
  8
_X______
  6
DASHED
 62
         2
100
AcDb3dPolyline
 66
         1
 10
0.0
 20
0.0
 30
0.0
 70
         8
  0
VERTEX
  5
309
100
AcDbEntity
  8
_X______
  6
DASHED
 62
         2
100
AcDbVertex
100
AcDb3dPolylineVertex
 10
1616.1067128429
 20
175.2890609943
 30
0.0
 70
        32
  0
VERTEX
  5
30B
100
AcDbEntity
  8
_X______
  6
DASHED
 62
         2
100
AcDbVertex
100
AcDb3dPolylineVertex
 10
1616.1067128429
 20
175.2890609943
 30
0.0
 70
        32
  0
SEQEND
  5
30D
100
AcDbEntity
  8
_X______
  6
DASHED
 62
         2
  0
ARC
  5
30E
100
AcDbEntity
  8
_X______
  6
DASHED
 62
         2
100
AcDbCircle
 10
1613.6377649205
 20
175.2348552824
 30
0.0
 40
2.4695428935
100
AcDbArc
 50
340.6773100903
 51
361.2577258579
  0
POLYLINE
  5
310
100
AcDbEntity
  8
_X______
  6
DASHED
 62
         2
100
AcDb3dPolyline
 66
         1
 10
0.0
 20
0.0
 30
0.0
 70
         8
  0
VERTEX
  5
312
100
AcDbEntity
  8
_X______
  6
DASHED
 62
         2
100
AcDbVertex
100
AcDb3dPolylineVertex
 10
1615.9681984366
 20
174.4177128652
 30
0.0
 70
        32
  0
VERTEX
  5
314
100
AcDbEntity
  8
_X______
  6
DASHED
 62
         2
100
AcDbVertex
100
AcDb3dPolylineVertex
 10
1615.9681984366
 20
174.4177128652
 30
0.0
 70
        32
  0
SEQEND
  5
316
100
AcDbEntity
  8
_X______
  6
DASHED
 62
         2
  0
ARC
  5
317
100
AcDbEntity
  8
_X______
  6
DASHED
 62
         2
100
AcDbCircle
 10
1614.0072011885
 20
175.1053162748
 30
0.0
 40
2.0780540551
100
AcDbArc
 50
316.8239621527
 51
340.6773100903
  0
POLYLINE
  5
319
100
AcDbEntity
  8
_X______
  6
DASHED
 62
         2
100
AcDb3dPolyline
 66
         1
 10
0.0
 20
0.0
 30
0.0
 70
         8
  0
VERTEX
  5
31B
100
AcDbEntity
  8
_X______
  6
DASHED
 62
         2
100
AcDbVertex
100
AcDb3dPolylineVertex
 10
1615.5226321948
 20
173.6834240423
 30
0.0
 70
        32
  0
VERTEX
  5
31D
100
AcDbEntity
  8
_X______
  6
DASHED
 62
         2
100
AcDbVertex
100
AcDb3dPolylineVertex
 10
1615.5226321948
 20
173.6834240423
 30
0.0
 70
        32
  0
SEQEND
  5
31F
100
AcDbEntity
  8
_X______
  6
DASHED
 62
         2
  0
ARC
  5
320
100
AcDbEntity
  8
_X______
  6
DASHED
 62
         2
100
AcDbCircle
 10
1614.3196641031
 20
174.8121398851
 30
0.0
 40
1.6495853065
100
AcDbArc
 50
290.0000000001
 51
316.8239621528
  0
POLYLINE
  5
322
100
AcDbEntity
  8
_X______
  6
DASHED
 62
         2
100
AcDb3dPolyline
 66
         1
 10
0.0
 20
0.0
 30
0.0
 70
         8
  0
VERTEX
  5
324
100
AcDbEntity
  8
_X______
  6
DASHED
 62
         2
100
AcDbVertex
100
AcDb3dPolylineVertex
 10
1614.8838555061
 20
173.2620367452
 30
0.0
 70
        32
  0
VERTEX
  5
326
100
AcDbEntity
  8
_X______
  6
DASHED
 62
         2
100
AcDbVertex
100
AcDb3dPolylineVertex
 10
1614.8838555061
 20
173.2620367452
 30
0.0
 70
        32
  0
SEQEND
  5
328
100
AcDbEntity
  8
_X______
  6
DASHED
 62
         2
  0
ARC
  5
329
100
AcDbEntity
  8
_X______
  6
DASHED
 62
         2
100
AcDbCircle
 10
1614.3196641031
 20
174.8121398851
 30
0.0
 40
1.6495853065
100
AcDbArc
 50
263.1760378472
 51
290.0
  0
POLYLINE
  5
32B
100
AcDbEntity
  8
_X______
  6
DASHED
 62
         2
100
AcDb3dPolyline
 66
         1
 10
0.0
 20
0.0
 30
0.0
 70
         8
  0
VERTEX
  5
32D
100
AcDbEntity
  8
_X______
  6
DASHED
 62
         2
100
AcDbVertex
100
AcDb3dPolylineVertex
 10
1614.1236616399
 20
173.1742404017
 30
0.0
 70
        32
  0
VERTEX
  5
32F
100
AcDbEntity
  8
_X______
  6
DASHED
 62
         2
100
AcDbVertex
100
AcDb3dPolylineVertex
 10
1614.1236616399
 20
173.1742404017
 30
0.0
 70
        32
  0
SEQEND
  5
331
100
AcDbEntity
  8
_X______
  6
DASHED
 62
         2
  0
ARC
  5
332
100
AcDbEntity
  8
_X______
  6
DASHED
 62
         2
100
AcDbCircle
 10
1614.3705744318
 20
175.2375733193
 30
0.0
 40
2.0780540551
100
AcDbArc
 50
239.3226899096
 51
263.1760378472
  0
POLYLINE
  5
334
100
AcDbEntity
  8
_X______
  6
DASHED
 62
         2
100
AcDb3dPolyline
 66
         1
 10
0.0
 20
0.0
 30
0.0
 70
         8
  0
VERTEX
  5
336
100
AcDbEntity
  8
_X______
  6
DASHED
 62
         2
100
AcDbVertex
100
AcDb3dPolylineVertex
 10
1613.310346339
 20
173.4503338146
 30
0.0
 70
        32
  0
VERTEX
  5
338
100
AcDbEntity
  8
_X______
  6
DASHED
 62
         2
100
AcDbVertex
100
AcDb3dPolylineVertex
 10
1613.310346339
 20
173.4503338146
 30
0.0
 70
        32
  0
SEQEND
  5
33A
100
AcDbEntity
  8
_X______
  6
DASHED
 62
         2
  0
POLYLINE
  5
33C
100
AcDbEntity
  8
_X______
  6
DASHED
 62
         2
100
AcDb3dPolyline
 66
         1
 10
0.0
 20
0.0
 30
0.0
 70
         8
  0
VERTEX
  5
33E
100
AcDbEntity
  8
_X______
  6
DASHED
 62
         2
100
AcDbVertex
100
AcDb3dPolylineVertex
 10
1612.6441463667
 20
174.0287898627
 30
0.0
 70
        32
  0
VERTEX
  5
340
100
AcDbEntity
  8
_X______
  6
DASHED
 62
         2
100
AcDbVertex
100
AcDb3dPolylineVertex
 10
1612.6441463667
 20
174.0287898627
 30
0.0
 70
        32
  0
SEQEND
  5
342
100
AcDbEntity
  8
_X______
  6
DASHED
 62
         2
  0
ARC
  5
343
100
AcDbEntity
  8
_X______
  6
DASHED
 62
         2
100
AcDbCircle
 10
1614.9623903184
 20
175.8888634444
 30
0.0
 40
2.9722262277
100
AcDbArc
 50
200.0
 51
218.742274142
  0
POLYLINE
  5
345
100
AcDbEntity
  8
_X______
  6
DASHED
 62
         2
100
AcDb3dPolyline
 66
         1
 10
0.0
 20
0.0
 30
0.0
 70
         8
  0
VERTEX
  5
347
100
AcDbEntity
  8
_X______
  6
DASHED
 62
         2
100
AcDbVertex
100
AcDb3dPolylineVertex
 10
1612.1694112649
 20
174.872302204
 30
0.0
 70
        32
  0
VERTEX
  5
349
100
AcDbEntity
  8
_X______
  6
DASHED
 62
         2
100
AcDbVertex
100
AcDb3dPolylineVertex
 10
1612.1694112649
 20
174.872302204
 30
0.0
 70
        32
  0
SEQEND
  5
34B
100
AcDbEntity
  8
_X______
  6
DASHED
 62
         2
  0
ARC
  5
34C
100
AcDbEntity
  8
_X______
  6
DASHED
 62
         2
100
AcDbCircle
 10
1614.9623903184
 20
175.8888634444
 30
0.0
 40
2.9722262277
100
AcDbArc
 50
181.257725858
 51
200.0000000001
  0
POLYLINE
  5
34E
100
AcDbEntity
  8
_X______
  6
DASHED
 62
         2
100
AcDb3dPolyline
 66
         1
 10
0.0
 20
0.0
 30
0.0
 70
         8
  0
VERTEX
  5
350
100
AcDbEntity
  8
_X______
  6
DASHED
 62
         2
100
AcDbVertex
100
AcDb3dPolylineVertex
 10
1611.99088017
 20
175.823623987
 30
0.0
 70
        32
  0
VERTEX
  5
352
100
AcDbEntity
  8
_X______
  6
DASHED
 62
         2
100
AcDbVertex
100
AcDb3dPolylineVertex
 10
1611.99088017
 20
175.823623987
 30
0.0
 70
        32
  0
SEQEND
  5
354
100
AcDbEntity
  8
_X______
  6
DASHED
 62
         2
  0
ARC
  5
355
100
AcDbEntity
  8
_X______
  6
DASHED
 62
         2
100
AcDbCircle
 10
1614.4598280924
 20
175.8778296988
 30
0.0
 40
2.4695428935
100
AcDbArc
 50
160.6773100903
 51
181.257725858
  0
POLYLINE
  5
357
100
AcDbEntity
  8
_X______
  6
DASHED
 62
         2
100
AcDb3dPolyline
 66
         1
 10
0.0
 20
0.0
 30
0.0
 70
         8
  0
VERTEX
  5
359
100
AcDbEntity
  8
_X______
  6
DASHED
 62
         2
100
AcDbVertex
100
AcDb3dPolylineVertex
 10
1612.1293945764
 20
176.694972116
 30
0.0
 70
        32
  0
VERTEX
  5
35B
100
AcDbEntity
  8
_X______
  6
DASHED
 62
         2
100
AcDbVertex
100
AcDb3dPolylineVertex
 10
1612.1293945764
 20
176.694972116
 30
0.0
 70
        32
  0
SEQEND
  5
35D
100
AcDbEntity
  8
_X______
  6
DASHED
 62
         2
  0
ARC
  5
35E
100
AcDbEntity
  8
_X______
  6
DASHED
 62
         2
100
AcDbCircle
 10
1614.0903918245
 20
176.0073687064
 30
0.0
 40
2.0780540551
100
AcDbArc
 50
136.8239621528
 51
160.6773100904
  0
POLYLINE
  5
360
100
AcDbEntity
  8
_X______
  6
DASHED
 62
         2
100
AcDb3dPolyline
 66
         1
 10
0.0
 20
0.0
 30
0.0
 70
         8
  0
VERTEX
  5
362
100
AcDbEntity
  8
_X______
  6
DASHED
 62
         2
100
AcDbVertex
100
AcDb3dPolylineVertex
 10
1612.5749608181
 20
177.429260939
 30
0.0
 70
        32
  0
VERTEX
  5
364
100
AcDbEntity
  8
_X______
  6
DASHED
 62
         2
100
AcDbVertex
100
AcDb3dPolylineVertex
 10
1612.5749608181
 20
177.429260939
 30
0.0
 70
        32
  0
SEQEND
  5
366
100
AcDbEntity
  8
_X______
  6
DASHED
 62
         2
  0
ARC
  5
367
100
AcDbEntity
  8
_X______
  6
DASHED
 62
         2
100
AcDbCircle
 10
1613.7779289098
 20
176.3005450962
 30
0.0
 40
1.6495853065
100
AcDbArc
 50
110.0
 51
136.8239621528
  0
POLYLINE
  5
369
100
AcDbEntity
  8
_X______
  6
DASHED
 62
         2
100
AcDb3dPolyline
 66
         1
 10
0.0
 20
0.0
 30
0.0
 70
         8
  0
VERTEX
  5
36B
100
AcDbEntity
  8
_X______
  6
DASHED
 62
         2
100
AcDbVertex
100
AcDb3dPolylineVertex
 10
1613.2137375068
 20
177.850648236
 30
0.0
 70
        32
  0
VERTEX
  5
36D
100
AcDbEntity
  8
_X______
  6
DASHED
 62
         2
100
AcDbVertex
100
AcDb3dPolylineVertex
 10
1613.2137375068
 20
177.850648236
 30
0.0
 70
        32
  0
SEQEND
  5
36F
100
AcDbEntity
  8
_X______
  6
DASHED
 62
         2
  0
ARC
  5
370
100
AcDbEntity
  8
_X______
  6
DASHED
 62
         2
100
AcDbCircle
 10
1613.7779289098
 20
176.3005450962
 30
0.0
 40
1.6495853065
100
AcDbArc
 50
83.1760378471
 51
109.9999999999
  0
POLYLINE
  5
372
100
AcDbEntity
  8
_X______
  6
DASHED
 62
         2
100
AcDb3dPolyline
 66
         1
 10
0.0
 20
0.0
 30
0.0
 70
         8
  0
VERTEX
  5
374
100
AcDbEntity
  8
_X______
  6
DASHED
 62
         2
100
AcDbVertex
100
AcDb3dPolylineVertex
 10
1613.973931373
 20
177.9384445796
 30
0.0
 70
        32
  0
VERTEX
  5
376
100
AcDbEntity
  8
_X______
  6
DASHED
 62
         2
100
AcDbVertex
100
AcDb3dPolylineVertex
 10
1613.973931373
 20
177.9384445796
 30
0.0
 70
        32
  0
SEQEND
  5
378
100
AcDbEntity
  8
_X______
  6
DASHED
 62
         2
  0
ARC
  5
379
100
AcDbEntity
  8
_X______
  6
DASHED
 62
         2
100
AcDbCircle
 10
1613.7270185811
 20
175.8751116619
 30
0.0
 40
2.0780540551
100
AcDbArc
 50
59.3226899096
 51
83.1760378472
  0
POLYLINE
  5
37B
100
AcDbEntity
  8
_X______
  6
DASHED
 62
         2
100
AcDb3dPolyline
 66
         1
 10
0.0
 20
0.0
 30
0.0
 70
         8
  0
VERTEX
  5
37D
100
AcDbEntity
  8
_X______
  6
DASHED
 62
         2
100
AcDbVertex
100
AcDb3dPolylineVertex
 10
1614.7872466739
 20
177.6623511666
 30
0.0
 70
        32
  0
VERTEX
  5
37F
100
AcDbEntity
  8
_X______
  6
DASHED
 62
         2
100
AcDbVertex
100
AcDb3dPolylineVertex
 10
1614.7872466739
 20
177.6623511666
 30
0.0
 70
        32
  0
SEQEND
  5
381
100
AcDbEntity
  8
_X______
  6
DASHED
 62
         2
  0
ARC
  5
382
100
AcDbEntity
  8
_X______
  6
DASHED
 62
         2
100
AcDbCircle
 10
1613.52728005
 20
175.5384099693
 30
0.0
 40
2.4695428935
100
AcDbArc
 50
38.742274142
 51
59.3226899097
  0
ARC
  5
383
100
AcDbEntity
  8
_X______
  6
DASHED
 62
         2
100
AcDbCircle
 10
1613.1352026945
 20
175.2238215369
 30
0.0
 40
2.9722262277
100
AcDbArc
 50
20.0
 51
38.742274142
  0
ARC
  5
384
100
AcDbEntity
  8
_X______
  6
DASHED
 62
         2
100
AcDbCircle
 10
1614.5703129629
 20
175.5742750119
 30
0.0
 40
2.4695428935
100
AcDbArc
 50
218.742274142
 51
239.3226899097
  0
LINE
  5
385
100
AcDbEntity
  8
_X______
  6
CENTER
 62
         1
100
AcDbLine
 10
1629.6988063837
 20
123.7868805382
 30
0.0
 11
1635.3369621084
 21
125.8390013981
 31
0.0
  0
POLYLINE
  5
387
100
AcDbEntity
  8
_X______
  6
DASHED
 62
         2
100
AcDb3dPolyline
 66
         1
 10
0.0
 20
0.0
 30
0.0
 70
         8
  0
VERTEX
  5
389
100
AcDbEntity
  8
_X______
  6
DASHED
 62
         2
100
AcDbVertex
100
AcDb3dPolylineVertex
 10
1634.3972694876
 20
125.4969812548
 30
0.0
 70
        32
  0
VERTEX
  5
38B
100
AcDbEntity
  8
_X______
  6
DASHED
 62
         2
100
AcDbVertex
100
AcDb3dPolylineVertex
 10
1634.3972694876
 20
125.4969812548
 30
0.0
 70
        32
  0
SEQEND
  5
38D
100
AcDbEntity
  8
_X______
  6
DASHED
 62
         2
  0
ARC
  5
38E
100
AcDbEntity
  8
_X______
  6
DASHED
 62
         2
100
AcDbCircle
 10
1631.6042904341
 20
124.4804200144
 30
0.0
 40
2.9722262277
100
AcDbArc
 50
20.0
 51
38.742274142
  0
POLYLINE
  5
390
100
AcDbEntity
  8
_X______
  6
DASHED
 62
         2
100
AcDb3dPolyline
 66
         1
 10
0.0
 20
0.0
 30
0.0
 70
         8
  0
VERTEX
  5
392
100
AcDbEntity
  8
_X______
  6
DASHED
 62
         2
100
AcDbVertex
100
AcDb3dPolylineVertex
 10
1633.9225343858
 20
126.340493596
 30
0.0
 70
        32
  0
VERTEX
  5
394
100
AcDbEntity
  8
_X______
  6
DASHED
 62
         2
100
AcDbVertex
100
AcDb3dPolylineVertex
 10
1633.9225343858
 20
126.340493596
 30
0.0
 70
        32
  0
SEQEND
  5
396
100
AcDbEntity
  8
_X______
  6
DASHED
 62
         2
  0
ARC
  5
397
100
AcDbEntity
  8
_X______
  6
DASHED
 62
         2
100
AcDbCircle
 10
1631.9963677896
 20
124.7950084469
 30
0.0
 40
2.4695428935
100
AcDbArc
 50
38.742274142
 51
59.3226899096
  0
POLYLINE
  5
399
100
AcDbEntity
  8
_X______
  6
DASHED
 62
         2
100
AcDb3dPolyline
 66
         1
 10
0.0
 20
0.0
 30
0.0
 70
         8
  0
VERTEX
  5
39B
100
AcDbEntity
  8
_X______
  6
DASHED
 62
         2
100
AcDbVertex
100
AcDb3dPolylineVertex
 10
1633.2563344135
 20
126.9189496442
 30
0.0
 70
        32
  0
VERTEX
  5
39D
100
AcDbEntity
  8
_X______
  6
DASHED
 62
         2
100
AcDbVertex
100
AcDb3dPolylineVertex
 10
1633.2563344135
 20
126.9189496442
 30
0.0
 70
        32
  0
SEQEND
  5
39F
100
AcDbEntity
  8
_X______
  6
DASHED
 62
         2
  0
ARC
  5
3A0
100
AcDbEntity
  8
_X______
  6
DASHED
 62
         2
100
AcDbCircle
 10
1632.1961063207
 20
125.1317101395
 30
0.0
 40
2.0780540551
100
AcDbArc
 50
59.3226899096
 51
83.1760378472
  0
ARC
  5
3A1
100
AcDbEntity
  8
_X______
  6
DASHED
 62
         2
100
AcDbCircle
 10
1632.2470166494
 20
125.5571435737
 30
0.0
 40
1.6495853065
100
AcDbArc
 50
83.1760378472
 51
110.0
  0
POLYLINE
  5
3A3
100
AcDbEntity
  8
_X______
  6
DASHED
 62
         2
100
AcDb3dPolyline
 66
         1
 10
0.0
 20
0.0
 30
0.0
 70
         8
  0
VERTEX
  5
3A5
100
AcDbEntity
  8
_X______
  6
DASHED
 62
         2
100
AcDbVertex
100
AcDb3dPolylineVertex
 10
1631.6828252464
 20
127.1072467136
 30
0.0
 70
        32
  0
VERTEX
  5
3A7
100
AcDbEntity
  8
_X______
  6
DASHED
 62
         2
100
AcDbVertex
100
AcDb3dPolylineVertex
 10
1631.6828252464
 20
127.1072467136
 30
0.0
 70
        32
  0
SEQEND
  5
3A9
100
AcDbEntity
  8
_X______
  6
DASHED
 62
         2
  0
ARC
  5
3AA
100
AcDbEntity
  8
_X______
  6
DASHED
 62
         2
100
AcDbCircle
 10
1632.2470166494
 20
125.5571435737
 30
0.0
 40
1.6495853065
100
AcDbArc
 50
110.0
 51
136.8239621528
  0
POLYLINE
  5
3AC
100
AcDbEntity
  8
_X______
  6
DASHED
 62
         2
100
AcDb3dPolyline
 66
         1
 10
0.0
 20
0.0
 30
0.0
 70
         8
  0
VERTEX
  5
3AE
100
AcDbEntity
  8
_X______
  6
DASHED
 62
         2
100
AcDbVertex
100
AcDb3dPolylineVertex
 10
1631.0440485577
 20
126.6858594165
 30
0.0
 70
        32
  0
VERTEX
  5
3B0
100
AcDbEntity
  8
_X______
  6
DASHED
 62
         2
100
AcDbVertex
100
AcDb3dPolylineVertex
 10
1631.0440485577
 20
126.6858594165
 30
0.0
 70
        32
  0
SEQEND
  5
3B2
100
AcDbEntity
  8
_X______
  6
DASHED
 62
         2
  0
POLYLINE
  5
3B4
100
AcDbEntity
  8
_X______
  6
DASHED
 62
         2
100
AcDb3dPolyline
 66
         1
 10
0.0
 20
0.0
 30
0.0
 70
         8
  0
VERTEX
  5
3B6
100
AcDbEntity
  8
_X______
  6
DASHED
 62
         2
100
AcDbVertex
100
AcDb3dPolylineVertex
 10
1630.4599679096
 20
125.0802224645
 30
0.0
 70
        32
  0
VERTEX
  5
3B8
100
AcDbEntity
  8
_X______
  6
DASHED
 62
         2
100
AcDbVertex
100
AcDb3dPolylineVertex
 10
1630.4599679096
 20
125.0802224645
 30
0.0
 70
        32
  0
SEQEND
  5
3BA
100
AcDbEntity
  8
_X______
  6
DASHED
 62
         2
  0
ARC
  5
3BB
100
AcDbEntity
  8
_X______
  6
DASHED
 62
         2
100
AcDbCircle
 10
1633.431478058
 20
125.1454619219
 30
0.0
 40
2.9722262277
100
AcDbArc
 50
181.257725858
 51
200.0000000001
  0
POLYLINE
  5
3BD
100
AcDbEntity
  8
_X______
  6
DASHED
 62
         2
100
AcDb3dPolyline
 66
         1
 10
0.0
 20
0.0
 30
0.0
 70
         8
  0
VERTEX
  5
3BF
100
AcDbEntity
  8
_X______
  6
DASHED
 62
         2
100
AcDbVertex
100
AcDb3dPolylineVertex
 10
1630.6384990045
 20
124.1289006815
 30
0.0
 70
        32
  0
VERTEX
  5
3C1
100
AcDbEntity
  8
_X______
  6
DASHED
 62
         2
100
AcDbVertex
100
AcDb3dPolylineVertex
 10
1630.6384990045
 20
124.1289006815
 30
0.0
 70
        32
  0
SEQEND
  5
3C3
100
AcDbEntity
  8
_X______
  6
DASHED
 62
         2
  0
ARC
  5
3C4
100
AcDbEntity
  8
_X______
  6
DASHED
 62
         2
100
AcDbCircle
 10
1633.431478058
 20
125.1454619219
 30
0.0
 40
2.9722262277
100
AcDbArc
 50
200.0
 51
218.742274142
  0
POLYLINE
  5
3C6
100
AcDbEntity
  8
_X______
  6
DASHED
 62
         2
100
AcDb3dPolyline
 66
         1
 10
0.0
 20
0.0
 30
0.0
 70
         8
  0
VERTEX
  5
3C8
100
AcDbEntity
  8
_X______
  6
DASHED
 62
         2
100
AcDbVertex
100
AcDb3dPolylineVertex
 10
1631.1132341062
 20
123.2853883403
 30
0.0
 70
        32
  0
VERTEX
  5
3CA
100
AcDbEntity
  8
_X______
  6
DASHED
 62
         2
100
AcDbVertex
100
AcDb3dPolylineVertex
 10
1631.1132341062
 20
123.2853883403
 30
0.0
 70
        32
  0
SEQEND
  5
3CC
100
AcDbEntity
  8
_X______
  6
DASHED
 62
         2
  0
ARC
  5
3CD
100
AcDbEntity
  8
_X______
  6
DASHED
 62
         2
100
AcDbCircle
 10
1633.0394007025
 20
124.8308734895
 30
0.0
 40
2.4695428935
100
AcDbArc
 50
218.7422741419
 51
239.3226899096
  0
POLYLINE
  5
3CF
100
AcDbEntity
  8
_X______
  6
DASHED
 62
         2
100
AcDb3dPolyline
 66
         1
 10
0.0
 20
0.0
 30
0.0
 70
         8
  0
VERTEX
  5
3D1
100
AcDbEntity
  8
_X______
  6
DASHED
 62
         2
100
AcDbVertex
100
AcDb3dPolylineVertex
 10
1631.7794340786
 20
122.7069322922
 30
0.0
 70
        32
  0
VERTEX
  5
3D3
100
AcDbEntity
  8
_X______
  6
DASHED
 62
         2
100
AcDbVertex
100
AcDb3dPolylineVertex
 10
1631.7794340786
 20
122.7069322922
 30
0.0
 70
        32
  0
SEQEND
  5
3D5
100
AcDbEntity
  8
_X______
  6
DASHED
 62
         2
  0
ARC
  5
3D6
100
AcDbEntity
  8
_X______
  6
DASHED
 62
         2
100
AcDbCircle
 10
1632.8396621714
 20
124.4941717969
 30
0.0
 40
2.0780540551
100
AcDbArc
 50
239.3226899097
 51
263.1760378472
  0
POLYLINE
  5
3D8
100
AcDbEntity
  8
_X______
  6
DASHED
 62
         2
100
AcDb3dPolyline
 66
         1
 10
0.0
 20
0.0
 30
0.0
 70
         8
  0
VERTEX
  5
3DA
100
AcDbEntity
  8
_X______
  6
DASHED
 62
         2
100
AcDbVertex
100
AcDb3dPolylineVertex
 10
1632.5927493795
 20
122.4308388792
 30
0.0
 70
        32
  0
VERTEX
  5
3DC
100
AcDbEntity
  8
_X______
  6
DASHED
 62
         2
100
AcDbVertex
100
AcDb3dPolylineVertex
 10
1632.5927493795
 20
122.4308388792
 30
0.0
 70
        32
  0
SEQEND
  5
3DE
100
AcDbEntity
  8
_X______
  6
DASHED
 62
         2
  0
ARC
  5
3DF
100
AcDbEntity
  8
_X______
  6
DASHED
 62
         2
100
AcDbCircle
 10
1632.7887518427
 20
124.0687383626
 30
0.0
 40
1.6495853065
100
AcDbArc
 50
263.1760378472
 51
290.0
  0
POLYLINE
  5
3E1
100
AcDbEntity
  8
_X______
  6
DASHED
 62
         2
100
AcDb3dPolyline
 66
         1
 10
0.0
 20
0.0
 30
0.0
 70
         8
  0
VERTEX
  5
3E3
100
AcDbEntity
  8
_X______
  6
DASHED
 62
         2
100
AcDbVertex
100
AcDb3dPolylineVertex
 10
1633.3529432457
 20
122.5186352228
 30
0.0
 70
        32
  0
VERTEX
  5
3E5
100
AcDbEntity
  8
_X______
  6
DASHED
 62
         2
100
AcDbVertex
100
AcDb3dPolylineVertex
 10
1633.3529432457
 20
122.5186352228
 30
0.0
 70
        32
  0
SEQEND
  5
3E7
100
AcDbEntity
  8
_X______
  6
DASHED
 62
         2
  0
ARC
  5
3E8
100
AcDbEntity
  8
_X______
  6
DASHED
 62
         2
100
AcDbCircle
 10
1632.7887518427
 20
124.0687383626
 30
0.0
 40
1.6495853065
100
AcDbArc
 50
290.0
 51
316.8239621528
  0
POLYLINE
  5
3EA
100
AcDbEntity
  8
_X______
  6
DASHED
 62
         2
100
AcDb3dPolyline
 66
         1
 10
0.0
 20
0.0
 30
0.0
 70
         8
  0
VERTEX
  5
3EC
100
AcDbEntity
  8
_X______
  6
DASHED
 62
         2
100
AcDbVertex
100
AcDb3dPolylineVertex
 10
1633.9917199344
 20
122.9400225198
 30
0.0
 70
        32
  0
VERTEX
  5
3EE
100
AcDbEntity
  8
_X______
  6
DASHED
 62
         2
100
AcDbVertex
100
AcDb3dPolylineVertex
 10
1633.9917199344
 20
122.9400225198
 30
0.0
 70
        32
  0
SEQEND
  5
3F0
100
AcDbEntity
  8
_X______
  6
DASHED
 62
         2
  0
ARC
  5
3F1
100
AcDbEntity
  8
_X______
  6
DASHED
 62
         2
100
AcDbCircle
 10
1632.4762889281
 20
124.3619147524
 30
0.0
 40
2.0780540551
100
AcDbArc
 50
316.8239621527
 51
340.6773100903
  0
ARC
  5
3F2
100
AcDbEntity
  8
_X______
  6
DASHED
 62
         2
100
AcDbCircle
 10
1632.1068526601
 20
124.49145376
 30
0.0
 40
2.4695428935
100
AcDbArc
 50
340.6773100904
 51
361.257725858
  0
ARC
  5
3F3
100
AcDbEntity
  8
_X______
  6
DASHED
 62
         2
100
AcDbCircle
 10
1631.6042904341
 20
124.4804200144
 30
0.0
 40
2.9722262277
100
AcDbArc
 50
1.257725858
 51
20.0
  0
ARC
  5
3F4
100
AcDbEntity
  8
_X______
  6
DASHED
 62
         2
100
AcDbCircle
 10
1632.928915832
 20
125.1344281764
 30
0.0
 40
2.4695428935
100
AcDbArc
 50
160.6773100903
 51
181.257725858
  0
ARC
  5
3F5
100
AcDbEntity
  8
_X______
  6
DASHED
 62
         2
100
AcDbCircle
 10
1632.559479564
 20
125.263967184
 30
0.0
 40
2.0780540551
100
AcDbArc
 50
136.8239621528
 51
160.6773100904
  0
LINE
  5
3F6
100
AcDbEntity
  8
L1_60
  6
CONTINUOUS
 62
         7
100
AcDbLine
 10
1393.0033403763
 20
-7.6933347407
 30
0.0
 11
1375.1333403763
 21
-7.6933347407
 31
0.0
  0
LINE
  5
3F7
100
AcDbEntity
  8
L1_60
  6
CONTINUOUS
 62
         7
100
AcDbLine
 10
1393.0033403763
 20
-7.6933347407
 30
0.0
 11
1393.0033403763
 21
-5.9892318671
 31
0.0
  0
LINE
  5
3F8
100
AcDbEntity
  8
L1_60
  6
CONTINUOUS
 62
         7
100
AcDbLine
 10
1394.0033403763
 20
-4.9892318671
 30
0.0
 11
1394.7033403763
 21
-4.9892318671
 31
0.0
  0
LINE
  5
3F9
100
AcDbEntity
  8
L1_60
  6
CONTINUOUS
 62
         7
100
AcDbLine
 10
1394.7033403763
 20
-4.9892318671
 30
0.0
 11
1397.3833403763
 21
-4.9892318671
 31
0.0
  0
INSERT
  5
44A
100
AcDbEntity
  8
0
  6
CONTINUOUS
100
AcDbBlockReference
  2
*X12
 10
0.0
 20
0.0
 30
0.0
  0
TEXT
  5
44C
100
AcDbEntity
  8
L1_60
  6
CONTINUOUS
 62
         2
100
AcDbText
 10
1607.8551181589
 20
224.3704784082
 30
0.0
 40
4.5
  1
531512
 41
0.98
  7
BOX
100
AcDbText
  0
ENDSEC
  0
SECTION
  2
OBJECTS
  0
DICTIONARY
  5
19
100
AcDbDictionary
  3
ACAD_GROUP
350
1A
  3
ACAD_MLINESTYLE
350
1B
  0
DICTIONARY
  5
1A
102
{ACAD_REACTORS
330
19
102
}
100
AcDbDictionary
  0
DICTIONARY
  5
1B
102
{ACAD_REACTORS
330
19
102
}
100
AcDbDictionary
  3
STANDARD
350
1C
  0
MLINESTYLE
  5
1C
102
{ACAD_REACTORS
330
1B
102
}
100
AcDbMlineStyle
  2
STANDARD
 70
         0
  3

 62
         0
 51
90.0
 52
90.0
 71
         2
 49
0.5
 62
       256
  6
BYLAYER
 49
-0.5
 62
       256
  6
BYLAYER
  0
ENDSEC
  0
EOF
