  0
SECTION
  2
HEADER
  9
$ACADVER
  1
AC1014
  9
$ACADMAINTVER
 70
         0
  9
$DWGCODEPAGE
  3
BIG5
  9
$INSBASE
 10
0.0
 20
0.0
 30
0.0
  9
$EXTMIN
 10
1089.5114433348
 20
-89.0671719676
 30
0.0
  9
$EXTMAX
 10
1747.5527046504
 20
242.6968213694
 30
0.0
  9
$LIMMIN
 10
0.0
 20
0.0
  9
$LIMMAX
 10
0.0
 20
0.0
  9
$ORTHOMODE
 70
         0
  9
$REGENMODE
 70
         1
  9
$FILLMODE
 70
         1
  9
$QTEXTMODE
 70
         0
  9
$MIRRTEXT
 70
         1
  9
$DRAGMODE
 70
         2
  9
$LTSCALE
 40
1.0
  9
$OSMODE
 70
         0
  9
$ATTMODE
 70
         1
  9
$TEXTSIZE
 40
1.7
  9
$TRACEWID
 40
0.05
  9
$TEXTSTYLE
  7
STANDARD
  9
$CLAYER
  8
0
  9
$CELTYPE
  6
CONTINUOUS
  9
$CECOLOR
 62
         4
  9
$CELTSCALE
 40
1.0
  9
$DELOBJ
 70
         1
  9
$DISPSILH
 70
         0
  9
$DIMSCALE
 40
1.0
  9
$DIMASZ
 40
0.18
  9
$DIMEXO
 40
0.0625
  9
$DIMDLI
 40
0.38
  9
$DIMRND
 40
0.0
  9
$DIMDLE
 40
0.0
  9
$DIMEXE
 40
0.25
  9
$DIMTP
 40
0.01
  9
$DIMTM
 40
-0.01
  9
$DIMTXT
 40
2.7
  9
$DIMCEN
 40
0.09
  9
$DIMTSZ
 40
0.0
  9
$DIMTOL
 70
         0
  9
$DIMLIM
 70
         0
  9
$DIMTIH
 70
         1
  9
$DIMTOH
 70
         1
  9
$DIMSE1
 70
         0
  9
$DIMSE2
 70
         0
  9
$DIMTAD
 70
         0
  9
$DIMZIN
 70
         0
  9
$DIMBLK
  1

  9
$DIMASO
 70
         1
  9
$DIMSHO
 70
         1
  9
$DIMPOST
  1

  9
$DIMAPOST
  1

  9
$DIMALT
 70
         0
  9
$DIMALTD
 70
         2
  9
$DIMALTF
 40
25.4
  9
$DIMLFAC
 40
1.0
  9
$DIMTOFL
 70
         0
  9
$DIMTVP
 40
0.0
  9
$DIMTIX
 70
         0
  9
$DIMSOXD
 70
         0
  9
$DIMSAH
 70
         0
  9
$DIMBLK1
  1

  9
$DIMBLK2
  1

  9
$DIMSTYLE
  2
STANDARD
  9
$DIMCLRD
 70
         0
  9
$DIMCLRE
 70
         0
  9
$DIMCLRT
 70
         4
  9
$DIMTFAC
 40
1.0
  9
$DIMGAP
 40
0.09
  9
$DIMJUST
 70
         0
  9
$DIMSD1
 70
         0
  9
$DIMSD2
 70
         0
  9
$DIMTOLJ
 70
         1
  9
$DIMTZIN
 70
         0
  9
$DIMALTZ
 70
         0
  9
$DIMALTTZ
 70
         0
  9
$DIMFIT
 70
         3
  9
$DIMUPT
 70
         0
  9
$DIMUNIT
 70
         2
  9
$DIMDEC
 70
         4
  9
$DIMTDEC
 70
         4
  9
$DIMALTU
 70
         2
  9
$DIMALTTD
 70
         2
  9
$DIMTXSTY
  7
STANDARD
  9
$DIMAUNIT
 70
         0
  9
$LUNITS
 70
         2
  9
$LUPREC
 70
        10
  9
$SKETCHINC
 40
0.1
  9
$FILLETRAD
 40
0.0
  9
$AUNITS
 70
         0
  9
$AUPREC
 70
         0
  9
$MENU
  1
acad
  9
$ELEVATION
 40
0.0
  9
$PELEVATION
 40
0.0
  9
$THICKNESS
 40
0.0
  9
$LIMCHECK
 70
         0
  9
$BLIPMODE
 70
         1
  9
$CHAMFERA
 40
0.0
  9
$CHAMFERB
 40
0.0
  9
$CHAMFERC
 40
0.0
  9
$CHAMFERD
 40
0.0
  9
$SKPOLY
 70
         0
  9
$TDCREATE
 40
0.000000000
  9
$TDUPDATE
 40
0.000000000
  9
$TDINDWG
 40
0.0000000000
  9
$TDUSRTIMER
 40
0.0000000000
  9
$USRTIMER
 70
         1
  9
$ANGBASE
 50
0.0
  9
$ANGDIR
 70
         0
  9
$PDMODE
 70
         2
  9
$PDSIZE
 40
0.0
  9
$PLINEWID
 40
0.0
  9
$COORDS
 70
         1
  9
$SPLFRAME
 70
         0
  9
$SPLINETYPE
 70
         6
  9
$SPLINESEGS
 70
         8
  9
$ATTDIA
 70
         0
  9
$ATTREQ
 70
         1
  9
$HANDLING
 70
         1
  9
$HANDSEED
  5
382
  9
$SURFTAB1
 70
         6
  9
$SURFTAB2
 70
         6
  9
$SURFTYPE
 70
         6
  9
$SURFU
 70
         6
  9
$SURFV
 70
         6
  9
$UCSNAME
  2

  9
$UCSORG
 10
0.0
 20
0.0
 30
0.0
  9
$UCSXDIR
 10
1.0
 20
0.0
 30
0.0
  9
$UCSYDIR
 10
0.0
 20
1.0
 30
0.0
  9
$PUCSNAME
  2

  9
$PUCSORG
 10
0.0
 20
0.0
 30
0.0
  9
$PUCSXDIR
 10
1.0
 20
0.0
 30
0.0
  9
$PUCSYDIR
 10
0.0
 20
1.0
 30
0.0
  9
$USERI1
 70
         0
  9
$USERI2
 70
         0
  9
$USERI3
 70
         0
  9
$USERI4
 70
         0
  9
$USERI5
 70
         0
  9
$USERR1
 40
0.0
  9
$USERR2
 40
0.0
  9
$USERR3
 40
0.0
  9
$USERR4
 40
0.0
  9
$USERR5
 40
0.0
  9
$WORLDVIEW
 70
         1
  9
$SHADEDGE
 70
         3
  9
$SHADEDIF
 70
        70
  9
$TILEMODE
 70
         1
  9
$MAXACTVP
 70
        16
  9
$PINSBASE
 10
0.0
 20
0.0
 30
0.0
  9
$PLIMCHECK
 70
         0
  9
$PEXTMIN
 10
1.0000000000E+20
 20
1.0000000000E+20
 30
1.0000000000E+20
  9
$PEXTMAX
 10
-1.0000000000E+20
 20
-1.0000000000E+20
 30
-1.0000000000E+20
  9
$PLIMMIN
 10
0.0
 20
0.0
  9
$PLIMMAX
 10
12.0
 20
9.0
  9
$UNITMODE
 70
         0
  9
$VISRETAIN
 70
         0
  9
$PLINEGEN
 70
         1
  9
$PSLTSCALE
 70
         0
  9
$TREEDEPTH
 70
      3020
  9
$PICKSTYLE
 70
         1
  9
$CMLSTYLE
  2
STANDARD
  9
$CMLJUST
 70
         0
  9
$CMLSCALE
 40
1.0
  9
$PROXYGRAPHICS
 70
         0
  9
$MEASUREMENT
 70
         0
  0
ENDSEC
  0
SECTION
  2
CLASSES
  0
CLASS
  1
LWPOLYLINE
  2
AcDbPolyline
  3
"AutoCAD"
 90
        0
280
         0
281
         1
  0
CLASS
  1
IMAGE
  2
AcDbRasterImage
  3
ISM
 90
      127
280
         0
281
         1
  0
CLASS
  1
OLE2FRAME
  2
AcDbOle2Frame
  3
""
 90
        0
280
         0
281
         1
  0
CLASS
  1
HATCH
  2
AcDbHatch
  3
"ACAD_SEDONA"
 90
        0
280
         0
281
         1
  0
CLASS
  1
DICTIONARYVAR
  2
AcDbDictionaryVar
  3
"AutoCAD"
 90
        0
280
         0
281
         0
  0
CLASS
  1
RASTERVARIABLES
  2
AcDbRasterVariables
  3
ISM
 90
        0
280
         0
281
         0
  0
CLASS
  1
IMAGEDEF
  2
AcDbRasterImageDef
  3
ISM
 90
        0
280
         0
281
         0
  0
CLASS
  1
IMAGEDEF_REACTOR
  2
AcDbRasterImageDefReactor
  3
ISM
 90
        1
280
         0
281
         0
  0
CLASS
  1
IDBUFFER
  2
AcDbIdBuffer
  3
"Acad"
 90
        0
280
         0
281
         0
  0
CLASS
  1
SPATIAL_FILTER
  2
AcDbSpatialFilter
  3
"Acad"
 90
        0
280
         0
281
         0
  0
CLASS
  1
XRECORD
  2
AcDbXrecord
  3
"<Built In>"
 90
        0
280
         0
281
         0
  0
CLASS
  1
SORTENTSTABLE
  2
AcDbSortentsTable
  3
"AutoCAD"
 90
        0
280
         0
281
         0
  0
CLASS
  1
LAYER_INDEX
  2
AcDbLayerIndex
  3
"Acad"
 90
        0
280
         0
281
         0
  0
CLASS
  1
SPATIAL_INDEX
  2
AcDbSpatialIndex
  3
"Acad"
 90
        0
280
         0
281
         0
  0
CLASS
  1
OBJECT_PTR
  2
CAseDLPNTableRecord
  3
"ASE-LPNTableRecord"
 90
        1
280
         0
281
         0
  0
CLASS
  1
LAYOUT
  2
AcDbLayout
  3
"AutoCAD 2000"
 90
        1
280
         0
281
         0
  0
CLASS
  1
PLOTSETTINGS
  2
AcDbPlotSettings
  3
"AutoCAD 2000"
 90
        1
280
         0
281
         0
  0
CLASS
  1
ACDBDICTIONARYWDFLT
  2
AcDbDictionaryWithDefault
  3
"AutoCAD 2000"
 90
        1
280
         0
281
         0
  0
CLASS
  1
ACDBPLACEHOLDER
  2
AcDbPlaceHolder
  3
"AutoCAD 2000"
 90
        1
280
         0
281
         0
  0
CLASS
  1
VBA_PROJECT
  2
AcDbVbaProject
  3
"acadvba"
 90
        1
280
         0
281
         0
  0
CLASS
  1
WIPEOUT
  2
AcDbWipeout
  3
WipeOut|AutoCAD Express Tool|expresstools@autodesk.com
 90
      127
280
         0
281
         1
  0
CLASS
  1
WIPEOUTVARIABLES
  2
AcDbWipeoutVariables
  3
WipeOut|AutoCAD Express Tool|expresstools@autodesk.com
 90
        0
280
         0
281
         0
  0
CLASS
  1
RTEXT
  2
RText
  3
RText|AutoCAD Express Tool|expresstools@autodesk.com
 90
        0
280
         0
281
         1
  0
CLASS
  1
ARCALIGNEDTEXT
  2
AcDbArcAlignedText
  3
ATEXT|AutoCAD Express Tool|expresstools@autodesk.com
 90
        0
280
         0
281
         1
  0
ENDSEC
  0
SECTION
  2
TABLES
  0
TABLE
  2
VPORT
  5
7
100
AcDbSymbolTable
 70
         1
  0
VPORT
  5
15
100
AcDbSymbolTableRecord
100
AcDbViewportTableRecord
  2
*ACTIVE
 70
         0
 10
0.0
 20
0.0
 11
1.0
 21
1.0
 12
1418.5320739926
 22
76.8148247009
 13
0.0
 23
0.0
 14
1.0
 24
1.0
 15
0.0
 25
0.0
 16
0.0
 26
0.0
 36
1.0
 17
0.0
 27
0.0
 37
0.0
 40
331.763993337
 41
1.9834619625
 42
50.0
 43
0.0
 44
0.0
 50
0.0
 51
0.0
 71
         0
 72
       100
 73
         1
 74
         1
 75
         0
 76
         0
 77
         0
 78
         0
  0
ENDTAB
  0
TABLE
  2
LTYPE
  5
4
100
AcDbSymbolTable
 70
         6
  0
LTYPE
  5
11
100
AcDbSymbolTableRecord
100
AcDbLinetypeTableRecord
  2
BYBLOCK
 70
        64
  3

 72
        65
 73
         0
 40
0.0
  0
LTYPE
  5
12
100
AcDbSymbolTableRecord
100
AcDbLinetypeTableRecord
  2
BYLAYER
 70
        64
  3

 72
        65
 73
         0
 40
0.0
  0
LTYPE
  5
13
100
AcDbSymbolTableRecord
100
AcDbLinetypeTableRecord
  2
CONTINUOUS
 70
        64
  3
Solid line
 72
        65
 73
         0
 40
0.0
  0
LTYPE
  5
1D
100
AcDbSymbolTableRecord
100
AcDbLinetypeTableRecord
  2
DASHED
 70
        64
  3
_ _ _ _ _ _ _ _ _ _ _ _ _ _ _ _
 72
        65
 73
         2
 40
0.2
 49
0.1
 74
         0
 49
-0.1
 74
         0
  0
LTYPE
  5
1E
100
AcDbSymbolTableRecord
100
AcDbLinetypeTableRecord
  2
CENTER
 70
        64
  3
___ _ ___ _ ___ _ ___ _ ___ _ ___ _ ___ _ ___ _
 72
        65
 73
         4
 40
0.95
 49
0.625
 74
         0
 49
-0.125
 74
         0
 49
0.075
 74
         0
 49
-0.125
 74
         0
  0
LTYPE
  5
1F
100
AcDbSymbolTableRecord
100
AcDbLinetypeTableRecord
  2
PHANTOM
 70
        64
  3
______  __  __  ______  __  __  ______  __  __  
 72
        65
 73
         6
 40
1.025
 49
0.625
 74
         0
 49
-0.125
 74
         0
 49
0.075
 74
         0
 49
-0.125
 74
         0
 49
0.075
 74
         0
 49
-0.125
 74
         0
  0
ENDTAB
  0
TABLE
  2
LAYER
  5
2
100
AcDbSymbolTable
 70
        11
  0
LAYER
  5
14
100
AcDbSymbolTableRecord
100
AcDbLayerTableRecord
  2
0
 70
         0
 62
         7
  6
CONTINUOUS
  0
LAYER
  5
21
100
AcDbSymbolTableRecord
100
AcDbLayerTableRecord
  2
_____U
 70
         1
 62
         7
  6
CONTINUOUS
  0
LAYER
  5
22
100
AcDbSymbolTableRecord
100
AcDbLayerTableRecord
  2
_____T______
 70
         1
 62
         7
  6
CONTINUOUS
  0
LAYER
  5
23
100
AcDbSymbolTableRecord
100
AcDbLayerTableRecord
  2
______L_______
 70
         1
 62
         7
  6
CONTINUOUS
  0
LAYER
  5
24
100
AcDbSymbolTableRecord
100
AcDbLayerTableRecord
  2
ERTGDAOZ____
 70
         1
 62
         7
  6
CONTINUOUS
  0
LAYER
  5
25
100
AcDbSymbolTableRecord
100
AcDbLayerTableRecord
  2
_____M_____M____
 70
         1
 62
         7
  6
CONTINUOUS
  0
LAYER
  5
26
100
AcDbSymbolTableRecord
100
AcDbLayerTableRecord
  2
___L_W______
 70
         1
 62
         7
  6
CONTINUOUS
  0
LAYER
  5
27
100
AcDbSymbolTableRecord
100
AcDbLayerTableRecord
  2
_Y__________
 70
         0
 62
         7
  6
CONTINUOUS
  0
LAYER
  5
28
100
AcDbSymbolTableRecord
100
AcDbLayerTableRecord
  2
_X______
 70
         0
 62
         7
  6
CONTINUOUS
  0
LAYER
  5
29
100
AcDbSymbolTableRecord
100
AcDbLayerTableRecord
  2
L1_90
 70
         0
 62
         7
  6
CONTINUOUS
  0
LAYER
  5
8E
100
AcDbSymbolTableRecord
100
AcDbLayerTableRecord
  2
DEFPOINTS
 70
         0
 62
        -7
  6
CONTINUOUS
  0
ENDTAB
  0
TABLE
  2
STYLE
  5
3
100
AcDbSymbolTable
 70
        16
  0
STYLE
  5
17
100
AcDbSymbolTableRecord
100
AcDbTextStyleTableRecord
  2
STANDARD
 70
         0
 40
0.0
 41
1.0
 50
0.0
 71
         0
 42
0.0
  3
txt
  4

  0
STYLE
  5
97
100
AcDbSymbolTableRecord
100
AcDbTextStyleTableRecord
  2
BOX
 70
         0
 40
1.0
 41
1.0
 50
0.0
 71
         0
 42
0.2
  3
txt.shx
  4

  0
STYLE
  5
A7
100
AcDbSymbolTableRecord
100
AcDbTextStyleTableRecord
  2
BOX
 70
         0
 40
1.0
 41
1.0
 50
0.0
 71
         0
 42
0.2
  3
txt.shx
  4

  0
STYLE
  5
B5
100
AcDbSymbolTableRecord
100
AcDbTextStyleTableRecord
  2
BOX
 70
         0
 40
1.0
 41
1.0
 50
0.0
 71
         0
 42
0.2
  3
txt.shx
  4

  0
STYLE
  5
CD
100
AcDbSymbolTableRecord
100
AcDbTextStyleTableRecord
  2
BOX
 70
         0
 40
1.0
 41
1.0
 50
0.0
 71
         0
 42
0.2
  3
txt.shx
  4

  0
STYLE
  5
E4
100
AcDbSymbolTableRecord
100
AcDbTextStyleTableRecord
  2
BOX
 70
         0
 40
1.0
 41
1.0
 50
0.0
 71
         0
 42
0.2
  3
txt.shx
  4

  0
STYLE
  5
105
100
AcDbSymbolTableRecord
100
AcDbTextStyleTableRecord
  2
BOX
 70
         0
 40
1.0
 41
1.0
 50
0.0
 71
         0
 42
0.2
  3
txt.shx
  4

  0
STYLE
  5
113
100
AcDbSymbolTableRecord
100
AcDbTextStyleTableRecord
  2
BOX
 70
         0
 40
1.0
 41
1.0
 50
0.0
 71
         0
 42
0.2
  3
txt.shx
  4

  0
STYLE
  5
127
100
AcDbSymbolTableRecord
100
AcDbTextStyleTableRecord
  2
BOX
 70
         0
 40
1.0
 41
1.0
 50
0.0
 71
         0
 42
0.2
  3
txt.shx
  4

  0
STYLE
  5
138
100
AcDbSymbolTableRecord
100
AcDbTextStyleTableRecord
  2
BOX
 70
         0
 40
1.0
 41
1.0
 50
0.0
 71
         0
 42
0.2
  3
txt.shx
  4

  0
STYLE
  5
146
100
AcDbSymbolTableRecord
100
AcDbTextStyleTableRecord
  2
BOX
 70
         0
 40
1.0
 41
1.0
 50
0.0
 71
         0
 42
0.2
  3
txt.shx
  4

  0
STYLE
  5
154
100
AcDbSymbolTableRecord
100
AcDbTextStyleTableRecord
  2
BOX
 70
         0
 40
1.0
 41
1.0
 50
0.0
 71
         0
 42
0.2
  3
txt.shx
  4

  0
STYLE
  5
175
100
AcDbSymbolTableRecord
100
AcDbTextStyleTableRecord
  2
BOX
 70
         0
 40
1.0
 41
1.0
 50
0.0
 71
         0
 42
0.2
  3
txt.shx
  4

  0
STYLE
  5
183
100
AcDbSymbolTableRecord
100
AcDbTextStyleTableRecord
  2
BOX
 70
         0
 40
1.0
 41
1.0
 50
0.0
 71
         0
 42
0.2
  3
txt.shx
  4

  0
STYLE
  5
199
100
AcDbSymbolTableRecord
100
AcDbTextStyleTableRecord
  2
BOX
 70
         0
 40
1.0
 41
1.0
 50
0.0
 71
         0
 42
0.2
  3
txt.shx
  4

  0
STYLE
  5
380
100
AcDbSymbolTableRecord
100
AcDbTextStyleTableRecord
  2
BOX
 70
         0
 40
1.0
 41
1.0
 50
0.0
 71
         0
 42
0.2
  3
txt.shx
  4

  0
ENDTAB
  0
TABLE
  2
VIEW
  5
5
100
AcDbSymbolTable
 70
         0
  0
ENDTAB
  0
TABLE
  2
UCS
  5
6
100
AcDbSymbolTable
 70
         1
  0
UCS
  5
20
100
AcDbSymbolTableRecord
100
AcDbUCSTableRecord
  2
CK_VIEW_1
 70
         0
 10
0.0
 20
0.0
 30
1.0
 11
1.0
 21
0.0
 31
0.0
 12
0.0
 22
1.0
 32
0.0
  0
ENDTAB
  0
TABLE
  2
APPID
  5
8
100
AcDbSymbolTable
 70
         1
  0
APPID
  5
16
100
AcDbSymbolTableRecord
100
AcDbRegAppTableRecord
  2
ACAD
 70
         0
  0
ENDTAB
  0
TABLE
  2
DIMSTYLE
  5
9
100
AcDbSymbolTable
 70
         2
  0
DIMSTYLE
105
18
100
AcDbSymbolTableRecord
100
AcDbDimStyleTableRecord
  2
STANDARD
 70
         0
  3

  4

  5

  6

  7

 40
1.0
 41
0.18
 42
0.0625
 43
0.38
 44
0.18
 45
0.0
 46
0.0
 47
0.0
 48
0.0
 71
         0
 72
         0
 73
         1
 74
         1
 75
         0
 76
         0
 77
         0
 78
         0
140
0.18
141
0.09
142
0.0
143
25.4
144
1.0
145
0.0
146
1.0
147
0.09
170
         0
171
         2
172
         0
173
         0
174
         0
175
         0
176
         0
177
         0
178
         0
270
         2
271
         4
272
         4
273
         2
274
         2
275
         0
280
         0
281
         0
282
         0
283
         1
284
         0
285
         0
286
         0
287
         0
288
         0
340
17
  0
DIMSTYLE
105
8A
100
AcDbSymbolTableRecord
100
AcDbDimStyleTableRecord
  2
DIMSTYLE1
 70
         0
  3

  4

  5

  6

  7

 40
1.0
 41
2.7
 42
0.0625
 43
0.38
 44
2.7
 45
0.0
 46
0.0
 47
0.0
 48
0.0
 71
         0
 72
         0
 73
         1
 74
         1
 75
         0
 76
         0
 77
         0
 78
         0
140
2.7
141
0.09
142
0.0
143
25.4
144
1.0
145
0.0
146
1.0
147
0.09
170
         0
171
         2
172
         0
173
         0
174
         0
175
         0
176
         0
177
         0
178
         0
270
         2
271
         4
272
         4
273
         2
274
         2
275
         0
280
         0
281
         0
282
         0
283
         1
284
         0
285
         0
286
         0
287
         0
288
         0
340
17
  0
ENDTAB
  0
TABLE
  2
BLOCK_RECORD
  5
1
100
AcDbSymbolTable
 70
        15
  0
BLOCK_RECORD
  5
A
100
AcDbSymbolTableRecord
100
AcDbBlockTableRecord
  2
*MODEL_SPACE
  0
BLOCK_RECORD
  5
B
100
AcDbSymbolTableRecord
100
AcDbBlockTableRecord
  2
*PAPER_SPACE
  0
BLOCK_RECORD
  5
39
100
AcDbSymbolTableRecord
100
AcDbBlockTableRecord
  2
*X0
  0
BLOCK_RECORD
  5
8B
100
AcDbSymbolTableRecord
100
AcDbBlockTableRecord
  2
*D1
  0
BLOCK_RECORD
  5
9C
100
AcDbSymbolTableRecord
100
AcDbBlockTableRecord
  2
*D2
  0
BLOCK_RECORD
  5
AA
100
AcDbSymbolTableRecord
100
AcDbBlockTableRecord
  2
*D3
  0
BLOCK_RECORD
  5
C2
100
AcDbSymbolTableRecord
100
AcDbBlockTableRecord
  2
*D4
  0
BLOCK_RECORD
  5
D9
100
AcDbSymbolTableRecord
100
AcDbBlockTableRecord
  2
*D5
  0
BLOCK_RECORD
  5
FA
100
AcDbSymbolTableRecord
100
AcDbBlockTableRecord
  2
*D6
  0
BLOCK_RECORD
  5
108
100
AcDbSymbolTableRecord
100
AcDbBlockTableRecord
  2
*D7
  0
BLOCK_RECORD
  5
11C
100
AcDbSymbolTableRecord
100
AcDbBlockTableRecord
  2
*D8
  0
BLOCK_RECORD
  5
12D
100
AcDbSymbolTableRecord
100
AcDbBlockTableRecord
  2
*D9
  0
BLOCK_RECORD
  5
13B
100
AcDbSymbolTableRecord
100
AcDbBlockTableRecord
  2
*D10
  0
BLOCK_RECORD
  5
149
100
AcDbSymbolTableRecord
100
AcDbBlockTableRecord
  2
*D11
  0
BLOCK_RECORD
  5
16A
100
AcDbSymbolTableRecord
100
AcDbBlockTableRecord
  2
*D12
  0
BLOCK_RECORD
  5
178
100
AcDbSymbolTableRecord
100
AcDbBlockTableRecord
  2
*D13
  0
BLOCK_RECORD
  5
18D
100
AcDbSymbolTableRecord
100
AcDbBlockTableRecord
  2
*D14
  0
ENDTAB
  0
ENDSEC
  0
SECTION
  2
BLOCKS
  0
BLOCK
  5
D
100
AcDbEntity
  8
0
100
AcDbBlockBegin
  2
*MODEL_SPACE
 70
         0
 10
0.0
 20
0.0
 30
0.0
  3
*MODEL_SPACE
  1

  0
ENDBLK
  5
E
100
AcDbEntity
  8
0
100
AcDbBlockEnd
  0
BLOCK
  5
F
100
AcDbEntity
 67
         1
  8
0
100
AcDbBlockBegin
  2
*PAPER_SPACE
 70
         0
 10
0.0
 20
0.0
 30
0.0
  3
*PAPER_SPACE
  1

  0
ENDBLK
  5
10
100
AcDbEntity
 67
         1
  8
0
100
AcDbBlockEnd
  0
BLOCK
  5
3A
100
AcDbEntity
  8
0
100
AcDbBlockBegin
  2
*X0
 70
        65
 10
0.0
 20
0.0
 30
0.0
  3
*X0
  1

  0
LINE
  5
3B
100
AcDbEntity
  8
L1_90
  6
CONTINUOUS
 62
         4
100
AcDbLine
 10
1488.9639023825
 20
-36.6975640963
 30
0.0
 11
1489.7575697319
 21
-35.9038967469
 31
0.0
  0
LINE
  5
3C
100
AcDbEntity
  8
L1_90
  6
CONTINUOUS
 62
         4
100
AcDbLine
 10
1484.475491051
 20
-36.9433347407
 30
0.0
 11
1490.0033403763
 21
-31.4154854154
 31
0.0
  0
LINE
  5
3D
100
AcDbEntity
  8
L1_90
  6
CONTINUOUS
 62
         4
100
AcDbLine
 10
1480.2328503639
 20
-36.9433347407
 30
0.0
 11
1488.6322468942
 21
-28.5439382104
 31
0.0
  0
LINE
  5
3E
100
AcDbEntity
  8
L1_90
  6
CONTINUOUS
 62
         4
100
AcDbLine
 10
1475.9902096768
 20
-36.9433347407
 30
0.0
 11
1484.4996279192
 21
-28.4339164982
 31
0.0
  0
LINE
  5
3F
100
AcDbEntity
  8
L1_90
  6
CONTINUOUS
 62
         4
100
AcDbLine
 10
1471.7475689897
 20
-36.9433347407
 30
0.0
 11
1480.3643699852
 21
-28.3265337451
 31
0.0
  0
LINE
  5
40
100
AcDbEntity
  8
L1_90
  6
CONTINUOUS
 62
         4
100
AcDbLine
 10
1467.5049283025
 20
-36.9433347407
 30
0.0
 11
1476.2291120512
 21
-28.219150992
 31
0.0
  0
LINE
  5
41
100
AcDbEntity
  8
L1_90
  6
CONTINUOUS
 62
         4
100
AcDbLine
 10
1463.2622876154
 20
-36.9433347407
 30
0.0
 11
1472.0938541172
 21
-28.1117682389
 31
0.0
  0
LINE
  5
42
100
AcDbEntity
  8
L1_90
  6
CONTINUOUS
 62
         4
100
AcDbLine
 10
1459.0196469283
 20
-36.9433347407
 30
0.0
 11
1467.9585961832
 21
-28.0043854857
 31
0.0
  0
LINE
  5
43
100
AcDbEntity
  8
L1_90
  6
CONTINUOUS
 62
         4
100
AcDbLine
 10
1454.7770062412
 20
-36.9433347407
 30
0.0
 11
1463.8233382492
 21
-27.8970027326
 31
0.0
  0
LINE
  5
44
100
AcDbEntity
  8
L1_90
  6
CONTINUOUS
 62
         4
100
AcDbLine
 10
1450.5343655541
 20
-36.9433347407
 30
0.0
 11
1459.6880803152
 21
-27.7896199795
 31
0.0
  0
LINE
  5
45
100
AcDbEntity
  8
L1_90
  6
CONTINUOUS
 62
         4
100
AcDbLine
 10
1446.2917248669
 20
-36.9433347407
 30
0.0
 11
1455.5528223812
 21
-27.6822372264
 31
0.0
  0
LINE
  5
46
100
AcDbEntity
  8
L1_90
  6
CONTINUOUS
 62
         4
100
AcDbLine
 10
1485.8165027117
 20
2.581443104
 30
0.0
 11
1490.0033403763
 21
6.7682807686
 31
0.0
  0
LINE
  5
47
100
AcDbEntity
  8
L1_90
  6
CONTINUOUS
 62
         4
100
AcDbLine
 10
1442.0490841798
 20
-36.9433347407
 30
0.0
 11
1451.4175644472
 21
-27.5748544733
 31
0.0
  0
LINE
  5
48
100
AcDbEntity
  8
L1_90
  6
CONTINUOUS
 62
         4
100
AcDbLine
 10
1481.4607536443
 20
2.4683347238
 30
0.0
 11
1489.4402408761
 21
10.4478219556
 31
0.0
  0
LINE
  5
49
100
AcDbEntity
  8
L1_90
  6
CONTINUOUS
 62
         4
100
AcDbLine
 10
1437.8064434927
 20
-36.9433347407
 30
0.0
 11
1445.8064434927
 21
-28.9433347407
 31
0.0
  0
LINE
  5
4A
100
AcDbEntity
  8
L1_90
  6
CONTINUOUS
 62
         4
100
AcDbLine
 10
1477.105004577
 20
2.3552263436
 30
0.0
 11
1485.8064434927
 21
11.0566652593
 31
0.0
  0
LINE
  5
4B
100
AcDbEntity
  8
L1_90
  6
CONTINUOUS
 62
         4
100
AcDbLine
 10
1435.1653631113
 20
-35.341774435
 30
0.0
 11
1441.5638028056
 21
-28.9433347407
 31
0.0
  0
LINE
  5
4C
100
AcDbEntity
  8
L1_90
  6
CONTINUOUS
 62
         4
100
AcDbLine
 10
1472.7492555096
 20
2.2421179633
 30
0.0
 11
1481.5638028056
 21
11.0566652593
 31
0.0
  0
LINE
  5
4D
100
AcDbEntity
  8
L1_90
  6
CONTINUOUS
 62
         4
100
AcDbLine
 10
1431.0361621185
 20
-35.2283347407
 30
0.0
 11
1437.3211621185
 21
-28.9433347407
 31
0.0
  0
LINE
  5
4E
100
AcDbEntity
  8
L1_90
  6
CONTINUOUS
 62
         4
100
AcDbLine
 10
1468.3935064423
 20
2.1290095831
 30
0.0
 11
1477.3211621185
 21
11.0566652593
 31
0.0
  0
LINE
  5
4F
100
AcDbEntity
  8
L1_90
  6
CONTINUOUS
 62
         4
100
AcDbLine
 10
1417.3035214312
 20
-44.7183347409
 30
0.0
 11
1419.1033403763
 21
-42.9185157958
 31
0.0
  0
LINE
  5
50
100
AcDbEntity
  8
L1_90
  6
CONTINUOUS
 62
         4
100
AcDbLine
 10
1426.7935214314
 20
-35.2283347407
 30
0.0
 11
1433.0785214314
 21
-28.9433347407
 31
0.0
  0
LINE
  5
51
100
AcDbEntity
  8
L1_90
  6
CONTINUOUS
 62
         4
100
AcDbLine
 10
1464.0377573749
 20
2.0159012029
 30
0.0
 11
1473.0785214314
 21
11.0566652593
 31
0.0
  0
LINE
  5
52
100
AcDbEntity
  8
L1_90
  6
CONTINUOUS
 62
         4
100
AcDbLine
 10
1414.061755478
 20
-43.7174600069
 30
0.0
 11
1419.1033403763
 21
-38.6758751087
 31
0.0
  0
LINE
  5
53
100
AcDbEntity
  8
L1_90
  6
CONTINUOUS
 62
         4
100
AcDbLine
 10
1422.5508807442
 20
-35.2283347407
 30
0.0
 11
1428.8358807442
 21
-28.9433347407
 31
0.0
  0
LINE
  5
54
100
AcDbEntity
  8
L1_90
  6
CONTINUOUS
 62
         4
100
AcDbLine
 10
1459.6820083076
 20
1.9027928227
 30
0.0
 11
1468.8358807442
 21
11.0566652593
 31
0.0
  0
LINE
  5
55
100
AcDbEntity
  8
L1_90
  6
CONTINUOUS
 62
         4
100
AcDbLine
 10
1412.3906801858
 20
-41.145894612
 30
0.0
 11
1425.3384712496
 21
-28.1981035481
 31
0.0
  0
LINE
  5
56
100
AcDbEntity
  8
L1_90
  6
CONTINUOUS
 62
         4
100
AcDbLine
 10
1455.3262592402
 20
1.7896844424
 30
0.0
 11
1464.5932400571
 21
11.0566652593
 31
0.0
  0
LINE
  5
57
100
AcDbEntity
  8
L1_90
  6
CONTINUOUS
 62
         4
100
AcDbLine
 10
1404.5755993698
 20
-44.7183347409
 30
0.0
 11
1422.4707589092
 21
-26.8231752014
 31
0.0
  0
LINE
  5
58
100
AcDbEntity
  8
L1_90
  6
CONTINUOUS
 62
         4
100
AcDbLine
 10
1450.9705101729
 20
1.6765760622
 30
0.0
 11
1460.35059937
 21
11.0566652593
 31
0.0
  0
LINE
  5
59
100
AcDbEntity
  8
L1_90
  6
CONTINUOUS
 62
         4
100
AcDbLine
 10
1403.2033403763
 20
-41.8479530473
 30
0.0
 11
1418.3355009752
 21
-26.7157924483
 31
0.0
  0
LINE
  5
5A
100
AcDbEntity
  8
L1_90
  6
CONTINUOUS
 62
         4
100
AcDbLine
 10
1447.8400635848
 20
2.7887701613
 30
0.0
 11
1456.1079586829
 21
11.0566652593
 31
0.0
  0
LINE
  5
5B
100
AcDbEntity
  8
L1_90
  6
CONTINUOUS
 62
         4
100
AcDbLine
 10
1403.2033403763
 20
-37.6053123602
 30
0.0
 11
1414.2002430412
 21
-26.6084096952
 31
0.0
  0
LINE
  5
5C
100
AcDbEntity
  8
L1_90
  6
CONTINUOUS
 62
         4
100
AcDbLine
 10
1443.8653179958
 20
3.0566652593
 30
0.0
 11
1451.8653179958
 21
11.0566652593
 31
0.0
  0
LINE
  5
5D
100
AcDbEntity
  8
L1_90
  6
CONTINUOUS
 62
         4
100
AcDbLine
 10
1401.2297551169
 20
-35.3362569324
 30
0.0
 11
1410.0649851072
 21
-26.5010269421
 31
0.0
  0
LINE
  5
5E
100
AcDbEntity
  8
L1_90
  6
CONTINUOUS
 62
         4
100
AcDbLine
 10
1439.6226773086
 20
3.0566652593
 30
0.0
 11
1447.6226773086
 21
11.0566652593
 31
0.0
  0
LINE
  5
5F
100
AcDbEntity
  8
L1_90
  6
CONTINUOUS
 62
         4
100
AcDbLine
 10
1397.5175480085
 20
-34.8058233537
 30
0.0
 11
1405.9297271732
 21
-26.393644189
 31
0.0
  0
LINE
  5
60
100
AcDbEntity
  8
L1_90
  6
CONTINUOUS
 62
         4
100
AcDbLine
 10
1435.3800366215
 20
3.0566652593
 30
0.0
 11
1443.3800366215
 21
11.0566652593
 31
0.0
  0
LINE
  5
61
100
AcDbEntity
  8
L1_90
  6
CONTINUOUS
 62
         4
100
AcDbLine
 10
1393.8148797725
 20
-34.2658509026
 30
0.0
 11
1401.7944692392
 21
-26.2862614358
 31
0.0
  0
LINE
  5
62
100
AcDbEntity
  8
L1_90
  6
CONTINUOUS
 62
         4
100
AcDbLine
 10
1431.1373959344
 20
3.0566652593
 30
0.0
 11
1439.1373959344
 21
11.0566652593
 31
0.0
  0
LINE
  5
63
100
AcDbEntity
  8
L1_90
  6
CONTINUOUS
 62
         4
100
AcDbLine
 10
1391.3769537979
 20
-32.46113619
 30
0.0
 11
1396.7947552473
 21
-27.0433347407
 31
0.0
  0
LINE
  5
64
100
AcDbEntity
  8
L1_90
  6
CONTINUOUS
 62
         4
100
AcDbLine
 10
1426.9460043672
 20
3.1079143792
 30
0.0
 11
1433.1797552473
 21
9.3416652593
 31
0.0
  0
LINE
  5
65
100
AcDbEntity
  8
L1_90
  6
CONTINUOUS
 62
         4
100
AcDbLine
 10
1391.3769537979
 20
-28.2184955029
 30
0.0
 11
1392.5521145602
 21
-27.0433347407
 31
0.0
  0
LINE
  5
66
100
AcDbEntity
  8
L1_90
  6
CONTINUOUS
 62
         4
100
AcDbLine
 10
1420.4802667014
 20
0.8848174006
 30
0.0
 11
1421.7360593937
 21
2.1406100928
 31
0.0
  0
LINE
  5
67
100
AcDbEntity
  8
L1_90
  6
CONTINUOUS
 62
         4
100
AcDbLine
 10
1424.1761313094
 20
4.5806820086
 30
0.0
 11
1428.9371145602
 21
9.3416652593
 31
0.0
  0
LINE
  5
68
100
AcDbEntity
  8
L1_90
  6
CONTINUOUS
 62
         4
100
AcDbLine
 10
1416.1245176341
 20
0.7717090203
 30
0.0
 11
1418.9661863359
 21
3.6133777222
 31
0.0
  0
LINE
  5
69
100
AcDbEntity
  8
L1_90
  6
CONTINUOUS
 62
         4
100
AcDbLine
 10
1421.4062582516
 20
6.0534496379
 30
0.0
 11
1424.694473873
 21
9.3416652593
 31
0.0
  0
LINE
  5
6A
100
AcDbEntity
  8
L1_90
  6
CONTINUOUS
 62
         4
100
AcDbLine
 10
1411.7687685667
 20
0.6586006401
 30
0.0
 11
1416.1963132781
 21
5.0861453515
 31
0.0
  0
LINE
  5
6B
100
AcDbEntity
  8
L1_90
  6
CONTINUOUS
 62
         4
100
AcDbLine
 10
1418.6363851938
 20
7.5262172672
 30
0.0
 11
1420.4518331859
 21
9.3416652593
 31
0.0
  0
LINE
  5
6C
100
AcDbEntity
  8
L1_90
  6
CONTINUOUS
 62
         4
100
AcDbLine
 10
1407.4130194994
 20
0.5454922599
 30
0.0
 11
1413.4264402203
 21
6.5589129808
 31
0.0
  0
LINE
  5
6D
100
AcDbEntity
  8
L1_90
  6
CONTINUOUS
 62
         4
100
AcDbLine
 10
1415.866512136
 20
8.9989848966
 30
0.0
 11
1419.1033403763
 21
12.2358131368
 31
0.0
  0
LINE
  5
6E
100
AcDbEntity
  8
L1_90
  6
CONTINUOUS
 62
         4
100
AcDbLine
 10
1403.057270432
 20
0.4323838797
 30
0.0
 11
1410.6565671625
 21
8.0316806102
 31
0.0
  0
LINE
  5
6F
100
AcDbEntity
  8
L1_90
  6
CONTINUOUS
 62
         4
100
AcDbLine
 10
1413.0966390783
 20
10.4717525259
 30
0.0
 11
1419.1033403763
 21
16.4784538239
 31
0.0
  0
LINE
  5
70
100
AcDbEntity
  8
L1_90
  6
CONTINUOUS
 62
         4
100
AcDbLine
 10
1399.5389111246
 20
1.1566652593
 30
0.0
 11
1407.8866941047
 21
9.5044482395
 31
0.0
  0
LINE
  5
71
100
AcDbEntity
  8
L1_90
  6
CONTINUOUS
 62
         4
100
AcDbLine
 10
1410.3267660205
 20
11.9445201552
 30
0.0
 11
1417.2139111247
 21
18.8316652595
 31
0.0
  0
LINE
  5
72
100
AcDbEntity
  8
L1_90
  6
CONTINUOUS
 62
         4
100
AcDbLine
 10
1395.2962704374
 20
1.1566652593
 30
0.0
 11
1405.1168210469
 21
10.9772158688
 31
0.0
  0
LINE
  5
73
100
AcDbEntity
  8
L1_90
  6
CONTINUOUS
 62
         4
100
AcDbLine
 10
1407.5568929627
 20
13.4172877846
 30
0.0
 11
1409.5571120539
 21
15.4175068758
 31
0.0
  0
LINE
  5
74
100
AcDbEntity
  8
L1_90
  6
CONTINUOUS
 62
         4
100
AcDbLine
 10
1391.3769537979
 20
1.4799893069
 30
0.0
 11
1399.0378254971
 21
9.1408610061
 31
0.0
  0
LINE
  5
75
100
AcDbEntity
  8
L1_90
  6
CONTINUOUS
 62
         4
100
AcDbLine
 10
1405.0827861977
 20
15.1858217067
 30
0.0
 11
1407.9922303623
 21
18.0952658713
 31
0.0
  0
LINE
  5
76
100
AcDbEntity
  8
L1_90
  6
CONTINUOUS
 62
         4
100
AcDbLine
 10
1356.7881974121
 20
-28.8661263917
 30
0.0
 11
1359.1269537979
 21
-26.5273700059
 31
0.0
  0
LINE
  5
77
100
AcDbEntity
  8
L1_90
  6
CONTINUOUS
 62
         4
100
AcDbLine
 10
1391.3769537979
 20
5.7226299941
 30
0.0
 11
1394.070831522
 21
8.4165077181
 31
0.0
  0
LINE
  5
78
100
AcDbEntity
  8
L1_90
  6
CONTINUOUS
 62
         4
100
AcDbLine
 10
1403.2033403763
 20
17.5490165724
 30
0.0
 11
1404.4859890634
 21
18.8316652595
 31
0.0
  0
LINE
  5
79
100
AcDbEntity
  8
L1_90
  6
CONTINUOUS
 62
         4
100
AcDbLine
 10
1353.0855291761
 20
-28.3261539407
 30
0.0
 11
1359.1269537979
 21
-22.2847293188
 31
0.0
  0
LINE
  5
7A
100
AcDbEntity
  8
L1_90
  6
CONTINUOUS
 62
         4
100
AcDbLine
 10
1349.3828609401
 20
-27.7861814896
 30
0.0
 11
1357.225707689
 21
-19.9433347407
 31
0.0
  0
LINE
  5
7B
100
AcDbEntity
  8
L1_90
  6
CONTINUOUS
 62
         4
100
AcDbLine
 10
1345.680192704
 20
-27.2462090385
 30
0.0
 11
1352.9830670018
 21
-19.9433347407
 31
0.0
  0
LINE
  5
7C
100
AcDbEntity
  8
L1_90
  6
CONTINUOUS
 62
         4
100
AcDbLine
 10
1341.977524468
 20
-26.7062365874
 30
0.0
 11
1348.7404263147
 21
-19.9433347407
 31
0.0
  0
LINE
  5
7D
100
AcDbEntity
  8
L1_90
  6
CONTINUOUS
 62
         4
100
AcDbLine
 10
1338.274856232
 20
-26.1662641363
 30
0.0
 11
1344.4977856276
 21
-19.9433347407
 31
0.0
  0
LINE
  5
7E
100
AcDbEntity
  8
L1_90
  6
CONTINUOUS
 62
         4
100
AcDbLine
 10
1334.572187996
 20
-25.6262916852
 30
0.0
 11
1340.2551449405
 21
-19.9433347407
 31
0.0
  0
LINE
  5
7F
100
AcDbEntity
  8
L1_90
  6
CONTINUOUS
 62
         4
100
AcDbLine
 10
1354.2551449405
 20
-5.9433347407
 30
0.0
 11
1359.1269537979
 21
-1.0715258832
 31
0.0
  0
LINE
  5
80
100
AcDbEntity
  8
L1_90
  6
CONTINUOUS
 62
         4
100
AcDbLine
 10
1331.7535951711
 20
-24.202243823
 30
0.0
 11
1334.8625042534
 21
-21.0933347407
 31
0.0
  0
LINE
  5
81
100
AcDbEntity
  8
L1_90
  6
CONTINUOUS
 62
         4
100
AcDbLine
 10
1350.0125042534
 20
-5.9433347407
 30
0.0
 11
1358.6335768765
 21
2.6777378824
 31
0.0
  0
LINE
  5
82
100
AcDbEntity
  8
L1_90
  6
CONTINUOUS
 62
         4
100
AcDbLine
 10
1345.7698635663
 20
-5.9433347407
 30
0.0
 11
1354.3348797206
 21
2.6216814137
 31
0.0
  0
LINE
  5
83
100
AcDbEntity
  8
L1_90
  6
CONTINUOUS
 62
         4
100
AcDbLine
 10
1341.5272228791
 20
-5.9433347407
 30
0.0
 11
1349.3678857455
 21
1.8973281257
 31
0.0
  0
LINE
  5
84
100
AcDbEntity
  8
L1_90
  6
CONTINUOUS
 62
         4
100
AcDbLine
 10
1337.4703826404
 20
-5.7575342923
 30
0.0
 11
1344.4008917703
 21
1.1729748376
 31
0.0
  0
LINE
  5
85
100
AcDbEntity
  8
L1_90
  6
CONTINUOUS
 62
         4
100
AcDbLine
 10
1334.1919415049
 20
-4.7933347407
 30
0.0
 11
1339.4338977952
 21
0.4486215496
 31
0.0
  0
LINE
  5
86
100
AcDbEntity
  8
L1_90
  6
CONTINUOUS
 62
         4
100
AcDbLine
 10
1331.7533403763
 20
-2.9892951822
 30
0.0
 11
1334.46690382
 21
-0.2757317385
 31
0.0
  0
ENDBLK
  5
87
100
AcDbEntity
  8
0
  6
CONTINUOUS
100
AcDbBlockEnd
  0
BLOCK
  5
8C
100
AcDbEntity
  8
0
100
AcDbBlockBegin
  2
*D1
 70
        65
 10
0.0
 20
0.0
 30
0.0
  3
*D1
  1

  0
POINT
  5
8F
100
AcDbEntity
  8
DEFPOINTS
  6
CONTINUOUS
 62
         0
100
AcDbPoint
 10
1350.9703320083
 20
53.0066652593
 30
0.0
  0
POINT
  5
90
100
AcDbEntity
  8
DEFPOINTS
  6
CONTINUOUS
 62
         0
100
AcDbPoint
 10
1365.8283403763
 20
53.0066652593
 30
0.0
  0
POINT
  5
91
100
AcDbEntity
  8
DEFPOINTS
  6
CONTINUOUS
 62
         0
100
AcDbPoint
 10
1365.8283403763
 20
41.1066652593
 30
0.0
  0
LINE
  5
92
100
AcDbEntity
  8
L1_90
  6
CONTINUOUS
 62
         4
100
AcDbLine
 10
1364.4783403763
 20
53.0066652593
 30
0.0
 11
1350.2953320083
 21
53.0066652593
 31
0.0
  0
LINE
  5
93
100
AcDbEntity
  8
L1_90
  6
CONTINUOUS
 62
         4
100
AcDbLine
 10
1364.4783403763
 20
41.1066652593
 30
0.0
 11
1350.2953320083
 21
41.1066652593
 31
0.0
  0
LINE
  5
94
100
AcDbEntity
  8
L1_90
  6
CONTINUOUS
 62
         4
100
AcDbLine
 10
1350.9703320083
 20
53.0066652593
 30
0.0
 11
1350.9703320083
 21
41.1066652593
 31
0.0
  0
SOLID
  5
95
100
AcDbEntity
  8
L1_90
  6
CONTINUOUS
 62
         4
100
AcDbTrace
 10
1350.9703320083
 20
53.0066652593
 30
0.0
 11
1351.3753320083
 21
50.3066652593
 31
0.0
 12
1350.5653320083
 22
50.3066652593
 32
0.0
 13
1350.9703320083
 23
53.0066652593
 33
0.0
  0
SOLID
  5
96
100
AcDbEntity
  8
L1_90
  6
CONTINUOUS
 62
         4
100
AcDbTrace
 10
1350.9703320083
 20
41.1066652593
 30
0.0
 11
1350.5653320083
 21
43.8066652593
 31
0.0
 12
1351.3753320083
 22
43.8066652593
 32
0.0
 13
1350.9703320083
 23
41.1066652593
 33
0.0
  0
TEXT
  5
98
100
AcDbEntity
  8
L1_90
  6
CONTINUOUS
 62
         4
100
AcDbText
 10
1348.9453320083
 20
38.4152031489
 30
0.0
 40
2.7
  1
11.9A13
 50
90.0
  7
BOX
100
AcDbText
  0
ENDBLK
  5
99
100
AcDbEntity
  8
0
  6
CONTINUOUS
100
AcDbBlockEnd
  0
BLOCK
  5
9D
100
AcDbEntity
  8
0
100
AcDbBlockBegin
  2
*D2
 70
        65
 10
0.0
 20
0.0
 30
0.0
  3
*D2
  1

  0
POINT
  5
9F
100
AcDbEntity
  8
DEFPOINTS
  6
CONTINUOUS
 62
         0
100
AcDbPoint
 10
1490.0033403763
 20
-64.9878473099
 30
0.0
  0
POINT
  5
A0
100
AcDbEntity
  8
DEFPOINTS
  6
CONTINUOUS
 62
         0
100
AcDbPoint
 10
1490.0033403763
 20
-34.9433347407
 30
0.0
  0
POINT
  5
A1
100
AcDbEntity
  8
DEFPOINTS
  6
CONTINUOUS
 62
         0
100
AcDbPoint
 10
1391.3769537979
 20
-32.899742295
 30
0.0
  0
LINE
  5
A2
100
AcDbEntity
  8
L1_90
  6
CONTINUOUS
 62
         4
100
AcDbLine
 10
1490.0033403763
 20
-36.2933347407
 30
0.0
 11
1490.0033403763
 21
-65.6628473099
 31
0.0
  0
LINE
  5
A3
100
AcDbEntity
  8
L1_90
  6
CONTINUOUS
 62
         4
100
AcDbLine
 10
1391.3769537979
 20
-34.249742295
 30
0.0
 11
1391.3769537979
 21
-65.6628473099
 31
0.0
  0
LINE
  5
A4
100
AcDbEntity
  8
L1_90
  6
CONTINUOUS
 62
         4
100
AcDbLine
 10
1490.0033403763
 20
-64.9878473099
 30
0.0
 11
1391.3769537979
 21
-64.9878473099
 31
0.0
  0
SOLID
  5
A5
100
AcDbEntity
  8
L1_90
  6
CONTINUOUS
 62
         4
100
AcDbTrace
 10
1490.0033403763
 20
-64.9878473099
 30
0.0
 11
1487.3033403763
 21
-65.3928473099
 31
0.0
 12
1487.3033403763
 22
-64.5828473099
 32
0.0
 13
1490.0033403763
 23
-64.9878473099
 33
0.0
  0
SOLID
  5
A6
100
AcDbEntity
  8
L1_90
  6
CONTINUOUS
 62
         4
100
AcDbTrace
 10
1391.3769537979
 20
-64.9878473099
 30
0.0
 11
1394.0769537979
 21
-64.5828473099
 31
0.0
 12
1394.0769537979
 22
-65.3928473099
 32
0.0
 13
1391.3769537979
 23
-64.9878473099
 33
0.0
  0
TEXT
  5
A8
100
AcDbEntity
  8
L1_90
  6
CONTINUOUS
 62
         4
100
AcDbText
 10
1438.4683403063
 20
-62.9628473099
 30
0.0
 40
2.7
  1
98
  7
BOX
100
AcDbText
  0
ENDBLK
  5
A9
100
AcDbEntity
  8
0
  6
CONTINUOUS
100
AcDbBlockEnd
  0
BLOCK
  5
AB
100
AcDbEntity
  8
0
100
AcDbBlockBegin
  2
*D3
 70
        65
 10
0.0
 20
0.0
 30
0.0
  3
*D3
  1

  0
POINT
  5
AD
100
AcDbEntity
  8
DEFPOINTS
  6
CONTINUOUS
 62
         0
100
AcDbPoint
 10
1490.0033403763
 20
-73.3119904523
 30
0.0
  0
POINT
  5
AE
100
AcDbEntity
  8
DEFPOINTS
  6
CONTINUOUS
 62
         0
100
AcDbPoint
 10
1490.0033403763
 20
-34.9433347407
 30
0.0
  0
POINT
  5
AF
100
AcDbEntity
  8
DEFPOINTS
  6
CONTINUOUS
 62
         0
100
AcDbPoint
 10
1358.0033403763
 20
-21.1933347407
 30
0.0
  0
LINE
  5
B0
100
AcDbEntity
  8
L1_90
  6
CONTINUOUS
 62
         4
100
AcDbLine
 10
1490.0033403763
 20
-36.2933347407
 30
0.0
 11
1490.0033403763
 21
-73.9869904523
 31
0.0
  0
LINE
  5
B1
100
AcDbEntity
  8
L1_90
  6
CONTINUOUS
 62
         4
100
AcDbLine
 10
1358.0033403763
 20
-22.5433347407
 30
0.0
 11
1358.0033403763
 21
-73.9869904523
 31
0.0
  0
LINE
  5
B2
100
AcDbEntity
  8
L1_90
  6
CONTINUOUS
 62
         4
100
AcDbLine
 10
1490.0033403763
 20
-73.3119904523
 30
0.0
 11
1358.0033403763
 21
-73.3119904523
 31
0.0
  0
SOLID
  5
B3
100
AcDbEntity
  8
L1_90
  6
CONTINUOUS
 62
         4
100
AcDbTrace
 10
1490.0033403763
 20
-73.3119904523
 30
0.0
 11
1487.3033403763
 21
-73.7169904523
 31
0.0
 12
1487.3033403763
 22
-72.9069904523
 32
0.0
 13
1490.0033403763
 23
-73.3119904523
 33
0.0
  0
SOLID
  5
B4
100
AcDbEntity
  8
L1_90
  6
CONTINUOUS
 62
         4
100
AcDbTrace
 10
1358.0033403763
 20
-73.3119904523
 30
0.0
 11
1360.7033403763
 21
-72.9069904523
 31
0.0
 12
1360.7033403763
 22
-73.7169904523
 32
0.0
 13
1358.0033403763
 23
-73.3119904523
 33
0.0
  0
TEXT
  5
B6
100
AcDbEntity
  8
L1_90
  6
CONTINUOUS
 62
         4
100
AcDbText
 10
1425.464539907
 20
-71.2869904523
 30
0.0
 40
2.7
  1
132
  7
BOX
100
AcDbText
  0
ENDBLK
  5
B7
100
AcDbEntity
  8
0
  6
CONTINUOUS
100
AcDbBlockEnd
  0
BLOCK
  5
C3
100
AcDbEntity
  8
0
100
AcDbBlockBegin
  2
*D4
 70
        65
 10
0.0
 20
0.0
 30
0.0
  3
*D4
  1

  0
POINT
  5
C5
100
AcDbEntity
  8
DEFPOINTS
  6
CONTINUOUS
 62
         0
100
AcDbPoint
 10
1375.5946277131
 20
-4.6933347407
 30
0.0
  0
POINT
  5
C6
100
AcDbEntity
  8
DEFPOINTS
  6
CONTINUOUS
 62
         0
100
AcDbPoint
 10
1382.9969537979
 20
-4.6933347407
 30
0.0
  0
POINT
  5
C7
100
AcDbEntity
  8
DEFPOINTS
  6
CONTINUOUS
 62
         0
100
AcDbPoint
 10
1382.9969537979
 20
-21.1933347407
 30
0.0
  0
LINE
  5
C8
100
AcDbEntity
  8
L1_90
  6
CONTINUOUS
 62
         4
100
AcDbLine
 10
1381.6469537979
 20
-4.6933347407
 30
0.0
 11
1374.9196277131
 21
-4.6933347407
 31
0.0
  0
LINE
  5
C9
100
AcDbEntity
  8
L1_90
  6
CONTINUOUS
 62
         4
100
AcDbLine
 10
1381.6469537979
 20
-21.1933347407
 30
0.0
 11
1374.9196277131
 21
-21.1933347407
 31
0.0
  0
LINE
  5
CA
100
AcDbEntity
  8
L1_90
  6
CONTINUOUS
 62
         4
100
AcDbLine
 10
1375.5946277131
 20
-4.6933347407
 30
0.0
 11
1375.5946277131
 21
-21.1933347407
 31
0.0
  0
SOLID
  5
CB
100
AcDbEntity
  8
L1_90
  6
CONTINUOUS
 62
         4
100
AcDbTrace
 10
1375.5946277131
 20
-4.6933347407
 30
0.0
 11
1375.9996277131
 21
-7.3933347407
 31
0.0
 12
1375.1896277131
 22
-7.3933347407
 32
0.0
 13
1375.5946277131
 23
-4.6933347407
 33
0.0
  0
SOLID
  5
CC
100
AcDbEntity
  8
L1_90
  6
CONTINUOUS
 62
         4
100
AcDbTrace
 10
1375.5946277131
 20
-21.1933347407
 30
0.0
 11
1375.1896277131
 21
-18.4933347407
 31
0.0
 12
1375.9996277131
 22
-18.4933347407
 32
0.0
 13
1375.5946277131
 23
-21.1933347407
 33
0.0
  0
TEXT
  5
CE
100
AcDbEntity
  8
L1_90
  6
CONTINUOUS
 62
         4
100
AcDbText
 10
1373.5696277131
 20
-21.0433347407
 30
0.0
 40
2.7
  1
崷16.5
 50
90.0
  7
BOX
100
AcDbText
  0
ENDBLK
  5
CF
100
AcDbEntity
  8
0
  6
CONTINUOUS
100
AcDbBlockEnd
  0
BLOCK
  5
DA
100
AcDbEntity
  8
0
100
AcDbBlockBegin
  2
*D5
 70
        65
 10
0.0
 20
0.0
 30
0.0
  3
*D5
  1

  0
POINT
  5
DC
100
AcDbEntity
  8
DEFPOINTS
  6
CONTINUOUS
 62
         0
100
AcDbPoint
 10
1424.0033403763
 20
-56.3441846906
 30
0.0
  0
POINT
  5
DD
100
AcDbEntity
  8
DEFPOINTS
  6
CONTINUOUS
 62
         0
100
AcDbPoint
 10
1424.0033403763
 20
-26.8629726748
 30
0.0
  0
POINT
  5
DE
100
AcDbEntity
  8
DEFPOINTS
  6
CONTINUOUS
 62
         0
100
AcDbPoint
 10
1490.0033403763
 20
-34.9433347407
 30
0.0
  0
LINE
  5
DF
100
AcDbEntity
  8
L1_90
  6
CONTINUOUS
 62
         4
100
AcDbLine
 10
1424.0033403763
 20
-28.2129726748
 30
0.0
 11
1424.0033403763
 21
-57.0191846906
 31
0.0
  0
LINE
  5
E0
100
AcDbEntity
  8
L1_90
  6
CONTINUOUS
 62
         4
100
AcDbLine
 10
1490.0033403763
 20
-36.2933347407
 30
0.0
 11
1490.0033403763
 21
-57.0191846906
 31
0.0
  0
LINE
  5
E1
100
AcDbEntity
  8
L1_90
  6
CONTINUOUS
 62
         4
100
AcDbLine
 10
1424.0033403763
 20
-56.3441846906
 30
0.0
 11
1490.0033403763
 21
-56.3441846906
 31
0.0
  0
SOLID
  5
E2
100
AcDbEntity
  8
L1_90
  6
CONTINUOUS
 62
         4
100
AcDbTrace
 10
1424.0033403763
 20
-56.3441846906
 30
0.0
 11
1426.7033403763
 21
-55.9391846906
 31
0.0
 12
1426.7033403763
 22
-56.7491846906
 32
0.0
 13
1424.0033403763
 23
-56.3441846906
 33
0.0
  0
SOLID
  5
E3
100
AcDbEntity
  8
L1_90
  6
CONTINUOUS
 62
         4
100
AcDbTrace
 10
1490.0033403763
 20
-56.3441846906
 30
0.0
 11
1487.3033403763
 21
-56.7491846906
 31
0.0
 12
1487.3033403763
 22
-55.9391846906
 32
0.0
 13
1490.0033403763
 23
-56.3441846906
 33
0.0
  0
TEXT
  5
E5
100
AcDbEntity
  8
L1_90
  6
CONTINUOUS
 62
         4
100
AcDbText
 10
1453.8439541797
 20
-54.3191846906
 30
0.0
 40
2.7
  1
66.2
  7
BOX
100
AcDbText
  0
ENDBLK
  5
E6
100
AcDbEntity
  8
0
  6
CONTINUOUS
100
AcDbBlockEnd
  0
BLOCK
  5
FB
100
AcDbEntity
  8
0
100
AcDbBlockBegin
  2
*D6
 70
        65
 10
0.0
 20
0.0
 30
0.0
  3
*D6
  1

  0
POINT
  5
FD
100
AcDbEntity
  8
DEFPOINTS
  6
CONTINUOUS
 62
         0
100
AcDbPoint
 10
1331.7533403763
 20
222.891639854
 30
0.0
  0
POINT
  5
FE
100
AcDbEntity
  8
DEFPOINTS
  6
CONTINUOUS
 62
         0
100
AcDbPoint
 10
1331.7533403763
 20
161.4188234458
 30
0.0
  0
POINT
  5
FF
100
AcDbEntity
  8
DEFPOINTS
  6
CONTINUOUS
 62
         0
100
AcDbPoint
 10
1490.0033403763
 20
150.1846417294
 30
0.0
  0
LINE
  5
100
100
AcDbEntity
  8
L1_90
  6
CONTINUOUS
 62
         4
100
AcDbLine
 10
1331.7533403763
 20
162.7688234458
 30
0.0
 11
1331.7533403763
 21
223.566639854
 31
0.0
  0
LINE
  5
101
100
AcDbEntity
  8
L1_90
  6
CONTINUOUS
 62
         4
100
AcDbLine
 10
1490.0033403763
 20
151.5346417294
 30
0.0
 11
1490.0033403763
 21
223.566639854
 31
0.0
  0
LINE
  5
102
100
AcDbEntity
  8
L1_90
  6
CONTINUOUS
 62
         4
100
AcDbLine
 10
1331.7533403763
 20
222.891639854
 30
0.0
 11
1490.0033403763
 21
222.891639854
 31
0.0
  0
SOLID
  5
103
100
AcDbEntity
  8
L1_90
  6
CONTINUOUS
 62
         4
100
AcDbTrace
 10
1331.7533403763
 20
222.891639854
 30
0.0
 11
1334.4533403763
 21
223.296639854
 31
0.0
 12
1334.4533403763
 22
222.486639854
 32
0.0
 13
1331.7533403763
 23
222.891639854
 33
0.0
  0
SOLID
  5
104
100
AcDbEntity
  8
L1_90
  6
CONTINUOUS
 62
         4
100
AcDbTrace
 10
1490.0033403763
 20
222.891639854
 30
0.0
 11
1487.3033403763
 21
222.486639854
 31
0.0
 12
1487.3033403763
 22
223.296639854
 32
0.0
 13
1490.0033403763
 23
222.891639854
 33
0.0
  0
TEXT
  5
106
100
AcDbEntity
  8
L1_90
  6
CONTINUOUS
 62
         4
100
AcDbText
 10
1399.2181460681
 20
224.916639854
 30
0.0
 40
2.7
  1
158.25
  7
BOX
100
AcDbText
  0
ENDBLK
  5
107
100
AcDbEntity
  8
0
  6
CONTINUOUS
100
AcDbBlockEnd
  0
BLOCK
  5
109
100
AcDbEntity
  8
0
100
AcDbBlockBegin
  2
*D7
 70
        65
 10
0.0
 20
0.0
 30
0.0
  3
*D7
  1

  0
POINT
  5
10B
100
AcDbEntity
  8
DEFPOINTS
  6
CONTINUOUS
 62
         0
100
AcDbPoint
 10
1400.0033403763
 20
216.5441259477
 30
0.0
  0
POINT
  5
10C
100
AcDbEntity
  8
DEFPOINTS
  6
CONTINUOUS
 62
         0
100
AcDbPoint
 10
1400.0033403763
 20
172.4096417294
 30
0.0
  0
POINT
  5
10D
100
AcDbEntity
  8
DEFPOINTS
  6
CONTINUOUS
 62
         0
100
AcDbPoint
 10
1490.0033403763
 20
150.1846417294
 30
0.0
  0
LINE
  5
10E
100
AcDbEntity
  8
L1_90
  6
CONTINUOUS
 62
         4
100
AcDbLine
 10
1400.0033403763
 20
173.7596417294
 30
0.0
 11
1400.0033403763
 21
217.2191259477
 31
0.0
  0
LINE
  5
10F
100
AcDbEntity
  8
L1_90
  6
CONTINUOUS
 62
         4
100
AcDbLine
 10
1490.0033403763
 20
151.5346417294
 30
0.0
 11
1490.0033403763
 21
217.2191259477
 31
0.0
  0
LINE
  5
110
100
AcDbEntity
  8
L1_90
  6
CONTINUOUS
 62
         4
100
AcDbLine
 10
1400.0033403763
 20
216.5441259477
 30
0.0
 11
1490.0033403763
 21
216.5441259477
 31
0.0
  0
SOLID
  5
111
100
AcDbEntity
  8
L1_90
  6
CONTINUOUS
 62
         4
100
AcDbTrace
 10
1400.0033403763
 20
216.5441259477
 30
0.0
 11
1402.7033403763
 21
216.9491259477
 31
0.0
 12
1402.7033403763
 22
216.1391259477
 32
0.0
 13
1400.0033403763
 23
216.5441259477
 33
0.0
  0
SOLID
  5
112
100
AcDbEntity
  8
L1_90
  6
CONTINUOUS
 62
         4
100
AcDbTrace
 10
1490.0033403763
 20
216.5441259477
 30
0.0
 11
1487.3033403763
 21
216.1391259477
 31
0.0
 12
1487.3033403763
 22
216.9491259477
 32
0.0
 13
1490.0033403763
 23
216.5441259477
 33
0.0
  0
TEXT
  5
114
100
AcDbEntity
  8
L1_90
  6
CONTINUOUS
 62
         4
100
AcDbText
 10
1438.9524258343
 20
218.5691259477
 30
0.0
 40
2.7
  1
90
  7
BOX
100
AcDbText
  0
ENDBLK
  5
115
100
AcDbEntity
  8
0
  6
CONTINUOUS
100
AcDbBlockEnd
  0
BLOCK
  5
11D
100
AcDbEntity
  8
0
100
AcDbBlockBegin
  2
*D8
 70
        65
 10
0.0
 20
0.0
 30
0.0
  3
*D8
  1

  0
POINT
  5
11F
100
AcDbEntity
  8
DEFPOINTS
  6
CONTINUOUS
 62
         0
100
AcDbPoint
 10
1503.2980842082
 20
174.1846417294
 30
0.0
  0
POINT
  5
120
100
AcDbEntity
  8
DEFPOINTS
  6
CONTINUOUS
 62
         0
100
AcDbPoint
 10
1488.0033403763
 20
174.1846417294
 30
0.0
  0
POINT
  5
121
100
AcDbEntity
  8
DEFPOINTS
  6
CONTINUOUS
 62
         0
100
AcDbPoint
 10
1488.0033403763
 20
126.1846417294
 30
0.0
  0
LINE
  5
122
100
AcDbEntity
  8
L1_90
  6
CONTINUOUS
 62
         4
100
AcDbLine
 10
1489.3533403763
 20
174.1846417294
 30
0.0
 11
1503.9730842082
 21
174.1846417294
 31
0.0
  0
LINE
  5
123
100
AcDbEntity
  8
L1_90
  6
CONTINUOUS
 62
         4
100
AcDbLine
 10
1489.3533403763
 20
126.1846417294
 30
0.0
 11
1503.9730842082
 21
126.1846417294
 31
0.0
  0
LINE
  5
124
100
AcDbEntity
  8
L1_90
  6
CONTINUOUS
 62
         4
100
AcDbLine
 10
1503.2980842082
 20
174.1846417294
 30
0.0
 11
1503.2980842082
 21
126.1846417294
 31
0.0
  0
SOLID
  5
125
100
AcDbEntity
  8
L1_90
  6
CONTINUOUS
 62
         4
100
AcDbTrace
 10
1503.2980842082
 20
174.1846417294
 30
0.0
 11
1503.7030842082
 21
171.4846417294
 31
0.0
 12
1502.8930842082
 22
171.4846417294
 32
0.0
 13
1503.2980842082
 23
174.1846417294
 33
0.0
  0
SOLID
  5
126
100
AcDbEntity
  8
L1_90
  6
CONTINUOUS
 62
         4
100
AcDbTrace
 10
1503.2980842082
 20
126.1846417294
 30
0.0
 11
1502.8930842082
 21
128.8846417294
 31
0.0
 12
1503.7030842082
 22
128.8846417294
 32
0.0
 13
1503.2980842082
 23
126.1846417294
 33
0.0
  0
TEXT
  5
128
100
AcDbEntity
  8
L1_90
  6
CONTINUOUS
 62
         4
100
AcDbText
 10
1501.2730842082
 20
144.4442802338
 30
0.0
 40
2.7
  1
崷48
 50
90.0
  7
BOX
100
AcDbText
  0
ENDBLK
  5
129
100
AcDbEntity
  8
0
  6
CONTINUOUS
100
AcDbBlockEnd
  0
BLOCK
  5
12E
100
AcDbEntity
  8
0
100
AcDbBlockBegin
  2
*D9
 70
        65
 10
0.0
 20
0.0
 30
0.0
  3
*D9
  1

  0
POINT
  5
130
100
AcDbEntity
  8
DEFPOINTS
  6
CONTINUOUS
 62
         0
100
AcDbPoint
 10
1359.1269537979
 20
62.4849985139
 30
0.0
  0
POINT
  5
131
100
AcDbEntity
  8
DEFPOINTS
  6
CONTINUOUS
 62
         0
100
AcDbPoint
 10
1359.1269537979
 20
47.0566652593
 30
0.0
  0
POINT
  5
132
100
AcDbEntity
  8
DEFPOINTS
  6
CONTINUOUS
 62
         0
100
AcDbPoint
 10
1391.3769537979
 20
47.0566652593
 30
0.0
  0
LINE
  5
133
100
AcDbEntity
  8
L1_90
  6
CONTINUOUS
 62
         4
100
AcDbLine
 10
1359.1269537979
 20
48.4066652593
 30
0.0
 11
1359.1269537979
 21
63.1599985139
 31
0.0
  0
LINE
  5
134
100
AcDbEntity
  8
L1_90
  6
CONTINUOUS
 62
         4
100
AcDbLine
 10
1391.3769537979
 20
48.4066652593
 30
0.0
 11
1391.3769537979
 21
63.1599985139
 31
0.0
  0
LINE
  5
135
100
AcDbEntity
  8
L1_90
  6
CONTINUOUS
 62
         4
100
AcDbLine
 10
1359.1269537979
 20
62.4849985139
 30
0.0
 11
1391.3769537979
 21
62.4849985139
 31
0.0
  0
SOLID
  5
136
100
AcDbEntity
  8
L1_90
  6
CONTINUOUS
 62
         4
100
AcDbTrace
 10
1359.1269537979
 20
62.4849985139
 30
0.0
 11
1361.8269537979
 21
62.8899985139
 31
0.0
 12
1361.8269537979
 22
62.0799985139
 32
0.0
 13
1359.1269537979
 23
62.4849985139
 33
0.0
  0
SOLID
  5
137
100
AcDbEntity
  8
L1_90
  6
CONTINUOUS
 62
         4
100
AcDbTrace
 10
1391.3769537979
 20
62.4849985139
 30
0.0
 11
1388.6769537979
 21
62.0799985139
 31
0.0
 12
1388.6769537979
 22
62.8899985139
 32
0.0
 13
1391.3769537979
 23
62.4849985139
 33
0.0
  0
TEXT
  5
139
100
AcDbEntity
  8
L1_90
  6
CONTINUOUS
 62
         4
100
AcDbText
 10
1372.5519537979
 20
64.5099985139
 30
0.0
 40
2.7
  1
32
  7
BOX
100
AcDbText
  0
ENDBLK
  5
13A
100
AcDbEntity
  8
0
  6
CONTINUOUS
100
AcDbBlockEnd
  0
BLOCK
  5
13C
100
AcDbEntity
  8
0
100
AcDbBlockBegin
  2
*D10
 70
        65
 10
0.0
 20
0.0
 30
0.0
  3
*D10
  1

  0
POINT
  5
13E
100
AcDbEntity
  8
DEFPOINTS
  6
CONTINUOUS
 62
         0
100
AcDbPoint
 10
1449.0033403763
 20
-47.5613438546
 30
0.0
  0
POINT
  5
13F
100
AcDbEntity
  8
DEFPOINTS
  6
CONTINUOUS
 62
         0
100
AcDbPoint
 10
1449.0033403763
 20
-28.9433347407
 30
0.0
  0
POINT
  5
140
100
AcDbEntity
  8
DEFPOINTS
  6
CONTINUOUS
 62
         0
100
AcDbPoint
 10
1490.0033403763
 20
-34.9433347407
 30
0.0
  0
LINE
  5
141
100
AcDbEntity
  8
L1_90
  6
CONTINUOUS
 62
         4
100
AcDbLine
 10
1449.0033403763
 20
-30.2933347407
 30
0.0
 11
1449.0033403763
 21
-48.2363438546
 31
0.0
  0
LINE
  5
142
100
AcDbEntity
  8
L1_90
  6
CONTINUOUS
 62
         4
100
AcDbLine
 10
1490.0033403763
 20
-36.2933347407
 30
0.0
 11
1490.0033403763
 21
-48.2363438546
 31
0.0
  0
LINE
  5
143
100
AcDbEntity
  8
L1_90
  6
CONTINUOUS
 62
         4
100
AcDbLine
 10
1449.0033403763
 20
-47.5613438546
 30
0.0
 11
1490.0033403763
 21
-47.5613438546
 31
0.0
  0
SOLID
  5
144
100
AcDbEntity
  8
L1_90
  6
CONTINUOUS
 62
         4
100
AcDbTrace
 10
1449.0033403763
 20
-47.5613438546
 30
0.0
 11
1451.7033403763
 21
-47.1563438546
 31
0.0
 12
1451.7033403763
 22
-47.9663438546
 32
0.0
 13
1449.0033403763
 23
-47.5613438546
 33
0.0
  0
SOLID
  5
145
100
AcDbEntity
  8
L1_90
  6
CONTINUOUS
 62
         4
100
AcDbTrace
 10
1490.0033403763
 20
-47.5613438546
 30
0.0
 11
1487.3033403763
 21
-47.9663438546
 31
0.0
 12
1487.3033403763
 22
-47.1563438546
 32
0.0
 13
1490.0033403763
 23
-47.5613438546
 33
0.0
  0
TEXT
  5
147
100
AcDbEntity
  8
L1_90
  6
CONTINUOUS
 62
         4
100
AcDbText
 10
1463.4553649059
 20
-45.5363438546
 30
0.0
 40
2.7
  1
41.2
  7
BOX
100
AcDbText
  0
ENDBLK
  5
148
100
AcDbEntity
  8
0
  6
CONTINUOUS
100
AcDbBlockEnd
  0
BLOCK
  5
14A
100
AcDbEntity
  8
0
100
AcDbBlockBegin
  2
*D11
 70
        65
 10
0.0
 20
0.0
 30
0.0
  3
*D11
  1

  0
POINT
  5
14C
100
AcDbEntity
  8
DEFPOINTS
  6
CONTINUOUS
 62
         0
100
AcDbPoint
 10
1444.9737508757
 20
3.0566652593
 30
0.0
  0
POINT
  5
14D
100
AcDbEntity
  8
DEFPOINTS
  6
CONTINUOUS
 62
         0
100
AcDbPoint
 10
1449.0033403763
 20
3.0566652593
 30
0.0
  0
POINT
  5
14E
100
AcDbEntity
  8
DEFPOINTS
  6
CONTINUOUS
 62
         0
100
AcDbPoint
 10
1449.0033403763
 20
-28.9433347407
 30
0.0
  0
LINE
  5
14F
100
AcDbEntity
  8
L1_90
  6
CONTINUOUS
 62
         4
100
AcDbLine
 10
1447.6533403763
 20
3.0566652593
 30
0.0
 11
1444.2987508757
 21
3.0566652593
 31
0.0
  0
LINE
  5
150
100
AcDbEntity
  8
L1_90
  6
CONTINUOUS
 62
         4
100
AcDbLine
 10
1447.6533403763
 20
-28.9433347407
 30
0.0
 11
1444.2987508757
 21
-28.9433347407
 31
0.0
  0
LINE
  5
151
100
AcDbEntity
  8
L1_90
  6
CONTINUOUS
 62
         4
100
AcDbLine
 10
1444.9737508757
 20
3.0566652593
 30
0.0
 11
1444.9737508757
 21
-28.9433347407
 31
0.0
  0
SOLID
  5
152
100
AcDbEntity
  8
L1_90
  6
CONTINUOUS
 62
         4
100
AcDbTrace
 10
1444.9737508757
 20
3.0566652593
 30
0.0
 11
1445.3787508757
 21
0.3566652593
 31
0.0
 12
1444.5687508757
 22
0.3566652593
 32
0.0
 13
1444.9737508757
 23
3.0566652593
 33
0.0
  0
SOLID
  5
153
100
AcDbEntity
  8
L1_90
  6
CONTINUOUS
 62
         4
100
AcDbTrace
 10
1444.9737508757
 20
-28.9433347407
 30
0.0
 11
1444.5687508757
 21
-26.2433347407
 31
0.0
 12
1445.3787508757
 22
-26.2433347407
 32
0.0
 13
1444.9737508757
 23
-28.9433347407
 33
0.0
  0
TEXT
  5
155
100
AcDbEntity
  8
L1_90
  6
CONTINUOUS
 62
         4
100
AcDbText
 10
1442.9487508757
 20
-18.025097295
 30
0.0
 40
2.7
  1
崷32
 50
90.0
  7
BOX
100
AcDbText
  0
ENDBLK
  5
156
100
AcDbEntity
  8
0
  6
CONTINUOUS
100
AcDbBlockEnd
  0
BLOCK
  5
16B
100
AcDbEntity
  8
0
100
AcDbBlockBegin
  2
*D12
 70
        65
 10
0.0
 20
0.0
 30
0.0
  3
*D12
  1

  0
POINT
  5
16D
100
AcDbEntity
  8
DEFPOINTS
  6
CONTINUOUS
 62
         0
100
AcDbPoint
 10
1383.0033403763
 20
32.3521853539
 30
0.0
  0
POINT
  5
16E
100
AcDbEntity
  8
DEFPOINTS
  6
CONTINUOUS
 62
         0
100
AcDbPoint
 10
1383.0033403763
 20
0.8141292134
 30
0.0
  0
POINT
  5
16F
100
AcDbEntity
  8
DEFPOINTS
  6
CONTINUOUS
 62
         0
100
AcDbPoint
 10
1490.0033403763
 20
9.0566652593
 30
0.0
  0
LINE
  5
170
100
AcDbEntity
  8
L1_90
  6
CONTINUOUS
 62
         4
100
AcDbLine
 10
1383.0033403763
 20
2.1641292134
 30
0.0
 11
1383.0033403763
 21
33.0271853539
 31
0.0
  0
LINE
  5
171
100
AcDbEntity
  8
L1_90
  6
CONTINUOUS
 62
         4
100
AcDbLine
 10
1490.0033403763
 20
10.4066652593
 30
0.0
 11
1490.0033403763
 21
33.0271853539
 31
0.0
  0
LINE
  5
172
100
AcDbEntity
  8
L1_90
  6
CONTINUOUS
 62
         4
100
AcDbLine
 10
1383.0033403763
 20
32.3521853539
 30
0.0
 11
1490.0033403763
 21
32.3521853539
 31
0.0
  0
SOLID
  5
173
100
AcDbEntity
  8
L1_90
  6
CONTINUOUS
 62
         4
100
AcDbTrace
 10
1383.0033403763
 20
32.3521853539
 30
0.0
 11
1385.7033403763
 21
32.7571853539
 31
0.0
 12
1385.7033403763
 22
31.9471853539
 32
0.0
 13
1383.0033403763
 23
32.3521853539
 33
0.0
  0
SOLID
  5
174
100
AcDbEntity
  8
L1_90
  6
CONTINUOUS
 62
         4
100
AcDbTrace
 10
1490.0033403763
 20
32.3521853539
 30
0.0
 11
1487.3033403763
 21
31.9471853539
 31
0.0
 12
1487.3033403763
 22
32.7571853539
 32
0.0
 13
1490.0033403763
 23
32.3521853539
 33
0.0
  0
TEXT
  5
176
100
AcDbEntity
  8
L1_90
  6
CONTINUOUS
 62
         4
100
AcDbText
 10
1431.1040454322
 20
34.3771853539
 30
0.0
 40
2.7
  1
107
  7
BOX
100
AcDbText
  0
ENDBLK
  5
177
100
AcDbEntity
  8
0
  6
CONTINUOUS
100
AcDbBlockEnd
  0
BLOCK
  5
179
100
AcDbEntity
  8
0
100
AcDbBlockBegin
  2
*D13
 70
        65
 10
0.0
 20
0.0
 30
0.0
  3
*D13
  1

  0
POINT
  5
17B
100
AcDbEntity
  8
DEFPOINTS
  6
CONTINUOUS
 62
         0
100
AcDbPoint
 10
1383.0033403763
 20
24.5182417521
 30
0.0
  0
POINT
  5
17C
100
AcDbEntity
  8
DEFPOINTS
  6
CONTINUOUS
 62
         0
100
AcDbPoint
 10
1383.0033403763
 20
-1.1858707866
 30
0.0
  0
POINT
  5
17D
100
AcDbEntity
  8
DEFPOINTS
  6
CONTINUOUS
 62
         0
100
AcDbPoint
 10
1401.0033403763
 20
0.8141292134
 30
0.0
  0
LINE
  5
17E
100
AcDbEntity
  8
L1_90
  6
CONTINUOUS
 62
         4
100
AcDbLine
 10
1383.0033403763
 20
0.1641292134
 30
0.0
 11
1383.0033403763
 21
25.1932417521
 31
0.0
  0
LINE
  5
17F
100
AcDbEntity
  8
L1_90
  6
CONTINUOUS
 62
         4
100
AcDbLine
 10
1401.0033403763
 20
2.1641292134
 30
0.0
 11
1401.0033403763
 21
25.1932417521
 31
0.0
  0
LINE
  5
180
100
AcDbEntity
  8
L1_90
  6
CONTINUOUS
 62
         4
100
AcDbLine
 10
1383.0033403763
 20
24.5182417521
 30
0.0
 11
1401.0033403763
 21
24.5182417521
 31
0.0
  0
SOLID
  5
181
100
AcDbEntity
  8
L1_90
  6
CONTINUOUS
 62
         4
100
AcDbTrace
 10
1383.0033403763
 20
24.5182417521
 30
0.0
 11
1385.7033403763
 21
24.9232417521
 31
0.0
 12
1385.7033403763
 22
24.1132417521
 32
0.0
 13
1383.0033403763
 23
24.5182417521
 33
0.0
  0
SOLID
  5
182
100
AcDbEntity
  8
L1_90
  6
CONTINUOUS
 62
         4
100
AcDbTrace
 10
1401.0033403763
 20
24.5182417521
 30
0.0
 11
1398.3033403763
 21
24.1132417521
 31
0.0
 12
1398.3033403763
 22
24.9232417521
 32
0.0
 13
1401.0033403763
 23
24.5182417521
 33
0.0
  0
TEXT
  5
184
100
AcDbEntity
  8
L1_90
  6
CONTINUOUS
 62
         4
100
AcDbText
 10
1389.0386534222
 20
26.5432417521
 30
0.0
 40
2.7
  1
18
  7
BOX
100
AcDbText
  0
ENDBLK
  5
185
100
AcDbEntity
  8
0
  6
CONTINUOUS
100
AcDbBlockEnd
  0
BLOCK
  5
18E
100
AcDbEntity
  8
0
100
AcDbBlockBegin
  2
*D14
 70
        65
 10
0.0
 20
0.0
 30
0.0
  3
*D14
  1

  0
POINT
  5
190
100
AcDbEntity
  8
DEFPOINTS
  6
CONTINUOUS
 62
         0
100
AcDbPoint
 10
1398.2337142147
 20
-27.0433347407
 30
0.0
  0
POINT
  5
191
100
AcDbEntity
  8
DEFPOINTS
  6
CONTINUOUS
 62
         0
100
AcDbPoint
 10
1401.0033403763
 20
-27.0433347407
 30
0.0
  0
POINT
  5
192
100
AcDbEntity
  8
DEFPOINTS
  6
CONTINUOUS
 62
         0
100
AcDbPoint
 10
1401.0033403763
 20
1.1566652593
 30
0.0
  0
LINE
  5
193
100
AcDbEntity
  8
L1_90
  6
CONTINUOUS
 62
         4
100
AcDbLine
 10
1399.6533403763
 20
-27.0433347407
 30
0.0
 11
1397.5587142147
 21
-27.0433347407
 31
0.0
  0
LINE
  5
194
100
AcDbEntity
  8
L1_90
  6
CONTINUOUS
 62
         4
100
AcDbLine
 10
1399.6533403763
 20
1.1566652593
 30
0.0
 11
1397.5587142147
 21
1.1566652593
 31
0.0
  0
LINE
  5
195
100
AcDbEntity
  8
L1_90
  6
CONTINUOUS
 62
         4
100
AcDbLine
 10
1398.2337142147
 20
-27.0433347407
 30
0.0
 11
1398.2337142147
 21
1.1566652593
 31
0.0
  0
SOLID
  5
196
100
AcDbEntity
  8
L1_90
  6
CONTINUOUS
 62
         4
100
AcDbTrace
 10
1398.2337142147
 20
-27.0433347407
 30
0.0
 11
1397.8287142147
 21
-24.3433347407
 31
0.0
 12
1398.6387142147
 22
-24.3433347407
 32
0.0
 13
1398.2337142147
 23
-27.0433347407
 33
0.0
  0
LINE
  5
197
100
AcDbEntity
  8
L1_90
  6
CONTINUOUS
 62
         4
100
AcDbLine
 10
1398.2337142147
 20
-27.0433347407
 30
0.0
 11
1398.2337142147
 21
-59.5676004309
 31
0.0
  0
SOLID
  5
198
100
AcDbEntity
  8
L1_90
  6
CONTINUOUS
 62
         4
100
AcDbTrace
 10
1398.2337142147
 20
1.1566652593
 30
0.0
 11
1398.6387142147
 21
-1.5433347407
 31
0.0
 12
1397.8287142147
 22
-1.5433347407
 32
0.0
 13
1398.2337142147
 23
1.1566652593
 33
0.0
  0
TEXT
  5
19A
100
AcDbEntity
  8
L1_90
  6
CONTINUOUS
 62
         4
100
AcDbText
 10
1396.2087142147
 20
-58.2176004309
 30
0.0
 40
2.7
  1
崷27.64
 50
90.0
  7
BOX
100
AcDbText
  0
ENDBLK
  5
19B
100
AcDbEntity
  8
0
  6
CONTINUOUS
100
AcDbBlockEnd
  0
ENDSEC
  0
SECTION
  2
ENTITIES
  0
LINE
  5
2A
100
AcDbEntity
  8
L1_90
  6
CONTINUOUS
 62
         7
100
AcDbLine
 10
1209.5001470871
 20
133.2323738055
 30
0.0
 11
1209.5001470871
 21
129.8035840742
 31
0.0
  0
LINE
  5
2B
100
AcDbEntity
  8
L1_90
  6
CONTINUOUS
 62
         7
100
AcDbLine
 10
1220.8733403763
 20
133.0530731054
 30
0.0
 11
1220.8733403763
 21
129.9511043077
 31
0.0
  0
ARC
  5
2C
100
AcDbEntity
  8
L1_90
  6
CONTINUOUS
 62
         7
100
AcDbCircle
 10
1214.9233403763
 20
116.4348284321
 30
0.0
 40
17.6513046549
100
AcDbArc
 50
70.3005899278
 51
107.8930005372
  0
ARC
  5
2D
100
AcDbEntity
  8
L1_90
  6
CONTINUOUS
 62
         7
100
AcDbCircle
 10
1214.9233403763
 20
150.1846417294
 30
0.0
 40
21.0902474285
100
AcDbArc
 50
255.0994403992
 51
286.3868286882
  0
LINE
  5
2E
100
AcDbEntity
  8
L1_90
  6
DASHED
 62
         2
100
AcDbLine
 10
1220.8733403763
 20
144.4697489045
 30
0.0
 11
1220.8733403763
 21
133.0530731054
 31
0.0
  0
LINE
  5
2F
100
AcDbEntity
  8
L1_90
  6
DASHED
 62
         2
100
AcDbLine
 10
1209.5001470871
 20
143.9676107219
 30
0.0
 11
1209.5001470871
 21
133.2323738055
 31
0.0
  0
LINE
  5
30
100
AcDbEntity
  8
L1_90
  6
DASHED
 62
         2
100
AcDbLine
 10
1209.5001470871
 20
156.4016727369
 30
0.0
 11
1209.5001470871
 21
167.1369096533
 31
0.0
  0
LINE
  5
31
100
AcDbEntity
  8
L1_90
  6
DASHED
 62
         2
100
AcDbLine
 10
1220.8733403763
 20
155.8995345543
 30
0.0
 11
1220.8733403763
 21
167.3162103534
 31
0.0
  0
CIRCLE
  5
32
100
AcDbEntity
  8
L1_90
  6
DASHED
 62
         2
100
AcDbCircle
 10
1214.9233403763
 20
150.1846417294
 30
0.0
 40
8.25
  0
LINE
  5
33
100
AcDbEntity
  8
L1_90
  6
CONTINUOUS
 62
         7
100
AcDbLine
 10
1209.5001470871
 20
167.1369096533
 30
0.0
 11
1209.5001470871
 21
170.5656993846
 31
0.0
  0
ARC
  5
34
100
AcDbEntity
  8
L1_90
  6
CONTINUOUS
 62
         7
100
AcDbCircle
 10
1214.9233403763
 20
150.1846417294
 30
0.0
 40
21.0902474285
100
AcDbArc
 50
73.6131713118
 51
104.9005596008
  0
LINE
  5
35
100
AcDbEntity
  8
L1_90
  6
CONTINUOUS
 62
         7
100
AcDbLine
 10
1220.8733403763
 20
167.3162103534
 30
0.0
 11
1220.8733403763
 21
170.4181791511
 31
0.0
  0
ARC
  5
36
100
AcDbEntity
  8
L1_90
  6
CONTINUOUS
 62
         7
100
AcDbCircle
 10
1214.9233403763
 20
183.9344550267
 30
0.0
 40
17.6513046549
100
AcDbArc
 50
252.1069994628
 51
289.6994100722
  0
LINE
  5
37
100
AcDbEntity
  8
_Y__________
  6
CONTINUOUS
 62
         7
100
AcDbLine
 10
1646.0833403763
 20
142.6906441313
 30
0.0
 11
1646.0833403763
 21
142.6346417294
 31
0.0
  0
LINE
  5
38
100
AcDbEntity
  8
_Y__________
  6
CONTINUOUS
 62
         7
100
AcDbLine
 10
1646.0833403763
 20
157.7346417294
 30
0.0
 11
1646.0833403763
 21
157.6786393275
 31
0.0
  0
INSERT
  5
89
100
AcDbEntity
  8
0
  6
CONTINUOUS
100
AcDbBlockReference
  2
*X0
 10
0.0
 20
0.0
 30
0.0
  0
DIMENSION
  5
8D
100
AcDbEntity
  8
L1_90
  6
CONTINUOUS
 62
         4
100
AcDbDimension
  2
*D1
 10
1350.9703320083
 20
53.0066652593
 30
0.0
 11
1348.9453320083
 21
38.4152031489
 31
0.0
  3
DIMSTYLE1
100
AcDbAlignedDimension
 13
1365.8283403763
 23
53.0066652593
 33
0.0
 14
1365.8283403763
 24
41.1066652593
 34
0.0
 50
90.0
100
AcDbRotatedDimension
  0
CIRCLE
  5
9A
100
AcDbEntity
  8
L1_90
  6
DASHED
 62
         2
100
AcDbCircle
 10
1623.2833403763
 20
150.1846417294
 30
0.0
 40
16.0
  0
LINE
  5
9B
100
AcDbEntity
  8
L1_90
  6
CONTINUOUS
 62
         7
100
AcDbLine
 10
1359.1269537979
 20
-4.6933347407
 30
0.0
 11
1359.1269537979
 21
2.3099478137
 31
0.0
  0
DIMENSION
  5
9E
100
AcDbEntity
  8
L1_90
  6
CONTINUOUS
 62
         4
100
AcDbDimension
  2
*D2
 10
1490.0033403763
 20
-64.9878473099
 30
0.0
 11
1438.4683403063
 21
-62.9628473099
 31
0.0
  3
DIMSTYLE1
100
AcDbAlignedDimension
 13
1490.0033403763
 23
-34.9433347407
 33
0.0
 14
1391.3769537979
 24
-32.899742295
 34
0.0
100
AcDbRotatedDimension
  0
DIMENSION
  5
AC
100
AcDbEntity
  8
L1_90
  6
CONTINUOUS
 62
         4
100
AcDbDimension
  2
*D3
 10
1490.0033403763
 20
-73.3119904523
 30
0.0
 11
1425.464539907
 21
-71.2869904523
 31
0.0
  3
DIMSTYLE1
100
AcDbAlignedDimension
 13
1490.0033403763
 23
-34.9433347407
 33
0.0
 14
1358.0033403763
 24
-21.1933347407
 34
0.0
100
AcDbRotatedDimension
  0
LINE
  5
B8
100
AcDbEntity
  8
L1_90
  6
CONTINUOUS
 62
         7
100
AcDbLine
 10
1357.2816525398
 20
-5.9433347407
 30
0.0
 11
1357.2816525398
 21
-19.9433347407
 31
0.0
  0
LINE
  5
B9
100
AcDbEntity
  8
L1_90
  6
CONTINUOUS
 62
         7
100
AcDbLine
 10
1358.0033403763
 20
-4.6933347407
 30
0.0
 11
1357.2816525398
 21
-5.9433347407
 31
0.0
  0
LINE
  5
BA
100
AcDbEntity
  8
L1_90
  6
CONTINUOUS
 62
         7
100
AcDbLine
 10
1358.0033403763
 20
-21.1933347407
 30
0.0
 11
1357.2816525398
 21
-19.9433347407
 31
0.0
  0
LINE
  5
BB
100
AcDbEntity
  8
L1_90
  6
CONTINUOUS
 62
         7
100
AcDbLine
 10
1358.0033403763
 20
-4.6933347407
 30
0.0
 11
1358.0033403763
 21
-21.1933347407
 31
0.0
  0
LINE
  5
BC
100
AcDbEntity
  8
L1_90
  6
CONTINUOUS
 62
         7
100
AcDbLine
 10
1359.1269537979
 20
-28.196617295
 30
0.0
 11
1357.9931139238
 21
-29.041843383
 31
0.0
  0
LINE
  5
BD
100
AcDbEntity
  8
L1_90
  6
CONTINUOUS
 62
         7
100
AcDbLine
 10
1359.1269537979
 20
-28.196617295
 30
0.0
 11
1391.3769537979
 21
-32.899742295
 31
0.0
  0
LINE
  5
BE
100
AcDbEntity
  8
L1_90
  6
CONTINUOUS
 62
         7
100
AcDbLine
 10
1391.3769537979
 20
-32.899742295
 30
0.0
 11
1392.2221798859
 21
-34.0335821692
 31
0.0
  0
LINE
  5
BF
100
AcDbEntity
  8
L1_90
  6
CONTINUOUS
 62
         7
100
AcDbLine
 10
1359.1269537979
 20
2.3099478137
 30
0.0
 11
1357.9931139238
 21
3.1551739017
 31
0.0
  0
LINE
  5
C0
100
AcDbEntity
  8
L1_90
  6
CONTINUOUS
 62
         7
100
AcDbLine
 10
1391.3769537979
 20
7.0130728137
 30
0.0
 11
1392.2221798859
 21
8.1469126878
 31
0.0
  0
LINE
  5
C1
100
AcDbEntity
  8
L1_90
  6
CONTINUOUS
 62
         7
100
AcDbLine
 10
1359.1269537979
 20
2.3099478137
 30
0.0
 11
1391.3769537979
 21
7.0130728137
 31
0.0
  0
DIMENSION
  5
C4
100
AcDbEntity
  8
L1_90
  6
CONTINUOUS
 62
         4
100
AcDbDimension
  2
*D4
 10
1375.5946277131
 20
-4.6933347407
 30
0.0
 11
1373.5696277131
 21
-21.0433347407
 31
0.0
  3
DIMSTYLE1
100
AcDbAlignedDimension
 13
1382.9969537979
 23
-4.6933347407
 33
0.0
 14
1382.9969537979
 24
-21.1933347407
 34
0.0
 50
90.0
100
AcDbRotatedDimension
  0
LINE
  5
D0
100
AcDbEntity
  8
_Y__________
  6
CONTINUOUS
 62
         7
100
AcDbLine
 10
1435.2017869857
 20
9.4881118687
 30
0.0
 11
1436.7703403763
 21
11.0566652593
 31
0.0
  0
LINE
  5
D1
100
AcDbEntity
  8
_Y__________
  6
CONTINUOUS
 62
         7
100
AcDbLine
 10
1435.2017869857
 20
-35.3747813501
 30
0.0
 11
1436.7703403763
 21
-36.9433347407
 31
0.0
  0
ARC
  5
D2
100
AcDbEntity
  8
_Y__________
  6
CONTINUOUS
 62
         7
100
AcDbCircle
 10
1434.8482335951
 20
9.8416652593
 30
0.0
 40
0.5
100
AcDbArc
 50
270.0
 51
315.0
  0
ARC
  5
D3
100
AcDbEntity
  8
_Y__________
  6
CONTINUOUS
 62
         7
100
AcDbCircle
 10
1434.8482335951
 20
-35.7283347407
 30
0.0
 40
0.5
100
AcDbArc
 50
45.0
 51
90.0
  0
LINE
  5
D4
100
AcDbEntity
  8
L1_90
  6
CONTINUOUS
 62
         4
100
AcDbLine
 10
1436.7703403763
 20
174.1846417294
 30
0.0
 11
1436.7703403763
 21
126.1846417294
 31
0.0
  0
ARC
  5
D5
100
AcDbEntity
  8
_Y__________
  6
CONTINUOUS
 62
         7
100
AcDbCircle
 10
1434.8482335951
 20
127.3996417294
 30
0.0
 40
0.5
100
AcDbArc
 50
45.0
 51
90.0
  0
ARC
  5
D6
100
AcDbEntity
  8
_Y__________
  6
CONTINUOUS
 62
         7
100
AcDbCircle
 10
1434.8482335951
 20
172.9696417294
 30
0.0
 40
0.5
100
AcDbArc
 50
270.0
 51
315.0
  0
LINE
  5
D7
100
AcDbEntity
  8
_Y__________
  6
CONTINUOUS
 62
         7
100
AcDbLine
 10
1435.2017869857
 20
127.75319512
 30
0.0
 11
1436.7703403763
 21
126.1846417294
 31
0.0
  0
LINE
  5
D8
100
AcDbEntity
  8
_Y__________
  6
CONTINUOUS
 62
         7
100
AcDbLine
 10
1435.2017869857
 20
172.6160883388
 30
0.0
 11
1436.7703403763
 21
174.1846417294
 31
0.0
  0
DIMENSION
  5
DB
100
AcDbEntity
  8
L1_90
  6
CONTINUOUS
 62
         4
100
AcDbDimension
  2
*D5
 10
1424.0033403763
 20
-56.3441846906
 30
0.0
 11
1453.8439541797
 21
-54.3191846906
 31
0.0
  3
DIMSTYLE1
100
AcDbAlignedDimension
 13
1424.0033403763
 23
-26.8629726748
 33
0.0
 14
1490.0033403763
 24
-34.9433347407
 34
0.0
100
AcDbRotatedDimension
  0
LINE
  5
E7
100
AcDbEntity
  8
L1_90
  6
CONTINUOUS
 62
         7
100
AcDbLine
 10
1426.0837024422
 20
3.0566652593
 30
0.0
 11
1426.0837024422
 21
-28.9433347407
 31
0.0
  0
LINE
  5
E8
100
AcDbEntity
  8
L1_90
  6
CONTINUOUS
 62
         7
100
AcDbLine
 10
1424.0033403763
 20
-26.8629726748
 30
0.0
 11
1426.0837024422
 21
-28.9433347407
 31
0.0
  0
LINE
  5
E9
100
AcDbEntity
  8
L1_90
  6
CONTINUOUS
 62
         7
100
AcDbLine
 10
1424.0033403763
 20
0.9763031934
 30
0.0
 11
1426.0837024422
 21
3.0566652593
 31
0.0
  0
LINE
  5
EA
100
AcDbEntity
  8
L1_90
  6
CONTINUOUS
 62
         7
100
AcDbLine
 10
1391.3769537979
 20
-27.0433347407
 30
0.0
 11
1391.3769537979
 21
-32.899742295
 31
0.0
  0
LINE
  5
EB
100
AcDbEntity
  8
L1_90
  6
CONTINUOUS
 62
         7
100
AcDbLine
 10
1391.3769537979
 20
1.1566652593
 30
0.0
 11
1391.3769537979
 21
7.0130728137
 31
0.0
  0
LINE
  5
EC
100
AcDbEntity
  8
L1_90
  6
CONTINUOUS
 62
         7
100
AcDbLine
 10
1358.0033403763
 20
-21.1933347407
 30
0.0
 11
1382.9969537979
 21
-21.1933347407
 31
0.0
  0
LINE
  5
ED
100
AcDbEntity
  8
L1_90
  6
CONTINUOUS
 62
         7
100
AcDbLine
 10
1358.0033403763
 20
-4.6933347407
 30
0.0
 11
1382.9969537979
 21
-4.6933347407
 31
0.0
  0
ARC
  5
EE
100
AcDbEntity
  8
L1_90
  6
CONTINUOUS
 62
         7
100
AcDbCircle
 10
1384.9969537979
 20
-25.0433347407
 30
0.0
 40
2.0
100
AcDbArc
 50
180.0
 51
270.0
  0
ARC
  5
EF
100
AcDbEntity
  8
L1_90
  6
CONTINUOUS
 62
         7
100
AcDbCircle
 10
1384.9969537979
 20
-0.8433347407
 30
0.0
 40
2.0
100
AcDbArc
 50
90.0
 51
180.0
  0
LINE
  5
F0
100
AcDbEntity
  8
L1_90
  6
CONTINUOUS
 62
         7
100
AcDbLine
 10
1382.9969537979
 20
-0.8433347407
 30
0.0
 11
1382.9969537979
 21
-25.0433347407
 31
0.0
  0
LINE
  5
F1
100
AcDbEntity
  8
L1_90
  6
CONTINUOUS
 62
         7
100
AcDbLine
 10
1384.9969537979
 20
-27.0433347407
 30
0.0
 11
1401.0033403763
 21
-27.0433347407
 31
0.0
  0
LINE
  5
F2
100
AcDbEntity
  8
L1_90
  6
CONTINUOUS
 62
         7
100
AcDbLine
 10
1384.9969537979
 20
1.1566652593
 30
0.0
 11
1401.0033403763
 21
1.1566652593
 31
0.0
  0
LINE
  5
F3
100
AcDbEntity
  8
L1_90
  6
CONTINUOUS
 62
         7
100
AcDbLine
 10
1401.0033403763
 20
1.1566652593
 30
0.0
 11
1401.0033403763
 21
-27.0433347407
 31
0.0
  0
LINE
  5
F4
100
AcDbEntity
  8
L1_90
  6
CONTINUOUS
 62
         7
100
AcDbLine
 10
1359.1269537979
 20
-28.196617295
 30
0.0
 11
1359.1269537979
 21
-21.1933347407
 31
0.0
  0
LINE
  5
F5
100
AcDbEntity
  8
L1_90
  6
CENTER
 62
         1
100
AcDbLine
 10
1385.8533403763
 20
-34.1153708103
 30
0.0
 11
1385.8533403763
 21
8.228701329
 31
0.0
  0
LINE
  5
F6
100
AcDbEntity
  8
L1_90
  6
CENTER
 62
         1
100
AcDbLine
 10
1366.1533403763
 20
-31.2424541436
 30
0.0
 11
1366.1533403763
 21
5.3557846623
 31
0.0
  0
LINE
  5
F7
100
AcDbEntity
  8
L1_90
  6
CONTINUOUS
 62
         7
100
AcDbLine
 10
1331.7533403763
 20
161.4188234458
 30
0.0
 11
1331.7533403763
 21
138.9504600129
 31
0.0
  0
LINE
  5
F8
100
AcDbEntity
  8
L1_90
  6
CENTER
 62
         1
100
AcDbLine
 10
1400.0033403763
 20
172.4096417294
 30
0.0
 11
1400.0033403763
 21
127.9596417294
 31
0.0
  0
LINE
  5
F9
100
AcDbEntity
  8
L1_90
  6
CONTINUOUS
 62
         7
100
AcDbLine
 10
1403.2033403763
 20
180.9596417294
 30
0.0
 11
1403.2033403763
 21
119.4096417294
 31
0.0
  0
DIMENSION
  5
FC
100
AcDbEntity
  8
L1_90
  6
CONTINUOUS
 62
         4
100
AcDbDimension
  2
*D6
 10
1331.7533403763
 20
222.891639854
 30
0.0
 11
1399.2181460681
 21
224.916639854
 31
0.0
  3
DIMSTYLE1
100
AcDbAlignedDimension
 13
1331.7533403763
 23
161.4188234458
 33
0.0
 14
1490.0033403763
 24
150.1846417294
 34
0.0
100
AcDbRotatedDimension
  0
DIMENSION
  5
10A
100
AcDbEntity
  8
L1_90
  6
CONTINUOUS
 62
         4
100
AcDbDimension
  2
*D7
 10
1400.0033403763
 20
216.5441259477
 30
0.0
 11
1438.9524258343
 21
218.5691259477
 31
0.0
  3
DIMSTYLE1
100
AcDbAlignedDimension
 13
1400.0033403763
 23
172.4096417294
 33
0.0
 14
1490.0033403763
 24
150.1846417294
 34
0.0
100
AcDbRotatedDimension
  0
LINE
  5
116
100
AcDbEntity
  8
L1_90
  6
CENTER
 62
         1
100
AcDbLine
 10
1419.1033403763
 20
150.1846417294
 30
0.0
 11
1492.1587951367
 21
150.1846417294
 31
0.0
  0
ARC
  5
117
100
AcDbEntity
  8
L1_90
  6
CONTINUOUS
 62
         7
100
AcDbCircle
 10
1488.0033403763
 20
172.1846417294
 30
0.0
 40
2.0
100
AcDbArc
 50
0.0
 51
90.0
  0
LINE
  5
118
100
AcDbEntity
  8
L1_90
  6
CONTINUOUS
 62
         7
100
AcDbLine
 10
1436.7703403763
 20
174.1846417294
 30
0.0
 11
1488.0033403763
 21
174.1846417294
 31
0.0
  0
LINE
  5
119
100
AcDbEntity
  8
L1_90
  6
CONTINUOUS
 62
         7
100
AcDbLine
 10
1490.0033403763
 20
172.1846417294
 30
0.0
 11
1490.0033403763
 21
128.1846417294
 31
0.0
  0
ARC
  5
11A
100
AcDbEntity
  8
L1_90
  6
CONTINUOUS
 62
         7
100
AcDbCircle
 10
1488.0033403763
 20
128.1846417294
 30
0.0
 40
2.0
100
AcDbArc
 50
270.0
 51
360.0
  0
LINE
  5
11B
100
AcDbEntity
  8
L1_90
  6
CONTINUOUS
 62
         7
100
AcDbLine
 10
1436.7703403763
 20
126.1846417294
 30
0.0
 11
1488.0033403763
 21
126.1846417294
 31
0.0
  0
DIMENSION
  5
11E
100
AcDbEntity
  8
L1_90
  6
CONTINUOUS
 62
         4
100
AcDbDimension
  2
*D8
 10
1503.2980842082
 20
174.1846417294
 30
0.0
 11
1501.2730842082
 21
144.4442802338
 31
0.0
  3
DIMSTYLE1
100
AcDbAlignedDimension
 13
1488.0033403763
 23
174.1846417294
 33
0.0
 14
1488.0033403763
 24
126.1846417294
 34
0.0
 50
90.0
100
AcDbRotatedDimension
  0
CIRCLE
  5
12A
100
AcDbEntity
  8
L1_90
  6
CONTINUOUS
 62
         7
100
AcDbCircle
 10
1623.2833403763
 20
150.1846417294
 30
0.0
 40
13.1
  0
CIRCLE
  5
12B
100
AcDbEntity
  8
L1_90
  6
CONTINUOUS
 62
         7
100
AcDbCircle
 10
1623.2833403763
 20
150.1846417294
 30
0.0
 40
15.6335
  0
CIRCLE
  5
12C
100
AcDbEntity
  8
L1_90
  6
CONTINUOUS
 62
         7
100
AcDbCircle
 10
1623.2833403763
 20
150.1846417294
 30
0.0
 40
24.0
  0
DIMENSION
  5
12F
100
AcDbEntity
  8
L1_90
  6
CONTINUOUS
 62
         4
100
AcDbDimension
  2
*D9
 10
1359.1269537979
 20
62.4849985139
 30
0.0
 11
1372.5519537979
 21
64.5099985139
 31
0.0
  3
DIMSTYLE1
100
AcDbAlignedDimension
 13
1359.1269537979
 23
47.0566652593
 33
0.0
 14
1391.3769537979
 24
47.0566652593
 34
0.0
100
AcDbRotatedDimension
  0
DIMENSION
  5
13D
100
AcDbEntity
  8
L1_90
  6
CONTINUOUS
 62
         4
100
AcDbDimension
  2
*D10
 10
1449.0033403763
 20
-47.5613438546
 30
0.0
 11
1463.4553649059
 21
-45.5363438546
 31
0.0
  3
DIMSTYLE1
100
AcDbAlignedDimension
 13
1449.0033403763
 23
-28.9433347407
 33
0.0
 14
1490.0033403763
 24
-34.9433347407
 34
0.0
100
AcDbRotatedDimension
  0
DIMENSION
  5
14B
100
AcDbEntity
  8
L1_90
  6
CONTINUOUS
 62
         4
100
AcDbDimension
  2
*D11
 10
1444.9737508757
 20
3.0566652593
 30
0.0
 11
1442.9487508757
 21
-18.025097295
 31
0.0
  3
DIMSTYLE1
100
AcDbAlignedDimension
 13
1449.0033403763
 23
3.0566652593
 33
0.0
 14
1449.0033403763
 24
-28.9433347407
 34
0.0
 50
90.0
100
AcDbRotatedDimension
  0
LINE
  5
157
100
AcDbEntity
  8
L1_90
  6
CENTER
 62
         1
100
AcDbLine
 10
1419.1033403763
 20
-12.9433347407
 30
0.0
 11
1492.1587951367
 21
-12.9433347407
 31
0.0
  0
LINE
  5
158
100
AcDbEntity
  8
L1_90
  6
CONTINUOUS
 62
         7
100
AcDbLine
 10
1490.0033403763
 20
9.0566652593
 30
0.0
 11
1490.0033403763
 21
-34.9433347407
 31
0.0
  0
LINE
  5
159
100
AcDbEntity
  8
L1_90
  6
CONTINUOUS
 62
         7
100
AcDbLine
 10
1436.7703403763
 20
11.0566652593
 30
0.0
 11
1488.0033403763
 21
11.0566652593
 31
0.0
  0
LINE
  5
15A
100
AcDbEntity
  8
L1_90
  6
CONTINUOUS
 62
         7
100
AcDbLine
 10
1436.7703403763
 20
-36.9433347407
 30
0.0
 11
1488.0033403763
 21
-36.9433347407
 31
0.0
  0
ARC
  5
15B
100
AcDbEntity
  8
L1_90
  6
CONTINUOUS
 62
         7
100
AcDbCircle
 10
1488.0033403763
 20
9.0566652593
 30
0.0
 40
2.0
100
AcDbArc
 50
0.0
 51
90.0
  0
ARC
  5
15C
100
AcDbEntity
  8
L1_90
  6
CONTINUOUS
 62
         7
100
AcDbCircle
 10
1488.0033403763
 20
-34.9433347407
 30
0.0
 40
2.0
100
AcDbArc
 50
270.0
 51
360.0
  0
LINE
  5
15D
100
AcDbEntity
  8
L1_90
  6
CONTINUOUS
 62
         7
100
AcDbLine
 10
1424.0033403763
 20
0.9763031934
 30
0.0
 11
1401.0033403763
 21
0.379048231
 31
0.0
  0
LINE
  5
15E
100
AcDbEntity
  8
L1_90
  6
CONTINUOUS
 62
         7
100
AcDbLine
 10
1426.0837024422
 20
3.0566652593
 30
0.0
 11
1447.5721684868
 21
3.0566652593
 31
0.0
  0
ARC
  5
15F
100
AcDbEntity
  8
L1_90
  6
CONTINUOUS
 62
         7
100
AcDbCircle
 10
1488.5033403763
 20
4.151719501
 30
0.0
 40
1.5
100
AcDbArc
 50
271.4875
 51
360.0
  0
LINE
  5
160
100
AcDbEntity
  8
L1_90
  6
CONTINUOUS
 62
         7
100
AcDbLine
 10
1424.0033403763
 20
-26.8629726748
 30
0.0
 11
1401.0033403763
 21
-26.2657177124
 31
0.0
  0
LINE
  5
161
100
AcDbEntity
  8
L1_90
  6
CONTINUOUS
 62
         7
100
AcDbLine
 10
1424.0033403763
 20
-26.8629726748
 30
0.0
 11
1424.0033403763
 21
0.9763031934
 31
0.0
  0
LINE
  5
162
100
AcDbEntity
  8
L1_90
  6
CONTINUOUS
 62
         7
100
AcDbLine
 10
1449.0033403763
 20
-27.5121628512
 30
0.0
 11
1449.0033403763
 21
1.6254933699
 31
0.0
  0
ARC
  5
163
100
AcDbEntity
  8
L1_90
  6
CONTINUOUS
 62
         7
100
AcDbCircle
 10
1488.5033403763
 20
-30.0383889823
 30
0.0
 40
1.5
100
AcDbArc
 50
0.0
 51
88.5125
  0
LINE
  5
164
100
AcDbEntity
  8
L1_90
  6
CONTINUOUS
 62
         7
100
AcDbLine
 10
1447.5721684868
 20
3.0566652593
 30
0.0
 11
1449.0033403763
 21
1.6254933699
 31
0.0
  0
LINE
  5
165
100
AcDbEntity
  8
L1_90
  6
CONTINUOUS
 62
         7
100
AcDbLine
 10
1447.5721684868
 20
-28.9433347407
 30
0.0
 11
1449.0033403763
 21
-27.5121628512
 31
0.0
  0
LINE
  5
166
100
AcDbEntity
  8
L1_90
  6
CONTINUOUS
 62
         7
100
AcDbLine
 10
1426.0837024422
 20
-28.9433347407
 30
0.0
 11
1447.5721684868
 21
-28.9433347407
 31
0.0
  0
LINE
  5
167
100
AcDbEntity
  8
L1_90
  6
CONTINUOUS
 62
         7
100
AcDbLine
 10
1447.5721684868
 20
3.0566652593
 30
0.0
 11
1447.5721684868
 21
-28.9433347407
 31
0.0
  0
LINE
  5
168
100
AcDbEntity
  8
L1_90
  6
CONTINUOUS
 62
         7
100
AcDbLine
 10
1488.5422786607
 20
2.6522249828
 30
0.0
 11
1449.0033403763
 21
1.6254933699
 31
0.0
  0
LINE
  5
169
100
AcDbEntity
  8
L1_90
  6
CONTINUOUS
 62
         7
100
AcDbLine
 10
1488.5422786607
 20
-28.5388944642
 30
0.0
 11
1449.0033403763
 21
-27.5121628512
 31
0.0
  0
DIMENSION
  5
16C
100
AcDbEntity
  8
L1_90
  6
CONTINUOUS
 62
         4
100
AcDbDimension
  2
*D12
 10
1383.0033403763
 20
32.3521853539
 30
0.0
 11
1431.1040454322
 21
34.3771853539
 31
0.0
  3
DIMSTYLE1
100
AcDbAlignedDimension
 13
1383.0033403763
 23
0.8141292134
 33
0.0
 14
1490.0033403763
 24
9.0566652593
 34
0.0
100
AcDbRotatedDimension
  0
DIMENSION
  5
17A
100
AcDbEntity
  8
L1_90
  6
CONTINUOUS
 62
         4
100
AcDbDimension
  2
*D13
 10
1383.0033403763
 20
24.5182417521
 30
0.0
 11
1389.0386534222
 21
26.5432417521
 31
0.0
  3
DIMSTYLE1
100
AcDbAlignedDimension
 13
1383.0033403763
 23
-1.1858707866
 33
0.0
 14
1401.0033403763
 24
0.8141292134
 34
0.0
100
AcDbRotatedDimension
  0
ARC
  5
186
100
AcDbEntity
  8
L1_90
  6
CONTINUOUS
 62
         7
100
AcDbCircle
 10
1365.0769537979
 20
47.0566652593
 30
0.0
 40
5.95
100
AcDbArc
 50
90.0
 51
270.0
  0
LINE
  5
187
100
AcDbEntity
  8
L1_90
  6
CONTINUOUS
 62
         7
100
AcDbLine
 10
1365.0769537979
 20
41.1066652593
 30
0.0
 11
1385.4269537979
 21
41.1066652593
 31
0.0
  0
LINE
  5
188
100
AcDbEntity
  8
L1_90
  6
CONTINUOUS
 62
         7
100
AcDbLine
 10
1365.0769537979
 20
53.0066652593
 30
0.0
 11
1385.4269537979
 21
53.0066652593
 31
0.0
  0
ARC
  5
189
100
AcDbEntity
  8
L1_90
  6
CONTINUOUS
 62
         7
100
AcDbCircle
 10
1385.4269537979
 20
47.0566652593
 30
0.0
 40
5.95
100
AcDbArc
 50
270.0
 51
450.0
  0
LINE
  5
18A
100
AcDbEntity
  8
L1_90
  6
CENTER
 62
         1
100
AcDbLine
 10
1392.9528613444
 20
47.0566652593
 30
0.0
 11
1357.0859564824
 21
47.0566652593
 31
0.0
  0
LINE
  5
18B
100
AcDbEntity
  8
L1_90
  6
CENTER
 62
         1
100
AcDbLine
 10
1385.4269537979
 20
39.2599754548
 30
0.0
 11
1385.4269537979
 21
55.0843340009
 31
0.0
  0
LINE
  5
18C
100
AcDbEntity
  8
L1_90
  6
CENTER
 62
         1
100
AcDbLine
 10
1365.0769537979
 20
39.4051530562
 30
0.0
 11
1365.0769537979
 21
54.9875489333
 31
0.0
  0
DIMENSION
  5
18F
100
AcDbEntity
  8
L1_90
  6
CONTINUOUS
 62
         4
100
AcDbDimension
  2
*D14
 10
1398.2337142147
 20
-27.0433347407
 30
0.0
 11
1396.2087142147
 21
-58.2176004309
 31
0.0
  3
DIMSTYLE1
100
AcDbAlignedDimension
 13
1401.0033403763
 23
-27.0433347407
 33
0.0
 14
1401.0033403763
 24
1.1566652593
 34
0.0
 50
90.0
100
AcDbRotatedDimension
  0
LINE
  5
19C
100
AcDbEntity
  8
_X______
  6
CONTINUOUS
 62
         7
100
AcDbLine
 10
1403.2033403763
 20
11.598232071
 30
0.0
 11
1405.1047002055
 21
15.1741698221
 31
0.0
  0
LINE
  5
19D
100
AcDbEntity
  8
_X______
  6
CONTINUOUS
 62
         7
100
AcDbLine
 10
1403.2033403763
 20
16.1851407763
 30
0.0
 11
1405.1047002055
 21
15.1741698221
 31
0.0
  0
LINE
  5
19E
100
AcDbEntity
  8
_X______
  6
CONTINUOUS
 62
         4
100
AcDbLine
 10
1403.2033403763
 20
11.598232071
 30
0.0
 11
1410.2669211191
 21
7.8424595687
 31
0.0
  0
LINE
  5
19F
100
AcDbEntity
  8
_X______
  6
CONTINUOUS
 62
         4
100
AcDbLine
 10
1405.0812266274
 20
15.1300224424
 30
0.0
 11
1412.1448073703
 21
11.3742499401
 31
0.0
  0
LINE
  5
1A0
100
AcDbEntity
  8
_X______
  6
CONTINUOUS
 62
         7
100
AcDbLine
 10
1410.2669211191
 20
7.8424595687
 30
0.0
 11
1412.1448073703
 21
11.3742499401
 31
0.0
  0
LINE
  5
1A1
100
AcDbEntity
  8
_X______
  6
CONTINUOUS
 62
         7
100
AcDbLine
 10
1404.9169115804
 20
14.8209907849
 30
0.0
 11
1427.0423899433
 21
3.0566652593
 31
0.0
  0
LINE
  5
1A2
100
AcDbEntity
  8
_X______
  6
CONTINUOUS
 62
         7
100
AcDbLine
 10
1403.3676554232
 20
11.9072637285
 30
0.0
 11
1423.9294126719
 21
0.9743834678
 31
0.0
  0
LINE
  5
1A3
100
AcDbEntity
  8
_X______
  6
CENTER
 62
         1
100
AcDbLine
 10
1402.1398158213
 20
14.428858209
 30
0.0
 11
1425.1964601434
 21
2.1694229605
 31
0.0
  0
LINE
  5
1A4
100
AcDbEntity
  8
_X______
  6
CENTER
 62
         1
100
AcDbLine
 10
1611.3895898921
 20
182.8624526172
 30
0.0
 11
1635.3242136355
 21
117.102614339
 31
0.0
  0
LINE
  5
1A5
100
AcDbEntity
  8
_X______
  6
DASHED
 62
         2
100
AcDbLine
 10
1629.5624348063
 20
127.085362768
 30
0.0
 11
1630.9989194082
 21
123.1386537607
 31
0.0
  0
LINE
  5
1A6
100
AcDbEntity
  8
_X______
  6
DASHED
 62
         2
100
AcDbLine
 10
1633.3212052894
 20
128.4534433413
 30
0.0
 11
1629.5624348063
 21
127.085362768
 31
0.0
  0
LINE
  5
1A7
100
AcDbEntity
  8
_X______
  6
DASHED
 62
         2
100
AcDbLine
 10
1633.3212052894
 20
128.4534433413
 30
0.0
 11
1634.7576898914
 21
124.506734334
 31
0.0
  0
LINE
  5
1A8
100
AcDbEntity
  8
_X______
  6
DASHED
 62
         2
100
AcDbLine
 10
1630.2769792834
 20
135.7940540125
 30
0.0
 11
1632.9923128721
 21
128.3337362912
 31
0.0
  0
LINE
  5
1A9
100
AcDbEntity
  8
_X______
  6
DASHED
 62
         2
100
AcDbLine
 10
1627.1759936348
 20
134.6653875395
 30
0.0
 11
1629.8913272235
 21
127.2050698182
 31
0.0
  0
LINE
  5
1AA
100
AcDbEntity
  8
_X______
  6
DASHED
 62
         2
100
AcDbLine
 10
1616.675353529
 20
173.1642136406
 30
0.0
 11
1619.3906871177
 21
165.7038959192
 31
0.0
  0
LINE
  5
1AB
100
AcDbEntity
  8
_X______
  6
DASHED
 62
         2
100
AcDbLine
 10
1613.5743678804
 20
172.0355471676
 30
0.0
 11
1616.2897014691
 21
164.5752294463
 31
0.0
  0
LINE
  5
1AC
100
AcDbEntity
  8
_X______
  6
DASHED
 62
         2
100
AcDbLine
 10
1617.0042459463
 20
173.2839206908
 30
0.0
 11
1615.5677613443
 21
177.2306296981
 31
0.0
  0
LINE
  5
1AD
100
AcDbEntity
  8
_X______
  6
DASHED
 62
         2
100
AcDbLine
 10
1613.2454754631
 20
171.9158401175
 30
0.0
 11
1611.8089908611
 21
175.8625491248
 31
0.0
  0
LINE
  5
1AE
100
AcDbEntity
  8
_X______
  6
DASHED
 62
         2
100
AcDbLine
 10
1617.0042459463
 20
173.2839206908
 30
0.0
 11
1613.2454754631
 21
171.9158401175
 31
0.0
  0
LINE
  5
1AF
100
AcDbEntity
  8
_X______
  6
CENTER
 62
         1
100
AcDbLine
 10
1227.1031401709
 20
183.6483666388
 30
0.0
 11
1202.8730445027
 21
117.0767259189
 31
0.0
  0
LINE
  5
1B0
100
AcDbEntity
  8
_X______
  6
CENTER
 62
         1
100
AcDbLine
 10
1208.5078743688
 20
123.7868805382
 30
0.0
 11
1202.8697186441
 21
125.8390013981
 31
0.0
  0
POLYLINE
  5
1B2
100
AcDbEntity
  8
_X______
  6
CONTINUOUS
 62
         7
100
AcDb3dPolyline
 66
         1
 10
0.0
 20
0.0
 30
0.0
 70
         8
  0
VERTEX
  5
1B4
100
AcDbEntity
  8
_X______
  6
CONTINUOUS
 62
         7
100
AcDbVertex
100
AcDb3dPolylineVertex
 10
1203.8094112649
 20
125.4969812548
 30
0.0
 70
        32
  0
VERTEX
  5
1B6
100
AcDbEntity
  8
_X______
  6
CONTINUOUS
 62
         7
100
AcDbVertex
100
AcDb3dPolylineVertex
 10
1203.8094112649
 20
125.4969812548
 30
0.0
 70
        32
  0
SEQEND
  5
1B8
100
AcDbEntity
  8
_X______
  6
CONTINUOUS
 62
         7
  0
ARC
  5
1B9
100
AcDbEntity
  8
_X______
  6
CONTINUOUS
 62
         7
100
AcDbCircle
 10
1206.6023903184
 20
124.4804200144
 30
0.0
 40
2.9722262277
100
AcDbArc
 50
141.257725858
 51
160.0
  0
POLYLINE
  5
1BB
100
AcDbEntity
  8
_X______
  6
CONTINUOUS
 62
         7
100
AcDb3dPolyline
 66
         1
 10
0.0
 20
0.0
 30
0.0
 70
         8
  0
VERTEX
  5
1BD
100
AcDbEntity
  8
_X______
  6
CONTINUOUS
 62
         7
100
AcDbVertex
100
AcDb3dPolylineVertex
 10
1204.2841463667
 20
126.340493596
 30
0.0
 70
        32
  0
VERTEX
  5
1BF
100
AcDbEntity
  8
_X______
  6
CONTINUOUS
 62
         7
100
AcDbVertex
100
AcDb3dPolylineVertex
 10
1204.2841463667
 20
126.340493596
 30
0.0
 70
        32
  0
SEQEND
  5
1C1
100
AcDbEntity
  8
_X______
  6
CONTINUOUS
 62
         7
  0
ARC
  5
1C2
100
AcDbEntity
  8
_X______
  6
CONTINUOUS
 62
         7
100
AcDbCircle
 10
1206.2103129629
 20
124.7950084469
 30
0.0
 40
2.4695428935
100
AcDbArc
 50
120.6773100904
 51
141.257725858
  0
POLYLINE
  5
1C4
100
AcDbEntity
  8
_X______
  6
CONTINUOUS
 62
         7
100
AcDb3dPolyline
 66
         1
 10
0.0
 20
0.0
 30
0.0
 70
         8
  0
VERTEX
  5
1C6
100
AcDbEntity
  8
_X______
  6
CONTINUOUS
 62
         7
100
AcDbVertex
100
AcDb3dPolylineVertex
 10
1204.950346339
 20
126.9189496442
 30
0.0
 70
        32
  0
VERTEX
  5
1C8
100
AcDbEntity
  8
_X______
  6
CONTINUOUS
 62
         7
100
AcDbVertex
100
AcDb3dPolylineVertex
 10
1204.950346339
 20
126.9189496442
 30
0.0
 70
        32
  0
SEQEND
  5
1CA
100
AcDbEntity
  8
_X______
  6
CONTINUOUS
 62
         7
  0
ARC
  5
1CB
100
AcDbEntity
  8
_X______
  6
CONTINUOUS
 62
         7
100
AcDbCircle
 10
1206.0105744318
 20
125.1317101395
 30
0.0
 40
2.0780540551
100
AcDbArc
 50
96.8239621528
 51
120.6773100904
  0
POLYLINE
  5
1CD
100
AcDbEntity
  8
_X______
  6
CONTINUOUS
 62
         7
100
AcDb3dPolyline
 66
         1
 10
0.0
 20
0.0
 30
0.0
 70
         8
  0
VERTEX
  5
1CF
100
AcDbEntity
  8
_X______
  6
CONTINUOUS
 62
         7
100
AcDbVertex
100
AcDb3dPolylineVertex
 10
1205.7636616399
 20
127.1950430571
 30
0.0
 70
        32
  0
VERTEX
  5
1D1
100
AcDbEntity
  8
_X______
  6
CONTINUOUS
 62
         7
100
AcDbVertex
100
AcDb3dPolylineVertex
 10
1205.7636616399
 20
127.1950430571
 30
0.0
 70
        32
  0
SEQEND
  5
1D3
100
AcDbEntity
  8
_X______
  6
CONTINUOUS
 62
         7
  0
ARC
  5
1D4
100
AcDbEntity
  8
_X______
  6
CONTINUOUS
 62
         7
100
AcDbCircle
 10
1205.9596641031
 20
125.5571435737
 30
0.0
 40
1.6495853065
100
AcDbArc
 50
70.0
 51
96.8239621528
  0
POLYLINE
  5
1D6
100
AcDbEntity
  8
_X______
  6
CONTINUOUS
 62
         7
100
AcDb3dPolyline
 66
         1
 10
0.0
 20
0.0
 30
0.0
 70
         8
  0
VERTEX
  5
1D8
100
AcDbEntity
  8
_X______
  6
CONTINUOUS
 62
         7
100
AcDbVertex
100
AcDb3dPolylineVertex
 10
1206.5238555061
 20
127.1072467136
 30
0.0
 70
        32
  0
VERTEX
  5
1DA
100
AcDbEntity
  8
_X______
  6
CONTINUOUS
 62
         7
100
AcDbVertex
100
AcDb3dPolylineVertex
 10
1206.5238555061
 20
127.1072467136
 30
0.0
 70
        32
  0
SEQEND
  5
1DC
100
AcDbEntity
  8
_X______
  6
CONTINUOUS
 62
         7
  0
ARC
  5
1DD
100
AcDbEntity
  8
_X______
  6
CONTINUOUS
 62
         7
100
AcDbCircle
 10
1205.9596641031
 20
125.5571435737
 30
0.0
 40
1.6495853065
100
AcDbArc
 50
43.1760378472
 51
70.0
  0
POLYLINE
  5
1DF
100
AcDbEntity
  8
_X______
  6
CONTINUOUS
 62
         7
100
AcDb3dPolyline
 66
         1
 10
0.0
 20
0.0
 30
0.0
 70
         8
  0
VERTEX
  5
1E1
100
AcDbEntity
  8
_X______
  6
CONTINUOUS
 62
         7
100
AcDbVertex
100
AcDb3dPolylineVertex
 10
1207.1626321948
 20
126.6858594165
 30
0.0
 70
        32
  0
VERTEX
  5
1E3
100
AcDbEntity
  8
_X______
  6
CONTINUOUS
 62
         7
100
AcDbVertex
100
AcDb3dPolylineVertex
 10
1207.1626321948
 20
126.6858594165
 30
0.0
 70
        32
  0
SEQEND
  5
1E5
100
AcDbEntity
  8
_X______
  6
CONTINUOUS
 62
         7
  0
ARC
  5
1E6
100
AcDbEntity
  8
_X______
  6
CONTINUOUS
 62
         7
100
AcDbCircle
 10
1205.6472011885
 20
125.263967184
 30
0.0
 40
2.0780540551
100
AcDbArc
 50
19.3226899097
 51
43.1760378473
  0
POLYLINE
  5
1E8
100
AcDbEntity
  8
_X______
  6
CONTINUOUS
 62
         7
100
AcDb3dPolyline
 66
         1
 10
0.0
 20
0.0
 30
0.0
 70
         8
  0
VERTEX
  5
1EA
100
AcDbEntity
  8
_X______
  6
CONTINUOUS
 62
         7
100
AcDbVertex
100
AcDb3dPolylineVertex
 10
1207.6081984366
 20
125.9515705936
 30
0.0
 70
        32
  0
VERTEX
  5
1EC
100
AcDbEntity
  8
_X______
  6
CONTINUOUS
 62
         7
100
AcDbVertex
100
AcDb3dPolylineVertex
 10
1207.6081984366
 20
125.9515705936
 30
0.0
 70
        32
  0
SEQEND
  5
1EE
100
AcDbEntity
  8
_X______
  6
CONTINUOUS
 62
         7
  0
ARC
  5
1EF
100
AcDbEntity
  8
_X______
  6
CONTINUOUS
 62
         7
100
AcDbCircle
 10
1205.2777649205
 20
125.1344281764
 30
0.0
 40
2.4695428935
100
AcDbArc
 50
358.742274142
 51
379.3226899096
  0
POLYLINE
  5
1F1
100
AcDbEntity
  8
_X______
  6
CONTINUOUS
 62
         7
100
AcDb3dPolyline
 66
         1
 10
0.0
 20
0.0
 30
0.0
 70
         8
  0
VERTEX
  5
1F3
100
AcDbEntity
  8
_X______
  6
CONTINUOUS
 62
         7
100
AcDbVertex
100
AcDb3dPolylineVertex
 10
1207.7467128429
 20
125.0802224645
 30
0.0
 70
        32
  0
VERTEX
  5
1F5
100
AcDbEntity
  8
_X______
  6
CONTINUOUS
 62
         7
100
AcDbVertex
100
AcDb3dPolylineVertex
 10
1207.7467128429
 20
125.0802224645
 30
0.0
 70
        32
  0
SEQEND
  5
1F7
100
AcDbEntity
  8
_X______
  6
CONTINUOUS
 62
         7
  0
ARC
  5
1F8
100
AcDbEntity
  8
_X______
  6
CONTINUOUS
 62
         7
100
AcDbCircle
 10
1204.7752026945
 20
125.1454619219
 30
0.0
 40
2.9722262277
100
AcDbArc
 50
339.9999999999
 51
358.742274142
  0
POLYLINE
  5
1FA
100
AcDbEntity
  8
_X______
  6
CONTINUOUS
 62
         7
100
AcDb3dPolyline
 66
         1
 10
0.0
 20
0.0
 30
0.0
 70
         8
  0
VERTEX
  5
1FC
100
AcDbEntity
  8
_X______
  6
CONTINUOUS
 62
         7
100
AcDbVertex
100
AcDb3dPolylineVertex
 10
1207.568181748
 20
124.1289006815
 30
0.0
 70
        32
  0
VERTEX
  5
1FE
100
AcDbEntity
  8
_X______
  6
CONTINUOUS
 62
         7
100
AcDbVertex
100
AcDb3dPolylineVertex
 10
1207.568181748
 20
124.1289006815
 30
0.0
 70
        32
  0
SEQEND
  5
200
100
AcDbEntity
  8
_X______
  6
CONTINUOUS
 62
         7
  0
ARC
  5
201
100
AcDbEntity
  8
_X______
  6
CONTINUOUS
 62
         7
100
AcDbCircle
 10
1204.7752026945
 20
125.1454619219
 30
0.0
 40
2.9722262277
100
AcDbArc
 50
321.257725858
 51
340.0
  0
POLYLINE
  5
203
100
AcDbEntity
  8
_X______
  6
CONTINUOUS
 62
         7
100
AcDb3dPolyline
 66
         1
 10
0.0
 20
0.0
 30
0.0
 70
         8
  0
VERTEX
  5
205
100
AcDbEntity
  8
_X______
  6
CONTINUOUS
 62
         7
100
AcDbVertex
100
AcDb3dPolylineVertex
 10
1207.0934466463
 20
123.2853883403
 30
0.0
 70
        32
  0
VERTEX
  5
207
100
AcDbEntity
  8
_X______
  6
CONTINUOUS
 62
         7
100
AcDbVertex
100
AcDb3dPolylineVertex
 10
1207.0934466463
 20
123.2853883403
 30
0.0
 70
        32
  0
SEQEND
  5
209
100
AcDbEntity
  8
_X______
  6
CONTINUOUS
 62
         7
  0
ARC
  5
20A
100
AcDbEntity
  8
_X______
  6
CONTINUOUS
 62
         7
100
AcDbCircle
 10
1205.16728005
 20
124.8308734895
 30
0.0
 40
2.4695428935
100
AcDbArc
 50
300.6773100904
 51
321.2577258581
  0
POLYLINE
  5
20C
100
AcDbEntity
  8
_X______
  6
CONTINUOUS
 62
         7
100
AcDb3dPolyline
 66
         1
 10
0.0
 20
0.0
 30
0.0
 70
         8
  0
VERTEX
  5
20E
100
AcDbEntity
  8
_X______
  6
CONTINUOUS
 62
         7
100
AcDbVertex
100
AcDb3dPolylineVertex
 10
1206.4272466739
 20
122.7069322922
 30
0.0
 70
        32
  0
VERTEX
  5
210
100
AcDbEntity
  8
_X______
  6
CONTINUOUS
 62
         7
100
AcDbVertex
100
AcDb3dPolylineVertex
 10
1206.4272466739
 20
122.7069322922
 30
0.0
 70
        32
  0
SEQEND
  5
212
100
AcDbEntity
  8
_X______
  6
CONTINUOUS
 62
         7
  0
ARC
  5
213
100
AcDbEntity
  8
_X______
  6
CONTINUOUS
 62
         7
100
AcDbCircle
 10
1205.3670185811
 20
124.4941717969
 30
0.0
 40
2.0780540551
100
AcDbArc
 50
276.8239621528
 51
300.6773100903
  0
POLYLINE
  5
215
100
AcDbEntity
  8
_X______
  6
CONTINUOUS
 62
         7
100
AcDb3dPolyline
 66
         1
 10
0.0
 20
0.0
 30
0.0
 70
         8
  0
VERTEX
  5
217
100
AcDbEntity
  8
_X______
  6
CONTINUOUS
 62
         7
100
AcDbVertex
100
AcDb3dPolylineVertex
 10
1205.6139313731
 20
122.4308388792
 30
0.0
 70
        32
  0
VERTEX
  5
219
100
AcDbEntity
  8
_X______
  6
CONTINUOUS
 62
         7
100
AcDbVertex
100
AcDb3dPolylineVertex
 10
1205.6139313731
 20
122.4308388792
 30
0.0
 70
        32
  0
SEQEND
  5
21B
100
AcDbEntity
  8
_X______
  6
CONTINUOUS
 62
         7
  0
ARC
  5
21C
100
AcDbEntity
  8
_X______
  6
CONTINUOUS
 62
         7
100
AcDbCircle
 10
1205.4179289098
 20
124.0687383626
 30
0.0
 40
1.6495853065
100
AcDbArc
 50
250.0
 51
276.8239621528
  0
POLYLINE
  5
21E
100
AcDbEntity
  8
_X______
  6
CONTINUOUS
 62
         7
100
AcDb3dPolyline
 66
         1
 10
0.0
 20
0.0
 30
0.0
 70
         8
  0
VERTEX
  5
220
100
AcDbEntity
  8
_X______
  6
CONTINUOUS
 62
         7
100
AcDbVertex
100
AcDb3dPolylineVertex
 10
1204.8537375068
 20
122.5186352228
 30
0.0
 70
        32
  0
VERTEX
  5
222
100
AcDbEntity
  8
_X______
  6
CONTINUOUS
 62
         7
100
AcDbVertex
100
AcDb3dPolylineVertex
 10
1204.8537375068
 20
122.5186352228
 30
0.0
 70
        32
  0
SEQEND
  5
224
100
AcDbEntity
  8
_X______
  6
CONTINUOUS
 62
         7
  0
ARC
  5
225
100
AcDbEntity
  8
_X______
  6
CONTINUOUS
 62
         7
100
AcDbCircle
 10
1205.4179289098
 20
124.0687383626
 30
0.0
 40
1.6495853065
100
AcDbArc
 50
223.1760378472
 51
250.0
  0
POLYLINE
  5
227
100
AcDbEntity
  8
_X______
  6
CONTINUOUS
 62
         7
100
AcDb3dPolyline
 66
         1
 10
0.0
 20
0.0
 30
0.0
 70
         8
  0
VERTEX
  5
229
100
AcDbEntity
  8
_X______
  6
CONTINUOUS
 62
         7
100
AcDbVertex
100
AcDb3dPolylineVertex
 10
1204.2149608181
 20
122.9400225198
 30
0.0
 70
        32
  0
VERTEX
  5
22B
100
AcDbEntity
  8
_X______
  6
CONTINUOUS
 62
         7
100
AcDbVertex
100
AcDb3dPolylineVertex
 10
1204.2149608181
 20
122.9400225198
 30
0.0
 70
        32
  0
SEQEND
  5
22D
100
AcDbEntity
  8
_X______
  6
CONTINUOUS
 62
         7
  0
ARC
  5
22E
100
AcDbEntity
  8
_X______
  6
CONTINUOUS
 62
         7
100
AcDbCircle
 10
1205.7303918245
 20
124.3619147524
 30
0.0
 40
2.0780540551
100
AcDbArc
 50
199.3226899096
 51
223.1760378473
  0
ARC
  5
22F
100
AcDbEntity
  8
_X______
  6
CONTINUOUS
 62
         7
100
AcDbCircle
 10
1206.0998280924
 20
124.49145376
 30
0.0
 40
2.4695428935
100
AcDbArc
 50
178.742274142
 51
199.3226899096
  0
ARC
  5
230
100
AcDbEntity
  8
_X______
  6
CONTINUOUS
 62
         7
100
AcDbCircle
 10
1206.6023903184
 20
124.4804200144
 30
0.0
 40
2.9722262277
100
AcDbArc
 50
160.0
 51
178.742274142
  0
POLYLINE
  5
232
100
AcDbEntity
  8
_X______
  6
CONTINUOUS
 62
         7
100
AcDb3dPolyline
 66
         1
 10
0.0
 20
0.0
 30
0.0
 70
         8
  0
VERTEX
  5
234
100
AcDbEntity
  8
_X______
  6
CONTINUOUS
 62
         7
100
AcDbVertex
100
AcDb3dPolylineVertex
 10
1222.2784990045
 20
176.2403827773
 30
0.0
 70
        32
  0
VERTEX
  5
236
100
AcDbEntity
  8
_X______
  6
CONTINUOUS
 62
         7
100
AcDbVertex
100
AcDb3dPolylineVertex
 10
1222.2784990045
 20
176.2403827773
 30
0.0
 70
        32
  0
SEQEND
  5
238
100
AcDbEntity
  8
_X______
  6
CONTINUOUS
 62
         7
  0
ARC
  5
239
100
AcDbEntity
  8
_X______
  6
CONTINUOUS
 62
         7
100
AcDbCircle
 10
1225.071478058
 20
175.2238215369
 30
0.0
 40
2.9722262277
100
AcDbArc
 50
160.0
 51
178.7422741421
  0
POLYLINE
  5
23B
100
AcDbEntity
  8
_X______
  6
CONTINUOUS
 62
         7
100
AcDb3dPolyline
 66
         1
 10
0.0
 20
0.0
 30
0.0
 70
         8
  0
VERTEX
  5
23D
100
AcDbEntity
  8
_X______
  6
CONTINUOUS
 62
         7
100
AcDbVertex
100
AcDb3dPolylineVertex
 10
1222.0999679096
 20
175.2890609943
 30
0.0
 70
        32
  0
VERTEX
  5
23F
100
AcDbEntity
  8
_X______
  6
CONTINUOUS
 62
         7
100
AcDbVertex
100
AcDb3dPolylineVertex
 10
1222.0999679096
 20
175.2890609943
 30
0.0
 70
        32
  0
SEQEND
  5
241
100
AcDbEntity
  8
_X______
  6
CONTINUOUS
 62
         7
  0
ARC
  5
242
100
AcDbEntity
  8
_X______
  6
CONTINUOUS
 62
         7
100
AcDbCircle
 10
1224.568915832
 20
175.2348552824
 30
0.0
 40
2.4695428935
100
AcDbArc
 50
178.7422741421
 51
199.3226899097
  0
POLYLINE
  5
244
100
AcDbEntity
  8
_X______
  6
CONTINUOUS
 62
         7
100
AcDb3dPolyline
 66
         1
 10
0.0
 20
0.0
 30
0.0
 70
         8
  0
VERTEX
  5
246
100
AcDbEntity
  8
_X______
  6
CONTINUOUS
 62
         7
100
AcDbVertex
100
AcDb3dPolylineVertex
 10
1222.2384823159
 20
174.4177128652
 30
0.0
 70
        32
  0
VERTEX
  5
248
100
AcDbEntity
  8
_X______
  6
CONTINUOUS
 62
         7
100
AcDbVertex
100
AcDb3dPolylineVertex
 10
1222.2384823159
 20
174.4177128652
 30
0.0
 70
        32
  0
SEQEND
  5
24A
100
AcDbEntity
  8
_X______
  6
CONTINUOUS
 62
         7
  0
ARC
  5
24B
100
AcDbEntity
  8
_X______
  6
CONTINUOUS
 62
         7
100
AcDbCircle
 10
1224.199479564
 20
175.1053162748
 30
0.0
 40
2.0780540551
100
AcDbArc
 50
199.3226899097
 51
223.1760378473
  0
POLYLINE
  5
24D
100
AcDbEntity
  8
_X______
  6
CONTINUOUS
 62
         7
100
AcDb3dPolyline
 66
         1
 10
0.0
 20
0.0
 30
0.0
 70
         8
  0
VERTEX
  5
24F
100
AcDbEntity
  8
_X______
  6
CONTINUOUS
 62
         7
100
AcDbVertex
100
AcDb3dPolylineVertex
 10
1222.6840485577
 20
173.6834240423
 30
0.0
 70
        32
  0
VERTEX
  5
251
100
AcDbEntity
  8
_X______
  6
CONTINUOUS
 62
         7
100
AcDbVertex
100
AcDb3dPolylineVertex
 10
1222.6840485577
 20
173.6834240423
 30
0.0
 70
        32
  0
SEQEND
  5
253
100
AcDbEntity
  8
_X______
  6
CONTINUOUS
 62
         7
  0
ARC
  5
254
100
AcDbEntity
  8
_X______
  6
CONTINUOUS
 62
         7
100
AcDbCircle
 10
1223.8870166494
 20
174.8121398851
 30
0.0
 40
1.6495853065
100
AcDbArc
 50
223.1760378472
 51
249.9999999999
  0
POLYLINE
  5
256
100
AcDbEntity
  8
_X______
  6
CONTINUOUS
 62
         7
100
AcDb3dPolyline
 66
         1
 10
0.0
 20
0.0
 30
0.0
 70
         8
  0
VERTEX
  5
258
100
AcDbEntity
  8
_X______
  6
CONTINUOUS
 62
         7
100
AcDbVertex
100
AcDb3dPolylineVertex
 10
1223.3228252464
 20
173.2620367452
 30
0.0
 70
        32
  0
VERTEX
  5
25A
100
AcDbEntity
  8
_X______
  6
CONTINUOUS
 62
         7
100
AcDbVertex
100
AcDb3dPolylineVertex
 10
1223.3228252464
 20
173.2620367452
 30
0.0
 70
        32
  0
SEQEND
  5
25C
100
AcDbEntity
  8
_X______
  6
CONTINUOUS
 62
         7
  0
ARC
  5
25D
100
AcDbEntity
  8
_X______
  6
CONTINUOUS
 62
         7
100
AcDbCircle
 10
1223.8870166494
 20
174.8121398851
 30
0.0
 40
1.6495853065
100
AcDbArc
 50
250.0
 51
276.8239621528
  0
POLYLINE
  5
25F
100
AcDbEntity
  8
_X______
  6
CONTINUOUS
 62
         7
100
AcDb3dPolyline
 66
         1
 10
0.0
 20
0.0
 30
0.0
 70
         8
  0
VERTEX
  5
261
100
AcDbEntity
  8
_X______
  6
CONTINUOUS
 62
         7
100
AcDbVertex
100
AcDb3dPolylineVertex
 10
1224.0830191126
 20
173.1742404017
 30
0.0
 70
        32
  0
VERTEX
  5
263
100
AcDbEntity
  8
_X______
  6
CONTINUOUS
 62
         7
100
AcDbVertex
100
AcDb3dPolylineVertex
 10
1224.0830191126
 20
173.1742404017
 30
0.0
 70
        32
  0
SEQEND
  5
265
100
AcDbEntity
  8
_X______
  6
CONTINUOUS
 62
         7
  0
ARC
  5
266
100
AcDbEntity
  8
_X______
  6
CONTINUOUS
 62
         7
100
AcDbCircle
 10
1223.8361063207
 20
175.2375733193
 30
0.0
 40
2.0780540551
100
AcDbArc
 50
276.8239621528
 51
300.6773100904
  0
POLYLINE
  5
268
100
AcDbEntity
  8
_X______
  6
CONTINUOUS
 62
         7
100
AcDb3dPolyline
 66
         1
 10
0.0
 20
0.0
 30
0.0
 70
         8
  0
VERTEX
  5
26A
100
AcDbEntity
  8
_X______
  6
CONTINUOUS
 62
         7
100
AcDbVertex
100
AcDb3dPolylineVertex
 10
1224.8963344135
 20
173.4503338146
 30
0.0
 70
        32
  0
VERTEX
  5
26C
100
AcDbEntity
  8
_X______
  6
CONTINUOUS
 62
         7
100
AcDbVertex
100
AcDb3dPolylineVertex
 10
1224.8963344135
 20
173.4503338146
 30
0.0
 70
        32
  0
SEQEND
  5
26E
100
AcDbEntity
  8
_X______
  6
CONTINUOUS
 62
         7
  0
ARC
  5
26F
100
AcDbEntity
  8
_X______
  6
CONTINUOUS
 62
         7
100
AcDbCircle
 10
1223.6363677896
 20
175.5742750119
 30
0.0
 40
2.4695428935
100
AcDbArc
 50
300.6773100903
 51
321.257725858
  0
POLYLINE
  5
271
100
AcDbEntity
  8
_X______
  6
CONTINUOUS
 62
         7
100
AcDb3dPolyline
 66
         1
 10
0.0
 20
0.0
 30
0.0
 70
         8
  0
VERTEX
  5
273
100
AcDbEntity
  8
_X______
  6
CONTINUOUS
 62
         7
100
AcDbVertex
100
AcDb3dPolylineVertex
 10
1225.5625343858
 20
174.0287898627
 30
0.0
 70
        32
  0
VERTEX
  5
275
100
AcDbEntity
  8
_X______
  6
CONTINUOUS
 62
         7
100
AcDbVertex
100
AcDb3dPolylineVertex
 10
1225.5625343858
 20
174.0287898627
 30
0.0
 70
        32
  0
SEQEND
  5
277
100
AcDbEntity
  8
_X______
  6
CONTINUOUS
 62
         7
  0
ARC
  5
278
100
AcDbEntity
  8
_X______
  6
CONTINUOUS
 62
         7
100
AcDbCircle
 10
1223.2442904341
 20
175.8888634444
 30
0.0
 40
2.9722262277
100
AcDbArc
 50
321.257725858
 51
340.0
  0
POLYLINE
  5
27A
100
AcDbEntity
  8
_X______
  6
CONTINUOUS
 62
         7
100
AcDb3dPolyline
 66
         1
 10
0.0
 20
0.0
 30
0.0
 70
         8
  0
VERTEX
  5
27C
100
AcDbEntity
  8
_X______
  6
CONTINUOUS
 62
         7
100
AcDbVertex
100
AcDb3dPolylineVertex
 10
1226.0372694876
 20
174.872302204
 30
0.0
 70
        32
  0
VERTEX
  5
27E
100
AcDbEntity
  8
_X______
  6
CONTINUOUS
 62
         7
100
AcDbVertex
100
AcDb3dPolylineVertex
 10
1226.0372694876
 20
174.872302204
 30
0.0
 70
        32
  0
SEQEND
  5
280
100
AcDbEntity
  8
_X______
  6
CONTINUOUS
 62
         7
  0
ARC
  5
281
100
AcDbEntity
  8
_X______
  6
CONTINUOUS
 62
         7
100
AcDbCircle
 10
1223.2442904341
 20
175.8888634444
 30
0.0
 40
2.9722262277
100
AcDbArc
 50
339.9999999999
 51
358.742274142
  0
POLYLINE
  5
283
100
AcDbEntity
  8
_X______
  6
CONTINUOUS
 62
         7
100
AcDb3dPolyline
 66
         1
 10
0.0
 20
0.0
 30
0.0
 70
         8
  0
VERTEX
  5
285
100
AcDbEntity
  8
_X______
  6
CONTINUOUS
 62
         7
100
AcDbVertex
100
AcDb3dPolylineVertex
 10
1226.2158005825
 20
175.823623987
 30
0.0
 70
        32
  0
VERTEX
  5
287
100
AcDbEntity
  8
_X______
  6
CONTINUOUS
 62
         7
100
AcDbVertex
100
AcDb3dPolylineVertex
 10
1226.2158005825
 20
175.823623987
 30
0.0
 70
        32
  0
SEQEND
  5
289
100
AcDbEntity
  8
_X______
  6
CONTINUOUS
 62
         7
  0
ARC
  5
28A
100
AcDbEntity
  8
_X______
  6
CONTINUOUS
 62
         7
100
AcDbCircle
 10
1223.7468526601
 20
175.8778296988
 30
0.0
 40
2.4695428935
100
AcDbArc
 50
358.742274142
 51
379.3226899097
  0
POLYLINE
  5
28C
100
AcDbEntity
  8
_X______
  6
CONTINUOUS
 62
         7
100
AcDb3dPolyline
 66
         1
 10
0.0
 20
0.0
 30
0.0
 70
         8
  0
VERTEX
  5
28E
100
AcDbEntity
  8
_X______
  6
CONTINUOUS
 62
         7
100
AcDbVertex
100
AcDb3dPolylineVertex
 10
1226.0772861762
 20
176.694972116
 30
0.0
 70
        32
  0
VERTEX
  5
290
100
AcDbEntity
  8
_X______
  6
CONTINUOUS
 62
         7
100
AcDbVertex
100
AcDb3dPolylineVertex
 10
1226.0772861762
 20
176.694972116
 30
0.0
 70
        32
  0
SEQEND
  5
292
100
AcDbEntity
  8
_X______
  6
CONTINUOUS
 62
         7
  0
ARC
  5
293
100
AcDbEntity
  8
_X______
  6
CONTINUOUS
 62
         7
100
AcDbCircle
 10
1224.1162889281
 20
176.0073687064
 30
0.0
 40
2.0780540551
100
AcDbArc
 50
19.3226899096
 51
43.1760378472
  0
POLYLINE
  5
295
100
AcDbEntity
  8
_X______
  6
CONTINUOUS
 62
         7
100
AcDb3dPolyline
 66
         1
 10
0.0
 20
0.0
 30
0.0
 70
         8
  0
VERTEX
  5
297
100
AcDbEntity
  8
_X______
  6
CONTINUOUS
 62
         7
100
AcDbVertex
100
AcDb3dPolylineVertex
 10
1225.6317199344
 20
177.429260939
 30
0.0
 70
        32
  0
VERTEX
  5
299
100
AcDbEntity
  8
_X______
  6
CONTINUOUS
 62
         7
100
AcDbVertex
100
AcDb3dPolylineVertex
 10
1225.6317199344
 20
177.429260939
 30
0.0
 70
        32
  0
SEQEND
  5
29B
100
AcDbEntity
  8
_X______
  6
CONTINUOUS
 62
         7
  0
ARC
  5
29C
100
AcDbEntity
  8
_X______
  6
CONTINUOUS
 62
         7
100
AcDbCircle
 10
1224.4287518427
 20
176.3005450962
 30
0.0
 40
1.6495853065
100
AcDbArc
 50
43.1760378472
 51
70.0
  0
POLYLINE
  5
29E
100
AcDbEntity
  8
_X______
  6
CONTINUOUS
 62
         7
100
AcDb3dPolyline
 66
         1
 10
0.0
 20
0.0
 30
0.0
 70
         8
  0
VERTEX
  5
2A0
100
AcDbEntity
  8
_X______
  6
CONTINUOUS
 62
         7
100
AcDbVertex
100
AcDb3dPolylineVertex
 10
1224.9929432457
 20
177.850648236
 30
0.0
 70
        32
  0
VERTEX
  5
2A2
100
AcDbEntity
  8
_X______
  6
CONTINUOUS
 62
         7
100
AcDbVertex
100
AcDb3dPolylineVertex
 10
1224.9929432457
 20
177.850648236
 30
0.0
 70
        32
  0
SEQEND
  5
2A4
100
AcDbEntity
  8
_X______
  6
CONTINUOUS
 62
         7
  0
ARC
  5
2A5
100
AcDbEntity
  8
_X______
  6
CONTINUOUS
 62
         7
100
AcDbCircle
 10
1224.4287518427
 20
176.3005450962
 30
0.0
 40
1.6495853065
100
AcDbArc
 50
70.0000000001
 51
96.8239621529
  0
POLYLINE
  5
2A7
100
AcDbEntity
  8
_X______
  6
CONTINUOUS
 62
         7
100
AcDb3dPolyline
 66
         1
 10
0.0
 20
0.0
 30
0.0
 70
         8
  0
VERTEX
  5
2A9
100
AcDbEntity
  8
_X______
  6
CONTINUOUS
 62
         7
100
AcDbVertex
100
AcDb3dPolylineVertex
 10
1224.2327493795
 20
177.9384445796
 30
0.0
 70
        32
  0
VERTEX
  5
2AB
100
AcDbEntity
  8
_X______
  6
CONTINUOUS
 62
         7
100
AcDbVertex
100
AcDb3dPolylineVertex
 10
1224.2327493795
 20
177.9384445796
 30
0.0
 70
        32
  0
SEQEND
  5
2AD
100
AcDbEntity
  8
_X______
  6
CONTINUOUS
 62
         7
  0
ARC
  5
2AE
100
AcDbEntity
  8
_X______
  6
CONTINUOUS
 62
         7
100
AcDbCircle
 10
1224.4796621714
 20
175.8751116619
 30
0.0
 40
2.0780540551
100
AcDbArc
 50
96.8239621528
 51
120.6773100904
  0
POLYLINE
  5
2B0
100
AcDbEntity
  8
_X______
  6
CONTINUOUS
 62
         7
100
AcDb3dPolyline
 66
         1
 10
0.0
 20
0.0
 30
0.0
 70
         8
  0
VERTEX
  5
2B2
100
AcDbEntity
  8
_X______
  6
CONTINUOUS
 62
         7
100
AcDbVertex
100
AcDb3dPolylineVertex
 10
1223.4194340786
 20
177.6623511666
 30
0.0
 70
        32
  0
VERTEX
  5
2B4
100
AcDbEntity
  8
_X______
  6
CONTINUOUS
 62
         7
100
AcDbVertex
100
AcDb3dPolylineVertex
 10
1223.4194340786
 20
177.6623511666
 30
0.0
 70
        32
  0
SEQEND
  5
2B6
100
AcDbEntity
  8
_X______
  6
CONTINUOUS
 62
         7
  0
ARC
  5
2B7
100
AcDbEntity
  8
_X______
  6
CONTINUOUS
 62
         7
100
AcDbCircle
 10
1224.6794007025
 20
175.5384099693
 30
0.0
 40
2.4695428935
100
AcDbArc
 50
120.6773100903
 51
141.257725858
  0
ARC
  5
2B8
100
AcDbEntity
  8
_X______
  6
CONTINUOUS
 62
         7
100
AcDbCircle
 10
1225.071478058
 20
175.2238215369
 30
0.0
 40
2.9722262277
100
AcDbArc
 50
141.257725858
 51
160.0
  0
LINE
  5
2B9
100
AcDbEntity
  8
_X______
  6
CENTER
 62
         1
100
AcDbLine
 10
1226.9769621084
 20
174.5302820606
 30
0.0
 11
1221.3388063837
 21
176.5824029206
 31
0.0
  0
ARC
  5
2BA
100
AcDbEntity
  8
_Y__________
  6
CONTINUOUS
 62
         7
100
AcDbCircle
 10
1332.7533403763
 20
-3.7933347407
 30
0.0
 40
1.0
100
AcDbArc
 50
180.0
 51
270.0
  0
LINE
  5
2BB
100
AcDbEntity
  8
_Y__________
  6
CONTINUOUS
 62
         7
100
AcDbLine
 10
1332.7533403763
 20
-4.7933347407
 30
0.0
 11
1335.5233403763
 21
-4.7933347407
 31
0.0
  0
ARC
  5
2BC
100
AcDbEntity
  8
_Y__________
  6
CONTINUOUS
 62
         7
100
AcDbCircle
 10
1335.9228759565
 20
-4.8933347407
 30
0.0
 40
0.2
100
AcDbArc
 50
90.0
 51
105.0
  0
LINE
  5
2BD
100
AcDbEntity
  8
_Y__________
  6
CONTINUOUS
 62
         7
100
AcDbLine
 10
1335.8711121475
 20
-4.7001495754
 30
0.0
 11
1335.5233403763
 21
-4.7933347407
 31
0.0
  0
LINE
  5
2BE
100
AcDbEntity
  8
_Y__________
  6
CONTINUOUS
 62
         7
100
AcDbLine
 10
1335.9228759565
 20
-4.6933347407
 30
0.0
 11
1336.3233403763
 21
-4.6933347407
 31
0.0
  0
LINE
  5
2BF
100
AcDbEntity
  8
_Y__________
  6
CONTINUOUS
 62
         7
100
AcDbLine
 10
1336.4647617325
 20
-4.7519133844
 30
0.0
 11
1337.6561830887
 21
-5.9433347407
 31
0.0
  0
ARC
  5
2C0
100
AcDbEntity
  8
_Y__________
  6
CONTINUOUS
 62
         7
100
AcDbCircle
 10
1336.3233403763
 20
-4.8933347407
 30
0.0
 40
0.2
100
AcDbArc
 50
45.0000000038
 51
90.0
  0
LINE
  5
2C1
100
AcDbEntity
  8
_Y__________
  6
CONTINUOUS
 62
         7
100
AcDbLine
 10
1336.5233403763
 20
-5.1498119
 30
0.0
 11
1336.5233403763
 21
-20.6220880762
 31
0.0
  0
LINE
  5
2C2
100
AcDbEntity
  8
_Y__________
  6
CONTINUOUS
 62
         7
100
AcDbLine
 10
1335.5233403763
 20
-4.7933347407
 30
0.0
 11
1335.5233403763
 21
-21.0933347407
 31
0.0
  0
LINE
  5
2C3
100
AcDbEntity
  8
_Y__________
  6
CONTINUOUS
 62
         5
100
AcDbLine
 10
1336.6561830887
 20
-4.9433347407
 30
0.0
 11
1357.859002809
 21
-4.9433347407
 31
0.0
  0
LINE
  5
2C4
100
AcDbEntity
  8
_Y__________
  6
CONTINUOUS
 62
         7
100
AcDbLine
 10
1337.6561830887
 20
-5.9433347407
 30
0.0
 11
1357.2816525398
 21
-5.9433347407
 31
0.0
  0
LINE
  5
2C5
100
AcDbEntity
  8
_Y__________
  6
CONTINUOUS
 62
         7
100
AcDbLine
 10
1337.6561830887
 20
-5.9433347407
 30
0.0
 11
1337.6561830887
 21
-19.9433347407
 31
0.0
  0
LINE
  5
2C6
100
AcDbEntity
  8
_Y__________
  6
CONTINUOUS
 62
         7
100
AcDbLine
 10
1337.6561830887
 20
-19.9433347407
 30
0.0
 11
1357.2816525398
 21
-19.9433347407
 31
0.0
  0
LINE
  5
2C7
100
AcDbEntity
  8
_Y__________
  6
CONTINUOUS
 62
         7
100
AcDbLine
 10
1336.4647617325
 20
-21.1347560969
 30
0.0
 11
1337.6561830887
 21
-19.9433347407
 31
0.0
  0
ARC
  5
2C8
100
AcDbEntity
  8
_Y__________
  6
CONTINUOUS
 62
         7
100
AcDbCircle
 10
1336.3233403763
 20
-20.9933347407
 30
0.0
 40
0.2
100
AcDbArc
 50
270.0
 51
314.9999999962
  0
LINE
  5
2C9
100
AcDbEntity
  8
_Y__________
  6
CONTINUOUS
 62
         7
100
AcDbLine
 10
1335.9228759565
 20
-21.1933347407
 30
0.0
 11
1336.3233403763
 21
-21.1933347407
 31
0.0
  0
LINE
  5
2CA
100
AcDbEntity
  8
_Y__________
  6
CONTINUOUS
 62
         7
100
AcDbLine
 10
1335.8711121475
 20
-21.1865199059
 30
0.0
 11
1335.5233403763
 21
-21.0933347407
 31
0.0
  0
LINE
  5
2CB
100
AcDbEntity
  8
_Y__________
  6
CONTINUOUS
 62
         7
100
AcDbLine
 10
1332.7533403763
 20
-21.0933347407
 30
0.0
 11
1335.5233403763
 21
-21.0933347407
 31
0.0
  0
ARC
  5
2CC
100
AcDbEntity
  8
_Y__________
  6
CONTINUOUS
 62
         7
100
AcDbCircle
 10
1332.7533403763
 20
-22.0933347407
 30
0.0
 40
1.0
100
AcDbArc
 50
90.0
 51
180.0
  0
LINE
  5
2CD
100
AcDbEntity
  8
_Y__________
  6
CONTINUOUS
 62
         5
100
AcDbLine
 10
1336.6561830887
 20
-20.9433347407
 30
0.0
 11
1357.859002809
 21
-20.9433347407
 31
0.0
  0
ARC
  5
2CE
100
AcDbEntity
  8
_Y__________
  6
CONTINUOUS
 62
         7
100
AcDbCircle
 10
1332.9533403763
 20
-24.1775164571
 30
0.0
 40
1.2
100
AcDbArc
 50
180.0
 51
261.7028550302
  0
ARC
  5
2CF
100
AcDbEntity
  8
_Y__________
  6
CONTINUOUS
 62
         7
100
AcDbCircle
 10
1332.9533403763
 20
-1.7091530242
 30
0.0
 40
1.2
100
AcDbArc
 50
98.2971449698
 51
180.0
  0
LINE
  5
2D0
100
AcDbEntity
  8
_Y__________
  6
CONTINUOUS
 62
         7
100
AcDbLine
 10
1331.7533403763
 20
-1.7091530242
 30
0.0
 11
1331.7533403763
 21
-24.1775164571
 31
0.0
  0
ARC
  5
2D1
100
AcDbEntity
  8
_Y__________
  6
CONTINUOUS
 62
         7
100
AcDbCircle
 10
1332.9533403763
 20
138.9504600129
 30
0.0
 40
1.2
100
AcDbArc
 50
180.0
 51
261.7028550302
  0
ARC
  5
2D2
100
AcDbEntity
  8
_Y__________
  6
CONTINUOUS
 62
         7
100
AcDbCircle
 10
1332.9533403763
 20
161.4188234458
 30
0.0
 40
1.2
100
AcDbArc
 50
98.2971449698
 51
180.0
  0
LINE
  5
2D3
100
AcDbEntity
  8
_Y__________
  6
CONTINUOUS
 62
         7
100
AcDbLine
 10
1331.7533403763
 20
161.4188234458
 30
0.0
 11
1331.7533403763
 21
138.9504600129
 31
0.0
  0
LINE
  5
2D4
100
AcDbEntity
  8
_Y__________
  6
CONTINUOUS
 62
         7
100
AcDbLine
 10
1435.0553403763
 20
127.8547315899
 30
0.0
 11
1435.0553403763
 21
172.5145518688
 31
0.0
  0
LINE
  5
2D5
100
AcDbEntity
  8
_Y__________
  6
CONTINUOUS
 62
         7
100
AcDbLine
 10
1419.6033403763
 20
127.8996417294
 30
0.0
 11
1434.8482335951
 21
127.8996417294
 31
0.0
  0
LINE
  5
2D6
100
AcDbEntity
  8
_Y__________
  6
CONTINUOUS
 62
         7
100
AcDbLine
 10
1192.1233403763
 20
142.6346417294
 30
0.0
 11
1192.1233403763
 21
157.7346417294
 31
0.0
  0
LINE
  5
2D7
100
AcDbEntity
  8
_Y__________
  6
CONTINUOUS
 62
         7
100
AcDbLine
 10
1192.1233403763
 20
142.6346417294
 30
0.0
 11
1191.6233403763
 21
142.1346417294
 31
0.0
  0
LINE
  5
2D8
100
AcDbEntity
  8
_Y__________
  6
CONTINUOUS
 62
         7
100
AcDbLine
 10
1191.6233403763
 20
142.1346417294
 30
0.0
 11
1184.6849584247
 21
142.1346417294
 31
0.0
  0
LINE
  5
2D9
100
AcDbEntity
  8
_Y__________
  6
CONTINUOUS
 62
         7
100
AcDbLine
 10
1184.2908731435
 20
141.7405564482
 30
0.0
 11
1184.6849584247
 21
142.1346417294
 31
0.0
  0
LINE
  5
2DA
100
AcDbEntity
  8
_Y__________
  6
CONTINUOUS
 62
         7
100
AcDbLine
 10
1191.6233403763
 20
158.2346417294
 30
0.0
 11
1184.6849584247
 21
158.2346417294
 31
0.0
  0
LINE
  5
2DB
100
AcDbEntity
  8
_Y__________
  6
CONTINUOUS
 62
         7
100
AcDbLine
 10
1192.1233403763
 20
157.7346417294
 30
0.0
 11
1191.6233403763
 21
158.2346417294
 31
0.0
  0
LINE
  5
2DC
100
AcDbEntity
  8
_Y__________
  6
CONTINUOUS
 62
         7
100
AcDbLine
 10
1184.2908731435
 20
158.6287270106
 30
0.0
 11
1184.6849584247
 21
158.2346417294
 31
0.0
  0
LINE
  5
2DD
100
AcDbEntity
  8
_Y__________
  6
CONTINUOUS
 62
         7
100
AcDbLine
 10
1245.1617223278
 20
142.1346417294
 30
0.0
 11
1240.4233403763
 21
142.1346417294
 31
0.0
  0
LINE
  5
2DE
100
AcDbEntity
  8
_Y__________
  6
CONTINUOUS
 62
         7
100
AcDbLine
 10
1239.9233403763
 20
142.6346417294
 30
0.0
 11
1239.9233403763
 21
157.7346417294
 31
0.0
  0
LINE
  5
2DF
100
AcDbEntity
  8
_Y__________
  6
CONTINUOUS
 62
         7
100
AcDbLine
 10
1239.9233403763
 20
142.6346417294
 30
0.0
 11
1240.4233403763
 21
142.1346417294
 31
0.0
  0
LINE
  5
2E0
100
AcDbEntity
  8
_Y__________
  6
CONTINUOUS
 62
         7
100
AcDbLine
 10
1245.555807609
 20
141.7405564482
 30
0.0
 11
1245.1617223278
 21
142.1346417294
 31
0.0
  0
LINE
  5
2E1
100
AcDbEntity
  8
_Y__________
  6
CONTINUOUS
 62
         7
100
AcDbLine
 10
1239.9233403763
 20
157.7346417294
 30
0.0
 11
1240.4233403763
 21
158.2346417294
 31
0.0
  0
LINE
  5
2E2
100
AcDbEntity
  8
_Y__________
  6
CONTINUOUS
 62
         7
100
AcDbLine
 10
1245.555807609
 20
158.6287270106
 30
0.0
 11
1245.1617223278
 21
158.2346417294
 31
0.0
  0
LINE
  5
2E3
100
AcDbEntity
  8
_Y__________
  6
CONTINUOUS
 62
         7
100
AcDbLine
 10
1245.1617223278
 20
158.2346417294
 30
0.0
 11
1240.4233403763
 21
158.2346417294
 31
0.0
  0
CIRCLE
  5
2E4
100
AcDbEntity
  8
_Y__________
  6
CONTINUOUS
 62
         7
100
AcDbCircle
 10
1214.9233403763
 20
150.1846417294
 30
0.0
 40
22.225
  0
CIRCLE
  5
2E5
100
AcDbEntity
  8
_Y__________
  6
CONTINUOUS
 62
         7
100
AcDbCircle
 10
1214.9233403763
 20
150.1846417294
 30
0.0
 40
8.5
  0
CIRCLE
  5
2E6
100
AcDbEntity
  8
_Y__________
  6
CONTINUOUS
 62
         7
100
AcDbCircle
 10
1214.9233403763
 20
150.1846417294
 30
0.0
 40
9.5
  0
ARC
  5
2E7
100
AcDbEntity
  8
_Y__________
  6
CONTINUOUS
 62
         5
100
AcDbCircle
 10
1214.9233403763
 20
150.1846417294
 30
0.0
 40
8.0
100
AcDbArc
 50
352.9901372228
 51
621.2264515101
  0
CIRCLE
  5
2E8
100
AcDbEntity
  8
_Y__________
  6
CONTINUOUS
 62
         7
100
AcDbCircle
 10
1214.9233403763
 20
150.1846417294
 30
0.0
 40
7.0
  0
CIRCLE
  5
2E9
100
AcDbEntity
  8
_Y__________
  6
CONTINUOUS
 62
         7
100
AcDbCircle
 10
1214.9233403763
 20
150.1846417294
 30
0.0
 40
12.7165768873
  0
LINE
  5
2EA
100
AcDbEntity
  8
_Y__________
  6
CENTER
 62
         1
100
AcDbLine
 10
1214.9233403763
 20
114.5732894966
 30
0.0
 11
1214.9233403763
 21
185.4173498279
 31
0.0
  0
ARC
  5
2EB
100
AcDbEntity
  8
_Y__________
  6
CONTINUOUS
 62
         7
100
AcDbCircle
 10
1214.9233403763
 20
150.1846417294
 30
0.0
 40
31.775
100
AcDbArc
 50
15.411296411
 51
164.588703589
  0
ARC
  5
2EC
100
AcDbEntity
  8
_Y__________
  6
CONTINUOUS
 62
         7
100
AcDbCircle
 10
1214.9233403763
 20
150.1846417294
 30
0.0
 40
31.775
100
AcDbArc
 50
195.411296411
 51
344.588703589
  0
LINE
  5
2ED
100
AcDbEntity
  8
_Y__________
  6
CENTER
 62
         1
100
AcDbLine
 10
1183.1483403763
 20
150.1846417294
 30
0.0
 11
1246.6983403763
 21
150.1846417294
 31
0.0
  0
LINE
  5
2EE
100
AcDbEntity
  8
_Y__________
  6
CENTER
 62
         1
100
AcDbLine
 10
1596.790952795
 20
150.1846417294
 30
0.0
 11
1650.7694097755
 21
150.1846417294
 31
0.0
  0
LINE
  5
2EF
100
AcDbEntity
  8
_Y__________
  6
CONTINUOUS
 62
         7
100
AcDbLine
 10
1593.0449584247
 20
142.1346417294
 30
0.0
 11
1597.7833403762
 21
142.1346417294
 31
0.0
  0
LINE
  5
2F0
100
AcDbEntity
  8
_Y__________
  6
CONTINUOUS
 62
         7
100
AcDbLine
 10
1592.6508731435
 20
141.7405564482
 30
0.0
 11
1593.0449584247
 21
142.1346417294
 31
0.0
  0
LINE
  5
2F1
100
AcDbEntity
  8
_Y__________
  6
CONTINUOUS
 62
         7
100
AcDbLine
 10
1598.2833403762
 20
142.6346417294
 30
0.0
 11
1597.7833403762
 21
142.1346417294
 31
0.0
  0
LINE
  5
2F2
100
AcDbEntity
  8
_Y__________
  6
CONTINUOUS
 62
         7
100
AcDbLine
 10
1592.6508731435
 20
158.6287270106
 30
0.0
 11
1593.0449584247
 21
158.2346417294
 31
0.0
  0
LINE
  5
2F3
100
AcDbEntity
  8
_Y__________
  6
CONTINUOUS
 62
         7
100
AcDbLine
 10
1598.2833403762
 20
157.7346417294
 30
0.0
 11
1597.7833403762
 21
158.2346417294
 31
0.0
  0
LINE
  5
2F4
100
AcDbEntity
  8
_Y__________
  6
CONTINUOUS
 62
         7
100
AcDbLine
 10
1598.2833403762
 20
157.7346417294
 30
0.0
 11
1598.2833403762
 21
142.6346417294
 31
0.0
  0
LINE
  5
2F5
100
AcDbEntity
  8
_Y__________
  6
CONTINUOUS
 62
         7
100
AcDbLine
 10
1593.0449584247
 20
158.2346417294
 30
0.0
 11
1597.7833403762
 21
158.2346417294
 31
0.0
  0
LINE
  5
2F6
100
AcDbEntity
  8
_Y__________
  6
CONTINUOUS
 62
         7
100
AcDbLine
 10
1653.915807609
 20
141.7405564482
 30
0.0
 11
1653.5217223278
 21
142.1346417294
 31
0.0
  0
LINE
  5
2F7
100
AcDbEntity
  8
_Y__________
  6
CONTINUOUS
 62
         7
100
AcDbLine
 10
1646.0833403763
 20
142.6346417294
 30
0.0
 11
1646.5833403763
 21
142.1346417294
 31
0.0
  0
LINE
  5
2F8
100
AcDbEntity
  8
_Y__________
  6
CONTINUOUS
 62
         7
100
AcDbLine
 10
1646.5833403763
 20
142.1346417294
 30
0.0
 11
1653.5217223278
 21
142.1346417294
 31
0.0
  0
LINE
  5
2F9
100
AcDbEntity
  8
_Y__________
  6
CONTINUOUS
 62
         7
100
AcDbLine
 10
1653.915807609
 20
158.6287270106
 30
0.0
 11
1653.5217223278
 21
158.2346417294
 31
0.0
  0
LINE
  5
2FA
100
AcDbEntity
  8
_Y__________
  6
CONTINUOUS
 62
         7
100
AcDbLine
 10
1646.5833403763
 20
158.2346417294
 30
0.0
 11
1653.5217223278
 21
158.2346417294
 31
0.0
  0
LINE
  5
2FB
100
AcDbEntity
  8
_Y__________
  6
CONTINUOUS
 62
         7
100
AcDbLine
 10
1646.0833403763
 20
157.7346417294
 30
0.0
 11
1646.5833403763
 21
158.2346417294
 31
0.0
  0
LINE
  5
2FC
100
AcDbEntity
  8
_Y__________
  6
DASHED
 62
         2
100
AcDbLine
 10
1646.0833403763
 20
157.6786393275
 30
0.0
 11
1646.0833403763
 21
142.6906441313
 31
0.0
  0
ARC
  5
2FD
100
AcDbEntity
  8
_Y__________
  6
DASHED
 62
         2
100
AcDbCircle
 10
1623.2833403763
 20
150.1846417294
 30
0.0
 40
28.125
100
AcDbArc
 50
198.3406919436
 51
343.3680794645
  0
ARC
  5
2FE
100
AcDbEntity
  8
_Y__________
  6
DASHED
 62
         2
100
AcDbCircle
 10
1623.2833403763
 20
150.1846417294
 30
0.0
 40
28.125
100
AcDbArc
 50
16.6319205355
 51
163.3680794645
  0
LINE
  5
2FF
100
AcDbEntity
  8
_Y__________
  6
CENTER
 62
         1
100
AcDbLine
 10
1623.2833403763
 20
184.9596417294
 30
0.0
 11
1623.2833403763
 21
115.4096417294
 31
0.0
  0
ARC
  5
300
100
AcDbEntity
  8
_Y__________
  6
CONTINUOUS
 62
         7
100
AcDbCircle
 10
1623.2833403763
 20
150.1846417294
 30
0.0
 40
31.775
100
AcDbArc
 50
15.411296411
 51
164.588703589
  0
ARC
  5
301
100
AcDbEntity
  8
_Y__________
  6
CONTINUOUS
 62
         7
100
AcDbCircle
 10
1623.2833403763
 20
150.1846417294
 30
0.0
 40
31.775
100
AcDbArc
 50
195.411296411
 51
344.588703589
  0
LINE
  5
302
100
AcDbEntity
  8
_Y__________
  6
CONTINUOUS
 62
         7
100
AcDbLine
 10
1407.5670699775
 20
181.9596417294
 30
0.0
 11
1407.5670699775
 21
159.0346417294
 31
0.0
  0
LINE
  5
303
100
AcDbEntity
  8
_Y__________
  6
CONTINUOUS
 62
         7
100
AcDbLine
 10
1409.2283403763
 20
179.0822369936
 30
0.0
 11
1409.2283403763
 21
158.2346417294
 31
0.0
  0
LINE
  5
304
100
AcDbEntity
  8
_Y__________
  6
CONTINUOUS
 62
         7
100
AcDbLine
 10
1412.9783403763
 20
179.0822369936
 30
0.0
 11
1412.9783403763
 21
158.2346417294
 31
0.0
  0
LINE
  5
305
100
AcDbEntity
  8
_Y__________
  6
CONTINUOUS
 62
         7
100
AcDbLine
 10
1414.639610775
 20
181.9596417294
 30
0.0
 11
1414.639610775
 21
159.0346417294
 31
0.0
  0
LINE
  5
306
100
AcDbEntity
  8
_Y__________
  6
CONTINUOUS
 62
         7
100
AcDbLine
 10
1418.3033403763
 20
158.2346417294
 30
0.0
 11
1404.0033403763
 21
158.2346417294
 31
0.0
  0
LINE
  5
307
100
AcDbEntity
  8
_Y__________
  6
CONTINUOUS
 62
         7
100
AcDbLine
 10
1418.3033403763
 20
142.1346417294
 30
0.0
 11
1404.0033403763
 21
142.1346417294
 31
0.0
  0
LINE
  5
308
100
AcDbEntity
  8
_Y__________
  6
CONTINUOUS
 62
         7
100
AcDbLine
 10
1407.5670699775
 20
159.0346417294
 30
0.0
 11
1409.2283403763
 21
158.2346417294
 31
0.0
  0
LINE
  5
309
100
AcDbEntity
  8
_Y__________
  6
CONTINUOUS
 62
         7
100
AcDbLine
 10
1407.5670699775
 20
141.3346417294
 30
0.0
 11
1409.2283403763
 21
142.1346417294
 31
0.0
  0
LINE
  5
30A
100
AcDbEntity
  8
_Y__________
  6
CONTINUOUS
 62
         7
100
AcDbLine
 10
1404.0033403763
 20
158.2346417294
 30
0.0
 11
1404.0033403763
 21
142.1346417294
 31
0.0
  0
LINE
  5
30B
100
AcDbEntity
  8
_Y__________
  6
CONTINUOUS
 62
         7
100
AcDbLine
 10
1407.5670699775
 20
141.3346417294
 30
0.0
 11
1403.2033403763
 21
141.3346417294
 31
0.0
  0
LINE
  5
30C
100
AcDbEntity
  8
_Y__________
  6
CONTINUOUS
 62
         7
100
AcDbLine
 10
1404.0033403763
 20
142.1346417294
 30
0.0
 11
1403.2033403763
 21
141.3346417294
 31
0.0
  0
LINE
  5
30D
100
AcDbEntity
  8
_Y__________
  6
CONTINUOUS
 62
         7
100
AcDbLine
 10
1403.2033403763
 20
159.0346417294
 30
0.0
 11
1404.0033403763
 21
158.2346417294
 31
0.0
  0
LINE
  5
30E
100
AcDbEntity
  8
_Y__________
  6
CONTINUOUS
 62
         7
100
AcDbLine
 10
1407.5670699775
 20
159.0346417294
 30
0.0
 11
1403.2033403763
 21
159.0346417294
 31
0.0
  0
LINE
  5
30F
100
AcDbEntity
  8
_Y__________
  6
CONTINUOUS
 62
         7
100
AcDbLine
 10
1418.3033403763
 20
158.2346417294
 30
0.0
 11
1418.3033403763
 21
142.1346417294
 31
0.0
  0
LINE
  5
310
100
AcDbEntity
  8
_Y__________
  6
CONTINUOUS
 62
         7
100
AcDbLine
 10
1419.1033403763
 20
141.3346417294
 30
0.0
 11
1414.639610775
 21
141.3346417294
 31
0.0
  0
LINE
  5
311
100
AcDbEntity
  8
_Y__________
  6
CONTINUOUS
 62
         7
100
AcDbLine
 10
1418.3033403763
 20
142.1346417294
 30
0.0
 11
1419.1033403763
 21
141.3346417294
 31
0.0
  0
LINE
  5
312
100
AcDbEntity
  8
_Y__________
  6
CONTINUOUS
 62
         7
100
AcDbLine
 10
1412.9783403763
 20
142.1346417294
 30
0.0
 11
1414.639610775
 21
141.3346417294
 31
0.0
  0
LINE
  5
313
100
AcDbEntity
  8
_Y__________
  6
CONTINUOUS
 62
         7
100
AcDbLine
 10
1419.1033403763
 20
159.0346417294
 30
0.0
 11
1418.3033403763
 21
158.2346417294
 31
0.0
  0
LINE
  5
314
100
AcDbEntity
  8
_Y__________
  6
CONTINUOUS
 62
         7
100
AcDbLine
 10
1412.9783403763
 20
158.2346417294
 30
0.0
 11
1414.639610775
 21
159.0346417294
 31
0.0
  0
LINE
  5
315
100
AcDbEntity
  8
_Y__________
  6
CONTINUOUS
 62
         7
100
AcDbLine
 10
1419.1033403763
 20
159.0346417294
 30
0.0
 11
1414.639610775
 21
159.0346417294
 31
0.0
  0
LINE
  5
316
100
AcDbEntity
  8
_Y__________
  6
CONTINUOUS
 62
         7
100
AcDbLine
 10
1407.5670699775
 20
141.3346417294
 30
0.0
 11
1407.5670699775
 21
118.4096417294
 31
0.0
  0
LINE
  5
317
100
AcDbEntity
  8
_Y__________
  6
CONTINUOUS
 62
         7
100
AcDbLine
 10
1409.2283403763
 20
142.1346417294
 30
0.0
 11
1409.2283403763
 21
121.2870464652
 31
0.0
  0
LINE
  5
318
100
AcDbEntity
  8
_Y__________
  6
CONTINUOUS
 62
         7
100
AcDbLine
 10
1412.9783403763
 20
142.1346417294
 30
0.0
 11
1412.9783403763
 21
121.2870464652
 31
0.0
  0
LINE
  5
319
100
AcDbEntity
  8
_Y__________
  6
CONTINUOUS
 62
         7
100
AcDbLine
 10
1414.639610775
 20
141.3346417294
 30
0.0
 11
1414.639610775
 21
118.4096417294
 31
0.0
  0
CIRCLE
  5
31A
100
AcDbEntity
  8
_Y__________
  6
DASHED
 62
         2
100
AcDbCircle
 10
1623.2833403763
 20
150.1846417294
 30
0.0
 40
22.225
  0
LINE
  5
31B
100
AcDbEntity
  8
_Y__________
  6
CONTINUOUS
 62
         7
100
AcDbLine
 10
1419.1033403763
 20
-35.7283347407
 30
0.0
 11
1419.1033403763
 21
-43.7183347409
 31
0.0
  0
LINE
  5
31C
100
AcDbEntity
  8
_Y__________
  6
CONTINUOUS
 62
         7
100
AcDbLine
 10
1419.1033403763
 20
17.8316652595
 30
0.0
 11
1419.1033403763
 21
9.8416652593
 31
0.0
  0
ARC
  5
31D
100
AcDbEntity
  8
_Y__________
  6
CONTINUOUS
 62
         7
100
AcDbCircle
 10
1419.6033403763
 20
172.9696417294
 30
0.0
 40
0.5
100
AcDbArc
 50
180.0
 51
270.0
  0
ARC
  5
31E
100
AcDbEntity
  8
_Y__________
  6
CONTINUOUS
 62
         7
100
AcDbCircle
 10
1419.6033403763
 20
127.3996417294
 30
0.0
 40
0.5
100
AcDbArc
 50
90.0
 51
180.0
  0
LINE
  5
31F
100
AcDbEntity
  8
_Y__________
  6
CONTINUOUS
 62
         7
100
AcDbLine
 10
1419.6033403763
 20
172.4696417294
 30
0.0
 11
1434.8482335951
 21
172.4696417294
 31
0.0
  0
ARC
  5
320
100
AcDbEntity
  8
_Y__________
  6
CONTINUOUS
 62
         7
100
AcDbCircle
 10
1404.2033403763
 20
17.8316652593
 30
0.0
 40
1.0
100
AcDbArc
 50
90.0
 51
180.0
  0
LINE
  5
321
100
AcDbEntity
  8
_Y__________
  6
CONTINUOUS
 62
         7
100
AcDbLine
 10
1404.2033403763
 20
18.8316652593
 30
0.0
 11
1405.2033403763
 21
18.8316652593
 31
0.0
  0
LINE
  5
322
100
AcDbEntity
  8
_Y__________
  6
CONTINUOUS
 62
         7
100
AcDbLine
 10
1403.2033403763
 20
17.8316652593
 30
0.0
 11
1403.2033403763
 21
16.8316652593
 31
0.0
  0
LINE
  5
323
100
AcDbEntity
  8
_Y__________
  6
CONTINUOUS
 62
         7
100
AcDbLine
 10
1417.1033403763
 20
18.8316652593
 30
0.0
 11
1418.1033403763
 21
18.8316652593
 31
0.0
  0
ARC
  5
324
100
AcDbEntity
  8
_Y__________
  6
CONTINUOUS
 62
         7
100
AcDbCircle
 10
1418.1033403763
 20
17.8316652593
 30
0.0
 40
1.0
100
AcDbArc
 50
0.0
 51
90.0
  0
ARC
  5
325
100
AcDbEntity
  8
_Y__________
  6
CONTINUOUS
 62
         7
100
AcDbCircle
 10
1404.2033403763
 20
-43.7183347407
 30
0.0
 40
1.0
100
AcDbArc
 50
180.0
 51
270.0
  0
LINE
  5
326
100
AcDbEntity
  8
_Y__________
  6
CONTINUOUS
 62
         7
100
AcDbLine
 10
1404.2033403763
 20
-44.7183347407
 30
0.0
 11
1405.2033403763
 21
-44.7183347407
 31
0.0
  0
LINE
  5
327
100
AcDbEntity
  8
_Y__________
  6
CONTINUOUS
 62
         7
100
AcDbLine
 10
1417.1033403763
 20
-44.7183347407
 30
0.0
 11
1418.1033403763
 21
-44.7183347407
 31
0.0
  0
ARC
  5
328
100
AcDbEntity
  8
_Y__________
  6
CONTINUOUS
 62
         7
100
AcDbCircle
 10
1418.1033403763
 20
-43.7183347407
 30
0.0
 40
1.0
100
AcDbArc
 50
270.0
 51
360.0
  0
LINE
  5
329
100
AcDbEntity
  8
_Y__________
  6
CONTINUOUS
 62
         7
100
AcDbLine
 10
1419.1033403763
 20
17.8316652593
 30
0.0
 11
1419.1033403763
 21
16.8316652593
 31
0.0
  0
LINE
  5
32A
100
AcDbEntity
  8
_Y__________
  6
CONTINUOUS
 62
         7
100
AcDbLine
 10
1403.2033403763
 20
-42.7183347407
 30
0.0
 11
1403.2033403763
 21
-43.7183347407
 31
0.0
  0
LINE
  5
32B
100
AcDbEntity
  8
_Y__________
  6
CONTINUOUS
 62
         7
100
AcDbLine
 10
1419.1033403763
 20
-42.7183347407
 30
0.0
 11
1419.1033403763
 21
-43.7183347407
 31
0.0
  0
LINE
  5
32C
100
AcDbEntity
  8
_Y__________
  6
CONTINUOUS
 62
         7
100
AcDbLine
 10
1419.1033403763
 20
127.3996417294
 30
0.0
 11
1419.1033403763
 21
119.4096417294
 31
0.0
  0
LINE
  5
32D
100
AcDbEntity
  8
_Y__________
  6
CONTINUOUS
 62
         7
100
AcDbLine
 10
1403.2033403763
 20
120.4096417294
 30
0.0
 11
1403.2033403763
 21
119.4096417294
 31
0.0
  0
LINE
  5
32E
100
AcDbEntity
  8
_Y__________
  6
CONTINUOUS
 62
         7
100
AcDbLine
 10
1419.1033403763
 20
180.9596417294
 30
0.0
 11
1419.1033403763
 21
172.9696417294
 31
0.0
  0
ARC
  5
32F
100
AcDbEntity
  8
_Y__________
  6
CONTINUOUS
 62
         7
100
AcDbCircle
 10
1418.1033403763
 20
119.4096417294
 30
0.0
 40
1.0
100
AcDbArc
 50
270.0
 51
360.0
  0
LINE
  5
330
100
AcDbEntity
  8
_Y__________
  6
CONTINUOUS
 62
         7
100
AcDbLine
 10
1417.1033403763
 20
118.4096417294
 30
0.0
 11
1418.1033403763
 21
118.4096417294
 31
0.0
  0
LINE
  5
331
100
AcDbEntity
  8
_Y__________
  6
CONTINUOUS
 62
         7
100
AcDbLine
 10
1404.2033403763
 20
118.4096417294
 30
0.0
 11
1405.2033403763
 21
118.4096417294
 31
0.0
  0
ARC
  5
332
100
AcDbEntity
  8
_Y__________
  6
CONTINUOUS
 62
         7
100
AcDbCircle
 10
1404.2033403763
 20
119.4096417294
 30
0.0
 40
1.0
100
AcDbArc
 50
180.0
 51
270.0
  0
ARC
  5
333
100
AcDbEntity
  8
_Y__________
  6
CONTINUOUS
 62
         7
100
AcDbCircle
 10
1418.1033403763
 20
180.9596417294
 30
0.0
 40
1.0
100
AcDbArc
 50
0.0
 51
90.0
  0
LINE
  5
334
100
AcDbEntity
  8
_Y__________
  6
CONTINUOUS
 62
         7
100
AcDbLine
 10
1417.1033403763
 20
181.9596417294
 30
0.0
 11
1418.1033403763
 21
181.9596417294
 31
0.0
  0
LINE
  5
335
100
AcDbEntity
  8
_Y__________
  6
CONTINUOUS
 62
         7
100
AcDbLine
 10
1403.2033403763
 20
180.9596417294
 30
0.0
 11
1403.2033403763
 21
179.9596417294
 31
0.0
  0
LINE
  5
336
100
AcDbEntity
  8
_Y__________
  6
CONTINUOUS
 62
         7
100
AcDbLine
 10
1404.2033403763
 20
181.9596417294
 30
0.0
 11
1405.2033403763
 21
181.9596417294
 31
0.0
  0
ARC
  5
337
100
AcDbEntity
  8
_Y__________
  6
CONTINUOUS
 62
         7
100
AcDbCircle
 10
1404.2033403763
 20
180.9596417294
 30
0.0
 40
1.0
100
AcDbArc
 50
90.0
 51
180.0
  0
LINE
  5
338
100
AcDbEntity
  8
_Y__________
  6
CONTINUOUS
 62
         7
100
AcDbLine
 10
1419.6033403763
 20
9.3416652593
 30
0.0
 11
1434.8482335951
 21
9.3416652593
 31
0.0
  0
LINE
  5
339
100
AcDbEntity
  8
_Y__________
  6
CONTINUOUS
 62
         7
100
AcDbLine
 10
1419.6033403763
 20
-35.2283347407
 30
0.0
 11
1434.8482335951
 21
-35.2283347407
 31
0.0
  0
ARC
  5
33A
100
AcDbEntity
  8
_Y__________
  6
CONTINUOUS
 62
         7
100
AcDbCircle
 10
1419.6033403763
 20
-35.7283347407
 30
0.0
 40
0.5
100
AcDbArc
 50
90.0
 51
180.0
  0
ARC
  5
33B
100
AcDbEntity
  8
_Y__________
  6
CONTINUOUS
 62
         7
100
AcDbCircle
 10
1419.6033403763
 20
9.8416652593
 30
0.0
 40
0.5
100
AcDbArc
 50
180.0
 51
270.0
  0
LINE
  5
33C
100
AcDbEntity
  8
_Y__________
  6
CONTINUOUS
 62
         7
100
AcDbLine
 10
1414.639610775
 20
-44.7183347409
 30
0.0
 11
1418.1033403763
 21
-44.7183347409
 31
0.0
  0
LINE
  5
33D
100
AcDbEntity
  8
_Y__________
  6
CONTINUOUS
 62
         7
100
AcDbLine
 10
1412.9783403763
 20
-41.8409300049
 30
0.0
 11
1414.639610775
 21
-44.7183347407
 31
0.0
  0
ARC
  5
33E
100
AcDbEntity
  8
_Y__________
  6
CONTINUOUS
 62
         7
100
AcDbCircle
 10
1412.0045400445
 20
-42.0683347409
 30
0.0
 40
1.0
100
AcDbArc
 50
13.1443256895
 51
90.0
  0
LINE
  5
33F
100
AcDbEntity
  8
_Y__________
  6
CONTINUOUS
 62
         7
100
AcDbLine
 10
1410.202140708
 20
-41.0683347407
 30
0.0
 11
1412.0045400445
 21
-41.0683347407
 31
0.0
  0
ARC
  5
340
100
AcDbEntity
  8
_Y__________
  6
CONTINUOUS
 62
         7
100
AcDbCircle
 10
1410.202140708
 20
-42.0683347407
 30
0.0
 40
1.0
100
AcDbArc
 50
90.0
 51
166.8556743105
  0
LINE
  5
341
100
AcDbEntity
  8
_Y__________
  6
CONTINUOUS
 62
         7
100
AcDbLine
 10
1409.2283403763
 20
-41.8409300049
 30
0.0
 11
1407.5670699775
 21
-44.7183347407
 31
0.0
  0
LINE
  5
342
100
AcDbEntity
  8
_Y__________
  6
CONTINUOUS
 62
         7
100
AcDbLine
 10
1403.2033403763
 20
-35.7433347409
 30
0.0
 11
1403.2033403763
 21
-43.7183347409
 31
0.0
  0
LINE
  5
343
100
AcDbEntity
  8
_Y__________
  6
CONTINUOUS
 62
         7
100
AcDbLine
 10
1404.2033403763
 20
-44.7183347409
 30
0.0
 11
1407.5670699775
 21
-44.7183347409
 31
0.0
  0
ARC
  5
344
100
AcDbEntity
  8
_Y__________
  6
CONTINUOUS
 62
         7
100
AcDbCircle
 10
1402.6033403763
 20
-35.7433347407
 30
0.0
 40
0.6
100
AcDbArc
 50
0.0
 51
90.0
  0
LINE
  5
345
100
AcDbEntity
  8
_Y__________
  6
CONTINUOUS
 62
         7
100
AcDbLine
 10
1401.9497505378
 20
-35.1433347407
 30
0.0
 11
1402.6033403763
 21
-35.1433347407
 31
0.0
  0
LINE
  5
346
100
AcDbEntity
  8
_Y__________
  6
CONTINUOUS
 62
         7
100
AcDbLine
 10
1401.2033403763
 20
-35.3433347409
 30
0.0
 11
1401.9497505378
 21
-35.1433347409
 31
0.0
  0
LINE
  5
347
100
AcDbEntity
  8
_Y__________
  6
CENTER
 62
         1
100
AcDbLine
 10
1328.5556074009
 20
-12.9433347407
 30
0.0
 11
1419.1033403763
 21
-12.9433347407
 31
0.0
  0
LINE
  5
348
100
AcDbEntity
  8
_Y__________
  6
CONTINUOUS
 62
         7
100
AcDbLine
 10
1332.6301721046
 20
-25.3430810344
 30
0.0
 11
1401.2033403767
 21
-35.3433347407
 31
0.0
  0
LINE
  5
349
100
AcDbEntity
  8
_Y__________
  6
CONTINUOUS
 62
         7
100
AcDbLine
 10
1401.2033403763
 20
9.4566652593
 30
0.0
 11
1401.9497505378
 21
9.2566652593
 31
0.0
  0
LINE
  5
34A
100
AcDbEntity
  8
_Y__________
  6
CONTINUOUS
 62
         7
100
AcDbLine
 10
1332.6301721046
 20
-0.543588447
 30
0.0
 11
1401.2033403763
 21
9.4566652593
 31
0.0
  0
LINE
  5
34B
100
AcDbEntity
  8
_Y__________
  6
CONTINUOUS
 62
         7
100
AcDbLine
 10
1401.9497505378
 20
9.2566652593
 30
0.0
 11
1402.6033403763
 21
9.2566652593
 31
0.0
  0
ARC
  5
34C
100
AcDbEntity
  8
_Y__________
  6
CONTINUOUS
 62
         7
100
AcDbCircle
 10
1402.6033403763
 20
9.8566652593
 30
0.0
 40
0.6
100
AcDbArc
 50
270.0
 51
360.0
  0
LINE
  5
34D
100
AcDbEntity
  8
_Y__________
  6
CONTINUOUS
 62
         7
100
AcDbLine
 10
1403.2033403763
 20
9.8566652593
 30
0.0
 11
1403.2033403763
 21
17.8316652595
 31
0.0
  0
LINE
  5
34E
100
AcDbEntity
  8
_Y__________
  6
CONTINUOUS
 62
         7
100
AcDbLine
 10
1404.2033403763
 20
18.8316652595
 30
0.0
 11
1407.5670699775
 21
18.8316652595
 31
0.0
  0
LINE
  5
34F
100
AcDbEntity
  8
_Y__________
  6
CONTINUOUS
 62
         7
100
AcDbLine
 10
1409.2283403763
 20
15.9542605235
 30
0.0
 11
1407.5670699775
 21
18.8316652593
 31
0.0
  0
ARC
  5
350
100
AcDbEntity
  8
_Y__________
  6
CONTINUOUS
 62
         7
100
AcDbCircle
 10
1410.202140708
 20
16.1816652595
 30
0.0
 40
1.0
100
AcDbArc
 50
193.1443256895
 51
270.0
  0
LINE
  5
351
100
AcDbEntity
  8
_Y__________
  6
CONTINUOUS
 62
         7
100
AcDbLine
 10
1410.202140708
 20
15.1816652595
 30
0.0
 11
1412.0045400445
 21
15.1816652595
 31
0.0
  0
ARC
  5
352
100
AcDbEntity
  8
_Y__________
  6
CONTINUOUS
 62
         7
100
AcDbCircle
 10
1412.0045400445
 20
16.1816652595
 30
0.0
 40
1.0
100
AcDbArc
 50
270.0
 51
346.8556743105
  0
LINE
  5
353
100
AcDbEntity
  8
_Y__________
  6
CONTINUOUS
 62
         7
100
AcDbLine
 10
1412.9783403763
 20
15.9542605237
 30
0.0
 11
1414.639610775
 21
18.8316652595
 31
0.0
  0
LINE
  5
354
100
AcDbEntity
  8
_Y__________
  6
CONTINUOUS
 62
         7
100
AcDbLine
 10
1414.639610775
 20
18.8316652595
 30
0.0
 11
1418.1033403763
 21
18.8316652595
 31
0.0
  0
LINE
  5
355
100
AcDbEntity
  8
_Y__________
  6
CONTINUOUS
 62
         7
100
AcDbLine
 10
1409.2283403763
 20
179.0822369936
 30
0.0
 11
1407.5670699775
 21
181.9596417294
 31
0.0
  0
LINE
  5
356
100
AcDbEntity
  8
_Y__________
  6
CONTINUOUS
 62
         7
100
AcDbLine
 10
1409.2283403763
 20
121.2870464652
 30
0.0
 11
1407.5670699775
 21
118.4096417294
 31
0.0
  0
LINE
  5
357
100
AcDbEntity
  8
_Y__________
  6
CONTINUOUS
 62
         7
100
AcDbLine
 10
1403.2033403763
 20
180.9596417294
 30
0.0
 11
1403.2033403763
 21
119.4096417294
 31
0.0
  0
LINE
  5
358
100
AcDbEntity
  8
_Y__________
  6
CENTER
 62
         1
100
AcDbLine
 10
1400.0033403763
 20
172.4096417294
 30
0.0
 11
1400.0033403763
 21
127.9596417294
 31
0.0
  0
LINE
  5
359
100
AcDbEntity
  8
_Y__________
  6
CONTINUOUS
 62
         7
100
AcDbLine
 10
1404.2033403763
 20
118.4096417294
 30
0.0
 11
1407.5670699775
 21
118.4096417294
 31
0.0
  0
LINE
  5
35A
100
AcDbEntity
  8
_Y__________
  6
CONTINUOUS
 62
         7
100
AcDbLine
 10
1404.2033403763
 20
181.9596417294
 30
0.0
 11
1407.5670699775
 21
181.9596417294
 31
0.0
  0
LINE
  5
35B
100
AcDbEntity
  8
_Y__________
  6
CONTINUOUS
 62
         7
100
AcDbLine
 10
1419.1033403763
 20
180.9596417294
 30
0.0
 11
1419.1033403763
 21
169.1846417294
 31
0.0
  0
LINE
  5
35C
100
AcDbEntity
  8
_Y__________
  6
CONTINUOUS
 62
         7
100
AcDbLine
 10
1410.202140708
 20
122.0596417294
 30
0.0
 11
1412.0045400445
 21
122.0596417294
 31
0.0
  0
ARC
  5
35D
100
AcDbEntity
  8
_Y__________
  6
CONTINUOUS
 62
         7
100
AcDbCircle
 10
1410.202140708
 20
121.0596417294
 30
0.0
 40
1.0
100
AcDbArc
 50
90.0
 51
166.8556743105
  0
LINE
  5
35E
100
AcDbEntity
  8
_Y__________
  6
CONTINUOUS
 62
         7
100
AcDbLine
 10
1412.9783403763
 20
121.2870464652
 30
0.0
 11
1414.639610775
 21
118.4096417294
 31
0.0
  0
ARC
  5
35F
100
AcDbEntity
  8
_Y__________
  6
CONTINUOUS
 62
         7
100
AcDbCircle
 10
1412.0045400445
 20
121.0596417294
 30
0.0
 40
1.0
100
AcDbArc
 50
13.1443256895
 51
90.0
  0
LINE
  5
360
100
AcDbEntity
  8
_Y__________
  6
CONTINUOUS
 62
         7
100
AcDbLine
 10
1414.639610775
 20
118.4096417294
 30
0.0
 11
1418.1033403763
 21
118.4096417294
 31
0.0
  0
LINE
  5
361
100
AcDbEntity
  8
_Y__________
  6
CONTINUOUS
 62
         7
100
AcDbLine
 10
1412.9783403763
 20
179.0822369936
 30
0.0
 11
1414.639610775
 21
181.9596417294
 31
0.0
  0
LINE
  5
362
100
AcDbEntity
  8
_Y__________
  6
CONTINUOUS
 62
         7
100
AcDbLine
 10
1414.639610775
 20
181.9596417294
 30
0.0
 11
1418.1033403763
 21
181.9596417294
 31
0.0
  0
LINE
  5
363
100
AcDbEntity
  8
_Y__________
  6
CONTINUOUS
 62
         7
100
AcDbLine
 10
1410.202140708
 20
178.3096417294
 30
0.0
 11
1412.0045400445
 21
178.3096417294
 31
0.0
  0
ARC
  5
364
100
AcDbEntity
  8
_Y__________
  6
CONTINUOUS
 62
         7
100
AcDbCircle
 10
1410.202140708
 20
179.3096417294
 30
0.0
 40
1.0
100
AcDbArc
 50
193.1443256895
 51
270.0
  0
ARC
  5
365
100
AcDbEntity
  8
_Y__________
  6
CONTINUOUS
 62
         7
100
AcDbCircle
 10
1412.0045400445
 20
179.3096417294
 30
0.0
 40
1.0
100
AcDbArc
 50
270.0
 51
346.8556743105
  0
LINE
  5
366
100
AcDbEntity
  8
_Y__________
  6
CENTER
 62
         1
100
AcDbLine
 10
1411.1033403763
 20
187.6899050302
 30
0.0
 11
1411.1033403763
 21
112.6870854784
 31
0.0
  0
LINE
  5
367
100
AcDbEntity
  8
_Y__________
  6
CONTINUOUS
 62
         7
100
AcDbLine
 10
1332.7801721046
 20
137.7630204357
 30
0.0
 11
1401.2033403763
 21
127.7846417294
 31
0.0
  0
LINE
  5
368
100
AcDbEntity
  8
_Y__________
  6
CENTER
 62
         1
100
AcDbLine
 10
1329.3598386453
 20
150.1846417294
 30
0.0
 11
1378.4659535144
 21
150.1846417294
 31
0.0
  0
LINE
  5
369
100
AcDbEntity
  8
_Y__________
  6
CONTINUOUS
 62
         7
100
AcDbLine
 10
1332.7801721046
 20
162.6062630231
 30
0.0
 11
1401.2033403763
 21
172.5846417294
 31
0.0
  0
LINE
  5
36A
100
AcDbEntity
  8
_Y__________
  6
CENTER
 62
         1
100
AcDbLine
 10
1396.6508489578
 20
150.1846417294
 30
0.0
 11
1419.1033403763
 21
150.1846417294
 31
0.0
  0
LINE
  5
36B
100
AcDbEntity
  8
_Y__________
  6
CONTINUOUS
 62
         7
100
AcDbLine
 10
1401.9497505378
 20
127.9846417294
 30
0.0
 11
1402.6033403763
 21
127.9846417294
 31
0.0
  0
LINE
  5
36C
100
AcDbEntity
  8
_Y__________
  6
CONTINUOUS
 62
         7
100
AcDbLine
 10
1401.2033403763
 20
127.7846417294
 30
0.0
 11
1401.9497505378
 21
127.9846417294
 31
0.0
  0
ARC
  5
36D
100
AcDbEntity
  8
_Y__________
  6
CONTINUOUS
 62
         7
100
AcDbCircle
 10
1402.6033403763
 20
127.3846417294
 30
0.0
 40
0.6
100
AcDbArc
 50
0.0
 51
90.0
  0
LINE
  5
36E
100
AcDbEntity
  8
_Y__________
  6
CONTINUOUS
 62
         7
100
AcDbLine
 10
1401.9497505378
 20
127.9846417294
 30
0.0
 11
1401.9497505378
 21
172.3846417294
 31
0.0
  0
LINE
  5
36F
100
AcDbEntity
  8
_Y__________
  6
CONTINUOUS
 62
         7
100
AcDbLine
 10
1401.2033403763
 20
127.7846417294
 30
0.0
 11
1401.2033403763
 21
172.5846417294
 31
0.0
  0
LINE
  5
370
100
AcDbEntity
  8
_Y__________
  6
CONTINUOUS
 62
         7
100
AcDbLine
 10
1401.9497505378
 20
172.3846417294
 30
0.0
 11
1402.6033403763
 21
172.3846417294
 31
0.0
  0
LINE
  5
371
100
AcDbEntity
  8
_Y__________
  6
CONTINUOUS
 62
         7
100
AcDbLine
 10
1401.2033403763
 20
172.5846417294
 30
0.0
 11
1401.9497505378
 21
172.3846417294
 31
0.0
  0
ARC
  5
372
100
AcDbEntity
  8
_Y__________
  6
CONTINUOUS
 62
         7
100
AcDbCircle
 10
1402.6033403763
 20
172.9846417294
 30
0.0
 40
0.6
100
AcDbArc
 50
270.0
 51
360.0
  0
CIRCLE
  5
373
100
AcDbEntity
  8
_Y__________
  6
CONTINUOUS
 62
         7
100
AcDbCircle
 10
1411.1033403763
 20
150.1846417294
 30
0.0
 40
5.0
  0
LINE
  5
374
100
AcDbEntity
  8
_Y__________
  6
DASHED
 62
         2
100
AcDbLine
 10
1598.7833403762
 20
145.1846417294
 30
0.0
 11
1598.2833403762
 21
144.6846417294
 31
0.0
  0
LINE
  5
375
100
AcDbEntity
  8
_Y__________
  6
DASHED
 62
         2
100
AcDbLine
 10
1598.7833403762
 20
155.1846417294
 30
0.0
 11
1598.2833403762
 21
155.6846417294
 31
0.0
  0
LINE
  5
376
100
AcDbEntity
  8
_Y__________
  6
DASHED
 62
         2
100
AcDbLine
 10
1598.7833403762
 20
155.1846417294
 30
0.0
 11
1598.7833403762
 21
145.1846417294
 31
0.0
  0
LINE
  5
377
100
AcDbEntity
  8
_Y__________
  6
DASHED
 62
         2
100
AcDbLine
 10
1598.7833403762
 20
145.1846417294
 30
0.0
 11
1604.9573403762
 21
145.1846417294
 31
0.0
  0
LINE
  5
378
100
AcDbEntity
  8
_Y__________
  6
DASHED
 62
         2
100
AcDbLine
 10
1607.8440917222
 20
150.1846417294
 30
0.0
 11
1604.9573403762
 21
145.1846417294
 31
0.0
  0
LINE
  5
379
100
AcDbEntity
  8
_Y__________
  6
DASHED
 62
         2
100
AcDbLine
 10
1604.9573403762
 20
155.1846417294
 30
0.0
 11
1607.8440917222
 21
150.1846417294
 31
0.0
  0
LINE
  5
37A
100
AcDbEntity
  8
_Y__________
  6
DASHED
 62
         2
100
AcDbLine
 10
1604.9573403762
 20
155.1846417294
 30
0.0
 11
1604.9573403762
 21
145.1846417294
 31
0.0
  0
LINE
  5
37B
100
AcDbEntity
  8
_Y__________
  6
DASHED
 62
         2
100
AcDbLine
 10
1598.7833403762
 20
155.1846417294
 30
0.0
 11
1604.9573403762
 21
155.1846417294
 31
0.0
  0
LINE
  5
37C
100
AcDbEntity
  8
_Y__________
  6
CONTINUOUS
 62
         7
100
AcDbLine
 10
1598.2833403762
 20
155.6846417294
 30
0.0
 11
1598.2833403762
 21
144.6846417294
 31
0.0
  0
LINE
  5
37D
100
AcDbEntity
  8
_Y__________
  6
CONTINUOUS
 62
         7
100
AcDbLine
 10
1419.1033403763
 20
120.4096417294
 30
0.0
 11
1419.1033403763
 21
119.4096417294
 31
0.0
  0
LINE
  5
37E
100
AcDbEntity
  8
_Y__________
  6
CONTINUOUS
 62
         7
100
AcDbLine
 10
1419.1033403763
 20
180.9596417294
 30
0.0
 11
1419.1033403763
 21
179.9596417294
 31
0.0
  0
LINE
  5
37F
100
AcDbEntity
  8
_Y__________
  6
CONTINUOUS
 62
         7
100
AcDbLine
 10
1419.1033403763
 20
180.9596417294
 30
0.0
 11
1419.1033403763
 21
119.4096417294
 31
0.0
  0
TEXT
  5
381
100
AcDbEntity
  8
L1_90
  6
CONTINUOUS
 62
         2
100
AcDbText
 10
1607.8551181589
 20
224.3704784082
 30
0.0
 40
4.5
  1
531516
 41
0.98
  7
BOX
100
AcDbText
  0
ENDSEC
  0
SECTION
  2
OBJECTS
  0
DICTIONARY
  5
19
100
AcDbDictionary
  3
ACAD_GROUP
350
1A
  3
ACAD_MLINESTYLE
350
1B
  0
DICTIONARY
  5
1A
102
{ACAD_REACTORS
330
19
102
}
100
AcDbDictionary
  0
DICTIONARY
  5
1B
102
{ACAD_REACTORS
330
19
102
}
100
AcDbDictionary
  3
STANDARD
350
1C
  0
MLINESTYLE
  5
1C
102
{ACAD_REACTORS
330
1B
102
}
100
AcDbMlineStyle
  2
STANDARD
 70
         0
  3

 62
         0
 51
90.0
 52
90.0
 71
         2
 49
0.5
 62
       256
  6
BYLAYER
 49
-0.5
 62
       256
  6
BYLAYER
  0
ENDSEC
  0
EOF
