  0
SECTION
  2
HEADER
  9
$ACADVER
  1
AC1014
  9
$ACADMAINTVER
 70
         0
  9
$DWGCODEPAGE
  3
BIG5
  9
$INSBASE
 10
0.0
 20
0.0
 30
0.0
  9
$EXTMIN
 10
1696.5104125974
 20
592.3824457381
 30
0.0
  9
$EXTMAX
 10
2235.4247132613
 20
861.6898144412
 30
0.0
  9
$LIMMIN
 10
0.0
 20
0.0
  9
$LIMMAX
 10
0.0
 20
0.0
  9
$ORTHOMODE
 70
         0
  9
$REGENMODE
 70
         1
  9
$FILLMODE
 70
         1
  9
$QTEXTMODE
 70
         0
  9
$MIRRTEXT
 70
         1
  9
$DRAGMODE
 70
         2
  9
$LTSCALE
 40
1.0
  9
$OSMODE
 70
         0
  9
$ATTMODE
 70
         1
  9
$TEXTSIZE
 40
2.1
  9
$TRACEWID
 40
0.05
  9
$TEXTSTYLE
  7
STANDARD
  9
$CLAYER
  8
0
  9
$CELTYPE
  6
CONTINUOUS
  9
$CECOLOR
 62
         4
  9
$CELTSCALE
 40
1.0
  9
$DELOBJ
 70
         1
  9
$DISPSILH
 70
         0
  9
$DIMSCALE
 40
1.0
  9
$DIMASZ
 40
0.18
  9
$DIMEXO
 40
0.0625
  9
$DIMDLI
 40
0.38
  9
$DIMRND
 40
0.0
  9
$DIMDLE
 40
0.0
  9
$DIMEXE
 40
0.25
  9
$DIMTP
 40
0.01
  9
$DIMTM
 40
-0.01
  9
$DIMTXT
 40
2.7
  9
$DIMCEN
 40
0.09
  9
$DIMTSZ
 40
0.0
  9
$DIMTOL
 70
         0
  9
$DIMLIM
 70
         0
  9
$DIMTIH
 70
         1
  9
$DIMTOH
 70
         1
  9
$DIMSE1
 70
         0
  9
$DIMSE2
 70
         0
  9
$DIMTAD
 70
         0
  9
$DIMZIN
 70
         0
  9
$DIMBLK
  1

  9
$DIMASO
 70
         1
  9
$DIMSHO
 70
         1
  9
$DIMPOST
  1

  9
$DIMAPOST
  1

  9
$DIMALT
 70
         0
  9
$DIMALTD
 70
         2
  9
$DIMALTF
 40
25.4
  9
$DIMLFAC
 40
1.0
  9
$DIMTOFL
 70
         0
  9
$DIMTVP
 40
0.0
  9
$DIMTIX
 70
         0
  9
$DIMSOXD
 70
         0
  9
$DIMSAH
 70
         0
  9
$DIMBLK1
  1

  9
$DIMBLK2
  1

  9
$DIMSTYLE
  2
STANDARD
  9
$DIMCLRD
 70
         0
  9
$DIMCLRE
 70
         0
  9
$DIMCLRT
 70
         4
  9
$DIMTFAC
 40
1.0
  9
$DIMGAP
 40
0.09
  9
$DIMJUST
 70
         0
  9
$DIMSD1
 70
         0
  9
$DIMSD2
 70
         0
  9
$DIMTOLJ
 70
         1
  9
$DIMTZIN
 70
         0
  9
$DIMALTZ
 70
         0
  9
$DIMALTTZ
 70
         0
  9
$DIMFIT
 70
         3
  9
$DIMUPT
 70
         0
  9
$DIMUNIT
 70
         2
  9
$DIMDEC
 70
         4
  9
$DIMTDEC
 70
         4
  9
$DIMALTU
 70
         2
  9
$DIMALTTD
 70
         2
  9
$DIMTXSTY
  7
STANDARD
  9
$DIMAUNIT
 70
         0
  9
$LUNITS
 70
         2
  9
$LUPREC
 70
        10
  9
$SKETCHINC
 40
0.1
  9
$FILLETRAD
 40
0.0
  9
$AUNITS
 70
         0
  9
$AUPREC
 70
         0
  9
$MENU
  1
acad
  9
$ELEVATION
 40
0.0
  9
$PELEVATION
 40
0.0
  9
$THICKNESS
 40
0.0
  9
$LIMCHECK
 70
         0
  9
$BLIPMODE
 70
         1
  9
$CHAMFERA
 40
0.0
  9
$CHAMFERB
 40
0.0
  9
$CHAMFERC
 40
0.0
  9
$CHAMFERD
 40
0.0
  9
$SKPOLY
 70
         0
  9
$TDCREATE
 40
0.000000000
  9
$TDUPDATE
 40
0.000000000
  9
$TDINDWG
 40
0.0000000000
  9
$TDUSRTIMER
 40
0.0000000000
  9
$USRTIMER
 70
         1
  9
$ANGBASE
 50
0.0
  9
$ANGDIR
 70
         0
  9
$PDMODE
 70
         2
  9
$PDSIZE
 40
0.0
  9
$PLINEWID
 40
0.0
  9
$COORDS
 70
         1
  9
$SPLFRAME
 70
         0
  9
$SPLINETYPE
 70
         6
  9
$SPLINESEGS
 70
         8
  9
$ATTDIA
 70
         0
  9
$ATTREQ
 70
         1
  9
$HANDLING
 70
         1
  9
$HANDSEED
  5
1D0
  9
$SURFTAB1
 70
         6
  9
$SURFTAB2
 70
         6
  9
$SURFTYPE
 70
         6
  9
$SURFU
 70
         6
  9
$SURFV
 70
         6
  9
$UCSNAME
  2

  9
$UCSORG
 10
0.0
 20
0.0
 30
0.0
  9
$UCSXDIR
 10
1.0
 20
0.0
 30
0.0
  9
$UCSYDIR
 10
0.0
 20
1.0
 30
0.0
  9
$PUCSNAME
  2

  9
$PUCSORG
 10
0.0
 20
0.0
 30
0.0
  9
$PUCSXDIR
 10
1.0
 20
0.0
 30
0.0
  9
$PUCSYDIR
 10
0.0
 20
1.0
 30
0.0
  9
$USERI1
 70
         0
  9
$USERI2
 70
         0
  9
$USERI3
 70
         0
  9
$USERI4
 70
         0
  9
$USERI5
 70
         0
  9
$USERR1
 40
0.0
  9
$USERR2
 40
0.0
  9
$USERR3
 40
0.0
  9
$USERR4
 40
0.0
  9
$USERR5
 40
0.0
  9
$WORLDVIEW
 70
         1
  9
$SHADEDGE
 70
         3
  9
$SHADEDIF
 70
        70
  9
$TILEMODE
 70
         1
  9
$MAXACTVP
 70
        16
  9
$PINSBASE
 10
0.0
 20
0.0
 30
0.0
  9
$PLIMCHECK
 70
         0
  9
$PEXTMIN
 10
1.0000000000E+20
 20
1.0000000000E+20
 30
1.0000000000E+20
  9
$PEXTMAX
 10
-1.0000000000E+20
 20
-1.0000000000E+20
 30
-1.0000000000E+20
  9
$PLIMMIN
 10
0.0
 20
0.0
  9
$PLIMMAX
 10
12.0
 20
9.0
  9
$UNITMODE
 70
         0
  9
$VISRETAIN
 70
         0
  9
$PLINEGEN
 70
         1
  9
$PSLTSCALE
 70
         0
  9
$TREEDEPTH
 70
      3020
  9
$PICKSTYLE
 70
         1
  9
$CMLSTYLE
  2
STANDARD
  9
$CMLJUST
 70
         0
  9
$CMLSCALE
 40
1.0
  9
$PROXYGRAPHICS
 70
         0
  9
$MEASUREMENT
 70
         0
  0
ENDSEC
  0
SECTION
  2
CLASSES
  0
CLASS
  1
LWPOLYLINE
  2
AcDbPolyline
  3
"AutoCAD"
 90
        0
280
         0
281
         1
  0
CLASS
  1
IMAGE
  2
AcDbRasterImage
  3
ISM
 90
      127
280
         0
281
         1
  0
CLASS
  1
OLE2FRAME
  2
AcDbOle2Frame
  3
""
 90
        0
280
         0
281
         1
  0
CLASS
  1
HATCH
  2
AcDbHatch
  3
"ACAD_SEDONA"
 90
        0
280
         0
281
         1
  0
CLASS
  1
DICTIONARYVAR
  2
AcDbDictionaryVar
  3
"AutoCAD"
 90
        0
280
         0
281
         0
  0
CLASS
  1
RASTERVARIABLES
  2
AcDbRasterVariables
  3
ISM
 90
        0
280
         0
281
         0
  0
CLASS
  1
IMAGEDEF
  2
AcDbRasterImageDef
  3
ISM
 90
        0
280
         0
281
         0
  0
CLASS
  1
IMAGEDEF_REACTOR
  2
AcDbRasterImageDefReactor
  3
ISM
 90
        1
280
         0
281
         0
  0
CLASS
  1
IDBUFFER
  2
AcDbIdBuffer
  3
"Acad"
 90
        0
280
         0
281
         0
  0
CLASS
  1
SPATIAL_FILTER
  2
AcDbSpatialFilter
  3
"Acad"
 90
        0
280
         0
281
         0
  0
CLASS
  1
XRECORD
  2
AcDbXrecord
  3
"<Built In>"
 90
        0
280
         0
281
         0
  0
CLASS
  1
SORTENTSTABLE
  2
AcDbSortentsTable
  3
"AutoCAD"
 90
        0
280
         0
281
         0
  0
CLASS
  1
LAYER_INDEX
  2
AcDbLayerIndex
  3
"Acad"
 90
        0
280
         0
281
         0
  0
CLASS
  1
SPATIAL_INDEX
  2
AcDbSpatialIndex
  3
"Acad"
 90
        0
280
         0
281
         0
  0
CLASS
  1
OBJECT_PTR
  2
CAseDLPNTableRecord
  3
"ASE-LPNTableRecord"
 90
        1
280
         0
281
         0
  0
CLASS
  1
LAYOUT
  2
AcDbLayout
  3
"AutoCAD 2000"
 90
        1
280
         0
281
         0
  0
CLASS
  1
PLOTSETTINGS
  2
AcDbPlotSettings
  3
"AutoCAD 2000"
 90
        1
280
         0
281
         0
  0
CLASS
  1
ACDBDICTIONARYWDFLT
  2
AcDbDictionaryWithDefault
  3
"AutoCAD 2000"
 90
        1
280
         0
281
         0
  0
CLASS
  1
ACDBPLACEHOLDER
  2
AcDbPlaceHolder
  3
"AutoCAD 2000"
 90
        1
280
         0
281
         0
  0
CLASS
  1
VBA_PROJECT
  2
AcDbVbaProject
  3
"acadvba"
 90
        1
280
         0
281
         0
  0
CLASS
  1
WIPEOUT
  2
AcDbWipeout
  3
WipeOut|AutoCAD Express Tool|expresstools@autodesk.com
 90
      127
280
         0
281
         1
  0
CLASS
  1
WIPEOUTVARIABLES
  2
AcDbWipeoutVariables
  3
WipeOut|AutoCAD Express Tool|expresstools@autodesk.com
 90
        0
280
         0
281
         0
  0
CLASS
  1
RTEXT
  2
RText
  3
RText|AutoCAD Express Tool|expresstools@autodesk.com
 90
        0
280
         0
281
         1
  0
CLASS
  1
ARCALIGNEDTEXT
  2
AcDbArcAlignedText
  3
ATEXT|AutoCAD Express Tool|expresstools@autodesk.com
 90
        0
280
         0
281
         1
  0
ENDSEC
  0
SECTION
  2
TABLES
  0
TABLE
  2
VPORT
  5
7
100
AcDbSymbolTable
 70
         1
  0
VPORT
  5
15
100
AcDbSymbolTableRecord
100
AcDbViewportTableRecord
  2
*ACTIVE
 70
         0
 10
0.0
 20
0.0
 11
1.0
 21
1.0
 12
1965.9675629293
 22
727.0361300896
 13
0.0
 23
0.0
 14
1.0
 24
1.0
 15
0.0
 25
0.0
 16
0.0
 26
0.0
 36
1.0
 17
0.0
 27
0.0
 37
0.0
 40
269.3073687031
 41
2.0011123471
 42
50.0
 43
0.0
 44
0.0
 50
0.0
 51
0.0
 71
         0
 72
       100
 73
         1
 74
         1
 75
         0
 76
         0
 77
         0
 78
         0
  0
ENDTAB
  0
TABLE
  2
LTYPE
  5
4
100
AcDbSymbolTable
 70
         6
  0
LTYPE
  5
11
100
AcDbSymbolTableRecord
100
AcDbLinetypeTableRecord
  2
BYBLOCK
 70
        64
  3

 72
        65
 73
         0
 40
0.0
  0
LTYPE
  5
12
100
AcDbSymbolTableRecord
100
AcDbLinetypeTableRecord
  2
BYLAYER
 70
        64
  3

 72
        65
 73
         0
 40
0.0
  0
LTYPE
  5
13
100
AcDbSymbolTableRecord
100
AcDbLinetypeTableRecord
  2
CONTINUOUS
 70
        64
  3
Solid line
 72
        65
 73
         0
 40
0.0
  0
LTYPE
  5
1D
100
AcDbSymbolTableRecord
100
AcDbLinetypeTableRecord
  2
DASHED
 70
        64
  3
_ _ _ _ _ _ _ _ _ _ _ _ _ _ _ _
 72
        65
 73
         2
 40
0.2
 49
0.1
 74
         0
 49
-0.1
 74
         0
  0
LTYPE
  5
1E
100
AcDbSymbolTableRecord
100
AcDbLinetypeTableRecord
  2
CENTER
 70
        64
  3
___ _ ___ _ ___ _ ___ _ ___ _ ___ _ ___ _ ___ _
 72
        65
 73
         4
 40
0.95
 49
0.625
 74
         0
 49
-0.125
 74
         0
 49
0.075
 74
         0
 49
-0.125
 74
         0
  0
LTYPE
  5
1F
100
AcDbSymbolTableRecord
100
AcDbLinetypeTableRecord
  2
PHANTOM
 70
        64
  3
______  __  __  ______  __  __  ______  __  __  
 72
        65
 73
         6
 40
1.025
 49
0.625
 74
         0
 49
-0.125
 74
         0
 49
0.075
 74
         0
 49
-0.125
 74
         0
 49
0.075
 74
         0
 49
-0.125
 74
         0
  0
ENDTAB
  0
TABLE
  2
LAYER
  5
2
100
AcDbSymbolTable
 70
        11
  0
LAYER
  5
14
100
AcDbSymbolTableRecord
100
AcDbLayerTableRecord
  2
0
 70
         0
 62
         7
  6
CONTINUOUS
  0
LAYER
  5
21
100
AcDbSymbolTableRecord
100
AcDbLayerTableRecord
  2
____
 70
         0
 62
         7
  6
CONTINUOUS
  0
LAYER
  5
22
100
AcDbSymbolTableRecord
100
AcDbLayerTableRecord
  2
____
 70
         1
 62
         7
  6
CONTINUOUS
  0
LAYER
  5
23
100
AcDbSymbolTableRecord
100
AcDbLayerTableRecord
  2
____
 70
         1
 62
         7
  6
CONTINUOUS
  0
LAYER
  5
24
100
AcDbSymbolTableRecord
100
AcDbLayerTableRecord
  2
____
 70
         1
 62
         7
  6
CONTINUOUS
  0
LAYER
  5
25
100
AcDbSymbolTableRecord
100
AcDbLayerTableRecord
  2
___G__
 70
         1
 62
         7
  6
CONTINUOUS
  0
LAYER
  5
26
100
AcDbSymbolTableRecord
100
AcDbLayerTableRecord
  2
______
 70
         1
 62
         7
  6
CONTINUOUS
  0
LAYER
  5
27
100
AcDbSymbolTableRecord
100
AcDbLayerTableRecord
  2
______
 70
         1
 62
         7
  6
CONTINUOUS
  0
LAYER
  5
28
100
AcDbSymbolTableRecord
100
AcDbLayerTableRecord
  2
______
 70
         1
 62
         7
  6
CONTINUOUS
  0
LAYER
  5
29
100
AcDbSymbolTableRecord
100
AcDbLayerTableRecord
  2
___T__
 70
         1
 62
         7
  6
CONTINUOUS
  0
LAYER
  5
94
100
AcDbSymbolTableRecord
100
AcDbLayerTableRecord
  2
DEFPOINTS
 70
         0
 62
        -7
  6
CONTINUOUS
  0
ENDTAB
  0
TABLE
  2
STYLE
  5
3
100
AcDbSymbolTable
 70
         7
  0
STYLE
  5
17
100
AcDbSymbolTableRecord
100
AcDbTextStyleTableRecord
  2
STANDARD
 70
         0
 40
0.0
 41
1.0
 50
0.0
 71
         0
 42
0.0
  3
txt
  4

  0
STYLE
  5
9D
100
AcDbSymbolTableRecord
100
AcDbTextStyleTableRecord
  2
BOX
 70
         0
 40
1.0
 41
1.0
 50
0.0
 71
         0
 42
0.2
  3
txt.shx
  4

  0
STYLE
  5
12D
100
AcDbSymbolTableRecord
100
AcDbTextStyleTableRecord
  2
BOX
 70
         0
 40
1.0
 41
1.0
 50
0.0
 71
         0
 42
0.2
  3
txt.shx
  4

  0
STYLE
  5
13B
100
AcDbSymbolTableRecord
100
AcDbTextStyleTableRecord
  2
BOX
 70
         0
 40
1.0
 41
1.0
 50
0.0
 71
         0
 42
0.2
  3
txt.shx
  4

  0
STYLE
  5
14B
100
AcDbSymbolTableRecord
100
AcDbTextStyleTableRecord
  2
BOX
 70
         0
 40
1.0
 41
1.0
 50
0.0
 71
         0
 42
0.2
  3
txt.shx
  4

  0
STYLE
  5
17F
100
AcDbSymbolTableRecord
100
AcDbTextStyleTableRecord
  2
BOX
 70
         0
 40
1.0
 41
1.0
 50
0.0
 71
         0
 42
0.2
  3
txt.shx
  4

  0
STYLE
  5
18D
100
AcDbSymbolTableRecord
100
AcDbTextStyleTableRecord
  2
BOX
 70
         0
 40
1.0
 41
1.0
 50
0.0
 71
         0
 42
0.2
  3
txt.shx
  4

  0
ENDTAB
  0
TABLE
  2
VIEW
  5
5
100
AcDbSymbolTable
 70
         0
  0
ENDTAB
  0
TABLE
  2
UCS
  5
6
100
AcDbSymbolTable
 70
         1
  0
UCS
  5
20
100
AcDbSymbolTableRecord
100
AcDbUCSTableRecord
  2
CK_VIEW_1
 70
         0
 10
0.0
 20
0.0
 30
1.0
 11
1.0
 21
0.0
 31
0.0
 12
0.0
 22
1.0
 32
0.0
  0
ENDTAB
  0
TABLE
  2
APPID
  5
8
100
AcDbSymbolTable
 70
         1
  0
APPID
  5
16
100
AcDbSymbolTableRecord
100
AcDbRegAppTableRecord
  2
ACAD
 70
         0
  0
ENDTAB
  0
TABLE
  2
DIMSTYLE
  5
9
100
AcDbSymbolTable
 70
         2
  0
DIMSTYLE
105
18
100
AcDbSymbolTableRecord
100
AcDbDimStyleTableRecord
  2
STANDARD
 70
         0
  3

  4

  5

  6

  7

 40
1.0
 41
0.18
 42
0.0625
 43
0.38
 44
0.18
 45
0.0
 46
0.0
 47
0.0
 48
0.0
 71
         0
 72
         0
 73
         1
 74
         1
 75
         0
 76
         0
 77
         0
 78
         0
140
0.18
141
0.09
142
0.0
143
25.4
144
1.0
145
0.0
146
1.0
147
0.09
170
         0
171
         2
172
         0
173
         0
174
         0
175
         0
176
         0
177
         0
178
         0
270
         2
271
         4
272
         4
273
         2
274
         2
275
         0
280
         0
281
         0
282
         0
283
         1
284
         0
285
         0
286
         0
287
         0
288
         0
340
17
  0
DIMSTYLE
105
90
100
AcDbSymbolTableRecord
100
AcDbDimStyleTableRecord
  2
DIMSTYLE1
 70
         0
  3

  4

  5

  6

  7

 40
1.0
 41
2.7
 42
0.0625
 43
0.38
 44
2.7
 45
0.0
 46
0.0
 47
0.0
 48
0.0
 71
         0
 72
         0
 73
         1
 74
         1
 75
         0
 76
         0
 77
         0
 78
         0
140
2.7
141
0.09
142
0.0
143
25.4
144
1.0
145
0.0
146
1.0
147
0.09
170
         0
171
         2
172
         0
173
         0
174
         0
175
         0
176
         0
177
         0
178
         0
270
         2
271
         4
272
         4
273
         2
274
         2
275
         0
280
         0
281
         0
282
         0
283
         1
284
         0
285
         0
286
         0
287
         0
288
         0
340
17
  0
ENDTAB
  0
TABLE
  2
BLOCK_RECORD
  5
1
100
AcDbSymbolTable
 70
         7
  0
BLOCK_RECORD
  5
A
100
AcDbSymbolTableRecord
100
AcDbBlockTableRecord
  2
*MODEL_SPACE
  0
BLOCK_RECORD
  5
B
100
AcDbSymbolTableRecord
100
AcDbBlockTableRecord
  2
*PAPER_SPACE
  0
BLOCK_RECORD
  5
91
100
AcDbSymbolTableRecord
100
AcDbBlockTableRecord
  2
*D0
  0
BLOCK_RECORD
  5
122
100
AcDbSymbolTableRecord
100
AcDbBlockTableRecord
  2
*D1
  0
BLOCK_RECORD
  5
130
100
AcDbSymbolTableRecord
100
AcDbBlockTableRecord
  2
*D2
  0
BLOCK_RECORD
  5
140
100
AcDbSymbolTableRecord
100
AcDbBlockTableRecord
  2
*D3
  0
BLOCK_RECORD
  5
174
100
AcDbSymbolTableRecord
100
AcDbBlockTableRecord
  2
*D4
  0
BLOCK_RECORD
  5
182
100
AcDbSymbolTableRecord
100
AcDbBlockTableRecord
  2
*D5
  0
BLOCK_RECORD
  5
195
100
AcDbSymbolTableRecord
100
AcDbBlockTableRecord
  2
*X6
  0
ENDTAB
  0
ENDSEC
  0
SECTION
  2
BLOCKS
  0
BLOCK
  5
D
100
AcDbEntity
  8
0
100
AcDbBlockBegin
  2
*MODEL_SPACE
 70
         0
 10
0.0
 20
0.0
 30
0.0
  3
*MODEL_SPACE
  1

  0
ENDBLK
  5
E
100
AcDbEntity
  8
0
100
AcDbBlockEnd
  0
BLOCK
  5
F
100
AcDbEntity
 67
         1
  8
0
100
AcDbBlockBegin
  2
*PAPER_SPACE
 70
         0
 10
0.0
 20
0.0
 30
0.0
  3
*PAPER_SPACE
  1

  0
ENDBLK
  5
10
100
AcDbEntity
 67
         1
  8
0
100
AcDbBlockEnd
  0
BLOCK
  5
92
100
AcDbEntity
  8
0
100
AcDbBlockBegin
  2
*D0
 70
        65
 10
0.0
 20
0.0
 30
0.0
  3
*D0
  1

  0
POINT
  5
95
100
AcDbEntity
  8
DEFPOINTS
  6
CONTINUOUS
 62
         0
100
AcDbPoint
 10
2015.8124627181
 20
773.7303355888
 30
0.0
  0
POINT
  5
96
100
AcDbEntity
  8
DEFPOINTS
  6
CONTINUOUS
 62
         0
100
AcDbPoint
 10
1944.9459178278
 20
773.7303355888
 30
0.0
  0
POINT
  5
97
100
AcDbEntity
  8
DEFPOINTS
  6
CONTINUOUS
 62
         0
100
AcDbPoint
 10
1944.9459178278
 20
729.2803355888
 30
0.0
  0
LINE
  5
98
100
AcDbEntity
  8
____
  6
CONTINUOUS
 62
         4
100
AcDbLine
 10
1946.2959178278
 20
773.7303355888
 30
0.0
 11
2016.4874627181
 21
773.7303355888
 31
0.0
  0
LINE
  5
99
100
AcDbEntity
  8
____
  6
CONTINUOUS
 62
         4
100
AcDbLine
 10
1946.2959178278
 20
729.2803355888
 30
0.0
 11
2016.4874627181
 21
729.2803355888
 31
0.0
  0
LINE
  5
9A
100
AcDbEntity
  8
____
  6
CONTINUOUS
 62
         4
100
AcDbLine
 10
2015.8124627181
 20
773.7303355888
 30
0.0
 11
2015.8124627181
 21
729.2803355888
 31
0.0
  0
SOLID
  5
9B
100
AcDbEntity
  8
____
  6
CONTINUOUS
 62
         4
100
AcDbTrace
 10
2015.8124627181
 20
773.7303355888
 30
0.0
 11
2016.2174627181
 21
771.0303355888
 31
0.0
 12
2015.4074627181
 22
771.0303355888
 32
0.0
 13
2015.8124627181
 23
773.7303355888
 33
0.0
  0
SOLID
  5
9C
100
AcDbEntity
  8
____
  6
CONTINUOUS
 62
         4
100
AcDbTrace
 10
2015.8124627181
 20
729.2803355888
 30
0.0
 11
2015.4074627181
 21
731.9803355888
 31
0.0
 12
2016.2174627181
 22
731.9803355888
 32
0.0
 13
2015.8124627181
 23
729.2803355888
 33
0.0
  0
TEXT
  5
9E
100
AcDbEntity
  8
____
  6
CONTINUOUS
 62
         4
100
AcDbText
 10
2013.7874627181
 20
733.8165676451
 30
0.0
 40
2.7
  1
崷44.57
 50
90.0
  7
BOX
100
AcDbText
  0
ENDBLK
  5
9F
100
AcDbEntity
  8
0
  6
CONTINUOUS
100
AcDbBlockEnd
  0
BLOCK
  5
123
100
AcDbEntity
  8
0
100
AcDbBlockBegin
  2
*D1
 70
        65
 10
0.0
 20
0.0
 30
0.0
  3
*D1
  1

  0
POINT
  5
125
100
AcDbEntity
  8
DEFPOINTS
  6
CONTINUOUS
 62
         0
100
AcDbPoint
 10
2002.7036183903
 20
762.6178355888
 30
0.0
  0
POINT
  5
126
100
AcDbEntity
  8
DEFPOINTS
  6
CONTINUOUS
 62
         0
100
AcDbPoint
 10
1965.3239178278
 20
762.6178355888
 30
0.0
  0
POINT
  5
127
100
AcDbEntity
  8
DEFPOINTS
  6
CONTINUOUS
 62
         0
100
AcDbPoint
 10
1965.3239178278
 20
740.3928355888
 30
0.0
  0
LINE
  5
128
100
AcDbEntity
  8
____
  6
CONTINUOUS
 62
         4
100
AcDbLine
 10
1966.6739178278
 20
762.6178355888
 30
0.0
 11
2003.3786183903
 21
762.6178355888
 31
0.0
  0
LINE
  5
129
100
AcDbEntity
  8
____
  6
CONTINUOUS
 62
         4
100
AcDbLine
 10
1966.6739178278
 20
740.3928355888
 30
0.0
 11
2003.3786183903
 21
740.3928355888
 31
0.0
  0
LINE
  5
12A
100
AcDbEntity
  8
____
  6
CONTINUOUS
 62
         4
100
AcDbLine
 10
2002.7036183903
 20
762.6178355888
 30
0.0
 11
2002.7036183903
 21
740.3928355888
 31
0.0
  0
SOLID
  5
12B
100
AcDbEntity
  8
____
  6
CONTINUOUS
 62
         4
100
AcDbTrace
 10
2002.7036183903
 20
762.6178355888
 30
0.0
 11
2003.1086183903
 21
759.9178355888
 31
0.0
 12
2002.2986183903
 22
759.9178355888
 32
0.0
 13
2002.7036183903
 23
762.6178355888
 33
0.0
  0
SOLID
  5
12C
100
AcDbEntity
  8
____
  6
CONTINUOUS
 62
         4
100
AcDbTrace
 10
2002.7036183903
 20
740.3928355888
 30
0.0
 11
2002.2986183903
 21
743.0928355888
 31
0.0
 12
2003.1086183903
 22
743.0928355888
 32
0.0
 13
2002.7036183903
 23
740.3928355888
 33
0.0
  0
TEXT
  5
12E
100
AcDbEntity
  8
____
  6
CONTINUOUS
 62
         4
100
AcDbText
 10
2000.6786183903
 20
732.6053355888
 30
0.0
 40
2.7
  1
7/8"-20UNEF-2A
 50
90.0
  7
BOX
100
AcDbText
  0
ENDBLK
  5
12F
100
AcDbEntity
  8
0
  6
CONTINUOUS
100
AcDbBlockEnd
  0
BLOCK
  5
131
100
AcDbEntity
  8
0
100
AcDbBlockBegin
  2
*D2
 70
        65
 10
0.0
 20
0.0
 30
0.0
  3
*D2
  1

  0
POINT
  5
133
100
AcDbEntity
  8
DEFPOINTS
  6
CONTINUOUS
 62
         0
100
AcDbPoint
 10
1954.7479178278
 20
700.4440687757
 30
0.0
  0
POINT
  5
134
100
AcDbEntity
  8
DEFPOINTS
  6
CONTINUOUS
 62
         0
100
AcDbPoint
 10
1954.7479178278
 20
729.9053355888
 30
0.0
  0
POINT
  5
135
100
AcDbEntity
  8
DEFPOINTS
  6
CONTINUOUS
 62
         0
100
AcDbPoint
 10
1965.9239178278
 20
740.9928355888
 30
0.0
  0
LINE
  5
136
100
AcDbEntity
  8
____
  6
CONTINUOUS
 62
         4
100
AcDbLine
 10
1954.7479178278
 20
728.5553355888
 30
0.0
 11
1954.7479178278
 21
699.7690687757
 31
0.0
  0
LINE
  5
137
100
AcDbEntity
  8
____
  6
CONTINUOUS
 62
         4
100
AcDbLine
 10
1965.9239178278
 20
739.6428355888
 30
0.0
 11
1965.9239178278
 21
699.7690687757
 31
0.0
  0
LINE
  5
138
100
AcDbEntity
  8
____
  6
CONTINUOUS
 62
         4
100
AcDbLine
 10
1954.7479178278
 20
700.4440687757
 30
0.0
 11
1965.9239178278
 21
700.4440687757
 31
0.0
  0
SOLID
  5
139
100
AcDbEntity
  8
____
  6
CONTINUOUS
 62
         4
100
AcDbTrace
 10
1954.7479178278
 20
700.4440687757
 30
0.0
 11
1957.4479178278
 21
700.8490687757
 31
0.0
 12
1957.4479178278
 22
700.0390687757
 32
0.0
 13
1954.7479178278
 23
700.4440687757
 33
0.0
  0
SOLID
  5
13A
100
AcDbEntity
  8
____
  6
CONTINUOUS
 62
         4
100
AcDbTrace
 10
1965.9239178278
 20
700.4440687757
 30
0.0
 11
1963.2239178278
 21
700.0390687757
 31
0.0
 12
1963.2239178278
 22
700.8490687757
 32
0.0
 13
1965.9239178278
 23
700.4440687757
 33
0.0
  0
TEXT
  5
13C
100
AcDbEntity
  8
____
  6
CONTINUOUS
 62
         4
100
AcDbText
 10
1957.1614522509
 20
702.4690687757
 30
0.0
 40
2.7
  1
11.18
  7
BOX
100
AcDbText
  0
ENDBLK
  5
13D
100
AcDbEntity
  8
0
  6
CONTINUOUS
100
AcDbBlockEnd
  0
BLOCK
  5
141
100
AcDbEntity
  8
0
100
AcDbBlockBegin
  2
*D3
 70
        65
 10
0.0
 20
0.0
 30
0.0
  3
*D3
  1

  0
POINT
  5
143
100
AcDbEntity
  8
DEFPOINTS
  6
CONTINUOUS
 62
         0
100
AcDbPoint
 10
1987.9243038541
 20
761.5053355888
 30
0.0
  0
POINT
  5
144
100
AcDbEntity
  8
DEFPOINTS
  6
CONTINUOUS
 62
         0
100
AcDbPoint
 10
1958.7479178278
 20
761.5053355888
 30
0.0
  0
POINT
  5
145
100
AcDbEntity
  8
DEFPOINTS
  6
CONTINUOUS
 62
         0
100
AcDbPoint
 10
1958.7479178278
 20
741.5053355888
 30
0.0
  0
LINE
  5
146
100
AcDbEntity
  8
____
  6
CONTINUOUS
 62
         4
100
AcDbLine
 10
1960.0979178278
 20
761.5053355888
 30
0.0
 11
1988.5993038541
 21
761.5053355888
 31
0.0
  0
LINE
  5
147
100
AcDbEntity
  8
____
  6
CONTINUOUS
 62
         4
100
AcDbLine
 10
1960.0979178278
 20
741.5053355888
 30
0.0
 11
1988.5993038541
 21
741.5053355888
 31
0.0
  0
LINE
  5
148
100
AcDbEntity
  8
____
  6
CONTINUOUS
 62
         4
100
AcDbLine
 10
1987.9243038541
 20
761.5053355888
 30
0.0
 11
1987.9243038541
 21
741.5053355888
 31
0.0
  0
SOLID
  5
149
100
AcDbEntity
  8
____
  6
CONTINUOUS
 62
         4
100
AcDbTrace
 10
1987.9243038541
 20
761.5053355888
 30
0.0
 11
1988.3293038541
 21
758.8053355888
 31
0.0
 12
1987.5193038541
 22
758.8053355888
 32
0.0
 13
1987.9243038541
 23
761.5053355888
 33
0.0
  0
SOLID
  5
14A
100
AcDbEntity
  8
____
  6
CONTINUOUS
 62
         4
100
AcDbTrace
 10
1987.9243038541
 20
741.5053355888
 30
0.0
 11
1987.5193038541
 21
744.2053355888
 31
0.0
 12
1988.3293038541
 22
744.2053355888
 32
0.0
 13
1987.9243038541
 23
741.5053355888
 33
0.0
  0
TEXT
  5
14C
100
AcDbEntity
  8
____
  6
CONTINUOUS
 62
         4
100
AcDbText
 10
1985.8993038541
 20
742.4397014704
 30
0.0
 40
2.7
  1
崷20
 50
90.0
  7
BOX
100
AcDbText
  0
ENDBLK
  5
14D
100
AcDbEntity
  8
0
  6
CONTINUOUS
100
AcDbBlockEnd
  0
BLOCK
  5
175
100
AcDbEntity
  8
0
100
AcDbBlockBegin
  2
*D4
 70
        65
 10
0.0
 20
0.0
 30
0.0
  3
*D4
  1

  0
POINT
  5
177
100
AcDbEntity
  8
DEFPOINTS
  6
CONTINUOUS
 62
         0
100
AcDbPoint
 10
1841.4939178278
 20
844.7235704092
 30
0.0
  0
POINT
  5
178
100
AcDbEntity
  8
DEFPOINTS
  6
CONTINUOUS
 62
         0
100
AcDbPoint
 10
1841.4939178278
 20
762.7176423052
 30
0.0
  0
POINT
  5
179
100
AcDbEntity
  8
DEFPOINTS
  6
CONTINUOUS
 62
         0
100
AcDbPoint
 10
1965.9239178278
 20
761.6178355888
 30
0.0
  0
LINE
  5
17A
100
AcDbEntity
  8
____
  6
CONTINUOUS
 62
         4
100
AcDbLine
 10
1841.4939178278
 20
764.0676423052
 30
0.0
 11
1841.4939178278
 21
845.3985704092
 31
0.0
  0
LINE
  5
17B
100
AcDbEntity
  8
____
  6
CONTINUOUS
 62
         4
100
AcDbLine
 10
1965.9239178278
 20
762.9678355888
 30
0.0
 11
1965.9239178278
 21
845.3985704092
 31
0.0
  0
LINE
  5
17C
100
AcDbEntity
  8
____
  6
CONTINUOUS
 62
         4
100
AcDbLine
 10
1841.4939178278
 20
844.7235704092
 30
0.0
 11
1965.9239178278
 21
844.7235704092
 31
0.0
  0
SOLID
  5
17D
100
AcDbEntity
  8
____
  6
CONTINUOUS
 62
         4
100
AcDbTrace
 10
1841.4939178278
 20
844.7235704092
 30
0.0
 11
1844.1939178278
 21
845.1285704092
 31
0.0
 12
1844.1939178278
 22
844.3185704092
 32
0.0
 13
1841.4939178278
 23
844.7235704092
 33
0.0
  0
SOLID
  5
17E
100
AcDbEntity
  8
____
  6
CONTINUOUS
 62
         4
100
AcDbTrace
 10
1965.9239178278
 20
844.7235704092
 30
0.0
 11
1963.2239178278
 21
844.3185704092
 31
0.0
 12
1963.2239178278
 22
845.1285704092
 32
0.0
 13
1965.9239178278
 23
844.7235704092
 33
0.0
  0
TEXT
  5
180
100
AcDbEntity
  8
____
  6
CONTINUOUS
 62
         4
100
AcDbText
 10
1897.7577988469
 20
846.7485704092
 30
0.0
 40
2.7
  1
124.43
  7
BOX
100
AcDbText
  0
ENDBLK
  5
181
100
AcDbEntity
  8
0
  6
CONTINUOUS
100
AcDbBlockEnd
  0
BLOCK
  5
183
100
AcDbEntity
  8
0
100
AcDbBlockBegin
  2
*D5
 70
        65
 10
0.0
 20
0.0
 30
0.0
  3
*D5
  1

  0
POINT
  5
185
100
AcDbEntity
  8
DEFPOINTS
  6
CONTINUOUS
 62
         0
100
AcDbPoint
 10
1909.8939178278
 20
835.4673282364
 30
0.0
  0
POINT
  5
186
100
AcDbEntity
  8
DEFPOINTS
  6
CONTINUOUS
 62
         0
100
AcDbPoint
 10
1909.8939178278
 20
773.7303355888
 30
0.0
  0
POINT
  5
187
100
AcDbEntity
  8
DEFPOINTS
  6
CONTINUOUS
 62
         0
100
AcDbPoint
 10
1954.7479178278
 20
772.7903355888
 30
0.0
  0
LINE
  5
188
100
AcDbEntity
  8
____
  6
CONTINUOUS
 62
         4
100
AcDbLine
 10
1909.8939178278
 20
775.0803355888
 30
0.0
 11
1909.8939178278
 21
836.1423282364
 31
0.0
  0
LINE
  5
189
100
AcDbEntity
  8
____
  6
CONTINUOUS
 62
         4
100
AcDbLine
 10
1954.7479178278
 20
774.1403355888
 30
0.0
 11
1954.7479178278
 21
836.1423282364
 31
0.0
  0
LINE
  5
18A
100
AcDbEntity
  8
____
  6
CONTINUOUS
 62
         4
100
AcDbLine
 10
1909.8939178278
 20
835.4673282364
 30
0.0
 11
1954.7479178278
 21
835.4673282364
 31
0.0
  0
SOLID
  5
18B
100
AcDbEntity
  8
____
  6
CONTINUOUS
 62
         4
100
AcDbTrace
 10
1909.8939178278
 20
835.4673282364
 30
0.0
 11
1912.5939178278
 21
835.8723282364
 31
0.0
 12
1912.5939178278
 22
835.0623282364
 32
0.0
 13
1909.8939178278
 23
835.4673282364
 33
0.0
  0
SOLID
  5
18C
100
AcDbEntity
  8
____
  6
CONTINUOUS
 62
         4
100
AcDbTrace
 10
1954.7479178278
 20
835.4673282364
 30
0.0
 11
1952.0479178278
 21
835.0623282364
 31
0.0
 12
1952.0479178278
 22
835.8723282364
 32
0.0
 13
1954.7479178278
 23
835.4673282364
 33
0.0
  0
TEXT
  5
18E
100
AcDbEntity
  8
____
  6
CONTINUOUS
 62
         4
100
AcDbText
 10
1929.6209178278
 20
837.4923282364
 30
0.0
 40
2.7
  1
45
  7
BOX
100
AcDbText
  0
ENDBLK
  5
18F
100
AcDbEntity
  8
0
  6
CONTINUOUS
100
AcDbBlockEnd
  0
BLOCK
  5
196
100
AcDbEntity
  8
0
100
AcDbBlockBegin
  2
*X6
 70
        65
 10
0.0
 20
0.0
 30
0.0
  3
*X6
  1

  0
LINE
  5
197
100
AcDbEntity
  8
____
  6
CONTINUOUS
 62
         4
100
AcDbLine
 10
1951.9579804724
 20
614.1736897703
 30
0.0
 11
1954.7479178278
 21
616.9636271256
 31
0.0
  0
LINE
  5
198
100
AcDbEntity
  8
____
  6
CONTINUOUS
 62
         4
100
AcDbLine
 10
1963.0704804724
 20
625.2861897703
 30
0.0
 11
1965.9239178278
 21
628.1396271256
 31
0.0
  0
LINE
  5
199
100
AcDbEntity
  8
____
  6
CONTINUOUS
 62
         4
100
AcDbLine
 10
1947.7153397853
 20
614.1736897703
 30
0.0
 11
1954.7479178278
 21
621.2062678128
 31
0.0
  0
LINE
  5
19A
100
AcDbEntity
  8
____
  6
CONTINUOUS
 62
         4
100
AcDbLine
 10
1958.8278397853
 20
625.2861897703
 30
0.0
 11
1965.9239178278
 21
632.3822678128
 31
0.0
  0
LINE
  5
19B
100
AcDbEntity
  8
____
  6
CONTINUOUS
 62
         4
100
AcDbLine
 10
1943.4726990982
 20
614.1736897703
 30
0.0
 11
1954.2479178278
 21
624.9489084999
 31
0.0
  0
LINE
  5
19C
100
AcDbEntity
  8
____
  6
CONTINUOUS
 62
         4
100
AcDbLine
 10
1955.6976990982
 20
626.3986897703
 30
0.0
 11
1964.4333048831
 21
635.1342955551
 31
0.0
  0
LINE
  5
19D
100
AcDbEntity
  8
____
  6
CONTINUOUS
 62
         4
100
AcDbLine
 10
1939.2300584111
 20
614.1736897703
 30
0.0
 11
1965.9239178278
 21
640.867549187
 31
0.0
  0
LINE
  5
19E
100
AcDbEntity
  8
____
  6
CONTINUOUS
 62
         4
100
AcDbLine
 10
1925.4374177238
 20
604.6236897701
 30
0.0
 11
1928.9939178278
 21
608.1801898741
 31
0.0
  0
LINE
  5
19F
100
AcDbEntity
  8
____
  6
CONTINUOUS
 62
         4
100
AcDbLine
 10
1934.9874177239
 20
614.1736897703
 30
0.0
 11
1965.9239178278
 21
645.1101898741
 31
0.0
  0
LINE
  5
1A0
100
AcDbEntity
  8
____
  6
CONTINUOUS
 62
         4
100
AcDbLine
 10
1923.3093429991
 20
606.7382557325
 30
0.0
 11
1928.9939178278
 21
612.4228305612
 31
0.0
  0
LINE
  5
1A1
100
AcDbEntity
  8
____
  6
CONTINUOUS
 62
         4
100
AcDbLine
 10
1930.7447770368
 20
614.1736897703
 30
0.0
 11
1964.0822770368
 21
647.5111897703
 31
0.0
  0
LINE
  5
1A2
100
AcDbEntity
  8
____
  6
CONTINUOUS
 62
         4
100
AcDbLine
 10
1916.9521363495
 20
604.6236897701
 30
0.0
 11
1918.1481884053
 21
605.8197418258
 31
0.0
  0
LINE
  5
1A3
100
AcDbEntity
  8
____
  6
CONTINUOUS
 62
         4
100
AcDbLine
 10
1920.6021363497
 20
608.2736897703
 30
0.0
 11
1958.7271363497
 21
646.3986897703
 31
0.0
  0
LINE
  5
1A4
100
AcDbEntity
  8
____
  6
CONTINUOUS
 62
         4
100
AcDbLine
 10
1958.7479178278
 20
646.4194712484
 30
0.0
 11
1959.8396363497
 21
647.5111897703
 31
0.0
  0
LINE
  5
1A5
100
AcDbEntity
  8
____
  6
CONTINUOUS
 62
         4
100
AcDbLine
 10
1913.2212253716
 20
605.1354194793
 30
0.0
 11
1954.5330285166
 21
646.4472226242
 31
0.0
  0
LINE
  5
1A6
100
AcDbEntity
  8
____
  6
CONTINUOUS
 62
         4
100
AcDbLine
 10
1913.0939178278
 20
609.2507526226
 30
0.0
 11
1954.7479178278
 21
650.9047526226
 31
0.0
  0
LINE
  5
1A7
100
AcDbEntity
  8
____
  6
CONTINUOUS
 62
         4
100
AcDbLine
 10
1913.0939178278
 20
613.4933933097
 30
0.0
 11
1954.7479178278
 21
655.1473933097
 31
0.0
  0
LINE
  5
1A8
100
AcDbEntity
  8
____
  6
CONTINUOUS
 62
         4
100
AcDbLine
 10
1909.5776901392
 20
614.2198063082
 30
0.0
 11
1953.9590344756
 21
658.6011506447
 31
0.0
  0
LINE
  5
1A9
100
AcDbEntity
  8
____
  6
CONTINUOUS
 62
         4
100
AcDbLine
 10
1905.8750219031
 20
614.7597787593
 30
0.0
 11
1949.7389329141
 21
658.6236897703
 31
0.0
  0
LINE
  5
1AA
100
AcDbEntity
  8
____
  6
CONTINUOUS
 62
         4
100
AcDbLine
 10
1902.1723536671
 20
615.2997512104
 30
0.0
 11
1945.496292227
 21
658.6236897703
 31
0.0
  0
LINE
  5
1AB
100
AcDbEntity
  8
____
  6
CONTINUOUS
 62
         4
100
AcDbLine
 10
1898.4696854311
 20
615.8397236614
 30
0.0
 11
1941.2536515399
 21
658.6236897703
 31
0.0
  0
LINE
  5
1AC
100
AcDbEntity
  8
____
  6
CONTINUOUS
 62
         4
100
AcDbLine
 10
1894.767017195
 20
616.3796961125
 30
0.0
 11
1937.0110108527
 21
658.6236897703
 31
0.0
  0
LINE
  5
1AD
100
AcDbEntity
  8
____
  6
CONTINUOUS
 62
         4
100
AcDbLine
 10
1891.064348959
 20
616.9196685636
 30
0.0
 11
1932.7683701656
 21
658.6236897703
 31
0.0
  0
LINE
  5
1AE
100
AcDbEntity
  8
____
  6
CONTINUOUS
 62
         4
100
AcDbLine
 10
1887.361680723
 20
617.4596410147
 30
0.0
 11
1929.0448480058
 21
659.1428082975
 31
0.0
  0
LINE
  5
1AF
100
AcDbEntity
  8
____
  6
CONTINUOUS
 62
         4
100
AcDbLine
 10
1883.6590124869
 20
617.9996134658
 30
0.0
 11
1928.9939178278
 21
663.3345188067
 31
0.0
  0
LINE
  5
1B0
100
AcDbEntity
  8
____
  6
CONTINUOUS
 62
         4
100
AcDbLine
 10
1879.9563442509
 20
618.5395859169
 30
0.0
 11
1928.933305347
 21
667.516547013
 31
0.0
  0
LINE
  5
1B1
100
AcDbEntity
  8
____
  6
CONTINUOUS
 62
         4
100
AcDbLine
 10
1876.2536760149
 20
619.079558368
 30
0.0
 11
1921.6978074173
 21
664.5236897704
 31
0.0
  0
LINE
  5
1B2
100
AcDbEntity
  8
____
  6
CONTINUOUS
 62
         4
100
AcDbLine
 10
1923.4132996414
 20
666.2391819945
 30
0.0
 11
1925.3478074173
 21
668.1736897704
 31
0.0
  0
LINE
  5
1B3
100
AcDbEntity
  8
____
  6
CONTINUOUS
 62
         4
100
AcDbLine
 10
1872.5510077788
 20
619.6195308191
 30
0.0
 11
1911.5957115164
 21
658.6642345566
 31
0.0
  0
LINE
  5
1B4
100
AcDbEntity
  8
____
  6
CONTINUOUS
 62
         4
100
AcDbLine
 10
1913.0939178278
 20
660.162440868
 30
0.0
 11
1918.792732154
 21
665.8612551942
 31
0.0
  0
LINE
  5
1B5
100
AcDbEntity
  8
____
  6
CONTINUOUS
 62
         4
100
AcDbLine
 10
1868.8483395428
 20
620.1595032701
 30
0.0
 11
1878.0875260429
 21
629.3986897703
 31
0.0
  0
LINE
  5
1B6
100
AcDbEntity
  8
____
  6
CONTINUOUS
 62
         4
100
AcDbLine
 10
1885.3714475523
 20
636.6826112796
 30
0.0
 11
1906.8718006162
 21
658.1829643436
 31
0.0
  0
LINE
  5
1B7
100
AcDbEntity
  8
____
  6
CONTINUOUS
 62
         4
100
AcDbLine
 10
1913.0939178278
 20
664.4050815551
 30
0.0
 11
1916.8625260431
 21
668.1736897704
 31
0.0
  0
LINE
  5
1B8
100
AcDbEntity
  8
____
  6
CONTINUOUS
 62
         4
100
AcDbLine
 10
1865.1456713068
 20
620.6994757212
 30
0.0
 11
1873.8448853558
 21
629.3986897703
 31
0.0
  0
LINE
  5
1B9
100
AcDbEntity
  8
____
  6
CONTINUOUS
 62
         4
100
AcDbLine
 10
1883.8185332817
 20
639.3723376961
 30
0.0
 11
1901.9048066411
 21
657.4586110555
 31
0.0
  0
LINE
  5
1BA
100
AcDbEntity
  8
____
  6
CONTINUOUS
 62
         4
100
AcDbLine
 10
1861.4430030707
 20
621.2394481723
 30
0.0
 11
1869.6022446687
 21
629.3986897703
 31
0.0
  0
LINE
  5
1BB
100
AcDbEntity
  8
____
  6
CONTINUOUS
 62
         4
100
AcDbLine
 10
1882.265619011
 20
642.0620641126
 30
0.0
 11
1896.9378126659
 21
656.7342577675
 31
0.0
  0
LINE
  5
1BC
100
AcDbEntity
  8
____
  6
CONTINUOUS
 62
         4
100
AcDbLine
 10
1857.7403348347
 20
621.7794206234
 30
0.0
 11
1865.3596039816
 21
629.3986897703
 31
0.0
  0
LINE
  5
1BD
100
AcDbEntity
  8
____
  6
CONTINUOUS
 62
         4
100
AcDbLine
 10
1879.3596039816
 20
643.3986897703
 30
0.0
 11
1891.9708186907
 21
656.0099044794
 31
0.0
  0
LINE
  5
1BE
100
AcDbEntity
  8
____
  6
CONTINUOUS
 62
         4
100
AcDbLine
 10
1854.0376665987
 20
622.3193930745
 30
0.0
 11
1861.1169632944
 21
629.3986897703
 31
0.0
  0
LINE
  5
1BF
100
AcDbEntity
  8
____
  6
CONTINUOUS
 62
         4
100
AcDbLine
 10
1875.1169632944
 20
643.3986897703
 30
0.0
 11
1887.0038247156
 21
655.2855511914
 31
0.0
  0
LINE
  5
1C0
100
AcDbEntity
  8
____
  6
CONTINUOUS
 62
         4
100
AcDbLine
 10
1850.3349983626
 20
622.8593655256
 30
0.0
 11
1856.8743226073
 21
629.3986897703
 31
0.0
  0
LINE
  5
1C1
100
AcDbEntity
  8
____
  6
CONTINUOUS
 62
         4
100
AcDbLine
 10
1870.8743226073
 20
643.3986897703
 30
0.0
 11
1882.0368307404
 21
654.5611979033
 31
0.0
  0
LINE
  5
1C2
100
AcDbEntity
  8
____
  6
CONTINUOUS
 62
         4
100
AcDbLine
 10
1846.6323301266
 20
623.3993379767
 30
0.0
 11
1852.6316819202
 21
629.3986897703
 31
0.0
  0
LINE
  5
1C3
100
AcDbEntity
  8
____
  6
CONTINUOUS
 62
         4
100
AcDbLine
 10
1866.6316819202
 20
643.3986897703
 30
0.0
 11
1877.0698367652
 21
653.8368446153
 31
0.0
  0
LINE
  5
1C4
100
AcDbEntity
  8
____
  6
CONTINUOUS
 62
         4
100
AcDbLine
 10
1842.9296618906
 20
623.9393104278
 30
0.0
 11
1848.3890412331
 21
629.3986897703
 31
0.0
  0
LINE
  5
1C5
100
AcDbEntity
  8
____
  6
CONTINUOUS
 62
         4
100
AcDbLine
 10
1862.3890412331
 20
643.3986897703
 30
0.0
 11
1872.1028427901
 21
653.1124913272
 31
0.0
  0
LINE
  5
1C6
100
AcDbEntity
  8
____
  6
CONTINUOUS
 62
         4
100
AcDbLine
 10
1841.4939178278
 20
626.7462070521
 30
0.0
 11
1842.996400546
 21
628.2486897703
 31
0.0
  0
LINE
  5
1C7
100
AcDbEntity
  8
____
  6
CONTINUOUS
 62
         4
100
AcDbLine
 10
1858.146400546
 20
643.3986897703
 30
0.0
 11
1867.1358488149
 21
652.3881380392
 31
0.0
  0
LINE
  5
1C8
100
AcDbEntity
  8
____
  6
CONTINUOUS
 62
         4
100
AcDbLine
 10
1853.9037598588
 20
643.3986897703
 30
0.0
 11
1862.1688548397
 21
651.6637847512
 31
0.0
  0
LINE
  5
1C9
100
AcDbEntity
  8
____
  6
CONTINUOUS
 62
         4
100
AcDbLine
 10
1849.6611191717
 20
643.3986897703
 30
0.0
 11
1857.2018608646
 21
650.9394314631
 31
0.0
  0
LINE
  5
1CA
100
AcDbEntity
  8
____
  6
CONTINUOUS
 62
         4
100
AcDbLine
 10
1846.4076195124
 20
644.3878307981
 30
0.0
 11
1852.2348668894
 21
650.2150781751
 31
0.0
  0
LINE
  5
1CB
100
AcDbEntity
  8
____
  6
CONTINUOUS
 62
         4
100
AcDbLine
 10
1842.3380585309
 20
644.5609105036
 30
0.0
 11
1847.2678729143
 21
649.490724887
 31
0.0
  0
LINE
  5
1CC
100
AcDbEntity
  8
____
  6
CONTINUOUS
 62
         4
100
AcDbLine
 10
1841.5724306517
 20
648.0379233116
 30
0.0
 11
1842.2669910029
 21
648.7324836628
 31
0.0
  0
ENDBLK
  5
1CD
100
AcDbEntity
  8
0
  6
CONTINUOUS
100
AcDbBlockEnd
  0
ENDSEC
  0
SECTION
  2
ENTITIES
  0
LINE
  5
2A
100
AcDbEntity
  8
____
  6
DASHED
 62
         2
100
AcDbLine
 10
2128.1847097619
 20
746.5053355888
 30
0.0
 11
2127.6847097619
 21
746.0053355888
 31
0.0
  0
LINE
  5
2B
100
AcDbEntity
  8
____
  6
DASHED
 62
         2
100
AcDbLine
 10
2128.1847097619
 20
756.5053355888
 30
0.0
 11
2127.6847097619
 21
757.0053355888
 31
0.0
  0
LINE
  5
2C
100
AcDbEntity
  8
____
  6
DASHED
 62
         2
100
AcDbLine
 10
2128.1847097619
 20
756.5053355888
 30
0.0
 11
2128.1847097619
 21
746.5053355888
 31
0.0
  0
LINE
  5
2D
100
AcDbEntity
  8
____
  6
DASHED
 62
         2
100
AcDbLine
 10
2128.1847097619
 20
746.5053355888
 30
0.0
 11
2134.3587097619
 21
746.5053355888
 31
0.0
  0
LINE
  5
2E
100
AcDbEntity
  8
____
  6
DASHED
 62
         2
100
AcDbLine
 10
2137.2454611078
 20
751.5053355888
 30
0.0
 11
2134.3587097619
 21
746.5053355888
 31
0.0
  0
LINE
  5
2F
100
AcDbEntity
  8
____
  6
DASHED
 62
         2
100
AcDbLine
 10
2134.3587097619
 20
756.5053355888
 30
0.0
 11
2137.2454611078
 21
751.5053355888
 31
0.0
  0
LINE
  5
30
100
AcDbEntity
  8
____
  6
DASHED
 62
         2
100
AcDbLine
 10
2134.3587097619
 20
756.5053355888
 30
0.0
 11
2134.3587097619
 21
746.5053355888
 31
0.0
  0
LINE
  5
31
100
AcDbEntity
  8
____
  6
DASHED
 62
         2
100
AcDbLine
 10
2128.1847097619
 20
756.5053355888
 30
0.0
 11
2134.3587097619
 21
756.5053355888
 31
0.0
  0
ARC
  5
32
100
AcDbEntity
  8
____
  6
CONTINUOUS
 62
         7
100
AcDbCircle
 10
1929.4939178278
 20
774.2903355888
 30
0.0
 40
0.5
100
AcDbArc
 50
180.0
 51
270.0
  0
ARC
  5
33
100
AcDbEntity
  8
____
  6
CONTINUOUS
 62
         7
100
AcDbCircle
 10
1929.4939178278
 20
728.7203355888
 30
0.0
 40
0.5
100
AcDbArc
 50
90.0
 51
180.0
  0
LINE
  5
34
100
AcDbEntity
  8
____
  6
CONTINUOUS
 62
         7
100
AcDbLine
 10
1929.4939178278
 20
729.2203355888
 30
0.0
 11
1953.7479178278
 21
729.2203355888
 31
0.0
  0
LINE
  5
35
100
AcDbEntity
  8
____
  6
CONTINUOUS
 62
         7
100
AcDbLine
 10
1929.4939178278
 20
773.7903355888
 30
0.0
 11
1953.7479178278
 21
773.7903355888
 31
0.0
  0
LINE
  5
36
100
AcDbEntity
  8
____
  6
CENTER
 62
         1
100
AcDbLine
 10
2126.1923221806
 20
751.5053355888
 30
0.0
 11
2180.1707791611
 21
751.5053355888
 31
0.0
  0
LINE
  5
37
100
AcDbEntity
  8
____
  6
CONTINUOUS
 62
         7
100
AcDbLine
 10
2128.0847097619
 20
743.5612503076
 30
0.0
 11
2127.5847097619
 21
743.0612503076
 31
0.0
  0
LINE
  5
38
100
AcDbEntity
  8
____
  6
CONTINUOUS
 62
         7
100
AcDbLine
 10
2122.0522425291
 20
743.0612503076
 30
0.0
 11
2127.5847097619
 21
743.0612503076
 31
0.0
  0
LINE
  5
39
100
AcDbEntity
  8
____
  6
CONTINUOUS
 62
         7
100
AcDbLine
 10
2122.4463278103
 20
743.4553355888
 30
0.0
 11
2127.1847097619
 21
743.4553355888
 31
0.0
  0
LINE
  5
3A
100
AcDbEntity
  8
____
  6
CONTINUOUS
 62
         7
100
AcDbLine
 10
2122.0522425291
 20
743.0612503076
 30
0.0
 11
2122.4463278103
 21
743.4553355888
 31
0.0
  0
LINE
  5
3B
100
AcDbEntity
  8
____
  6
CONTINUOUS
 62
         7
100
AcDbLine
 10
2127.6847097619
 20
743.9553355888
 30
0.0
 11
2127.1847097619
 21
743.4553355888
 31
0.0
  0
LINE
  5
3C
100
AcDbEntity
  8
____
  6
CONTINUOUS
 62
         7
100
AcDbLine
 10
2128.0847097619
 20
759.44942087
 30
0.0
 11
2127.5847097619
 21
759.94942087
 31
0.0
  0
LINE
  5
3D
100
AcDbEntity
  8
____
  6
CONTINUOUS
 62
         7
100
AcDbLine
 10
2122.0522425291
 20
759.94942087
 30
0.0
 11
2122.4463278103
 21
759.5553355888
 31
0.0
  0
LINE
  5
3E
100
AcDbEntity
  8
____
  6
CONTINUOUS
 62
         7
100
AcDbLine
 10
2127.6847097619
 20
759.0553355888
 30
0.0
 11
2127.1847097619
 21
759.5553355888
 31
0.0
  0
LINE
  5
3F
100
AcDbEntity
  8
____
  6
CONTINUOUS
 62
         7
100
AcDbLine
 10
2127.6847097619
 20
759.0553355888
 30
0.0
 11
2127.6847097619
 21
743.9553355888
 31
0.0
  0
LINE
  5
40
100
AcDbEntity
  8
____
  6
CONTINUOUS
 62
         7
100
AcDbLine
 10
2122.4463278103
 20
759.5553355888
 30
0.0
 11
2127.1847097619
 21
759.5553355888
 31
0.0
  0
LINE
  5
41
100
AcDbEntity
  8
____
  6
CONTINUOUS
 62
         7
100
AcDbLine
 10
2122.0522425291
 20
759.94942087
 30
0.0
 11
2127.5847097619
 21
759.94942087
 31
0.0
  0
LINE
  5
42
100
AcDbEntity
  8
____
  6
CONTINUOUS
 62
         7
100
AcDbLine
 10
2175.0847097619
 20
759.44942087
 30
0.0
 11
2175.5847097619
 21
759.94942087
 31
0.0
  0
LINE
  5
43
100
AcDbEntity
  8
____
  6
CONTINUOUS
 62
         7
100
AcDbLine
 10
2175.0847097619
 20
743.5612503076
 30
0.0
 11
2175.5847097619
 21
743.0612503076
 31
0.0
  0
LINE
  5
44
100
AcDbEntity
  8
____
  6
CONTINUOUS
 62
         7
100
AcDbLine
 10
2183.3171769946
 20
743.0612503076
 30
0.0
 11
2182.9230917134
 21
743.4553355888
 31
0.0
  0
LINE
  5
45
100
AcDbEntity
  8
____
  6
CONTINUOUS
 62
         7
100
AcDbLine
 10
2175.4847097619
 20
743.9553355888
 30
0.0
 11
2175.9847097619
 21
743.4553355888
 31
0.0
  0
LINE
  5
46
100
AcDbEntity
  8
____
  6
CONTINUOUS
 62
         7
100
AcDbLine
 10
2175.9847097619
 20
743.4553355888
 30
0.0
 11
2182.9230917134
 21
743.4553355888
 31
0.0
  0
LINE
  5
47
100
AcDbEntity
  8
____
  6
CONTINUOUS
 62
         7
100
AcDbLine
 10
2183.3171769946
 20
743.0612503076
 30
0.0
 11
2175.5847097619
 21
743.0612503076
 31
0.0
  0
LINE
  5
48
100
AcDbEntity
  8
____
  6
CONTINUOUS
 62
         7
100
AcDbLine
 10
2175.0847097619
 20
759.44942087
 30
0.0
 11
2175.0847097619
 21
743.5612503076
 31
0.0
  0
LINE
  5
49
100
AcDbEntity
  8
____
  6
CONTINUOUS
 62
         7
100
AcDbLine
 10
2183.3171769946
 20
759.94942087
 30
0.0
 11
2182.9230917134
 21
759.5553355888
 31
0.0
  0
LINE
  5
4A
100
AcDbEntity
  8
____
  6
CONTINUOUS
 62
         7
100
AcDbLine
 10
2175.9847097619
 20
759.5553355888
 30
0.0
 11
2182.9230917134
 21
759.5553355888
 31
0.0
  0
LINE
  5
4B
100
AcDbEntity
  8
____
  6
CONTINUOUS
 62
         7
100
AcDbLine
 10
2183.3171769946
 20
759.94942087
 30
0.0
 11
2175.5847097619
 21
759.94942087
 31
0.0
  0
LINE
  5
4C
100
AcDbEntity
  8
____
  6
CONTINUOUS
 62
         7
100
AcDbLine
 10
2175.4847097619
 20
759.0553355888
 30
0.0
 11
2175.9847097619
 21
759.5553355888
 31
0.0
  0
LINE
  5
4D
100
AcDbEntity
  8
____
  6
CONTINUOUS
 62
         7
100
AcDbLine
 10
2175.4847097619
 20
759.0553355888
 30
0.0
 11
2175.4847097619
 21
743.9553355888
 31
0.0
  0
LINE
  5
4E
100
AcDbEntity
  8
____
  6
CONTINUOUS
 62
         7
100
AcDbLine
 10
2128.0847097619
 20
759.44942087
 30
0.0
 11
2128.0847097619
 21
743.5612503076
 31
0.0
  0
ARC
  5
4F
100
AcDbEntity
  8
____
  6
DASHED
 62
         2
100
AcDbCircle
 10
2152.6847097619
 20
751.5053355888
 30
0.0
 40
28.125
100
AcDbArc
 50
198.3406919436
 51
343.3680794645
  0
ARC
  5
50
100
AcDbEntity
  8
____
  6
DASHED
 62
         2
100
AcDbCircle
 10
2152.6847097619
 20
751.5053355888
 30
0.0
 40
28.125
100
AcDbArc
 50
16.6319205355
 51
163.3680794645
  0
LINE
  5
51
100
AcDbEntity
  8
____
  6
CENTER
 62
         1
100
AcDbLine
 10
2152.6847097619
 20
786.2803355888
 30
0.0
 11
2152.6847097619
 21
716.7303355888
 31
0.0
  0
ARC
  5
52
100
AcDbEntity
  8
____
  6
CONTINUOUS
 62
         7
100
AcDbCircle
 10
2152.6847097619
 20
751.5053355888
 30
0.0
 40
30.775
100
AcDbArc
 50
195.9251485826
 51
344.0748514174
  0
ARC
  5
53
100
AcDbEntity
  8
____
  6
CONTINUOUS
 62
         7
100
AcDbCircle
 10
2152.6847097619
 20
751.5053355888
 30
0.0
 40
31.775
100
AcDbArc
 50
15.411296411
 51
164.588703589
  0
ARC
  5
54
100
AcDbEntity
  8
____
  6
CONTINUOUS
 62
         7
100
AcDbCircle
 10
2152.6847097619
 20
751.5053355888
 30
0.0
 40
30.775
100
AcDbArc
 50
15.9251485826
 51
164.0748514174
  0
LINE
  5
55
100
AcDbEntity
  8
____
  6
CONTINUOUS
 62
         7
100
AcDbLine
 10
1919.1189178278
 20
780.402930853
 30
0.0
 11
1917.457647429
 21
783.2803355888
 31
0.0
  0
LINE
  5
56
100
AcDbEntity
  8
____
  6
CONTINUOUS
 62
         7
100
AcDbLine
 10
1928.1939178278
 20
759.5553355888
 30
0.0
 11
1913.8939178278
 21
759.5553355888
 31
0.0
  0
LINE
  5
57
100
AcDbEntity
  8
____
  6
CONTINUOUS
 62
         7
100
AcDbLine
 10
1928.1939178278
 20
743.4553355888
 30
0.0
 11
1913.8939178278
 21
743.4553355888
 31
0.0
  0
LINE
  5
58
100
AcDbEntity
  8
____
  6
CONTINUOUS
 62
         7
100
AcDbLine
 10
1917.457647429
 20
760.3553355888
 30
0.0
 11
1919.1189178278
 21
759.5553355888
 31
0.0
  0
LINE
  5
59
100
AcDbEntity
  8
____
  6
CONTINUOUS
 62
         7
100
AcDbLine
 10
1919.1189178278
 20
722.6077403246
 30
0.0
 11
1917.457647429
 21
719.7303355888
 31
0.0
  0
LINE
  5
5A
100
AcDbEntity
  8
____
  6
CONTINUOUS
 62
         7
100
AcDbLine
 10
1917.457647429
 20
742.6553355888
 30
0.0
 11
1919.1189178278
 21
743.4553355888
 31
0.0
  0
LINE
  5
5B
100
AcDbEntity
  8
____
  6
CONTINUOUS
 62
         7
100
AcDbLine
 10
1913.8939178278
 20
759.5553355888
 30
0.0
 11
1913.8939178278
 21
743.4553355888
 31
0.0
  0
LINE
  5
5C
100
AcDbEntity
  8
____
  6
CONTINUOUS
 62
         7
100
AcDbLine
 10
1913.0939178278
 20
782.2803355888
 30
0.0
 11
1913.0939178278
 21
720.7303355888
 31
0.0
  0
LINE
  5
5D
100
AcDbEntity
  8
____
  6
CENTER
 62
         1
100
AcDbLine
 10
1909.8939178278
 20
773.7303355888
 30
0.0
 11
1909.8939178278
 21
729.2803355888
 31
0.0
  0
LINE
  5
5E
100
AcDbEntity
  8
____
  6
CONTINUOUS
 62
         7
100
AcDbLine
 10
1917.457647429
 20
742.6553355888
 30
0.0
 11
1917.457647429
 21
719.7303355888
 31
0.0
  0
LINE
  5
5F
100
AcDbEntity
  8
____
  6
CONTINUOUS
 62
         7
100
AcDbLine
 10
1914.0939178278
 20
719.7303355888
 30
0.0
 11
1917.457647429
 21
719.7303355888
 31
0.0
  0
LINE
  5
60
100
AcDbEntity
  8
____
  6
CONTINUOUS
 62
         7
100
AcDbLine
 10
1917.457647429
 20
742.6553355888
 30
0.0
 11
1913.0939178278
 21
742.6553355888
 31
0.0
  0
LINE
  5
61
100
AcDbEntity
  8
____
  6
CONTINUOUS
 62
         7
100
AcDbLine
 10
1913.8939178278
 20
743.4553355888
 30
0.0
 11
1913.0939178278
 21
742.6553355888
 31
0.0
  0
LINE
  5
62
100
AcDbEntity
  8
____
  6
CONTINUOUS
 62
         7
100
AcDbLine
 10
1914.0939178278
 20
783.2803355888
 30
0.0
 11
1917.457647429
 21
783.2803355888
 31
0.0
  0
LINE
  5
63
100
AcDbEntity
  8
____
  6
CONTINUOUS
 62
         7
100
AcDbLine
 10
1913.0939178278
 20
760.3553355888
 30
0.0
 11
1913.8939178278
 21
759.5553355888
 31
0.0
  0
LINE
  5
64
100
AcDbEntity
  8
____
  6
CONTINUOUS
 62
         7
100
AcDbLine
 10
1917.457647429
 20
760.3553355888
 30
0.0
 11
1913.0939178278
 21
760.3553355888
 31
0.0
  0
LINE
  5
65
100
AcDbEntity
  8
____
  6
CONTINUOUS
 62
         7
100
AcDbLine
 10
1917.457647429
 20
783.2803355888
 30
0.0
 11
1917.457647429
 21
760.3553355888
 31
0.0
  0
LINE
  5
66
100
AcDbEntity
  8
____
  6
CONTINUOUS
 62
         7
100
AcDbLine
 10
1928.1939178278
 20
759.5553355888
 30
0.0
 11
1928.1939178278
 21
743.4553355888
 31
0.0
  0
LINE
  5
67
100
AcDbEntity
  8
____
  6
CONTINUOUS
 62
         7
100
AcDbLine
 10
1928.9939178278
 20
782.2803355888
 30
0.0
 11
1928.9939178278
 21
720.7303355888
 31
0.0
  0
LINE
  5
68
100
AcDbEntity
  8
____
  6
CONTINUOUS
 62
         7
100
AcDbLine
 10
1928.9939178278
 20
782.2803355888
 30
0.0
 11
1928.9939178278
 21
770.5053355888
 31
0.0
  0
LINE
  5
69
100
AcDbEntity
  8
____
  6
CONTINUOUS
 62
         7
100
AcDbLine
 10
1924.5301882266
 20
742.6553355888
 30
0.0
 11
1924.5301882266
 21
719.7303355888
 31
0.0
  0
LINE
  5
6A
100
AcDbEntity
  8
____
  6
CONTINUOUS
 62
         7
100
AcDbLine
 10
1922.8689178278
 20
743.4553355888
 30
0.0
 11
1922.8689178278
 21
722.6077403246
 31
0.0
  0
LINE
  5
6B
100
AcDbEntity
  8
____
  6
CONTINUOUS
 62
         7
100
AcDbLine
 10
1919.1189178278
 20
743.4553355888
 30
0.0
 11
1919.1189178278
 21
722.6077403246
 31
0.0
  0
LINE
  5
6C
100
AcDbEntity
  8
____
  6
CONTINUOUS
 62
         7
100
AcDbLine
 10
1920.0927181596
 20
723.3803355888
 30
0.0
 11
1921.895117496
 21
723.3803355888
 31
0.0
  0
ARC
  5
6D
100
AcDbEntity
  8
____
  6
CONTINUOUS
 62
         7
100
AcDbCircle
 10
1920.0927181596
 20
722.3803355888
 30
0.0
 40
1.0
100
AcDbArc
 50
90.0
 51
166.8556743105
  0
LINE
  5
6E
100
AcDbEntity
  8
____
  6
CONTINUOUS
 62
         7
100
AcDbLine
 10
1922.8689178278
 20
722.6077403246
 30
0.0
 11
1924.5301882266
 21
719.7303355888
 31
0.0
  0
ARC
  5
6F
100
AcDbEntity
  8
____
  6
CONTINUOUS
 62
         7
100
AcDbCircle
 10
1921.895117496
 20
722.3803355888
 30
0.0
 40
1.0
100
AcDbArc
 50
13.1443256895
 51
90.0
  0
LINE
  5
70
100
AcDbEntity
  8
____
  6
CONTINUOUS
 62
         7
100
AcDbLine
 10
1924.5301882266
 20
719.7303355888
 30
0.0
 11
1927.9939178278
 21
719.7303355888
 31
0.0
  0
LINE
  5
71
100
AcDbEntity
  8
____
  6
CONTINUOUS
 62
         7
100
AcDbLine
 10
1928.9939178278
 20
742.6553355888
 30
0.0
 11
1924.5301882266
 21
742.6553355888
 31
0.0
  0
LINE
  5
72
100
AcDbEntity
  8
____
  6
CONTINUOUS
 62
         7
100
AcDbLine
 10
1928.1939178278
 20
743.4553355888
 30
0.0
 11
1928.9939178278
 21
742.6553355888
 31
0.0
  0
LINE
  5
73
100
AcDbEntity
  8
____
  6
CONTINUOUS
 62
         7
100
AcDbLine
 10
1922.8689178278
 20
743.4553355888
 30
0.0
 11
1924.5301882266
 21
742.6553355888
 31
0.0
  0
LINE
  5
74
100
AcDbEntity
  8
____
  6
CONTINUOUS
 62
         7
100
AcDbLine
 10
1922.8689178278
 20
780.402930853
 30
0.0
 11
1924.5301882266
 21
783.2803355888
 31
0.0
  0
LINE
  5
75
100
AcDbEntity
  8
____
  6
CONTINUOUS
 62
         7
100
AcDbLine
 10
1924.5301882266
 20
783.2803355888
 30
0.0
 11
1927.9939178278
 21
783.2803355888
 31
0.0
  0
LINE
  5
76
100
AcDbEntity
  8
____
  6
CONTINUOUS
 62
         7
100
AcDbLine
 10
1920.0927181596
 20
779.6303355888
 30
0.0
 11
1921.895117496
 21
779.6303355888
 31
0.0
  0
ARC
  5
77
100
AcDbEntity
  8
____
  6
CONTINUOUS
 62
         7
100
AcDbCircle
 10
1920.0927181596
 20
780.6303355888
 30
0.0
 40
1.0
100
AcDbArc
 50
193.1443256895
 51
270.0
  0
ARC
  5
78
100
AcDbEntity
  8
____
  6
CONTINUOUS
 62
         7
100
AcDbCircle
 10
1921.895117496
 20
780.6303355888
 30
0.0
 40
1.0
100
AcDbArc
 50
270.0
 51
346.8556743105
  0
LINE
  5
79
100
AcDbEntity
  8
____
  6
CONTINUOUS
 62
         7
100
AcDbLine
 10
1928.9939178278
 20
760.3553355888
 30
0.0
 11
1928.1939178278
 21
759.5553355888
 31
0.0
  0
LINE
  5
7A
100
AcDbEntity
  8
____
  6
CONTINUOUS
 62
         7
100
AcDbLine
 10
1922.8689178278
 20
759.5553355888
 30
0.0
 11
1924.5301882266
 21
760.3553355888
 31
0.0
  0
LINE
  5
7B
100
AcDbEntity
  8
____
  6
CONTINUOUS
 62
         7
100
AcDbLine
 10
1928.9939178278
 20
760.3553355888
 30
0.0
 11
1924.5301882266
 21
760.3553355888
 31
0.0
  0
LINE
  5
7C
100
AcDbEntity
  8
____
  6
CONTINUOUS
 62
         7
100
AcDbLine
 10
1922.8689178278
 20
780.402930853
 30
0.0
 11
1922.8689178278
 21
759.5553355888
 31
0.0
  0
LINE
  5
7D
100
AcDbEntity
  8
____
  6
CONTINUOUS
 62
         7
100
AcDbLine
 10
1924.5301882266
 20
783.2803355888
 30
0.0
 11
1924.5301882266
 21
760.3553355888
 31
0.0
  0
LINE
  5
7E
100
AcDbEntity
  8
____
  6
CONTINUOUS
 62
         7
100
AcDbLine
 10
1919.1189178278
 20
780.402930853
 30
0.0
 11
1919.1189178278
 21
759.5553355888
 31
0.0
  0
LINE
  5
7F
100
AcDbEntity
  8
____
  6
CENTER
 62
         1
100
AcDbLine
 10
1920.9939178278
 20
789.0105988896
 30
0.0
 11
1920.9939178278
 21
714.0077793378
 31
0.0
  0
LINE
  5
80
100
AcDbEntity
  8
____
  6
CONTINUOUS
 62
         7
100
AcDbLine
 10
1841.4939178278
 20
762.7176423052
 30
0.0
 11
1841.4939178278
 21
740.2930288724
 31
0.0
  0
ARC
  5
81
100
AcDbEntity
  8
____
  6
CONTINUOUS
 62
         7
100
AcDbCircle
 10
1842.6939178278
 20
740.2930288724
 30
0.0
 40
1.2
100
AcDbArc
 50
180.0
 51
261.7028550302
  0
ARC
  5
82
100
AcDbEntity
  8
____
  6
CONTINUOUS
 62
         7
100
AcDbCircle
 10
1842.6939178278
 20
762.7176423052
 30
0.0
 40
1.2
100
AcDbArc
 50
98.2971449698
 51
180.0
  0
LINE
  5
83
100
AcDbEntity
  8
____
  6
CONTINUOUS
 62
         7
100
AcDbLine
 10
1842.5207495561
 20
739.1055892951
 30
0.0
 11
1911.0939178278
 21
729.1053355888
 31
0.0
  0
LINE
  5
84
100
AcDbEntity
  8
____
  6
CENTER
 62
         1
100
AcDbLine
 10
1839.2504160968
 20
751.5053355888
 30
0.0
 11
1888.3565309659
 21
751.5053355888
 31
0.0
  0
LINE
  5
85
100
AcDbEntity
  8
____
  6
CONTINUOUS
 62
         7
100
AcDbLine
 10
1842.5207495561
 20
763.9050818825
 30
0.0
 11
1911.0939178278
 21
773.9053355888
 31
0.0
  0
LINE
  5
86
100
AcDbEntity
  8
____
  6
CENTER
 62
         1
100
AcDbLine
 10
1906.5414264094
 20
751.5053355888
 30
0.0
 11
1975.3256067361
 21
751.5053355888
 31
0.0
  0
ARC
  5
87
100
AcDbEntity
  8
____
  6
CONTINUOUS
 62
         7
100
AcDbCircle
 10
2152.6847097619
 20
751.5053355888
 30
0.0
 40
31.775
100
AcDbArc
 50
195.411296411
 51
344.588703589
  0
LINE
  5
88
100
AcDbEntity
  8
____
  6
CONTINUOUS
 62
         7
100
AcDbLine
 10
1911.8403279893
 20
729.3053355888
 30
0.0
 11
1912.4939178278
 21
729.3053355888
 31
0.0
  0
LINE
  5
89
100
AcDbEntity
  8
____
  6
CONTINUOUS
 62
         7
100
AcDbLine
 10
1911.0939178278
 20
729.1053355888
 30
0.0
 11
1911.8403279893
 21
729.3053355888
 31
0.0
  0
ARC
  5
8A
100
AcDbEntity
  8
____
  6
CONTINUOUS
 62
         7
100
AcDbCircle
 10
1912.4939178278
 20
728.7053355888
 30
0.0
 40
0.6
100
AcDbArc
 50
0.0
 51
90.0
  0
LINE
  5
8B
100
AcDbEntity
  8
____
  6
CONTINUOUS
 62
         7
100
AcDbLine
 10
1911.8403279893
 20
729.3053355888
 30
0.0
 11
1911.8403279893
 21
773.7053355888
 31
0.0
  0
LINE
  5
8C
100
AcDbEntity
  8
____
  6
CONTINUOUS
 62
         7
100
AcDbLine
 10
1911.0939178278
 20
729.1053355888
 30
0.0
 11
1911.0939178278
 21
773.9053355888
 31
0.0
  0
LINE
  5
8D
100
AcDbEntity
  8
____
  6
CONTINUOUS
 62
         7
100
AcDbLine
 10
1911.8403279893
 20
773.7053355888
 30
0.0
 11
1912.4939178278
 21
773.7053355888
 31
0.0
  0
LINE
  5
8E
100
AcDbEntity
  8
____
  6
CONTINUOUS
 62
         7
100
AcDbLine
 10
1911.0939178278
 20
773.9053355888
 30
0.0
 11
1911.8403279893
 21
773.7053355888
 31
0.0
  0
ARC
  5
8F
100
AcDbEntity
  8
____
  6
CONTINUOUS
 62
         7
100
AcDbCircle
 10
1912.4939178278
 20
774.3053355888
 30
0.0
 40
0.6
100
AcDbArc
 50
270.0
 51
360.0
  0
DIMENSION
  5
93
100
AcDbEntity
  8
____
  6
CONTINUOUS
 62
         4
100
AcDbDimension
  2
*D0
 10
2015.8124627181
 20
773.7303355888
 30
0.0
 11
2013.7874627181
 21
733.8165676451
 31
0.0
  3
DIMSTYLE1
100
AcDbAlignedDimension
 13
1944.9459178278
 23
773.7303355888
 33
0.0
 14
1944.9459178278
 24
729.2803355888
 34
0.0
 50
90.0
100
AcDbRotatedDimension
  0
CIRCLE
  5
A0
100
AcDbEntity
  8
____
  6
CONTINUOUS
 62
         7
100
AcDbCircle
 10
1920.9939178278
 20
751.5053355888
 30
0.0
 40
5.0
  0
LINE
  5
A1
100
AcDbEntity
  8
____
  6
CONTINUOUS
 62
         7
100
AcDbLine
 10
1929.7939178278
 20
614.1736897703
 30
0.0
 11
1953.7479178278
 21
614.1736897703
 31
0.0
  0
ARC
  5
A2
100
AcDbEntity
  8
____
  6
CONTINUOUS
 62
         7
100
AcDbCircle
 10
1929.7939178278
 20
613.3736897703
 30
0.0
 40
0.8
100
AcDbArc
 50
90.0
 51
180.0
  0
LINE
  5
A3
100
AcDbEntity
  8
____
  6
CONTINUOUS
 62
         7
100
AcDbLine
 10
1928.9939178278
 20
613.3736897703
 30
0.0
 11
1928.9939178278
 21
605.6236897701
 31
0.0
  0
LINE
  5
A4
100
AcDbEntity
  8
____
  6
CONTINUOUS
 62
         7
100
AcDbLine
 10
1924.5301882266
 20
604.6236897701
 30
0.0
 11
1927.9939178278
 21
604.6236897701
 31
0.0
  0
LINE
  5
A5
100
AcDbEntity
  8
____
  6
CONTINUOUS
 62
         7
100
AcDbLine
 10
1922.8689178278
 20
607.5010945061
 30
0.0
 11
1924.5301882266
 21
604.6236897703
 31
0.0
  0
ARC
  5
A6
100
AcDbEntity
  8
____
  6
CONTINUOUS
 62
         7
100
AcDbCircle
 10
1921.895117496
 20
607.2736897701
 30
0.0
 40
1.0
100
AcDbArc
 50
13.1443256895
 51
90.0
  0
LINE
  5
A7
100
AcDbEntity
  8
____
  6
CONTINUOUS
 62
         7
100
AcDbLine
 10
1920.0927181596
 20
608.2736897703
 30
0.0
 11
1921.895117496
 21
608.2736897703
 31
0.0
  0
ARC
  5
A8
100
AcDbEntity
  8
____
  6
CONTINUOUS
 62
         7
100
AcDbCircle
 10
1920.0927181596
 20
607.2736897703
 30
0.0
 40
1.0
100
AcDbArc
 50
90.0
 51
166.8556743105
  0
LINE
  5
A9
100
AcDbEntity
  8
____
  6
CONTINUOUS
 62
         7
100
AcDbLine
 10
1919.1189178278
 20
607.5010945061
 30
0.0
 11
1917.457647429
 21
604.6236897703
 31
0.0
  0
LINE
  5
AA
100
AcDbEntity
  8
____
  6
CONTINUOUS
 62
         7
100
AcDbLine
 10
1913.0939178278
 20
613.5986897701
 30
0.0
 11
1913.0939178278
 21
605.6236897701
 31
0.0
  0
LINE
  5
AB
100
AcDbEntity
  8
____
  6
CONTINUOUS
 62
         7
100
AcDbLine
 10
1914.0939178278
 20
604.6236897701
 30
0.0
 11
1917.457647429
 21
604.6236897701
 31
0.0
  0
ARC
  5
AC
100
AcDbEntity
  8
____
  6
CONTINUOUS
 62
         7
100
AcDbCircle
 10
1912.4939178278
 20
613.5986897703
 30
0.0
 40
0.6
100
AcDbArc
 50
0.0
 51
90.0
  0
LINE
  5
AD
100
AcDbEntity
  8
____
  6
CONTINUOUS
 62
         7
100
AcDbLine
 10
1911.8403279893
 20
614.1986897703
 30
0.0
 11
1912.4939178278
 21
614.1986897703
 31
0.0
  0
LINE
  5
AE
100
AcDbEntity
  8
____
  6
CONTINUOUS
 62
         7
100
AcDbLine
 10
1911.0939178278
 20
613.9986897701
 30
0.0
 11
1911.8403279893
 21
614.1986897701
 31
0.0
  0
LINE
  5
AF
100
AcDbEntity
  8
____
  6
CENTER
 62
         1
100
AcDbLine
 10
1838.4461848524
 20
636.3986897703
 30
0.0
 11
1975.3256067361
 21
636.3986897703
 31
0.0
  0
LINE
  5
B0
100
AcDbEntity
  8
____
  6
CONTINUOUS
 62
         7
100
AcDbLine
 10
1869.9439178278
 20
644.3986897703
 30
0.0
 11
1869.9439178278
 21
628.3986897703
 31
0.0
  0
LINE
  5
B1
100
AcDbEntity
  8
____
  6
CONTINUOUS
 62
         5
100
AcDbLine
 10
1846.3967605403
 20
628.3986897703
 30
0.0
 11
1869.9439178278
 21
628.3986897703
 31
0.0
  0
LINE
  5
B2
100
AcDbEntity
  8
____
  6
CONTINUOUS
 62
         7
100
AcDbLine
 10
1842.5207495561
 20
623.9989434765
 30
0.0
 11
1911.0939178282
 21
613.9986897702
 31
0.0
  0
ARC
  5
B3
100
AcDbEntity
  8
____
  6
CONTINUOUS
 62
         7
100
AcDbCircle
 10
1842.6939178278
 20
625.1863830538
 30
0.0
 40
1.2
100
AcDbArc
 50
180.0
 51
261.7028550302
  0
ARC
  5
B4
100
AcDbEntity
  8
____
  6
CONTINUOUS
 62
         7
100
AcDbCircle
 10
1842.4939178278
 20
627.2486897703
 30
0.0
 40
1.0
100
AcDbArc
 50
90.0
 51
180.0
  0
LINE
  5
B5
100
AcDbEntity
  8
____
  6
CONTINUOUS
 62
         7
100
AcDbLine
 10
1842.4939178278
 20
628.2486897703
 30
0.0
 11
1845.2639178278
 21
628.2486897703
 31
0.0
  0
LINE
  5
B6
100
AcDbEntity
  8
____
  6
CONTINUOUS
 62
         7
100
AcDbLine
 10
1845.6116895991
 20
628.155504605
 30
0.0
 11
1845.2639178278
 21
628.2486897703
 31
0.0
  0
LINE
  5
B7
100
AcDbEntity
  8
____
  6
CONTINUOUS
 62
         7
100
AcDbLine
 10
1845.6634534081
 20
628.1486897703
 30
0.0
 11
1846.0639178278
 21
628.1486897703
 31
0.0
  0
ARC
  5
B8
100
AcDbEntity
  8
____
  6
CONTINUOUS
 62
         7
100
AcDbCircle
 10
1846.0639178278
 20
628.3486897703
 30
0.0
 40
0.2
100
AcDbArc
 50
270.0
 51
314.9999999962
  0
LINE
  5
B9
100
AcDbEntity
  8
____
  6
CONTINUOUS
 62
         7
100
AcDbLine
 10
1846.205339184
 20
628.207268414
 30
0.0
 11
1847.3967605403
 21
629.3986897703
 31
0.0
  0
LINE
  5
BA
100
AcDbEntity
  8
____
  6
CONTINUOUS
 62
         7
100
AcDbLine
 10
1847.3967605403
 20
643.3986897703
 30
0.0
 11
1847.3967605403
 21
629.3986897703
 31
0.0
  0
LINE
  5
BB
100
AcDbEntity
  8
____
  6
CONTINUOUS
 62
         5
100
AcDbLine
 10
1846.3967605403
 20
644.3986897703
 30
0.0
 11
1869.9439178278
 21
644.3986897703
 31
0.0
  0
LINE
  5
BC
100
AcDbEntity
  8
____
  6
CONTINUOUS
 62
         7
100
AcDbLine
 10
1845.2639178278
 20
644.5486897703
 30
0.0
 11
1845.2639178278
 21
628.2486897703
 31
0.0
  0
LINE
  5
BD
100
AcDbEntity
  8
____
  6
CONTINUOUS
 62
         7
100
AcDbLine
 10
1846.2639178278
 20
644.192212611
 30
0.0
 11
1846.2639178278
 21
628.7199364347
 31
0.0
  0
ARC
  5
BE
100
AcDbEntity
  8
____
  6
CONTINUOUS
 62
         7
100
AcDbCircle
 10
1846.0639178278
 20
644.4486897703
 30
0.0
 40
0.2
100
AcDbArc
 50
45.0000000038
 51
90.0
  0
LINE
  5
BF
100
AcDbEntity
  8
____
  6
CONTINUOUS
 62
         7
100
AcDbLine
 10
1846.205339184
 20
644.5901111265
 30
0.0
 11
1847.3967605403
 21
643.3986897703
 31
0.0
  0
LINE
  5
C0
100
AcDbEntity
  8
____
  6
CONTINUOUS
 62
         7
100
AcDbLine
 10
1845.6634534081
 20
644.6486897703
 30
0.0
 11
1846.0639178278
 21
644.6486897703
 31
0.0
  0
LINE
  5
C1
100
AcDbEntity
  8
____
  6
CONTINUOUS
 62
         7
100
AcDbLine
 10
1845.6116895991
 20
644.6418749355
 30
0.0
 11
1845.2639178278
 21
644.5486897703
 31
0.0
  0
ARC
  5
C2
100
AcDbEntity
  8
____
  6
CONTINUOUS
 62
         7
100
AcDbCircle
 10
1845.6634534081
 20
644.4486897703
 30
0.0
 40
0.2
100
AcDbArc
 50
90.0
 51
105.0
  0
LINE
  5
C3
100
AcDbEntity
  8
____
  6
CONTINUOUS
 62
         7
100
AcDbLine
 10
1842.4939178278
 20
644.5486897703
 30
0.0
 11
1845.2639178278
 21
644.5486897703
 31
0.0
  0
ARC
  5
C4
100
AcDbEntity
  8
____
  6
CONTINUOUS
 62
         7
100
AcDbCircle
 10
1842.4939178278
 20
645.5486897703
 30
0.0
 40
1.0
100
AcDbArc
 50
180.0
 51
270.0
  0
LINE
  5
C5
100
AcDbEntity
  8
____
  6
CONTINUOUS
 62
         7
100
AcDbLine
 10
1841.4939178278
 20
647.6109964867
 30
0.0
 11
1841.4939178278
 21
625.1863830538
 31
0.0
  0
ARC
  5
C6
100
AcDbEntity
  8
____
  6
CONTINUOUS
 62
         7
100
AcDbCircle
 10
1842.6939178278
 20
647.6109964867
 30
0.0
 40
1.2
100
AcDbArc
 50
98.2971449698
 51
180.0
  0
LINE
  5
C7
100
AcDbEntity
  8
____
  6
CONTINUOUS
 62
         7
100
AcDbLine
 10
1911.0939178278
 20
658.7986897703
 30
0.0
 11
1911.8403279893
 21
658.5986897703
 31
0.0
  0
LINE
  5
C8
100
AcDbEntity
  8
____
  6
CONTINUOUS
 62
         7
100
AcDbLine
 10
1842.5207495561
 20
648.798436064
 30
0.0
 11
1911.0939178278
 21
658.7986897703
 31
0.0
  0
LINE
  5
C9
100
AcDbEntity
  8
____
  6
CONTINUOUS
 62
         7
100
AcDbLine
 10
1911.8403279893
 20
658.5986897703
 30
0.0
 11
1912.4939178278
 21
658.5986897703
 31
0.0
  0
ARC
  5
CA
100
AcDbEntity
  8
____
  6
CONTINUOUS
 62
         7
100
AcDbCircle
 10
1912.4939178278
 20
659.1986897703
 30
0.0
 40
0.6
100
AcDbArc
 50
270.0
 51
360.0
  0
LINE
  5
CB
100
AcDbEntity
  8
____
  6
CONTINUOUS
 62
         7
100
AcDbLine
 10
1913.0939178278
 20
659.1986897703
 30
0.0
 11
1913.0939178278
 21
667.1736897704
 31
0.0
  0
LINE
  5
CC
100
AcDbEntity
  8
____
  6
CONTINUOUS
 62
         7
100
AcDbLine
 10
1914.0939178278
 20
668.1736897704
 30
0.0
 11
1917.457647429
 21
668.1736897704
 31
0.0
  0
LINE
  5
CD
100
AcDbEntity
  8
____
  6
CONTINUOUS
 62
         7
100
AcDbLine
 10
1919.1189178278
 20
665.2962850344
 30
0.0
 11
1917.457647429
 21
668.1736897703
 31
0.0
  0
ARC
  5
CE
100
AcDbEntity
  8
____
  6
CONTINUOUS
 62
         7
100
AcDbCircle
 10
1920.0927181596
 20
665.5236897704
 30
0.0
 40
1.0
100
AcDbArc
 50
193.1443256895
 51
270.0
  0
LINE
  5
CF
100
AcDbEntity
  8
____
  6
CONTINUOUS
 62
         7
100
AcDbLine
 10
1920.0927181596
 20
664.5236897704
 30
0.0
 11
1921.895117496
 21
664.5236897704
 31
0.0
  0
ARC
  5
D0
100
AcDbEntity
  8
____
  6
CONTINUOUS
 62
         7
100
AcDbCircle
 10
1921.895117496
 20
665.5236897704
 30
0.0
 40
1.0
100
AcDbArc
 50
270.0
 51
346.8556743105
  0
LINE
  5
D1
100
AcDbEntity
  8
____
  6
CONTINUOUS
 62
         7
100
AcDbLine
 10
1922.8689178278
 20
665.2962850346
 30
0.0
 11
1924.5301882266
 21
668.1736897704
 31
0.0
  0
LINE
  5
D2
100
AcDbEntity
  8
____
  6
CONTINUOUS
 62
         7
100
AcDbLine
 10
1928.9939178278
 20
667.1736897704
 30
0.0
 11
1928.9939178278
 21
659.4236897703
 31
0.0
  0
LINE
  5
D3
100
AcDbEntity
  8
____
  6
CONTINUOUS
 62
         7
100
AcDbLine
 10
1924.5301882266
 20
668.1736897704
 30
0.0
 11
1927.9939178278
 21
668.1736897704
 31
0.0
  0
ARC
  5
D4
100
AcDbEntity
  8
____
  6
CONTINUOUS
 62
         7
100
AcDbCircle
 10
1929.7939178278
 20
659.4236897703
 30
0.0
 40
0.8
100
AcDbArc
 50
180.0
 51
270.0
  0
LINE
  5
D5
100
AcDbEntity
  8
____
  6
CONTINUOUS
 62
         7
100
AcDbLine
 10
1929.7939178278
 20
658.6236897703
 30
0.0
 11
1953.7479178278
 21
658.6236897703
 31
0.0
  0
LINE
  5
D6
100
AcDbEntity
  8
____
  6
CONTINUOUS
 62
         7
100
AcDbLine
 10
1803.8504160968
 20
743.5612503076
 30
0.0
 11
1803.8504160968
 21
759.44942087
 31
0.0
  0
LINE
  5
D7
100
AcDbEntity
  8
____
  6
CONTINUOUS
 62
         7
100
AcDbLine
 10
1756.4504160968
 20
743.9553355888
 30
0.0
 11
1756.4504160968
 21
759.0553355888
 31
0.0
  0
LINE
  5
D8
100
AcDbEntity
  8
____
  6
CONTINUOUS
 62
         7
100
AcDbLine
 10
1756.4504160968
 20
743.9553355888
 30
0.0
 11
1755.9504160968
 21
743.4553355888
 31
0.0
  0
LINE
  5
D9
100
AcDbEntity
  8
____
  6
CONTINUOUS
 62
         7
100
AcDbLine
 10
1748.6179488641
 20
743.0612503076
 30
0.0
 11
1756.3504160968
 21
743.0612503076
 31
0.0
  0
LINE
  5
DA
100
AcDbEntity
  8
____
  6
CONTINUOUS
 62
         7
100
AcDbLine
 10
1755.9504160968
 20
743.4553355888
 30
0.0
 11
1749.0120341453
 21
743.4553355888
 31
0.0
  0
LINE
  5
DB
100
AcDbEntity
  8
____
  6
CONTINUOUS
 62
         7
100
AcDbLine
 10
1748.6179488641
 20
743.0612503076
 30
0.0
 11
1749.0120341453
 21
743.4553355888
 31
0.0
  0
LINE
  5
DC
100
AcDbEntity
  8
____
  6
CONTINUOUS
 62
         7
100
AcDbLine
 10
1756.8504160968
 20
743.5612503076
 30
0.0
 11
1756.8504160968
 21
759.44942087
 31
0.0
  0
LINE
  5
DD
100
AcDbEntity
  8
____
  6
CONTINUOUS
 62
         7
100
AcDbLine
 10
1748.6179488641
 20
759.94942087
 30
0.0
 11
1756.3504160968
 21
759.94942087
 31
0.0
  0
LINE
  5
DE
100
AcDbEntity
  8
____
  6
CONTINUOUS
 62
         7
100
AcDbLine
 10
1755.9504160968
 20
759.5553355888
 30
0.0
 11
1749.0120341453
 21
759.5553355888
 31
0.0
  0
LINE
  5
DF
100
AcDbEntity
  8
____
  6
CONTINUOUS
 62
         7
100
AcDbLine
 10
1756.4504160968
 20
759.0553355888
 30
0.0
 11
1755.9504160968
 21
759.5553355888
 31
0.0
  0
LINE
  5
E0
100
AcDbEntity
  8
____
  6
CONTINUOUS
 62
         7
100
AcDbLine
 10
1748.6179488641
 20
759.94942087
 30
0.0
 11
1749.0120341453
 21
759.5553355888
 31
0.0
  0
LINE
  5
E1
100
AcDbEntity
  8
____
  6
CONTINUOUS
 62
         7
100
AcDbLine
 10
1756.8504160968
 20
759.44942087
 30
0.0
 11
1756.3504160968
 21
759.94942087
 31
0.0
  0
LINE
  5
E2
100
AcDbEntity
  8
____
  6
CONTINUOUS
 62
         7
100
AcDbLine
 10
1756.8504160968
 20
743.5612503076
 30
0.0
 11
1756.3504160968
 21
743.0612503076
 31
0.0
  0
LINE
  5
E3
100
AcDbEntity
  8
____
  6
CONTINUOUS
 62
         7
100
AcDbLine
 10
1809.8828833296
 20
743.0612503076
 30
0.0
 11
1804.3504160968
 21
743.0612503076
 31
0.0
  0
LINE
  5
E4
100
AcDbEntity
  8
____
  6
CONTINUOUS
 62
         7
100
AcDbLine
 10
1809.4887980484
 20
743.4553355888
 30
0.0
 11
1804.7504160968
 21
743.4553355888
 31
0.0
  0
LINE
  5
E5
100
AcDbEntity
  8
____
  6
CONTINUOUS
 62
         7
100
AcDbLine
 10
1804.2504160968
 20
743.9553355888
 30
0.0
 11
1804.2504160968
 21
759.0553355888
 31
0.0
  0
LINE
  5
E6
100
AcDbEntity
  8
____
  6
CONTINUOUS
 62
         7
100
AcDbLine
 10
1804.2504160968
 20
743.9553355888
 30
0.0
 11
1804.7504160968
 21
743.4553355888
 31
0.0
  0
LINE
  5
E7
100
AcDbEntity
  8
____
  6
CONTINUOUS
 62
         7
100
AcDbLine
 10
1809.8828833296
 20
743.0612503076
 30
0.0
 11
1809.4887980484
 21
743.4553355888
 31
0.0
  0
LINE
  5
E8
100
AcDbEntity
  8
____
  6
CONTINUOUS
 62
         7
100
AcDbLine
 10
1803.8504160968
 20
743.5612503076
 30
0.0
 11
1804.3504160968
 21
743.0612503076
 31
0.0
  0
LINE
  5
E9
100
AcDbEntity
  8
____
  6
CONTINUOUS
 62
         7
100
AcDbLine
 10
1804.2504160968
 20
759.0553355888
 30
0.0
 11
1804.7504160968
 21
759.5553355888
 31
0.0
  0
LINE
  5
EA
100
AcDbEntity
  8
____
  6
CONTINUOUS
 62
         7
100
AcDbLine
 10
1809.8828833296
 20
759.94942087
 30
0.0
 11
1809.4887980484
 21
759.5553355888
 31
0.0
  0
LINE
  5
EB
100
AcDbEntity
  8
____
  6
CONTINUOUS
 62
         7
100
AcDbLine
 10
1809.4887980484
 20
759.5553355888
 30
0.0
 11
1804.7504160968
 21
759.5553355888
 31
0.0
  0
LINE
  5
EC
100
AcDbEntity
  8
____
  6
CONTINUOUS
 62
         7
100
AcDbLine
 10
1809.8828833296
 20
759.94942087
 30
0.0
 11
1804.3504160968
 21
759.94942087
 31
0.0
  0
LINE
  5
ED
100
AcDbEntity
  8
____
  6
CONTINUOUS
 62
         7
100
AcDbLine
 10
1803.8504160968
 20
759.44942087
 30
0.0
 11
1804.3504160968
 21
759.94942087
 31
0.0
  0
CIRCLE
  5
EE
100
AcDbEntity
  8
____
  6
CONTINUOUS
 62
         7
100
AcDbCircle
 10
1779.2504160968
 20
751.5053355888
 30
0.0
 40
22.225
  0
CIRCLE
  5
EF
100
AcDbEntity
  8
____
  6
CONTINUOUS
 62
         7
100
AcDbCircle
 10
1779.2504160968
 20
751.5053355888
 30
0.0
 40
8.5
  0
CIRCLE
  5
F0
100
AcDbEntity
  8
____
  6
CONTINUOUS
 62
         7
100
AcDbCircle
 10
1779.2504160968
 20
751.5053355888
 30
0.0
 40
9.5
  0
ARC
  5
F1
100
AcDbEntity
  8
____
  6
CONTINUOUS
 62
         5
100
AcDbCircle
 10
1779.2504160968
 20
751.5053355888
 30
0.0
 40
8.0
100
AcDbArc
 50
352.9901372228
 51
621.2264515101
  0
CIRCLE
  5
F2
100
AcDbEntity
  8
____
  6
CONTINUOUS
 62
         7
100
AcDbCircle
 10
1779.2504160968
 20
751.5053355888
 30
0.0
 40
7.0
  0
CIRCLE
  5
F3
100
AcDbEntity
  8
____
  6
CONTINUOUS
 62
         7
100
AcDbCircle
 10
1779.2504160968
 20
751.5053355888
 30
0.0
 40
12.7165768873
  0
LINE
  5
F4
100
AcDbEntity
  8
____
  6
CENTER
 62
         1
100
AcDbLine
 10
1779.2504160968
 20
715.893983356
 30
0.0
 11
1779.2504160968
 21
786.7380436873
 31
0.0
  0
ARC
  5
F5
100
AcDbEntity
  8
____
  6
CONTINUOUS
 62
         7
100
AcDbCircle
 10
1779.2504160968
 20
751.5053355888
 30
0.0
 40
31.775
100
AcDbArc
 50
15.411296411
 51
164.588703589
  0
LINE
  5
F6
100
AcDbEntity
  8
____
  6
CENTER
 62
         1
100
AcDbLine
 10
1751.0565542889
 20
751.5053355888
 30
0.0
 11
1808.3970683102
 21
751.5053355888
 31
0.0
  0
ARC
  5
F7
100
AcDbEntity
  8
____
  6
CONTINUOUS
 62
         7
100
AcDbCircle
 10
1779.2504160968
 20
751.5053355888
 30
0.0
 40
31.775
100
AcDbArc
 50
195.411296411
 51
344.588703589
  0
ARC
  5
F8
100
AcDbEntity
  8
____
  6
CONTINUOUS
 62
         7
100
AcDbCircle
 10
1914.0939178278
 20
667.1736897704
 30
0.0
 40
1.0
100
AcDbArc
 50
90.0
 51
180.0
  0
ARC
  5
F9
100
AcDbEntity
  8
____
  6
CONTINUOUS
 62
         7
100
AcDbCircle
 10
1927.9939178278
 20
667.1736897704
 30
0.0
 40
1.0
100
AcDbArc
 50
0.0
 51
90.0
  0
ARC
  5
FA
100
AcDbEntity
  8
____
  6
CONTINUOUS
 62
         7
100
AcDbCircle
 10
1927.9939178278
 20
605.6236897701
 30
0.0
 40
1.0
100
AcDbArc
 50
270.0
 51
360.0
  0
ARC
  5
FB
100
AcDbEntity
  8
____
  6
CONTINUOUS
 62
         7
100
AcDbCircle
 10
1914.0939178278
 20
605.6236897701
 30
0.0
 40
1.0
100
AcDbArc
 50
180.0
 51
270.0
  0
LINE
  5
FC
100
AcDbEntity
  8
____
  6
CONTINUOUS
 62
         4
100
AcDbLine
 10
1914.0939178278
 20
783.2803355888
 30
0.0
 11
1914.0939178278
 21
760.3553355888
 31
0.0
  0
ARC
  5
FD
100
AcDbEntity
  8
____
  6
CONTINUOUS
 62
         7
100
AcDbCircle
 10
1914.0939178278
 20
782.2803355888
 30
0.0
 40
1.0
100
AcDbArc
 50
90.0
 51
180.0
  0
LINE
  5
FE
100
AcDbEntity
  8
____
  6
CONTINUOUS
 62
         4
100
AcDbLine
 10
1927.9939178278
 20
783.2803355888
 30
0.0
 11
1927.9939178278
 21
760.3553355888
 31
0.0
  0
ARC
  5
FF
100
AcDbEntity
  8
____
  6
CONTINUOUS
 62
         7
100
AcDbCircle
 10
1927.9939178278
 20
782.2803355888
 30
0.0
 40
1.0
100
AcDbArc
 50
0.0
 51
90.0
  0
ARC
  5
100
100
AcDbEntity
  8
____
  6
CONTINUOUS
 62
         7
100
AcDbCircle
 10
1914.0939178278
 20
720.7303355888
 30
0.0
 40
1.0
100
AcDbArc
 50
180.0
 51
270.0
  0
LINE
  5
101
100
AcDbEntity
  8
____
  6
CONTINUOUS
 62
         4
100
AcDbLine
 10
1914.0939178278
 20
742.6553355888
 30
0.0
 11
1914.0939178278
 21
719.7303355888
 31
0.0
  0
ARC
  5
102
100
AcDbEntity
  8
____
  6
CONTINUOUS
 62
         7
100
AcDbCircle
 10
1927.9939178278
 20
720.7303355888
 30
0.0
 40
1.0
100
AcDbArc
 50
270.0
 51
360.0
  0
LINE
  5
103
100
AcDbEntity
  8
____
  6
CONTINUOUS
 62
         4
100
AcDbLine
 10
1927.9939178278
 20
742.6553355888
 30
0.0
 11
1927.9939178278
 21
719.7303355888
 31
0.0
  0
CIRCLE
  5
104
100
AcDbEntity
  8
____
  6
CONTINUOUS
 62
         7
100
AcDbCircle
 10
2152.6847097619
 20
751.5053355888
 30
0.0
 40
1.95
  0
CIRCLE
  5
105
100
AcDbEntity
  8
____
  6
CONTINUOUS
 62
         7
100
AcDbCircle
 10
2152.6847097619
 20
751.5053355888
 30
0.0
 40
0.8
  0
ARC
  5
106
100
AcDbEntity
  8
____
  6
CONTINUOUS
 62
         4
100
AcDbCircle
 10
2152.6847097619
 20
751.5053355888
 30
0.0
 40
10.3125
100
AcDbArc
 50
270.0
 51
531.4424501721
  0
CIRCLE
  5
107
100
AcDbEntity
  8
____
  6
CONTINUOUS
 62
         7
100
AcDbCircle
 10
2152.6847097619
 20
751.5053355888
 30
0.0
 40
22.2
  0
CIRCLE
  5
108
100
AcDbEntity
  8
____
  6
CONTINUOUS
 62
         7
100
AcDbCircle
 10
2152.6847097619
 20
751.5053355888
 30
0.0
 40
11.1125
  0
CIRCLE
  5
109
100
AcDbEntity
  8
____
  6
CONTINUOUS
 62
         4
100
AcDbCircle
 10
2152.6847097619
 20
751.5053355888
 30
0.0
 40
11.1125
  0
CIRCLE
  5
10A
100
AcDbEntity
  8
____
  6
CONTINUOUS
 62
         7
100
AcDbCircle
 10
2152.6847097619
 20
751.5053355888
 30
0.0
 40
13.0
  0
LINE
  5
10B
100
AcDbEntity
  8
____
  6
DASHED
 62
         2
100
AcDbLine
 10
1963.9753606693
 20
752.5053355888
 30
0.0
 11
1963.9753606693
 21
750.5053355888
 31
0.0
  0
LINE
  5
10C
100
AcDbEntity
  8
____
  6
DASHED
 62
         2
100
AcDbLine
 10
1962.801268097
 20
750.5053355888
 30
0.0
 11
1962.801268097
 21
752.5053355888
 31
0.0
  0
LINE
  5
10D
100
AcDbEntity
  8
____
  6
DASHED
 62
         2
100
AcDbLine
 10
1962.801268097
 20
750.5053355888
 30
0.0
 11
1962.2239178278
 21
751.5053355888
 31
0.0
  0
LINE
  5
10E
100
AcDbEntity
  8
____
  6
DASHED
 62
         2
100
AcDbLine
 10
1965.9239178278
 20
749.3803355888
 30
0.0
 11
1963.9753606693
 21
750.5053355888
 31
0.0
  0
LINE
  5
10F
100
AcDbEntity
  8
____
  6
DASHED
 62
         2
100
AcDbLine
 10
1963.9753606693
 20
750.5053355888
 30
0.0
 11
1962.801268097
 21
750.5053355888
 31
0.0
  0
LINE
  5
110
100
AcDbEntity
  8
____
  6
DASHED
 62
         2
100
AcDbLine
 10
1963.9753606693
 20
752.5053355888
 30
0.0
 11
1962.801268097
 21
752.5053355888
 31
0.0
  0
LINE
  5
111
100
AcDbEntity
  8
____
  6
DASHED
 62
         2
100
AcDbLine
 10
1965.9239178278
 20
753.6303355888
 30
0.0
 11
1963.9753606693
 21
752.5053355888
 31
0.0
  0
LINE
  5
112
100
AcDbEntity
  8
____
  6
DASHED
 62
         2
100
AcDbLine
 10
1962.801268097
 20
752.5053355888
 30
0.0
 11
1962.2239178278
 21
751.5053355888
 31
0.0
  0
LINE
  5
113
100
AcDbEntity
  8
____
  6
DASHED
 62
         2
100
AcDbLine
 10
1954.7479178278
 20
737.639310185
 30
0.0
 11
1954.2479178278
 21
738.5053355888
 31
0.0
  0
ARC
  5
114
100
AcDbEntity
  8
____
  6
DASHED
 62
         2
100
AcDbCircle
 10
1954.7479178278
 20
741.0053355888
 30
0.0
 40
0.5
100
AcDbArc
 50
90.0
 51
180.0
  0
LINE
  5
115
100
AcDbEntity
  8
____
  6
DASHED
 62
         2
100
AcDbLine
 10
1954.2479178278
 20
738.5053355888
 30
0.0
 11
1954.2479178278
 21
751.5053355888
 31
0.0
  0
LINE
  5
116
100
AcDbEntity
  8
____
  6
DASHED
 62
         2
100
AcDbLine
 10
1954.7479178278
 20
765.3713609926
 30
0.0
 11
1954.2479178278
 21
764.5053355888
 31
0.0
  0
ARC
  5
117
100
AcDbEntity
  8
____
  6
DASHED
 62
         2
100
AcDbCircle
 10
1954.7479178278
 20
762.0053355888
 30
0.0
 40
0.5
100
AcDbArc
 50
180.0
 51
270.0
  0
LINE
  5
118
100
AcDbEntity
  8
____
  6
DASHED
 62
         2
100
AcDbLine
 10
1954.2479178278
 20
764.5053355888
 30
0.0
 11
1954.2479178278
 21
751.5053355888
 31
0.0
  0
LINE
  5
119
100
AcDbEntity
  8
____
  6
CONTINUOUS
 62
         4
100
AcDbLine
 10
1965.9037137249
 20
741.1928355888
 30
0.0
 11
1958.7479178278
 21
741.1928355888
 31
0.0
  0
LINE
  5
11A
100
AcDbEntity
  8
____
  6
CONTINUOUS
 62
         4
100
AcDbLine
 10
1958.7479178278
 20
761.8178355888
 30
0.0
 11
1965.9037137249
 21
761.8178355888
 31
0.0
  0
LINE
  5
11B
100
AcDbEntity
  8
____
  6
CONTINUOUS
 62
         7
100
AcDbLine
 10
1957.7607101213
 20
741.5053355888
 30
0.0
 11
1954.7479178278
 21
741.5053355888
 31
0.0
  0
LINE
  5
11C
100
AcDbEntity
  8
____
  6
CONTINUOUS
 62
         7
100
AcDbLine
 10
1957.7607101213
 20
761.5053355888
 30
0.0
 11
1954.7479178278
 21
761.5053355888
 31
0.0
  0
LINE
  5
11D
100
AcDbEntity
  8
____
  6
CONTINUOUS
 62
         7
100
AcDbLine
 10
1958.7479178278
 20
762.6178355888
 30
0.0
 11
1958.7479178278
 21
740.3928355888
 31
0.0
  0
LINE
  5
11E
100
AcDbEntity
  8
____
  6
CONTINUOUS
 62
         7
100
AcDbLine
 10
1954.7479178278
 20
772.7903355888
 30
0.0
 11
1954.7479178278
 21
730.2203355888
 31
0.0
  0
LINE
  5
11F
100
AcDbEntity
  8
____
  6
CONTINUOUS
 62
         7
100
AcDbLine
 10
1958.7479178278
 20
762.6178355888
 30
0.0
 11
1964.9239178278
 21
762.6178355888
 31
0.0
  0
LINE
  5
120
100
AcDbEntity
  8
____
  6
CONTINUOUS
 62
         7
100
AcDbLine
 10
1964.9239178278
 20
740.3928355888
 30
0.0
 11
1958.7479178278
 21
740.3928355888
 31
0.0
  0
LINE
  5
121
100
AcDbEntity
  8
____
  6
CONTINUOUS
 62
         7
100
AcDbLine
 10
1965.9239178278
 20
761.6178355888
 30
0.0
 11
1965.9239178278
 21
741.3928355888
 31
0.0
  0
DIMENSION
  5
124
100
AcDbEntity
  8
____
  6
CONTINUOUS
 62
         4
100
AcDbDimension
  2
*D1
 10
2002.7036183903
 20
762.6178355888
 30
0.0
 11
2000.6786183903
 21
732.6053355888
 31
0.0
  3
DIMSTYLE1
100
AcDbAlignedDimension
 13
1965.3239178278
 23
762.6178355888
 33
0.0
 14
1965.3239178278
 24
740.3928355888
 34
0.0
 50
90.0
100
AcDbRotatedDimension
  0
DIMENSION
  5
132
100
AcDbEntity
  8
____
  6
CONTINUOUS
 62
         4
100
AcDbDimension
  2
*D2
 10
1954.7479178278
 20
700.4440687757
 30
0.0
 11
1957.1614522509
 21
702.4690687757
 31
0.0
  3
DIMSTYLE1
100
AcDbAlignedDimension
 13
1954.7479178278
 23
729.9053355888
 33
0.0
 14
1965.9239178278
 24
740.9928355888
 34
0.0
100
AcDbRotatedDimension
  0
ARC
  5
13E
100
AcDbEntity
  8
____
  6
CONTINUOUS
 62
         7
100
AcDbCircle
 10
1964.9239178278
 20
761.6178355888
 30
0.0
 40
1.0
100
AcDbArc
 50
0.0
 51
90.0
  0
ARC
  5
13F
100
AcDbEntity
  8
____
  6
CONTINUOUS
 62
         7
100
AcDbCircle
 10
1964.9239178278
 20
741.3928355888
 30
0.0
 40
1.0
100
AcDbArc
 50
270.0
 51
360.0
  0
DIMENSION
  5
142
100
AcDbEntity
  8
____
  6
CONTINUOUS
 62
         4
100
AcDbDimension
  2
*D3
 10
1987.9243038541
 20
761.5053355888
 30
0.0
 11
1985.8993038541
 21
742.4397014704
 31
0.0
  3
DIMSTYLE1
100
AcDbAlignedDimension
 13
1958.7479178278
 23
761.5053355888
 33
0.0
 14
1958.7479178278
 24
741.5053355888
 34
0.0
 50
90.0
100
AcDbRotatedDimension
  0
LINE
  5
14E
100
AcDbEntity
  8
____
  6
CONTINUOUS
 62
         7
100
AcDbLine
 10
1958.7479178278
 20
762.6178355888
 30
0.0
 11
1958.088370939
 21
761.6759050143
 31
0.0
  0
ARC
  5
14F
100
AcDbEntity
  8
____
  6
CONTINUOUS
 62
         7
100
AcDbCircle
 10
1957.7607101213
 20
761.9053355888
 30
0.0
 40
0.4
100
AcDbArc
 50
270.0
 51
325.0
  0
ARC
  5
150
100
AcDbEntity
  8
____
  6
CONTINUOUS
 62
         7
100
AcDbCircle
 10
1957.7607101213
 20
741.1053355888
 30
0.0
 40
0.4
100
AcDbArc
 50
35.0
 51
90.0
  0
LINE
  5
151
100
AcDbEntity
  8
____
  6
CONTINUOUS
 62
         7
100
AcDbLine
 10
1958.7479178278
 20
740.3928355888
 30
0.0
 11
1958.088370939
 21
741.3347661634
 31
0.0
  0
LINE
  5
152
100
AcDbEntity
  8
____
  6
CONTINUOUS
 62
         4
100
AcDbLine
 10
1957.9689369415
 20
761.5053355888
 30
0.0
 11
1957.9689369415
 21
741.5053355888
 31
0.0
  0
LINE
  5
153
100
AcDbEntity
  8
____
  6
CONTINUOUS
 62
         4
100
AcDbLine
 10
1954.7479178278
 20
775.1038843476
 30
0.0
 11
1954.7479178278
 21
799.3638050974
 31
0.0
  0
LINE
  5
154
100
AcDbEntity
  8
____
  6
CONTINUOUS
 62
         4
100
AcDbLine
 10
1963.9753606693
 20
637.3986897703
 30
0.0
 11
1963.9753606693
 21
635.3986897703
 31
0.0
  0
LINE
  5
155
100
AcDbEntity
  8
____
  6
CONTINUOUS
 62
         4
100
AcDbLine
 10
1962.801268097
 20
635.3986897703
 30
0.0
 11
1962.801268097
 21
637.3986897703
 31
0.0
  0
LINE
  5
156
100
AcDbEntity
  8
____
  6
CONTINUOUS
 62
         7
100
AcDbLine
 10
1962.801268097
 20
635.3986897703
 30
0.0
 11
1962.2239178278
 21
636.3986897703
 31
0.0
  0
LINE
  5
157
100
AcDbEntity
  8
____
  6
CONTINUOUS
 62
         7
100
AcDbLine
 10
1965.9239178278
 20
634.2736897703
 30
0.0
 11
1963.9753606693
 21
635.3986897703
 31
0.0
  0
LINE
  5
158
100
AcDbEntity
  8
____
  6
CONTINUOUS
 62
         7
100
AcDbLine
 10
1963.9753606693
 20
635.3986897703
 30
0.0
 11
1962.801268097
 21
635.3986897703
 31
0.0
  0
LINE
  5
159
100
AcDbEntity
  8
____
  6
CONTINUOUS
 62
         7
100
AcDbLine
 10
1963.9753606693
 20
637.3986897703
 30
0.0
 11
1962.801268097
 21
637.3986897703
 31
0.0
  0
LINE
  5
15A
100
AcDbEntity
  8
____
  6
CONTINUOUS
 62
         7
100
AcDbLine
 10
1965.9239178278
 20
638.5236897703
 30
0.0
 11
1963.9753606693
 21
637.3986897703
 31
0.0
  0
LINE
  5
15B
100
AcDbEntity
  8
____
  6
CONTINUOUS
 62
         7
100
AcDbLine
 10
1962.801268097
 20
637.3986897703
 30
0.0
 11
1962.2239178278
 21
636.3986897703
 31
0.0
  0
LINE
  5
15C
100
AcDbEntity
  8
____
  6
CONTINUOUS
 62
         7
100
AcDbLine
 10
1965.9239178278
 20
634.2736897703
 30
0.0
 11
1965.9239178278
 21
638.5236897703
 31
0.0
  0
LINE
  5
15D
100
AcDbEntity
  8
____
  6
CONTINUOUS
 62
         7
100
AcDbLine
 10
1954.7479178278
 20
622.5326643665
 30
0.0
 11
1954.2479178278
 21
623.3986897703
 31
0.0
  0
ARC
  5
15E
100
AcDbEntity
  8
____
  6
CONTINUOUS
 62
         7
100
AcDbCircle
 10
1954.7479178278
 20
625.8986897703
 30
0.0
 40
0.5
100
AcDbArc
 50
90.0
 51
180.0
  0
LINE
  5
15F
100
AcDbEntity
  8
____
  6
CONTINUOUS
 62
         7
100
AcDbLine
 10
1954.2479178278
 20
623.3986897703
 30
0.0
 11
1954.2479178278
 21
625.8986897703
 31
0.0
  0
LINE
  5
160
100
AcDbEntity
  8
____
  6
CONTINUOUS
 62
         7
100
AcDbLine
 10
1954.7479178278
 20
650.264715174
 30
0.0
 11
1954.2479178278
 21
649.3986897703
 31
0.0
  0
ARC
  5
161
100
AcDbEntity
  8
____
  6
CONTINUOUS
 62
         7
100
AcDbCircle
 10
1954.7479178278
 20
646.8986897703
 30
0.0
 40
0.5
100
AcDbArc
 50
180.0
 51
270.0
  0
LINE
  5
162
100
AcDbEntity
  8
____
  6
CONTINUOUS
 62
         7
100
AcDbLine
 10
1954.2479178278
 20
649.3986897703
 30
0.0
 11
1954.2479178278
 21
646.8986897703
 31
0.0
  0
LINE
  5
163
100
AcDbEntity
  8
____
  6
CONTINUOUS
 62
         4
100
AcDbLine
 10
1965.9037137249
 20
626.0861897703
 30
0.0
 11
1958.7479178278
 21
626.0861897703
 31
0.0
  0
LINE
  5
164
100
AcDbEntity
  8
____
  6
CONTINUOUS
 62
         4
100
AcDbLine
 10
1958.7479178278
 20
646.7111897703
 30
0.0
 11
1965.9037137249
 21
646.7111897703
 31
0.0
  0
LINE
  5
165
100
AcDbEntity
  8
____
  6
CONTINUOUS
 62
         7
100
AcDbLine
 10
1958.7479178278
 20
626.3986897703
 30
0.0
 11
1954.7479178278
 21
626.3986897703
 31
0.0
  0
LINE
  5
166
100
AcDbEntity
  8
____
  6
CONTINUOUS
 62
         7
100
AcDbLine
 10
1958.7479178278
 20
646.3986897703
 30
0.0
 11
1954.7479178278
 21
646.3986897703
 31
0.0
  0
LINE
  5
167
100
AcDbEntity
  8
____
  6
CONTINUOUS
 62
         7
100
AcDbLine
 10
1958.7479178278
 20
647.5111897703
 30
0.0
 11
1958.7479178278
 21
646.3986897703
 31
0.0
  0
LINE
  5
168
100
AcDbEntity
  8
____
  6
CONTINUOUS
 62
         7
100
AcDbLine
 10
1954.7479178278
 20
657.6236897703
 30
0.0
 11
1954.7479178278
 21
646.3986897703
 31
0.0
  0
LINE
  5
169
100
AcDbEntity
  8
____
  6
CONTINUOUS
 62
         7
100
AcDbLine
 10
1958.7479178278
 20
647.5111897703
 30
0.0
 11
1964.9239178278
 21
647.5111897703
 31
0.0
  0
LINE
  5
16A
100
AcDbEntity
  8
____
  6
CONTINUOUS
 62
         7
100
AcDbLine
 10
1964.9239178278
 20
625.2861897703
 30
0.0
 11
1958.7479178278
 21
625.2861897703
 31
0.0
  0
LINE
  5
16B
100
AcDbEntity
  8
____
  6
CONTINUOUS
 62
         7
100
AcDbLine
 10
1965.9239178278
 20
646.5111897703
 30
0.0
 11
1965.9239178278
 21
626.2861897703
 31
0.0
  0
ARC
  5
16C
100
AcDbEntity
  8
____
  6
CONTINUOUS
 62
         7
100
AcDbCircle
 10
1964.9239178278
 20
646.5111897703
 30
0.0
 40
1.0
100
AcDbArc
 50
0.0
 51
90.0
  0
ARC
  5
16D
100
AcDbEntity
  8
____
  6
CONTINUOUS
 62
         7
100
AcDbCircle
 10
1964.9239178278
 20
626.2861897703
 30
0.0
 40
1.0
100
AcDbArc
 50
270.0
 51
360.0
  0
LINE
  5
16E
100
AcDbEntity
  8
____
  6
CONTINUOUS
 62
         7
100
AcDbLine
 10
1958.7479178278
 20
626.3986897703
 30
0.0
 11
1958.7479178278
 21
625.2861897703
 31
0.0
  0
LINE
  5
16F
100
AcDbEntity
  8
____
  6
CONTINUOUS
 62
         7
100
AcDbLine
 10
1954.7479178278
 20
626.3986897703
 30
0.0
 11
1954.7479178278
 21
615.1736897703
 31
0.0
  0
ARC
  5
170
100
AcDbEntity
  8
____
  6
CONTINUOUS
 62
         7
100
AcDbCircle
 10
1953.7479178278
 20
657.6236897703
 30
0.0
 40
1.0
100
AcDbArc
 50
0.0
 51
90.0
  0
ARC
  5
171
100
AcDbEntity
  8
____
  6
CONTINUOUS
 62
         7
100
AcDbCircle
 10
1953.7479178278
 20
615.1736897703
 30
0.0
 40
1.0
100
AcDbArc
 50
270.0
 51
360.0
  0
ARC
  5
172
100
AcDbEntity
  8
____
  6
CONTINUOUS
 62
         7
100
AcDbCircle
 10
1953.7479178278
 20
772.7903355888
 30
0.0
 40
1.0
100
AcDbArc
 50
0.0
 51
90.0
  0
ARC
  5
173
100
AcDbEntity
  8
____
  6
CONTINUOUS
 62
         7
100
AcDbCircle
 10
1953.7479178278
 20
730.2203355888
 30
0.0
 40
1.0
100
AcDbArc
 50
270.0
 51
360.0
  0
DIMENSION
  5
176
100
AcDbEntity
  8
____
  6
CONTINUOUS
 62
         4
100
AcDbDimension
  2
*D4
 10
1841.4939178278
 20
844.7235704092
 30
0.0
 11
1897.7577988469
 21
846.7485704092
 31
0.0
  3
DIMSTYLE1
100
AcDbAlignedDimension
 13
1841.4939178278
 23
762.7176423052
 33
0.0
 14
1965.9239178278
 24
761.6178355888
 34
0.0
100
AcDbRotatedDimension
  0
DIMENSION
  5
184
100
AcDbEntity
  8
____
  6
CONTINUOUS
 62
         4
100
AcDbDimension
  2
*D5
 10
1909.8939178278
 20
835.4673282364
 30
0.0
 11
1929.6209178278
 21
837.4923282364
 31
0.0
  3
DIMSTYLE1
100
AcDbAlignedDimension
 13
1909.8939178278
 23
773.7303355888
 33
0.0
 14
1954.7479178278
 24
772.7903355888
 34
0.0
100
AcDbRotatedDimension
  0
LINE
  5
190
100
AcDbEntity
  8
____
  6
CONTINUOUS
 62
         7
100
AcDbLine
 10
1881.4939178278
 20
643.3986897703
 30
0.0
 11
1881.4939178278
 21
629.3986897703
 31
0.0
  0
LINE
  5
191
100
AcDbEntity
  8
____
  6
CONTINUOUS
 62
         7
100
AcDbLine
 10
1847.3967605403
 20
643.3986897703
 30
0.0
 11
1881.4939178278
 21
643.3986897703
 31
0.0
  0
LINE
  5
192
100
AcDbEntity
  8
____
  6
CONTINUOUS
 62
         7
100
AcDbLine
 10
1881.4939178278
 20
643.3986897703
 30
0.0
 11
1885.5353697121
 21
636.3986897703
 31
0.0
  0
LINE
  5
193
100
AcDbEntity
  8
____
  6
CONTINUOUS
 62
         7
100
AcDbLine
 10
1881.4939178278
 20
629.3986897703
 30
0.0
 11
1885.5353697121
 21
636.3986897703
 31
0.0
  0
LINE
  5
194
100
AcDbEntity
  8
____
  6
CONTINUOUS
 62
         7
100
AcDbLine
 10
1847.3967605403
 20
629.3986897703
 30
0.0
 11
1881.4939178278
 21
629.3986897703
 31
0.0
  0
INSERT
  5
1CF
100
AcDbEntity
  8
0
  6
CONTINUOUS
100
AcDbBlockReference
  2
*X6
 10
0.0
 20
0.0
 30
0.0
  0
ENDSEC
  0
SECTION
  2
OBJECTS
  0
DICTIONARY
  5
19
100
AcDbDictionary
  3
ACAD_GROUP
350
1A
  3
ACAD_MLINESTYLE
350
1B
  0
DICTIONARY
  5
1A
102
{ACAD_REACTORS
330
19
102
}
100
AcDbDictionary
  0
DICTIONARY
  5
1B
102
{ACAD_REACTORS
330
19
102
}
100
AcDbDictionary
  3
STANDARD
350
1C
  0
MLINESTYLE
  5
1C
102
{ACAD_REACTORS
330
1B
102
}
100
AcDbMlineStyle
  2
STANDARD
 70
         0
  3

 62
         0
 51
90.0
 52
90.0
 71
         2
 49
0.5
 62
       256
  6
BYLAYER
 49
-0.5
 62
       256
  6
BYLAYER
  0
ENDSEC
  0
EOF
