  0
SECTION
  2
HEADER
  9
$ACADVER
  1
AC1014
  9
$ACADMAINTVER
 70
         0
  9
$DWGCODEPAGE
  3
BIG5
  9
$INSBASE
 10
0.0
 20
0.0
 30
0.0
  9
$EXTMIN
 10
3388.6210924562
 20
-229.1709821276
 30
0.0
  9
$EXTMAX
 10
4215.7401520686
 20
187.8367927854
 30
0.0
  9
$LIMMIN
 10
0.0
 20
0.0
  9
$LIMMAX
 10
0.0
 20
0.0
  9
$ORTHOMODE
 70
         0
  9
$REGENMODE
 70
         1
  9
$FILLMODE
 70
         1
  9
$QTEXTMODE
 70
         0
  9
$MIRRTEXT
 70
         1
  9
$DRAGMODE
 70
         2
  9
$LTSCALE
 40
1.0
  9
$OSMODE
 70
         0
  9
$ATTMODE
 70
         1
  9
$TEXTSIZE
 40
1.7
  9
$TRACEWID
 40
0.05
  9
$TEXTSTYLE
  7
STANDARD
  9
$CLAYER
  8
0
  9
$CELTYPE
  6
CONTINUOUS
  9
$CECOLOR
 62
         4
  9
$CELTSCALE
 40
1.0
  9
$DELOBJ
 70
         1
  9
$DISPSILH
 70
         0
  9
$DIMSCALE
 40
1.0
  9
$DIMASZ
 40
0.18
  9
$DIMEXO
 40
0.0625
  9
$DIMDLI
 40
0.38
  9
$DIMRND
 40
0.0
  9
$DIMDLE
 40
0.0
  9
$DIMEXE
 40
0.25
  9
$DIMTP
 40
0.01
  9
$DIMTM
 40
-0.01
  9
$DIMTXT
 40
3.5
  9
$DIMCEN
 40
0.09
  9
$DIMTSZ
 40
0.0
  9
$DIMTOL
 70
         0
  9
$DIMLIM
 70
         0
  9
$DIMTIH
 70
         1
  9
$DIMTOH
 70
         1
  9
$DIMSE1
 70
         0
  9
$DIMSE2
 70
         0
  9
$DIMTAD
 70
         0
  9
$DIMZIN
 70
         0
  9
$DIMBLK
  1

  9
$DIMASO
 70
         1
  9
$DIMSHO
 70
         1
  9
$DIMPOST
  1

  9
$DIMAPOST
  1

  9
$DIMALT
 70
         0
  9
$DIMALTD
 70
         2
  9
$DIMALTF
 40
25.4
  9
$DIMLFAC
 40
1.0
  9
$DIMTOFL
 70
         0
  9
$DIMTVP
 40
0.0
  9
$DIMTIX
 70
         0
  9
$DIMSOXD
 70
         0
  9
$DIMSAH
 70
         0
  9
$DIMBLK1
  1

  9
$DIMBLK2
  1

  9
$DIMSTYLE
  2
STANDARD
  9
$DIMCLRD
 70
         0
  9
$DIMCLRE
 70
         0
  9
$DIMCLRT
 70
         4
  9
$DIMTFAC
 40
1.0
  9
$DIMGAP
 40
0.09
  9
$DIMJUST
 70
         0
  9
$DIMSD1
 70
         0
  9
$DIMSD2
 70
         0
  9
$DIMTOLJ
 70
         1
  9
$DIMTZIN
 70
         0
  9
$DIMALTZ
 70
         0
  9
$DIMALTTZ
 70
         0
  9
$DIMFIT
 70
         3
  9
$DIMUPT
 70
         0
  9
$DIMUNIT
 70
         2
  9
$DIMDEC
 70
         4
  9
$DIMTDEC
 70
         4
  9
$DIMALTU
 70
         2
  9
$DIMALTTD
 70
         2
  9
$DIMTXSTY
  7
STANDARD
  9
$DIMAUNIT
 70
         0
  9
$LUNITS
 70
         2
  9
$LUPREC
 70
        10
  9
$SKETCHINC
 40
0.1
  9
$FILLETRAD
 40
0.0
  9
$AUNITS
 70
         0
  9
$AUPREC
 70
         0
  9
$MENU
  1
acad
  9
$ELEVATION
 40
0.0
  9
$PELEVATION
 40
0.0
  9
$THICKNESS
 40
0.0
  9
$LIMCHECK
 70
         0
  9
$BLIPMODE
 70
         1
  9
$CHAMFERA
 40
0.0
  9
$CHAMFERB
 40
0.0
  9
$CHAMFERC
 40
0.0
  9
$CHAMFERD
 40
0.0
  9
$SKPOLY
 70
         0
  9
$TDCREATE
 40
0.000000000
  9
$TDUPDATE
 40
0.000000000
  9
$TDINDWG
 40
0.0000000000
  9
$TDUSRTIMER
 40
0.0000000000
  9
$USRTIMER
 70
         1
  9
$ANGBASE
 50
0.0
  9
$ANGDIR
 70
         0
  9
$PDMODE
 70
         2
  9
$PDSIZE
 40
0.0
  9
$PLINEWID
 40
0.0
  9
$COORDS
 70
         1
  9
$SPLFRAME
 70
         0
  9
$SPLINETYPE
 70
         6
  9
$SPLINESEGS
 70
         8
  9
$ATTDIA
 70
         0
  9
$ATTREQ
 70
         1
  9
$HANDLING
 70
         1
  9
$HANDSEED
  5
1E4
  9
$SURFTAB1
 70
         6
  9
$SURFTAB2
 70
         6
  9
$SURFTYPE
 70
         6
  9
$SURFU
 70
         6
  9
$SURFV
 70
         6
  9
$UCSNAME
  2

  9
$UCSORG
 10
0.0
 20
0.0
 30
0.0
  9
$UCSXDIR
 10
1.0
 20
0.0
 30
0.0
  9
$UCSYDIR
 10
0.0
 20
1.0
 30
0.0
  9
$PUCSNAME
  2

  9
$PUCSORG
 10
0.0
 20
0.0
 30
0.0
  9
$PUCSXDIR
 10
1.0
 20
0.0
 30
0.0
  9
$PUCSYDIR
 10
0.0
 20
1.0
 30
0.0
  9
$USERI1
 70
         0
  9
$USERI2
 70
         0
  9
$USERI3
 70
         0
  9
$USERI4
 70
         0
  9
$USERI5
 70
         0
  9
$USERR1
 40
0.0
  9
$USERR2
 40
0.0
  9
$USERR3
 40
0.0
  9
$USERR4
 40
0.0
  9
$USERR5
 40
0.0
  9
$WORLDVIEW
 70
         1
  9
$SHADEDGE
 70
         3
  9
$SHADEDIF
 70
        70
  9
$TILEMODE
 70
         1
  9
$MAXACTVP
 70
        16
  9
$PINSBASE
 10
0.0
 20
0.0
 30
0.0
  9
$PLIMCHECK
 70
         0
  9
$PEXTMIN
 10
1.0000000000E+20
 20
1.0000000000E+20
 30
1.0000000000E+20
  9
$PEXTMAX
 10
-1.0000000000E+20
 20
-1.0000000000E+20
 30
-1.0000000000E+20
  9
$PLIMMIN
 10
0.0
 20
0.0
  9
$PLIMMAX
 10
12.0
 20
9.0
  9
$UNITMODE
 70
         0
  9
$VISRETAIN
 70
         0
  9
$PLINEGEN
 70
         1
  9
$PSLTSCALE
 70
         0
  9
$TREEDEPTH
 70
      3020
  9
$PICKSTYLE
 70
         1
  9
$CMLSTYLE
  2
STANDARD
  9
$CMLJUST
 70
         0
  9
$CMLSCALE
 40
1.0
  9
$PROXYGRAPHICS
 70
         0
  9
$MEASUREMENT
 70
         0
  0
ENDSEC
  0
SECTION
  2
CLASSES
  0
CLASS
  1
LWPOLYLINE
  2
AcDbPolyline
  3
"AutoCAD"
 90
        0
280
         0
281
         1
  0
CLASS
  1
IMAGE
  2
AcDbRasterImage
  3
ISM
 90
      127
280
         0
281
         1
  0
CLASS
  1
OLE2FRAME
  2
AcDbOle2Frame
  3
""
 90
        0
280
         0
281
         1
  0
CLASS
  1
HATCH
  2
AcDbHatch
  3
"ACAD_SEDONA"
 90
        0
280
         0
281
         1
  0
CLASS
  1
DICTIONARYVAR
  2
AcDbDictionaryVar
  3
"AutoCAD"
 90
        0
280
         0
281
         0
  0
CLASS
  1
RASTERVARIABLES
  2
AcDbRasterVariables
  3
ISM
 90
        0
280
         0
281
         0
  0
CLASS
  1
IMAGEDEF
  2
AcDbRasterImageDef
  3
ISM
 90
        0
280
         0
281
         0
  0
CLASS
  1
IMAGEDEF_REACTOR
  2
AcDbRasterImageDefReactor
  3
ISM
 90
        1
280
         0
281
         0
  0
CLASS
  1
IDBUFFER
  2
AcDbIdBuffer
  3
"Acad"
 90
        0
280
         0
281
         0
  0
CLASS
  1
SPATIAL_FILTER
  2
AcDbSpatialFilter
  3
"Acad"
 90
        0
280
         0
281
         0
  0
CLASS
  1
XRECORD
  2
AcDbXrecord
  3
"<Built In>"
 90
        0
280
         0
281
         0
  0
CLASS
  1
SORTENTSTABLE
  2
AcDbSortentsTable
  3
"AutoCAD"
 90
        0
280
         0
281
         0
  0
CLASS
  1
LAYER_INDEX
  2
AcDbLayerIndex
  3
"Acad"
 90
        0
280
         0
281
         0
  0
CLASS
  1
SPATIAL_INDEX
  2
AcDbSpatialIndex
  3
"Acad"
 90
        0
280
         0
281
         0
  0
CLASS
  1
OBJECT_PTR
  2
CAseDLPNTableRecord
  3
"ASE-LPNTableRecord"
 90
        1
280
         0
281
         0
  0
CLASS
  1
LAYOUT
  2
AcDbLayout
  3
"AutoCAD 2000"
 90
        1
280
         0
281
         0
  0
CLASS
  1
PLOTSETTINGS
  2
AcDbPlotSettings
  3
"AutoCAD 2000"
 90
        1
280
         0
281
         0
  0
CLASS
  1
ACDBDICTIONARYWDFLT
  2
AcDbDictionaryWithDefault
  3
"AutoCAD 2000"
 90
        1
280
         0
281
         0
  0
CLASS
  1
ACDBPLACEHOLDER
  2
AcDbPlaceHolder
  3
"AutoCAD 2000"
 90
        1
280
         0
281
         0
  0
CLASS
  1
VBA_PROJECT
  2
AcDbVbaProject
  3
"acadvba"
 90
        1
280
         0
281
         0
  0
CLASS
  1
WIPEOUT
  2
AcDbWipeout
  3
WipeOut|AutoCAD Express Tool|expresstools@autodesk.com
 90
      127
280
         0
281
         1
  0
CLASS
  1
WIPEOUTVARIABLES
  2
AcDbWipeoutVariables
  3
WipeOut|AutoCAD Express Tool|expresstools@autodesk.com
 90
        0
280
         0
281
         0
  0
CLASS
  1
RTEXT
  2
RText
  3
RText|AutoCAD Express Tool|expresstools@autodesk.com
 90
        0
280
         0
281
         1
  0
CLASS
  1
ARCALIGNEDTEXT
  2
AcDbArcAlignedText
  3
ATEXT|AutoCAD Express Tool|expresstools@autodesk.com
 90
        0
280
         0
281
         1
  0
ENDSEC
  0
SECTION
  2
TABLES
  0
TABLE
  2
VPORT
  5
7
100
AcDbSymbolTable
 70
         1
  0
VPORT
  5
15
100
AcDbSymbolTableRecord
100
AcDbViewportTableRecord
  2
*ACTIVE
 70
         0
 10
0.0
 20
0.0
 11
1.0
 21
1.0
 12
3802.1806222624
 22
-20.6670946711
 13
0.0
 23
0.0
 14
1.0
 24
1.0
 15
0.0
 25
0.0
 16
0.0
 26
0.0
 36
1.0
 17
0.0
 27
0.0
 37
0.0
 40
417.007774913
 41
1.9834619625
 42
50.0
 43
0.0
 44
0.0
 50
0.0
 51
0.0
 71
         0
 72
       100
 73
         1
 74
         1
 75
         0
 76
         0
 77
         0
 78
         0
  0
ENDTAB
  0
TABLE
  2
LTYPE
  5
4
100
AcDbSymbolTable
 70
         6
  0
LTYPE
  5
11
100
AcDbSymbolTableRecord
100
AcDbLinetypeTableRecord
  2
BYBLOCK
 70
        64
  3

 72
        65
 73
         0
 40
0.0
  0
LTYPE
  5
12
100
AcDbSymbolTableRecord
100
AcDbLinetypeTableRecord
  2
BYLAYER
 70
        64
  3

 72
        65
 73
         0
 40
0.0
  0
LTYPE
  5
13
100
AcDbSymbolTableRecord
100
AcDbLinetypeTableRecord
  2
CONTINUOUS
 70
        64
  3
Solid line
 72
        65
 73
         0
 40
0.0
  0
LTYPE
  5
1D
100
AcDbSymbolTableRecord
100
AcDbLinetypeTableRecord
  2
DASHED
 70
        64
  3
_ _ _ _ _ _ _ _ _ _ _ _ _ _ _ _
 72
        65
 73
         2
 40
0.2
 49
0.1
 74
         0
 49
-0.1
 74
         0
  0
LTYPE
  5
1E
100
AcDbSymbolTableRecord
100
AcDbLinetypeTableRecord
  2
CENTER
 70
        64
  3
___ _ ___ _ ___ _ ___ _ ___ _ ___ _ ___ _ ___ _
 72
        65
 73
         4
 40
0.95
 49
0.625
 74
         0
 49
-0.125
 74
         0
 49
0.075
 74
         0
 49
-0.125
 74
         0
  0
LTYPE
  5
1F
100
AcDbSymbolTableRecord
100
AcDbLinetypeTableRecord
  2
PHANTOM
 70
        64
  3
______  __  __  ______  __  __  ______  __  __  
 72
        65
 73
         6
 40
1.025
 49
0.625
 74
         0
 49
-0.125
 74
         0
 49
0.075
 74
         0
 49
-0.125
 74
         0
 49
0.075
 74
         0
 49
-0.125
 74
         0
  0
ENDTAB
  0
TABLE
  2
LAYER
  5
2
100
AcDbSymbolTable
 70
        11
  0
LAYER
  5
14
100
AcDbSymbolTableRecord
100
AcDbLayerTableRecord
  2
0
 70
         0
 62
         7
  6
CONTINUOUS
  0
LAYER
  5
21
100
AcDbSymbolTableRecord
100
AcDbLayerTableRecord
  2
____
 70
         0
 62
         7
  6
CONTINUOUS
  0
LAYER
  5
22
100
AcDbSymbolTableRecord
100
AcDbLayerTableRecord
  2
____
 70
         1
 62
         7
  6
CONTINUOUS
  0
LAYER
  5
23
100
AcDbSymbolTableRecord
100
AcDbLayerTableRecord
  2
____
 70
         1
 62
         7
  6
CONTINUOUS
  0
LAYER
  5
24
100
AcDbSymbolTableRecord
100
AcDbLayerTableRecord
  2
____
 70
         1
 62
         7
  6
CONTINUOUS
  0
LAYER
  5
25
100
AcDbSymbolTableRecord
100
AcDbLayerTableRecord
  2
___G__
 70
         1
 62
         7
  6
CONTINUOUS
  0
LAYER
  5
26
100
AcDbSymbolTableRecord
100
AcDbLayerTableRecord
  2
______
 70
         1
 62
         7
  6
CONTINUOUS
  0
LAYER
  5
27
100
AcDbSymbolTableRecord
100
AcDbLayerTableRecord
  2
______
 70
         1
 62
         7
  6
CONTINUOUS
  0
LAYER
  5
28
100
AcDbSymbolTableRecord
100
AcDbLayerTableRecord
  2
______
 70
         1
 62
         7
  6
CONTINUOUS
  0
LAYER
  5
29
100
AcDbSymbolTableRecord
100
AcDbLayerTableRecord
  2
___T__
 70
         1
 62
         7
  6
CONTINUOUS
  0
LAYER
  5
11B
100
AcDbSymbolTableRecord
100
AcDbLayerTableRecord
  2
DEFPOINTS
 70
         0
 62
        -7
  6
CONTINUOUS
  0
ENDTAB
  0
TABLE
  2
STYLE
  5
3
100
AcDbSymbolTable
 70
         7
  0
STYLE
  5
17
100
AcDbSymbolTableRecord
100
AcDbTextStyleTableRecord
  2
STANDARD
 70
         0
 40
0.0
 41
1.0
 50
0.0
 71
         0
 42
0.0
  3
txt
  4

  0
STYLE
  5
36
100
AcDbSymbolTableRecord
100
AcDbTextStyleTableRecord
  2
STSL
 70
         0
 40
1.0
 41
1.0
 50
0.0
 71
         0
 42
0.2
  3

  4
Stsl
  0
STYLE
  5
126
100
AcDbSymbolTableRecord
100
AcDbTextStyleTableRecord
  2
BOX
 70
         0
 40
1.0
 41
1.0
 50
0.0
 71
         0
 42
0.2
  3
txt.shx
  4

  0
STYLE
  5
135
100
AcDbSymbolTableRecord
100
AcDbTextStyleTableRecord
  2
BOX
 70
         0
 40
1.0
 41
1.0
 50
0.0
 71
         0
 42
0.2
  3
txt.shx
  4

  0
STYLE
  5
183
100
AcDbSymbolTableRecord
100
AcDbTextStyleTableRecord
  2
BOX
 70
         0
 40
1.0
 41
1.0
 50
0.0
 71
         0
 42
0.2
  3
txt.shx
  4

  0
STYLE
  5
191
100
AcDbSymbolTableRecord
100
AcDbTextStyleTableRecord
  2
BOX
 70
         0
 40
1.0
 41
1.0
 50
0.0
 71
         0
 42
0.2
  3
txt.shx
  4

  0
STYLE
  5
1E2
100
AcDbSymbolTableRecord
100
AcDbTextStyleTableRecord
  2
BOX
 70
         0
 40
1.0
 41
1.0
 50
0.0
 71
         0
 42
0.2
  3
txt.shx
  4

  0
ENDTAB
  0
TABLE
  2
VIEW
  5
5
100
AcDbSymbolTable
 70
         0
  0
ENDTAB
  0
TABLE
  2
UCS
  5
6
100
AcDbSymbolTable
 70
         1
  0
UCS
  5
20
100
AcDbSymbolTableRecord
100
AcDbUCSTableRecord
  2
CK_VIEW_1
 70
         0
 10
0.0
 20
0.0
 30
1.0
 11
1.0
 21
0.0
 31
0.0
 12
0.0
 22
1.0
 32
0.0
  0
ENDTAB
  0
TABLE
  2
APPID
  5
8
100
AcDbSymbolTable
 70
         1
  0
APPID
  5
16
100
AcDbSymbolTableRecord
100
AcDbRegAppTableRecord
  2
ACAD
 70
         0
  0
ENDTAB
  0
TABLE
  2
DIMSTYLE
  5
9
100
AcDbSymbolTable
 70
         2
  0
DIMSTYLE
105
18
100
AcDbSymbolTableRecord
100
AcDbDimStyleTableRecord
  2
STANDARD
 70
         0
  3

  4

  5

  6

  7

 40
1.0
 41
0.18
 42
0.0625
 43
0.38
 44
0.18
 45
0.0
 46
0.0
 47
0.0
 48
0.0
 71
         0
 72
         0
 73
         1
 74
         1
 75
         0
 76
         0
 77
         0
 78
         0
140
0.18
141
0.09
142
0.0
143
25.4
144
1.0
145
0.0
146
1.0
147
0.09
170
         0
171
         2
172
         0
173
         0
174
         0
175
         0
176
         0
177
         0
178
         0
270
         2
271
         4
272
         4
273
         2
274
         2
275
         0
280
         0
281
         0
282
         0
283
         1
284
         0
285
         0
286
         0
287
         0
288
         0
340
17
  0
DIMSTYLE
105
117
100
AcDbSymbolTableRecord
100
AcDbDimStyleTableRecord
  2
DIMSTYLE1
 70
         0
  3

  4

  5

  6

  7

 40
1.0
 41
3.5
 42
0.0625
 43
0.38
 44
3.5
 45
0.0
 46
0.0
 47
0.0
 48
0.0
 71
         0
 72
         0
 73
         1
 74
         1
 75
         0
 76
         0
 77
         0
 78
         0
140
3.5
141
0.09
142
0.0
143
25.4
144
1.0
145
0.0
146
1.0
147
0.09
170
         0
171
         2
172
         0
173
         0
174
         0
175
         0
176
         0
177
         0
178
         0
270
         2
271
         4
272
         4
273
         2
274
         2
275
         0
280
         0
281
         0
282
         0
283
         1
284
         0
285
         0
286
         0
287
         0
288
         0
340
17
  0
ENDTAB
  0
TABLE
  2
BLOCK_RECORD
  5
1
100
AcDbSymbolTable
 70
         5
  0
BLOCK_RECORD
  5
A
100
AcDbSymbolTableRecord
100
AcDbBlockTableRecord
  2
*MODEL_SPACE
  0
BLOCK_RECORD
  5
B
100
AcDbSymbolTableRecord
100
AcDbBlockTableRecord
  2
*PAPER_SPACE
  0
BLOCK_RECORD
  5
118
100
AcDbSymbolTableRecord
100
AcDbBlockTableRecord
  2
*D0
  0
BLOCK_RECORD
  5
12A
100
AcDbSymbolTableRecord
100
AcDbBlockTableRecord
  2
*D1
  0
BLOCK_RECORD
  5
178
100
AcDbSymbolTableRecord
100
AcDbBlockTableRecord
  2
*D2
  0
BLOCK_RECORD
  5
186
100
AcDbSymbolTableRecord
100
AcDbBlockTableRecord
  2
*D3
  0
BLOCK_RECORD
  5
197
100
AcDbSymbolTableRecord
100
AcDbBlockTableRecord
  2
*X4
  0
ENDTAB
  0
ENDSEC
  0
SECTION
  2
BLOCKS
  0
BLOCK
  5
D
100
AcDbEntity
  8
0
100
AcDbBlockBegin
  2
*MODEL_SPACE
 70
         0
 10
0.0
 20
0.0
 30
0.0
  3
*MODEL_SPACE
  1

  0
ENDBLK
  5
E
100
AcDbEntity
  8
0
100
AcDbBlockEnd
  0
BLOCK
  5
F
100
AcDbEntity
 67
         1
  8
0
100
AcDbBlockBegin
  2
*PAPER_SPACE
 70
         0
 10
0.0
 20
0.0
 30
0.0
  3
*PAPER_SPACE
  1

  0
ENDBLK
  5
10
100
AcDbEntity
 67
         1
  8
0
100
AcDbBlockEnd
  0
BLOCK
  5
119
100
AcDbEntity
  8
0
100
AcDbBlockBegin
  2
*D0
 70
        65
 10
0.0
 20
0.0
 30
0.0
  3
*D0
  1

  0
POINT
  5
11C
100
AcDbEntity
  8
DEFPOINTS
  6
CONTINUOUS
 62
         0
100
AcDbPoint
 10
3777.337279934
 20
-31.9891748147
 30
0.0
  0
POINT
  5
11D
100
AcDbEntity
  8
DEFPOINTS
  6
CONTINUOUS
 62
         0
100
AcDbPoint
 10
3777.337279934
 20
8.8915087832
 30
0.0
  0
POINT
  5
11E
100
AcDbEntity
  8
DEFPOINTS
  6
CONTINUOUS
 62
         0
100
AcDbPoint
 10
3773.337279934
 20
-8.6504912168
 30
0.0
  0
LINE
  5
11F
100
AcDbEntity
  8
____
  6
CONTINUOUS
 62
         4
100
AcDbLine
 10
3777.337279934
 20
7.1415087832
 30
0.0
 11
3777.337279934
 21
-32.8641748147
 31
0.0
  0
LINE
  5
120
100
AcDbEntity
  8
____
  6
CONTINUOUS
 62
         4
100
AcDbLine
 10
3773.337279934
 20
-10.4004912168
 30
0.0
 11
3773.337279934
 21
-32.8641748147
 31
0.0
  0
LINE
  5
121
100
AcDbEntity
  8
____
  6
CONTINUOUS
 62
         4
100
AcDbLine
 10
3777.337279934
 20
-31.9891748147
 30
0.0
 11
3784.337279934
 21
-31.9891748147
 31
0.0
  0
SOLID
  5
122
100
AcDbEntity
  8
____
  6
CONTINUOUS
 62
         4
100
AcDbTrace
 10
3777.337279934
 20
-31.9891748147
 30
0.0
 11
3780.837279934
 21
-31.4641748147
 31
0.0
 12
3780.837279934
 22
-32.5141748147
 32
0.0
 13
3777.337279934
 23
-31.9891748147
 33
0.0
  0
LINE
  5
123
100
AcDbEntity
  8
____
  6
CONTINUOUS
 62
         4
100
AcDbLine
 10
3773.337279934
 20
-31.9891748147
 30
0.0
 11
3766.337279934
 21
-31.9891748147
 31
0.0
  0
SOLID
  5
124
100
AcDbEntity
  8
____
  6
CONTINUOUS
 62
         4
100
AcDbTrace
 10
3773.337279934
 20
-31.9891748147
 30
0.0
 11
3769.837279934
 21
-32.5141748147
 31
0.0
 12
3769.837279934
 22
-31.4641748147
 32
0.0
 13
3773.337279934
 23
-31.9891748147
 33
0.0
  0
LINE
  5
125
100
AcDbEntity
  8
____
  6
CONTINUOUS
 62
         4
100
AcDbLine
 10
3777.337279934
 20
-31.9891748147
 30
0.0
 11
3773.337279934
 21
-31.9891748147
 31
0.0
  0
TEXT
  5
127
100
AcDbEntity
  8
____
  6
CONTINUOUS
 62
         4
100
AcDbText
 10
3773.7253356678
 20
-29.3641748147
 30
0.0
 40
3.5
  1
4
  7
BOX
100
AcDbText
  0
ENDBLK
  5
128
100
AcDbEntity
  8
0
  6
CONTINUOUS
100
AcDbBlockEnd
  0
BLOCK
  5
12B
100
AcDbEntity
  8
0
100
AcDbBlockBegin
  2
*D1
 70
        65
 10
0.0
 20
0.0
 30
0.0
  3
*D1
  1

  0
POINT
  5
12D
100
AcDbEntity
  8
DEFPOINTS
  6
CONTINUOUS
 62
         0
100
AcDbPoint
 10
3836.8600490819
 20
65.5335087832
 30
0.0
  0
POINT
  5
12E
100
AcDbEntity
  8
DEFPOINTS
  6
CONTINUOUS
 62
         0
100
AcDbPoint
 10
3772.337279934
 20
65.5335087832
 30
0.0
  0
POINT
  5
12F
100
AcDbEntity
  8
DEFPOINTS
  6
CONTINUOUS
 62
         0
100
AcDbPoint
 10
3772.337279934
 20
-9.6504912168
 30
0.0
  0
LINE
  5
130
100
AcDbEntity
  8
____
  6
CONTINUOUS
 62
         4
100
AcDbLine
 10
3774.087279934
 20
65.5335087832
 30
0.0
 11
3837.7350490819
 21
65.5335087832
 31
0.0
  0
LINE
  5
131
100
AcDbEntity
  8
____
  6
CONTINUOUS
 62
         4
100
AcDbLine
 10
3774.087279934
 20
-9.6504912168
 30
0.0
 11
3837.7350490819
 21
-9.6504912168
 31
0.0
  0
LINE
  5
132
100
AcDbEntity
  8
____
  6
CONTINUOUS
 62
         4
100
AcDbLine
 10
3836.8600490819
 20
65.5335087832
 30
0.0
 11
3836.8600490819
 21
-9.6504912168
 31
0.0
  0
SOLID
  5
133
100
AcDbEntity
  8
____
  6
CONTINUOUS
 62
         4
100
AcDbTrace
 10
3836.8600490819
 20
65.5335087832
 30
0.0
 11
3837.3850490819
 21
62.0335087832
 31
0.0
 12
3836.3350490819
 22
62.0335087832
 32
0.0
 13
3836.8600490819
 23
65.5335087832
 33
0.0
  0
SOLID
  5
134
100
AcDbEntity
  8
____
  6
CONTINUOUS
 62
         4
100
AcDbTrace
 10
3836.8600490819
 20
-9.6504912168
 30
0.0
 11
3836.3350490819
 21
-6.1504912168
 31
0.0
 12
3837.3850490819
 22
-6.1504912168
 32
0.0
 13
3836.8600490819
 23
-9.6504912168
 33
0.0
  0
TEXT
  5
136
100
AcDbEntity
  8
____
  6
CONTINUOUS
 62
         4
100
AcDbText
 10
3834.2350490819
 20
15.1834115248
 30
0.0
 40
3.5
  1
崷75.18
 50
90.0
  7
BOX
100
AcDbText
  0
ENDBLK
  5
137
100
AcDbEntity
  8
0
  6
CONTINUOUS
100
AcDbBlockEnd
  0
BLOCK
  5
179
100
AcDbEntity
  8
0
100
AcDbBlockBegin
  2
*D2
 70
        65
 10
0.0
 20
0.0
 30
0.0
  3
*D2
  1

  0
POINT
  5
17B
100
AcDbEntity
  8
DEFPOINTS
  6
CONTINUOUS
 62
         0
100
AcDbPoint
 10
3728.337279934
 20
148.3890090393
 30
0.0
  0
POINT
  5
17C
100
AcDbEntity
  8
DEFPOINTS
  6
CONTINUOUS
 62
         0
100
AcDbPoint
 10
3728.337279934
 20
67.6665087832
 30
0.0
  0
POINT
  5
17D
100
AcDbEntity
  8
DEFPOINTS
  6
CONTINUOUS
 62
         0
100
AcDbPoint
 10
3773.337279934
 20
64.5335087832
 30
0.0
  0
LINE
  5
17E
100
AcDbEntity
  8
____
  6
CONTINUOUS
 62
         4
100
AcDbLine
 10
3728.337279934
 20
69.4165087832
 30
0.0
 11
3728.337279934
 21
149.2640090393
 31
0.0
  0
LINE
  5
17F
100
AcDbEntity
  8
____
  6
CONTINUOUS
 62
         4
100
AcDbLine
 10
3773.337279934
 20
66.2835087832
 30
0.0
 11
3773.337279934
 21
149.2640090393
 31
0.0
  0
LINE
  5
180
100
AcDbEntity
  8
____
  6
CONTINUOUS
 62
         4
100
AcDbLine
 10
3728.337279934
 20
148.3890090393
 30
0.0
 11
3773.337279934
 21
148.3890090393
 31
0.0
  0
SOLID
  5
181
100
AcDbEntity
  8
____
  6
CONTINUOUS
 62
         4
100
AcDbTrace
 10
3728.337279934
 20
148.3890090393
 30
0.0
 11
3731.837279934
 21
148.9140090393
 31
0.0
 12
3731.837279934
 22
147.8640090393
 32
0.0
 13
3728.337279934
 23
148.3890090393
 33
0.0
  0
SOLID
  5
182
100
AcDbEntity
  8
____
  6
CONTINUOUS
 62
         4
100
AcDbTrace
 10
3773.337279934
 20
148.3890090393
 30
0.0
 11
3769.837279934
 21
147.8640090393
 31
0.0
 12
3769.837279934
 22
148.9140090393
 32
0.0
 13
3773.337279934
 23
148.3890090393
 33
0.0
  0
TEXT
  5
184
100
AcDbEntity
  8
____
  6
CONTINUOUS
 62
         4
100
AcDbText
 10
3745.0731209249
 20
151.0140090393
 30
0.0
 40
3.5
  1
45
  7
BOX
100
AcDbText
  0
ENDBLK
  5
185
100
AcDbEntity
  8
0
  6
CONTINUOUS
100
AcDbBlockEnd
  0
BLOCK
  5
187
100
AcDbEntity
  8
0
100
AcDbBlockBegin
  2
*D3
 70
        65
 10
0.0
 20
0.0
 30
0.0
  3
*D3
  1

  0
POINT
  5
189
100
AcDbEntity
  8
DEFPOINTS
  6
CONTINUOUS
 62
         0
100
AcDbPoint
 10
3626.587279934
 20
162.7568939258
 30
0.0
  0
POINT
  5
18A
100
AcDbEntity
  8
DEFPOINTS
  6
CONTINUOUS
 62
         0
100
AcDbPoint
 10
3626.587279934
 20
45.8659693413
 30
0.0
  0
POINT
  5
18B
100
AcDbEntity
  8
DEFPOINTS
  6
CONTINUOUS
 62
         0
100
AcDbPoint
 10
3786.037279934
 20
45.9915087832
 30
0.0
  0
LINE
  5
18C
100
AcDbEntity
  8
____
  6
CONTINUOUS
 62
         4
100
AcDbLine
 10
3626.587279934
 20
47.6159693413
 30
0.0
 11
3626.587279934
 21
163.6318939258
 31
0.0
  0
LINE
  5
18D
100
AcDbEntity
  8
____
  6
CONTINUOUS
 62
         4
100
AcDbLine
 10
3786.037279934
 20
47.7415087832
 30
0.0
 11
3786.037279934
 21
163.6318939258
 31
0.0
  0
LINE
  5
18E
100
AcDbEntity
  8
____
  6
CONTINUOUS
 62
         4
100
AcDbLine
 10
3626.587279934
 20
162.7568939258
 30
0.0
 11
3786.037279934
 21
162.7568939258
 31
0.0
  0
SOLID
  5
18F
100
AcDbEntity
  8
____
  6
CONTINUOUS
 62
         4
100
AcDbTrace
 10
3626.587279934
 20
162.7568939258
 30
0.0
 11
3630.087279934
 21
163.2818939258
 31
0.0
 12
3630.087279934
 22
162.2318939258
 32
0.0
 13
3626.587279934
 23
162.7568939258
 33
0.0
  0
SOLID
  5
190
100
AcDbEntity
  8
____
  6
CONTINUOUS
 62
         4
100
AcDbTrace
 10
3786.037279934
 20
162.7568939258
 30
0.0
 11
3782.537279934
 21
162.2318939258
 31
0.0
 12
3782.537279934
 22
163.2818939258
 32
0.0
 13
3786.037279934
 23
162.7568939258
 33
0.0
  0
TEXT
  5
192
100
AcDbEntity
  8
____
  6
CONTINUOUS
 62
         4
100
AcDbText
 10
3697.562279934
 20
165.3818939258
 30
0.0
 40
3.5
  1
159.3
  7
BOX
100
AcDbText
  0
ENDBLK
  5
193
100
AcDbEntity
  8
0
  6
CONTINUOUS
100
AcDbBlockEnd
  0
BLOCK
  5
198
100
AcDbEntity
  8
0
100
AcDbBlockBegin
  2
*X4
 70
        65
 10
0.0
 20
0.0
 30
0.0
  3
*X4
  1

  0
LINE
  5
199
100
AcDbEntity
  8
____
  6
CONTINUOUS
 62
         4
100
AcDbLine
 10
3772.8756380137
 20
-198.9007994586
 30
0.0
 11
3773.1799961246
 21
-198.5964413476
 31
0.0
  0
LINE
  5
19A
100
AcDbEntity
  8
____
  6
CONTINUOUS
 62
         4
100
AcDbLine
 10
3768.4757135172
 20
-199.0580832679
 30
0.0
 11
3773.337279934
 21
-194.1965168511
 31
0.0
  0
LINE
  5
19B
100
AcDbEntity
  8
____
  6
CONTINUOUS
 62
         4
100
AcDbLine
 10
3765.144676382
 20
-198.146479716
 30
0.0
 11
3773.337279934
 21
-189.953876164
 31
0.0
  0
LINE
  5
19C
100
AcDbEntity
  8
____
  6
CONTINUOUS
 62
         4
100
AcDbLine
 10
3782.7750728301
 20
-180.5160832679
 30
0.0
 11
3786.037279934
 21
-177.253876164
 31
0.0
  0
LINE
  5
19D
100
AcDbEntity
  8
____
  6
CONTINUOUS
 62
         4
100
AcDbLine
 10
3762.657432143
 20
-196.3910832679
 30
0.0
 11
3773.337279934
 21
-185.7112354769
 31
0.0
  0
LINE
  5
19E
100
AcDbEntity
  8
____
  6
CONTINUOUS
 62
         4
100
AcDbLine
 10
3778.532432143
 20
-180.5160832679
 30
0.0
 11
3786.037279934
 21
-173.0112354769
 31
0.0
  0
LINE
  5
19F
100
AcDbEntity
  8
____
  6
CONTINUOUS
 62
         4
100
AcDbLine
 10
3744.5897914559
 20
-210.2160832679
 30
0.0
 11
3747.437279934
 21
-207.3685947898
 31
0.0
  0
LINE
  5
1A0
100
AcDbEntity
  8
____
  6
CONTINUOUS
 62
         4
100
AcDbLine
 10
3758.4147914559
 20
-196.3910832679
 30
0.0
 11
3772.837279934
 21
-181.9685947898
 31
0.0
  0
LINE
  5
1A1
100
AcDbEntity
  8
____
  6
CONTINUOUS
 62
         4
100
AcDbLine
 10
3775.3397914559
 20
-179.4660832679
 30
0.0
 11
3786.037279934
 21
-168.7685947898
 31
0.0
  0
LINE
  5
1A2
100
AcDbEntity
  8
____
  6
CONTINUOUS
 62
         4
100
AcDbLine
 10
3742.0122213718
 20
-208.5510126648
 30
0.0
 11
3747.437279934
 21
-203.1259541027
 31
0.0
  0
LINE
  5
1A3
100
AcDbEntity
  8
____
  6
CONTINUOUS
 62
         4
100
AcDbLine
 10
3754.1721507687
 20
-196.3910832679
 30
0.0
 11
3786.037279934
 21
-164.5259541027
 31
0.0
  0
LINE
  5
1A4
100
AcDbEntity
  8
____
  6
CONTINUOUS
 62
         4
100
AcDbLine
 10
3739.2295100816
 20
-207.0910832679
 30
0.0
 11
3747.437279934
 21
-198.8833134155
 31
0.0
  0
LINE
  5
1A5
100
AcDbEntity
  8
____
  6
CONTINUOUS
 62
         4
100
AcDbLine
 10
3749.9295100816
 20
-196.3910832679
 30
0.0
 11
3783.8545100816
 21
-162.4660832679
 31
0.0
  0
LINE
  5
1A6
100
AcDbEntity
  8
____
  6
CONTINUOUS
 62
         4
100
AcDbLine
 10
3732.1514046301
 20
-209.9265480323
 30
0.0
 11
3786.037279934
 21
-156.0406727284
 31
0.0
  0
LINE
  5
1A7
100
AcDbEntity
  8
____
  6
CONTINUOUS
 62
         4
100
AcDbLine
 10
3731.537279934
 20
-206.2980320413
 30
0.0
 11
3786.037279934
 21
-151.7980320413
 31
0.0
  0
LINE
  5
1A8
100
AcDbEntity
  8
____
  6
CONTINUOUS
 62
         4
100
AcDbLine
 10
3731.537279934
 20
-202.0553913542
 30
0.0
 11
3786.037279934
 21
-147.5553913542
 31
0.0
  0
LINE
  5
1A9
100
AcDbEntity
  8
____
  6
CONTINUOUS
 62
         4
100
AcDbLine
 10
3731.537279934
 20
-197.8127506671
 30
0.0
 11
3786.0324197178
 21
-143.3176108832
 31
0.0
  0
LINE
  5
1AA
100
AcDbEntity
  8
____
  6
CONTINUOUS
 62
         4
100
AcDbLine
 10
3728.8473298932
 20
-196.2600600208
 30
0.0
 11
3782.691306646
 21
-142.4160832679
 31
0.0
  0
LINE
  5
1AB
100
AcDbEntity
  8
____
  6
CONTINUOUS
 62
         4
100
AcDbLine
 10
3724.9654026871
 20
-195.8993465397
 30
0.0
 11
3778.4486659589
 21
-142.4160832679
 31
0.0
  0
LINE
  5
1AC
100
AcDbEntity
  8
____
  6
CONTINUOUS
 62
         4
100
AcDbLine
 10
3721.2627388879
 20
-195.3593696518
 30
0.0
 11
3773.1810573678
 21
-143.4410511719
 31
0.0
  0
LINE
  5
1AD
100
AcDbEntity
  8
____
  6
CONTINUOUS
 62
         4
100
AcDbLine
 10
3717.5600750886
 20
-194.8193927639
 30
0.0
 11
3773.337279934
 21
-139.0421879186
 31
0.0
  0
LINE
  5
1AE
100
AcDbEntity
  8
____
  6
CONTINUOUS
 62
         4
100
AcDbLine
 10
3713.8574112894
 20
-194.279415876
 30
0.0
 11
3773.337279934
 21
-134.7995472315
 31
0.0
  0
LINE
  5
1AF
100
AcDbEntity
  8
____
  6
CONTINUOUS
 62
         4
100
AcDbLine
 10
3710.1547474902
 20
-193.7394389881
 30
0.0
 11
3773.337279934
 21
-130.5569065444
 31
0.0
  0
LINE
  5
1B0
100
AcDbEntity
  8
____
  6
CONTINUOUS
 62
         4
100
AcDbLine
 10
3706.452083691
 20
-193.1994621002
 30
0.0
 11
3773.337279934
 21
-126.3142658572
 31
0.0
  0
LINE
  5
1B1
100
AcDbEntity
  8
____
  6
CONTINUOUS
 62
         4
100
AcDbLine
 10
3702.7494198917
 20
-192.6594852124
 30
0.0
 11
3771.5348218362
 21
-123.8740832679
 31
0.0
  0
LINE
  5
1B2
100
AcDbEntity
  8
____
  6
CONTINUOUS
 62
         4
100
AcDbLine
 10
3699.0467560925
 20
-192.1195083245
 30
0.0
 11
3767.2921811491
 21
-123.8740832679
 31
0.0
  0
LINE
  5
1B3
100
AcDbEntity
  8
____
  6
CONTINUOUS
 62
         4
100
AcDbLine
 10
3695.3440922933
 20
-191.5795314366
 30
0.0
 11
3760.382540462
 21
-126.5410832679
 31
0.0
  0
LINE
  5
1B4
100
AcDbEntity
  8
____
  6
CONTINUOUS
 62
         4
100
AcDbLine
 10
3691.6414284941
 20
-191.0395545487
 30
0.0
 11
3756.1398997748
 21
-126.5410832679
 31
0.0
  0
LINE
  5
1B5
100
AcDbEntity
  8
____
  6
CONTINUOUS
 62
         4
100
AcDbLine
 10
3687.9387646948
 20
-190.4995776608
 30
0.0
 11
3751.8972590877
 21
-126.5410832679
 31
0.0
  0
LINE
  5
1B6
100
AcDbEntity
  8
____
  6
CONTINUOUS
 62
         4
100
AcDbLine
 10
3684.2361008956
 20
-189.9596007729
 30
0.0
 11
3747.709510469
 21
-126.4861911995
 31
0.0
  0
LINE
  5
1B7
100
AcDbEntity
  8
____
  6
CONTINUOUS
 62
         4
100
AcDbLine
 10
3680.5334370964
 20
-189.419623885
 30
0.0
 11
3747.437279934
 21
-122.5157810474
 31
0.0
  0
LINE
  5
1B8
100
AcDbEntity
  8
____
  6
CONTINUOUS
 62
         4
100
AcDbLine
 10
3676.8307732972
 20
-188.8796469971
 30
0.0
 11
3747.437279934
 21
-118.2731403603
 31
0.0
  0
LINE
  5
1B9
100
AcDbEntity
  8
____
  6
CONTINUOUS
 62
         4
100
AcDbLine
 10
3673.1281094979
 20
-188.3396701092
 30
0.0
 11
3747.4270008262
 21
-114.0407787809
 31
0.0
  0
LINE
  5
1BA
100
AcDbEntity
  8
____
  6
CONTINUOUS
 62
         4
100
AcDbLine
 10
3669.4254456987
 20
-187.7996932213
 30
0.0
 11
3730.2044190493
 21
-127.0207198708
 31
0.0
  0
LINE
  5
1BB
100
AcDbEntity
  8
____
  6
CONTINUOUS
 62
         4
100
AcDbLine
 10
3731.537279934
 20
-125.687858986
 30
0.0
 11
3744.5090556521
 21
-112.7160832679
 31
0.0
  0
LINE
  5
1BC
100
AcDbEntity
  8
____
  6
CONTINUOUS
 62
         4
100
AcDbLine
 10
3665.7227818995
 20
-187.2597163334
 30
0.0
 11
3681.1200735016
 21
-171.8624247313
 31
0.0
  0
LINE
  5
1BD
100
AcDbEntity
  8
____
  6
CONTINUOUS
 62
         4
100
AcDbLine
 10
3682.2254957894
 20
-170.7570024435
 30
0.0
 11
3726.1177271342
 21
-126.8647710987
 31
0.0
  0
LINE
  5
1BE
100
AcDbEntity
  8
____
  6
CONTINUOUS
 62
         4
100
AcDbLine
 10
3731.537279934
 20
-121.4452182989
 30
0.0
 11
3737.4988588203
 21
-115.4836394126
 31
0.0
  0
LINE
  5
1BF
100
AcDbEntity
  8
____
  6
CONTINUOUS
 62
         4
100
AcDbLine
 10
3662.0201181003
 20
-186.7197394455
 30
0.0
 11
3676.8774328145
 21
-171.8624247313
 31
0.0
  0
LINE
  5
1C0
100
AcDbEntity
  8
____
  6
CONTINUOUS
 62
         4
100
AcDbLine
 10
3687.4740064043
 20
-161.2658511414
 30
0.0
 11
3721.1507251749
 21
-127.5891323709
 31
0.0
  0
LINE
  5
1C1
100
AcDbEntity
  8
____
  6
CONTINUOUS
 62
         4
100
AcDbLine
 10
3731.537279934
 20
-117.2025776118
 30
0.0
 11
3735.9459445497
 21
-112.7939129961
 31
0.0
  0
LINE
  5
1C2
100
AcDbEntity
  8
____
  6
CONTINUOUS
 62
         4
100
AcDbLine
 10
3658.317454301
 20
-186.1797625576
 30
0.0
 11
3672.6347921274
 21
-171.8624247313
 31
0.0
  0
LINE
  5
1C3
100
AcDbEntity
  8
____
  6
CONTINUOUS
 62
         4
100
AcDbLine
 10
3685.9210921337
 20
-158.5761247249
 30
0.0
 11
3716.1837232156
 21
-128.3134936431
 31
0.0
  0
LINE
  5
1C4
100
AcDbEntity
  8
____
  6
CONTINUOUS
 62
         4
100
AcDbLine
 10
3654.6147905018
 20
-185.6397856697
 30
0.0
 11
3668.3921514402
 21
-171.8624247313
 31
0.0
  0
LINE
  5
1C5
100
AcDbEntity
  8
____
  6
CONTINUOUS
 62
         4
100
AcDbLine
 10
3684.3681778631
 20
-155.8863983084
 30
0.0
 11
3711.2167212562
 21
-129.0378549153
 31
0.0
  0
LINE
  5
1C6
100
AcDbEntity
  8
____
  6
CONTINUOUS
 62
         4
100
AcDbLine
 10
3650.9121267026
 20
-185.0998087818
 30
0.0
 11
3664.1495107531
 21
-171.8624247313
 31
0.0
  0
LINE
  5
1C7
100
AcDbEntity
  8
____
  6
CONTINUOUS
 62
         4
100
AcDbLine
 10
3682.8152635925
 20
-153.1966718919
 30
0.0
 11
3706.2497192969
 21
-129.7622161875
 31
0.0
  0
LINE
  5
1C8
100
AcDbEntity
  8
____
  6
CONTINUOUS
 62
         4
100
AcDbLine
 10
3647.2094629034
 20
-184.5598318939
 30
0.0
 11
3659.906870066
 21
-171.8624247313
 31
0.0
  0
LINE
  5
1C9
100
AcDbEntity
  8
____
  6
CONTINUOUS
 62
         4
100
AcDbLine
 10
3680.6995529928
 20
-151.0697418045
 30
0.0
 11
3701.2827173376
 21
-130.4865774597
 31
0.0
  0
LINE
  5
1CA
100
AcDbEntity
  8
____
  6
CONTINUOUS
 62
         4
100
AcDbLine
 10
3643.5067991041
 20
-184.019855006
 30
0.0
 11
3655.6642293789
 21
-171.8624247313
 31
0.0
  0
LINE
  5
1CB
100
AcDbEntity
  8
____
  6
CONTINUOUS
 62
         4
100
AcDbLine
 10
3676.4569123057
 20
-151.0697418045
 30
0.0
 11
3696.3157153782
 21
-131.2109387319
 31
0.0
  0
LINE
  5
1CC
100
AcDbEntity
  8
____
  6
CONTINUOUS
 62
         4
100
AcDbLine
 10
3639.8041353049
 20
-183.4798781181
 30
0.0
 11
3651.4215886918
 21
-171.8624247313
 31
0.0
  0
LINE
  5
1CD
100
AcDbEntity
  8
____
  6
CONTINUOUS
 62
         4
100
AcDbLine
 10
3672.2142716186
 20
-151.0697418045
 30
0.0
 11
3691.3487134189
 21
-131.9353000041
 31
0.0
  0
LINE
  5
1CE
100
AcDbEntity
  8
____
  6
CONTINUOUS
 62
         4
100
AcDbLine
 10
3636.1014715057
 20
-182.9399012302
 30
0.0
 11
3647.1789480046
 21
-171.8624247313
 31
0.0
  0
LINE
  5
1CF
100
AcDbEntity
  8
____
  6
CONTINUOUS
 62
         4
100
AcDbLine
 10
3667.9716309315
 20
-151.0697418045
 30
0.0
 11
3686.3817114596
 21
-132.6596612764
 31
0.0
  0
LINE
  5
1D0
100
AcDbEntity
  8
____
  6
CONTINUOUS
 62
         4
100
AcDbLine
 10
3632.3988077065
 20
-182.3999243423
 30
0.0
 11
3642.9363073175
 21
-171.8624247313
 31
0.0
  0
LINE
  5
1D1
100
AcDbEntity
  8
____
  6
CONTINUOUS
 62
         4
100
AcDbLine
 10
3663.7289902443
 20
-151.0697418045
 30
0.0
 11
3681.4147095003
 21
-133.3840225486
 31
0.0
  0
LINE
  5
1D2
100
AcDbEntity
  8
____
  6
CONTINUOUS
 62
         4
100
AcDbLine
 10
3628.6963085136
 20
-181.8597828481
 30
0.0
 11
3638.6936666304
 21
-171.8624247313
 31
0.0
  0
LINE
  5
1D3
100
AcDbEntity
  8
____
  6
CONTINUOUS
 62
         4
100
AcDbLine
 10
3659.4863495572
 20
-151.0697418045
 30
0.0
 11
3676.4477075409
 21
-134.1083838208
 31
0.0
  0
LINE
  5
1D4
100
AcDbEntity
  8
____
  6
CONTINUOUS
 62
         4
100
AcDbLine
 10
3626.6072835735
 20
-179.7061671011
 30
0.0
 11
3632.1473674067
 21
-174.1660832679
 31
0.0
  0
LINE
  5
1D5
100
AcDbEntity
  8
____
  6
CONTINUOUS
 62
         4
100
AcDbLine
 10
3655.2437088701
 20
-151.0697418045
 30
0.0
 11
3671.4807055816
 21
-134.832745093
 31
0.0
  0
LINE
  5
1D6
100
AcDbEntity
  8
____
  6
CONTINUOUS
 62
         4
100
AcDbLine
 10
3626.587279934
 20
-175.4835300535
 30
0.0
 11
3628.1047267196
 21
-173.9660832679
 31
0.0
  0
LINE
  5
1D7
100
AcDbEntity
  8
____
  6
CONTINUOUS
 62
         4
100
AcDbLine
 10
3651.001068183
 20
-151.0697418045
 30
0.0
 11
3666.5137036223
 21
-135.5571063652
 31
0.0
  0
LINE
  5
1D8
100
AcDbEntity
  8
____
  6
CONTINUOUS
 62
         4
100
AcDbLine
 10
3646.7584274959
 20
-151.0697418045
 30
0.0
 11
3661.5467016629
 21
-136.2814676374
 31
0.0
  0
LINE
  5
1D9
100
AcDbEntity
  8
____
  6
CONTINUOUS
 62
         4
100
AcDbLine
 10
3642.5157868087
 20
-151.0697418045
 30
0.0
 11
3656.5796997036
 21
-137.0058289096
 31
0.0
  0
LINE
  5
1DA
100
AcDbEntity
  8
____
  6
CONTINUOUS
 62
         4
100
AcDbLine
 10
3638.2731461216
 20
-151.0697418045
 30
0.0
 11
3651.6126977443
 21
-137.7301901818
 31
0.0
  0
LINE
  5
1DB
100
AcDbEntity
  8
____
  6
CONTINUOUS
 62
         4
100
AcDbLine
 10
3634.518564665
 20
-150.581682574
 30
0.0
 11
3646.645695785
 21
-138.454551454
 31
0.0
  0
LINE
  5
1DC
100
AcDbEntity
  8
____
  6
CONTINUOUS
 62
         4
100
AcDbLine
 10
3632.091523284
 20
-148.7660832679
 30
0.0
 11
3641.6786938256
 21
-139.1789127262
 31
0.0
  0
LINE
  5
1DD
100
AcDbEntity
  8
____
  6
CONTINUOUS
 62
         4
100
AcDbLine
 10
3627.6997948468
 20
-148.9151710179
 30
0.0
 11
3636.7116918663
 21
-139.9032739984
 31
0.0
  0
LINE
  5
1DE
100
AcDbEntity
  8
____
  6
CONTINUOUS
 62
         4
100
AcDbLine
 10
3626.587279934
 20
-145.7850452436
 30
0.0
 11
3631.744689907
 21
-140.6276352706
 31
0.0
  0
ENDBLK
  5
1DF
100
AcDbEntity
  8
0
  6
CONTINUOUS
100
AcDbBlockEnd
  0
ENDSEC
  0
SECTION
  2
ENTITIES
  0
LINE
  5
2A
100
AcDbEntity
  8
____
  6
DASHED
 62
         2
100
AcDbLine
 10
4027.1607211821
 20
32.9415087832
 30
0.0
 11
4027.1607211821
 21
22.9415087832
 31
0.0
  0
LINE
  5
2B
100
AcDbEntity
  8
____
  6
DASHED
 62
         2
100
AcDbLine
 10
4027.1607211821
 20
32.9415087832
 30
0.0
 11
4026.6607211821
 21
33.4415087832
 31
0.0
  0
LINE
  5
2C
100
AcDbEntity
  8
____
  6
DASHED
 62
         2
100
AcDbLine
 10
4027.1607211821
 20
22.9415087832
 30
0.0
 11
4026.6607211821
 21
22.4415087832
 31
0.0
  0
LINE
  5
2D
100
AcDbEntity
  8
____
  6
DASHED
 62
         2
100
AcDbLine
 10
4040.3747211821
 20
32.9415087832
 30
0.0
 11
4043.261472528
 21
27.9415087832
 31
0.0
  0
LINE
  5
2E
100
AcDbEntity
  8
____
  6
DASHED
 62
         2
100
AcDbLine
 10
4043.261472528
 20
27.9415087832
 30
0.0
 11
4040.3747211821
 21
22.9415087832
 31
0.0
  0
LINE
  5
2F
100
AcDbEntity
  8
____
  6
DASHED
 62
         2
100
AcDbLine
 10
4040.3747211821
 20
32.9415087832
 30
0.0
 11
4040.3747211821
 21
22.9415087832
 31
0.0
  0
LINE
  5
30
100
AcDbEntity
  8
____
  6
DASHED
 62
         2
100
AcDbLine
 10
4027.1607211821
 20
22.9415087832
 30
0.0
 11
4040.3747211821
 21
22.9415087832
 31
0.0
  0
LINE
  5
31
100
AcDbEntity
  8
____
  6
DASHED
 62
         2
100
AcDbLine
 10
4027.1607211821
 20
32.9415087832
 30
0.0
 11
4040.3747211821
 21
32.9415087832
 31
0.0
  0
ARC
  5
32
100
AcDbEntity
  8
____
  6
CONTINUOUS
 62
         7
100
AcDbCircle
 10
3747.937279934
 20
-126.0410832679
 30
0.0
 40
0.5
100
AcDbArc
 50
180.0
 51
270.0
  0
ARC
  5
33
100
AcDbEntity
  8
____
  6
CONTINUOUS
 62
         7
100
AcDbCircle
 10
3747.937279934
 20
-196.8910832679
 30
0.0
 40
0.5
100
AcDbArc
 50
90.0
 51
180.0
  0
ARC
  5
34
100
AcDbEntity
  8
____
  6
CONTINUOUS
 62
         7
100
AcDbCircle
 10
3747.937279934
 20
-7.4834912168
 30
0.0
 40
0.5
100
AcDbArc
 50
90.0
 51
180.0
  0
ARC
  5
35
100
AcDbEntity
  8
____
  6
CONTINUOUS
 62
         7
100
AcDbCircle
 10
3747.937279934
 20
63.3665087832
 30
0.0
 40
0.5
100
AcDbArc
 50
180.0
 51
270.0
  0
TEXT
  5
37
100
AcDbEntity
  8
____
  6
CONTINUOUS
 62
         4
100
AcDbText
 10
4150.0472614696
 20
-203.7557531194
 30
0.0
 40
4.0
  1
垂直度
 41
0.6
  7
STSL
100
AcDbText
  0
CIRCLE
  5
38
100
AcDbEntity
  8
____
  6
CONTINUOUS
 62
         7
100
AcDbCircle
 10
3739.437279934
 20
27.9453623081
 30
0.0
 40
4.76
  0
LINE
  5
39
100
AcDbEntity
  8
____
  6
CENTER
 62
         1
100
AcDbLine
 10
4064.3607211821
 20
-24.2231140916
 30
0.0
 11
4064.3607211821
 21
80.1061316581
 31
0.0
  0
LINE
  5
3A
100
AcDbEntity
  8
____
  6
CENTER
 62
         1
100
AcDbLine
 10
4009.6107211821
 20
27.9415087832
 30
0.0
 11
4119.1107211821
 21
27.9415087832
 31
0.0
  0
LINE
  5
3B
100
AcDbEntity
  8
____
  6
CONTINUOUS
 62
         7
100
AcDbLine
 10
3626.587279934
 20
-179.390543826
 30
0.0
 11
3626.587279934
 21
-143.5416227098
 31
0.0
  0
LINE
  5
3C
100
AcDbEntity
  8
____
  6
CONTINUOUS
 62
         7
100
AcDbLine
 10
3747.437279934
 20
75.1915087832
 30
0.0
 11
3747.437279934
 21
-19.3084912168
 31
0.0
  0
LINE
  5
3D
100
AcDbEntity
  8
____
  6
CONTINUOUS
 62
         7
100
AcDbLine
 10
3747.337279934
 20
14.0915087832
 30
0.0
 11
3746.3171857691
 21
15.1116029482
 31
0.0
  0
LINE
  5
3E
100
AcDbEntity
  8
____
  6
CONTINUOUS
 62
         7
100
AcDbLine
 10
3747.337279934
 20
41.7915087832
 30
0.0
 11
3746.3171857691
 21
40.7714146183
 31
0.0
  0
LINE
  5
3F
100
AcDbEntity
  8
____
  6
CONTINUOUS
 62
         7
100
AcDbLine
 10
3728.337279934
 20
-126.5410832679
 30
0.0
 11
3730.2836900955
 21
-127.0410832679
 31
0.0
  0
ARC
  5
40
100
AcDbEntity
  8
____
  6
CONTINUOUS
 62
         7
100
AcDbCircle
 10
3740.8806556069
 20
-115.3410832679
 30
0.0
 40
0.5
100
AcDbArc
 50
270.0
 51
330.0
  0
ARC
  5
41
100
AcDbEntity
  8
____
  6
CONTINUOUS
 62
         7
100
AcDbCircle
 10
3737.993904261
 20
-115.3410832679
 30
0.0
 40
0.5
100
AcDbArc
 50
210.0
 51
270.0
  0
ARC
  5
42
100
AcDbEntity
  8
____
  6
CONTINUOUS
 62
         7
100
AcDbCircle
 10
3730.937279934
 20
-126.4410832679
 30
0.0
 40
0.6
100
AcDbArc
 50
270.0
 51
360.0
  0
LINE
  5
43
100
AcDbEntity
  8
____
  6
CONTINUOUS
 62
         7
100
AcDbLine
 10
3730.2836900955
 20
-127.0410832679
 30
0.0
 11
3730.937279934
 21
-127.0410832679
 31
0.0
  0
LINE
  5
44
100
AcDbEntity
  8
____
  6
CONTINUOUS
 62
         7
100
AcDbLine
 10
3731.537279934
 20
-114.2160832679
 30
0.0
 11
3731.537279934
 21
-126.4410832679
 31
0.0
  0
LINE
  5
45
100
AcDbEntity
  8
____
  6
CONTINUOUS
 62
         7
100
AcDbLine
 10
3737.993904261
 20
-115.8410832679
 30
0.0
 11
3740.8806556069
 21
-115.8410832679
 31
0.0
  0
LINE
  5
46
100
AcDbEntity
  8
____
  6
CONTINUOUS
 62
         7
100
AcDbLine
 10
3741.3136683088
 20
73.8165087832
 30
0.0
 11
3742.9735503328
 21
76.6915087832
 31
0.0
  0
LINE
  5
47
100
AcDbEntity
  8
____
  6
CONTINUOUS
 62
         7
100
AcDbLine
 10
3741.312279934
 20
40.7714146183
 30
0.0
 11
3742.9735503328
 21
41.7915087832
 31
0.0
  0
LINE
  5
48
100
AcDbEntity
  8
____
  6
CONTINUOUS
 62
         7
100
AcDbLine
 10
3746.3171857691
 20
40.7714146183
 30
0.0
 11
3732.5573740989
 21
40.7714146183
 31
0.0
  0
LINE
  5
49
100
AcDbEntity
  8
____
  6
CONTINUOUS
 62
         7
100
AcDbLine
 10
3746.3171857691
 20
40.7714146183
 30
0.0
 11
3732.5573740989
 21
40.7714146183
 31
0.0
  0
LINE
  5
4A
100
AcDbEntity
  8
____
  6
CONTINUOUS
 62
         7
100
AcDbLine
 10
3737.993904261
 20
73.5665087832
 30
0.0
 11
3740.8806556069
 21
73.5665087832
 31
0.0
  0
LINE
  5
4B
100
AcDbEntity
  8
____
  6
CONTINUOUS
 62
         7
100
AcDbLine
 10
3733.037279934
 20
76.6915087832
 30
0.0
 11
3735.9010095352
 21
76.6915087832
 31
0.0
  0
ARC
  5
4C
100
AcDbEntity
  8
____
  6
CONTINUOUS
 62
         7
100
AcDbCircle
 10
3737.993904261
 20
74.0665087832
 30
0.0
 40
0.5
100
AcDbArc
 50
210.0
 51
270.0
  0
LINE
  5
4D
100
AcDbEntity
  8
____
  6
CONTINUOUS
 62
         7
100
AcDbLine
 10
3730.2836900955
 20
62.3665087832
 30
0.0
 11
3730.937279934
 21
62.3665087832
 31
0.0
  0
ARC
  5
4E
100
AcDbEntity
  8
____
  6
CONTINUOUS
 62
         7
100
AcDbCircle
 10
3730.937279934
 20
62.9665087832
 30
0.0
 40
0.6
100
AcDbArc
 50
270.0
 51
360.0
  0
LINE
  5
4F
100
AcDbEntity
  8
____
  6
CONTINUOUS
 62
         7
100
AcDbLine
 10
3737.5608915591
 20
73.8165087832
 30
0.0
 11
3735.9010095352
 21
76.6915087832
 31
0.0
  0
ARC
  5
50
100
AcDbEntity
  8
____
  6
CONTINUOUS
 62
         7
100
AcDbCircle
 10
3733.037279934
 20
75.1915087832
 30
0.0
 40
1.5
100
AcDbArc
 50
90.0
 51
180.0
  0
ARC
  5
51
100
AcDbEntity
  8
____
  6
CONTINUOUS
 62
         7
100
AcDbCircle
 10
3740.8806556069
 20
74.0665087832
 30
0.0
 40
0.5
100
AcDbArc
 50
270.0
 51
330.0
  0
LINE
  5
52
100
AcDbEntity
  8
____
  6
CONTINUOUS
 62
         7
100
AcDbLine
 10
3735.9010095352
 20
41.7915087832
 30
0.0
 11
3731.537279934
 21
41.7915087832
 31
0.0
  0
LINE
  5
53
100
AcDbEntity
  8
____
  6
CONTINUOUS
 62
         7
100
AcDbLine
 10
3731.537279934
 20
41.7915087832
 30
0.0
 11
3732.5573740989
 21
40.7714146183
 31
0.0
  0
LINE
  5
54
100
AcDbEntity
  8
____
  6
CONTINUOUS
 62
         7
100
AcDbLine
 10
3735.9010095352
 20
41.7915087832
 30
0.0
 11
3737.562279934
 21
40.7714146183
 31
0.0
  0
LINE
  5
55
100
AcDbEntity
  8
____
  6
CONTINUOUS
 62
         7
100
AcDbLine
 10
3737.562279934
 20
73.8141193216
 30
0.0
 11
3737.562279934
 21
40.7714146183
 31
0.0
  0
LINE
  5
56
100
AcDbEntity
  8
____
  6
CONTINUOUS
 62
         7
100
AcDbLine
 10
3735.9010095352
 20
76.6915087832
 30
0.0
 11
3735.9010095352
 21
41.7915087832
 31
0.0
  0
LINE
  5
57
100
AcDbEntity
  8
____
  6
CONTINUOUS
 62
         7
100
AcDbLine
 10
3741.312279934
 20
73.8141193216
 30
0.0
 11
3741.312279934
 21
40.7714146183
 31
0.0
  0
ARC
  5
58
100
AcDbEntity
  8
____
  6
CONTINUOUS
 62
         7
100
AcDbCircle
 10
3745.937279934
 20
75.1915087832
 30
0.0
 40
1.5
100
AcDbArc
 50
0.0
 51
90.0
  0
LINE
  5
59
100
AcDbEntity
  8
____
  6
CONTINUOUS
 62
         7
100
AcDbLine
 10
3742.9735503328
 20
76.6915087832
 30
0.0
 11
3745.937279934
 21
76.6915087832
 31
0.0
  0
LINE
  5
5A
100
AcDbEntity
  8
____
  6
CONTINUOUS
 62
         7
100
AcDbLine
 10
3747.437279934
 20
41.7915087832
 30
0.0
 11
3742.9735503328
 21
41.7915087832
 31
0.0
  0
LINE
  5
5B
100
AcDbEntity
  8
____
  6
CONTINUOUS
 62
         7
100
AcDbLine
 10
3742.9735503328
 20
76.6915087832
 30
0.0
 11
3742.9735503328
 21
41.7915087832
 31
0.0
  0
LINE
  5
5C
100
AcDbEntity
  8
____
  6
CONTINUOUS
 62
         7
100
AcDbLine
 10
3741.312279934
 20
15.1116029482
 30
0.0
 11
3742.9735503328
 21
14.0915087832
 31
0.0
  0
LINE
  5
5D
100
AcDbEntity
  8
____
  6
CONTINUOUS
 62
         7
100
AcDbLine
 10
3746.3171857691
 20
15.1116029482
 30
0.0
 11
3732.5573740989
 21
15.1116029482
 31
0.0
  0
LINE
  5
5E
100
AcDbEntity
  8
____
  6
CONTINUOUS
 62
         7
100
AcDbLine
 10
3746.317185769
 20
15.1116029482
 30
0.0
 11
3732.5573740989
 21
15.1116029482
 31
0.0
  0
LINE
  5
5F
100
AcDbEntity
  8
____
  6
CONTINUOUS
 62
         7
100
AcDbLine
 10
3741.3136683088
 20
-17.9334912168
 30
0.0
 11
3742.9735503328
 21
-20.8084912168
 31
0.0
  0
LINE
  5
60
100
AcDbEntity
  8
____
  6
CONTINUOUS
 62
         7
100
AcDbLine
 10
3735.9010095352
 20
14.0915087832
 30
0.0
 11
3737.562279934
 21
15.1116029482
 31
0.0
  0
LINE
  5
61
100
AcDbEntity
  8
____
  6
CONTINUOUS
 62
         7
100
AcDbLine
 10
3731.537279934
 20
14.0915087832
 30
0.0
 11
3732.5573740989
 21
15.1116029482
 31
0.0
  0
LINE
  5
62
100
AcDbEntity
  8
____
  6
CONTINUOUS
 62
         7
100
AcDbLine
 10
3735.9010095352
 20
14.0915087832
 30
0.0
 11
3731.537279934
 21
14.0915087832
 31
0.0
  0
LINE
  5
63
100
AcDbEntity
  8
____
  6
CONTINUOUS
 62
         7
100
AcDbLine
 10
3737.562279934
 20
15.1116029482
 30
0.0
 11
3737.562279934
 21
-17.9311017552
 31
0.0
  0
LINE
  5
64
100
AcDbEntity
  8
____
  6
CONTINUOUS
 62
         7
100
AcDbLine
 10
3741.312279934
 20
15.1116029482
 30
0.0
 11
3741.312279934
 21
-17.9311017552
 31
0.0
  0
LINE
  5
65
100
AcDbEntity
  8
____
  6
CONTINUOUS
 62
         7
100
AcDbLine
 10
3735.9010095352
 20
14.0915087832
 30
0.0
 11
3735.9010095352
 21
-20.8084912168
 31
0.0
  0
LINE
  5
66
100
AcDbEntity
  8
____
  6
CONTINUOUS
 62
         7
100
AcDbLine
 10
3737.993904261
 20
-17.6834912168
 30
0.0
 11
3740.8806556069
 21
-17.6834912168
 31
0.0
  0
ARC
  5
67
100
AcDbEntity
  8
____
  6
CONTINUOUS
 62
         7
100
AcDbCircle
 10
3737.993904261
 20
-18.1834912168
 30
0.0
 40
0.5
100
AcDbArc
 50
90.0
 51
150.0
  0
LINE
  5
68
100
AcDbEntity
  8
____
  6
CONTINUOUS
 62
         7
100
AcDbLine
 10
3733.037279934
 20
-20.8084912168
 30
0.0
 11
3735.9010095352
 21
-20.8084912168
 31
0.0
  0
LINE
  5
69
100
AcDbEntity
  8
____
  6
CONTINUOUS
 62
         7
100
AcDbLine
 10
3737.5608915591
 20
-17.9334912168
 30
0.0
 11
3735.9010095352
 21
-20.8084912168
 31
0.0
  0
ARC
  5
6A
100
AcDbEntity
  8
____
  6
CONTINUOUS
 62
         7
100
AcDbCircle
 10
3733.037279934
 20
-19.3084912168
 30
0.0
 40
1.5
100
AcDbArc
 50
180.0
 51
270.0
  0
ARC
  5
6B
100
AcDbEntity
  8
____
  6
CONTINUOUS
 62
         7
100
AcDbCircle
 10
3740.8806556069
 20
-18.1834912168
 30
0.0
 40
0.5
100
AcDbArc
 50
30.0
 51
90.0
  0
ARC
  5
6C
100
AcDbEntity
  8
____
  6
CONTINUOUS
 62
         7
100
AcDbCircle
 10
3730.937279934
 20
-7.0834912168
 30
0.0
 40
0.6
100
AcDbArc
 50
0.0
 51
90.0
  0
LINE
  5
6D
100
AcDbEntity
  8
____
  6
CONTINUOUS
 62
         7
100
AcDbLine
 10
3730.2836900955
 20
-6.4834912168
 30
0.0
 11
3730.937279934
 21
-6.4834912168
 31
0.0
  0
ARC
  5
6E
100
AcDbEntity
  8
____
  6
CONTINUOUS
 62
         7
100
AcDbCircle
 10
3730.937279934
 20
-7.0834912168
 30
0.0
 40
0.6
100
AcDbArc
 50
0.0
 51
90.0
  0
LINE
  5
6F
100
AcDbEntity
  8
____
  6
CONTINUOUS
 62
         7
100
AcDbLine
 10
3747.437279934
 20
14.0915087832
 30
0.0
 11
3742.9735503328
 21
14.0915087832
 31
0.0
  0
ARC
  5
70
100
AcDbEntity
  8
____
  6
CONTINUOUS
 62
         7
100
AcDbCircle
 10
3745.937279934
 20
-19.3084912168
 30
0.0
 40
1.5
100
AcDbArc
 50
270.0
 51
360.0
  0
LINE
  5
71
100
AcDbEntity
  8
____
  6
CONTINUOUS
 62
         7
100
AcDbLine
 10
3742.9735503328
 20
14.0915087832
 30
0.0
 11
3742.9735503328
 21
-20.8084912168
 31
0.0
  0
LINE
  5
72
100
AcDbEntity
  8
____
  6
CONTINUOUS
 62
         7
100
AcDbLine
 10
3742.9735503328
 20
-20.8084912168
 30
0.0
 11
3745.937279934
 21
-20.8084912168
 31
0.0
  0
LINE
  5
73
100
AcDbEntity
  8
____
  6
CENTER
 62
         1
100
AcDbLine
 10
3739.437279934
 20
82.946772084
 30
0.0
 11
3739.437279934
 21
-27.0560474678
 31
0.0
  0
LINE
  5
74
100
AcDbEntity
  8
____
  6
CONTINUOUS
 62
         7
100
AcDbLine
 10
3731.537279934
 20
75.1915087832
 30
0.0
 11
3731.537279934
 21
-19.3084912168
 31
0.0
  0
LINE
  5
75
100
AcDbEntity
  8
____
  6
CONTINUOUS
 62
         7
100
AcDbLine
 10
3730.2836900955
 20
62.3665087832
 30
0.0
 11
3730.2836900955
 21
-6.4834912168
 31
0.0
  0
LINE
  5
76
100
AcDbEntity
  8
____
  6
CENTER
 62
         1
100
AcDbLine
 10
3728.337279934
 20
67.6665087832
 30
0.0
 11
3728.337279934
 21
-10.3295455623
 31
0.0
  0
LINE
  5
77
100
AcDbEntity
  8
____
  6
CONTINUOUS
 62
         7
100
AcDbLine
 10
3729.537279934
 20
62.5582489869
 30
0.0
 11
3729.537279934
 21
-6.6752314204
 31
0.0
  0
ARC
  5
78
100
AcDbEntity
  8
____
  6
CONTINUOUS
 62
         7
100
AcDbCircle
 10
3629.087279934
 20
45.8659693413
 30
0.0
 40
2.5
100
AcDbArc
 50
98.297222
 51
180.0
  0
ARC
  5
79
100
AcDbEntity
  8
____
  6
CONTINUOUS
 62
         7
100
AcDbCircle
 10
3629.087279934
 20
10.0170482252
 30
0.0
 40
2.5
100
AcDbArc
 50
180.0
 51
261.702778
  0
LINE
  5
7A
100
AcDbEntity
  8
____
  6
CONTINUOUS
 62
         7
100
AcDbLine
 10
3626.587279934
 20
45.8659693413
 30
0.0
 11
3626.587279934
 21
10.0170482252
 31
0.0
  0
LINE
  5
7B
100
AcDbEntity
  8
____
  6
CONTINUOUS
 62
         7
100
AcDbLine
 10
3728.337279934
 20
-6.9834912168
 30
0.0
 11
3628.7265093754
 21
7.5432162575
 31
0.0
  0
LINE
  5
7C
100
AcDbEntity
  8
____
  6
CONTINUOUS
 62
         7
100
AcDbLine
 10
3728.337279934
 20
62.8665087832
 30
0.0
 11
3628.7265093754
 21
48.3398013089
 31
0.0
  0
LINE
  5
7D
100
AcDbEntity
  8
____
  6
CENTER
 62
         1
100
AcDbLine
 10
3621.7911373659
 20
27.9415087832
 30
0.0
 11
3695.7123703618
 21
27.9415087832
 31
0.0
  0
LINE
  5
7E
100
AcDbEntity
  8
____
  6
CENTER
 62
         1
100
AcDbLine
 10
3717.5813473059
 20
27.9415087832
 30
0.0
 11
3787.3691739782
 21
27.9415087832
 31
0.0
  0
LINE
  5
7F
100
AcDbEntity
  8
____
  6
CONTINUOUS
 62
         7
100
AcDbLine
 10
3728.337279934
 20
-6.9834912168
 30
0.0
 11
3730.2836900955
 21
-6.4834912168
 31
0.0
  0
LINE
  5
80
100
AcDbEntity
  8
____
  6
CONTINUOUS
 62
         7
100
AcDbLine
 10
3728.337279934
 20
62.8665087832
 30
0.0
 11
3730.2836900955
 21
62.3665087832
 31
0.0
  0
LINE
  5
81
100
AcDbEntity
  8
____
  6
CONTINUOUS
 62
         7
100
AcDbLine
 10
3741.3136683088
 20
-115.5910832679
 30
0.0
 11
3742.9735503328
 21
-112.7160832679
 31
0.0
  0
LINE
  5
82
100
AcDbEntity
  8
____
  6
CONTINUOUS
 62
         7
100
AcDbLine
 10
3733.037279934
 20
-112.7160832679
 30
0.0
 11
3735.9010095352
 21
-112.7160832679
 31
0.0
  0
LINE
  5
83
100
AcDbEntity
  8
____
  6
CONTINUOUS
 62
         7
100
AcDbLine
 10
3737.993904261
 20
-115.8410832679
 30
0.0
 11
3740.8806556069
 21
-115.8410832679
 31
0.0
  0
LINE
  5
84
100
AcDbEntity
  8
____
  6
CONTINUOUS
 62
         7
100
AcDbLine
 10
3731.537279934
 20
-114.2160832679
 30
0.0
 11
3731.537279934
 21
-126.4410832679
 31
0.0
  0
LINE
  5
85
100
AcDbEntity
  8
____
  6
CONTINUOUS
 62
         7
100
AcDbLine
 10
3730.2836900955
 20
-127.0410832679
 30
0.0
 11
3730.937279934
 21
-127.0410832679
 31
0.0
  0
ARC
  5
86
100
AcDbEntity
  8
____
  6
CONTINUOUS
 62
         7
100
AcDbCircle
 10
3730.937279934
 20
-126.4410832679
 30
0.0
 40
0.6
100
AcDbArc
 50
270.0
 51
360.0
  0
ARC
  5
87
100
AcDbEntity
  8
____
  6
CONTINUOUS
 62
         7
100
AcDbCircle
 10
3737.993904261
 20
-115.3410832679
 30
0.0
 40
0.5
100
AcDbArc
 50
210.0
 51
270.0
  0
ARC
  5
88
100
AcDbEntity
  8
____
  6
CONTINUOUS
 62
         7
100
AcDbCircle
 10
3740.8806556069
 20
-115.3410832679
 30
0.0
 40
0.5
100
AcDbArc
 50
270.0
 51
330.0
  0
ARC
  5
89
100
AcDbEntity
  8
____
  6
CONTINUOUS
 62
         7
100
AcDbCircle
 10
3733.037279934
 20
-114.2160832679
 30
0.0
 40
1.5
100
AcDbArc
 50
90.0
 51
180.0
  0
LINE
  5
8A
100
AcDbEntity
  8
____
  6
CONTINUOUS
 62
         7
100
AcDbLine
 10
3737.5608915591
 20
-115.5910832679
 30
0.0
 11
3735.9010095352
 21
-112.7160832679
 31
0.0
  0
LINE
  5
8B
100
AcDbEntity
  8
____
  6
CONTINUOUS
 62
         7
100
AcDbLine
 10
3742.9735503328
 20
-112.7160832679
 30
0.0
 11
3745.937279934
 21
-112.7160832679
 31
0.0
  0
LINE
  5
8C
100
AcDbEntity
  8
____
  6
CONTINUOUS
 62
         7
100
AcDbLine
 10
3747.437279934
 20
-114.2160832679
 30
0.0
 11
3747.437279934
 21
-126.0410832679
 31
0.0
  0
ARC
  5
8D
100
AcDbEntity
  8
____
  6
CONTINUOUS
 62
         7
100
AcDbCircle
 10
3745.937279934
 20
-114.2160832679
 30
0.0
 40
1.5
100
AcDbArc
 50
0.0
 51
90.0
  0
LINE
  5
8E
100
AcDbEntity
  8
____
  6
CONTINUOUS
 62
         7
100
AcDbLine
 10
3741.4580058761
 20
-207.5910832679
 30
0.0
 11
3742.9735503328
 21
-210.2160832679
 31
0.0
  0
LINE
  5
8F
100
AcDbEntity
  8
____
  6
CONTINUOUS
 62
         7
100
AcDbLine
 10
3731.537279934
 20
-196.4910832679
 30
0.0
 11
3731.537279934
 21
-208.7160832679
 31
0.0
  0
LINE
  5
90
100
AcDbEntity
  8
____
  6
CONTINUOUS
 62
         7
100
AcDbLine
 10
3737.993904261
 20
-207.0910832679
 30
0.0
 11
3740.5919804724
 21
-207.0910832679
 31
0.0
  0
LINE
  5
91
100
AcDbEntity
  8
____
  6
CONTINUOUS
 62
         7
100
AcDbLine
 10
3733.037279934
 20
-210.2160832679
 30
0.0
 11
3735.9010095352
 21
-210.2160832679
 31
0.0
  0
ARC
  5
92
100
AcDbEntity
  8
____
  6
CONTINUOUS
 62
         7
100
AcDbCircle
 10
3733.037279934
 20
-208.7160832679
 30
0.0
 40
1.5
100
AcDbArc
 50
180.0
 51
270.0
  0
LINE
  5
93
100
AcDbEntity
  8
____
  6
CONTINUOUS
 62
         7
100
AcDbLine
 10
3737.5608915591
 20
-207.3410832679
 30
0.0
 11
3735.9010095352
 21
-210.2160832679
 31
0.0
  0
ARC
  5
94
100
AcDbEntity
  8
____
  6
CONTINUOUS
 62
         7
100
AcDbCircle
 10
3737.993904261
 20
-207.5910832679
 30
0.0
 40
0.5
100
AcDbArc
 50
90.0
 51
150.0
  0
LINE
  5
95
100
AcDbEntity
  8
____
  6
CONTINUOUS
 62
         7
100
AcDbLine
 10
3730.2836900955
 20
-195.8910832679
 30
0.0
 11
3730.937279934
 21
-195.8910832679
 31
0.0
  0
ARC
  5
96
100
AcDbEntity
  8
____
  6
CONTINUOUS
 62
         7
100
AcDbCircle
 10
3730.937279934
 20
-196.4910832679
 30
0.0
 40
0.6
100
AcDbArc
 50
0.0
 51
90.0
  0
LINE
  5
97
100
AcDbEntity
  8
____
  6
CONTINUOUS
 62
         7
100
AcDbLine
 10
3747.437279934
 20
-196.8910832679
 30
0.0
 11
3747.437279934
 21
-208.7160832679
 31
0.0
  0
ARC
  5
98
100
AcDbEntity
  8
____
  6
CONTINUOUS
 62
         7
100
AcDbCircle
 10
3745.937279934
 20
-208.7160832679
 30
0.0
 40
1.5
100
AcDbArc
 50
270.0
 51
360.0
  0
LINE
  5
99
100
AcDbEntity
  8
____
  6
CONTINUOUS
 62
         7
100
AcDbLine
 10
3742.9735503328
 20
-210.2160832679
 30
0.0
 11
3745.937279934
 21
-210.2160832679
 31
0.0
  0
ARC
  5
9A
100
AcDbEntity
  8
____
  6
CONTINUOUS
 62
         7
100
AcDbCircle
 10
3629.087279934
 20
-143.5416227098
 30
0.0
 40
2.5
100
AcDbArc
 50
98.297222
 51
180.0
  0
ARC
  5
9B
100
AcDbEntity
  8
____
  6
CONTINUOUS
 62
         7
100
AcDbCircle
 10
3629.087279934
 20
-179.390543826
 30
0.0
 40
2.5
100
AcDbArc
 50
180.0
 51
261.702778
  0
LINE
  5
9C
100
AcDbEntity
  8
____
  6
CONTINUOUS
 62
         7
100
AcDbLine
 10
3626.587279934
 20
-143.5416227098
 30
0.0
 11
3626.587279934
 21
-179.390543826
 31
0.0
  0
LINE
  5
9D
100
AcDbEntity
  8
____
  6
CONTINUOUS
 62
         7
100
AcDbLine
 10
3728.337279934
 20
-196.3910832679
 30
0.0
 11
3628.7265093754
 21
-181.8643757936
 31
0.0
  0
LINE
  5
9E
100
AcDbEntity
  8
____
  6
CONTINUOUS
 62
         7
100
AcDbLine
 10
3635.0066238955
 20
-171.8624247313
 30
0.0
 11
3681.587279934
 21
-171.8624247313
 31
0.0
  0
LINE
  5
9F
100
AcDbEntity
  8
____
  6
CONTINUOUS
 62
         7
100
AcDbLine
 10
3728.337279934
 20
-126.5410832679
 30
0.0
 11
3628.7265093754
 21
-141.0677907422
 31
0.0
  0
LINE
  5
A0
100
AcDbEntity
  8
____
  6
CONTINUOUS
 62
         7
100
AcDbLine
 10
3635.0066238955
 20
-151.0697418045
 30
0.0
 11
3681.587279934
 21
-151.0697418045
 31
0.0
  0
LINE
  5
A1
100
AcDbEntity
  8
____
  6
CONTINUOUS
 62
         7
100
AcDbLine
 10
3728.337279934
 20
-196.3910832679
 30
0.0
 11
3730.2836900955
 21
-195.8910832679
 31
0.0
  0
LINE
  5
A2
100
AcDbEntity
  8
____
  6
CONTINUOUS
 62
         7
100
AcDbLine
 10
3728.337279934
 20
-126.5410832679
 30
0.0
 11
3730.2836900955
 21
-127.0410832679
 31
0.0
  0
LINE
  5
A3
100
AcDbEntity
  8
____
  6
CENTER
 62
         1
100
AcDbLine
 10
3621.7911373659
 20
-161.4660832679
 30
0.0
 11
3787.3691739782
 21
-161.4660832679
 31
0.0
  0
LINE
  5
A4
100
AcDbEntity
  8
____
  6
CENTER
 62
         1
100
AcDbLine
 10
3520.23603862
 20
81.3813761352
 30
0.0
 11
3520.23603862
 21
-33.7085219457
 31
0.0
  0
ARC
  5
A5
100
AcDbEntity
  8
____
  6
CONTINUOUS
 62
         7
100
AcDbCircle
 10
3740.5919804724
 20
-208.0910832679
 30
0.0
 40
1.0
100
AcDbArc
 50
30.0
 51
90.0
  0
ARC
  5
A6
100
AcDbEntity
  8
____
  6
CONTINUOUS
 62
         7
100
AcDbCircle
 10
4064.3607211821
 20
27.9415087832
 30
0.0
 40
48.75
100
AcDbArc
 50
196.5052120024
 51
343.4947879976
  0
ARC
  5
A7
100
AcDbEntity
  8
____
  6
DASHED
 62
         2
100
AcDbCircle
 10
4064.3607211821
 20
27.9415087832
 30
0.0
 40
45.625
100
AcDbArc
 50
16.3583384794
 51
163.6416615206
  0
ARC
  5
A8
100
AcDbEntity
  8
____
  6
CONTINUOUS
 62
         7
100
AcDbCircle
 10
4064.3607211821
 20
27.9415087832
 30
0.0
 40
48.75
100
AcDbArc
 50
16.5052120024
 51
163.4947879976
  0
ARC
  5
A9
100
AcDbEntity
  8
____
  6
CONTINUOUS
 62
         7
100
AcDbCircle
 10
4064.3607211821
 20
27.9415087832
 30
0.0
 40
47.25
100
AcDbArc
 50
17.0449399911
 51
162.9550600089
  0
ARC
  5
AA
100
AcDbEntity
  8
____
  6
CONTINUOUS
 62
         7
100
AcDbCircle
 10
4064.3607211821
 20
27.9415087832
 30
0.0
 40
47.25
100
AcDbArc
 50
197.0449399911
 51
342.9550600089
  0
ARC
  5
AB
100
AcDbEntity
  8
____
  6
DASHED
 62
         2
100
AcDbCircle
 10
4064.3607211821
 20
27.9415087832
 30
0.0
 40
45.625
100
AcDbArc
 50
197.6716498685
 51
343.6416615206
  0
ARC
  5
AC
100
AcDbEntity
  8
____
  6
CONTINUOUS
 62
         7
100
AcDbCircle
 10
3520.23603862
 20
27.9415087832
 30
0.0
 40
48.75
100
AcDbArc
 50
16.5052120024
 51
163.4947879976
  0
LINE
  5
AD
100
AcDbEntity
  8
____
  6
CENTER
 62
         1
100
AcDbLine
 10
3563.6014483569
 20
27.9415087832
 30
0.0
 11
3473.6714930246
 21
27.9415087832
 31
0.0
  0
ARC
  5
AE
100
AcDbEntity
  8
____
  6
CONTINUOUS
 62
         7
100
AcDbCircle
 10
3520.23603862
 20
27.9415087832
 30
0.0
 40
48.75
100
AcDbArc
 50
196.5052120024
 51
343.4947879976
  0
CIRCLE
  5
AF
100
AcDbEntity
  8
____
  6
CONTINUOUS
 62
         7
100
AcDbCircle
 10
3520.23603862
 20
27.9415087832
 30
0.0
 40
34.925
  0
CIRCLE
  5
B0
100
AcDbEntity
  8
____
  6
CONTINUOUS
 62
         7
100
AcDbCircle
 10
3520.23603862
 20
27.9415087832
 30
0.0
 40
20.3982925257
  0
CIRCLE
  5
B1
100
AcDbEntity
  8
____
  6
CONTINUOUS
 62
         7
100
AcDbCircle
 10
3520.23603862
 20
27.9415087832
 30
0.0
 40
10.3963414634
  0
ARC
  5
B2
100
AcDbEntity
  8
____
  6
CONTINUOUS
 62
         4
100
AcDbCircle
 10
3520.23603862
 20
27.9415087832
 30
0.0
 40
12.0
100
AcDbArc
 50
278.1340859252
 51
549.6704111119
  0
LINE
  5
B3
100
AcDbEntity
  8
____
  6
CONTINUOUS
 62
         7
100
AcDbLine
 10
3733.037279934
 20
-20.8084912168
 30
0.0
 11
3733.037279934
 21
14.0915087832
 31
0.0
  0
LINE
  5
B4
100
AcDbEntity
  8
____
  6
CONTINUOUS
 62
         7
100
AcDbLine
 10
3745.937279934
 20
-20.8084912168
 30
0.0
 11
3745.937279934
 21
14.0915087832
 31
0.0
  0
CIRCLE
  5
B5
100
AcDbEntity
  8
____
  6
CONTINUOUS
 62
         7
100
AcDbCircle
 10
3520.23603862
 20
27.9415087832
 30
0.0
 40
12.6589889012
  0
LINE
  5
B6
100
AcDbEntity
  8
____
  6
CONTINUOUS
 62
         7
100
AcDbLine
 10
3747.937279934
 20
62.8665087832
 30
0.0
 11
3763.0579090841
 21
62.8665087832
 31
0.0
  0
LINE
  5
B7
100
AcDbEntity
  8
____
  6
CONTINUOUS
 62
         7
100
AcDbLine
 10
3747.937279934
 20
-6.9834912168
 30
0.0
 11
3763.0579090841
 21
-6.9834912168
 31
0.0
  0
LINE
  5
B8
100
AcDbEntity
  8
____
  6
CONTINUOUS
 62
         7
100
AcDbLine
 10
3763.389279934
 20
62.9383650063
 30
0.0
 11
3763.389279934
 21
-7.0553474399
 31
0.0
  0
LINE
  5
B9
100
AcDbEntity
  8
____
  6
CONTINUOUS
 62
         7
100
AcDbLine
 10
3747.937279934
 20
-126.5410832679
 30
0.0
 11
3762.589279934
 21
-126.5410832679
 31
0.0
  0
LINE
  5
BA
100
AcDbEntity
  8
____
  6
CONTINUOUS
 62
         7
100
AcDbLine
 10
3747.937279934
 20
-196.3910832679
 30
0.0
 11
3762.589279934
 21
-196.3910832679
 31
0.0
  0
LINE
  5
BB
100
AcDbEntity
  8
____
  6
DASHED
 62
         2
100
AcDbLine
 10
4099.8607211821
 20
40.2915087832
 30
0.0
 11
4099.8607211821
 21
15.5915087832
 31
0.0
  0
LINE
  5
BC
100
AcDbEntity
  8
____
  6
DASHED
 62
         2
100
AcDbLine
 10
4098.8607211821
 20
40.7915087832
 30
0.0
 11
4098.8607211821
 21
15.0915087832
 31
0.0
  0
LINE
  5
BD
100
AcDbEntity
  8
____
  6
CONTINUOUS
 62
         7
100
AcDbLine
 10
4110.1019235628
 20
40.7915087832
 30
0.0
 11
4100.3607211821
 21
40.7915087832
 31
0.0
  0
LINE
  5
BE
100
AcDbEntity
  8
____
  6
CONTINUOUS
 62
         7
100
AcDbLine
 10
4111.1019235628
 20
41.7915087832
 30
0.0
 11
4099.8607211821
 21
41.7915087832
 31
0.0
  0
LINE
  5
BF
100
AcDbEntity
  8
____
  6
CONTINUOUS
 62
         7
100
AcDbLine
 10
4111.1019235628
 20
41.7915087832
 30
0.0
 11
4110.1019235628
 21
40.7915087832
 31
0.0
  0
LINE
  5
C0
100
AcDbEntity
  8
____
  6
CONTINUOUS
 62
         7
100
AcDbLine
 10
4111.1019235628
 20
14.0915087832
 30
0.0
 11
4110.1019235628
 21
15.0915087832
 31
0.0
  0
LINE
  5
C1
100
AcDbEntity
  8
____
  6
CONTINUOUS
 62
         7
100
AcDbLine
 10
4110.1019235628
 20
15.0915087832
 30
0.0
 11
4100.3607211821
 21
15.0915087832
 31
0.0
  0
LINE
  5
C2
100
AcDbEntity
  8
____
  6
CONTINUOUS
 62
         7
100
AcDbLine
 10
4111.1019235628
 20
14.0915087832
 30
0.0
 11
4099.8607211821
 21
14.0915087832
 31
0.0
  0
LINE
  5
C3
100
AcDbEntity
  8
____
  6
CONTINUOUS
 62
         7
100
AcDbLine
 10
4018.6195188013
 20
15.0915087832
 30
0.0
 11
4026.1607211821
 21
15.0915087832
 31
0.0
  0
LINE
  5
C4
100
AcDbEntity
  8
____
  6
CONTINUOUS
 62
         7
100
AcDbLine
 10
4017.6195188013
 20
14.0915087832
 30
0.0
 11
4026.6607211821
 21
14.0915087832
 31
0.0
  0
LINE
  5
C5
100
AcDbEntity
  8
____
  6
CONTINUOUS
 62
         7
100
AcDbLine
 10
4017.6195188013
 20
14.0915087832
 30
0.0
 11
4018.6195188013
 21
15.0915087832
 31
0.0
  0
LINE
  5
C6
100
AcDbEntity
  8
____
  6
CONTINUOUS
 62
         7
100
AcDbLine
 10
4018.6195188013
 20
40.7915087832
 30
0.0
 11
4026.1607211821
 21
40.7915087832
 31
0.0
  0
LINE
  5
C7
100
AcDbEntity
  8
____
  6
CONTINUOUS
 62
         7
100
AcDbLine
 10
4017.6195188013
 20
41.7915087832
 30
0.0
 11
4026.6607211821
 21
41.7915087832
 31
0.0
  0
LINE
  5
C8
100
AcDbEntity
  8
____
  6
CONTINUOUS
 62
         7
100
AcDbLine
 10
4017.6195188013
 20
41.7915087832
 30
0.0
 11
4018.6195188013
 21
40.7915087832
 31
0.0
  0
LINE
  5
C9
100
AcDbEntity
  8
____
  6
CONTINUOUS
 62
         7
100
AcDbLine
 10
3484.23603862
 20
15.5915087832
 30
0.0
 11
3484.23603862
 21
40.2915087832
 31
0.0
  0
LINE
  5
CA
100
AcDbEntity
  8
____
  6
CONTINUOUS
 62
         7
100
AcDbLine
 10
3485.23603862
 20
15.0915087832
 30
0.0
 11
3485.23603862
 21
40.7915087832
 31
0.0
  0
LINE
  5
CB
100
AcDbEntity
  8
____
  6
CONTINUOUS
 62
         7
100
AcDbLine
 10
3474.4948362392
 20
15.0915087832
 30
0.0
 11
3483.73603862
 21
15.0915087832
 31
0.0
  0
LINE
  5
CC
100
AcDbEntity
  8
____
  6
CONTINUOUS
 62
         7
100
AcDbLine
 10
3473.4948362392
 20
14.0915087832
 30
0.0
 11
3484.23603862
 21
14.0915087832
 31
0.0
  0
LINE
  5
CD
100
AcDbEntity
  8
____
  6
CONTINUOUS
 62
         7
100
AcDbLine
 10
3473.4948362392
 20
14.0915087832
 30
0.0
 11
3474.4948362392
 21
15.0915087832
 31
0.0
  0
LINE
  5
CE
100
AcDbEntity
  8
____
  6
CONTINUOUS
 62
         7
100
AcDbLine
 10
3473.4948362392
 20
41.7915087832
 30
0.0
 11
3474.4948362392
 21
40.7915087832
 31
0.0
  0
LINE
  5
CF
100
AcDbEntity
  8
____
  6
CONTINUOUS
 62
         7
100
AcDbLine
 10
3474.4948362392
 20
40.7915087832
 30
0.0
 11
3483.73603862
 21
40.7915087832
 31
0.0
  0
LINE
  5
D0
100
AcDbEntity
  8
____
  6
CONTINUOUS
 62
         7
100
AcDbLine
 10
3473.4948362392
 20
41.7915087832
 30
0.0
 11
3484.23603862
 21
41.7915087832
 31
0.0
  0
LINE
  5
D1
100
AcDbEntity
  8
____
  6
CONTINUOUS
 62
         7
100
AcDbLine
 10
3557.93603862
 20
15.5915087832
 30
0.0
 11
3557.93603862
 21
40.2915087832
 31
0.0
  0
LINE
  5
D2
100
AcDbEntity
  8
____
  6
CONTINUOUS
 62
         7
100
AcDbLine
 10
3565.9772410007
 20
40.7915087832
 30
0.0
 11
3558.43603862
 21
40.7915087832
 31
0.0
  0
LINE
  5
D3
100
AcDbEntity
  8
____
  6
CONTINUOUS
 62
         7
100
AcDbLine
 10
3566.9772410007
 20
41.7915087832
 30
0.0
 11
3557.93603862
 21
41.7915087832
 31
0.0
  0
LINE
  5
D4
100
AcDbEntity
  8
____
  6
CONTINUOUS
 62
         7
100
AcDbLine
 10
3566.9772410007
 20
41.7915087832
 30
0.0
 11
3565.9772410007
 21
40.7915087832
 31
0.0
  0
LINE
  5
D5
100
AcDbEntity
  8
____
  6
CONTINUOUS
 62
         7
100
AcDbLine
 10
3565.9772410007
 20
15.0915087832
 30
0.0
 11
3558.43603862
 21
15.0915087832
 31
0.0
  0
LINE
  5
D6
100
AcDbEntity
  8
____
  6
CONTINUOUS
 62
         7
100
AcDbLine
 10
3566.9772410007
 20
14.0915087832
 30
0.0
 11
3557.93603862
 21
14.0915087832
 31
0.0
  0
LINE
  5
D7
100
AcDbEntity
  8
____
  6
CONTINUOUS
 62
         7
100
AcDbLine
 10
3566.9772410007
 20
14.0915087832
 30
0.0
 11
3565.9772410007
 21
15.0915087832
 31
0.0
  0
LINE
  5
D8
100
AcDbEntity
  8
____
  6
CONTINUOUS
 62
         7
100
AcDbLine
 10
3556.93603862
 20
15.0915087832
 30
0.0
 11
3556.93603862
 21
40.7915087832
 31
0.0
  0
ARC
  5
D9
100
AcDbEntity
  8
____
  6
CONTINUOUS
 62
         7
100
AcDbCircle
 10
3628.087279934
 20
-147.4660832679
 30
0.0
 40
1.5
100
AcDbArc
 50
180.0
 51
270.0
  0
LINE
  5
DA
100
AcDbEntity
  8
____
  6
CONTINUOUS
 62
         4
100
AcDbLine
 10
3628.087279934
 20
-173.9660832679
 30
0.0
 11
3628.087279934
 21
-148.9660832679
 31
0.0
  0
LINE
  5
DB
100
AcDbEntity
  8
____
  6
CONTINUOUS
 62
         7
100
AcDbLine
 10
3628.087279934
 20
-148.9660832679
 30
0.0
 11
3630.937279934
 21
-148.9660832679
 31
0.0
  0
LINE
  5
DC
100
AcDbEntity
  8
____
  6
CONTINUOUS
 62
         7
100
AcDbLine
 10
3630.937279934
 20
-173.9660832679
 30
0.0
 11
3630.937279934
 21
-148.9660832679
 31
0.0
  0
LINE
  5
DD
100
AcDbEntity
  8
____
  6
CONTINUOUS
 62
         7
100
AcDbLine
 10
3631.6836900955
 20
-148.7660832679
 30
0.0
 11
3630.937279934
 21
-148.9660832679
 31
0.0
  0
ARC
  5
DE
100
AcDbEntity
  8
____
  6
CONTINUOUS
 62
         7
100
AcDbCircle
 10
3632.537279934
 20
-149.1660832679
 30
0.0
 40
0.4
100
AcDbArc
 50
45.0
 51
90.0
  0
LINE
  5
DF
100
AcDbEntity
  8
____
  6
CONTINUOUS
 62
         7
100
AcDbLine
 10
3631.6836900955
 20
-148.7660832679
 30
0.0
 11
3632.537279934
 21
-148.7660832679
 31
0.0
  0
LINE
  5
E0
100
AcDbEntity
  8
____
  6
CONTINUOUS
 62
         7
100
AcDbLine
 10
3632.937279934
 20
-173.9317686929
 30
0.0
 11
3632.937279934
 21
-149.0003978429
 31
0.0
  0
LINE
  5
E1
100
AcDbEntity
  8
____
  6
CONTINUOUS
 62
         7
100
AcDbLine
 10
3632.8201226464
 20
-148.8832405554
 30
0.0
 11
3635.0066238955
 21
-151.0697418045
 31
0.0
  0
LINE
  5
E2
100
AcDbEntity
  8
____
  6
CONTINUOUS
 62
         5
100
AcDbLine
 10
3633.4029653589
 20
-149.4660832679
 30
0.0
 11
3671.037279934
 21
-149.4660832679
 31
0.0
  0
LINE
  5
E3
100
AcDbEntity
  8
____
  6
CONTINUOUS
 62
         7
100
AcDbLine
 10
3635.0066238955
 20
-171.8624247313
 30
0.0
 11
3635.0066238955
 21
-151.0697418045
 31
0.0
  0
LINE
  5
E4
100
AcDbEntity
  8
____
  6
CONTINUOUS
 62
         7
100
AcDbLine
 10
3671.037279934
 20
-149.4660832679
 30
0.0
 11
3671.037279934
 21
-173.4660832679
 31
0.0
  0
LINE
  5
E5
100
AcDbEntity
  8
____
  6
CONTINUOUS
 62
         5
100
AcDbLine
 10
3633.4029653589
 20
-173.4660832679
 30
0.0
 11
3671.037279934
 21
-173.4660832679
 31
0.0
  0
LINE
  5
E6
100
AcDbEntity
  8
____
  6
CONTINUOUS
 62
         7
100
AcDbLine
 10
3632.8201226464
 20
-174.0489259804
 30
0.0
 11
3635.0066238955
 21
-171.8624247313
 31
0.0
  0
ARC
  5
E7
100
AcDbEntity
  8
____
  6
CONTINUOUS
 62
         7
100
AcDbCircle
 10
3632.537279934
 20
-173.7660832679
 30
0.0
 40
0.4
100
AcDbArc
 50
270.0
 51
315.0
  0
LINE
  5
E8
100
AcDbEntity
  8
____
  6
CONTINUOUS
 62
         7
100
AcDbLine
 10
3631.6836900955
 20
-174.1660832679
 30
0.0
 11
3632.537279934
 21
-174.1660832679
 31
0.0
  0
LINE
  5
E9
100
AcDbEntity
  8
____
  6
CONTINUOUS
 62
         7
100
AcDbLine
 10
3631.6836900955
 20
-174.1660832679
 30
0.0
 11
3630.937279934
 21
-173.9660832679
 31
0.0
  0
LINE
  5
EA
100
AcDbEntity
  8
____
  6
CONTINUOUS
 62
         7
100
AcDbLine
 10
3628.087279934
 20
-173.9660832679
 30
0.0
 11
3630.937279934
 21
-173.9660832679
 31
0.0
  0
ARC
  5
EB
100
AcDbEntity
  8
____
  6
CONTINUOUS
 62
         7
100
AcDbCircle
 10
3628.087279934
 20
-175.4660832679
 30
0.0
 40
1.5
100
AcDbArc
 50
90.0
 51
180.0
  0
LINE
  5
EC
100
AcDbEntity
  8
____
  6
CONTINUOUS
 62
         7
100
AcDbLine
 10
4099.8607211821
 20
40.2915087832
 30
0.0
 11
4100.3607211821
 21
40.7915087832
 31
0.0
  0
LINE
  5
ED
100
AcDbEntity
  8
____
  6
CONTINUOUS
 62
         7
100
AcDbLine
 10
4099.8607211821
 20
41.7915087832
 30
0.0
 11
4099.4632541498
 21
41.394041751
 31
0.0
  0
LINE
  5
EE
100
AcDbEntity
  8
____
  6
CONTINUOUS
 62
         7
100
AcDbLine
 10
4099.4632541498
 20
14.4889758155
 30
0.0
 11
4099.8607211821
 21
14.0915087832
 31
0.0
  0
LINE
  5
EF
100
AcDbEntity
  8
____
  6
CONTINUOUS
 62
         7
100
AcDbLine
 10
4099.8607211821
 20
15.5915087832
 30
0.0
 11
4100.3607211821
 21
15.0915087832
 31
0.0
  0
LINE
  5
F0
100
AcDbEntity
  8
____
  6
CONTINUOUS
 62
         7
100
AcDbLine
 10
4026.6607211821
 20
40.2915087832
 30
0.0
 11
4026.6607211821
 21
15.5915087832
 31
0.0
  0
LINE
  5
F1
100
AcDbEntity
  8
____
  6
CONTINUOUS
 62
         7
100
AcDbLine
 10
4027.6607211821
 20
40.7915087832
 30
0.0
 11
4027.6607211821
 21
15.0915087832
 31
0.0
  0
LINE
  5
F2
100
AcDbEntity
  8
____
  6
CONTINUOUS
 62
         7
100
AcDbLine
 10
4026.1607211821
 20
40.7915087832
 30
0.0
 11
4026.6607211821
 21
40.2915087832
 31
0.0
  0
LINE
  5
F3
100
AcDbEntity
  8
____
  6
CONTINUOUS
 62
         7
100
AcDbLine
 10
4026.6607211821
 20
15.5915087832
 30
0.0
 11
4026.1607211821
 21
15.0915087832
 31
0.0
  0
LINE
  5
F4
100
AcDbEntity
  8
____
  6
CONTINUOUS
 62
         7
100
AcDbLine
 10
4027.6607211821
 20
40.7915087832
 30
0.0
 11
4026.6607211821
 21
41.7915087832
 31
0.0
  0
LINE
  5
F5
100
AcDbEntity
  8
____
  6
CONTINUOUS
 62
         7
100
AcDbLine
 10
4027.6607211821
 20
15.0915087832
 30
0.0
 11
4026.6607211821
 21
14.0915087832
 31
0.0
  0
LINE
  5
F6
100
AcDbEntity
  8
____
  6
CONTINUOUS
 62
         7
100
AcDbLine
 10
3484.23603862
 20
41.7915087832
 30
0.0
 11
3485.23603862
 21
40.7915087832
 31
0.0
  0
LINE
  5
F7
100
AcDbEntity
  8
____
  6
CONTINUOUS
 62
         7
100
AcDbLine
 10
3485.23603862
 20
15.0915087832
 30
0.0
 11
3484.23603862
 21
14.0915087832
 31
0.0
  0
LINE
  5
F8
100
AcDbEntity
  8
____
  6
CONTINUOUS
 62
         7
100
AcDbLine
 10
3483.73603862
 20
15.0915087832
 30
0.0
 11
3484.23603862
 21
15.5915087832
 31
0.0
  0
LINE
  5
F9
100
AcDbEntity
  8
____
  6
CONTINUOUS
 62
         7
100
AcDbLine
 10
3484.23603862
 20
40.2915087832
 30
0.0
 11
3483.73603862
 21
40.7915087832
 31
0.0
  0
LINE
  5
FA
100
AcDbEntity
  8
____
  6
CONTINUOUS
 62
         7
100
AcDbLine
 10
3558.43603862
 20
40.7915087832
 30
0.0
 11
3557.93603862
 21
40.2915087832
 31
0.0
  0
LINE
  5
FB
100
AcDbEntity
  8
____
  6
CONTINUOUS
 62
         7
100
AcDbLine
 10
3557.93603862
 20
15.5915087832
 30
0.0
 11
3558.43603862
 21
15.0915087832
 31
0.0
  0
LINE
  5
FC
100
AcDbEntity
  8
____
  6
CONTINUOUS
 62
         7
100
AcDbLine
 10
3557.93603862
 20
14.0915087832
 30
0.0
 11
3556.93603862
 21
15.0915087832
 31
0.0
  0
LINE
  5
FD
100
AcDbEntity
  8
____
  6
CONTINUOUS
 62
         7
100
AcDbLine
 10
3556.93603862
 20
40.7915087832
 30
0.0
 11
3557.93603862
 21
41.7915087832
 31
0.0
  0
LINE
  5
FE
100
AcDbEntity
  8
____
  6
CONTINUOUS
 62
         7
100
AcDbLine
 10
3733.037279934
 20
76.6915087832
 30
0.0
 11
3733.037279934
 21
41.7915087832
 31
0.0
  0
LINE
  5
FF
100
AcDbEntity
  8
____
  6
CONTINUOUS
 62
         7
100
AcDbLine
 10
3745.937279934
 20
76.6915087832
 30
0.0
 11
3745.937279934
 21
41.7915087832
 31
0.0
  0
CIRCLE
  5
100
100
AcDbEntity
  8
____
  6
CONTINUOUS
 62
         7
100
AcDbCircle
 10
4064.3607211821
 20
27.9415087832
 30
0.0
 40
0.8
  0
ARC
  5
101
100
AcDbEntity
  8
____
  6
CONTINUOUS
 62
         4
100
AcDbCircle
 10
4064.3607211821
 20
27.9415087832
 30
0.0
 40
18.25
100
AcDbArc
 50
269.5997291322
 51
540.0
  0
CIRCLE
  5
102
100
AcDbEntity
  8
____
  6
CONTINUOUS
 62
         7
100
AcDbCircle
 10
4064.3607211821
 20
27.9415087832
 30
0.0
 40
19.05
  0
CIRCLE
  5
103
100
AcDbEntity
  8
____
  6
CONTINUOUS
 62
         7
100
AcDbCircle
 10
4064.3607211821
 20
27.9415087832
 30
0.0
 40
21.0
  0
CIRCLE
  5
104
100
AcDbEntity
  8
____
  6
CONTINUOUS
 62
         7
100
AcDbCircle
 10
4064.3607211821
 20
27.9415087832
 30
0.0
 40
37.592
  0
CIRCLE
  5
105
100
AcDbEntity
  8
____
  6
CONTINUOUS
 62
         7
100
AcDbCircle
 10
4064.3607211821
 20
27.9415087832
 30
0.0
 40
1.95
  0
LINE
  5
106
100
AcDbEntity
  8
____
  6
DASHED
 62
         2
100
AcDbLine
 10
4098.8607211821
 20
15.0915087832
 30
0.0
 11
4099.4632541498
 21
14.4889758155
 31
0.0
  0
LINE
  5
107
100
AcDbEntity
  8
____
  6
DASHED
 62
         2
100
AcDbLine
 10
4099.4632541498
 20
41.394041751
 30
0.0
 11
4098.8607211821
 21
40.7915087832
 31
0.0
  0
CIRCLE
  5
108
100
AcDbEntity
  8
____
  6
DASHED
 62
         2
100
AcDbCircle
 10
4064.3607211821
 20
27.9415087832
 30
0.0
 40
34.925
  0
LINE
  5
109
100
AcDbEntity
  8
____
  6
CONTINUOUS
 62
         4
100
AcDbLine
 10
3773.337279934
 20
67.1349716186
 30
0.0
 11
3773.337279934
 21
97.6001357424
 31
0.0
  0
ARC
  5
10A
100
AcDbEntity
  8
____
  6
CONTINUOUS
 62
         7
100
AcDbCircle
 10
3772.337279934
 20
-8.6504912168
 30
0.0
 40
1.0
100
AcDbArc
 50
270.0
 51
360.0
  0
ARC
  5
10B
100
AcDbEntity
  8
____
  6
CONTINUOUS
 62
         7
100
AcDbCircle
 10
3785.037279934
 20
9.8915087832
 30
0.0
 40
1.0
100
AcDbArc
 50
270.0
 51
360.0
  0
ARC
  5
10C
100
AcDbEntity
  8
____
  6
CONTINUOUS
 62
         7
100
AcDbCircle
 10
3785.037279934
 20
45.9915087832
 30
0.0
 40
1.0
100
AcDbArc
 50
0.0
 51
90.0
  0
ARC
  5
10D
100
AcDbEntity
  8
____
  6
CONTINUOUS
 62
         7
100
AcDbCircle
 10
3772.337279934
 20
64.5335087832
 30
0.0
 40
1.0
100
AcDbArc
 50
0.0
 51
90.0
  0
LINE
  5
10E
100
AcDbEntity
  8
____
  6
CONTINUOUS
 62
         7
100
AcDbLine
 10
3786.037279934
 20
45.9915087832
 30
0.0
 11
3786.037279934
 21
9.8915087832
 31
0.0
  0
LINE
  5
10F
100
AcDbEntity
  8
____
  6
CONTINUOUS
 62
         7
100
AcDbLine
 10
3785.037279934
 20
8.8915087832
 30
0.0
 11
3777.337279934
 21
8.8915087832
 31
0.0
  0
LINE
  5
110
100
AcDbEntity
  8
____
  6
CONTINUOUS
 62
         7
100
AcDbLine
 10
3777.337279934
 20
46.9915087832
 30
0.0
 11
3785.037279934
 21
46.9915087832
 31
0.0
  0
LINE
  5
111
100
AcDbEntity
  8
____
  6
CONTINUOUS
 62
         7
100
AcDbLine
 10
3772.337279934
 20
-9.6504912168
 30
0.0
 11
3766.056279934
 21
-9.6504912168
 31
0.0
  0
LINE
  5
112
100
AcDbEntity
  8
____
  6
CONTINUOUS
 62
         7
100
AcDbLine
 10
3766.056279934
 20
65.5335087832
 30
0.0
 11
3772.337279934
 21
65.5335087832
 31
0.0
  0
LINE
  5
113
100
AcDbEntity
  8
____
  6
CONTINUOUS
 62
         7
100
AcDbLine
 10
3773.337279934
 20
64.5335087832
 30
0.0
 11
3773.337279934
 21
-8.6504912168
 31
0.0
  0
LINE
  5
114
100
AcDbEntity
  8
____
  6
CONTINUOUS
 62
         7
100
AcDbLine
 10
3777.337279934
 20
46.9915087832
 30
0.0
 11
3777.337279934
 21
8.8915087832
 31
0.0
  0
LINE
  5
115
100
AcDbEntity
  8
____
  6
CONTINUOUS
 62
         4
100
AcDbLine
 10
3777.337279934
 20
46.1915087832
 30
0.0
 11
3786.0170758311
 21
46.1915087832
 31
0.0
  0
LINE
  5
116
100
AcDbEntity
  8
____
  6
CONTINUOUS
 62
         4
100
AcDbLine
 10
3786.0170758311
 20
9.6915087832
 30
0.0
 11
3777.337279934
 21
9.6915087832
 31
0.0
  0
DIMENSION
  5
11A
100
AcDbEntity
  8
____
  6
CONTINUOUS
 62
         4
100
AcDbDimension
  2
*D0
 10
3777.337279934
 20
-31.9891748147
 30
0.0
 11
3773.7253356678
 21
-29.3641748147
 31
0.0
  3
DIMSTYLE1
100
AcDbAlignedDimension
 13
3777.337279934
 23
8.8915087832
 33
0.0
 14
3773.337279934
 24
-8.6504912168
 34
0.0
100
AcDbRotatedDimension
  0
LINE
  5
129
100
AcDbEntity
  8
____
  6
DASHED
 62
         2
100
AcDbLine
 10
3772.837279934
 20
6.9415087832
 30
0.0
 11
3772.837279934
 21
27.9415087832
 31
0.0
  0
DIMENSION
  5
12C
100
AcDbEntity
  8
____
  6
CONTINUOUS
 62
         4
100
AcDbDimension
  2
*D1
 10
3836.8600490819
 20
65.5335087832
 30
0.0
 11
3834.2350490819
 21
15.1834115248
 31
0.0
  3
DIMSTYLE1
100
AcDbAlignedDimension
 13
3772.337279934
 23
65.5335087832
 33
0.0
 14
3772.337279934
 24
-9.6504912168
 34
0.0
 50
90.0
100
AcDbRotatedDimension
  0
LINE
  5
138
100
AcDbEntity
  8
____
  6
DASHED
 62
         2
100
AcDbLine
 10
3773.337279934
 20
49.807534187
 30
0.0
 11
3772.837279934
 21
48.9415087832
 31
0.0
  0
LINE
  5
139
100
AcDbEntity
  8
____
  6
DASHED
 62
         2
100
AcDbLine
 10
3772.837279934
 20
48.9415087832
 30
0.0
 11
3772.837279934
 21
28.0040087832
 31
0.0
  0
ARC
  5
13A
100
AcDbEntity
  8
____
  6
DASHED
 62
         2
100
AcDbCircle
 10
3773.337279934
 20
46.4415087832
 30
0.0
 40
0.5
100
AcDbArc
 50
180.0
 51
270.0
  0
LINE
  5
13B
100
AcDbEntity
  8
____
  6
CONTINUOUS
 62
         7
100
AcDbLine
 10
3776.3938351986
 20
45.9415087832
 30
0.0
 11
3773.337279934
 21
45.9415087832
 31
0.0
  0
ARC
  5
13C
100
AcDbEntity
  8
____
  6
DASHED
 62
         2
100
AcDbCircle
 10
3773.337279934
 20
9.4415087832
 30
0.0
 40
0.5
100
AcDbArc
 50
90.0
 51
180.0
  0
LINE
  5
13D
100
AcDbEntity
  8
____
  6
CONTINUOUS
 62
         7
100
AcDbLine
 10
3776.3938351986
 20
9.9415087832
 30
0.0
 11
3773.337279934
 21
9.9415087832
 31
0.0
  0
LINE
  5
13E
100
AcDbEntity
  8
____
  6
DASHED
 62
         2
100
AcDbLine
 10
3773.337279934
 20
6.0754833795
 30
0.0
 11
3772.837279934
 21
6.9415087832
 31
0.0
  0
LINE
  5
13F
100
AcDbEntity
  8
____
  6
CONTINUOUS
 62
         7
100
AcDbLine
 10
3777.337279934
 20
46.9915087832
 30
0.0
 11
3776.7214960163
 21
46.1120782087
 31
0.0
  0
ARC
  5
140
100
AcDbEntity
  8
____
  6
CONTINUOUS
 62
         7
100
AcDbCircle
 10
3776.3938351986
 20
46.3415087832
 30
0.0
 40
0.4
100
AcDbArc
 50
270.0
 51
325.0
  0
LINE
  5
141
100
AcDbEntity
  8
____
  6
CONTINUOUS
 62
         7
100
AcDbLine
 10
3777.337279934
 20
8.8915087832
 30
0.0
 11
3776.7214960163
 21
9.7709393578
 31
0.0
  0
ARC
  5
142
100
AcDbEntity
  8
____
  6
CONTINUOUS
 62
         7
100
AcDbCircle
 10
3776.3938351986
 20
9.5415087832
 30
0.0
 40
0.4
100
AcDbArc
 50
35.0
 51
90.0
  0
LINE
  5
143
100
AcDbEntity
  8
____
  6
DASHED
 62
         2
100
AcDbLine
 10
3784.0887227755
 20
28.9415087832
 30
0.0
 11
3784.0887227755
 21
26.9415087832
 31
0.0
  0
LINE
  5
144
100
AcDbEntity
  8
____
  6
DASHED
 62
         2
100
AcDbLine
 10
3782.9146302032
 20
26.9415087832
 30
0.0
 11
3782.9146302032
 21
28.9415087832
 31
0.0
  0
LINE
  5
145
100
AcDbEntity
  8
____
  6
DASHED
 62
         2
100
AcDbLine
 10
3782.9146302032
 20
26.9415087832
 30
0.0
 11
3782.337279934
 21
27.9415087832
 31
0.0
  0
LINE
  5
146
100
AcDbEntity
  8
____
  6
DASHED
 62
         2
100
AcDbLine
 10
3786.037279934
 20
25.8165087832
 30
0.0
 11
3784.0887227755
 21
26.9415087832
 31
0.0
  0
LINE
  5
147
100
AcDbEntity
  8
____
  6
DASHED
 62
         2
100
AcDbLine
 10
3784.0887227755
 20
26.9415087832
 30
0.0
 11
3782.9146302032
 21
26.9415087832
 31
0.0
  0
LINE
  5
148
100
AcDbEntity
  8
____
  6
DASHED
 62
         2
100
AcDbLine
 10
3784.0887227755
 20
28.9415087832
 30
0.0
 11
3782.9146302032
 21
28.9415087832
 31
0.0
  0
LINE
  5
149
100
AcDbEntity
  8
____
  6
DASHED
 62
         2
100
AcDbLine
 10
3786.037279934
 20
30.0665087832
 30
0.0
 11
3784.0887227755
 21
28.9415087832
 31
0.0
  0
LINE
  5
14A
100
AcDbEntity
  8
____
  6
DASHED
 62
         2
100
AcDbLine
 10
3782.9146302032
 20
28.9415087832
 30
0.0
 11
3782.337279934
 21
27.9415087832
 31
0.0
  0
LINE
  5
14B
100
AcDbEntity
  8
____
  6
CONTINUOUS
 62
         7
100
AcDbLine
 10
3763.623594509
 20
63.1008233583
 30
0.0
 11
3766.056279934
 21
65.5335087832
 31
0.0
  0
LINE
  5
14C
100
AcDbEntity
  8
____
  6
CONTINUOUS
 62
         7
100
AcDbLine
 10
3763.623594509
 20
-7.2178057918
 30
0.0
 11
3766.056279934
 21
-9.6504912168
 31
0.0
  0
LINE
  5
14D
100
AcDbEntity
  8
____
  6
CONTINUOUS
 62
         7
100
AcDbLine
 10
3766.056279934
 20
65.5335087832
 30
0.0
 11
3766.056279934
 21
-9.6504912168
 31
0.0
  0
ARC
  5
14E
100
AcDbEntity
  8
____
  6
CONTINUOUS
 62
         7
100
AcDbCircle
 10
3763.0579090841
 20
63.6665087832
 30
0.0
 40
0.8
100
AcDbArc
 50
270.0
 51
315.0
  0
ARC
  5
14F
100
AcDbEntity
  8
____
  6
CONTINUOUS
 62
         7
100
AcDbCircle
 10
3763.0579090841
 20
-7.7834912168
 30
0.0
 40
0.8
100
AcDbArc
 50
45.0
 51
90.0
  0
ARC
  5
150
100
AcDbEntity
  8
____
  6
CONTINUOUS
 62
         7
100
AcDbCircle
 10
3776.3938351986
 20
-179.8660832679
 30
0.0
 40
0.4
100
AcDbArc
 50
35.0
 51
90.0
  0
LINE
  5
151
100
AcDbEntity
  8
____
  6
CONTINUOUS
 62
         7
100
AcDbLine
 10
3777.337279934
 20
-180.5160832679
 30
0.0
 11
3776.7214960163
 21
-179.6366526934
 31
0.0
  0
ARC
  5
152
100
AcDbEntity
  8
____
  6
CONTINUOUS
 62
         7
100
AcDbCircle
 10
3776.3938351986
 20
-143.0660832679
 30
0.0
 40
0.4
100
AcDbArc
 50
270.0
 51
325.0
  0
LINE
  5
153
100
AcDbEntity
  8
____
  6
CONTINUOUS
 62
         7
100
AcDbLine
 10
3777.337279934
 20
-142.4160832679
 30
0.0
 11
3776.7214960163
 21
-143.2955138424
 31
0.0
  0
LINE
  5
154
100
AcDbEntity
  8
____
  6
CONTINUOUS
 62
         7
100
AcDbLine
 10
3773.337279934
 20
-183.3321086717
 30
0.0
 11
3772.837279934
 21
-182.4660832679
 31
0.0
  0
LINE
  5
155
100
AcDbEntity
  8
____
  6
CONTINUOUS
 62
         7
100
AcDbLine
 10
3776.3938351986
 20
-179.4660832679
 30
0.0
 11
3773.337279934
 21
-179.4660832679
 31
0.0
  0
ARC
  5
156
100
AcDbEntity
  8
____
  6
CONTINUOUS
 62
         7
100
AcDbCircle
 10
3773.337279934
 20
-179.9660832679
 30
0.0
 40
0.5
100
AcDbArc
 50
90.0
 51
180.0
  0
LINE
  5
157
100
AcDbEntity
  8
____
  6
CONTINUOUS
 62
         7
100
AcDbLine
 10
3776.3938351986
 20
-143.4660832679
 30
0.0
 11
3773.337279934
 21
-143.4660832679
 31
0.0
  0
ARC
  5
158
100
AcDbEntity
  8
____
  6
CONTINUOUS
 62
         7
100
AcDbCircle
 10
3773.337279934
 20
-142.9660832679
 30
0.0
 40
0.5
100
AcDbArc
 50
180.0
 51
270.0
  0
LINE
  5
159
100
AcDbEntity
  8
____
  6
CONTINUOUS
 62
         7
100
AcDbLine
 10
3772.837279934
 20
-140.4660832679
 30
0.0
 11
3772.837279934
 21
-142.9660832679
 31
0.0
  0
LINE
  5
15A
100
AcDbEntity
  8
____
  6
CONTINUOUS
 62
         7
100
AcDbLine
 10
3773.337279934
 20
-139.6000578641
 30
0.0
 11
3772.837279934
 21
-140.4660832679
 31
0.0
  0
LINE
  5
15B
100
AcDbEntity
  8
____
  6
CONTINUOUS
 62
         7
100
AcDbLine
 10
3772.837279934
 20
-182.4660832679
 30
0.0
 11
3772.837279934
 21
-179.9660832679
 31
0.0
  0
LINE
  5
15C
100
AcDbEntity
  8
____
  6
CONTINUOUS
 62
         4
100
AcDbLine
 10
3786.0170758311
 20
-179.7160832679
 30
0.0
 11
3776.7771139034
 21
-179.7160832679
 31
0.0
  0
LINE
  5
15D
100
AcDbEntity
  8
____
  6
CONTINUOUS
 62
         4
100
AcDbLine
 10
3776.7771139034
 20
-143.2160832679
 30
0.0
 11
3786.0170758311
 21
-143.2160832679
 31
0.0
  0
LINE
  5
15E
100
AcDbEntity
  8
____
  6
CONTINUOUS
 62
         7
100
AcDbLine
 10
3773.337279934
 20
-124.8740832679
 30
0.0
 11
3773.337279934
 21
-143.4660832679
 31
0.0
  0
LINE
  5
15F
100
AcDbEntity
  8
____
  6
CONTINUOUS
 62
         7
100
AcDbLine
 10
3766.056279934
 20
-123.8740832679
 30
0.0
 11
3772.337279934
 21
-123.8740832679
 31
0.0
  0
LINE
  5
160
100
AcDbEntity
  8
____
  6
CONTINUOUS
 62
         7
100
AcDbLine
 10
3772.337279934
 20
-199.0580832679
 30
0.0
 11
3766.056279934
 21
-199.0580832679
 31
0.0
  0
LINE
  5
161
100
AcDbEntity
  8
____
  6
CONTINUOUS
 62
         7
100
AcDbLine
 10
3777.337279934
 20
-142.4160832679
 30
0.0
 11
3785.037279934
 21
-142.4160832679
 31
0.0
  0
LINE
  5
162
100
AcDbEntity
  8
____
  6
CONTINUOUS
 62
         7
100
AcDbLine
 10
3785.037279934
 20
-180.5160832679
 30
0.0
 11
3777.337279934
 21
-180.5160832679
 31
0.0
  0
LINE
  5
163
100
AcDbEntity
  8
____
  6
CONTINUOUS
 62
         7
100
AcDbLine
 10
3786.037279934
 20
-143.4160832679
 30
0.0
 11
3786.037279934
 21
-179.5160832679
 31
0.0
  0
ARC
  5
164
100
AcDbEntity
  8
____
  6
CONTINUOUS
 62
         7
100
AcDbCircle
 10
3772.337279934
 20
-124.8740832679
 30
0.0
 40
1.0
100
AcDbArc
 50
0.0
 51
90.0
  0
ARC
  5
165
100
AcDbEntity
  8
____
  6
CONTINUOUS
 62
         7
100
AcDbCircle
 10
3785.037279934
 20
-143.4160832679
 30
0.0
 40
1.0
100
AcDbArc
 50
0.0
 51
90.0
  0
ARC
  5
166
100
AcDbEntity
  8
____
  6
CONTINUOUS
 62
         7
100
AcDbCircle
 10
3785.037279934
 20
-179.5160832679
 30
0.0
 40
1.0
100
AcDbArc
 50
270.0
 51
360.0
  0
ARC
  5
167
100
AcDbEntity
  8
____
  6
CONTINUOUS
 62
         7
100
AcDbCircle
 10
3772.337279934
 20
-198.0580832679
 30
0.0
 40
1.0
100
AcDbArc
 50
270.0
 51
360.0
  0
LINE
  5
168
100
AcDbEntity
  8
____
  6
CONTINUOUS
 62
         7
100
AcDbLine
 10
3773.337279934
 20
-179.4660832679
 30
0.0
 11
3773.337279934
 21
-198.0580832679
 31
0.0
  0
LINE
  5
169
100
AcDbEntity
  8
____
  6
CONTINUOUS
 62
         7
100
AcDbLine
 10
3786.037279934
 20
-163.5910832679
 30
0.0
 11
3786.037279934
 21
-159.3410832679
 31
0.0
  0
LINE
  5
16A
100
AcDbEntity
  8
____
  6
CONTINUOUS
 62
         7
100
AcDbLine
 10
3782.9146302032
 20
-160.4660832679
 30
0.0
 11
3782.337279934
 21
-161.4660832679
 31
0.0
  0
LINE
  5
16B
100
AcDbEntity
  8
____
  6
CONTINUOUS
 62
         7
100
AcDbLine
 10
3786.037279934
 20
-159.3410832679
 30
0.0
 11
3784.0887227755
 21
-160.4660832679
 31
0.0
  0
LINE
  5
16C
100
AcDbEntity
  8
____
  6
CONTINUOUS
 62
         7
100
AcDbLine
 10
3784.0887227755
 20
-160.4660832679
 30
0.0
 11
3782.9146302032
 21
-160.4660832679
 31
0.0
  0
LINE
  5
16D
100
AcDbEntity
  8
____
  6
CONTINUOUS
 62
         7
100
AcDbLine
 10
3784.0887227755
 20
-162.4660832679
 30
0.0
 11
3782.9146302032
 21
-162.4660832679
 31
0.0
  0
LINE
  5
16E
100
AcDbEntity
  8
____
  6
CONTINUOUS
 62
         7
100
AcDbLine
 10
3786.037279934
 20
-163.5910832679
 30
0.0
 11
3784.0887227755
 21
-162.4660832679
 31
0.0
  0
LINE
  5
16F
100
AcDbEntity
  8
____
  6
CONTINUOUS
 62
         7
100
AcDbLine
 10
3782.9146302032
 20
-162.4660832679
 30
0.0
 11
3782.337279934
 21
-161.4660832679
 31
0.0
  0
LINE
  5
170
100
AcDbEntity
  8
____
  6
CONTINUOUS
 62
         4
100
AcDbLine
 10
3782.9146302032
 20
-162.4660832679
 30
0.0
 11
3782.9146302032
 21
-160.4660832679
 31
0.0
  0
LINE
  5
171
100
AcDbEntity
  8
____
  6
CONTINUOUS
 62
         4
100
AcDbLine
 10
3784.0887227755
 20
-160.4660832679
 30
0.0
 11
3784.0887227755
 21
-162.4660832679
 31
0.0
  0
LINE
  5
172
100
AcDbEntity
  8
____
  6
CONTINUOUS
 62
         7
100
AcDbLine
 10
3747.937279934
 20
-126.5410832679
 30
0.0
 11
3763.0579090841
 21
-126.5410832679
 31
0.0
  0
LINE
  5
173
100
AcDbEntity
  8
____
  6
CONTINUOUS
 62
         7
100
AcDbLine
 10
3747.937279934
 20
-196.3910832679
 30
0.0
 11
3763.0579090841
 21
-196.3910832679
 31
0.0
  0
LINE
  5
174
100
AcDbEntity
  8
____
  6
CONTINUOUS
 62
         7
100
AcDbLine
 10
3763.623594509
 20
-126.3067686928
 30
0.0
 11
3766.056279934
 21
-123.8740832679
 31
0.0
  0
ARC
  5
175
100
AcDbEntity
  8
____
  6
CONTINUOUS
 62
         7
100
AcDbCircle
 10
3763.0579090841
 20
-125.7410832679
 30
0.0
 40
0.8
100
AcDbArc
 50
270.0
 51
315.0
  0
LINE
  5
176
100
AcDbEntity
  8
____
  6
CONTINUOUS
 62
         7
100
AcDbLine
 10
3763.623594509
 20
-196.6253978429
 30
0.0
 11
3766.056279934
 21
-199.0580832679
 31
0.0
  0
ARC
  5
177
100
AcDbEntity
  8
____
  6
CONTINUOUS
 62
         7
100
AcDbCircle
 10
3763.0579090841
 20
-197.1910832679
 30
0.0
 40
0.8
100
AcDbArc
 50
45.0
 51
90.0
  0
DIMENSION
  5
17A
100
AcDbEntity
  8
____
  6
CONTINUOUS
 62
         4
100
AcDbDimension
  2
*D2
 10
3728.337279934
 20
148.3890090393
 30
0.0
 11
3745.0731209249
 21
151.0140090393
 31
0.0
  3
DIMSTYLE1
100
AcDbAlignedDimension
 13
3728.337279934
 23
67.6665087832
 33
0.0
 14
3773.337279934
 24
64.5335087832
 34
0.0
100
AcDbRotatedDimension
  0
DIMENSION
  5
188
100
AcDbEntity
  8
____
  6
CONTINUOUS
 62
         4
100
AcDbDimension
  2
*D3
 10
3626.587279934
 20
162.7568939258
 30
0.0
 11
3697.562279934
 21
165.3818939258
 31
0.0
  3
DIMSTYLE1
100
AcDbAlignedDimension
 13
3626.587279934
 23
45.8659693413
 33
0.0
 14
3786.037279934
 24
45.9915087832
 34
0.0
100
AcDbRotatedDimension
  0
LINE
  5
194
100
AcDbEntity
  8
____
  6
CONTINUOUS
 62
         7
100
AcDbLine
 10
3681.587279934
 20
-171.8624247313
 30
0.0
 11
3681.587279934
 21
-151.0697418045
 31
0.0
  0
LINE
  5
195
100
AcDbEntity
  8
____
  6
CONTINUOUS
 62
         7
100
AcDbLine
 10
3681.587279934
 20
-151.0697418045
 30
0.0
 11
3687.5896104765
 21
-161.4660832679
 31
0.0
  0
LINE
  5
196
100
AcDbEntity
  8
____
  6
CONTINUOUS
 62
         7
100
AcDbLine
 10
3681.587279934
 20
-171.8624247313
 30
0.0
 11
3687.5896104765
 21
-161.4660832679
 31
0.0
  0
INSERT
  5
1E1
100
AcDbEntity
  8
0
  6
CONTINUOUS
100
AcDbBlockReference
  2
*X4
 10
0.0
 20
0.0
 30
0.0
  0
TEXT
  5
1E3
100
AcDbEntity
  8
____
  6
CONTINUOUS
 62
         2
100
AcDbText
 10
4048.9324989647
 20
102.127345462
 30
0.0
 40
4.5
  1
531196
 41
0.98
  7
BOX
100
AcDbText
  0
ENDSEC
  0
SECTION
  2
OBJECTS
  0
DICTIONARY
  5
19
100
AcDbDictionary
  3
ACAD_GROUP
350
1A
  3
ACAD_MLINESTYLE
350
1B
  0
DICTIONARY
  5
1A
102
{ACAD_REACTORS
330
19
102
}
100
AcDbDictionary
  0
DICTIONARY
  5
1B
102
{ACAD_REACTORS
330
19
102
}
100
AcDbDictionary
  3
STANDARD
350
1C
  0
MLINESTYLE
  5
1C
102
{ACAD_REACTORS
330
1B
102
}
100
AcDbMlineStyle
  2
STANDARD
 70
         0
  3

 62
         0
 51
90.0
 52
90.0
 71
         2
 49
0.5
 62
       256
  6
BYLAYER
 49
-0.5
 62
       256
  6
BYLAYER
  0
ENDSEC
  0
EOF
