  0
SECTION
  2
HEADER
  9
$ACADVER
  1
AC1014
  9
$ACADMAINTVER
 70
         0
  9
$DWGCODEPAGE
  3
BIG5
  9
$INSBASE
 10
0.0
 20
0.0
 30
0.0
  9
$EXTMIN
 10
1151.9794406816
 20
-98.4079681888
 30
0.0
  9
$EXTMAX
 10
1837.695233964
 20
247.3086657785
 30
0.0
  9
$LIMMIN
 10
0.0
 20
0.0
  9
$LIMMAX
 10
0.0
 20
0.0
  9
$ORTHOMODE
 70
         0
  9
$REGENMODE
 70
         1
  9
$FILLMODE
 70
         1
  9
$QTEXTMODE
 70
         0
  9
$MIRRTEXT
 70
         1
  9
$DRAGMODE
 70
         2
  9
$LTSCALE
 40
1.0
  9
$OSMODE
 70
         0
  9
$ATTMODE
 70
         1
  9
$TEXTSIZE
 40
1.0
  9
$TRACEWID
 40
0.05
  9
$TEXTSTYLE
  7
STANDARD
  9
$CLAYER
  8
0
  9
$CELTYPE
  6
CONTINUOUS
  9
$CECOLOR
 62
        16
  9
$CELTSCALE
 40
1.0
  9
$DELOBJ
 70
         1
  9
$DISPSILH
 70
         0
  9
$DIMSCALE
 40
1.0
  9
$DIMASZ
 40
0.18
  9
$DIMEXO
 40
0.0625
  9
$DIMDLI
 40
0.38
  9
$DIMRND
 40
0.0
  9
$DIMDLE
 40
0.0
  9
$DIMEXE
 40
0.25
  9
$DIMTP
 40
0.01
  9
$DIMTM
 40
-0.01
  9
$DIMTXT
 40
2.7
  9
$DIMCEN
 40
0.09
  9
$DIMTSZ
 40
0.0
  9
$DIMTOL
 70
         0
  9
$DIMLIM
 70
         0
  9
$DIMTIH
 70
         1
  9
$DIMTOH
 70
         1
  9
$DIMSE1
 70
         0
  9
$DIMSE2
 70
         0
  9
$DIMTAD
 70
         0
  9
$DIMZIN
 70
         0
  9
$DIMBLK
  1

  9
$DIMASO
 70
         1
  9
$DIMSHO
 70
         1
  9
$DIMPOST
  1

  9
$DIMAPOST
  1

  9
$DIMALT
 70
         0
  9
$DIMALTD
 70
         2
  9
$DIMALTF
 40
25.4
  9
$DIMLFAC
 40
1.0
  9
$DIMTOFL
 70
         0
  9
$DIMTVP
 40
0.0
  9
$DIMTIX
 70
         0
  9
$DIMSOXD
 70
         0
  9
$DIMSAH
 70
         0
  9
$DIMBLK1
  1

  9
$DIMBLK2
  1

  9
$DIMSTYLE
  2
STANDARD
  9
$DIMCLRD
 70
         0
  9
$DIMCLRE
 70
         0
  9
$DIMCLRT
 70
        16
  9
$DIMTFAC
 40
1.0
  9
$DIMGAP
 40
0.09
  9
$DIMJUST
 70
         0
  9
$DIMSD1
 70
         0
  9
$DIMSD2
 70
         0
  9
$DIMTOLJ
 70
         1
  9
$DIMTZIN
 70
         0
  9
$DIMALTZ
 70
         0
  9
$DIMALTTZ
 70
         0
  9
$DIMFIT
 70
         3
  9
$DIMUPT
 70
         0
  9
$DIMUNIT
 70
         2
  9
$DIMDEC
 70
         4
  9
$DIMTDEC
 70
         4
  9
$DIMALTU
 70
         2
  9
$DIMALTTD
 70
         2
  9
$DIMTXSTY
  7
STANDARD
  9
$DIMAUNIT
 70
         0
  9
$LUNITS
 70
         2
  9
$LUPREC
 70
        10
  9
$SKETCHINC
 40
0.1
  9
$FILLETRAD
 40
0.0
  9
$AUNITS
 70
         0
  9
$AUPREC
 70
         0
  9
$MENU
  1
acad
  9
$ELEVATION
 40
0.0
  9
$PELEVATION
 40
0.0
  9
$THICKNESS
 40
0.0
  9
$LIMCHECK
 70
         0
  9
$BLIPMODE
 70
         1
  9
$CHAMFERA
 40
0.0
  9
$CHAMFERB
 40
0.0
  9
$CHAMFERC
 40
0.0
  9
$CHAMFERD
 40
0.0
  9
$SKPOLY
 70
         0
  9
$TDCREATE
 40
0.000000000
  9
$TDUPDATE
 40
0.000000000
  9
$TDINDWG
 40
0.0000000000
  9
$TDUSRTIMER
 40
0.0000000000
  9
$USRTIMER
 70
         1
  9
$ANGBASE
 50
0.0
  9
$ANGDIR
 70
         0
  9
$PDMODE
 70
         2
  9
$PDSIZE
 40
0.0
  9
$PLINEWID
 40
0.0
  9
$COORDS
 70
         1
  9
$SPLFRAME
 70
         0
  9
$SPLINETYPE
 70
         6
  9
$SPLINESEGS
 70
         8
  9
$ATTDIA
 70
         0
  9
$ATTREQ
 70
         1
  9
$HANDLING
 70
         1
  9
$HANDSEED
  5
795
  9
$SURFTAB1
 70
         6
  9
$SURFTAB2
 70
         6
  9
$SURFTYPE
 70
         6
  9
$SURFU
 70
         6
  9
$SURFV
 70
         6
  9
$UCSNAME
  2

  9
$UCSORG
 10
0.0
 20
0.0
 30
0.0
  9
$UCSXDIR
 10
1.0
 20
0.0
 30
0.0
  9
$UCSYDIR
 10
0.0
 20
1.0
 30
0.0
  9
$PUCSNAME
  2

  9
$PUCSORG
 10
0.0
 20
0.0
 30
0.0
  9
$PUCSXDIR
 10
1.0
 20
0.0
 30
0.0
  9
$PUCSYDIR
 10
0.0
 20
1.0
 30
0.0
  9
$USERI1
 70
         0
  9
$USERI2
 70
         0
  9
$USERI3
 70
         0
  9
$USERI4
 70
         0
  9
$USERI5
 70
         0
  9
$USERR1
 40
0.0
  9
$USERR2
 40
0.0
  9
$USERR3
 40
0.0
  9
$USERR4
 40
0.0
  9
$USERR5
 40
0.0
  9
$WORLDVIEW
 70
         1
  9
$SHADEDGE
 70
         3
  9
$SHADEDIF
 70
        70
  9
$TILEMODE
 70
         1
  9
$MAXACTVP
 70
        16
  9
$PINSBASE
 10
0.0
 20
0.0
 30
0.0
  9
$PLIMCHECK
 70
         0
  9
$PEXTMIN
 10
1.0000000000E+20
 20
1.0000000000E+20
 30
1.0000000000E+20
  9
$PEXTMAX
 10
-1.0000000000E+20
 20
-1.0000000000E+20
 30
-1.0000000000E+20
  9
$PLIMMIN
 10
0.0
 20
0.0
  9
$PLIMMAX
 10
12.0
 20
9.0
  9
$UNITMODE
 70
         0
  9
$VISRETAIN
 70
         0
  9
$PLINEGEN
 70
         1
  9
$PSLTSCALE
 70
         0
  9
$TREEDEPTH
 70
      3020
  9
$PICKSTYLE
 70
         1
  9
$CMLSTYLE
  2
STANDARD
  9
$CMLJUST
 70
         0
  9
$CMLSCALE
 40
1.0
  9
$PROXYGRAPHICS
 70
         0
  9
$MEASUREMENT
 70
         0
  0
ENDSEC
  0
SECTION
  2
CLASSES
  0
CLASS
  1
LWPOLYLINE
  2
AcDbPolyline
  3
"AutoCAD"
 90
        0
280
         0
281
         1
  0
CLASS
  1
IMAGE
  2
AcDbRasterImage
  3
ISM
 90
      127
280
         0
281
         1
  0
CLASS
  1
OLE2FRAME
  2
AcDbOle2Frame
  3
""
 90
        0
280
         0
281
         1
  0
CLASS
  1
HATCH
  2
AcDbHatch
  3
"ACAD_SEDONA"
 90
        0
280
         0
281
         1
  0
CLASS
  1
DICTIONARYVAR
  2
AcDbDictionaryVar
  3
"AutoCAD"
 90
        0
280
         0
281
         0
  0
CLASS
  1
RASTERVARIABLES
  2
AcDbRasterVariables
  3
ISM
 90
        0
280
         0
281
         0
  0
CLASS
  1
IMAGEDEF
  2
AcDbRasterImageDef
  3
ISM
 90
        0
280
         0
281
         0
  0
CLASS
  1
IMAGEDEF_REACTOR
  2
AcDbRasterImageDefReactor
  3
ISM
 90
        1
280
         0
281
         0
  0
CLASS
  1
IDBUFFER
  2
AcDbIdBuffer
  3
"Acad"
 90
        0
280
         0
281
         0
  0
CLASS
  1
SPATIAL_FILTER
  2
AcDbSpatialFilter
  3
"Acad"
 90
        0
280
         0
281
         0
  0
CLASS
  1
XRECORD
  2
AcDbXrecord
  3
"<Built In>"
 90
        0
280
         0
281
         0
  0
CLASS
  1
SORTENTSTABLE
  2
AcDbSortentsTable
  3
"AutoCAD"
 90
        0
280
         0
281
         0
  0
CLASS
  1
LAYER_INDEX
  2
AcDbLayerIndex
  3
"Acad"
 90
        0
280
         0
281
         0
  0
CLASS
  1
SPATIAL_INDEX
  2
AcDbSpatialIndex
  3
"Acad"
 90
        0
280
         0
281
         0
  0
CLASS
  1
OBJECT_PTR
  2
CAseDLPNTableRecord
  3
"ASE-LPNTableRecord"
 90
        1
280
         0
281
         0
  0
CLASS
  1
LAYOUT
  2
AcDbLayout
  3
"AutoCAD 2000"
 90
        1
280
         0
281
         0
  0
CLASS
  1
PLOTSETTINGS
  2
AcDbPlotSettings
  3
"AutoCAD 2000"
 90
        1
280
         0
281
         0
  0
CLASS
  1
ACDBDICTIONARYWDFLT
  2
AcDbDictionaryWithDefault
  3
"AutoCAD 2000"
 90
        1
280
         0
281
         0
  0
CLASS
  1
ACDBPLACEHOLDER
  2
AcDbPlaceHolder
  3
"AutoCAD 2000"
 90
        1
280
         0
281
         0
  0
CLASS
  1
VBA_PROJECT
  2
AcDbVbaProject
  3
"acadvba"
 90
        1
280
         0
281
         0
  0
CLASS
  1
WIPEOUT
  2
AcDbWipeout
  3
WipeOut|AutoCAD Express Tool|expresstools@autodesk.com
 90
      127
280
         0
281
         1
  0
CLASS
  1
WIPEOUTVARIABLES
  2
AcDbWipeoutVariables
  3
WipeOut|AutoCAD Express Tool|expresstools@autodesk.com
 90
        0
280
         0
281
         0
  0
CLASS
  1
RTEXT
  2
RText
  3
RText|AutoCAD Express Tool|expresstools@autodesk.com
 90
        0
280
         0
281
         1
  0
CLASS
  1
ARCALIGNEDTEXT
  2
AcDbArcAlignedText
  3
ATEXT|AutoCAD Express Tool|expresstools@autodesk.com
 90
        0
280
         0
281
         1
  0
ENDSEC
  0
SECTION
  2
TABLES
  0
TABLE
  2
VPORT
  5
7
100
AcDbSymbolTable
 70
         1
  0
VPORT
  5
15
100
AcDbSymbolTableRecord
100
AcDbViewportTableRecord
  2
*ACTIVE
 70
         0
 10
0.0
 20
0.0
 11
1.0
 21
1.0
 12
1494.8373373228
 22
74.4503487949
 13
0.0
 23
0.0
 14
1.0
 24
1.0
 15
0.0
 25
0.0
 16
0.0
 26
0.0
 36
1.0
 17
0.0
 27
0.0
 37
0.0
 40
345.7166339673
 41
1.9834619625
 42
50.0
 43
0.0
 44
0.0
 50
0.0
 51
0.0
 71
         0
 72
       100
 73
         1
 74
         1
 75
         0
 76
         0
 77
         0
 78
         0
  0
ENDTAB
  0
TABLE
  2
LTYPE
  5
4
100
AcDbSymbolTable
 70
         6
  0
LTYPE
  5
11
100
AcDbSymbolTableRecord
100
AcDbLinetypeTableRecord
  2
BYBLOCK
 70
        64
  3

 72
        65
 73
         0
 40
0.0
  0
LTYPE
  5
12
100
AcDbSymbolTableRecord
100
AcDbLinetypeTableRecord
  2
BYLAYER
 70
        64
  3

 72
        65
 73
         0
 40
0.0
  0
LTYPE
  5
13
100
AcDbSymbolTableRecord
100
AcDbLinetypeTableRecord
  2
CONTINUOUS
 70
        64
  3
Solid line
 72
        65
 73
         0
 40
0.0
  0
LTYPE
  5
1D
100
AcDbSymbolTableRecord
100
AcDbLinetypeTableRecord
  2
DASHED
 70
        64
  3
_ _ _ _ _ _ _ _ _ _ _ _ _ _ _ _
 72
        65
 73
         2
 40
0.2
 49
0.1
 74
         0
 49
-0.1
 74
         0
  0
LTYPE
  5
1E
100
AcDbSymbolTableRecord
100
AcDbLinetypeTableRecord
  2
CENTER
 70
        64
  3
___ _ ___ _ ___ _ ___ _ ___ _ ___ _ ___ _ ___ _
 72
        65
 73
         4
 40
0.95
 49
0.625
 74
         0
 49
-0.125
 74
         0
 49
0.075
 74
         0
 49
-0.125
 74
         0
  0
LTYPE
  5
1F
100
AcDbSymbolTableRecord
100
AcDbLinetypeTableRecord
  2
PHANTOM
 70
        64
  3
______  __  __  ______  __  __  ______  __  __  
 72
        65
 73
         6
 40
1.025
 49
0.625
 74
         0
 49
-0.125
 74
         0
 49
0.075
 74
         0
 49
-0.125
 74
         0
 49
0.075
 74
         0
 49
-0.125
 74
         0
  0
ENDTAB
  0
TABLE
  2
LAYER
  5
2
100
AcDbSymbolTable
 70
         9
  0
LAYER
  5
14
100
AcDbSymbolTableRecord
100
AcDbLayerTableRecord
  2
0
 70
         0
 62
         7
  6
CONTINUOUS
  0
LAYER
  5
21
100
AcDbSymbolTableRecord
100
AcDbLayerTableRecord
  2
_____U
 70
         1
 62
         7
  6
CONTINUOUS
  0
LAYER
  5
22
100
AcDbSymbolTableRecord
100
AcDbLayerTableRecord
  2
___T______
 70
         1
 62
         7
  6
CONTINUOUS
  0
LAYER
  5
23
100
AcDbSymbolTableRecord
100
AcDbLayerTableRecord
  2
______L_______
 70
         1
 62
         7
  6
CONTINUOUS
  0
LAYER
  5
24
100
AcDbSymbolTableRecord
100
AcDbLayerTableRecord
  2
ERTGDAOZ____
 70
         1
 62
         7
  6
CONTINUOUS
  0
LAYER
  5
25
100
AcDbSymbolTableRecord
100
AcDbLayerTableRecord
  2
_____M_____M____
 70
         1
 62
         7
  6
CONTINUOUS
  0
LAYER
  5
26
100
AcDbSymbolTableRecord
100
AcDbLayerTableRecord
  2
_Y__________
 70
         0
 62
         7
  6
CONTINUOUS
  0
LAYER
  5
27
100
AcDbSymbolTableRecord
100
AcDbLayerTableRecord
  2
L1_115
 70
         0
 62
         7
  6
CONTINUOUS
  0
LAYER
  5
103
100
AcDbSymbolTableRecord
100
AcDbLayerTableRecord
  2
DEFPOINTS
 70
         0
 62
        -7
  6
CONTINUOUS
  0
ENDTAB
  0
TABLE
  2
STYLE
  5
3
100
AcDbSymbolTable
 70
        58
  0
STYLE
  5
17
100
AcDbSymbolTableRecord
100
AcDbTextStyleTableRecord
  2
STANDARD
 70
         0
 40
0.0
 41
1.0
 50
0.0
 71
         0
 42
0.0
  3
txt
  4

  0
STYLE
  5
10C
100
AcDbSymbolTableRecord
100
AcDbTextStyleTableRecord
  2
BOX
 70
         0
 40
1.0
 41
1.0
 50
0.0
 71
         0
 42
0.2
  3
txt.shx
  4

  0
STYLE
  5
1CE
100
AcDbSymbolTableRecord
100
AcDbTextStyleTableRecord
  2
BOX
 70
         0
 40
1.0
 41
1.0
 50
0.0
 71
         0
 42
0.2
  3
txt.shx
  4

  0
STYLE
  5
1DC
100
AcDbSymbolTableRecord
100
AcDbTextStyleTableRecord
  2
BOX
 70
         0
 40
1.0
 41
1.0
 50
0.0
 71
         0
 42
0.2
  3
txt.shx
  4

  0
STYLE
  5
247
100
AcDbSymbolTableRecord
100
AcDbTextStyleTableRecord
  2
BOX
 70
         0
 40
1.0
 41
1.0
 50
0.0
 71
         0
 42
0.2
  3
txt.shx
  4

  0
STYLE
  5
2CA
100
AcDbSymbolTableRecord
100
AcDbTextStyleTableRecord
  2
BOX
 70
         0
 40
1.0
 41
1.0
 50
0.0
 71
         0
 42
0.2
  3
txt.shx
  4

  0
STYLE
  5
2D9
100
AcDbSymbolTableRecord
100
AcDbTextStyleTableRecord
  2
BOX
 70
         0
 40
1.0
 41
1.0
 50
0.0
 71
         0
 42
0.2
  3
txt.shx
  4

  0
STYLE
  5
2E7
100
AcDbSymbolTableRecord
100
AcDbTextStyleTableRecord
  2
BOX
 70
         0
 40
1.0
 41
1.0
 50
0.0
 71
         0
 42
0.2
  3
txt.shx
  4

  0
STYLE
  5
2F5
100
AcDbSymbolTableRecord
100
AcDbTextStyleTableRecord
  2
BOX
 70
         0
 40
1.0
 41
1.0
 50
0.0
 71
         0
 42
0.2
  3
txt.shx
  4

  0
STYLE
  5
303
100
AcDbSymbolTableRecord
100
AcDbTextStyleTableRecord
  2
BOX
 70
         0
 40
1.0
 41
1.0
 50
0.0
 71
         0
 42
0.2
  3
txt.shx
  4

  0
STYLE
  5
332
100
AcDbSymbolTableRecord
100
AcDbTextStyleTableRecord
  2
BOX
 70
         0
 40
1.0
 41
1.0
 50
0.0
 71
         0
 42
0.2
  3
txt.shx
  4

  0
STYLE
  5
342
100
AcDbSymbolTableRecord
100
AcDbTextStyleTableRecord
  2
BOX
 70
         0
 40
1.0
 41
1.0
 50
0.0
 71
         0
 42
0.2
  3
txt.shx
  4

  0
STYLE
  5
350
100
AcDbSymbolTableRecord
100
AcDbTextStyleTableRecord
  2
BOX
 70
         0
 40
1.0
 41
1.0
 50
0.0
 71
         0
 42
0.2
  3
txt.shx
  4

  0
STYLE
  5
35E
100
AcDbSymbolTableRecord
100
AcDbTextStyleTableRecord
  2
BOX
 70
         0
 40
1.0
 41
1.0
 50
0.0
 71
         0
 42
0.2
  3
txt.shx
  4

  0
STYLE
  5
381
100
AcDbSymbolTableRecord
100
AcDbTextStyleTableRecord
  2
BOX
 70
         0
 40
1.0
 41
1.0
 50
0.0
 71
         0
 42
0.2
  3
txt.shx
  4

  0
STYLE
  5
38F
100
AcDbSymbolTableRecord
100
AcDbTextStyleTableRecord
  2
BOX
 70
         0
 40
1.0
 41
1.0
 50
0.0
 71
         0
 42
0.2
  3
txt.shx
  4

  0
STYLE
  5
39D
100
AcDbSymbolTableRecord
100
AcDbTextStyleTableRecord
  2
BOX
 70
         0
 40
1.0
 41
1.0
 50
0.0
 71
         0
 42
0.2
  3
txt.shx
  4

  0
STYLE
  5
3AB
100
AcDbSymbolTableRecord
100
AcDbTextStyleTableRecord
  2
BOX
 70
         0
 40
1.0
 41
1.0
 50
0.0
 71
         0
 42
0.2
  3
txt.shx
  4

  0
STYLE
  5
3B9
100
AcDbSymbolTableRecord
100
AcDbTextStyleTableRecord
  2
BOX
 70
         0
 40
1.0
 41
1.0
 50
0.0
 71
         0
 42
0.2
  3
txt.shx
  4

  0
STYLE
  5
4ED
100
AcDbSymbolTableRecord
100
AcDbTextStyleTableRecord
  2
BOX
 70
         0
 40
1.0
 41
1.0
 50
0.0
 71
         0
 42
0.2
  3
txt.shx
  4

  0
STYLE
  5
4FB
100
AcDbSymbolTableRecord
100
AcDbTextStyleTableRecord
  2
BOX
 70
         0
 40
1.0
 41
1.0
 50
0.0
 71
         0
 42
0.2
  3
txt.shx
  4

  0
STYLE
  5
517
100
AcDbSymbolTableRecord
100
AcDbTextStyleTableRecord
  2
BOX
 70
         0
 40
1.0
 41
1.0
 50
0.0
 71
         0
 42
0.2
  3
txt.shx
  4

  0
STYLE
  5
525
100
AcDbSymbolTableRecord
100
AcDbTextStyleTableRecord
  2
BOX
 70
         0
 40
1.0
 41
1.0
 50
0.0
 71
         0
 42
0.2
  3
txt.shx
  4

  0
STYLE
  5
533
100
AcDbSymbolTableRecord
100
AcDbTextStyleTableRecord
  2
BOX
 70
         0
 40
1.0
 41
1.0
 50
0.0
 71
         0
 42
0.2
  3
txt.shx
  4

  0
STYLE
  5
558
100
AcDbSymbolTableRecord
100
AcDbTextStyleTableRecord
  2
BOX
 70
         0
 40
1.0
 41
1.0
 50
0.0
 71
         0
 42
0.2
  3
txt.shx
  4

  0
STYLE
  5
568
100
AcDbSymbolTableRecord
100
AcDbTextStyleTableRecord
  2
BOX
 70
         0
 40
1.0
 41
1.0
 50
0.0
 71
         0
 42
0.2
  3
txt.shx
  4

  0
STYLE
  5
575
100
AcDbSymbolTableRecord
100
AcDbTextStyleTableRecord
  2
BOX
 70
         0
 40
1.0
 41
1.0
 50
0.0
 71
         0
 42
0.2
  3
txt.shx
  4

  0
STYLE
  5
585
100
AcDbSymbolTableRecord
100
AcDbTextStyleTableRecord
  2
BOX
 70
         0
 40
1.0
 41
1.0
 50
0.0
 71
         0
 42
0.2
  3
txt.shx
  4

  0
STYLE
  5
592
100
AcDbSymbolTableRecord
100
AcDbTextStyleTableRecord
  2
BOX
 70
         0
 40
1.0
 41
1.0
 50
0.0
 71
         0
 42
0.2
  3
txt.shx
  4

  0
STYLE
  5
59F
100
AcDbSymbolTableRecord
100
AcDbTextStyleTableRecord
  2
BOX
 70
         0
 40
1.0
 41
1.0
 50
0.0
 71
         0
 42
0.2
  3
txt.shx
  4

  0
STYLE
  5
5AC
100
AcDbSymbolTableRecord
100
AcDbTextStyleTableRecord
  2
BOX
 70
         0
 40
1.0
 41
1.0
 50
0.0
 71
         0
 42
0.2
  3
txt.shx
  4

  0
STYLE
  5
5BF
100
AcDbSymbolTableRecord
100
AcDbTextStyleTableRecord
  2
BOX
 70
         0
 40
1.0
 41
1.0
 50
0.0
 71
         0
 42
0.2
  3
txt.shx
  4

  0
STYLE
  5
5D1
100
AcDbSymbolTableRecord
100
AcDbTextStyleTableRecord
  2
BOX
 70
         0
 40
1.0
 41
1.0
 50
0.0
 71
         0
 42
0.2
  3
txt.shx
  4

  0
STYLE
  5
5DF
100
AcDbSymbolTableRecord
100
AcDbTextStyleTableRecord
  2
BOX
 70
         0
 40
1.0
 41
1.0
 50
0.0
 71
         0
 42
0.2
  3
txt.shx
  4

  0
STYLE
  5
5ED
100
AcDbSymbolTableRecord
100
AcDbTextStyleTableRecord
  2
BOX
 70
         0
 40
1.0
 41
1.0
 50
0.0
 71
         0
 42
0.2
  3
txt.shx
  4

  0
STYLE
  5
601
100
AcDbSymbolTableRecord
100
AcDbTextStyleTableRecord
  2
BOX
 70
         0
 40
1.0
 41
1.0
 50
0.0
 71
         0
 42
0.2
  3
txt.shx
  4

  0
STYLE
  5
60F
100
AcDbSymbolTableRecord
100
AcDbTextStyleTableRecord
  2
BOX
 70
         0
 40
1.0
 41
1.0
 50
0.0
 71
         0
 42
0.2
  3
txt.shx
  4

  0
STYLE
  5
61D
100
AcDbSymbolTableRecord
100
AcDbTextStyleTableRecord
  2
BOX
 70
         0
 40
1.0
 41
1.0
 50
0.0
 71
         0
 42
0.2
  3
txt.shx
  4

  0
STYLE
  5
62F
100
AcDbSymbolTableRecord
100
AcDbTextStyleTableRecord
  2
BOX
 70
         0
 40
1.0
 41
1.0
 50
0.0
 71
         0
 42
0.2
  3
txt.shx
  4

  0
STYLE
  5
632
100
AcDbSymbolTableRecord
100
AcDbTextStyleTableRecord
  2
BOX
 70
         0
 40
1.0
 41
1.0
 50
0.0
 71
         0
 42
0.2
  3
txt.shx
  4

  0
STYLE
  5
63F
100
AcDbSymbolTableRecord
100
AcDbTextStyleTableRecord
  2
BOX
 70
         0
 40
1.0
 41
1.0
 50
0.0
 71
         0
 42
0.2
  3
txt.shx
  4

  0
STYLE
  5
642
100
AcDbSymbolTableRecord
100
AcDbTextStyleTableRecord
  2
BOX
 70
         0
 40
1.0
 41
1.0
 50
0.0
 71
         0
 42
0.2
  3
txt.shx
  4

  0
STYLE
  5
655
100
AcDbSymbolTableRecord
100
AcDbTextStyleTableRecord
  2
BOX
 70
         0
 40
1.0
 41
1.0
 50
0.0
 71
         0
 42
0.2
  3
txt.shx
  4

  0
STYLE
  5
663
100
AcDbSymbolTableRecord
100
AcDbTextStyleTableRecord
  2
BOX
 70
         0
 40
1.0
 41
1.0
 50
0.0
 71
         0
 42
0.2
  3
txt.shx
  4

  0
STYLE
  5
6E4
100
AcDbSymbolTableRecord
100
AcDbTextStyleTableRecord
  2
BOX
 70
         0
 40
1.0
 41
1.0
 50
0.0
 71
         0
 42
0.2
  3
txt.shx
  4

  0
STYLE
  5
6F2
100
AcDbSymbolTableRecord
100
AcDbTextStyleTableRecord
  2
BOX
 70
         0
 40
1.0
 41
1.0
 50
0.0
 71
         0
 42
0.2
  3
txt.shx
  4

  0
STYLE
  5
702
100
AcDbSymbolTableRecord
100
AcDbTextStyleTableRecord
  2
BOX
 70
         0
 40
1.0
 41
1.0
 50
0.0
 71
         0
 42
0.2
  3
txt.shx
  4

  0
STYLE
  5
710
100
AcDbSymbolTableRecord
100
AcDbTextStyleTableRecord
  2
BOX
 70
         0
 40
1.0
 41
1.0
 50
0.0
 71
         0
 42
0.2
  3
txt.shx
  4

  0
STYLE
  5
71E
100
AcDbSymbolTableRecord
100
AcDbTextStyleTableRecord
  2
BOX
 70
         0
 40
1.0
 41
1.0
 50
0.0
 71
         0
 42
0.2
  3
txt.shx
  4

  0
STYLE
  5
72C
100
AcDbSymbolTableRecord
100
AcDbTextStyleTableRecord
  2
BOX
 70
         0
 40
1.0
 41
1.0
 50
0.0
 71
         0
 42
0.2
  3
txt.shx
  4

  0
STYLE
  5
73A
100
AcDbSymbolTableRecord
100
AcDbTextStyleTableRecord
  2
BOX
 70
         0
 40
1.0
 41
1.0
 50
0.0
 71
         0
 42
0.2
  3
txt.shx
  4

  0
STYLE
  5
74A
100
AcDbSymbolTableRecord
100
AcDbTextStyleTableRecord
  2
BOX
 70
         0
 40
1.0
 41
1.0
 50
0.0
 71
         0
 42
0.2
  3
txt.shx
  4

  0
STYLE
  5
758
100
AcDbSymbolTableRecord
100
AcDbTextStyleTableRecord
  2
BOX
 70
         0
 40
1.0
 41
1.0
 50
0.0
 71
         0
 42
0.2
  3
txt.shx
  4

  0
STYLE
  5
766
100
AcDbSymbolTableRecord
100
AcDbTextStyleTableRecord
  2
BOX
 70
         0
 40
1.0
 41
1.0
 50
0.0
 71
         0
 42
0.2
  3
txt.shx
  4

  0
STYLE
  5
774
100
AcDbSymbolTableRecord
100
AcDbTextStyleTableRecord
  2
BOX
 70
         0
 40
1.0
 41
1.0
 50
0.0
 71
         0
 42
0.2
  3
txt.shx
  4

  0
STYLE
  5
782
100
AcDbSymbolTableRecord
100
AcDbTextStyleTableRecord
  2
BOX
 70
         0
 40
1.0
 41
1.0
 50
0.0
 71
         0
 42
0.2
  3
txt.shx
  4

  0
STYLE
  5
790
100
AcDbSymbolTableRecord
100
AcDbTextStyleTableRecord
  2
BOX
 70
         0
 40
1.0
 41
1.0
 50
0.0
 71
         0
 42
0.2
  3
txt.shx
  4

  0
STYLE
  5
793
100
AcDbSymbolTableRecord
100
AcDbTextStyleTableRecord
  2
BOX
 70
         0
 40
1.0
 41
1.0
 50
0.0
 71
         0
 42
0.2
  3
txt.shx
  4

  0
ENDTAB
  0
TABLE
  2
VIEW
  5
5
100
AcDbSymbolTable
 70
         0
  0
ENDTAB
  0
TABLE
  2
UCS
  5
6
100
AcDbSymbolTable
 70
         1
  0
UCS
  5
20
100
AcDbSymbolTableRecord
100
AcDbUCSTableRecord
  2
CK_VIEW_1
 70
         0
 10
0.0
 20
0.0
 30
1.0
 11
1.0
 21
0.0
 31
0.0
 12
0.0
 22
1.0
 32
0.0
  0
ENDTAB
  0
TABLE
  2
APPID
  5
8
100
AcDbSymbolTable
 70
         1
  0
APPID
  5
16
100
AcDbSymbolTableRecord
100
AcDbRegAppTableRecord
  2
ACAD
 70
         0
  0
ENDTAB
  0
TABLE
  2
DIMSTYLE
  5
9
100
AcDbSymbolTable
 70
         2
  0
DIMSTYLE
105
18
100
AcDbSymbolTableRecord
100
AcDbDimStyleTableRecord
  2
STANDARD
 70
         0
  3

  4

  5

  6

  7

 40
1.0
 41
0.18
 42
0.0625
 43
0.38
 44
0.18
 45
0.0
 46
0.0
 47
0.0
 48
0.0
 71
         0
 72
         0
 73
         1
 74
         1
 75
         0
 76
         0
 77
         0
 78
         0
140
0.18
141
0.09
142
0.0
143
25.4
144
1.0
145
0.0
146
1.0
147
0.09
170
         0
171
         2
172
         0
173
         0
174
         0
175
         0
176
         0
177
         0
178
         0
270
         2
271
         4
272
         4
273
         2
274
         2
275
         0
280
         0
281
         0
282
         0
283
         1
284
         0
285
         0
286
         0
287
         0
288
         0
340
17
  0
DIMSTYLE
105
FF
100
AcDbSymbolTableRecord
100
AcDbDimStyleTableRecord
  2
DIMSTYLE1
 70
         0
  3

  4

  5

  6

  7

 40
1.0
 41
2.7
 42
0.0625
 43
0.38
 44
2.7
 45
0.0
 46
0.0
 47
0.0
 48
0.0
 71
         0
 72
         0
 73
         1
 74
         1
 75
         0
 76
         0
 77
         0
 78
         0
140
2.7
141
0.09
142
0.0
143
25.4
144
1.0
145
0.0
146
1.0
147
0.09
170
         0
171
         2
172
         0
173
         0
174
         0
175
         0
176
         0
177
         0
178
         0
270
         2
271
         4
272
         4
273
         2
274
         2
275
         0
280
         0
281
         0
282
         0
283
         1
284
         0
285
         0
286
         0
287
         0
288
         0
340
17
  0
ENDTAB
  0
TABLE
  2
BLOCK_RECORD
  5
1
100
AcDbSymbolTable
 70
        55
  0
BLOCK_RECORD
  5
A
100
AcDbSymbolTableRecord
100
AcDbBlockTableRecord
  2
*MODEL_SPACE
  0
BLOCK_RECORD
  5
B
100
AcDbSymbolTableRecord
100
AcDbBlockTableRecord
  2
*PAPER_SPACE
  0
BLOCK_RECORD
  5
100
100
AcDbSymbolTableRecord
100
AcDbBlockTableRecord
  2
*D0
  0
BLOCK_RECORD
  5
1C3
100
AcDbSymbolTableRecord
100
AcDbBlockTableRecord
  2
*D1
  0
BLOCK_RECORD
  5
1D1
100
AcDbSymbolTableRecord
100
AcDbBlockTableRecord
  2
*D2
  0
BLOCK_RECORD
  5
23C
100
AcDbSymbolTableRecord
100
AcDbBlockTableRecord
  2
*D3
  0
BLOCK_RECORD
  5
26A
100
AcDbSymbolTableRecord
100
AcDbBlockTableRecord
  2
*X4
  0
BLOCK_RECORD
  5
2BD
100
AcDbSymbolTableRecord
100
AcDbBlockTableRecord
  2
*D5
  0
BLOCK_RECORD
  5
2CE
100
AcDbSymbolTableRecord
100
AcDbBlockTableRecord
  2
*D6
  0
BLOCK_RECORD
  5
2DC
100
AcDbSymbolTableRecord
100
AcDbBlockTableRecord
  2
*D7
  0
BLOCK_RECORD
  5
2EA
100
AcDbSymbolTableRecord
100
AcDbBlockTableRecord
  2
*D8
  0
BLOCK_RECORD
  5
2F8
100
AcDbSymbolTableRecord
100
AcDbBlockTableRecord
  2
*D9
  0
BLOCK_RECORD
  5
325
100
AcDbSymbolTableRecord
100
AcDbBlockTableRecord
  2
*D10
  0
BLOCK_RECORD
  5
335
100
AcDbSymbolTableRecord
100
AcDbBlockTableRecord
  2
*D11
  0
BLOCK_RECORD
  5
345
100
AcDbSymbolTableRecord
100
AcDbBlockTableRecord
  2
*D12
  0
BLOCK_RECORD
  5
353
100
AcDbSymbolTableRecord
100
AcDbBlockTableRecord
  2
*D13
  0
BLOCK_RECORD
  5
376
100
AcDbSymbolTableRecord
100
AcDbBlockTableRecord
  2
*D14
  0
BLOCK_RECORD
  5
384
100
AcDbSymbolTableRecord
100
AcDbBlockTableRecord
  2
*D15
  0
BLOCK_RECORD
  5
392
100
AcDbSymbolTableRecord
100
AcDbBlockTableRecord
  2
*D16
  0
BLOCK_RECORD
  5
3A0
100
AcDbSymbolTableRecord
100
AcDbBlockTableRecord
  2
*D17
  0
BLOCK_RECORD
  5
3AE
100
AcDbSymbolTableRecord
100
AcDbBlockTableRecord
  2
*D18
  0
BLOCK_RECORD
  5
4E2
100
AcDbSymbolTableRecord
100
AcDbBlockTableRecord
  2
*D19
  0
BLOCK_RECORD
  5
4F0
100
AcDbSymbolTableRecord
100
AcDbBlockTableRecord
  2
*D20
  0
BLOCK_RECORD
  5
50C
100
AcDbSymbolTableRecord
100
AcDbBlockTableRecord
  2
*D21
  0
BLOCK_RECORD
  5
51A
100
AcDbSymbolTableRecord
100
AcDbBlockTableRecord
  2
*D22
  0
BLOCK_RECORD
  5
528
100
AcDbSymbolTableRecord
100
AcDbBlockTableRecord
  2
*D23
  0
BLOCK_RECORD
  5
54B
100
AcDbSymbolTableRecord
100
AcDbBlockTableRecord
  2
*D24
  0
BLOCK_RECORD
  5
55B
100
AcDbSymbolTableRecord
100
AcDbBlockTableRecord
  2
*D25
  0
BLOCK_RECORD
  5
56B
100
AcDbSymbolTableRecord
100
AcDbBlockTableRecord
  2
*D26
  0
BLOCK_RECORD
  5
578
100
AcDbSymbolTableRecord
100
AcDbBlockTableRecord
  2
*D27
  0
BLOCK_RECORD
  5
588
100
AcDbSymbolTableRecord
100
AcDbBlockTableRecord
  2
*D28
  0
BLOCK_RECORD
  5
595
100
AcDbSymbolTableRecord
100
AcDbBlockTableRecord
  2
*D29
  0
BLOCK_RECORD
  5
5A2
100
AcDbSymbolTableRecord
100
AcDbBlockTableRecord
  2
*D30
  0
BLOCK_RECORD
  5
5B4
100
AcDbSymbolTableRecord
100
AcDbBlockTableRecord
  2
*D31
  0
BLOCK_RECORD
  5
5C6
100
AcDbSymbolTableRecord
100
AcDbBlockTableRecord
  2
*D32
  0
BLOCK_RECORD
  5
5D4
100
AcDbSymbolTableRecord
100
AcDbBlockTableRecord
  2
*D33
  0
BLOCK_RECORD
  5
5E2
100
AcDbSymbolTableRecord
100
AcDbBlockTableRecord
  2
*D34
  0
BLOCK_RECORD
  5
5F6
100
AcDbSymbolTableRecord
100
AcDbBlockTableRecord
  2
*D35
  0
BLOCK_RECORD
  5
604
100
AcDbSymbolTableRecord
100
AcDbBlockTableRecord
  2
*D36
  0
BLOCK_RECORD
  5
613
100
AcDbSymbolTableRecord
100
AcDbBlockTableRecord
  2
*D37
  0
BLOCK_RECORD
  5
624
100
AcDbSymbolTableRecord
100
AcDbBlockTableRecord
  2
*D38
  0
BLOCK_RECORD
  5
634
100
AcDbSymbolTableRecord
100
AcDbBlockTableRecord
  2
*D39
  0
BLOCK_RECORD
  5
64A
100
AcDbSymbolTableRecord
100
AcDbBlockTableRecord
  2
*D40
  0
BLOCK_RECORD
  5
658
100
AcDbSymbolTableRecord
100
AcDbBlockTableRecord
  2
*D41
  0
BLOCK_RECORD
  5
6D9
100
AcDbSymbolTableRecord
100
AcDbBlockTableRecord
  2
*D42
  0
BLOCK_RECORD
  5
6E7
100
AcDbSymbolTableRecord
100
AcDbBlockTableRecord
  2
*D43
  0
BLOCK_RECORD
  5
6F5
100
AcDbSymbolTableRecord
100
AcDbBlockTableRecord
  2
*D44
  0
BLOCK_RECORD
  5
705
100
AcDbSymbolTableRecord
100
AcDbBlockTableRecord
  2
*D45
  0
BLOCK_RECORD
  5
713
100
AcDbSymbolTableRecord
100
AcDbBlockTableRecord
  2
*D46
  0
BLOCK_RECORD
  5
721
100
AcDbSymbolTableRecord
100
AcDbBlockTableRecord
  2
*D47
  0
BLOCK_RECORD
  5
72F
100
AcDbSymbolTableRecord
100
AcDbBlockTableRecord
  2
*D48
  0
BLOCK_RECORD
  5
73D
100
AcDbSymbolTableRecord
100
AcDbBlockTableRecord
  2
*D49
  0
BLOCK_RECORD
  5
74D
100
AcDbSymbolTableRecord
100
AcDbBlockTableRecord
  2
*D50
  0
BLOCK_RECORD
  5
75B
100
AcDbSymbolTableRecord
100
AcDbBlockTableRecord
  2
*D51
  0
BLOCK_RECORD
  5
769
100
AcDbSymbolTableRecord
100
AcDbBlockTableRecord
  2
*D52
  0
BLOCK_RECORD
  5
777
100
AcDbSymbolTableRecord
100
AcDbBlockTableRecord
  2
*D53
  0
BLOCK_RECORD
  5
785
100
AcDbSymbolTableRecord
100
AcDbBlockTableRecord
  2
*D54
  0
ENDTAB
  0
ENDSEC
  0
SECTION
  2
BLOCKS
  0
BLOCK
  5
D
100
AcDbEntity
  8
0
100
AcDbBlockBegin
  2
*MODEL_SPACE
 70
         0
 10
0.0
 20
0.0
 30
0.0
  3
*MODEL_SPACE
  1

  0
ENDBLK
  5
E
100
AcDbEntity
  8
0
100
AcDbBlockEnd
  0
BLOCK
  5
F
100
AcDbEntity
 67
         1
  8
0
100
AcDbBlockBegin
  2
*PAPER_SPACE
 70
         0
 10
0.0
 20
0.0
 30
0.0
  3
*PAPER_SPACE
  1

  0
ENDBLK
  5
10
100
AcDbEntity
 67
         1
  8
0
100
AcDbBlockEnd
  0
BLOCK
  5
101
100
AcDbEntity
  8
0
100
AcDbBlockBegin
  2
*D0
 70
        65
 10
0.0
 20
0.0
 30
0.0
  3
*D0
  1

  0
POINT
  5
104
100
AcDbEntity
  8
DEFPOINTS
  6
CONTINUOUS
 62
         0
100
AcDbPoint
 10
1415.0020155108
 20
-80.3619234481
 30
0.0
  0
POINT
  5
105
100
AcDbEntity
  8
DEFPOINTS
  6
CONTINUOUS
 62
         0
100
AcDbPoint
 10
1415.0020155108
 20
-15.4433347407
 30
0.0
  0
POINT
  5
106
100
AcDbEntity
  8
DEFPOINTS
  6
CONTINUOUS
 62
         0
100
AcDbPoint
 10
1496.0033403763
 20
-30.6546596061
 30
0.0
  0
LINE
  5
107
100
AcDbEntity
  8
L1_115
  6
CONTINUOUS
 62
         4
100
AcDbLine
 10
1415.0020155108
 20
-16.7933347407
 30
0.0
 11
1415.0020155108
 21
-81.0369234481
 31
0.0
  0
LINE
  5
108
100
AcDbEntity
  8
L1_115
  6
CONTINUOUS
 62
         4
100
AcDbLine
 10
1496.0033403763
 20
-32.0046596061
 30
0.0
 11
1496.0033403763
 21
-81.0369234481
 31
0.0
  0
LINE
  5
109
100
AcDbEntity
  8
L1_115
  6
CONTINUOUS
 62
         4
100
AcDbLine
 10
1415.0020155108
 20
-80.3619234481
 30
0.0
 11
1496.0033403763
 21
-80.3619234481
 31
0.0
  0
SOLID
  5
10A
100
AcDbEntity
  8
L1_115
  6
CONTINUOUS
 62
         4
100
AcDbTrace
 10
1415.0020155108
 20
-80.3619234481
 30
0.0
 11
1417.7020155108
 21
-79.9569234481
 31
0.0
 12
1417.7020155108
 22
-80.7669234481
 32
0.0
 13
1415.0020155108
 23
-80.3619234481
 33
0.0
  0
SOLID
  5
10B
100
AcDbEntity
  8
L1_115
  6
CONTINUOUS
 62
         4
100
AcDbTrace
 10
1496.0033403763
 20
-80.3619234481
 30
0.0
 11
1493.3033403763
 21
-80.7669234481
 31
0.0
 12
1493.3033403763
 22
-79.9569234481
 32
0.0
 13
1496.0033403763
 23
-80.3619234481
 33
0.0
  0
TEXT
  5
10D
100
AcDbEntity
  8
L1_115
  6
CONTINUOUS
 62
         4
100
AcDbText
 10
1452.5776779435
 20
-77.2299234481
 30
0.0
 40
2.7
  1
81
  7
BOX
100
AcDbText
  0
ENDBLK
  5
10E
100
AcDbEntity
  8
0
  6
CONTINUOUS
100
AcDbBlockEnd
  0
BLOCK
  5
1C4
100
AcDbEntity
  8
0
100
AcDbBlockBegin
  2
*D1
 70
        65
 10
0.0
 20
0.0
 30
0.0
  3
*D1
  1

  0
POINT
  5
1C6
100
AcDbEntity
  8
DEFPOINTS
  6
CONTINUOUS
 62
         0
100
AcDbPoint
 10
1400.0033403763
 20
218.6817557559
 30
0.0
  0
POINT
  5
1C7
100
AcDbEntity
  8
DEFPOINTS
  6
CONTINUOUS
 62
         0
100
AcDbPoint
 10
1400.0033403763
 20
172.4096417294
 30
0.0
  0
POINT
  5
1C8
100
AcDbEntity
  8
DEFPOINTS
  6
CONTINUOUS
 62
         0
100
AcDbPoint
 10
1496.0033403763
 20
150.1846417294
 30
0.0
  0
LINE
  5
1C9
100
AcDbEntity
  8
L1_115
  6
CONTINUOUS
 62
         4
100
AcDbLine
 10
1400.0033403763
 20
173.7596417294
 30
0.0
 11
1400.0033403763
 21
219.3567557559
 31
0.0
  0
LINE
  5
1CA
100
AcDbEntity
  8
L1_115
  6
CONTINUOUS
 62
         4
100
AcDbLine
 10
1496.0033403763
 20
151.5346417294
 30
0.0
 11
1496.0033403763
 21
219.3567557559
 31
0.0
  0
LINE
  5
1CB
100
AcDbEntity
  8
L1_115
  6
CONTINUOUS
 62
         4
100
AcDbLine
 10
1400.0033403763
 20
218.6817557559
 30
0.0
 11
1496.0033403763
 21
218.6817557559
 31
0.0
  0
SOLID
  5
1CC
100
AcDbEntity
  8
L1_115
  6
CONTINUOUS
 62
         4
100
AcDbTrace
 10
1400.0033403763
 20
218.6817557559
 30
0.0
 11
1402.7033403763
 21
219.0867557559
 31
0.0
 12
1402.7033403763
 22
218.2767557559
 32
0.0
 13
1400.0033403763
 23
218.6817557559
 33
0.0
  0
SOLID
  5
1CD
100
AcDbEntity
  8
L1_115
  6
CONTINUOUS
 62
         4
100
AcDbTrace
 10
1496.0033403763
 20
218.6817557559
 30
0.0
 11
1493.3033403763
 21
218.2767557559
 31
0.0
 12
1493.3033403763
 22
219.0867557559
 32
0.0
 13
1496.0033403763
 23
218.6817557559
 33
0.0
  0
TEXT
  5
1CF
100
AcDbEntity
  8
L1_115
  6
CONTINUOUS
 62
         4
100
AcDbText
 10
1447.4927884882
 20
220.7067557559
 30
0.0
 40
2.7
  1
96
  7
BOX
100
AcDbText
  0
ENDBLK
  5
1D0
100
AcDbEntity
  8
0
  6
CONTINUOUS
100
AcDbBlockEnd
  0
BLOCK
  5
1D2
100
AcDbEntity
  8
0
100
AcDbBlockBegin
  2
*D2
 70
        65
 10
0.0
 20
0.0
 30
0.0
  3
*D2
  1

  0
POINT
  5
1D4
100
AcDbEntity
  8
DEFPOINTS
  6
CONTINUOUS
 62
         0
100
AcDbPoint
 10
1331.7533403763
 20
225.2126210379
 30
0.0
  0
POINT
  5
1D5
100
AcDbEntity
  8
DEFPOINTS
  6
CONTINUOUS
 62
         0
100
AcDbPoint
 10
1331.7533403763
 20
161.4188234458
 30
0.0
  0
POINT
  5
1D6
100
AcDbEntity
  8
DEFPOINTS
  6
CONTINUOUS
 62
         0
100
AcDbPoint
 10
1496.0033403763
 20
150.1846417294
 30
0.0
  0
LINE
  5
1D7
100
AcDbEntity
  8
L1_115
  6
CONTINUOUS
 62
         4
100
AcDbLine
 10
1331.7533403763
 20
162.7688234458
 30
0.0
 11
1331.7533403763
 21
225.8876210379
 31
0.0
  0
LINE
  5
1D8
100
AcDbEntity
  8
L1_115
  6
CONTINUOUS
 62
         4
100
AcDbLine
 10
1496.0033403763
 20
151.5346417294
 30
0.0
 11
1496.0033403763
 21
225.8876210379
 31
0.0
  0
LINE
  5
1D9
100
AcDbEntity
  8
L1_115
  6
CONTINUOUS
 62
         4
100
AcDbLine
 10
1331.7533403763
 20
225.2126210379
 30
0.0
 11
1496.0033403763
 21
225.2126210379
 31
0.0
  0
SOLID
  5
1DA
100
AcDbEntity
  8
L1_115
  6
CONTINUOUS
 62
         4
100
AcDbTrace
 10
1331.7533403763
 20
225.2126210379
 30
0.0
 11
1334.4533403763
 21
225.6176210379
 31
0.0
 12
1334.4533403763
 22
224.8076210379
 32
0.0
 13
1331.7533403763
 23
225.2126210379
 33
0.0
  0
SOLID
  5
1DB
100
AcDbEntity
  8
L1_115
  6
CONTINUOUS
 62
         4
100
AcDbTrace
 10
1496.0033403763
 20
225.2126210379
 30
0.0
 11
1493.3033403763
 21
224.8076210379
 31
0.0
 12
1493.3033403763
 22
225.6176210379
 32
0.0
 13
1496.0033403763
 23
225.2126210379
 33
0.0
  0
TEXT
  5
1DD
100
AcDbEntity
  8
L1_115
  6
CONTINUOUS
 62
         4
100
AcDbText
 10
1401.8342079666
 20
227.2376210379
 30
0.0
 40
2.7
  1
164.25
  7
BOX
100
AcDbText
  0
ENDBLK
  5
1DE
100
AcDbEntity
  8
0
  6
CONTINUOUS
100
AcDbBlockEnd
  0
BLOCK
  5
23D
100
AcDbEntity
  8
0
100
AcDbBlockBegin
  2
*D3
 70
        65
 10
0.0
 20
0.0
 30
0.0
  3
*D3
  1

  0
POINT
  5
23F
100
AcDbEntity
  8
DEFPOINTS
  6
CONTINUOUS
 62
         0
100
AcDbPoint
 10
1516.4367069289
 20
168.1846417294
 30
0.0
  0
POINT
  5
240
100
AcDbEntity
  8
DEFPOINTS
  6
CONTINUOUS
 62
         0
100
AcDbPoint
 10
1496.0033403763
 20
168.1846417294
 30
0.0
  0
POINT
  5
241
100
AcDbEntity
  8
DEFPOINTS
  6
CONTINUOUS
 62
         0
100
AcDbPoint
 10
1496.0033403763
 20
132.1846417294
 30
0.0
  0
LINE
  5
242
100
AcDbEntity
  8
L1_115
  6
CONTINUOUS
 62
         4
100
AcDbLine
 10
1497.3533403763
 20
168.1846417294
 30
0.0
 11
1517.1117069289
 21
168.1846417294
 31
0.0
  0
LINE
  5
243
100
AcDbEntity
  8
L1_115
  6
CONTINUOUS
 62
         4
100
AcDbLine
 10
1497.3533403763
 20
132.1846417294
 30
0.0
 11
1517.1117069289
 21
132.1846417294
 31
0.0
  0
LINE
  5
244
100
AcDbEntity
  8
L1_115
  6
CONTINUOUS
 62
         4
100
AcDbLine
 10
1516.4367069289
 20
168.1846417294
 30
0.0
 11
1516.4367069289
 21
132.1846417294
 31
0.0
  0
SOLID
  5
245
100
AcDbEntity
  8
L1_115
  6
CONTINUOUS
 62
         4
100
AcDbTrace
 10
1516.4367069289
 20
168.1846417294
 30
0.0
 11
1516.8417069289
 21
165.4846417294
 31
0.0
 12
1516.0317069289
 22
165.4846417294
 32
0.0
 13
1516.4367069289
 23
168.1846417294
 33
0.0
  0
SOLID
  5
246
100
AcDbEntity
  8
L1_115
  6
CONTINUOUS
 62
         4
100
AcDbTrace
 10
1516.4367069289
 20
132.1846417294
 30
0.0
 11
1516.0317069289
 21
134.8846417294
 31
0.0
 12
1516.8417069289
 22
134.8846417294
 32
0.0
 13
1516.4367069289
 23
132.1846417294
 33
0.0
  0
TEXT
  5
248
100
AcDbEntity
  8
L1_115
  6
CONTINUOUS
 62
         4
100
AcDbText
 10
1513.3047069289
 20
142.3329165641
 30
0.0
 40
2.7
  1
崷36
 50
90.0
  7
BOX
100
AcDbText
  0
ENDBLK
  5
249
100
AcDbEntity
  8
0
  6
CONTINUOUS
100
AcDbBlockEnd
  0
BLOCK
  5
26B
100
AcDbEntity
  8
0
100
AcDbBlockBegin
  2
*X4
 70
        65
 10
0.0
 20
0.0
 30
0.0
  3
*X4
  1

  0
LINE
  5
26C
100
AcDbEntity
  8
L1_115
  6
CONTINUOUS
 62
         4
100
AcDbLine
 10
1490.0847568525
 20
-33.4433347407
 30
0.0
 11
1493.5847568525
 21
-29.9433347407
 31
0.0
  0
LINE
  5
26D
100
AcDbEntity
  8
L1_115
  6
CONTINUOUS
 62
         4
100
AcDbLine
 10
1485.8421161654
 20
-33.4433347407
 30
0.0
 11
1489.3421161654
 21
-29.9433347407
 31
0.0
  0
LINE
  5
26E
100
AcDbEntity
  8
L1_115
  6
CONTINUOUS
 62
         4
100
AcDbLine
 10
1481.5994754782
 20
-33.4433347407
 30
0.0
 11
1485.0994754782
 21
-29.9433347407
 31
0.0
  0
LINE
  5
26F
100
AcDbEntity
  8
L1_115
  6
CONTINUOUS
 62
         4
100
AcDbLine
 10
1477.3568347911
 20
-33.4433347407
 30
0.0
 11
1480.8568347911
 21
-29.9433347407
 31
0.0
  0
LINE
  5
270
100
AcDbEntity
  8
L1_115
  6
CONTINUOUS
 62
         4
100
AcDbLine
 10
1473.114194104
 20
-33.4433347407
 30
0.0
 11
1476.614194104
 21
-29.9433347407
 31
0.0
  0
LINE
  5
271
100
AcDbEntity
  8
L1_115
  6
CONTINUOUS
 62
         4
100
AcDbLine
 10
1468.8715534169
 20
-33.4433347407
 30
0.0
 11
1471.8715534169
 21
-30.4433347407
 31
0.0
  0
LINE
  5
272
100
AcDbEntity
  8
L1_115
  6
CONTINUOUS
 62
         4
100
AcDbLine
 10
1464.6289127298
 20
-33.4433347407
 30
0.0
 11
1469.1289127298
 21
-28.9433347407
 31
0.0
  0
LINE
  5
273
100
AcDbEntity
  8
L1_115
  6
CONTINUOUS
 62
         4
100
AcDbLine
 10
1460.3862720426
 20
-33.4433347407
 30
0.0
 11
1464.8862720426
 21
-28.9433347407
 31
0.0
  0
LINE
  5
274
100
AcDbEntity
  8
L1_115
  6
CONTINUOUS
 62
         4
100
AcDbLine
 10
1456.1436313555
 20
-33.4433347407
 30
0.0
 11
1460.6436313555
 21
-28.9433347407
 31
0.0
  0
LINE
  5
275
100
AcDbEntity
  8
L1_115
  6
CONTINUOUS
 62
         4
100
AcDbLine
 10
1493.6436313555
 20
4.0566652593
 30
0.0
 11
1495.1413193989
 21
5.5543533027
 31
0.0
  0
LINE
  5
276
100
AcDbEntity
  8
L1_115
  6
CONTINUOUS
 62
         4
100
AcDbLine
 10
1451.9009906684
 20
-33.4433347407
 30
0.0
 11
1456.4009906684
 21
-28.9433347407
 31
0.0
  0
LINE
  5
277
100
AcDbEntity
  8
L1_115
  6
CONTINUOUS
 62
         4
100
AcDbLine
 10
1489.4009906684
 20
4.0566652593
 30
0.0
 11
1492.4515929824
 21
7.1072675733
 31
0.0
  0
LINE
  5
278
100
AcDbEntity
  8
L1_115
  6
CONTINUOUS
 62
         4
100
AcDbLine
 10
1447.6583499813
 20
-33.4433347407
 30
0.0
 11
1452.1583499813
 21
-28.9433347407
 31
0.0
  0
LINE
  5
279
100
AcDbEntity
  8
L1_115
  6
CONTINUOUS
 62
         4
100
AcDbLine
 10
1485.1583499813
 20
4.0566652593
 30
0.0
 11
1488.6583499813
 21
7.5566652593
 31
0.0
  0
LINE
  5
27A
100
AcDbEntity
  8
L1_115
  6
CONTINUOUS
 62
         4
100
AcDbLine
 10
1441.6307092942
 20
-35.2283347407
 30
0.0
 11
1442.9432530236
 21
-33.9157910112
 31
0.0
  0
LINE
  5
27B
100
AcDbEntity
  8
L1_115
  6
CONTINUOUS
 62
         4
100
AcDbLine
 10
1443.6157092942
 20
-33.2433347407
 30
0.0
 11
1447.9157092942
 21
-28.9433347407
 31
0.0
  0
LINE
  5
27C
100
AcDbEntity
  8
L1_115
  6
CONTINUOUS
 62
         4
100
AcDbLine
 10
1480.9157092942
 20
4.0566652593
 30
0.0
 11
1484.4157092942
 21
7.5566652593
 31
0.0
  0
LINE
  5
27D
100
AcDbEntity
  8
L1_115
  6
CONTINUOUS
 62
         4
100
AcDbLine
 10
1437.388068607
 20
-35.2283347407
 30
0.0
 11
1443.673068607
 21
-28.9433347407
 31
0.0
  0
LINE
  5
27E
100
AcDbEntity
  8
L1_115
  6
CONTINUOUS
 62
         4
100
AcDbLine
 10
1476.673068607
 20
4.0566652593
 30
0.0
 11
1480.173068607
 21
7.5566652593
 31
0.0
  0
LINE
  5
27F
100
AcDbEntity
  8
L1_115
  6
CONTINUOUS
 62
         4
100
AcDbLine
 10
1433.5033403763
 20
-34.8704222844
 30
0.0
 11
1439.4304279199
 21
-28.9433347407
 31
0.0
  0
LINE
  5
280
100
AcDbEntity
  8
L1_115
  6
CONTINUOUS
 62
         4
100
AcDbLine
 10
1472.9304279199
 20
4.5566652593
 30
0.0
 11
1475.0033403763
 21
6.6295777156
 31
0.0
  0
LINE
  5
281
100
AcDbEntity
  8
L1_115
  6
CONTINUOUS
 62
         4
100
AcDbLine
 10
1428.9027872328
 20
-35.2283347407
 30
0.0
 11
1431.5033403763
 21
-32.6277815972
 31
0.0
  0
LINE
  5
282
100
AcDbEntity
  8
L1_115
  6
CONTINUOUS
 62
         4
100
AcDbLine
 10
1433.5033403763
 20
-30.6277815972
 30
0.0
 11
1434.6877872328
 21
-29.4433347407
 31
0.0
  0
LINE
  5
283
100
AcDbEntity
  8
L1_115
  6
CONTINUOUS
 62
         4
100
AcDbLine
 10
1435.0033403763
 20
-29.1277815972
 30
0.0
 11
1435.1877872328
 21
-28.9433347407
 31
0.0
  0
LINE
  5
284
100
AcDbEntity
  8
L1_115
  6
CONTINUOUS
 62
         4
100
AcDbLine
 10
1471.2082741959
 20
7.0771522224
 30
0.0
 11
1471.6877872328
 21
7.5566652593
 31
0.0
  0
LINE
  5
285
100
AcDbEntity
  8
L1_115
  6
CONTINUOUS
 62
         4
100
AcDbLine
 10
1415.1701465455
 20
-44.7183347409
 30
0.0
 11
1419.1033403763
 21
-40.7851409101
 31
0.0
  0
LINE
  5
286
100
AcDbEntity
  8
L1_115
  6
CONTINUOUS
 62
         4
100
AcDbLine
 10
1424.6601465457
 20
-35.2283347407
 30
0.0
 11
1430.4451465457
 21
-29.4433347407
 31
0.0
  0
LINE
  5
287
100
AcDbEntity
  8
L1_115
  6
CONTINUOUS
 62
         4
100
AcDbLine
 10
1413.2808860741
 20
-42.3649545251
 30
0.0
 11
1419.1033403763
 21
-36.542500223
 31
0.0
  0
LINE
  5
288
100
AcDbEntity
  8
L1_115
  6
CONTINUOUS
 62
         4
100
AcDbLine
 10
1420.4175058586
 20
-35.2283347407
 30
0.0
 11
1430.0033403763
 21
-25.642500223
 31
0.0
  0
LINE
  5
289
100
AcDbEntity
  8
L1_115
  6
CONTINUOUS
 62
         4
100
AcDbLine
 10
1406.6848651713
 20
-44.7183347409
 30
0.0
 11
1408.7721841538
 21
-42.6310157583
 31
0.0
  0
LINE
  5
28A
100
AcDbEntity
  8
L1_115
  6
CONTINUOUS
 62
         4
100
AcDbLine
 10
1410.3348651715
 20
-41.0683347407
 30
0.0
 11
1430.0033403763
 21
-21.3998595359
 31
0.0
  0
LINE
  5
28B
100
AcDbEntity
  8
L1_115
  6
CONTINUOUS
 62
         4
100
AcDbLine
 10
1403.2268162821
 20
-43.9337429429
 30
0.0
 11
1430.0033403763
 21
-17.1572188488
 31
0.0
  0
LINE
  5
28C
100
AcDbEntity
  8
L1_115
  6
CONTINUOUS
 62
         4
100
AcDbLine
 10
1403.2033403763
 20
-39.7145781616
 30
0.0
 11
1427.4745837972
 21
-15.4433347407
 31
0.0
  0
LINE
  5
28D
100
AcDbEntity
  8
L1_115
  6
CONTINUOUS
 62
         4
100
AcDbLine
 10
1445.9745837972
 20
3.0566652593
 30
0.0
 11
1446.6083403763
 21
3.6904218384
 31
0.0
  0
LINE
  5
28E
100
AcDbEntity
  8
L1_115
  6
CONTINUOUS
 62
         4
100
AcDbLine
 10
1403.1588003566
 20
-35.5164774942
 30
0.0
 11
1423.2319431101
 21
-15.4433347407
 31
0.0
  0
LINE
  5
28F
100
AcDbEntity
  8
L1_115
  6
CONTINUOUS
 62
         4
100
AcDbLine
 10
1428.2319431101
 20
-10.4433347407
 30
0.0
 11
1430.0033403763
 21
-8.6719374745
 31
0.0
  0
LINE
  5
290
100
AcDbEntity
  8
L1_115
  6
CONTINUOUS
 62
         4
100
AcDbLine
 10
1441.7319431101
 20
3.0566652593
 30
0.0
 11
1446.2319431101
 21
7.5566652593
 31
0.0
  0
LINE
  5
291
100
AcDbEntity
  8
L1_115
  6
CONTINUOUS
 62
         4
100
AcDbLine
 10
1399.3583617988
 20
-35.0742753648
 30
0.0
 11
1418.989302423
 21
-15.4433347407
 31
0.0
  0
LINE
  5
292
100
AcDbEntity
  8
L1_115
  6
CONTINUOUS
 62
         4
100
AcDbLine
 10
1423.989302423
 20
-10.4433347407
 30
0.0
 11
1430.0033403763
 21
-4.4292967874
 31
0.0
  0
LINE
  5
293
100
AcDbEntity
  8
L1_115
  6
CONTINUOUS
 62
         4
100
AcDbLine
 10
1437.489302423
 20
3.0566652593
 30
0.0
 11
1443.0033403763
 21
8.5707032126
 31
0.0
  0
LINE
  5
294
100
AcDbEntity
  8
L1_115
  6
CONTINUOUS
 62
         4
100
AcDbLine
 10
1395.6556935628
 20
-34.5343029137
 30
0.0
 11
1414.9085495422
 21
-15.2814469343
 31
0.0
  0
LINE
  5
295
100
AcDbEntity
  8
L1_115
  6
CONTINUOUS
 62
         4
100
AcDbLine
 10
1419.7466617359
 20
-10.4433347407
 30
0.0
 11
1430.0033403763
 21
-0.1866561003
 31
0.0
  0
LINE
  5
296
100
AcDbEntity
  8
L1_115
  6
CONTINUOUS
 62
         4
100
AcDbLine
 10
1433.7466617359
 20
3.5566652593
 30
0.0
 11
1439.5316617359
 21
9.3416652593
 31
0.0
  0
LINE
  5
297
100
AcDbEntity
  8
L1_115
  6
CONTINUOUS
 62
         4
100
AcDbLine
 10
1391.9530253268
 20
-33.9943304626
 30
0.0
 11
1414.3162631932
 21
-11.6310925962
 31
0.0
  0
LINE
  5
298
100
AcDbEntity
  8
L1_115
  6
CONTINUOUS
 62
         4
100
AcDbLine
 10
1415.5040210487
 20
-10.4433347407
 30
0.0
 11
1435.2890210487
 21
9.3416652593
 31
0.0
  0
LINE
  5
299
100
AcDbEntity
  8
L1_115
  6
CONTINUOUS
 62
         4
100
AcDbLine
 10
1388.2503570908
 20
-33.4543580115
 30
0.0
 11
1431.0463803616
 21
9.3416652593
 31
0.0
  0
LINE
  5
29A
100
AcDbEntity
  8
L1_115
  6
CONTINUOUS
 62
         4
100
AcDbLine
 10
1384.5476888547
 20
-32.9143855604
 30
0.0
 11
1426.8037396745
 21
9.3416652593
 31
0.0
  0
LINE
  5
29B
100
AcDbEntity
  8
L1_115
  6
CONTINUOUS
 62
         4
100
AcDbLine
 10
1380.8450206187
 20
-32.3744131094
 30
0.0
 11
1422.5610989874
 21
9.3416652593
 31
0.0
  0
LINE
  5
29C
100
AcDbEntity
  8
L1_115
  6
CONTINUOUS
 62
         4
100
AcDbLine
 10
1377.1423523827
 20
-31.8344406583
 30
0.0
 11
1419.1033403763
 21
10.1265473353
 31
0.0
  0
LINE
  5
29D
100
AcDbEntity
  8
L1_115
  6
CONTINUOUS
 62
         4
100
AcDbLine
 10
1373.4396841466
 20
-31.2944682072
 30
0.0
 11
1419.1033403763
 21
14.3691880224
 31
0.0
  0
LINE
  5
29E
100
AcDbEntity
  8
L1_115
  6
CONTINUOUS
 62
         4
100
AcDbLine
 10
1369.7370159106
 20
-30.7544957561
 30
0.0
 11
1418.9117699058
 21
18.4202582391
 31
0.0
  0
LINE
  5
29F
100
AcDbEntity
  8
L1_115
  6
CONTINUOUS
 62
         4
100
AcDbLine
 10
1366.0343476746
 20
-30.214523305
 30
0.0
 11
1411.4305362391
 21
15.1816652595
 31
0.0
  0
LINE
  5
2A0
100
AcDbEntity
  8
L1_115
  6
CONTINUOUS
 62
         4
100
AcDbLine
 10
1414.03729539
 20
17.7884244104
 30
0.0
 11
1415.0805362391
 21
18.8316652595
 31
0.0
  0
LINE
  5
2A1
100
AcDbEntity
  8
L1_115
  6
CONTINUOUS
 62
         4
100
AcDbLine
 10
1362.3316794385
 20
-29.6745508539
 30
0.0
 11
1401.4080450892
 21
9.4018147968
 31
0.0
  0
LINE
  5
2A2
100
AcDbEntity
  8
L1_115
  6
CONTINUOUS
 62
         4
100
AcDbLine
 10
1403.2033403763
 20
11.1971100838
 30
0.0
 11
1408.764275229
 21
16.7580449366
 31
0.0
  0
LINE
  5
2A3
100
AcDbEntity
  8
L1_115
  6
CONTINUOUS
 62
         4
100
AcDbLine
 10
1358.6290112025
 20
-29.1345784028
 30
0.0
 11
1367.8202548647
 21
-19.9433347407
 31
0.0
  0
LINE
  5
2A4
100
AcDbEntity
  8
L1_115
  6
CONTINUOUS
 62
         4
100
AcDbLine
 10
1373.1037919139
 20
-14.6597976914
 30
0.0
 11
1396.5402158749
 21
8.7766262695
 31
0.0
  0
LINE
  5
2A5
100
AcDbEntity
  8
L1_115
  6
CONTINUOUS
 62
         4
100
AcDbLine
 10
1403.2033403763
 20
15.4397507709
 30
0.0
 11
1406.5952548648
 21
18.8316652595
 31
0.0
  0
LINE
  5
2A6
100
AcDbEntity
  8
L1_115
  6
CONTINUOUS
 62
         4
100
AcDbLine
 10
1354.9263429665
 20
-28.5946059517
 30
0.0
 11
1363.5776141775
 21
-19.9433347407
 31
0.0
  0
LINE
  5
2A7
100
AcDbEntity
  8
L1_115
  6
CONTINUOUS
 62
         4
100
AcDbLine
 10
1372.8074157326
 20
-10.7135331857
 30
0.0
 11
1391.5732218997
 21
8.0522729815
 31
0.0
  0
LINE
  5
2A8
100
AcDbEntity
  8
L1_115
  6
CONTINUOUS
 62
         4
100
AcDbLine
 10
1351.2236747304
 20
-28.0546335007
 30
0.0
 11
1359.3349734904
 21
-19.9433347407
 31
0.0
  0
LINE
  5
2A9
100
AcDbEntity
  8
L1_115
  6
CONTINUOUS
 62
         4
100
AcDbLine
 10
1371.2545014619
 20
-8.0238067692
 30
0.0
 11
1386.6062279246
 21
7.3279196935
 31
0.0
  0
LINE
  5
2AA
100
AcDbEntity
  8
L1_115
  6
CONTINUOUS
 62
         4
100
AcDbLine
 10
1347.5210064944
 20
-27.5146610496
 30
0.0
 11
1355.0923328033
 21
-19.9433347407
 31
0.0
  0
LINE
  5
2AB
100
AcDbEntity
  8
L1_115
  6
CONTINUOUS
 62
         4
100
AcDbLine
 10
1369.0923328033
 20
-5.9433347407
 30
0.0
 11
1381.6392339494
 21
6.6035664054
 31
0.0
  0
LINE
  5
2AC
100
AcDbEntity
  8
L1_115
  6
CONTINUOUS
 62
         4
100
AcDbLine
 10
1343.8183382584
 20
-26.9746885985
 30
0.0
 11
1350.8496921162
 21
-19.9433347407
 31
0.0
  0
LINE
  5
2AD
100
AcDbEntity
  8
L1_115
  6
CONTINUOUS
 62
         4
100
AcDbLine
 10
1364.8496921162
 20
-5.9433347407
 30
0.0
 11
1376.6722399742
 21
5.8792131174
 31
0.0
  0
LINE
  5
2AE
100
AcDbEntity
  8
L1_115
  6
CONTINUOUS
 62
         4
100
AcDbLine
 10
1340.1156700223
 20
-26.4347161474
 30
0.0
 11
1346.6070514291
 21
-19.9433347407
 31
0.0
  0
LINE
  5
2AF
100
AcDbEntity
  8
L1_115
  6
CONTINUOUS
 62
         4
100
AcDbLine
 10
1360.6070514291
 20
-5.9433347407
 30
0.0
 11
1371.7052459991
 21
5.1548598293
 31
0.0
  0
LINE
  5
2B0
100
AcDbEntity
  8
L1_115
  6
CONTINUOUS
 62
         4
100
AcDbLine
 10
1336.4130017863
 20
-25.8947436963
 30
0.0
 11
1342.3644107419
 21
-19.9433347407
 31
0.0
  0
LINE
  5
2B1
100
AcDbEntity
  8
L1_115
  6
CONTINUOUS
 62
         4
100
AcDbLine
 10
1356.3644107419
 20
-5.9433347407
 30
0.0
 11
1366.7382520239
 21
4.4305065413
 31
0.0
  0
LINE
  5
2B2
100
AcDbEntity
  8
L1_115
  6
CONTINUOUS
 62
         4
100
AcDbLine
 10
1332.7120893251
 20
-25.3530154704
 30
0.0
 11
1338.1217700548
 21
-19.9433347407
 31
0.0
  0
LINE
  5
2B3
100
AcDbEntity
  8
L1_115
  6
CONTINUOUS
 62
         4
100
AcDbLine
 10
1352.1217700548
 20
-5.9433347407
 30
0.0
 11
1361.7712580487
 21
3.7061532532
 31
0.0
  0
LINE
  5
2B4
100
AcDbEntity
  8
L1_115
  6
CONTINUOUS
 62
         4
100
AcDbLine
 10
1331.7536408272
 20
-22.0688232812
 30
0.0
 11
1332.7288289167
 21
-21.0936351916
 31
0.0
  0
LINE
  5
2B5
100
AcDbEntity
  8
L1_115
  6
CONTINUOUS
 62
         4
100
AcDbLine
 10
1347.8791293677
 20
-5.9433347407
 30
0.0
 11
1356.8042640736
 21
2.9817999652
 31
0.0
  0
LINE
  5
2B6
100
AcDbEntity
  8
L1_115
  6
CONTINUOUS
 62
         4
100
AcDbLine
 10
1343.6364886806
 20
-5.9433347407
 30
0.0
 11
1351.8372700984
 21
2.2574466771
 31
0.0
  0
LINE
  5
2B7
100
AcDbEntity
  8
L1_115
  6
CONTINUOUS
 62
         4
100
AcDbLine
 10
1339.3938479935
 20
-5.9433347407
 30
0.0
 11
1346.8702761232
 21
1.5330933891
 31
0.0
  0
LINE
  5
2B8
100
AcDbEntity
  8
L1_115
  6
CONTINUOUS
 62
         4
100
AcDbLine
 10
1336.3898311943
 20
-4.7047108527
 30
0.0
 11
1341.9032821481
 21
0.8087401011
 31
0.0
  0
LINE
  5
2B9
100
AcDbEntity
  8
L1_115
  6
CONTINUOUS
 62
         4
100
AcDbLine
 10
1332.2155121641
 20
-4.6363891958
 30
0.0
 11
1336.9362881729
 21
0.084386813
 31
0.0
  0
ENDBLK
  5
2BA
100
AcDbEntity
  8
0
  6
CONTINUOUS
100
AcDbBlockEnd
  0
BLOCK
  5
2BE
100
AcDbEntity
  8
0
100
AcDbBlockBegin
  2
*D5
 70
        65
 10
0.0
 20
0.0
 30
0.0
  3
*D5
  1

  0
POINT
  5
2C0
100
AcDbEntity
  8
DEFPOINTS
  6
CONTINUOUS
 62
         0
100
AcDbPoint
 10
1590.7698910425
 20
59.616399125
 30
0.0
  0
POINT
  5
2C1
100
AcDbEntity
  8
DEFPOINTS
  6
CONTINUOUS
 62
         0
100
AcDbPoint
 10
1590.7698910425
 20
65.3716403392
 30
0.0
  0
POINT
  5
2C2
100
AcDbEntity
  8
DEFPOINTS
  6
CONTINUOUS
 62
         0
100
AcDbPoint
 10
1595.7698910425
 20
65.7716403392
 30
0.0
  0
LINE
  5
2C3
100
AcDbEntity
  8
L1_115
  6
CONTINUOUS
 62
         4
100
AcDbLine
 10
1590.7698910425
 20
64.0216403392
 30
0.0
 11
1590.7698910425
 21
58.941399125
 31
0.0
  0
LINE
  5
2C4
100
AcDbEntity
  8
L1_115
  6
CONTINUOUS
 62
         4
100
AcDbLine
 10
1595.7698910425
 20
64.4216403392
 30
0.0
 11
1595.7698910425
 21
58.941399125
 31
0.0
  0
LINE
  5
2C5
100
AcDbEntity
  8
L1_115
  6
CONTINUOUS
 62
         4
100
AcDbLine
 10
1590.7698910425
 20
59.616399125
 30
0.0
 11
1585.3698910425
 21
59.616399125
 31
0.0
  0
SOLID
  5
2C6
100
AcDbEntity
  8
L1_115
  6
CONTINUOUS
 62
         4
100
AcDbTrace
 10
1590.7698910425
 20
59.616399125
 30
0.0
 11
1588.0698910425
 21
59.211399125
 31
0.0
 12
1588.0698910425
 22
60.021399125
 32
0.0
 13
1590.7698910425
 23
59.616399125
 33
0.0
  0
LINE
  5
2C7
100
AcDbEntity
  8
L1_115
  6
CONTINUOUS
 62
         4
100
AcDbLine
 10
1595.7698910425
 20
59.616399125
 30
0.0
 11
1601.1698910425
 21
59.616399125
 31
0.0
  0
SOLID
  5
2C8
100
AcDbEntity
  8
L1_115
  6
CONTINUOUS
 62
         4
100
AcDbTrace
 10
1595.7698910425
 20
59.616399125
 30
0.0
 11
1598.4698910425
 21
60.021399125
 31
0.0
 12
1598.4698910425
 22
59.211399125
 32
0.0
 13
1595.7698910425
 23
59.616399125
 33
0.0
  0
LINE
  5
2C9
100
AcDbEntity
  8
L1_115
  6
CONTINUOUS
 62
         4
100
AcDbLine
 10
1590.7698910425
 20
59.616399125
 30
0.0
 11
1595.7698910425
 21
59.616399125
 31
0.0
  0
TEXT
  5
2CB
100
AcDbEntity
  8
L1_115
  6
CONTINUOUS
 62
         4
100
AcDbText
 10
1592.0160320899
 20
61.641399125
 30
0.0
 40
2.7
  1
5
  7
BOX
100
AcDbText
  0
ENDBLK
  5
2CC
100
AcDbEntity
  8
0
  6
CONTINUOUS
100
AcDbBlockEnd
  0
BLOCK
  5
2CF
100
AcDbEntity
  8
0
100
AcDbBlockBegin
  2
*D6
 70
        65
 10
0.0
 20
0.0
 30
0.0
  3
*D6
  1

  0
POINT
  5
2D1
100
AcDbEntity
  8
DEFPOINTS
  6
CONTINUOUS
 62
         0
100
AcDbPoint
 10
1792.2698910425
 20
104.132952199
 30
0.0
  0
POINT
  5
2D2
100
AcDbEntity
  8
DEFPOINTS
  6
CONTINUOUS
 62
         0
100
AcDbPoint
 10
1792.2698910425
 20
93.6716403392
 30
0.0
  0
POINT
  5
2D3
100
AcDbEntity
  8
DEFPOINTS
  6
CONTINUOUS
 62
         0
100
AcDbPoint
 10
1760.7698910425
 20
91.4716403392
 30
0.0
  0
LINE
  5
2D4
100
AcDbEntity
  8
L1_115
  6
CONTINUOUS
 62
         4
100
AcDbLine
 10
1792.2698910425
 20
95.0216403392
 30
0.0
 11
1792.2698910425
 21
104.807952199
 31
0.0
  0
LINE
  5
2D5
100
AcDbEntity
  8
L1_115
  6
CONTINUOUS
 62
         4
100
AcDbLine
 10
1760.7698910425
 20
92.8216403392
 30
0.0
 11
1760.7698910425
 21
104.807952199
 31
0.0
  0
LINE
  5
2D6
100
AcDbEntity
  8
L1_115
  6
CONTINUOUS
 62
         4
100
AcDbLine
 10
1792.2698910425
 20
104.132952199
 30
0.0
 11
1760.7698910425
 21
104.132952199
 31
0.0
  0
SOLID
  5
2D7
100
AcDbEntity
  8
L1_115
  6
CONTINUOUS
 62
         4
100
AcDbTrace
 10
1792.2698910425
 20
104.132952199
 30
0.0
 11
1789.5698910425
 21
103.727952199
 31
0.0
 12
1789.5698910425
 22
104.537952199
 32
0.0
 13
1792.2698910425
 23
104.132952199
 33
0.0
  0
SOLID
  5
2D8
100
AcDbEntity
  8
L1_115
  6
CONTINUOUS
 62
         4
100
AcDbTrace
 10
1760.7698910425
 20
104.132952199
 30
0.0
 11
1763.4698910425
 21
104.537952199
 31
0.0
 12
1763.4698910425
 22
103.727952199
 32
0.0
 13
1760.7698910425
 23
104.132952199
 33
0.0
  0
TEXT
  5
2DA
100
AcDbEntity
  8
L1_115
  6
CONTINUOUS
 62
         4
100
AcDbText
 10
1770.0448219048
 20
106.157952199
 30
0.0
 40
2.7
  1
31.5
  7
BOX
100
AcDbText
  0
ENDBLK
  5
2DB
100
AcDbEntity
  8
0
  6
CONTINUOUS
100
AcDbBlockEnd
  0
BLOCK
  5
2DD
100
AcDbEntity
  8
0
100
AcDbBlockBegin
  2
*D7
 70
        65
 10
0.0
 20
0.0
 30
0.0
  3
*D7
  1

  0
POINT
  5
2DF
100
AcDbEntity
  8
DEFPOINTS
  6
CONTINUOUS
 62
         0
100
AcDbPoint
 10
1792.2698910425
 20
97.4227063905
 30
0.0
  0
POINT
  5
2E0
100
AcDbEntity
  8
DEFPOINTS
  6
CONTINUOUS
 62
         0
100
AcDbPoint
 10
1792.2698910425
 20
93.6716403392
 30
0.0
  0
POINT
  5
2E1
100
AcDbEntity
  8
DEFPOINTS
  6
CONTINUOUS
 62
         0
100
AcDbPoint
 10
1785.2698910425
 20
93.6716403392
 30
0.0
  0
LINE
  5
2E2
100
AcDbEntity
  8
L1_115
  6
CONTINUOUS
 62
         4
100
AcDbLine
 10
1792.2698910425
 20
95.0216403392
 30
0.0
 11
1792.2698910425
 21
98.0977063905
 31
0.0
  0
LINE
  5
2E3
100
AcDbEntity
  8
L1_115
  6
CONTINUOUS
 62
         4
100
AcDbLine
 10
1785.2698910425
 20
95.0216403392
 30
0.0
 11
1785.2698910425
 21
98.0977063905
 31
0.0
  0
LINE
  5
2E4
100
AcDbEntity
  8
L1_115
  6
CONTINUOUS
 62
         4
100
AcDbLine
 10
1792.2698910425
 20
97.4227063905
 30
0.0
 11
1785.2698910425
 21
97.4227063905
 31
0.0
  0
SOLID
  5
2E5
100
AcDbEntity
  8
L1_115
  6
CONTINUOUS
 62
         4
100
AcDbTrace
 10
1792.2698910425
 20
97.4227063905
 30
0.0
 11
1789.5698910425
 21
97.0177063905
 31
0.0
 12
1789.5698910425
 22
97.8277063905
 32
0.0
 13
1792.2698910425
 23
97.4227063905
 33
0.0
  0
SOLID
  5
2E6
100
AcDbEntity
  8
L1_115
  6
CONTINUOUS
 62
         4
100
AcDbTrace
 10
1785.2698910425
 20
97.4227063905
 30
0.0
 11
1787.9698910425
 21
97.8277063905
 31
0.0
 12
1787.9698910425
 22
97.0177063905
 32
0.0
 13
1785.2698910425
 23
97.4227063905
 33
0.0
  0
TEXT
  5
2E8
100
AcDbEntity
  8
L1_115
  6
CONTINUOUS
 62
         4
100
AcDbText
 10
1787.4646701571
 20
99.4477063905
 30
0.0
 40
2.7
  1
7
  7
BOX
100
AcDbText
  0
ENDBLK
  5
2E9
100
AcDbEntity
  8
0
  6
CONTINUOUS
100
AcDbBlockEnd
  0
BLOCK
  5
2EB
100
AcDbEntity
  8
0
100
AcDbBlockBegin
  2
*D8
 70
        65
 10
0.0
 20
0.0
 30
0.0
  3
*D8
  1

  0
POINT
  5
2ED
100
AcDbEntity
  8
DEFPOINTS
  6
CONTINUOUS
 62
         0
100
AcDbPoint
 10
1799.2122167139
 20
94.1716403392
 30
0.0
  0
POINT
  5
2EE
100
AcDbEntity
  8
DEFPOINTS
  6
CONTINUOUS
 62
         0
100
AcDbPoint
 10
1791.7698910425
 20
94.1716403392
 30
0.0
  0
POINT
  5
2EF
100
AcDbEntity
  8
DEFPOINTS
  6
CONTINUOUS
 62
         0
100
AcDbPoint
 10
1791.7698910425
 20
55.1716403392
 30
0.0
  0
LINE
  5
2F0
100
AcDbEntity
  8
L1_115
  6
CONTINUOUS
 62
         4
100
AcDbLine
 10
1793.1198910425
 20
94.1716403392
 30
0.0
 11
1799.8872167139
 21
94.1716403392
 31
0.0
  0
LINE
  5
2F1
100
AcDbEntity
  8
L1_115
  6
CONTINUOUS
 62
         4
100
AcDbLine
 10
1793.1198910425
 20
55.1716403392
 30
0.0
 11
1799.8872167139
 21
55.1716403392
 31
0.0
  0
LINE
  5
2F2
100
AcDbEntity
  8
L1_115
  6
CONTINUOUS
 62
         4
100
AcDbLine
 10
1799.2122167139
 20
94.1716403392
 30
0.0
 11
1799.2122167139
 21
55.1716403392
 31
0.0
  0
SOLID
  5
2F3
100
AcDbEntity
  8
L1_115
  6
CONTINUOUS
 62
         4
100
AcDbTrace
 10
1799.2122167139
 20
94.1716403392
 30
0.0
 11
1799.6172167139
 21
91.4716403392
 31
0.0
 12
1798.8072167139
 22
91.4716403392
 32
0.0
 13
1799.2122167139
 23
94.1716403392
 33
0.0
  0
SOLID
  5
2F4
100
AcDbEntity
  8
L1_115
  6
CONTINUOUS
 62
         4
100
AcDbTrace
 10
1799.2122167139
 20
55.1716403392
 30
0.0
 11
1798.8072167139
 21
57.8716403392
 31
0.0
 12
1799.6172167139
 22
57.8716403392
 32
0.0
 13
1799.2122167139
 23
55.1716403392
 33
0.0
  0
TEXT
  5
2F6
100
AcDbEntity
  8
L1_115
  6
CONTINUOUS
 62
         4
100
AcDbText
 10
1797.1872167139
 20
70.2026325059
 30
0.0
 40
2.7
  1
崷39
 50
90.0
  7
BOX
100
AcDbText
  0
ENDBLK
  5
2F7
100
AcDbEntity
  8
0
  6
CONTINUOUS
100
AcDbBlockEnd
  0
BLOCK
  5
2F9
100
AcDbEntity
  8
0
100
AcDbBlockBegin
  2
*D9
 70
        65
 10
0.0
 20
0.0
 30
0.0
  3
*D9
  1

  0
POINT
  5
2FB
100
AcDbEntity
  8
DEFPOINTS
  6
CONTINUOUS
 62
         0
100
AcDbPoint
 10
1758.022280179
 20
91.6716403392
 30
0.0
  0
POINT
  5
2FC
100
AcDbEntity
  8
DEFPOINTS
  6
CONTINUOUS
 62
         0
100
AcDbPoint
 10
1760.9698910425
 20
91.6716403392
 30
0.0
  0
POINT
  5
2FD
100
AcDbEntity
  8
DEFPOINTS
  6
CONTINUOUS
 62
         0
100
AcDbPoint
 10
1760.9698910425
 20
57.6716403392
 30
0.0
  0
LINE
  5
2FE
100
AcDbEntity
  8
L1_115
  6
CONTINUOUS
 62
         4
100
AcDbLine
 10
1759.6198910425
 20
91.6716403392
 30
0.0
 11
1757.347280179
 21
91.6716403392
 31
0.0
  0
LINE
  5
2FF
100
AcDbEntity
  8
L1_115
  6
CONTINUOUS
 62
         4
100
AcDbLine
 10
1759.6198910425
 20
57.6716403392
 30
0.0
 11
1757.347280179
 21
57.6716403392
 31
0.0
  0
LINE
  5
300
100
AcDbEntity
  8
L1_115
  6
CONTINUOUS
 62
         4
100
AcDbLine
 10
1758.022280179
 20
91.6716403392
 30
0.0
 11
1758.022280179
 21
57.6716403392
 31
0.0
  0
SOLID
  5
301
100
AcDbEntity
  8
L1_115
  6
CONTINUOUS
 62
         4
100
AcDbTrace
 10
1758.022280179
 20
91.6716403392
 30
0.0
 11
1758.427280179
 21
88.9716403392
 31
0.0
 12
1757.617280179
 22
88.9716403392
 32
0.0
 13
1758.022280179
 23
91.6716403392
 33
0.0
  0
SOLID
  5
302
100
AcDbEntity
  8
L1_115
  6
CONTINUOUS
 62
         4
100
AcDbTrace
 10
1758.022280179
 20
57.6716403392
 30
0.0
 11
1757.617280179
 21
60.3716403392
 31
0.0
 12
1758.427280179
 22
60.3716403392
 32
0.0
 13
1758.022280179
 23
57.6716403392
 33
0.0
  0
TEXT
  5
304
100
AcDbEntity
  8
L1_115
  6
CONTINUOUS
 62
         4
100
AcDbText
 10
1755.997280179
 20
63.4938558649
 30
0.0
 40
2.7
  1
崷33.99
 50
90.0
  7
BOX
100
AcDbText
  0
ENDBLK
  5
305
100
AcDbEntity
  8
0
  6
CONTINUOUS
100
AcDbBlockEnd
  0
BLOCK
  5
326
100
AcDbEntity
  8
0
100
AcDbBlockBegin
  2
*D10
 70
        65
 10
0.0
 20
0.0
 30
0.0
  3
*D10
  1

  0
POINT
  5
328
100
AcDbEntity
  8
DEFPOINTS
  6
CONTINUOUS
 62
         0
100
AcDbPoint
 10
1739.3798910426
 20
89.1869704393
 30
0.0
  0
POINT
  5
329
100
AcDbEntity
  8
DEFPOINTS
  6
CONTINUOUS
 62
         0
100
AcDbPoint
 10
1739.3798910426
 20
84.0716403392
 30
0.0
  0
POINT
  5
32A
100
AcDbEntity
  8
DEFPOINTS
  6
CONTINUOUS
 62
         0
100
AcDbPoint
 10
1740.8798910426
 20
84.0716403392
 30
0.0
  0
LINE
  5
32B
100
AcDbEntity
  8
L1_115
  6
CONTINUOUS
 62
         4
100
AcDbLine
 10
1739.3798910426
 20
85.4216403392
 30
0.0
 11
1739.3798910426
 21
89.8619704393
 31
0.0
  0
LINE
  5
32C
100
AcDbEntity
  8
L1_115
  6
CONTINUOUS
 62
         4
100
AcDbLine
 10
1740.8798910426
 20
85.4216403392
 30
0.0
 11
1740.8798910426
 21
89.8619704393
 31
0.0
  0
LINE
  5
32D
100
AcDbEntity
  8
L1_115
  6
CONTINUOUS
 62
         4
100
AcDbLine
 10
1739.3798910426
 20
89.1869704393
 30
0.0
 11
1733.9798910426
 21
89.1869704393
 31
0.0
  0
SOLID
  5
32E
100
AcDbEntity
  8
L1_115
  6
CONTINUOUS
 62
         4
100
AcDbTrace
 10
1739.3798910426
 20
89.1869704393
 30
0.0
 11
1736.6798910426
 21
88.7819704393
 31
0.0
 12
1736.6798910426
 22
89.5919704393
 32
0.0
 13
1739.3798910426
 23
89.1869704393
 33
0.0
  0
LINE
  5
32F
100
AcDbEntity
  8
L1_115
  6
CONTINUOUS
 62
         4
100
AcDbLine
 10
1740.8798910426
 20
89.1869704393
 30
0.0
 11
1751.7522633949
 21
89.1869704393
 31
0.0
  0
SOLID
  5
330
100
AcDbEntity
  8
L1_115
  6
CONTINUOUS
 62
         4
100
AcDbTrace
 10
1740.8798910426
 20
89.1869704393
 30
0.0
 11
1743.5798910426
 21
89.5919704393
 31
0.0
 12
1743.5798910426
 22
88.7819704393
 32
0.0
 13
1740.8798910426
 23
89.1869704393
 33
0.0
  0
LINE
  5
331
100
AcDbEntity
  8
L1_115
  6
CONTINUOUS
 62
         4
100
AcDbLine
 10
1739.3798910426
 20
89.1869704393
 30
0.0
 11
1740.8798910426
 21
89.1869704393
 31
0.0
  0
TEXT
  5
333
100
AcDbEntity
  8
L1_115
  6
CONTINUOUS
 62
         4
100
AcDbText
 10
1742.3022633949
 20
91.2119704393
 30
0.0
 40
2.7
  1
1.5
  7
BOX
100
AcDbText
  0
ENDBLK
  5
334
100
AcDbEntity
  8
0
  6
CONTINUOUS
100
AcDbBlockEnd
  0
BLOCK
  5
336
100
AcDbEntity
  8
0
100
AcDbBlockBegin
  2
*D11
 70
        65
 10
0.0
 20
0.0
 30
0.0
  3
*D11
  1

  0
POINT
  5
338
100
AcDbEntity
  8
DEFPOINTS
  6
CONTINUOUS
 62
         0
100
AcDbPoint
 10
1728.7298910426
 20
87.1230524952
 30
0.0
  0
POINT
  5
339
100
AcDbEntity
  8
DEFPOINTS
  6
CONTINUOUS
 62
         0
100
AcDbPoint
 10
1728.7298910426
 20
83.8716403392
 30
0.0
  0
POINT
  5
33A
100
AcDbEntity
  8
DEFPOINTS
  6
CONTINUOUS
 62
         0
100
AcDbPoint
 10
1733.2298910426
 20
83.8716403392
 30
0.0
  0
LINE
  5
33B
100
AcDbEntity
  8
L1_115
  6
CONTINUOUS
 62
         4
100
AcDbLine
 10
1728.7298910426
 20
85.2216403392
 30
0.0
 11
1728.7298910426
 21
87.7980524952
 31
0.0
  0
LINE
  5
33C
100
AcDbEntity
  8
L1_115
  6
CONTINUOUS
 62
         4
100
AcDbLine
 10
1733.2298910426
 20
85.2216403392
 30
0.0
 11
1733.2298910426
 21
87.7980524952
 31
0.0
  0
LINE
  5
33D
100
AcDbEntity
  8
L1_115
  6
CONTINUOUS
 62
         4
100
AcDbLine
 10
1728.7298910426
 20
87.1230524952
 30
0.0
 11
1717.9936333122
 21
87.1230524952
 31
0.0
  0
SOLID
  5
33E
100
AcDbEntity
  8
L1_115
  6
CONTINUOUS
 62
         4
100
AcDbTrace
 10
1728.7298910426
 20
87.1230524952
 30
0.0
 11
1726.0298910426
 21
86.7180524952
 31
0.0
 12
1726.0298910426
 22
87.5280524952
 32
0.0
 13
1728.7298910426
 23
87.1230524952
 33
0.0
  0
LINE
  5
33F
100
AcDbEntity
  8
L1_115
  6
CONTINUOUS
 62
         4
100
AcDbLine
 10
1733.2298910426
 20
87.1230524952
 30
0.0
 11
1738.6298910426
 21
87.1230524952
 31
0.0
  0
SOLID
  5
340
100
AcDbEntity
  8
L1_115
  6
CONTINUOUS
 62
         4
100
AcDbTrace
 10
1733.2298910426
 20
87.1230524952
 30
0.0
 11
1735.9298910426
 21
87.5280524952
 31
0.0
 12
1735.9298910426
 22
86.7180524952
 32
0.0
 13
1733.2298910426
 23
87.1230524952
 33
0.0
  0
LINE
  5
341
100
AcDbEntity
  8
L1_115
  6
CONTINUOUS
 62
         4
100
AcDbLine
 10
1728.7298910426
 20
87.1230524952
 30
0.0
 11
1733.2298910426
 21
87.1230524952
 31
0.0
  0
TEXT
  5
343
100
AcDbEntity
  8
L1_115
  6
CONTINUOUS
 62
         4
100
AcDbText
 10
1719.3436333122
 20
89.1480524952
 30
0.0
 40
2.7
  1
4.5
  7
BOX
100
AcDbText
  0
ENDBLK
  5
344
100
AcDbEntity
  8
0
  6
CONTINUOUS
100
AcDbBlockEnd
  0
BLOCK
  5
346
100
AcDbEntity
  8
0
100
AcDbBlockBegin
  2
*D12
 70
        65
 10
0.0
 20
0.0
 30
0.0
  3
*D12
  1

  0
POINT
  5
348
100
AcDbEntity
  8
DEFPOINTS
  6
CONTINUOUS
 62
         0
100
AcDbPoint
 10
1728.7298910426
 20
92.7251154863
 30
0.0
  0
POINT
  5
349
100
AcDbEntity
  8
DEFPOINTS
  6
CONTINUOUS
 62
         0
100
AcDbPoint
 10
1728.7298910426
 20
83.6716403392
 30
0.0
  0
POINT
  5
34A
100
AcDbEntity
  8
DEFPOINTS
  6
CONTINUOUS
 62
         0
100
AcDbPoint
 10
1740.8798910426
 20
84.0716403392
 30
0.0
  0
LINE
  5
34B
100
AcDbEntity
  8
L1_115
  6
CONTINUOUS
 62
         4
100
AcDbLine
 10
1728.7298910426
 20
85.0216403392
 30
0.0
 11
1728.7298910426
 21
93.4001154863
 31
0.0
  0
LINE
  5
34C
100
AcDbEntity
  8
L1_115
  6
CONTINUOUS
 62
         4
100
AcDbLine
 10
1740.8798910426
 20
85.4216403392
 30
0.0
 11
1740.8798910426
 21
93.4001154863
 31
0.0
  0
LINE
  5
34D
100
AcDbEntity
  8
L1_115
  6
CONTINUOUS
 62
         4
100
AcDbLine
 10
1728.7298910426
 20
92.7251154863
 30
0.0
 11
1740.8798910426
 21
92.7251154863
 31
0.0
  0
SOLID
  5
34E
100
AcDbEntity
  8
L1_115
  6
CONTINUOUS
 62
         4
100
AcDbTrace
 10
1728.7298910426
 20
92.7251154863
 30
0.0
 11
1731.4298910426
 21
93.1301154863
 31
0.0
 12
1731.4298910426
 22
92.3201154863
 32
0.0
 13
1728.7298910426
 23
92.7251154863
 33
0.0
  0
SOLID
  5
34F
100
AcDbEntity
  8
L1_115
  6
CONTINUOUS
 62
         4
100
AcDbTrace
 10
1740.8798910426
 20
92.7251154863
 30
0.0
 11
1738.1798910426
 21
92.3201154863
 31
0.0
 12
1738.1798910426
 22
93.1301154863
 32
0.0
 13
1740.8798910426
 23
92.7251154863
 33
0.0
  0
TEXT
  5
351
100
AcDbEntity
  8
L1_115
  6
CONTINUOUS
 62
         4
100
AcDbText
 10
1728.2801992445
 20
94.7501154863
 30
0.0
 40
2.7
  1
12.15
  7
BOX
100
AcDbText
  0
ENDBLK
  5
352
100
AcDbEntity
  8
0
  6
CONTINUOUS
100
AcDbBlockEnd
  0
BLOCK
  5
354
100
AcDbEntity
  8
0
100
AcDbBlockBegin
  2
*D13
 70
        65
 10
0.0
 20
0.0
 30
0.0
  3
*D13
  1

  0
POINT
  5
356
100
AcDbEntity
  8
DEFPOINTS
  6
CONTINUOUS
 62
         0
100
AcDbPoint
 10
1725.4057922571
 20
84.1716403392
 30
0.0
  0
POINT
  5
357
100
AcDbEntity
  8
DEFPOINTS
  6
CONTINUOUS
 62
         0
100
AcDbPoint
 10
1729.2298910426
 20
84.1716403392
 30
0.0
  0
POINT
  5
358
100
AcDbEntity
  8
DEFPOINTS
  6
CONTINUOUS
 62
         0
100
AcDbPoint
 10
1729.2298910426
 20
65.1716403392
 30
0.0
  0
LINE
  5
359
100
AcDbEntity
  8
L1_115
  6
CONTINUOUS
 62
         4
100
AcDbLine
 10
1727.8798910426
 20
84.1716403392
 30
0.0
 11
1724.7307922571
 21
84.1716403392
 31
0.0
  0
LINE
  5
35A
100
AcDbEntity
  8
L1_115
  6
CONTINUOUS
 62
         4
100
AcDbLine
 10
1727.8798910426
 20
65.1716403392
 30
0.0
 11
1724.7307922571
 21
65.1716403392
 31
0.0
  0
LINE
  5
35B
100
AcDbEntity
  8
L1_115
  6
CONTINUOUS
 62
         4
100
AcDbLine
 10
1725.4057922571
 20
84.1716403392
 30
0.0
 11
1725.4057922571
 21
65.1716403392
 31
0.0
  0
SOLID
  5
35C
100
AcDbEntity
  8
L1_115
  6
CONTINUOUS
 62
         4
100
AcDbTrace
 10
1725.4057922571
 20
84.1716403392
 30
0.0
 11
1725.8107922571
 21
81.4716403392
 31
0.0
 12
1725.0007922571
 22
81.4716403392
 32
0.0
 13
1725.4057922571
 23
84.1716403392
 33
0.0
  0
SOLID
  5
35D
100
AcDbEntity
  8
L1_115
  6
CONTINUOUS
 62
         4
100
AcDbTrace
 10
1725.4057922571
 20
65.1716403392
 30
0.0
 11
1725.0007922571
 21
67.8716403392
 31
0.0
 12
1725.8107922571
 22
67.8716403392
 32
0.0
 13
1725.4057922571
 23
65.1716403392
 33
0.0
  0
TEXT
  5
35F
100
AcDbEntity
  8
L1_115
  6
CONTINUOUS
 62
         4
100
AcDbText
 10
1723.3807922571
 20
69.4712452043
 30
0.0
 40
2.7
  1
崷19
 50
90.0
  7
BOX
100
AcDbText
  0
ENDBLK
  5
360
100
AcDbEntity
  8
0
  6
CONTINUOUS
100
AcDbBlockEnd
  0
BLOCK
  5
377
100
AcDbEntity
  8
0
100
AcDbBlockBegin
  2
*D14
 70
        65
 10
0.0
 20
0.0
 30
0.0
  3
*D14
  1

  0
POINT
  5
379
100
AcDbEntity
  8
DEFPOINTS
  6
CONTINUOUS
 62
         0
100
AcDbPoint
 10
1711.5073743233
 20
87.3716403392
 30
0.0
  0
POINT
  5
37A
100
AcDbEntity
  8
DEFPOINTS
  6
CONTINUOUS
 62
         0
100
AcDbPoint
 10
1696.7698910425
 20
87.3716403392
 30
0.0
  0
POINT
  5
37B
100
AcDbEntity
  8
DEFPOINTS
  6
CONTINUOUS
 62
         0
100
AcDbPoint
 10
1696.7698910425
 20
61.9716403392
 30
0.0
  0
LINE
  5
37C
100
AcDbEntity
  8
L1_115
  6
CONTINUOUS
 62
         4
100
AcDbLine
 10
1698.1198910425
 20
87.3716403392
 30
0.0
 11
1712.1823743233
 21
87.3716403392
 31
0.0
  0
LINE
  5
37D
100
AcDbEntity
  8
L1_115
  6
CONTINUOUS
 62
         4
100
AcDbLine
 10
1698.1198910425
 20
61.9716403392
 30
0.0
 11
1712.1823743233
 21
61.9716403392
 31
0.0
  0
LINE
  5
37E
100
AcDbEntity
  8
L1_115
  6
CONTINUOUS
 62
         4
100
AcDbLine
 10
1711.5073743233
 20
87.3716403392
 30
0.0
 11
1711.5073743233
 21
61.9716403392
 31
0.0
  0
SOLID
  5
37F
100
AcDbEntity
  8
L1_115
  6
CONTINUOUS
 62
         4
100
AcDbTrace
 10
1711.5073743233
 20
87.3716403392
 30
0.0
 11
1711.9123743233
 21
84.6716403392
 31
0.0
 12
1711.1023743233
 22
84.6716403392
 32
0.0
 13
1711.5073743233
 23
87.3716403392
 33
0.0
  0
SOLID
  5
380
100
AcDbEntity
  8
L1_115
  6
CONTINUOUS
 62
         4
100
AcDbTrace
 10
1711.5073743233
 20
61.9716403392
 30
0.0
 11
1711.1023743233
 21
64.6716403392
 31
0.0
 12
1711.9123743233
 22
64.6716403392
 32
0.0
 13
1711.5073743233
 23
61.9716403392
 33
0.0
  0
TEXT
  5
382
100
AcDbEntity
  8
L1_115
  6
CONTINUOUS
 62
         4
100
AcDbText
 10
1709.4823743233
 20
63.1840162904
 30
0.0
 40
2.7
  1
崷25.4g6
 50
90.0
  7
BOX
100
AcDbText
  0
ENDBLK
  5
383
100
AcDbEntity
  8
0
  6
CONTINUOUS
100
AcDbBlockEnd
  0
BLOCK
  5
385
100
AcDbEntity
  8
0
100
AcDbBlockBegin
  2
*D15
 70
        65
 10
0.0
 20
0.0
 30
0.0
  3
*D15
  1

  0
POINT
  5
387
100
AcDbEntity
  8
DEFPOINTS
  6
CONTINUOUS
 62
         0
100
AcDbPoint
 10
1704.7865143254
 20
79.9216403392
 30
0.0
  0
POINT
  5
388
100
AcDbEntity
  8
DEFPOINTS
  6
CONTINUOUS
 62
         0
100
AcDbPoint
 10
1697.4698910426
 20
79.9216403392
 30
0.0
  0
POINT
  5
389
100
AcDbEntity
  8
DEFPOINTS
  6
CONTINUOUS
 62
         0
100
AcDbPoint
 10
1697.4698910426
 20
69.4216403392
 30
0.0
  0
LINE
  5
38A
100
AcDbEntity
  8
L1_115
  6
CONTINUOUS
 62
         4
100
AcDbLine
 10
1698.8198910426
 20
79.9216403392
 30
0.0
 11
1705.4615143254
 21
79.9216403392
 31
0.0
  0
LINE
  5
38B
100
AcDbEntity
  8
L1_115
  6
CONTINUOUS
 62
         4
100
AcDbLine
 10
1698.8198910426
 20
69.4216403392
 30
0.0
 11
1705.4615143254
 21
69.4216403392
 31
0.0
  0
LINE
  5
38C
100
AcDbEntity
  8
L1_115
  6
CONTINUOUS
 62
         4
100
AcDbLine
 10
1704.7865143254
 20
79.9216403392
 30
0.0
 11
1704.7865143254
 21
69.4216403392
 31
0.0
  0
SOLID
  5
38D
100
AcDbEntity
  8
L1_115
  6
CONTINUOUS
 62
         4
100
AcDbTrace
 10
1704.7865143254
 20
79.9216403392
 30
0.0
 11
1705.1915143254
 21
77.2216403392
 31
0.0
 12
1704.3815143254
 22
77.2216403392
 32
0.0
 13
1704.7865143254
 23
79.9216403392
 33
0.0
  0
SOLID
  5
38E
100
AcDbEntity
  8
L1_115
  6
CONTINUOUS
 62
         4
100
AcDbTrace
 10
1704.7865143254
 20
69.4216403392
 30
0.0
 11
1704.3815143254
 21
72.1216403392
 31
0.0
 12
1705.1915143254
 22
72.1216403392
 32
0.0
 13
1704.7865143254
 23
69.4216403392
 33
0.0
  0
TEXT
  5
390
100
AcDbEntity
  8
L1_115
  6
CONTINUOUS
 62
         4
100
AcDbText
 10
1702.7615143254
 20
69.1440879568
 30
0.0
 40
2.7
  1
10.5
 50
90.0
  7
BOX
100
AcDbText
  0
ENDBLK
  5
391
100
AcDbEntity
  8
0
  6
CONTINUOUS
100
AcDbBlockEnd
  0
BLOCK
  5
393
100
AcDbEntity
  8
0
100
AcDbBlockBegin
  2
*D16
 70
        65
 10
0.0
 20
0.0
 30
0.0
  3
*D16
  1

  0
POINT
  5
395
100
AcDbEntity
  8
DEFPOINTS
  6
CONTINUOUS
 62
         0
100
AcDbPoint
 10
1618.0477949354
 20
90.6716403392
 30
0.0
  0
POINT
  5
396
100
AcDbEntity
  8
DEFPOINTS
  6
CONTINUOUS
 62
         0
100
AcDbPoint
 10
1623.9698910426
 20
90.6716403392
 30
0.0
  0
POINT
  5
397
100
AcDbEntity
  8
DEFPOINTS
  6
CONTINUOUS
 62
         0
100
AcDbPoint
 10
1623.9698910426
 20
58.6716403392
 30
0.0
  0
LINE
  5
398
100
AcDbEntity
  8
L1_115
  6
CONTINUOUS
 62
         4
100
AcDbLine
 10
1622.6198910426
 20
90.6716403392
 30
0.0
 11
1617.3727949354
 21
90.6716403392
 31
0.0
  0
LINE
  5
399
100
AcDbEntity
  8
L1_115
  6
CONTINUOUS
 62
         4
100
AcDbLine
 10
1622.6198910426
 20
58.6716403392
 30
0.0
 11
1617.3727949354
 21
58.6716403392
 31
0.0
  0
LINE
  5
39A
100
AcDbEntity
  8
L1_115
  6
CONTINUOUS
 62
         4
100
AcDbLine
 10
1618.0477949354
 20
90.6716403392
 30
0.0
 11
1618.0477949354
 21
58.6716403392
 31
0.0
  0
SOLID
  5
39B
100
AcDbEntity
  8
L1_115
  6
CONTINUOUS
 62
         4
100
AcDbTrace
 10
1618.0477949354
 20
90.6716403392
 30
0.0
 11
1618.4527949354
 21
87.9716403392
 31
0.0
 12
1617.6427949354
 22
87.9716403392
 32
0.0
 13
1618.0477949354
 23
90.6716403392
 33
0.0
  0
SOLID
  5
39C
100
AcDbEntity
  8
L1_115
  6
CONTINUOUS
 62
         4
100
AcDbTrace
 10
1618.0477949354
 20
58.6716403392
 30
0.0
 11
1617.6427949354
 21
61.3716403392
 31
0.0
 12
1618.4527949354
 22
61.3716403392
 32
0.0
 13
1618.0477949354
 23
58.6716403392
 33
0.0
  0
TEXT
  5
39E
100
AcDbEntity
  8
L1_115
  6
CONTINUOUS
 62
         4
100
AcDbText
 10
1616.0227949354
 20
67.5739783367
 30
0.0
 40
2.7
  1
崷32f7
 50
90.0
  7
BOX
100
AcDbText
  0
ENDBLK
  5
39F
100
AcDbEntity
  8
0
  6
CONTINUOUS
100
AcDbBlockEnd
  0
BLOCK
  5
3A1
100
AcDbEntity
  8
0
100
AcDbBlockBegin
  2
*D17
 70
        65
 10
0.0
 20
0.0
 30
0.0
  3
*D17
  1

  0
POINT
  5
3A3
100
AcDbEntity
  8
DEFPOINTS
  6
CONTINUOUS
 62
         0
100
AcDbPoint
 10
1697.9698910426
 20
102.0696377037
 30
0.0
  0
POINT
  5
3A4
100
AcDbEntity
  8
DEFPOINTS
  6
CONTINUOUS
 62
         0
100
AcDbPoint
 10
1697.9698910426
 20
86.8716403392
 30
0.0
  0
POINT
  5
3A5
100
AcDbEntity
  8
DEFPOINTS
  6
CONTINUOUS
 62
         0
100
AcDbPoint
 10
1622.9698910426
 20
89.6716403392
 30
0.0
  0
LINE
  5
3A6
100
AcDbEntity
  8
L1_115
  6
CONTINUOUS
 62
         4
100
AcDbLine
 10
1697.9698910426
 20
88.2216403392
 30
0.0
 11
1697.9698910426
 21
102.7446377037
 31
0.0
  0
LINE
  5
3A7
100
AcDbEntity
  8
L1_115
  6
CONTINUOUS
 62
         4
100
AcDbLine
 10
1622.9698910426
 20
91.0216403392
 30
0.0
 11
1622.9698910426
 21
102.7446377037
 31
0.0
  0
LINE
  5
3A8
100
AcDbEntity
  8
L1_115
  6
CONTINUOUS
 62
         4
100
AcDbLine
 10
1697.9698910426
 20
102.0696377037
 30
0.0
 11
1622.9698910426
 21
102.0696377037
 31
0.0
  0
SOLID
  5
3A9
100
AcDbEntity
  8
L1_115
  6
CONTINUOUS
 62
         4
100
AcDbTrace
 10
1697.9698910426
 20
102.0696377037
 30
0.0
 11
1695.2698910426
 21
101.6646377037
 31
0.0
 12
1695.2698910426
 22
102.4746377037
 32
0.0
 13
1697.9698910426
 23
102.0696377037
 33
0.0
  0
SOLID
  5
3AA
100
AcDbEntity
  8
L1_115
  6
CONTINUOUS
 62
         4
100
AcDbTrace
 10
1622.9698910426
 20
102.0696377037
 30
0.0
 11
1625.6698910426
 21
102.4746377037
 31
0.0
 12
1625.6698910426
 22
101.6646377037
 32
0.0
 13
1622.9698910426
 23
102.0696377037
 33
0.0
  0
TEXT
  5
3AC
100
AcDbEntity
  8
L1_115
  6
CONTINUOUS
 62
         4
100
AcDbText
 10
1658.9373158174
 20
104.0946377037
 30
0.0
 40
2.7
  1
75
  7
BOX
100
AcDbText
  0
ENDBLK
  5
3AD
100
AcDbEntity
  8
0
  6
CONTINUOUS
100
AcDbBlockEnd
  0
BLOCK
  5
3AF
100
AcDbEntity
  8
0
100
AcDbBlockBegin
  2
*D18
 70
        65
 10
0.0
 20
0.0
 30
0.0
  3
*D18
  1

  0
POINT
  5
3B1
100
AcDbEntity
  8
DEFPOINTS
  6
CONTINUOUS
 62
         0
100
AcDbPoint
 10
1666.4698910426
 20
95.8021304686
 30
0.0
  0
POINT
  5
3B2
100
AcDbEntity
  8
DEFPOINTS
  6
CONTINUOUS
 62
         0
100
AcDbPoint
 10
1666.4698910426
 20
89.6716403392
 30
0.0
  0
POINT
  5
3B3
100
AcDbEntity
  8
DEFPOINTS
  6
CONTINUOUS
 62
         0
100
AcDbPoint
 10
1697.9698910426
 20
86.8716403392
 30
0.0
  0
LINE
  5
3B4
100
AcDbEntity
  8
L1_115
  6
CONTINUOUS
 62
         4
100
AcDbLine
 10
1666.4698910426
 20
91.0216403392
 30
0.0
 11
1666.4698910426
 21
96.4771304686
 31
0.0
  0
LINE
  5
3B5
100
AcDbEntity
  8
L1_115
  6
CONTINUOUS
 62
         4
100
AcDbLine
 10
1697.9698910426
 20
88.2216403392
 30
0.0
 11
1697.9698910426
 21
96.4771304686
 31
0.0
  0
LINE
  5
3B6
100
AcDbEntity
  8
L1_115
  6
CONTINUOUS
 62
         4
100
AcDbLine
 10
1666.4698910426
 20
95.8021304686
 30
0.0
 11
1697.9698910426
 21
95.8021304686
 31
0.0
  0
SOLID
  5
3B7
100
AcDbEntity
  8
L1_115
  6
CONTINUOUS
 62
         4
100
AcDbTrace
 10
1666.4698910426
 20
95.8021304686
 30
0.0
 11
1669.1698910426
 21
96.2071304686
 31
0.0
 12
1669.1698910426
 22
95.3971304686
 32
0.0
 13
1666.4698910426
 23
95.8021304686
 33
0.0
  0
SOLID
  5
3B8
100
AcDbEntity
  8
L1_115
  6
CONTINUOUS
 62
         4
100
AcDbTrace
 10
1697.9698910426
 20
95.8021304686
 30
0.0
 11
1695.2698910426
 21
95.3971304686
 31
0.0
 12
1695.2698910426
 22
96.2071304686
 32
0.0
 13
1697.9698910426
 23
95.8021304686
 33
0.0
  0
TEXT
  5
3BA
100
AcDbEntity
  8
L1_115
  6
CONTINUOUS
 62
         4
100
AcDbText
 10
1676.1262054437
 20
97.8271304686
 30
0.0
 40
2.7
  1
31.5
  7
BOX
100
AcDbText
  0
ENDBLK
  5
3BB
100
AcDbEntity
  8
0
  6
CONTINUOUS
100
AcDbBlockEnd
  0
BLOCK
  5
4E3
100
AcDbEntity
  8
0
100
AcDbBlockBegin
  2
*D19
 70
        65
 10
0.0
 20
0.0
 30
0.0
  3
*D19
  1

  0
POINT
  5
4E5
100
AcDbEntity
  8
DEFPOINTS
  6
CONTINUOUS
 62
         0
100
AcDbPoint
 10
1563.2929047648
 20
97.1716403392
 30
0.0
  0
POINT
  5
4E6
100
AcDbEntity
  8
DEFPOINTS
  6
CONTINUOUS
 62
         0
100
AcDbPoint
 10
1553.2359164463
 20
97.1716403392
 30
0.0
  0
POINT
  5
4E7
100
AcDbEntity
  8
DEFPOINTS
  6
CONTINUOUS
 62
         0
100
AcDbPoint
 10
1553.2359164463
 20
52.1716403392
 30
0.0
  0
LINE
  5
4E8
100
AcDbEntity
  8
L1_115
  6
CONTINUOUS
 62
         4
100
AcDbLine
 10
1554.5859164463
 20
97.1716403392
 30
0.0
 11
1563.9679047648
 21
97.1716403392
 31
0.0
  0
LINE
  5
4E9
100
AcDbEntity
  8
L1_115
  6
CONTINUOUS
 62
         4
100
AcDbLine
 10
1554.5859164463
 20
52.1716403392
 30
0.0
 11
1563.9679047648
 21
52.1716403392
 31
0.0
  0
LINE
  5
4EA
100
AcDbEntity
  8
L1_115
  6
CONTINUOUS
 62
         4
100
AcDbLine
 10
1563.2929047648
 20
97.1716403392
 30
0.0
 11
1563.2929047648
 21
52.1716403392
 31
0.0
  0
SOLID
  5
4EB
100
AcDbEntity
  8
L1_115
  6
CONTINUOUS
 62
         4
100
AcDbTrace
 10
1563.2929047648
 20
97.1716403392
 30
0.0
 11
1563.6979047648
 21
94.4716403392
 31
0.0
 12
1562.8879047648
 22
94.4716403392
 32
0.0
 13
1563.2929047648
 23
97.1716403392
 33
0.0
  0
SOLID
  5
4EC
100
AcDbEntity
  8
L1_115
  6
CONTINUOUS
 62
         4
100
AcDbTrace
 10
1563.2929047648
 20
52.1716403392
 30
0.0
 11
1562.8879047648
 21
54.8716403392
 31
0.0
 12
1563.6979047648
 22
54.8716403392
 32
0.0
 13
1563.2929047648
 23
52.1716403392
 33
0.0
  0
TEXT
  5
4EE
100
AcDbEntity
  8
L1_115
  6
CONTINUOUS
 62
         4
100
AcDbText
 10
1561.2679047648
 20
69.3679371133
 30
0.0
 40
2.7
  1
崷45
 50
90.0
  7
BOX
100
AcDbText
  0
ENDBLK
  5
4EF
100
AcDbEntity
  8
0
  6
CONTINUOUS
100
AcDbBlockEnd
  0
BLOCK
  5
4F1
100
AcDbEntity
  8
0
100
AcDbBlockBegin
  2
*D20
 70
        65
 10
0.0
 20
0.0
 30
0.0
  3
*D20
  1

  0
POINT
  5
4F3
100
AcDbEntity
  8
DEFPOINTS
  6
CONTINUOUS
 62
         0
100
AcDbPoint
 10
1524.3698910426
 20
100.1619517155
 30
0.0
  0
POINT
  5
4F4
100
AcDbEntity
  8
DEFPOINTS
  6
CONTINUOUS
 62
         0
100
AcDbPoint
 10
1524.3698910426
 20
96.6716403392
 30
0.0
  0
POINT
  5
4F5
100
AcDbEntity
  8
DEFPOINTS
  6
CONTINUOUS
 62
         0
100
AcDbPoint
 10
1556.3698910426
 20
95.8829652046
 30
0.0
  0
LINE
  5
4F6
100
AcDbEntity
  8
L1_115
  6
CONTINUOUS
 62
         4
100
AcDbLine
 10
1524.3698910426
 20
98.0216403392
 30
0.0
 11
1524.3698910426
 21
100.8369517155
 31
0.0
  0
LINE
  5
4F7
100
AcDbEntity
  8
L1_115
  6
CONTINUOUS
 62
         4
100
AcDbLine
 10
1556.3698910426
 20
97.2329652046
 30
0.0
 11
1556.3698910426
 21
100.8369517155
 31
0.0
  0
LINE
  5
4F8
100
AcDbEntity
  8
L1_115
  6
CONTINUOUS
 62
         4
100
AcDbLine
 10
1524.3698910426
 20
100.1619517155
 30
0.0
 11
1556.3698910426
 21
100.1619517155
 31
0.0
  0
SOLID
  5
4F9
100
AcDbEntity
  8
L1_115
  6
CONTINUOUS
 62
         4
100
AcDbTrace
 10
1524.3698910426
 20
100.1619517155
 30
0.0
 11
1527.0698910426
 21
100.5669517155
 31
0.0
 12
1527.0698910426
 22
99.7569517155
 32
0.0
 13
1524.3698910426
 23
100.1619517155
 33
0.0
  0
SOLID
  5
4FA
100
AcDbEntity
  8
L1_115
  6
CONTINUOUS
 62
         4
100
AcDbTrace
 10
1556.3698910426
 20
100.1619517155
 30
0.0
 11
1553.6698910426
 21
99.7569517155
 31
0.0
 12
1553.6698910426
 22
100.5669517155
 32
0.0
 13
1556.3698910426
 23
100.1619517155
 33
0.0
  0
TEXT
  5
4FC
100
AcDbEntity
  8
L1_115
  6
CONTINUOUS
 62
         4
100
AcDbText
 10
1538.3721154891
 20
102.1869517155
 30
0.0
 40
2.7
  1
32
  7
BOX
100
AcDbText
  0
ENDBLK
  5
4FD
100
AcDbEntity
  8
0
  6
CONTINUOUS
100
AcDbBlockEnd
  0
BLOCK
  5
50D
100
AcDbEntity
  8
0
100
AcDbBlockBegin
  2
*D21
 70
        65
 10
0.0
 20
0.0
 30
0.0
  3
*D21
  1

  0
POINT
  5
50F
100
AcDbEntity
  8
DEFPOINTS
  6
CONTINUOUS
 62
         0
100
AcDbPoint
 10
1578.50978776
 20
82.1716403392
 30
0.0
  0
POINT
  5
510
100
AcDbEntity
  8
DEFPOINTS
  6
CONTINUOUS
 62
         0
100
AcDbPoint
 10
1580.3698910426
 20
82.1716403392
 30
0.0
  0
POINT
  5
511
100
AcDbEntity
  8
DEFPOINTS
  6
CONTINUOUS
 62
         0
100
AcDbPoint
 10
1580.3698910426
 20
67.1716403392
 30
0.0
  0
LINE
  5
512
100
AcDbEntity
  8
L1_115
  6
CONTINUOUS
 62
         4
100
AcDbLine
 10
1579.0198910426
 20
82.1716403392
 30
0.0
 11
1577.83478776
 21
82.1716403392
 31
0.0
  0
LINE
  5
513
100
AcDbEntity
  8
L1_115
  6
CONTINUOUS
 62
         4
100
AcDbLine
 10
1579.0198910426
 20
67.1716403392
 30
0.0
 11
1577.83478776
 21
67.1716403392
 31
0.0
  0
LINE
  5
514
100
AcDbEntity
  8
L1_115
  6
CONTINUOUS
 62
         4
100
AcDbLine
 10
1578.50978776
 20
82.1716403392
 30
0.0
 11
1578.50978776
 21
67.1716403392
 31
0.0
  0
SOLID
  5
515
100
AcDbEntity
  8
L1_115
  6
CONTINUOUS
 62
         4
100
AcDbTrace
 10
1578.50978776
 20
82.1716403392
 30
0.0
 11
1578.91478776
 21
79.4716403392
 31
0.0
 12
1578.10478776
 22
79.4716403392
 32
0.0
 13
1578.50978776
 23
82.1716403392
 33
0.0
  0
SOLID
  5
516
100
AcDbEntity
  8
L1_115
  6
CONTINUOUS
 62
         4
100
AcDbTrace
 10
1578.50978776
 20
67.1716403392
 30
0.0
 11
1578.10478776
 21
69.8716403392
 31
0.0
 12
1578.91478776
 22
69.8716403392
 32
0.0
 13
1578.50978776
 23
67.1716403392
 33
0.0
  0
TEXT
  5
518
100
AcDbEntity
  8
L1_115
  6
CONTINUOUS
 62
         4
100
AcDbText
 10
1576.48478776
 20
68.7209378147
 30
0.0
 40
2.7
  1
崷15
 50
90.0
  7
BOX
100
AcDbText
  0
ENDBLK
  5
519
100
AcDbEntity
  8
0
  6
CONTINUOUS
100
AcDbBlockEnd
  0
BLOCK
  5
51B
100
AcDbEntity
  8
0
100
AcDbBlockBegin
  2
*D22
 70
        65
 10
0.0
 20
0.0
 30
0.0
  3
*D22
  1

  0
POINT
  5
51D
100
AcDbEntity
  8
DEFPOINTS
  6
CONTINUOUS
 62
         0
100
AcDbPoint
 10
1602.4647948446
 20
84.0716403392
 30
0.0
  0
POINT
  5
51E
100
AcDbEntity
  8
DEFPOINTS
  6
CONTINUOUS
 62
         0
100
AcDbPoint
 10
1595.2698910425
 20
84.0716403392
 30
0.0
  0
POINT
  5
51F
100
AcDbEntity
  8
DEFPOINTS
  6
CONTINUOUS
 62
         0
100
AcDbPoint
 10
1595.2698910425
 20
65.2716403392
 30
0.0
  0
LINE
  5
520
100
AcDbEntity
  8
L1_115
  6
CONTINUOUS
 62
         4
100
AcDbLine
 10
1596.6198910425
 20
84.0716403392
 30
0.0
 11
1603.1397948446
 21
84.0716403392
 31
0.0
  0
LINE
  5
521
100
AcDbEntity
  8
L1_115
  6
CONTINUOUS
 62
         4
100
AcDbLine
 10
1596.6198910425
 20
65.2716403392
 30
0.0
 11
1603.1397948446
 21
65.2716403392
 31
0.0
  0
LINE
  5
522
100
AcDbEntity
  8
L1_115
  6
CONTINUOUS
 62
         4
100
AcDbLine
 10
1602.4647948446
 20
84.0716403392
 30
0.0
 11
1602.4647948446
 21
65.2716403392
 31
0.0
  0
SOLID
  5
523
100
AcDbEntity
  8
L1_115
  6
CONTINUOUS
 62
         4
100
AcDbTrace
 10
1602.4647948446
 20
84.0716403392
 30
0.0
 11
1602.8697948446
 21
81.3716403392
 31
0.0
 12
1602.0597948446
 22
81.3716403392
 32
0.0
 13
1602.4647948446
 23
84.0716403392
 33
0.0
  0
SOLID
  5
524
100
AcDbEntity
  8
L1_115
  6
CONTINUOUS
 62
         4
100
AcDbTrace
 10
1602.4647948446
 20
65.2716403392
 30
0.0
 11
1602.0597948446
 21
67.9716403392
 31
0.0
 12
1602.8697948446
 22
67.9716403392
 32
0.0
 13
1602.4647948446
 23
65.2716403392
 33
0.0
  0
TEXT
  5
526
100
AcDbEntity
  8
L1_115
  6
CONTINUOUS
 62
         4
100
AcDbText
 10
1600.4397948446
 20
66.5177922205
 30
0.0
 40
2.7
  1
崷18.8
 50
90.0
  7
BOX
100
AcDbText
  0
ENDBLK
  5
527
100
AcDbEntity
  8
0
  6
CONTINUOUS
100
AcDbBlockEnd
  0
BLOCK
  5
529
100
AcDbEntity
  8
0
100
AcDbBlockBegin
  2
*D23
 70
        65
 10
0.0
 20
0.0
 30
0.0
  3
*D23
  1

  0
POINT
  5
52B
100
AcDbEntity
  8
DEFPOINTS
  6
CONTINUOUS
 62
         0
100
AcDbPoint
 10
1595.7698910425
 20
86.6452788001
 30
0.0
  0
POINT
  5
52C
100
AcDbEntity
  8
DEFPOINTS
  6
CONTINUOUS
 62
         0
100
AcDbPoint
 10
1595.7698910425
 20
83.5716403392
 30
0.0
  0
POINT
  5
52D
100
AcDbEntity
  8
DEFPOINTS
  6
CONTINUOUS
 62
         0
100
AcDbPoint
 10
1580.2698910425
 20
82.0716403392
 30
0.0
  0
LINE
  5
52E
100
AcDbEntity
  8
L1_115
  6
CONTINUOUS
 62
         4
100
AcDbLine
 10
1595.7698910425
 20
84.9216403392
 30
0.0
 11
1595.7698910425
 21
87.3202788001
 31
0.0
  0
LINE
  5
52F
100
AcDbEntity
  8
L1_115
  6
CONTINUOUS
 62
         4
100
AcDbLine
 10
1580.2698910425
 20
83.4216403392
 30
0.0
 11
1580.2698910425
 21
87.3202788001
 31
0.0
  0
LINE
  5
530
100
AcDbEntity
  8
L1_115
  6
CONTINUOUS
 62
         4
100
AcDbLine
 10
1595.7698910425
 20
86.6452788001
 30
0.0
 11
1580.2698910425
 21
86.6452788001
 31
0.0
  0
SOLID
  5
531
100
AcDbEntity
  8
L1_115
  6
CONTINUOUS
 62
         4
100
AcDbTrace
 10
1595.7698910425
 20
86.6452788001
 30
0.0
 11
1593.0698910425
 21
86.2402788001
 31
0.0
 12
1593.0698910425
 22
87.0502788001
 32
0.0
 13
1595.7698910425
 23
86.6452788001
 33
0.0
  0
SOLID
  5
532
100
AcDbEntity
  8
L1_115
  6
CONTINUOUS
 62
         4
100
AcDbTrace
 10
1580.2698910425
 20
86.6452788001
 30
0.0
 11
1582.9698910425
 21
87.0502788001
 31
0.0
 12
1582.9698910425
 22
86.2402788001
 32
0.0
 13
1580.2698910425
 23
86.6452788001
 33
0.0
  0
TEXT
  5
534
100
AcDbEntity
  8
L1_115
  6
CONTINUOUS
 62
         4
100
AcDbText
 10
1582.772247368
 20
88.6702788001
 30
0.0
 40
2.7
  1
15.5
  7
BOX
100
AcDbText
  0
ENDBLK
  5
535
100
AcDbEntity
  8
0
  6
CONTINUOUS
100
AcDbBlockEnd
  0
BLOCK
  5
54C
100
AcDbEntity
  8
0
100
AcDbBlockBegin
  2
*D24
 70
        65
 10
0.0
 20
0.0
 30
0.0
  3
*D24
  1

  0
POINT
  5
54E
100
AcDbEntity
  8
DEFPOINTS
  6
CONTINUOUS
 62
         0
100
AcDbPoint
 10
1595.0860026253
 20
-60.3118285165
 30
0.0
  0
POINT
  5
54F
100
AcDbEntity
  8
DEFPOINTS
  6
CONTINUOUS
 62
         0
100
AcDbPoint
 10
1595.0860026253
 20
-53.1673461906
 30
0.0
  0
POINT
  5
550
100
AcDbEntity
  8
DEFPOINTS
  6
CONTINUOUS
 62
         0
100
AcDbPoint
 10
1589.5860026253
 20
-53.1673461906
 30
0.0
  0
LINE
  5
551
100
AcDbEntity
  8
L1_115
  6
CONTINUOUS
 62
         4
100
AcDbLine
 10
1595.0860026253
 20
-54.5173461906
 30
0.0
 11
1595.0860026253
 21
-60.9868285165
 31
0.0
  0
LINE
  5
552
100
AcDbEntity
  8
L1_115
  6
CONTINUOUS
 62
         4
100
AcDbLine
 10
1589.5860026253
 20
-54.5173461906
 30
0.0
 11
1589.5860026253
 21
-60.9868285165
 31
0.0
  0
LINE
  5
553
100
AcDbEntity
  8
L1_115
  6
CONTINUOUS
 62
         4
100
AcDbLine
 10
1595.0860026253
 20
-60.3118285165
 30
0.0
 11
1600.4860026253
 21
-60.3118285165
 31
0.0
  0
SOLID
  5
554
100
AcDbEntity
  8
L1_115
  6
CONTINUOUS
 62
         4
100
AcDbTrace
 10
1595.0860026253
 20
-60.3118285165
 30
0.0
 11
1597.7860026253
 21
-59.9068285165
 31
0.0
 12
1597.7860026253
 22
-60.7168285165
 32
0.0
 13
1595.0860026253
 23
-60.3118285165
 33
0.0
  0
LINE
  5
555
100
AcDbEntity
  8
L1_115
  6
CONTINUOUS
 62
         4
100
AcDbLine
 10
1589.5860026253
 20
-60.3118285165
 30
0.0
 11
1584.1860026253
 21
-60.3118285165
 31
0.0
  0
SOLID
  5
556
100
AcDbEntity
  8
L1_115
  6
CONTINUOUS
 62
         4
100
AcDbTrace
 10
1589.5860026253
 20
-60.3118285165
 30
0.0
 11
1586.8860026253
 21
-60.7168285165
 31
0.0
 12
1586.8860026253
 22
-59.9068285165
 32
0.0
 13
1589.5860026253
 23
-60.3118285165
 33
0.0
  0
LINE
  5
557
100
AcDbEntity
  8
L1_115
  6
CONTINUOUS
 62
         4
100
AcDbLine
 10
1595.0860026253
 20
-60.3118285165
 30
0.0
 11
1589.5860026253
 21
-60.3118285165
 31
0.0
  0
TEXT
  5
559
100
AcDbEntity
  8
L1_115
  6
CONTINUOUS
 62
         4
100
AcDbText
 10
1588.2860026253
 20
-58.2868285165
 30
0.0
 40
2.7
  1
5.5
  7
BOX
100
AcDbText
  0
ENDBLK
  5
55A
100
AcDbEntity
  8
0
  6
CONTINUOUS
100
AcDbBlockEnd
  0
BLOCK
  5
55C
100
AcDbEntity
  8
0
100
AcDbBlockBegin
  2
*D25
 70
        65
 10
0.0
 20
0.0
 30
0.0
  3
*D25
  1

  0
POINT
  5
55E
100
AcDbEntity
  8
DEFPOINTS
  6
CONTINUOUS
 62
         0
100
AcDbPoint
 10
1535.403729122
 20
-44.1673461906
 30
0.0
  0
POINT
  5
55F
100
AcDbEntity
  8
DEFPOINTS
  6
CONTINUOUS
 62
         0
100
AcDbPoint
 10
1543.8360026253
 20
-44.1673461906
 30
0.0
  0
POINT
  5
560
100
AcDbEntity
  8
DEFPOINTS
  6
CONTINUOUS
 62
         0
100
AcDbPoint
 10
1543.8360026253
 20
-50.1673461906
 30
0.0
  0
LINE
  5
561
100
AcDbEntity
  8
L1_115
  6
CONTINUOUS
 62
         4
100
AcDbLine
 10
1542.4860026253
 20
-44.1673461906
 30
0.0
 11
1534.728729122
 21
-44.1673461906
 31
0.0
  0
LINE
  5
562
100
AcDbEntity
  8
L1_115
  6
CONTINUOUS
 62
         4
100
AcDbLine
 10
1542.4860026253
 20
-50.1673461906
 30
0.0
 11
1534.728729122
 21
-50.1673461906
 31
0.0
  0
LINE
  5
563
100
AcDbEntity
  8
L1_115
  6
CONTINUOUS
 62
         4
100
AcDbLine
 10
1535.403729122
 20
-44.1673461906
 30
0.0
 11
1535.403729122
 21
-38.7673461906
 31
0.0
  0
SOLID
  5
564
100
AcDbEntity
  8
L1_115
  6
CONTINUOUS
 62
         4
100
AcDbTrace
 10
1535.403729122
 20
-44.1673461906
 30
0.0
 11
1534.998729122
 21
-41.4673461906
 31
0.0
 12
1535.808729122
 22
-41.4673461906
 32
0.0
 13
1535.403729122
 23
-44.1673461906
 33
0.0
  0
LINE
  5
565
100
AcDbEntity
  8
L1_115
  6
CONTINUOUS
 62
         4
100
AcDbLine
 10
1535.403729122
 20
-50.1673461906
 30
0.0
 11
1535.403729122
 21
-55.5673461906
 31
0.0
  0
SOLID
  5
566
100
AcDbEntity
  8
L1_115
  6
CONTINUOUS
 62
         4
100
AcDbTrace
 10
1535.403729122
 20
-50.1673461906
 30
0.0
 11
1535.808729122
 21
-52.8673461906
 31
0.0
 12
1534.998729122
 22
-52.8673461906
 32
0.0
 13
1535.403729122
 23
-50.1673461906
 33
0.0
  0
LINE
  5
567
100
AcDbEntity
  8
L1_115
  6
CONTINUOUS
 62
         4
100
AcDbLine
 10
1535.403729122
 20
-44.1673461906
 30
0.0
 11
1535.403729122
 21
-50.1673461906
 31
0.0
  0
TEXT
  5
569
100
AcDbEntity
  8
L1_115
  6
CONTINUOUS
 62
         4
100
AcDbText
 10
1533.378729122
 20
-53.9173461906
 30
0.0
 40
2.7
  1
M6xP1
 50
90.0
  7
BOX
100
AcDbText
  0
ENDBLK
  5
56A
100
AcDbEntity
  8
0
  6
CONTINUOUS
100
AcDbBlockEnd
  0
BLOCK
  5
56C
100
AcDbEntity
  8
0
100
AcDbBlockBegin
  2
*D26
 70
        65
 10
0.0
 20
0.0
 30
0.0
  3
*D26
  1

  0
POINT
  5
56E
100
AcDbEntity
  8
DEFPOINTS
  6
CONTINUOUS
 62
         0
100
AcDbPoint
 10
1636.1055794989
 20
-47.8568693787
 30
0.0
  0
POINT
  5
56F
100
AcDbEntity
  8
DEFPOINTS
  6
CONTINUOUS
 62
         0
100
AcDbPoint
 10
1640.6635258667
 20
-46.4778230024
 30
0.0
  0
LINE
  5
570
100
AcDbEntity
  8
L1_115
  6
CONTINUOUS
 62
         4
100
AcDbLine
 10
1640.6635258667
 20
-46.4778230024
 30
0.0
 11
1661.0124122932
 21
-40.3210901616
 31
0.0
  0
SOLID
  5
571
100
AcDbEntity
  8
L1_115
  6
CONTINUOUS
 62
         4
100
AcDbTrace
 10
1640.6635258667
 20
-46.4778230024
 30
0.0
 11
1643.1305442226
 21
-45.3082737594
 31
0.0
 12
1643.3651153198
 22
-46.0835649308
 32
0.0
 13
1640.6635258667
 23
-46.4778230024
 33
0.0
  0
LINE
  5
572
100
AcDbEntity
  8
L1_115
  6
CONTINUOUS
 62
         4
100
AcDbLine
 10
1636.1055794989
 20
-47.8568693787
 30
0.0
 11
1630.93697169
 21
-49.4206766934
 31
0.0
  0
SOLID
  5
573
100
AcDbEntity
  8
L1_115
  6
CONTINUOUS
 62
         4
100
AcDbTrace
 10
1636.1055794989
 20
-47.8568693787
 30
0.0
 11
1633.638561143
 21
-49.0264186217
 31
0.0
 12
1633.4039900458
 22
-48.2511274504
 32
0.0
 13
1636.1055794989
 23
-47.8568693787
 33
0.0
  0
LINE
  5
574
100
AcDbEntity
  8
L1_115
  6
CONTINUOUS
 62
         4
100
AcDbLine
 10
1636.1055794989
 20
-47.8568693787
 30
0.0
 11
1640.6635258667
 21
-46.4778230024
 31
0.0
  0
TEXT
  5
576
100
AcDbEntity
  8
L1_115
  6
CONTINUOUS
 62
         4
100
AcDbText
 10
1644.0235708215
 20
-44.0976240811
 30
0.0
 40
2.7
  1
崷4.76
 50
16.8336477968
  7
BOX
100
AcDbText
  0
ENDBLK
  5
577
100
AcDbEntity
  8
0
  6
CONTINUOUS
100
AcDbBlockEnd
  0
BLOCK
  5
579
100
AcDbEntity
  8
0
100
AcDbBlockBegin
  2
*D27
 70
        65
 10
0.0
 20
0.0
 30
0.0
  3
*D27
  1

  0
POINT
  5
57B
100
AcDbEntity
  8
DEFPOINTS
  6
CONTINUOUS
 62
         0
100
AcDbPoint
 10
1708.6557541872
 20
-26.0763742886
 30
0.0
  0
POINT
  5
57C
100
AcDbEntity
  8
DEFPOINTS
  6
CONTINUOUS
 62
         0
100
AcDbPoint
 10
1708.6557541872
 20
-36.9173461906
 30
0.0
  0
POINT
  5
57D
100
AcDbEntity
  8
DEFPOINTS
  6
CONTINUOUS
 62
         0
100
AcDbPoint
 10
1709.6557541872
 20
-36.9173461906
 30
0.0
  0
LINE
  5
57E
100
AcDbEntity
  8
L1_115
  6
CONTINUOUS
 62
         4
100
AcDbLine
 10
1708.6557541872
 20
-35.5673461906
 30
0.0
 11
1708.6557541872
 21
-25.4013742886
 31
0.0
  0
LINE
  5
57F
100
AcDbEntity
  8
L1_115
  6
CONTINUOUS
 62
         4
100
AcDbLine
 10
1709.6557541872
 20
-35.5673461906
 30
0.0
 11
1709.6557541872
 21
-25.4013742886
 31
0.0
  0
LINE
  5
580
100
AcDbEntity
  8
L1_115
  6
CONTINUOUS
 62
         4
100
AcDbLine
 10
1708.6557541872
 20
-26.0763742886
 30
0.0
 11
1703.2557541872
 21
-26.0763742886
 31
0.0
  0
SOLID
  5
581
100
AcDbEntity
  8
L1_115
  6
CONTINUOUS
 62
         4
100
AcDbTrace
 10
1708.6557541872
 20
-26.0763742886
 30
0.0
 11
1705.9557541872
 21
-26.4813742886
 31
0.0
 12
1705.9557541872
 22
-25.6713742886
 32
0.0
 13
1708.6557541872
 23
-26.0763742886
 33
0.0
  0
LINE
  5
582
100
AcDbEntity
  8
L1_115
  6
CONTINUOUS
 62
         4
100
AcDbLine
 10
1709.6557541872
 20
-26.0763742886
 30
0.0
 11
1715.0557541872
 21
-26.0763742886
 31
0.0
  0
SOLID
  5
583
100
AcDbEntity
  8
L1_115
  6
CONTINUOUS
 62
         4
100
AcDbTrace
 10
1709.6557541872
 20
-26.0763742886
 30
0.0
 11
1712.3557541872
 21
-25.6713742886
 31
0.0
 12
1712.3557541872
 22
-26.4813742886
 32
0.0
 13
1709.6557541872
 23
-26.0763742886
 33
0.0
  0
LINE
  5
584
100
AcDbEntity
  8
L1_115
  6
CONTINUOUS
 62
         4
100
AcDbLine
 10
1708.6557541872
 20
-26.0763742886
 30
0.0
 11
1709.6557541872
 21
-26.0763742886
 31
0.0
  0
TEXT
  5
586
100
AcDbEntity
  8
L1_115
  6
CONTINUOUS
 62
         4
100
AcDbText
 10
1707.8057541872
 20
-24.0513742886
 30
0.0
 40
2.7
  1
1
  7
BOX
100
AcDbText
  0
ENDBLK
  5
587
100
AcDbEntity
  8
0
  6
CONTINUOUS
100
AcDbBlockEnd
  0
BLOCK
  5
589
100
AcDbEntity
  8
0
100
AcDbBlockBegin
  2
*D28
 70
        65
 10
0.0
 20
0.0
 30
0.0
  3
*D28
  1

  0
POINT
  5
58B
100
AcDbEntity
  8
DEFPOINTS
  6
CONTINUOUS
 62
         0
100
AcDbPoint
 10
1786.952421104
 20
-33.5256447877
 30
0.0
  0
POINT
  5
58C
100
AcDbEntity
  8
DEFPOINTS
  6
CONTINUOUS
 62
         0
100
AcDbPoint
 10
1787.7288728012
 20
-34.8090475935
 30
0.0
  0
LINE
  5
58D
100
AcDbEntity
  8
L1_115
  6
CONTINUOUS
 62
         4
100
AcDbLine
 10
1787.7288728012
 20
-34.8090475935
 30
0.0
 11
1796.6974841294
 21
-49.6333322015
 31
0.0
  0
SOLID
  5
58E
100
AcDbEntity
  8
L1_115
  6
CONTINUOUS
 62
         4
100
AcDbTrace
 10
1787.7288728012
 20
-34.8090475935
 30
0.0
 11
1789.4730046136
 21
-36.9095306857
 31
0.0
 12
1788.7799670985
 22
-37.3288146022
 32
0.0
 13
1787.7288728012
 23
-34.8090475935
 33
0.0
  0
LINE
  5
58F
100
AcDbEntity
  8
L1_115
  6
CONTINUOUS
 62
         4
100
AcDbLine
 10
1786.952421104
 20
-33.5256447877
 30
0.0
 11
1784.1571949943
 21
-28.9053946867
 31
0.0
  0
SOLID
  5
590
100
AcDbEntity
  8
L1_115
  6
CONTINUOUS
 62
         4
100
AcDbTrace
 10
1786.952421104
 20
-33.5256447877
 30
0.0
 11
1785.2082892916
 21
-31.4251616954
 31
0.0
 12
1785.9013268067
 22
-31.005877779
 32
0.0
 13
1786.952421104
 23
-33.5256447877
 33
0.0
  0
LINE
  5
591
100
AcDbEntity
  8
L1_115
  6
CONTINUOUS
 62
         4
100
AcDbLine
 10
1786.952421104
 20
-33.5256447877
 30
0.0
 11
1787.7288728012
 21
-34.8090475935
 31
0.0
  0
TEXT
  5
593
100
AcDbEntity
  8
L1_115
  6
CONTINUOUS
 62
         4
100
AcDbText
 10
1789.7829720006
 20
-35.7853710345
 30
0.0
 40
2.7
  1
崷1.5
 50
301.1737094167
  7
BOX
100
AcDbText
  0
ENDBLK
  5
594
100
AcDbEntity
  8
0
  6
CONTINUOUS
100
AcDbBlockEnd
  0
BLOCK
  5
596
100
AcDbEntity
  8
0
100
AcDbBlockBegin
  2
*D29
 70
        65
 10
0.0
 20
0.0
 30
0.0
  3
*D29
  1

  0
POINT
  5
598
100
AcDbEntity
  8
DEFPOINTS
  6
CONTINUOUS
 62
         0
100
AcDbPoint
 10
1758.3686609905
 20
-36.9788012478
 30
0.0
  0
POINT
  5
599
100
AcDbEntity
  8
DEFPOINTS
  6
CONTINUOUS
 62
         0
100
AcDbPoint
 10
1759.4126329147
 20
-38.0558911333
 30
0.0
  0
LINE
  5
59A
100
AcDbEntity
  8
L1_115
  6
CONTINUOUS
 62
         4
100
AcDbLine
 10
1759.4126329147
 20
-38.0558911333
 30
0.0
 11
1772.0812903606
 21
-51.1264368841
 31
0.0
  0
SOLID
  5
59B
100
AcDbEntity
  8
L1_115
  6
CONTINUOUS
 62
         4
100
AcDbTrace
 10
1759.4126329147
 20
-38.0558911333
 30
0.0
 11
1761.5825966474
 21
-39.7127805077
 31
0.0
 12
1761.0009681092
 22
-40.2765253468
 32
0.0
 13
1759.4126329147
 23
-38.0558911333
 33
0.0
  0
LINE
  5
59C
100
AcDbEntity
  8
L1_115
  6
CONTINUOUS
 62
         4
100
AcDbLine
 10
1758.3686609905
 20
-36.9788012478
 30
0.0
 11
1754.6103620634
 21
-33.10127766
 31
0.0
  0
SOLID
  5
59D
100
AcDbEntity
  8
L1_115
  6
CONTINUOUS
 62
         4
100
AcDbTrace
 10
1758.3686609905
 20
-36.9788012478
 30
0.0
 11
1756.1986972578
 21
-35.3219118734
 31
0.0
 12
1756.780325796
 22
-34.7581670344
 32
0.0
 13
1758.3686609905
 23
-36.9788012478
 33
0.0
  0
LINE
  5
59E
100
AcDbEntity
  8
L1_115
  6
CONTINUOUS
 62
         4
100
AcDbLine
 10
1758.3686609905
 20
-36.9788012478
 30
0.0
 11
1759.4126329147
 21
-38.0558911333
 31
0.0
  0
TEXT
  5
5A0
100
AcDbEntity
  8
L1_115
  6
CONTINUOUS
 62
         4
100
AcDbText
 10
1762.3190184532
 20
-39.2328168091
 30
0.0
 40
2.7
  1
崷1.5
 50
314.1054644321
  7
BOX
100
AcDbText
  0
ENDBLK
  5
5A1
100
AcDbEntity
  8
0
  6
CONTINUOUS
100
AcDbBlockEnd
  0
BLOCK
  5
5A3
100
AcDbEntity
  8
0
100
AcDbBlockBegin
  2
*D30
 70
        65
 10
0.0
 20
0.0
 30
0.0
  3
*D30
  1

  0
POINT
  5
5A5
100
AcDbEntity
  8
DEFPOINTS
  6
CONTINUOUS
 62
         0
100
AcDbPoint
 10
1737.1204858141
 20
-25.7847655972
 30
0.0
  0
POINT
  5
5A6
100
AcDbEntity
  8
DEFPOINTS
  6
CONTINUOUS
 62
         0
100
AcDbPoint
 10
1738.0608080912
 20
-27.5499267839
 30
0.0
  0
LINE
  5
5A7
100
AcDbEntity
  8
L1_115
  6
CONTINUOUS
 62
         4
100
AcDbLine
 10
1738.0608080912
 20
-27.5499267839
 30
0.0
 11
1743.8261058874
 21
-38.3724715084
 31
0.0
  0
SOLID
  5
5A8
100
AcDbEntity
  8
L1_115
  6
CONTINUOUS
 62
         4
100
AcDbTrace
 10
1738.0608080912
 20
-27.5499267839
 30
0.0
 11
1739.6876883056
 21
-29.7424791249
 31
0.0
 12
1738.972798025
 22
-30.1233096471
 32
0.0
 13
1738.0608080912
 23
-27.5499267839
 33
0.0
  0
LINE
  5
5A9
100
AcDbEntity
  8
L1_115
  6
CONTINUOUS
 62
         4
100
AcDbLine
 10
1737.1204858141
 20
-25.7847655972
 30
0.0
 11
1734.5816156658
 21
-21.0188303931
 31
0.0
  0
SOLID
  5
5AA
100
AcDbEntity
  8
L1_115
  6
CONTINUOUS
 62
         4
100
AcDbTrace
 10
1737.1204858141
 20
-25.7847655972
 30
0.0
 11
1735.4936055996
 21
-23.5922132563
 31
0.0
 12
1736.2084958802
 22
-23.211382734
 32
0.0
 13
1737.1204858141
 23
-25.7847655972
 33
0.0
  0
LINE
  5
5AB
100
AcDbEntity
  8
L1_115
  6
CONTINUOUS
 62
         4
100
AcDbLine
 10
1737.1204858141
 20
-25.7847655972
 30
0.0
 11
1738.0608080912
 21
-27.5499267839
 31
0.0
  0
TEXT
  5
5AD
100
AcDbEntity
  8
L1_115
  6
CONTINUOUS
 62
         4
100
AcDbText
 10
1740.160245307
 20
-28.9430814008
 30
0.0
 40
2.7
  1
崷2
 50
298.0447568953
  7
BOX
100
AcDbText
  0
ENDBLK
  5
5AE
100
AcDbEntity
  8
0
  6
CONTINUOUS
100
AcDbBlockEnd
  0
BLOCK
  5
5B5
100
AcDbEntity
  8
0
100
AcDbBlockBegin
  2
*D31
 70
        65
 10
0.0
 20
0.0
 30
0.0
  3
*D31
  1

  0
POINT
  5
5B7
100
AcDbEntity
  8
DEFPOINTS
  6
CONTINUOUS
 62
         0
100
AcDbPoint
 10
1783.2356743965
 20
-33.4173461906
 30
0.0
  0
POINT
  5
5B8
100
AcDbEntity
  8
DEFPOINTS
  6
CONTINUOUS
 62
         0
100
AcDbPoint
 10
1787.3406469526
 20
-33.4173461906
 30
0.0
  0
POINT
  5
5B9
100
AcDbEntity
  8
DEFPOINTS
  6
CONTINUOUS
 62
         0
100
AcDbPoint
 10
1787.3406469526
 20
-60.9173461906
 30
0.0
  0
LINE
  5
5BA
100
AcDbEntity
  8
L1_115
  6
CONTINUOUS
 62
         4
100
AcDbLine
 10
1785.9906469526
 20
-33.4173461906
 30
0.0
 11
1782.5606743965
 21
-33.4173461906
 31
0.0
  0
LINE
  5
5BB
100
AcDbEntity
  8
L1_115
  6
CONTINUOUS
 62
         4
100
AcDbLine
 10
1785.9906469526
 20
-60.9173461906
 30
0.0
 11
1782.5606743965
 21
-60.9173461906
 31
0.0
  0
LINE
  5
5BC
100
AcDbEntity
  8
L1_115
  6
CONTINUOUS
 62
         4
100
AcDbLine
 10
1783.2356743965
 20
-33.4173461906
 30
0.0
 11
1783.2356743965
 21
-60.9173461906
 31
0.0
  0
SOLID
  5
5BD
100
AcDbEntity
  8
L1_115
  6
CONTINUOUS
 62
         4
100
AcDbTrace
 10
1783.2356743965
 20
-33.4173461906
 30
0.0
 11
1783.6406743965
 21
-36.1173461906
 31
0.0
 12
1782.8306743965
 22
-36.1173461906
 32
0.0
 13
1783.2356743965
 23
-33.4173461906
 33
0.0
  0
SOLID
  5
5BE
100
AcDbEntity
  8
L1_115
  6
CONTINUOUS
 62
         4
100
AcDbTrace
 10
1783.2356743965
 20
-60.9173461906
 30
0.0
 11
1782.8306743965
 21
-58.2173461906
 31
0.0
 12
1783.6406743965
 22
-58.2173461906
 32
0.0
 13
1783.2356743965
 23
-60.9173461906
 33
0.0
  0
TEXT
  5
5C0
100
AcDbEntity
  8
L1_115
  6
CONTINUOUS
 62
         4
100
AcDbText
 10
1781.2106743965
 20
-55.2673461906
 30
0.0
 40
2.7
  1
崷26.5
 50
90.0
  7
BOX
100
AcDbText
  0
ENDBLK
  5
5C1
100
AcDbEntity
  8
0
  6
CONTINUOUS
100
AcDbBlockEnd
  0
BLOCK
  5
5C7
100
AcDbEntity
  8
0
100
AcDbBlockBegin
  2
*D32
 70
        65
 10
0.0
 20
0.0
 30
0.0
  3
*D32
  1

  0
POINT
  5
5C9
100
AcDbEntity
  8
DEFPOINTS
  6
CONTINUOUS
 62
         0
100
AcDbPoint
 10
1754.9573005903
 20
-36.7673461906
 30
0.0
  0
POINT
  5
5CA
100
AcDbEntity
  8
DEFPOINTS
  6
CONTINUOUS
 62
         0
100
AcDbPoint
 10
1758.8906469526
 20
-36.7673461906
 30
0.0
  0
POINT
  5
5CB
100
AcDbEntity
  8
DEFPOINTS
  6
CONTINUOUS
 62
         0
100
AcDbPoint
 10
1758.8906469526
 20
-57.5673461906
 30
0.0
  0
LINE
  5
5CC
100
AcDbEntity
  8
L1_115
  6
CONTINUOUS
 62
         4
100
AcDbLine
 10
1757.5406469526
 20
-36.7673461906
 30
0.0
 11
1754.2823005903
 21
-36.7673461906
 31
0.0
  0
LINE
  5
5CD
100
AcDbEntity
  8
L1_115
  6
CONTINUOUS
 62
         4
100
AcDbLine
 10
1757.5406469526
 20
-57.5673461906
 30
0.0
 11
1754.2823005903
 21
-57.5673461906
 31
0.0
  0
LINE
  5
5CE
100
AcDbEntity
  8
L1_115
  6
CONTINUOUS
 62
         4
100
AcDbLine
 10
1754.9573005903
 20
-36.7673461906
 30
0.0
 11
1754.9573005903
 21
-57.5673461906
 31
0.0
  0
SOLID
  5
5CF
100
AcDbEntity
  8
L1_115
  6
CONTINUOUS
 62
         4
100
AcDbTrace
 10
1754.9573005903
 20
-36.7673461906
 30
0.0
 11
1755.3623005903
 21
-39.4673461906
 31
0.0
 12
1754.5523005903
 22
-39.4673461906
 32
0.0
 13
1754.9573005903
 23
-36.7673461906
 33
0.0
  0
SOLID
  5
5D0
100
AcDbEntity
  8
L1_115
  6
CONTINUOUS
 62
         4
100
AcDbTrace
 10
1754.9573005903
 20
-57.5673461906
 30
0.0
 11
1754.5523005903
 21
-54.8673461906
 31
0.0
 12
1755.3623005903
 22
-54.8673461906
 32
0.0
 13
1754.9573005903
 23
-57.5673461906
 33
0.0
  0
TEXT
  5
5D2
100
AcDbEntity
  8
L1_115
  6
CONTINUOUS
 62
         4
100
AcDbText
 10
1752.9323005903
 20
-52.5673461906
 30
0.0
 40
2.7
  1
崷21
 50
90.0
  7
BOX
100
AcDbText
  0
ENDBLK
  5
5D3
100
AcDbEntity
  8
0
  6
CONTINUOUS
100
AcDbBlockEnd
  0
BLOCK
  5
5D5
100
AcDbEntity
  8
0
100
AcDbBlockBegin
  2
*D33
 70
        65
 10
0.0
 20
0.0
 30
0.0
  3
*D33
  1

  0
POINT
  5
5D7
100
AcDbEntity
  8
DEFPOINTS
  6
CONTINUOUS
 62
         0
100
AcDbPoint
 10
1602.120232428
 20
-40.6673461906
 30
0.0
  0
POINT
  5
5D8
100
AcDbEntity
  8
DEFPOINTS
  6
CONTINUOUS
 62
         0
100
AcDbPoint
 10
1594.5860026253
 20
-40.6673461906
 30
0.0
  0
POINT
  5
5D9
100
AcDbEntity
  8
DEFPOINTS
  6
CONTINUOUS
 62
         0
100
AcDbPoint
 10
1594.5860026253
 20
-53.6673461906
 30
0.0
  0
LINE
  5
5DA
100
AcDbEntity
  8
L1_115
  6
CONTINUOUS
 62
         4
100
AcDbLine
 10
1595.9360026253
 20
-40.6673461906
 30
0.0
 11
1602.795232428
 21
-40.6673461906
 31
0.0
  0
LINE
  5
5DB
100
AcDbEntity
  8
L1_115
  6
CONTINUOUS
 62
         4
100
AcDbLine
 10
1595.9360026253
 20
-53.6673461906
 30
0.0
 11
1602.795232428
 21
-53.6673461906
 31
0.0
  0
LINE
  5
5DC
100
AcDbEntity
  8
L1_115
  6
CONTINUOUS
 62
         4
100
AcDbLine
 10
1602.120232428
 20
-40.6673461906
 30
0.0
 11
1602.120232428
 21
-53.6673461906
 31
0.0
  0
SOLID
  5
5DD
100
AcDbEntity
  8
L1_115
  6
CONTINUOUS
 62
         4
100
AcDbTrace
 10
1602.120232428
 20
-40.6673461906
 30
0.0
 11
1602.525232428
 21
-43.3673461906
 31
0.0
 12
1601.715232428
 22
-43.3673461906
 32
0.0
 13
1602.120232428
 23
-40.6673461906
 33
0.0
  0
SOLID
  5
5DE
100
AcDbEntity
  8
L1_115
  6
CONTINUOUS
 62
         4
100
AcDbTrace
 10
1602.120232428
 20
-53.6673461906
 30
0.0
 11
1601.715232428
 21
-50.9673461906
 31
0.0
 12
1602.525232428
 22
-50.9673461906
 32
0.0
 13
1602.120232428
 23
-53.6673461906
 33
0.0
  0
TEXT
  5
5E0
100
AcDbEntity
  8
L1_115
  6
CONTINUOUS
 62
         4
100
AcDbText
 10
1600.095232428
 20
-52.7479285959
 30
0.0
 40
2.7
  1
崷13
 50
90.0
  7
BOX
100
AcDbText
  0
ENDBLK
  5
5E1
100
AcDbEntity
  8
0
  6
CONTINUOUS
100
AcDbBlockEnd
  0
BLOCK
  5
5E3
100
AcDbEntity
  8
0
100
AcDbBlockBegin
  2
*D34
 70
        65
 10
0.0
 20
0.0
 30
0.0
  3
*D34
  1

  0
POINT
  5
5E5
100
AcDbEntity
  8
DEFPOINTS
  6
CONTINUOUS
 62
         0
100
AcDbPoint
 10
1608.1854088336
 20
-38.8442930653
 30
0.0
  0
POINT
  5
5E6
100
AcDbEntity
  8
DEFPOINTS
  6
CONTINUOUS
 62
         0
100
AcDbPoint
 10
1608.1854088336
 20
-47.1673461906
 30
0.0
  0
POINT
  5
5E7
100
AcDbEntity
  8
DEFPOINTS
  6
CONTINUOUS
 62
         0
100
AcDbPoint
 10
1612.8042109871
 20
-47.1673461906
 30
0.0
  0
LINE
  5
5E8
100
AcDbEntity
  8
L1_115
  6
CONTINUOUS
 62
         4
100
AcDbLine
 10
1608.1854088336
 20
-45.8173461906
 30
0.0
 11
1608.1854088336
 21
-38.1692930653
 31
0.0
  0
LINE
  5
5E9
100
AcDbEntity
  8
L1_115
  6
CONTINUOUS
 62
         4
100
AcDbLine
 10
1612.8042109871
 20
-45.8173461906
 30
0.0
 11
1612.8042109871
 21
-38.1692930653
 31
0.0
  0
LINE
  5
5EA
100
AcDbEntity
  8
L1_115
  6
CONTINUOUS
 62
         4
100
AcDbLine
 10
1608.1854088336
 20
-38.8442930653
 30
0.0
 11
1612.8042109871
 21
-38.8442930653
 31
0.0
  0
SOLID
  5
5EB
100
AcDbEntity
  8
L1_115
  6
CONTINUOUS
 62
         4
100
AcDbTrace
 10
1608.1854088336
 20
-38.8442930653
 30
0.0
 11
1610.8854088336
 21
-38.4392930653
 31
0.0
 12
1610.8854088336
 22
-39.2492930653
 32
0.0
 13
1608.1854088336
 23
-38.8442930653
 33
0.0
  0
SOLID
  5
5EC
100
AcDbEntity
  8
L1_115
  6
CONTINUOUS
 62
         4
100
AcDbTrace
 10
1612.8042109871
 20
-38.8442930653
 30
0.0
 11
1610.1042109871
 21
-39.2492930653
 31
0.0
 12
1610.1042109871
 22
-38.4392930653
 32
0.0
 13
1612.8042109871
 23
-38.8442930653
 33
0.0
  0
TEXT
  5
5EE
100
AcDbEntity
  8
L1_115
  6
CONTINUOUS
 62
         4
100
AcDbText
 10
1598.3448099104
 20
-36.8192930653
 30
0.0
 40
2.7
  1
4.53~4.44
  7
BOX
100
AcDbText
  0
ENDBLK
  5
5EF
100
AcDbEntity
  8
0
  6
CONTINUOUS
100
AcDbBlockEnd
  0
BLOCK
  5
5F7
100
AcDbEntity
  8
0
100
AcDbBlockBegin
  2
*D35
 70
        65
 10
0.0
 20
0.0
 30
0.0
  3
*D35
  1

  0
POINT
  5
5F9
100
AcDbEntity
  8
DEFPOINTS
  6
CONTINUOUS
 62
         0
100
AcDbPoint
 10
1619.3390484307
 20
-45.1673461906
 30
0.0
  0
POINT
  5
5FA
100
AcDbEntity
  8
DEFPOINTS
  6
CONTINUOUS
 62
         0
100
AcDbPoint
 10
1611.6495104488
 20
-45.1673461906
 30
0.0
  0
POINT
  5
5FB
100
AcDbEntity
  8
DEFPOINTS
  6
CONTINUOUS
 62
         0
100
AcDbPoint
 10
1611.6495104488
 20
-49.1673461906
 30
0.0
  0
LINE
  5
5FC
100
AcDbEntity
  8
L1_115
  6
CONTINUOUS
 62
         4
100
AcDbLine
 10
1612.9995104488
 20
-45.1673461906
 30
0.0
 11
1620.0140484307
 21
-45.1673461906
 31
0.0
  0
LINE
  5
5FD
100
AcDbEntity
  8
L1_115
  6
CONTINUOUS
 62
         4
100
AcDbLine
 10
1612.9995104488
 20
-49.1673461906
 30
0.0
 11
1620.0140484307
 21
-49.1673461906
 31
0.0
  0
LINE
  5
5FE
100
AcDbEntity
  8
L1_115
  6
CONTINUOUS
 62
         4
100
AcDbLine
 10
1619.3390484307
 20
-45.1673461906
 30
0.0
 11
1619.3390484307
 21
-49.1673461906
 31
0.0
  0
SOLID
  5
5FF
100
AcDbEntity
  8
L1_115
  6
CONTINUOUS
 62
         4
100
AcDbTrace
 10
1619.3390484307
 20
-45.1673461906
 30
0.0
 11
1619.7440484307
 21
-47.8673461906
 31
0.0
 12
1618.9340484307
 22
-47.8673461906
 32
0.0
 13
1619.3390484307
 23
-45.1673461906
 33
0.0
  0
SOLID
  5
600
100
AcDbEntity
  8
L1_115
  6
CONTINUOUS
 62
         4
100
AcDbTrace
 10
1619.3390484307
 20
-49.1673461906
 30
0.0
 11
1618.9340484307
 21
-46.4673461906
 31
0.0
 12
1619.7440484307
 22
-46.4673461906
 32
0.0
 13
1619.3390484307
 23
-49.1673461906
 33
0.0
  0
TEXT
  5
602
100
AcDbEntity
  8
L1_115
  6
CONTINUOUS
 62
         4
100
AcDbText
 10
1617.3140484307
 20
-48.5173461906
 30
0.0
 40
2.7
  1
4
 50
90.0
  7
BOX
100
AcDbText
  0
ENDBLK
  5
603
100
AcDbEntity
  8
0
  6
CONTINUOUS
100
AcDbBlockEnd
  0
BLOCK
  5
605
100
AcDbEntity
  8
0
100
AcDbBlockBegin
  2
*D36
 70
        65
 10
0.0
 20
0.0
 30
0.0
  3
*D36
  1

  0
POINT
  5
607
100
AcDbEntity
  8
DEFPOINTS
  6
CONTINUOUS
 62
         0
100
AcDbPoint
 10
1554.5860026253
 20
-37.7677395272
 30
0.0
  0
POINT
  5
608
100
AcDbEntity
  8
DEFPOINTS
  6
CONTINUOUS
 62
         0
100
AcDbPoint
 10
1554.5860026253
 20
-44.1673461906
 30
0.0
  0
POINT
  5
609
100
AcDbEntity
  8
DEFPOINTS
  6
CONTINUOUS
 62
         0
100
AcDbPoint
 10
1589.5860026253
 20
-41.1673461906
 30
0.0
  0
LINE
  5
60A
100
AcDbEntity
  8
L1_115
  6
CONTINUOUS
 62
         4
100
AcDbLine
 10
1554.5860026253
 20
-42.8173461906
 30
0.0
 11
1554.5860026253
 21
-37.0927395272
 31
0.0
  0
LINE
  5
60B
100
AcDbEntity
  8
L1_115
  6
CONTINUOUS
 62
         4
100
AcDbLine
 10
1589.5860026253
 20
-39.8173461906
 30
0.0
 11
1589.5860026253
 21
-37.0927395272
 31
0.0
  0
LINE
  5
60C
100
AcDbEntity
  8
L1_115
  6
CONTINUOUS
 62
         4
100
AcDbLine
 10
1554.5860026253
 20
-37.7677395272
 30
0.0
 11
1589.5860026253
 21
-37.7677395272
 31
0.0
  0
SOLID
  5
60D
100
AcDbEntity
  8
L1_115
  6
CONTINUOUS
 62
         4
100
AcDbTrace
 10
1554.5860026253
 20
-37.7677395272
 30
0.0
 11
1557.2860026253
 21
-37.3627395272
 31
0.0
 12
1557.2860026253
 22
-38.1727395272
 32
0.0
 13
1554.5860026253
 23
-37.7677395272
 33
0.0
  0
SOLID
  5
60E
100
AcDbEntity
  8
L1_115
  6
CONTINUOUS
 62
         4
100
AcDbTrace
 10
1589.5860026253
 20
-37.7677395272
 30
0.0
 11
1586.8860026253
 21
-38.1727395272
 31
0.0
 12
1586.8860026253
 22
-37.3627395272
 32
0.0
 13
1589.5860026253
 23
-37.7677395272
 33
0.0
  0
TEXT
  5
610
100
AcDbEntity
  8
L1_115
  6
CONTINUOUS
 62
         4
100
AcDbText
 10
1568.1941079063
 20
-35.7427395272
 30
0.0
 40
2.7
  1
35
  7
BOX
100
AcDbText
  0
ENDBLK
  5
611
100
AcDbEntity
  8
0
  6
CONTINUOUS
100
AcDbBlockEnd
  0
BLOCK
  5
614
100
AcDbEntity
  8
0
100
AcDbBlockBegin
  2
*D37
 70
        65
 10
0.0
 20
0.0
 30
0.0
  3
*D37
  1

  0
POINT
  5
616
100
AcDbEntity
  8
DEFPOINTS
  6
CONTINUOUS
 62
         0
100
AcDbPoint
 10
1665.7360260225
 20
-48.4597477148
 30
0.0
  0
POINT
  5
617
100
AcDbEntity
  8
DEFPOINTS
  6
CONTINUOUS
 62
         0
100
AcDbPoint
 10
1674.9036003036
 20
-45.8749446663
 30
0.0
  0
LINE
  5
618
100
AcDbEntity
  8
L1_115
  6
CONTINUOUS
 62
         4
100
AcDbLine
 10
1674.9036003036
 20
-45.8749446663
 30
0.0
 11
1670.3198131631
 21
-47.1673461906
 31
0.0
  0
SOLID
  5
619
100
AcDbEntity
  8
L1_115
  6
CONTINUOUS
 62
         4
100
AcDbTrace
 10
1674.9036003036
 20
-45.8749446663
 30
0.0
 11
1672.4148228417
 21
-46.9974471141
 31
0.0
 12
1672.1950128187
 22
-46.2178423721
 32
0.0
 13
1674.9036003036
 23
-45.8749446663
 33
0.0
  0
LINE
  5
61A
100
AcDbEntity
  8
L1_115
  6
CONTINUOUS
 62
         4
100
AcDbLine
 10
1670.3198131631
 20
-47.1673461906
 30
0.0
 11
1665.7360260225
 21
-48.4597477148
 31
0.0
  0
SOLID
  5
61B
100
AcDbEntity
  8
L1_115
  6
CONTINUOUS
 62
         4
100
AcDbTrace
 10
1665.7360260225
 20
-48.4597477148
 30
0.0
 11
1668.2248034844
 21
-47.3372452671
 31
0.0
 12
1668.4446135074
 22
-48.1168500091
 32
0.0
 13
1665.7360260225
 23
-48.4597477148
 33
0.0
  0
LINE
  5
61C
100
AcDbEntity
  8
L1_115
  6
CONTINUOUS
 62
         4
100
AcDbLine
 10
1674.9036003036
 20
-45.8749446663
 30
0.0
 11
1692.8102921728
 21
-40.8261421902
 31
0.0
  0
TEXT
  5
61E
100
AcDbEntity
  8
L1_115
  6
CONTINUOUS
 62
         4
100
AcDbText
 10
1675.7414457631
 20
-44.2844678035
 30
0.0
 40
2.7
  1
崷9.53
 50
15.7458298425
  7
BOX
100
AcDbText
  0
ENDBLK
  5
61F
100
AcDbEntity
  8
0
  6
CONTINUOUS
100
AcDbBlockEnd
  0
BLOCK
  5
625
100
AcDbEntity
  8
0
100
AcDbBlockBegin
  2
*D38
 70
        65
 10
0.0
 20
0.0
 30
0.0
  3
*D38
  1

  0
POINT
  5
627
100
AcDbEntity
  8
DEFPOINTS
  6
CONTINUOUS
 62
         0
100
AcDbPoint
 10
1701.5813020942
 20
-36.9173461906
 30
0.0
  0
POINT
  5
628
100
AcDbEntity
  8
DEFPOINTS
  6
CONTINUOUS
 62
         0
100
AcDbPoint
 10
1708.6557541872
 20
-36.9173461906
 30
0.0
  0
POINT
  5
629
100
AcDbEntity
  8
DEFPOINTS
  6
CONTINUOUS
 62
         0
100
AcDbPoint
 10
1708.6557541872
 20
-57.4173461906
 30
0.0
  0
LINE
  5
62A
100
AcDbEntity
  8
L1_115
  6
CONTINUOUS
 62
         4
100
AcDbLine
 10
1707.3057541872
 20
-36.9173461906
 30
0.0
 11
1700.9063020942
 21
-36.9173461906
 31
0.0
  0
LINE
  5
62B
100
AcDbEntity
  8
L1_115
  6
CONTINUOUS
 62
         4
100
AcDbLine
 10
1707.3057541872
 20
-57.4173461906
 30
0.0
 11
1700.9063020942
 21
-57.4173461906
 31
0.0
  0
LINE
  5
62C
100
AcDbEntity
  8
L1_115
  6
CONTINUOUS
 62
         4
100
AcDbLine
 10
1701.5813020942
 20
-36.9173461906
 30
0.0
 11
1701.5813020942
 21
-57.4173461906
 31
0.0
  0
SOLID
  5
62D
100
AcDbEntity
  8
L1_115
  6
CONTINUOUS
 62
         4
100
AcDbTrace
 10
1701.5813020942
 20
-36.9173461906
 30
0.0
 11
1701.9863020942
 21
-39.6173461906
 31
0.0
 12
1701.1763020942
 22
-39.6173461906
 32
0.0
 13
1701.5813020942
 23
-36.9173461906
 33
0.0
  0
SOLID
  5
62E
100
AcDbEntity
  8
L1_115
  6
CONTINUOUS
 62
         4
100
AcDbTrace
 10
1701.5813020942
 20
-57.4173461906
 30
0.0
 11
1701.1763020942
 21
-54.7173461906
 31
0.0
 12
1701.9863020942
 22
-54.7173461906
 32
0.0
 13
1701.5813020942
 23
-57.4173461906
 33
0.0
  0
TEXT
  5
630
100
AcDbEntity
  8
L1_115
  6
CONTINUOUS
 62
         4
100
AcDbText
 10
1699.5563020942
 20
-55.2673461906
 30
0.0
 40
2.7
  1
崷20.5
 50
90.0
  7
BOX
100
AcDbText
  0
ENDBLK
  5
631
100
AcDbEntity
  8
0
  6
CONTINUOUS
100
AcDbBlockEnd
  0
BLOCK
  5
635
100
AcDbEntity
  8
0
100
AcDbBlockBegin
  2
*D39
 70
        65
 10
0.0
 20
0.0
 30
0.0
  3
*D39
  1

  0
POINT
  5
637
100
AcDbEntity
  8
DEFPOINTS
  6
CONTINUOUS
 62
         0
100
AcDbPoint
 10
1728.3231159118
 20
-25.6673461906
 30
0.0
  0
POINT
  5
638
100
AcDbEntity
  8
DEFPOINTS
  6
CONTINUOUS
 62
         0
100
AcDbPoint
 10
1737.5906469526
 20
-25.6673461906
 30
0.0
  0
POINT
  5
639
100
AcDbEntity
  8
DEFPOINTS
  6
CONTINUOUS
 62
         0
100
AcDbPoint
 10
1737.5906469526
 20
-68.6673461906
 30
0.0
  0
LINE
  5
63A
100
AcDbEntity
  8
L1_115
  6
CONTINUOUS
 62
         4
100
AcDbLine
 10
1736.2406469526
 20
-25.6673461906
 30
0.0
 11
1727.6481159118
 21
-25.6673461906
 31
0.0
  0
LINE
  5
63B
100
AcDbEntity
  8
L1_115
  6
CONTINUOUS
 62
         4
100
AcDbLine
 10
1736.2406469526
 20
-68.6673461906
 30
0.0
 11
1727.6481159118
 21
-68.6673461906
 31
0.0
  0
LINE
  5
63C
100
AcDbEntity
  8
L1_115
  6
CONTINUOUS
 62
         4
100
AcDbLine
 10
1728.3231159118
 20
-25.6673461906
 30
0.0
 11
1728.3231159118
 21
-68.6673461906
 31
0.0
  0
SOLID
  5
63D
100
AcDbEntity
  8
L1_115
  6
CONTINUOUS
 62
         4
100
AcDbTrace
 10
1728.3231159118
 20
-25.6673461906
 30
0.0
 11
1728.7281159118
 21
-28.3673461906
 31
0.0
 12
1727.9181159118
 22
-28.3673461906
 32
0.0
 13
1728.3231159118
 23
-25.6673461906
 33
0.0
  0
SOLID
  5
63E
100
AcDbEntity
  8
L1_115
  6
CONTINUOUS
 62
         4
100
AcDbTrace
 10
1728.3231159118
 20
-68.6673461906
 30
0.0
 11
1727.9181159118
 21
-65.9673461906
 31
0.0
 12
1728.7281159118
 22
-65.9673461906
 32
0.0
 13
1728.3231159118
 23
-68.6673461906
 33
0.0
  0
TEXT
  5
640
100
AcDbEntity
  8
L1_115
  6
CONTINUOUS
 62
         4
100
AcDbText
 10
1726.2981159118
 20
-52.5673461906
 30
0.0
 40
2.7
  1
崷42
 50
90.0
  7
BOX
100
AcDbText
  0
ENDBLK
  5
641
100
AcDbEntity
  8
0
  6
CONTINUOUS
100
AcDbBlockEnd
  0
BLOCK
  5
64B
100
AcDbEntity
  8
0
100
AcDbBlockBegin
  2
*D40
 70
        65
 10
0.0
 20
0.0
 30
0.0
  3
*D40
  1

  0
POINT
  5
64D
100
AcDbEntity
  8
DEFPOINTS
  6
CONTINUOUS
 62
         0
100
AcDbPoint
 10
1567.5918310253
 20
-43.1918461906
 30
0.0
  0
POINT
  5
64E
100
AcDbEntity
  8
DEFPOINTS
  6
CONTINUOUS
 62
         0
100
AcDbPoint
 10
1555.5615026253
 20
-43.1918461906
 30
0.0
  0
POINT
  5
64F
100
AcDbEntity
  8
DEFPOINTS
  6
CONTINUOUS
 62
         0
100
AcDbPoint
 10
1555.5615026253
 20
-51.1428461906
 30
0.0
  0
LINE
  5
650
100
AcDbEntity
  8
L1_115
  6
CONTINUOUS
 62
         4
100
AcDbLine
 10
1556.9115026253
 20
-43.1918461906
 30
0.0
 11
1568.2668310253
 21
-43.1918461906
 31
0.0
  0
LINE
  5
651
100
AcDbEntity
  8
L1_115
  6
CONTINUOUS
 62
         4
100
AcDbLine
 10
1556.9115026253
 20
-51.1428461906
 30
0.0
 11
1568.2668310253
 21
-51.1428461906
 31
0.0
  0
LINE
  5
652
100
AcDbEntity
  8
L1_115
  6
CONTINUOUS
 62
         4
100
AcDbLine
 10
1567.5918310253
 20
-43.1918461906
 30
0.0
 11
1567.5918310253
 21
-51.1428461906
 31
0.0
  0
SOLID
  5
653
100
AcDbEntity
  8
L1_115
  6
CONTINUOUS
 62
         4
100
AcDbTrace
 10
1567.5918310253
 20
-43.1918461906
 30
0.0
 11
1567.9968310253
 21
-45.8918461906
 31
0.0
 12
1567.1868310253
 22
-45.8918461906
 32
0.0
 13
1567.5918310253
 23
-43.1918461906
 33
0.0
  0
SOLID
  5
654
100
AcDbEntity
  8
L1_115
  6
CONTINUOUS
 62
         4
100
AcDbTrace
 10
1567.5918310253
 20
-51.1428461906
 30
0.0
 11
1567.1868310253
 21
-48.4428461906
 31
0.0
 12
1567.9968310253
 22
-48.4428461906
 32
0.0
 13
1567.5918310253
 23
-51.1428461906
 33
0.0
  0
TEXT
  5
656
100
AcDbEntity
  8
L1_115
  6
CONTINUOUS
 62
         4
100
AcDbText
 10
1565.5668310253
 20
-56.6173461906
 30
0.0
 40
2.7
  1
崷7.951
 50
90.0
  7
BOX
100
AcDbText
  0
ENDBLK
  5
657
100
AcDbEntity
  8
0
  6
CONTINUOUS
100
AcDbBlockEnd
  0
BLOCK
  5
659
100
AcDbEntity
  8
0
100
AcDbBlockBegin
  2
*D41
 70
        65
 10
0.0
 20
0.0
 30
0.0
  3
*D41
  1

  0
POINT
  5
65B
100
AcDbEntity
  8
DEFPOINTS
  6
CONTINUOUS
 62
         0
100
AcDbPoint
 10
1543.3360026253
 20
-57.8803260998
 30
0.0
  0
POINT
  5
65C
100
AcDbEntity
  8
DEFPOINTS
  6
CONTINUOUS
 62
         0
100
AcDbPoint
 10
1543.3360026253
 20
-49.6673461906
 30
0.0
  0
POINT
  5
65D
100
AcDbEntity
  8
DEFPOINTS
  6
CONTINUOUS
 62
         0
100
AcDbPoint
 10
1554.5860026253
 20
-50.1673461906
 30
0.0
  0
LINE
  5
65E
100
AcDbEntity
  8
L1_115
  6
CONTINUOUS
 62
         4
100
AcDbLine
 10
1543.3360026253
 20
-51.0173461906
 30
0.0
 11
1543.3360026253
 21
-58.5553260998
 31
0.0
  0
LINE
  5
65F
100
AcDbEntity
  8
L1_115
  6
CONTINUOUS
 62
         4
100
AcDbLine
 10
1554.5860026253
 20
-51.5173461906
 30
0.0
 11
1554.5860026253
 21
-58.5553260998
 31
0.0
  0
LINE
  5
660
100
AcDbEntity
  8
L1_115
  6
CONTINUOUS
 62
         4
100
AcDbLine
 10
1543.3360026253
 20
-57.8803260998
 30
0.0
 11
1554.5860026253
 21
-57.8803260998
 31
0.0
  0
SOLID
  5
661
100
AcDbEntity
  8
L1_115
  6
CONTINUOUS
 62
         4
100
AcDbTrace
 10
1543.3360026253
 20
-57.8803260998
 30
0.0
 11
1546.0360026253
 21
-57.4753260998
 31
0.0
 12
1546.0360026253
 22
-58.2853260998
 32
0.0
 13
1543.3360026253
 23
-57.8803260998
 33
0.0
  0
SOLID
  5
662
100
AcDbEntity
  8
L1_115
  6
CONTINUOUS
 62
         4
100
AcDbTrace
 10
1554.5860026253
 20
-57.8803260998
 30
0.0
 11
1551.8860026253
 21
-58.2853260998
 31
0.0
 12
1551.8860026253
 22
-57.4753260998
 32
0.0
 13
1554.5860026253
 23
-57.8803260998
 33
0.0
  0
TEXT
  5
664
100
AcDbEntity
  8
L1_115
  6
CONTINUOUS
 62
         4
100
AcDbText
 10
1542.2110026253
 20
-55.8553260998
 30
0.0
 40
2.7
  1
11.25
  7
BOX
100
AcDbText
  0
ENDBLK
  5
665
100
AcDbEntity
  8
0
  6
CONTINUOUS
100
AcDbBlockEnd
  0
BLOCK
  5
6DA
100
AcDbEntity
  8
0
100
AcDbBlockBegin
  2
*D42
 70
        65
 10
0.0
 20
0.0
 30
0.0
  3
*D42
  1

  0
POINT
  5
6DC
100
AcDbEntity
  8
DEFPOINTS
  6
CONTINUOUS
 62
         0
100
AcDbPoint
 10
1496.0033403763
 20
202.3890449723
 30
0.0
  0
POINT
  5
6DD
100
AcDbEntity
  8
DEFPOINTS
  6
CONTINUOUS
 62
         0
100
AcDbPoint
 10
1496.0033403763
 20
167.6072914602
 30
0.0
  0
POINT
  5
6DE
100
AcDbEntity
  8
DEFPOINTS
  6
CONTINUOUS
 62
         0
100
AcDbPoint
 10
1443.0033403763
 20
171.6846417294
 30
0.0
  0
LINE
  5
6DF
100
AcDbEntity
  8
L1_115
  6
CONTINUOUS
 62
         4
100
AcDbLine
 10
1496.0033403763
 20
168.9572914602
 30
0.0
 11
1496.0033403763
 21
203.0640449723
 31
0.0
  0
LINE
  5
6E0
100
AcDbEntity
  8
L1_115
  6
CONTINUOUS
 62
         4
100
AcDbLine
 10
1443.0033403763
 20
173.0346417294
 30
0.0
 11
1443.0033403763
 21
203.0640449723
 31
0.0
  0
LINE
  5
6E1
100
AcDbEntity
  8
L1_115
  6
CONTINUOUS
 62
         4
100
AcDbLine
 10
1496.0033403763
 20
202.3890449723
 30
0.0
 11
1443.0033403763
 21
202.3890449723
 31
0.0
  0
SOLID
  5
6E2
100
AcDbEntity
  8
L1_115
  6
CONTINUOUS
 62
         4
100
AcDbTrace
 10
1496.0033403763
 20
202.3890449723
 30
0.0
 11
1493.3033403763
 21
201.9840449723
 31
0.0
 12
1493.3033403763
 22
202.7940449723
 32
0.0
 13
1496.0033403763
 23
202.3890449723
 33
0.0
  0
SOLID
  5
6E3
100
AcDbEntity
  8
L1_115
  6
CONTINUOUS
 62
         4
100
AcDbTrace
 10
1443.0033403763
 20
202.3890449723
 30
0.0
 11
1445.7033403763
 21
202.7940449723
 31
0.0
 12
1445.7033403763
 22
201.9840449723
 32
0.0
 13
1443.0033403763
 23
202.3890449723
 33
0.0
  0
TEXT
  5
6E5
100
AcDbEntity
  8
L1_115
  6
CONTINUOUS
 62
         4
100
AcDbText
 10
1463.3393196251
 20
205.5210449723
 30
0.0
 40
2.7
  1
53
  7
BOX
100
AcDbText
  0
ENDBLK
  5
6E6
100
AcDbEntity
  8
0
  6
CONTINUOUS
100
AcDbBlockEnd
  0
BLOCK
  5
6E8
100
AcDbEntity
  8
0
100
AcDbBlockBegin
  2
*D43
 70
        65
 10
0.0
 20
0.0
 30
0.0
  3
*D43
  1

  0
POINT
  5
6EA
100
AcDbEntity
  8
DEFPOINTS
  6
CONTINUOUS
 62
         0
100
AcDbPoint
 10
1496.0033403763
 20
192.0000383803
 30
0.0
  0
POINT
  5
6EB
100
AcDbEntity
  8
DEFPOINTS
  6
CONTINUOUS
 62
         0
100
AcDbPoint
 10
1496.0033403763
 20
167.6072914602
 30
0.0
  0
POINT
  5
6EC
100
AcDbEntity
  8
DEFPOINTS
  6
CONTINUOUS
 62
         0
100
AcDbPoint
 10
1475.0033403763
 20
170.6846417294
 30
0.0
  0
LINE
  5
6ED
100
AcDbEntity
  8
L1_115
  6
CONTINUOUS
 62
         4
100
AcDbLine
 10
1496.0033403763
 20
168.9572914602
 30
0.0
 11
1496.0033403763
 21
192.6750383803
 31
0.0
  0
LINE
  5
6EE
100
AcDbEntity
  8
L1_115
  6
CONTINUOUS
 62
         4
100
AcDbLine
 10
1475.0033403763
 20
172.0346417294
 30
0.0
 11
1475.0033403763
 21
192.6750383803
 31
0.0
  0
LINE
  5
6EF
100
AcDbEntity
  8
L1_115
  6
CONTINUOUS
 62
         4
100
AcDbLine
 10
1496.0033403763
 20
192.0000383803
 30
0.0
 11
1475.0033403763
 21
192.0000383803
 31
0.0
  0
SOLID
  5
6F0
100
AcDbEntity
  8
L1_115
  6
CONTINUOUS
 62
         4
100
AcDbTrace
 10
1496.0033403763
 20
192.0000383803
 30
0.0
 11
1493.3033403763
 21
191.5950383803
 31
0.0
 12
1493.3033403763
 22
192.4050383803
 32
0.0
 13
1496.0033403763
 23
192.0000383803
 33
0.0
  0
SOLID
  5
6F1
100
AcDbEntity
  8
L1_115
  6
CONTINUOUS
 62
         4
100
AcDbTrace
 10
1475.0033403763
 20
192.0000383803
 30
0.0
 11
1477.7033403763
 21
192.4050383803
 31
0.0
 12
1477.7033403763
 22
191.5950383803
 32
0.0
 13
1475.0033403763
 23
192.0000383803
 33
0.0
  0
TEXT
  5
6F3
100
AcDbEntity
  8
L1_115
  6
CONTINUOUS
 62
         4
100
AcDbText
 10
1482.5783403763
 20
195.1320383803
 30
0.0
 40
2.7
  1
21
  7
BOX
100
AcDbText
  0
ENDBLK
  5
6F4
100
AcDbEntity
  8
0
  6
CONTINUOUS
100
AcDbBlockEnd
  0
BLOCK
  5
6F6
100
AcDbEntity
  8
0
100
AcDbBlockBegin
  2
*D44
 70
        65
 10
0.0
 20
0.0
 30
0.0
  3
*D44
  1

  0
POINT
  5
6F8
100
AcDbEntity
  8
DEFPOINTS
  6
CONTINUOUS
 62
         0
100
AcDbPoint
 10
1475.0033403763
 20
182.7299277772
 30
0.0
  0
POINT
  5
6F9
100
AcDbEntity
  8
DEFPOINTS
  6
CONTINUOUS
 62
         0
100
AcDbPoint
 10
1475.0033403763
 20
170.6846417294
 30
0.0
  0
POINT
  5
6FA
100
AcDbEntity
  8
DEFPOINTS
  6
CONTINUOUS
 62
         0
100
AcDbPoint
 10
1477.0033403763
 20
170.6846417294
 30
0.0
  0
LINE
  5
6FB
100
AcDbEntity
  8
L1_115
  6
CONTINUOUS
 62
         4
100
AcDbLine
 10
1475.0033403763
 20
172.0346417294
 30
0.0
 11
1475.0033403763
 21
183.4049277772
 31
0.0
  0
LINE
  5
6FC
100
AcDbEntity
  8
L1_115
  6
CONTINUOUS
 62
         4
100
AcDbLine
 10
1477.0033403763
 20
172.0346417294
 30
0.0
 11
1477.0033403763
 21
183.4049277772
 31
0.0
  0
LINE
  5
6FD
100
AcDbEntity
  8
L1_115
  6
CONTINUOUS
 62
         4
100
AcDbLine
 10
1475.0033403763
 20
182.7299277772
 30
0.0
 11
1469.6033403763
 21
182.7299277772
 31
0.0
  0
SOLID
  5
6FE
100
AcDbEntity
  8
L1_115
  6
CONTINUOUS
 62
         4
100
AcDbTrace
 10
1475.0033403763
 20
182.7299277772
 30
0.0
 11
1472.3033403763
 21
182.3249277772
 31
0.0
 12
1472.3033403763
 22
183.1349277772
 32
0.0
 13
1475.0033403763
 23
182.7299277772
 33
0.0
  0
LINE
  5
6FF
100
AcDbEntity
  8
L1_115
  6
CONTINUOUS
 62
         4
100
AcDbLine
 10
1477.0033403763
 20
182.7299277772
 30
0.0
 11
1483.7302489371
 21
182.7299277772
 31
0.0
  0
SOLID
  5
700
100
AcDbEntity
  8
L1_115
  6
CONTINUOUS
 62
         4
100
AcDbTrace
 10
1477.0033403763
 20
182.7299277772
 30
0.0
 11
1479.7033403763
 21
183.1349277772
 31
0.0
 12
1479.7033403763
 22
182.3249277772
 32
0.0
 13
1477.0033403763
 23
182.7299277772
 33
0.0
  0
LINE
  5
701
100
AcDbEntity
  8
L1_115
  6
CONTINUOUS
 62
         4
100
AcDbLine
 10
1475.0033403763
 20
182.7299277772
 30
0.0
 11
1477.0033403763
 21
182.7299277772
 31
0.0
  0
TEXT
  5
703
100
AcDbEntity
  8
L1_115
  6
CONTINUOUS
 62
         4
100
AcDbText
 10
1478.7802489371
 20
185.8619277772
 30
0.0
 40
2.7
  1
2
  7
BOX
100
AcDbText
  0
ENDBLK
  5
704
100
AcDbEntity
  8
0
  6
CONTINUOUS
100
AcDbBlockEnd
  0
BLOCK
  5
706
100
AcDbEntity
  8
0
100
AcDbBlockBegin
  2
*D45
 70
        65
 10
0.0
 20
0.0
 30
0.0
  3
*D45
  1

  0
POINT
  5
708
100
AcDbEntity
  8
DEFPOINTS
  6
CONTINUOUS
 62
         0
100
AcDbPoint
 10
1525.6880281053
 20
169.6846417294
 30
0.0
  0
POINT
  5
709
100
AcDbEntity
  8
DEFPOINTS
  6
CONTINUOUS
 62
         0
100
AcDbPoint
 10
1477.0033403763
 20
169.6846417294
 30
0.0
  0
POINT
  5
70A
100
AcDbEntity
  8
DEFPOINTS
  6
CONTINUOUS
 62
         0
100
AcDbPoint
 10
1477.0033403763
 20
130.6846417294
 30
0.0
  0
LINE
  5
70B
100
AcDbEntity
  8
L1_115
  6
CONTINUOUS
 62
         4
100
AcDbLine
 10
1478.3533403763
 20
169.6846417294
 30
0.0
 11
1526.3630281053
 21
169.6846417294
 31
0.0
  0
LINE
  5
70C
100
AcDbEntity
  8
L1_115
  6
CONTINUOUS
 62
         4
100
AcDbLine
 10
1478.3533403763
 20
130.6846417294
 30
0.0
 11
1526.3630281053
 21
130.6846417294
 31
0.0
  0
LINE
  5
70D
100
AcDbEntity
  8
L1_115
  6
CONTINUOUS
 62
         4
100
AcDbLine
 10
1525.6880281053
 20
169.6846417294
 30
0.0
 11
1525.6880281053
 21
130.6846417294
 31
0.0
  0
SOLID
  5
70E
100
AcDbEntity
  8
L1_115
  6
CONTINUOUS
 62
         4
100
AcDbTrace
 10
1525.6880281053
 20
169.6846417294
 30
0.0
 11
1526.0930281053
 21
166.9846417294
 31
0.0
 12
1525.2830281053
 22
166.9846417294
 32
0.0
 13
1525.6880281053
 23
169.6846417294
 33
0.0
  0
SOLID
  5
70F
100
AcDbEntity
  8
L1_115
  6
CONTINUOUS
 62
         4
100
AcDbTrace
 10
1525.6880281053
 20
130.6846417294
 30
0.0
 11
1525.2830281053
 21
133.3846417294
 31
0.0
 12
1526.0930281053
 22
133.3846417294
 32
0.0
 13
1525.6880281053
 23
130.6846417294
 33
0.0
  0
TEXT
  5
711
100
AcDbEntity
  8
L1_115
  6
CONTINUOUS
 62
         4
100
AcDbText
 10
1522.5560281053
 20
140.3473538612
 30
0.0
 40
2.7
  1
崷39
 50
90.0
  7
BOX
100
AcDbText
  0
ENDBLK
  5
712
100
AcDbEntity
  8
0
  6
CONTINUOUS
100
AcDbBlockEnd
  0
BLOCK
  5
714
100
AcDbEntity
  8
0
100
AcDbBlockBegin
  2
*D46
 70
        65
 10
0.0
 20
0.0
 30
0.0
  3
*D46
  1

  0
POINT
  5
716
100
AcDbEntity
  8
DEFPOINTS
  6
CONTINUOUS
 62
         0
100
AcDbPoint
 10
1534.9393492817
 20
170.6846417294
 30
0.0
  0
POINT
  5
717
100
AcDbEntity
  8
DEFPOINTS
  6
CONTINUOUS
 62
         0
100
AcDbPoint
 10
1490.2712895687
 20
170.6846417294
 30
0.0
  0
POINT
  5
718
100
AcDbEntity
  8
DEFPOINTS
  6
CONTINUOUS
 62
         0
100
AcDbPoint
 10
1490.2712895687
 20
129.6846417294
 30
0.0
  0
LINE
  5
719
100
AcDbEntity
  8
L1_115
  6
CONTINUOUS
 62
         4
100
AcDbLine
 10
1491.6212895687
 20
170.6846417294
 30
0.0
 11
1535.6143492817
 21
170.6846417294
 31
0.0
  0
LINE
  5
71A
100
AcDbEntity
  8
L1_115
  6
CONTINUOUS
 62
         4
100
AcDbLine
 10
1491.6212895687
 20
129.6846417294
 30
0.0
 11
1535.6143492817
 21
129.6846417294
 31
0.0
  0
LINE
  5
71B
100
AcDbEntity
  8
L1_115
  6
CONTINUOUS
 62
         4
100
AcDbLine
 10
1534.9393492817
 20
170.6846417294
 30
0.0
 11
1534.9393492817
 21
129.6846417294
 31
0.0
  0
SOLID
  5
71C
100
AcDbEntity
  8
L1_115
  6
CONTINUOUS
 62
         4
100
AcDbTrace
 10
1534.9393492817
 20
170.6846417294
 30
0.0
 11
1535.3443492817
 21
167.9846417294
 31
0.0
 12
1534.5343492817
 22
167.9846417294
 32
0.0
 13
1534.9393492817
 23
170.6846417294
 33
0.0
  0
SOLID
  5
71D
100
AcDbEntity
  8
L1_115
  6
CONTINUOUS
 62
         4
100
AcDbTrace
 10
1534.9393492817
 20
129.6846417294
 30
0.0
 11
1534.5343492817
 21
132.3846417294
 31
0.0
 12
1535.3443492817
 22
132.3846417294
 32
0.0
 13
1534.9393492817
 23
129.6846417294
 33
0.0
  0
TEXT
  5
71F
100
AcDbEntity
  8
L1_115
  6
CONTINUOUS
 62
         4
100
AcDbText
 10
1531.8073492817
 20
139.2528174198
 30
0.0
 40
2.7
  1
崷41
 50
90.0
  7
BOX
100
AcDbText
  0
ENDBLK
  5
720
100
AcDbEntity
  8
0
  6
CONTINUOUS
100
AcDbBlockEnd
  0
BLOCK
  5
722
100
AcDbEntity
  8
0
100
AcDbBlockBegin
  2
*D47
 70
        65
 10
0.0
 20
0.0
 30
0.0
  3
*D47
  1

  0
POINT
  5
724
100
AcDbEntity
  8
DEFPOINTS
  6
CONTINUOUS
 62
         0
100
AcDbPoint
 10
1466.4082741959
 20
115.714967216
 30
0.0
  0
POINT
  5
725
100
AcDbEntity
  8
DEFPOINTS
  6
CONTINUOUS
 62
         0
100
AcDbPoint
 10
1466.4082741959
 20
145.2146417294
 30
0.0
  0
POINT
  5
726
100
AcDbEntity
  8
DEFPOINTS
  6
CONTINUOUS
 62
         0
100
AcDbPoint
 10
1496.0033403763
 20
132.7619919986
 30
0.0
  0
LINE
  5
727
100
AcDbEntity
  8
L1_115
  6
CONTINUOUS
 62
         4
100
AcDbLine
 10
1466.4082741959
 20
143.8646417294
 30
0.0
 11
1466.4082741959
 21
115.039967216
 31
0.0
  0
LINE
  5
728
100
AcDbEntity
  8
L1_115
  6
CONTINUOUS
 62
         4
100
AcDbLine
 10
1496.0033403763
 20
131.4119919986
 30
0.0
 11
1496.0033403763
 21
115.039967216
 31
0.0
  0
LINE
  5
729
100
AcDbEntity
  8
L1_115
  6
CONTINUOUS
 62
         4
100
AcDbLine
 10
1466.4082741959
 20
115.714967216
 30
0.0
 11
1496.0033403763
 21
115.714967216
 31
0.0
  0
SOLID
  5
72A
100
AcDbEntity
  8
L1_115
  6
CONTINUOUS
 62
         4
100
AcDbTrace
 10
1466.4082741959
 20
115.714967216
 30
0.0
 11
1469.1082741959
 21
116.119967216
 31
0.0
 12
1469.1082741959
 22
115.309967216
 32
0.0
 13
1466.4082741959
 23
115.714967216
 33
0.0
  0
SOLID
  5
72B
100
AcDbEntity
  8
L1_115
  6
CONTINUOUS
 62
         4
100
AcDbTrace
 10
1496.0033403763
 20
115.714967216
 30
0.0
 11
1493.3033403763
 21
115.309967216
 31
0.0
 12
1493.3033403763
 22
116.119967216
 32
0.0
 13
1496.0033403763
 23
115.714967216
 33
0.0
  0
TEXT
  5
72D
100
AcDbEntity
  8
L1_115
  6
CONTINUOUS
 62
         4
100
AcDbText
 10
1475.5808072861
 20
118.846967216
 30
0.0
 40
2.7
  1
29.6
  7
BOX
100
AcDbText
  0
ENDBLK
  5
72E
100
AcDbEntity
  8
0
  6
CONTINUOUS
100
AcDbBlockEnd
  0
BLOCK
  5
730
100
AcDbEntity
  8
0
100
AcDbBlockBegin
  2
*D48
 70
        65
 10
0.0
 20
0.0
 30
0.0
  3
*D48
  1

  0
POINT
  5
732
100
AcDbEntity
  8
DEFPOINTS
  6
CONTINUOUS
 62
         0
100
AcDbPoint
 10
1451.4083403763
 20
105.7739192814
 30
0.0
  0
POINT
  5
733
100
AcDbEntity
  8
DEFPOINTS
  6
CONTINUOUS
 62
         0
100
AcDbPoint
 10
1451.4083403763
 20
145.2146417294
 30
0.0
  0
POINT
  5
734
100
AcDbEntity
  8
DEFPOINTS
  6
CONTINUOUS
 62
         0
100
AcDbPoint
 10
1496.0033403763
 20
132.7619919986
 30
0.0
  0
LINE
  5
735
100
AcDbEntity
  8
L1_115
  6
CONTINUOUS
 62
         4
100
AcDbLine
 10
1451.4083403763
 20
143.8646417294
 30
0.0
 11
1451.4083403763
 21
105.0989192814
 31
0.0
  0
LINE
  5
736
100
AcDbEntity
  8
L1_115
  6
CONTINUOUS
 62
         4
100
AcDbLine
 10
1496.0033403763
 20
131.4119919986
 30
0.0
 11
1496.0033403763
 21
105.0989192814
 31
0.0
  0
LINE
  5
737
100
AcDbEntity
  8
L1_115
  6
CONTINUOUS
 62
         4
100
AcDbLine
 10
1451.4083403763
 20
105.7739192814
 30
0.0
 11
1496.0033403763
 21
105.7739192814
 31
0.0
  0
SOLID
  5
738
100
AcDbEntity
  8
L1_115
  6
CONTINUOUS
 62
         4
100
AcDbTrace
 10
1451.4083403763
 20
105.7739192814
 30
0.0
 11
1454.1083403763
 21
106.1789192814
 31
0.0
 12
1454.1083403763
 22
105.3689192814
 32
0.0
 13
1451.4083403763
 23
105.7739192814
 33
0.0
  0
SOLID
  5
739
100
AcDbEntity
  8
L1_115
  6
CONTINUOUS
 62
         4
100
AcDbTrace
 10
1496.0033403763
 20
105.7739192814
 30
0.0
 11
1493.3033403763
 21
105.3689192814
 31
0.0
 12
1493.3033403763
 22
106.1789192814
 32
0.0
 13
1496.0033403763
 23
105.7739192814
 33
0.0
  0
TEXT
  5
73B
100
AcDbEntity
  8
L1_115
  6
CONTINUOUS
 62
         4
100
AcDbText
 10
1462.5689703403
 20
108.9059192814
 30
0.0
 40
2.7
  1
44.6
  7
BOX
100
AcDbText
  0
ENDBLK
  5
73C
100
AcDbEntity
  8
0
  6
CONTINUOUS
100
AcDbBlockEnd
  0
BLOCK
  5
73E
100
AcDbEntity
  8
0
100
AcDbBlockBegin
  2
*D49
 70
        65
 10
0.0
 20
0.0
 30
0.0
  3
*D49
  1

  0
POINT
  5
740
100
AcDbEntity
  8
DEFPOINTS
  6
CONTINUOUS
 62
         0
100
AcDbPoint
 10
1458.9634716272
 20
154.9846417294
 30
0.0
  0
POINT
  5
741
100
AcDbEntity
  8
DEFPOINTS
  6
CONTINUOUS
 62
         0
100
AcDbPoint
 10
1451.4083403763
 20
154.9846417294
 30
0.0
  0
POINT
  5
742
100
AcDbEntity
  8
DEFPOINTS
  6
CONTINUOUS
 62
         0
100
AcDbPoint
 10
1451.4083403763
 20
145.3846417294
 30
0.0
  0
LINE
  5
743
100
AcDbEntity
  8
L1_115
  6
CONTINUOUS
 62
         4
100
AcDbLine
 10
1452.7583403763
 20
154.9846417294
 30
0.0
 11
1459.6384716272
 21
154.9846417294
 31
0.0
  0
LINE
  5
744
100
AcDbEntity
  8
L1_115
  6
CONTINUOUS
 62
         4
100
AcDbLine
 10
1452.7583403763
 20
145.3846417294
 30
0.0
 11
1459.6384716272
 21
145.3846417294
 31
0.0
  0
LINE
  5
745
100
AcDbEntity
  8
L1_115
  6
CONTINUOUS
 62
         4
100
AcDbLine
 10
1458.9634716272
 20
154.9846417294
 30
0.0
 11
1458.9634716272
 21
160.3846417294
 31
0.0
  0
SOLID
  5
746
100
AcDbEntity
  8
L1_115
  6
CONTINUOUS
 62
         4
100
AcDbTrace
 10
1458.9634716272
 20
154.9846417294
 30
0.0
 11
1458.5584716272
 21
157.6846417294
 31
0.0
 12
1459.3684716272
 22
157.6846417294
 32
0.0
 13
1458.9634716272
 23
154.9846417294
 33
0.0
  0
LINE
  5
747
100
AcDbEntity
  8
L1_115
  6
CONTINUOUS
 62
         4
100
AcDbLine
 10
1458.9634716272
 20
145.3846417294
 30
0.0
 11
1458.9634716272
 21
106.0034214716
 31
0.0
  0
SOLID
  5
748
100
AcDbEntity
  8
L1_115
  6
CONTINUOUS
 62
         4
100
AcDbTrace
 10
1458.9634716272
 20
145.3846417294
 30
0.0
 11
1459.3684716272
 21
142.6846417294
 31
0.0
 12
1458.5584716272
 22
142.6846417294
 32
0.0
 13
1458.9634716272
 23
145.3846417294
 33
0.0
  0
LINE
  5
749
100
AcDbEntity
  8
L1_115
  6
CONTINUOUS
 62
         4
100
AcDbLine
 10
1458.9634716272
 20
154.9846417294
 30
0.0
 11
1458.9634716272
 21
145.3846417294
 31
0.0
  0
TEXT
  5
74B
100
AcDbEntity
  8
L1_115
  6
CONTINUOUS
 62
         4
100
AcDbText
 10
1455.8314716272
 20
107.3534214716
 30
0.0
 40
2.7
  1
9.55
 50
90.0
  7
BOX
100
AcDbText
  0
ENDBLK
  5
74C
100
AcDbEntity
  8
0
  6
CONTINUOUS
100
AcDbBlockEnd
  0
BLOCK
  5
74E
100
AcDbEntity
  8
0
100
AcDbBlockBegin
  2
*D50
 70
        65
 10
0.0
 20
0.0
 30
0.0
  3
*D50
  1

  0
POINT
  5
750
100
AcDbEntity
  8
DEFPOINTS
  6
CONTINUOUS
 62
         0
100
AcDbPoint
 10
1446.6083403763
 20
14.1917360085
 30
0.0
  0
POINT
  5
751
100
AcDbEntity
  8
DEFPOINTS
  6
CONTINUOUS
 62
         0
100
AcDbPoint
 10
1446.6083403763
 20
7.5566652593
 30
0.0
  0
POINT
  5
752
100
AcDbEntity
  8
DEFPOINTS
  6
CONTINUOUS
 62
         0
100
AcDbPoint
 10
1471.2082741959
 20
7.5566652593
 30
0.0
  0
LINE
  5
753
100
AcDbEntity
  8
L1_115
  6
CONTINUOUS
 62
         4
100
AcDbLine
 10
1446.6083403763
 20
8.9066652593
 30
0.0
 11
1446.6083403763
 21
14.8667360085
 31
0.0
  0
LINE
  5
754
100
AcDbEntity
  8
L1_115
  6
CONTINUOUS
 62
         4
100
AcDbLine
 10
1471.2082741959
 20
8.9066652593
 30
0.0
 11
1471.2082741959
 21
14.8667360085
 31
0.0
  0
LINE
  5
755
100
AcDbEntity
  8
L1_115
  6
CONTINUOUS
 62
         4
100
AcDbLine
 10
1446.6083403763
 20
14.1917360085
 30
0.0
 11
1471.2082741959
 21
14.1917360085
 31
0.0
  0
SOLID
  5
756
100
AcDbEntity
  8
L1_115
  6
CONTINUOUS
 62
         4
100
AcDbTrace
 10
1446.6083403763
 20
14.1917360085
 30
0.0
 11
1449.3083403763
 21
14.5967360085
 31
0.0
 12
1449.3083403763
 22
13.7867360085
 32
0.0
 13
1446.6083403763
 23
14.1917360085
 33
0.0
  0
SOLID
  5
757
100
AcDbEntity
  8
L1_115
  6
CONTINUOUS
 62
         4
100
AcDbTrace
 10
1471.2082741959
 20
14.1917360085
 30
0.0
 11
1468.5082741959
 21
13.7867360085
 31
0.0
 12
1468.5082741959
 22
14.5967360085
 32
0.0
 13
1471.2082741959
 23
14.1917360085
 33
0.0
  0
TEXT
  5
759
100
AcDbEntity
  8
L1_115
  6
CONTINUOUS
 62
         4
100
AcDbText
 10
1448.0425313366
 20
17.3237360085
 30
0.0
 40
2.7
  1
24.6
  7
BOX
100
AcDbText
  0
ENDBLK
  5
75A
100
AcDbEntity
  8
0
  6
CONTINUOUS
100
AcDbBlockEnd
  0
BLOCK
  5
75C
100
AcDbEntity
  8
0
100
AcDbBlockBegin
  2
*D51
 70
        65
 10
0.0
 20
0.0
 30
0.0
  3
*D51
  1

  0
POINT
  5
75E
100
AcDbEntity
  8
DEFPOINTS
  6
CONTINUOUS
 62
         0
100
AcDbPoint
 10
1496.0033403763
 20
-69.7717555683
 30
0.0
  0
POINT
  5
75F
100
AcDbEntity
  8
DEFPOINTS
  6
CONTINUOUS
 62
         0
100
AcDbPoint
 10
1496.0033403763
 20
-30.3278646868
 30
0.0
  0
POINT
  5
760
100
AcDbEntity
  8
DEFPOINTS
  6
CONTINUOUS
 62
         0
100
AcDbPoint
 10
1430.0033403763
 20
-29.4433347407
 30
0.0
  0
LINE
  5
761
100
AcDbEntity
  8
L1_115
  6
CONTINUOUS
 62
         4
100
AcDbLine
 10
1496.0033403763
 20
-31.6778646868
 30
0.0
 11
1496.0033403763
 21
-70.4467555683
 31
0.0
  0
LINE
  5
762
100
AcDbEntity
  8
L1_115
  6
CONTINUOUS
 62
         4
100
AcDbLine
 10
1430.0033403763
 20
-30.7933347407
 30
0.0
 11
1430.0033403763
 21
-70.4467555683
 31
0.0
  0
LINE
  5
763
100
AcDbEntity
  8
L1_115
  6
CONTINUOUS
 62
         4
100
AcDbLine
 10
1496.0033403763
 20
-69.7717555683
 30
0.0
 11
1430.0033403763
 21
-69.7717555683
 31
0.0
  0
SOLID
  5
764
100
AcDbEntity
  8
L1_115
  6
CONTINUOUS
 62
         4
100
AcDbTrace
 10
1496.0033403763
 20
-69.7717555683
 30
0.0
 11
1493.3033403763
 21
-70.1767555683
 31
0.0
 12
1493.3033403763
 22
-69.3667555683
 32
0.0
 13
1496.0033403763
 23
-69.7717555683
 33
0.0
  0
SOLID
  5
765
100
AcDbEntity
  8
L1_115
  6
CONTINUOUS
 62
         4
100
AcDbTrace
 10
1430.0033403763
 20
-69.7717555683
 30
0.0
 11
1432.7033403763
 21
-69.3667555683
 31
0.0
 12
1432.7033403763
 22
-70.1767555683
 32
0.0
 13
1430.0033403763
 23
-69.7717555683
 33
0.0
  0
TEXT
  5
767
100
AcDbEntity
  8
L1_115
  6
CONTINUOUS
 62
         4
100
AcDbText
 10
1456.1185899024
 20
-66.6397555683
 30
0.0
 40
2.7
  1
66
  7
BOX
100
AcDbText
  0
ENDBLK
  5
768
100
AcDbEntity
  8
0
  6
CONTINUOUS
100
AcDbBlockEnd
  0
BLOCK
  5
76A
100
AcDbEntity
  8
0
100
AcDbBlockBegin
  2
*D52
 70
        65
 10
0.0
 20
0.0
 30
0.0
  3
*D52
  1

  0
POINT
  5
76C
100
AcDbEntity
  8
DEFPOINTS
  6
CONTINUOUS
 62
         0
100
AcDbPoint
 10
1496.0033403763
 20
-48.9530593812
 30
0.0
  0
POINT
  5
76D
100
AcDbEntity
  8
DEFPOINTS
  6
CONTINUOUS
 62
         0
100
AcDbPoint
 10
1496.0033403763
 20
-30.3278646868
 30
0.0
  0
POINT
  5
76E
100
AcDbEntity
  8
DEFPOINTS
  6
CONTINUOUS
 62
         0
100
AcDbPoint
 10
1471.0033403763
 20
-30.4433347407
 30
0.0
  0
LINE
  5
76F
100
AcDbEntity
  8
L1_115
  6
CONTINUOUS
 62
         4
100
AcDbLine
 10
1496.0033403763
 20
-31.6778646868
 30
0.0
 11
1496.0033403763
 21
-49.6280593812
 31
0.0
  0
LINE
  5
770
100
AcDbEntity
  8
L1_115
  6
CONTINUOUS
 62
         4
100
AcDbLine
 10
1471.0033403763
 20
-31.7933347407
 30
0.0
 11
1471.0033403763
 21
-49.6280593812
 31
0.0
  0
LINE
  5
771
100
AcDbEntity
  8
L1_115
  6
CONTINUOUS
 62
         4
100
AcDbLine
 10
1496.0033403763
 20
-48.9530593812
 30
0.0
 11
1471.0033403763
 21
-48.9530593812
 31
0.0
  0
SOLID
  5
772
100
AcDbEntity
  8
L1_115
  6
CONTINUOUS
 62
         4
100
AcDbTrace
 10
1496.0033403763
 20
-48.9530593812
 30
0.0
 11
1493.3033403763
 21
-49.3580593812
 31
0.0
 12
1493.3033403763
 22
-48.5480593812
 32
0.0
 13
1496.0033403763
 23
-48.9530593812
 33
0.0
  0
SOLID
  5
773
100
AcDbEntity
  8
L1_115
  6
CONTINUOUS
 62
         4
100
AcDbTrace
 10
1471.0033403763
 20
-48.9530593812
 30
0.0
 11
1473.7033403763
 21
-48.5480593812
 31
0.0
 12
1473.7033403763
 22
-49.3580593812
 32
0.0
 13
1471.0033403763
 23
-48.9530593812
 33
0.0
  0
TEXT
  5
775
100
AcDbEntity
  8
L1_115
  6
CONTINUOUS
 62
         4
100
AcDbText
 10
1477.8810669833
 20
-45.8210593812
 30
0.0
 40
2.7
  1
25
  7
BOX
100
AcDbText
  0
ENDBLK
  5
776
100
AcDbEntity
  8
0
  6
CONTINUOUS
100
AcDbBlockEnd
  0
BLOCK
  5
778
100
AcDbEntity
  8
0
100
AcDbBlockBegin
  2
*D53
 70
        65
 10
0.0
 20
0.0
 30
0.0
  3
*D53
  1

  0
POINT
  5
77A
100
AcDbEntity
  8
DEFPOINTS
  6
CONTINUOUS
 62
         0
100
AcDbPoint
 10
1519.5641711857
 20
3.0566652593
 30
0.0
  0
POINT
  5
77B
100
AcDbEntity
  8
DEFPOINTS
  6
CONTINUOUS
 62
         0
100
AcDbPoint
 10
1471.0033403763
 20
3.0566652593
 30
0.0
  0
POINT
  5
77C
100
AcDbEntity
  8
DEFPOINTS
  6
CONTINUOUS
 62
         0
100
AcDbPoint
 10
1471.0033403763
 20
-28.9433347407
 30
0.0
  0
LINE
  5
77D
100
AcDbEntity
  8
L1_115
  6
CONTINUOUS
 62
         4
100
AcDbLine
 10
1472.3533403763
 20
3.0566652593
 30
0.0
 11
1520.2391711857
 21
3.0566652593
 31
0.0
  0
LINE
  5
77E
100
AcDbEntity
  8
L1_115
  6
CONTINUOUS
 62
         4
100
AcDbLine
 10
1472.3533403763
 20
-28.9433347407
 30
0.0
 11
1520.2391711857
 21
-28.9433347407
 31
0.0
  0
LINE
  5
77F
100
AcDbEntity
  8
L1_115
  6
CONTINUOUS
 62
         4
100
AcDbLine
 10
1519.5641711857
 20
3.0566652593
 30
0.0
 11
1519.5641711857
 21
-28.9433347407
 31
0.0
  0
SOLID
  5
780
100
AcDbEntity
  8
L1_115
  6
CONTINUOUS
 62
         4
100
AcDbTrace
 10
1519.5641711857
 20
3.0566652593
 30
0.0
 11
1519.9691711857
 21
0.3566652593
 31
0.0
 12
1519.1591711857
 22
0.3566652593
 32
0.0
 13
1519.5641711857
 23
3.0566652593
 33
0.0
  0
SOLID
  5
781
100
AcDbEntity
  8
L1_115
  6
CONTINUOUS
 62
         4
100
AcDbTrace
 10
1519.5641711857
 20
-28.9433347407
 30
0.0
 11
1519.1591711857
 21
-26.2433347407
 31
0.0
 12
1519.9691711857
 22
-26.2433347407
 32
0.0
 13
1519.5641711857
 23
-28.9433347407
 33
0.0
  0
TEXT
  5
783
100
AcDbEntity
  8
L1_115
  6
CONTINUOUS
 62
         4
100
AcDbText
 10
1516.4321711857
 20
-20.9507516815
 30
0.0
 40
2.7
  1
崷32
 50
90.0
  7
BOX
100
AcDbText
  0
ENDBLK
  5
784
100
AcDbEntity
  8
0
  6
CONTINUOUS
100
AcDbBlockEnd
  0
BLOCK
  5
786
100
AcDbEntity
  8
0
100
AcDbBlockBegin
  2
*D54
 70
        65
 10
0.0
 20
0.0
 30
0.0
  3
*D54
  1

  0
POINT
  5
788
100
AcDbEntity
  8
DEFPOINTS
  6
CONTINUOUS
 62
         0
100
AcDbPoint
 10
1531.6715864264
 20
4.0566652593
 30
0.0
  0
POINT
  5
789
100
AcDbEntity
  8
DEFPOINTS
  6
CONTINUOUS
 62
         0
100
AcDbPoint
 10
1495.8033403763
 20
4.0566652593
 30
0.0
  0
POINT
  5
78A
100
AcDbEntity
  8
DEFPOINTS
  6
CONTINUOUS
 62
         0
100
AcDbPoint
 10
1495.8033403763
 20
-29.9433347407
 30
0.0
  0
LINE
  5
78B
100
AcDbEntity
  8
L1_115
  6
CONTINUOUS
 62
         4
100
AcDbLine
 10
1497.1533403763
 20
4.0566652593
 30
0.0
 11
1532.3465864264
 21
4.0566652593
 31
0.0
  0
LINE
  5
78C
100
AcDbEntity
  8
L1_115
  6
CONTINUOUS
 62
         4
100
AcDbLine
 10
1497.1533403763
 20
-29.9433347407
 30
0.0
 11
1532.3465864264
 21
-29.9433347407
 31
0.0
  0
LINE
  5
78D
100
AcDbEntity
  8
L1_115
  6
CONTINUOUS
 62
         4
100
AcDbLine
 10
1531.6715864264
 20
4.0566652593
 30
0.0
 11
1531.6715864264
 21
-29.9433347407
 31
0.0
  0
SOLID
  5
78E
100
AcDbEntity
  8
L1_115
  6
CONTINUOUS
 62
         4
100
AcDbTrace
 10
1531.6715864264
 20
4.0566652593
 30
0.0
 11
1532.0765864264
 21
1.3566652593
 31
0.0
 12
1531.2665864264
 22
1.3566652593
 32
0.0
 13
1531.6715864264
 23
4.0566652593
 33
0.0
  0
SOLID
  5
78F
100
AcDbEntity
  8
L1_115
  6
CONTINUOUS
 62
         4
100
AcDbTrace
 10
1531.6715864264
 20
-29.9433347407
 30
0.0
 11
1531.2665864264
 21
-27.2433347407
 31
0.0
 12
1532.0765864264
 22
-27.2433347407
 32
0.0
 13
1531.6715864264
 23
-29.9433347407
 33
0.0
  0
TEXT
  5
791
100
AcDbEntity
  8
L1_115
  6
CONTINUOUS
 62
         4
100
AcDbText
 10
1528.5395864264
 20
-21.6075939878
 30
0.0
 40
2.7
  1
崷34
 50
90.0
  7
BOX
100
AcDbText
  0
ENDBLK
  5
792
100
AcDbEntity
  8
0
  6
CONTINUOUS
100
AcDbBlockEnd
  0
ENDSEC
  0
SECTION
  2
ENTITIES
  0
ARC
  5
28
100
AcDbEntity
  8
_Y__________
  6
CONTINUOUS
 62
         7
100
AcDbCircle
 10
1332.7533403763
 20
-3.7933347407
 30
0.0
 40
1.0
100
AcDbArc
 50
180.0
 51
270.0
  0
LINE
  5
29
100
AcDbEntity
  8
_Y__________
  6
CONTINUOUS
 62
         7
100
AcDbLine
 10
1332.7533403763
 20
-4.7933347407
 30
0.0
 11
1335.5233403763
 21
-4.7933347407
 31
0.0
  0
ARC
  5
2A
100
AcDbEntity
  8
_Y__________
  6
CONTINUOUS
 62
         7
100
AcDbCircle
 10
1335.9228759565
 20
-4.8933347407
 30
0.0
 40
0.2
100
AcDbArc
 50
90.0
 51
105.0
  0
LINE
  5
2B
100
AcDbEntity
  8
_Y__________
  6
CONTINUOUS
 62
         7
100
AcDbLine
 10
1335.8711121475
 20
-4.7001495754
 30
0.0
 11
1335.5233403763
 21
-4.7933347407
 31
0.0
  0
LINE
  5
2C
100
AcDbEntity
  8
_Y__________
  6
CONTINUOUS
 62
         7
100
AcDbLine
 10
1335.9228759565
 20
-4.6933347407
 30
0.0
 11
1336.3233403763
 21
-4.6933347407
 31
0.0
  0
LINE
  5
2D
100
AcDbEntity
  8
_Y__________
  6
CONTINUOUS
 62
         7
100
AcDbLine
 10
1336.4647617325
 20
-4.7519133844
 30
0.0
 11
1337.6561830887
 21
-5.9433347407
 31
0.0
  0
ARC
  5
2E
100
AcDbEntity
  8
_Y__________
  6
CONTINUOUS
 62
         7
100
AcDbCircle
 10
1336.3233403763
 20
-4.8933347407
 30
0.0
 40
0.2
100
AcDbArc
 50
45.0000000038
 51
90.0
  0
LINE
  5
2F
100
AcDbEntity
  8
_Y__________
  6
CONTINUOUS
 62
         7
100
AcDbLine
 10
1336.5233403763
 20
-5.1498119
 30
0.0
 11
1336.5233403763
 21
-20.6220880762
 31
0.0
  0
LINE
  5
30
100
AcDbEntity
  8
_Y__________
  6
CONTINUOUS
 62
         7
100
AcDbLine
 10
1335.5233403763
 20
-4.7933347407
 30
0.0
 11
1335.5233403763
 21
-21.0933347407
 31
0.0
  0
LINE
  5
31
100
AcDbEntity
  8
_Y__________
  6
CONTINUOUS
 62
         5
100
AcDbLine
 10
1336.6561830887
 20
-4.9433347407
 30
0.0
 11
1360.2033403763
 21
-4.9433347407
 31
0.0
  0
LINE
  5
32
100
AcDbEntity
  8
_Y__________
  6
CONTINUOUS
 62
         7
100
AcDbLine
 10
1337.6561830887
 20
-5.9433347407
 30
0.0
 11
1360.2033403763
 21
-5.9433347407
 31
0.0
  0
LINE
  5
33
100
AcDbEntity
  8
_Y__________
  6
CONTINUOUS
 62
         7
100
AcDbLine
 10
1337.6561830887
 20
-5.9433347407
 30
0.0
 11
1337.6561830887
 21
-19.9433347407
 31
0.0
  0
LINE
  5
34
100
AcDbEntity
  8
_Y__________
  6
CONTINUOUS
 62
         7
100
AcDbLine
 10
1337.6561830887
 20
-19.9433347407
 30
0.0
 11
1360.2033403763
 21
-19.9433347407
 31
0.0
  0
LINE
  5
35
100
AcDbEntity
  8
_Y__________
  6
CONTINUOUS
 62
         7
100
AcDbLine
 10
1336.4647617325
 20
-21.1347560969
 30
0.0
 11
1337.6561830887
 21
-19.9433347407
 31
0.0
  0
ARC
  5
36
100
AcDbEntity
  8
_Y__________
  6
CONTINUOUS
 62
         7
100
AcDbCircle
 10
1336.3233403763
 20
-20.9933347407
 30
0.0
 40
0.2
100
AcDbArc
 50
270.0
 51
314.9999999962
  0
LINE
  5
37
100
AcDbEntity
  8
_Y__________
  6
CONTINUOUS
 62
         7
100
AcDbLine
 10
1335.9228759565
 20
-21.1933347407
 30
0.0
 11
1336.3233403763
 21
-21.1933347407
 31
0.0
  0
LINE
  5
38
100
AcDbEntity
  8
_Y__________
  6
CONTINUOUS
 62
         7
100
AcDbLine
 10
1335.8711121475
 20
-21.1865199059
 30
0.0
 11
1335.5233403763
 21
-21.0933347407
 31
0.0
  0
LINE
  5
39
100
AcDbEntity
  8
_Y__________
  6
CONTINUOUS
 62
         7
100
AcDbLine
 10
1332.7533403763
 20
-21.0933347407
 30
0.0
 11
1335.5233403763
 21
-21.0933347407
 31
0.0
  0
ARC
  5
3A
100
AcDbEntity
  8
_Y__________
  6
CONTINUOUS
 62
         7
100
AcDbCircle
 10
1332.7533403763
 20
-22.0933347407
 30
0.0
 40
1.0
100
AcDbArc
 50
90.0
 51
180.0
  0
LINE
  5
3B
100
AcDbEntity
  8
_Y__________
  6
CONTINUOUS
 62
         5
100
AcDbLine
 10
1336.6561830887
 20
-20.9433347407
 30
0.0
 11
1360.2033403763
 21
-20.9433347407
 31
0.0
  0
LINE
  5
3C
100
AcDbEntity
  8
_Y__________
  6
CONTINUOUS
 62
         7
100
AcDbLine
 10
1360.2033403763
 20
-4.9433347407
 30
0.0
 11
1360.2033403763
 21
-20.9433347407
 31
0.0
  0
ARC
  5
3D
100
AcDbEntity
  8
_Y__________
  6
CONTINUOUS
 62
         7
100
AcDbCircle
 10
1332.9533403763
 20
-24.1775164571
 30
0.0
 40
1.2
100
AcDbArc
 50
180.0
 51
261.7028550302
  0
ARC
  5
3E
100
AcDbEntity
  8
_Y__________
  6
CONTINUOUS
 62
         7
100
AcDbCircle
 10
1332.9533403763
 20
-1.7091530242
 30
0.0
 40
1.2
100
AcDbArc
 50
98.2971449698
 51
180.0
  0
LINE
  5
3F
100
AcDbEntity
  8
_Y__________
  6
CONTINUOUS
 62
         7
100
AcDbLine
 10
1331.7533403763
 20
-1.7091530242
 30
0.0
 11
1331.7533403763
 21
-24.1775164571
 31
0.0
  0
ARC
  5
40
100
AcDbEntity
  8
_Y__________
  6
CONTINUOUS
 62
         7
100
AcDbCircle
 10
1332.9533403763
 20
138.9504600129
 30
0.0
 40
1.2
100
AcDbArc
 50
180.0
 51
261.7028550302
  0
ARC
  5
41
100
AcDbEntity
  8
_Y__________
  6
CONTINUOUS
 62
         7
100
AcDbCircle
 10
1332.9533403763
 20
161.4188234458
 30
0.0
 40
1.2
100
AcDbArc
 50
98.2971449698
 51
180.0
  0
LINE
  5
42
100
AcDbEntity
  8
_Y__________
  6
CONTINUOUS
 62
         7
100
AcDbLine
 10
1331.7533403763
 20
161.4188234458
 30
0.0
 11
1331.7533403763
 21
138.9504600129
 31
0.0
  0
LINE
  5
43
100
AcDbEntity
  8
_Y__________
  6
CONTINUOUS
 62
         7
100
AcDbLine
 10
1370.0533403763
 20
-19.9433347407
 30
0.0
 11
1374.0947922606
 21
-12.9433347407
 31
0.0
  0
LINE
  5
44
100
AcDbEntity
  8
_Y__________
  6
CONTINUOUS
 62
         7
100
AcDbLine
 10
1370.0533403763
 20
-5.9433347407
 30
0.0
 11
1374.0947922606
 21
-12.9433347407
 31
0.0
  0
LINE
  5
45
100
AcDbEntity
  8
_Y__________
  6
CONTINUOUS
 62
         7
100
AcDbLine
 10
1370.0533403763
 20
-19.9433347407
 30
0.0
 11
1337.5061830887
 21
-19.9433347407
 31
0.0
  0
LINE
  5
46
100
AcDbEntity
  8
_Y__________
  6
CONTINUOUS
 62
         7
100
AcDbLine
 10
1370.0533403763
 20
-5.9433347407
 30
0.0
 11
1337.5061830887
 21
-5.9433347407
 31
0.0
  0
LINE
  5
47
100
AcDbEntity
  8
_Y__________
  6
CONTINUOUS
 62
         7
100
AcDbLine
 10
1370.0533403763
 20
-5.9433347407
 30
0.0
 11
1370.0533403763
 21
-19.9433347407
 31
0.0
  0
LINE
  5
48
100
AcDbEntity
  8
_Y__________
  6
CONTINUOUS
 62
         7
100
AcDbLine
 10
1419.6033403763
 20
127.8996417294
 30
0.0
 11
1442.5033403763
 21
127.8996417294
 31
0.0
  0
LINE
  5
49
100
AcDbEntity
  8
_Y__________
  6
CONTINUOUS
 62
         7
100
AcDbLine
 10
1192.1233403763
 20
142.6346417294
 30
0.0
 11
1192.1233403763
 21
157.7346417294
 31
0.0
  0
LINE
  5
4A
100
AcDbEntity
  8
_Y__________
  6
CONTINUOUS
 62
         7
100
AcDbLine
 10
1192.1233403763
 20
142.6346417294
 30
0.0
 11
1191.6233403763
 21
142.1346417294
 31
0.0
  0
LINE
  5
4B
100
AcDbEntity
  8
_Y__________
  6
CONTINUOUS
 62
         7
100
AcDbLine
 10
1191.6233403763
 20
142.1346417294
 30
0.0
 11
1184.6849584247
 21
142.1346417294
 31
0.0
  0
LINE
  5
4C
100
AcDbEntity
  8
_Y__________
  6
CONTINUOUS
 62
         7
100
AcDbLine
 10
1184.2908731435
 20
141.7405564482
 30
0.0
 11
1184.6849584247
 21
142.1346417294
 31
0.0
  0
LINE
  5
4D
100
AcDbEntity
  8
_Y__________
  6
CONTINUOUS
 62
         7
100
AcDbLine
 10
1191.6233403763
 20
158.2346417294
 30
0.0
 11
1184.6849584247
 21
158.2346417294
 31
0.0
  0
LINE
  5
4E
100
AcDbEntity
  8
_Y__________
  6
CONTINUOUS
 62
         7
100
AcDbLine
 10
1192.1233403763
 20
157.7346417294
 30
0.0
 11
1191.6233403763
 21
158.2346417294
 31
0.0
  0
LINE
  5
4F
100
AcDbEntity
  8
_Y__________
  6
CONTINUOUS
 62
         7
100
AcDbLine
 10
1184.2908731435
 20
158.6287270106
 30
0.0
 11
1184.6849584247
 21
158.2346417294
 31
0.0
  0
LINE
  5
50
100
AcDbEntity
  8
_Y__________
  6
CONTINUOUS
 62
         7
100
AcDbLine
 10
1245.1617223278
 20
142.1346417294
 30
0.0
 11
1240.4233403763
 21
142.1346417294
 31
0.0
  0
LINE
  5
51
100
AcDbEntity
  8
_Y__________
  6
CONTINUOUS
 62
         7
100
AcDbLine
 10
1239.9233403763
 20
142.6346417294
 30
0.0
 11
1239.9233403763
 21
157.7346417294
 31
0.0
  0
LINE
  5
52
100
AcDbEntity
  8
_Y__________
  6
CONTINUOUS
 62
         7
100
AcDbLine
 10
1239.9233403763
 20
142.6346417294
 30
0.0
 11
1240.4233403763
 21
142.1346417294
 31
0.0
  0
LINE
  5
53
100
AcDbEntity
  8
_Y__________
  6
CONTINUOUS
 62
         7
100
AcDbLine
 10
1245.555807609
 20
141.7405564482
 30
0.0
 11
1245.1617223278
 21
142.1346417294
 31
0.0
  0
LINE
  5
54
100
AcDbEntity
  8
_Y__________
  6
CONTINUOUS
 62
         7
100
AcDbLine
 10
1239.9233403763
 20
157.7346417294
 30
0.0
 11
1240.4233403763
 21
158.2346417294
 31
0.0
  0
LINE
  5
55
100
AcDbEntity
  8
_Y__________
  6
CONTINUOUS
 62
         7
100
AcDbLine
 10
1245.555807609
 20
158.6287270106
 30
0.0
 11
1245.1617223278
 21
158.2346417294
 31
0.0
  0
LINE
  5
56
100
AcDbEntity
  8
_Y__________
  6
CONTINUOUS
 62
         7
100
AcDbLine
 10
1245.1617223278
 20
158.2346417294
 30
0.0
 11
1240.4233403763
 21
158.2346417294
 31
0.0
  0
CIRCLE
  5
57
100
AcDbEntity
  8
_Y__________
  6
CONTINUOUS
 62
         7
100
AcDbCircle
 10
1214.9233403763
 20
150.1846417294
 30
0.0
 40
22.225
  0
CIRCLE
  5
58
100
AcDbEntity
  8
_Y__________
  6
CONTINUOUS
 62
         7
100
AcDbCircle
 10
1214.9233403763
 20
150.1846417294
 30
0.0
 40
8.5
  0
CIRCLE
  5
59
100
AcDbEntity
  8
_Y__________
  6
CONTINUOUS
 62
         7
100
AcDbCircle
 10
1214.9233403763
 20
150.1846417294
 30
0.0
 40
9.5
  0
ARC
  5
5A
100
AcDbEntity
  8
_Y__________
  6
CONTINUOUS
 62
         5
100
AcDbCircle
 10
1214.9233403763
 20
150.1846417294
 30
0.0
 40
8.0
100
AcDbArc
 50
352.9901372228
 51
621.2264515101
  0
CIRCLE
  5
5B
100
AcDbEntity
  8
_Y__________
  6
CONTINUOUS
 62
         7
100
AcDbCircle
 10
1214.9233403763
 20
150.1846417294
 30
0.0
 40
7.0
  0
CIRCLE
  5
5C
100
AcDbEntity
  8
_Y__________
  6
CONTINUOUS
 62
         7
100
AcDbCircle
 10
1214.9233403763
 20
150.1846417294
 30
0.0
 40
12.7165768873
  0
LINE
  5
5D
100
AcDbEntity
  8
_Y__________
  6
CENTER
 62
         1
100
AcDbLine
 10
1214.9233403763
 20
114.5732894966
 30
0.0
 11
1214.9233403763
 21
185.4173498279
 31
0.0
  0
ARC
  5
5E
100
AcDbEntity
  8
_Y__________
  6
CONTINUOUS
 62
         7
100
AcDbCircle
 10
1214.9233403763
 20
150.1846417294
 30
0.0
 40
31.775
100
AcDbArc
 50
15.411296411
 51
164.588703589
  0
ARC
  5
5F
100
AcDbEntity
  8
_Y__________
  6
CONTINUOUS
 62
         7
100
AcDbCircle
 10
1214.9233403763
 20
150.1846417294
 30
0.0
 40
31.775
100
AcDbArc
 50
195.411296411
 51
344.588703589
  0
LINE
  5
60
100
AcDbEntity
  8
_Y__________
  6
CENTER
 62
         1
100
AcDbLine
 10
1183.1483403763
 20
150.1846417294
 30
0.0
 11
1246.6983403763
 21
150.1846417294
 31
0.0
  0
LINE
  5
61
100
AcDbEntity
  8
_Y__________
  6
CENTER
 62
         1
100
AcDbLine
 10
1596.790952795
 20
150.1846417294
 30
0.0
 11
1650.7694097755
 21
150.1846417294
 31
0.0
  0
LINE
  5
62
100
AcDbEntity
  8
_Y__________
  6
CONTINUOUS
 62
         7
100
AcDbLine
 10
1593.0449584247
 20
142.1346417294
 30
0.0
 11
1597.7833403762
 21
142.1346417294
 31
0.0
  0
LINE
  5
63
100
AcDbEntity
  8
_Y__________
  6
CONTINUOUS
 62
         7
100
AcDbLine
 10
1592.6508731435
 20
141.7405564482
 30
0.0
 11
1593.0449584247
 21
142.1346417294
 31
0.0
  0
LINE
  5
64
100
AcDbEntity
  8
_Y__________
  6
CONTINUOUS
 62
         7
100
AcDbLine
 10
1598.2833403762
 20
142.6346417294
 30
0.0
 11
1597.7833403762
 21
142.1346417294
 31
0.0
  0
LINE
  5
65
100
AcDbEntity
  8
_Y__________
  6
CONTINUOUS
 62
         7
100
AcDbLine
 10
1592.6508731435
 20
158.6287270106
 30
0.0
 11
1593.0449584247
 21
158.2346417294
 31
0.0
  0
LINE
  5
66
100
AcDbEntity
  8
_Y__________
  6
CONTINUOUS
 62
         7
100
AcDbLine
 10
1598.2833403762
 20
157.7346417294
 30
0.0
 11
1597.7833403762
 21
158.2346417294
 31
0.0
  0
LINE
  5
67
100
AcDbEntity
  8
_Y__________
  6
CONTINUOUS
 62
         7
100
AcDbLine
 10
1598.2833403762
 20
157.7346417294
 30
0.0
 11
1598.2833403762
 21
142.6346417294
 31
0.0
  0
LINE
  5
68
100
AcDbEntity
  8
_Y__________
  6
CONTINUOUS
 62
         7
100
AcDbLine
 10
1593.0449584247
 20
158.2346417294
 30
0.0
 11
1597.7833403762
 21
158.2346417294
 31
0.0
  0
LINE
  5
69
100
AcDbEntity
  8
_Y__________
  6
CONTINUOUS
 62
         7
100
AcDbLine
 10
1653.915807609
 20
141.7405564482
 30
0.0
 11
1653.5217223278
 21
142.1346417294
 31
0.0
  0
LINE
  5
6A
100
AcDbEntity
  8
_Y__________
  6
CONTINUOUS
 62
         7
100
AcDbLine
 10
1646.0833403763
 20
142.6346417294
 30
0.0
 11
1646.5833403763
 21
142.1346417294
 31
0.0
  0
LINE
  5
6B
100
AcDbEntity
  8
_Y__________
  6
CONTINUOUS
 62
         7
100
AcDbLine
 10
1646.5833403763
 20
142.1346417294
 30
0.0
 11
1653.5217223278
 21
142.1346417294
 31
0.0
  0
LINE
  5
6C
100
AcDbEntity
  8
_Y__________
  6
CONTINUOUS
 62
         7
100
AcDbLine
 10
1653.915807609
 20
158.6287270106
 30
0.0
 11
1653.5217223278
 21
158.2346417294
 31
0.0
  0
LINE
  5
6D
100
AcDbEntity
  8
_Y__________
  6
CONTINUOUS
 62
         7
100
AcDbLine
 10
1646.5833403763
 20
158.2346417294
 30
0.0
 11
1653.5217223278
 21
158.2346417294
 31
0.0
  0
LINE
  5
6E
100
AcDbEntity
  8
_Y__________
  6
CONTINUOUS
 62
         7
100
AcDbLine
 10
1646.0833403763
 20
157.7346417294
 30
0.0
 11
1646.5833403763
 21
158.2346417294
 31
0.0
  0
LINE
  5
6F
100
AcDbEntity
  8
_Y__________
  6
CONTINUOUS
 62
         7
100
AcDbLine
 10
1646.0833403763
 20
157.7346417294
 30
0.0
 11
1646.0833403763
 21
142.6346417294
 31
0.0
  0
ARC
  5
70
100
AcDbEntity
  8
_Y__________
  6
DASHED
 62
         2
100
AcDbCircle
 10
1623.2833403763
 20
150.1846417294
 30
0.0
 40
28.125
100
AcDbArc
 50
198.3406919436
 51
343.3680794645
  0
ARC
  5
71
100
AcDbEntity
  8
_Y__________
  6
DASHED
 62
         2
100
AcDbCircle
 10
1623.2833403763
 20
150.1846417294
 30
0.0
 40
28.125
100
AcDbArc
 50
16.6319205355
 51
163.3680794645
  0
LINE
  5
72
100
AcDbEntity
  8
_Y__________
  6
CENTER
 62
         1
100
AcDbLine
 10
1623.2833403763
 20
184.9596417294
 30
0.0
 11
1623.2833403763
 21
115.4096417294
 31
0.0
  0
ARC
  5
73
100
AcDbEntity
  8
_Y__________
  6
CONTINUOUS
 62
         7
100
AcDbCircle
 10
1623.2833403763
 20
150.1846417294
 30
0.0
 40
31.775
100
AcDbArc
 50
15.411296411
 51
164.588703589
  0
ARC
  5
74
100
AcDbEntity
  8
_Y__________
  6
CONTINUOUS
 62
         7
100
AcDbCircle
 10
1623.2833403763
 20
150.1846417294
 30
0.0
 40
31.775
100
AcDbArc
 50
195.411296411
 51
344.588703589
  0
LINE
  5
75
100
AcDbEntity
  8
_Y__________
  6
CONTINUOUS
 62
         7
100
AcDbLine
 10
1407.5670699775
 20
181.9596417294
 30
0.0
 11
1407.5670699775
 21
159.0346417294
 31
0.0
  0
LINE
  5
76
100
AcDbEntity
  8
_Y__________
  6
CONTINUOUS
 62
         7
100
AcDbLine
 10
1409.2283403763
 20
179.0822369936
 30
0.0
 11
1409.2283403763
 21
158.2346417294
 31
0.0
  0
LINE
  5
77
100
AcDbEntity
  8
_Y__________
  6
CONTINUOUS
 62
         7
100
AcDbLine
 10
1412.9783403763
 20
179.0822369936
 30
0.0
 11
1412.9783403763
 21
158.2346417294
 31
0.0
  0
LINE
  5
78
100
AcDbEntity
  8
_Y__________
  6
CONTINUOUS
 62
         7
100
AcDbLine
 10
1414.639610775
 20
181.9596417294
 30
0.0
 11
1414.639610775
 21
159.0346417294
 31
0.0
  0
LINE
  5
79
100
AcDbEntity
  8
_Y__________
  6
CONTINUOUS
 62
         7
100
AcDbLine
 10
1418.3033403763
 20
158.2346417294
 30
0.0
 11
1404.0033403763
 21
158.2346417294
 31
0.0
  0
LINE
  5
7A
100
AcDbEntity
  8
_Y__________
  6
CONTINUOUS
 62
         7
100
AcDbLine
 10
1418.3033403763
 20
142.1346417294
 30
0.0
 11
1404.0033403763
 21
142.1346417294
 31
0.0
  0
LINE
  5
7B
100
AcDbEntity
  8
_Y__________
  6
CONTINUOUS
 62
         7
100
AcDbLine
 10
1407.5670699775
 20
159.0346417294
 30
0.0
 11
1409.2283403763
 21
158.2346417294
 31
0.0
  0
LINE
  5
7C
100
AcDbEntity
  8
_Y__________
  6
CONTINUOUS
 62
         7
100
AcDbLine
 10
1407.5670699775
 20
141.3346417294
 30
0.0
 11
1409.2283403763
 21
142.1346417294
 31
0.0
  0
LINE
  5
7D
100
AcDbEntity
  8
_Y__________
  6
CONTINUOUS
 62
         7
100
AcDbLine
 10
1404.0033403763
 20
158.2346417294
 30
0.0
 11
1404.0033403763
 21
142.1346417294
 31
0.0
  0
LINE
  5
7E
100
AcDbEntity
  8
_Y__________
  6
CONTINUOUS
 62
         7
100
AcDbLine
 10
1407.5670699775
 20
141.3346417294
 30
0.0
 11
1403.2033403763
 21
141.3346417294
 31
0.0
  0
LINE
  5
7F
100
AcDbEntity
  8
_Y__________
  6
CONTINUOUS
 62
         7
100
AcDbLine
 10
1404.0033403763
 20
142.1346417294
 30
0.0
 11
1403.2033403763
 21
141.3346417294
 31
0.0
  0
LINE
  5
80
100
AcDbEntity
  8
_Y__________
  6
CONTINUOUS
 62
         7
100
AcDbLine
 10
1403.2033403763
 20
159.0346417294
 30
0.0
 11
1404.0033403763
 21
158.2346417294
 31
0.0
  0
LINE
  5
81
100
AcDbEntity
  8
_Y__________
  6
CONTINUOUS
 62
         7
100
AcDbLine
 10
1407.5670699775
 20
159.0346417294
 30
0.0
 11
1403.2033403763
 21
159.0346417294
 31
0.0
  0
LINE
  5
82
100
AcDbEntity
  8
_Y__________
  6
CONTINUOUS
 62
         7
100
AcDbLine
 10
1418.3033403763
 20
158.2346417294
 30
0.0
 11
1418.3033403763
 21
142.1346417294
 31
0.0
  0
LINE
  5
83
100
AcDbEntity
  8
_Y__________
  6
CONTINUOUS
 62
         7
100
AcDbLine
 10
1419.1033403763
 20
141.3346417294
 30
0.0
 11
1414.639610775
 21
141.3346417294
 31
0.0
  0
LINE
  5
84
100
AcDbEntity
  8
_Y__________
  6
CONTINUOUS
 62
         7
100
AcDbLine
 10
1418.3033403763
 20
142.1346417294
 30
0.0
 11
1419.1033403763
 21
141.3346417294
 31
0.0
  0
LINE
  5
85
100
AcDbEntity
  8
_Y__________
  6
CONTINUOUS
 62
         7
100
AcDbLine
 10
1412.9783403763
 20
142.1346417294
 30
0.0
 11
1414.639610775
 21
141.3346417294
 31
0.0
  0
LINE
  5
86
100
AcDbEntity
  8
_Y__________
  6
CONTINUOUS
 62
         7
100
AcDbLine
 10
1419.1033403763
 20
159.0346417294
 30
0.0
 11
1418.3033403763
 21
158.2346417294
 31
0.0
  0
LINE
  5
87
100
AcDbEntity
  8
_Y__________
  6
CONTINUOUS
 62
         7
100
AcDbLine
 10
1412.9783403763
 20
158.2346417294
 30
0.0
 11
1414.639610775
 21
159.0346417294
 31
0.0
  0
LINE
  5
88
100
AcDbEntity
  8
_Y__________
  6
CONTINUOUS
 62
         7
100
AcDbLine
 10
1419.1033403763
 20
159.0346417294
 30
0.0
 11
1414.639610775
 21
159.0346417294
 31
0.0
  0
LINE
  5
89
100
AcDbEntity
  8
_Y__________
  6
CONTINUOUS
 62
         7
100
AcDbLine
 10
1407.5670699775
 20
141.3346417294
 30
0.0
 11
1407.5670699775
 21
118.4096417294
 31
0.0
  0
LINE
  5
8A
100
AcDbEntity
  8
_Y__________
  6
CONTINUOUS
 62
         7
100
AcDbLine
 10
1409.2283403763
 20
142.1346417294
 30
0.0
 11
1409.2283403763
 21
121.2870464652
 31
0.0
  0
LINE
  5
8B
100
AcDbEntity
  8
_Y__________
  6
CONTINUOUS
 62
         7
100
AcDbLine
 10
1412.9783403763
 20
142.1346417294
 30
0.0
 11
1412.9783403763
 21
121.2870464652
 31
0.0
  0
LINE
  5
8C
100
AcDbEntity
  8
_Y__________
  6
CONTINUOUS
 62
         7
100
AcDbLine
 10
1414.639610775
 20
141.3346417294
 30
0.0
 11
1414.639610775
 21
118.4096417294
 31
0.0
  0
CIRCLE
  5
8D
100
AcDbEntity
  8
_Y__________
  6
DASHED
 62
         2
100
AcDbCircle
 10
1623.2833403763
 20
150.1846417294
 30
0.0
 40
22.225
  0
LINE
  5
8E
100
AcDbEntity
  8
_Y__________
  6
CONTINUOUS
 62
         7
100
AcDbLine
 10
1419.1033403763
 20
-35.7283347407
 30
0.0
 11
1419.1033403763
 21
-43.7183347409
 31
0.0
  0
LINE
  5
8F
100
AcDbEntity
  8
_Y__________
  6
CONTINUOUS
 62
         7
100
AcDbLine
 10
1419.1033403763
 20
17.8316652595
 30
0.0
 11
1419.1033403763
 21
9.8416652593
 31
0.0
  0
ARC
  5
90
100
AcDbEntity
  8
_Y__________
  6
CONTINUOUS
 62
         7
100
AcDbCircle
 10
1419.6033403763
 20
172.9696417294
 30
0.0
 40
0.5
100
AcDbArc
 50
180.0
 51
270.0
  0
ARC
  5
91
100
AcDbEntity
  8
_Y__________
  6
CONTINUOUS
 62
         7
100
AcDbCircle
 10
1419.6033403763
 20
127.3996417294
 30
0.0
 40
0.5
100
AcDbArc
 50
90.0
 51
180.0
  0
LINE
  5
92
100
AcDbEntity
  8
_Y__________
  6
CONTINUOUS
 62
         7
100
AcDbLine
 10
1419.6033403763
 20
172.4696417294
 30
0.0
 11
1442.5033403763
 21
172.4696417294
 31
0.0
  0
ARC
  5
93
100
AcDbEntity
  8
_Y__________
  6
CONTINUOUS
 62
         7
100
AcDbCircle
 10
1404.2033403763
 20
17.8316652593
 30
0.0
 40
1.0
100
AcDbArc
 50
90.0
 51
180.0
  0
LINE
  5
94
100
AcDbEntity
  8
_Y__________
  6
CONTINUOUS
 62
         7
100
AcDbLine
 10
1404.2033403763
 20
18.8316652593
 30
0.0
 11
1405.2033403763
 21
18.8316652593
 31
0.0
  0
LINE
  5
95
100
AcDbEntity
  8
_Y__________
  6
CONTINUOUS
 62
         7
100
AcDbLine
 10
1403.2033403763
 20
17.8316652593
 30
0.0
 11
1403.2033403763
 21
16.8316652593
 31
0.0
  0
LINE
  5
96
100
AcDbEntity
  8
_Y__________
  6
CONTINUOUS
 62
         7
100
AcDbLine
 10
1417.1033403763
 20
18.8316652593
 30
0.0
 11
1418.1033403763
 21
18.8316652593
 31
0.0
  0
ARC
  5
97
100
AcDbEntity
  8
_Y__________
  6
CONTINUOUS
 62
         7
100
AcDbCircle
 10
1418.1033403763
 20
17.8316652593
 30
0.0
 40
1.0
100
AcDbArc
 50
0.0
 51
90.0
  0
ARC
  5
98
100
AcDbEntity
  8
_Y__________
  6
CONTINUOUS
 62
         7
100
AcDbCircle
 10
1404.2033403763
 20
-43.7183347407
 30
0.0
 40
1.0
100
AcDbArc
 50
180.0
 51
270.0
  0
LINE
  5
99
100
AcDbEntity
  8
_Y__________
  6
CONTINUOUS
 62
         7
100
AcDbLine
 10
1404.2033403763
 20
-44.7183347407
 30
0.0
 11
1405.2033403763
 21
-44.7183347407
 31
0.0
  0
LINE
  5
9A
100
AcDbEntity
  8
_Y__________
  6
CONTINUOUS
 62
         7
100
AcDbLine
 10
1417.1033403763
 20
-44.7183347407
 30
0.0
 11
1418.1033403763
 21
-44.7183347407
 31
0.0
  0
ARC
  5
9B
100
AcDbEntity
  8
_Y__________
  6
CONTINUOUS
 62
         7
100
AcDbCircle
 10
1418.1033403763
 20
-43.7183347407
 30
0.0
 40
1.0
100
AcDbArc
 50
270.0
 51
360.0
  0
LINE
  5
9C
100
AcDbEntity
  8
_Y__________
  6
CONTINUOUS
 62
         7
100
AcDbLine
 10
1419.1033403763
 20
17.8316652593
 30
0.0
 11
1419.1033403763
 21
16.8316652593
 31
0.0
  0
LINE
  5
9D
100
AcDbEntity
  8
_Y__________
  6
CONTINUOUS
 62
         7
100
AcDbLine
 10
1403.2033403763
 20
-42.7183347407
 30
0.0
 11
1403.2033403763
 21
-43.7183347407
 31
0.0
  0
LINE
  5
9E
100
AcDbEntity
  8
_Y__________
  6
CONTINUOUS
 62
         7
100
AcDbLine
 10
1419.1033403763
 20
-42.7183347407
 30
0.0
 11
1419.1033403763
 21
-43.7183347407
 31
0.0
  0
LINE
  5
9F
100
AcDbEntity
  8
_Y__________
  6
CONTINUOUS
 62
         7
100
AcDbLine
 10
1419.1033403763
 20
127.3996417294
 30
0.0
 11
1419.1033403763
 21
119.4096417294
 31
0.0
  0
LINE
  5
A0
100
AcDbEntity
  8
_Y__________
  6
CONTINUOUS
 62
         7
100
AcDbLine
 10
1403.2033403763
 20
120.4096417294
 30
0.0
 11
1403.2033403763
 21
119.4096417294
 31
0.0
  0
LINE
  5
A1
100
AcDbEntity
  8
_Y__________
  6
CONTINUOUS
 62
         7
100
AcDbLine
 10
1419.1033403763
 20
180.9596417294
 30
0.0
 11
1419.1033403763
 21
172.9696417294
 31
0.0
  0
ARC
  5
A2
100
AcDbEntity
  8
_Y__________
  6
CONTINUOUS
 62
         7
100
AcDbCircle
 10
1418.1033403763
 20
119.4096417294
 30
0.0
 40
1.0
100
AcDbArc
 50
270.0
 51
360.0
  0
LINE
  5
A3
100
AcDbEntity
  8
_Y__________
  6
CONTINUOUS
 62
         7
100
AcDbLine
 10
1417.1033403763
 20
118.4096417294
 30
0.0
 11
1418.1033403763
 21
118.4096417294
 31
0.0
  0
LINE
  5
A4
100
AcDbEntity
  8
_Y__________
  6
CONTINUOUS
 62
         7
100
AcDbLine
 10
1404.2033403763
 20
118.4096417294
 30
0.0
 11
1405.2033403763
 21
118.4096417294
 31
0.0
  0
ARC
  5
A5
100
AcDbEntity
  8
_Y__________
  6
CONTINUOUS
 62
         7
100
AcDbCircle
 10
1404.2033403763
 20
119.4096417294
 30
0.0
 40
1.0
100
AcDbArc
 50
180.0
 51
270.0
  0
ARC
  5
A6
100
AcDbEntity
  8
_Y__________
  6
CONTINUOUS
 62
         7
100
AcDbCircle
 10
1418.1033403763
 20
180.9596417294
 30
0.0
 40
1.0
100
AcDbArc
 50
0.0
 51
90.0
  0
LINE
  5
A7
100
AcDbEntity
  8
_Y__________
  6
CONTINUOUS
 62
         7
100
AcDbLine
 10
1417.1033403763
 20
181.9596417294
 30
0.0
 11
1418.1033403763
 21
181.9596417294
 31
0.0
  0
LINE
  5
A8
100
AcDbEntity
  8
_Y__________
  6
CONTINUOUS
 62
         7
100
AcDbLine
 10
1403.2033403763
 20
180.9596417294
 30
0.0
 11
1403.2033403763
 21
179.9596417294
 31
0.0
  0
LINE
  5
A9
100
AcDbEntity
  8
_Y__________
  6
CONTINUOUS
 62
         7
100
AcDbLine
 10
1404.2033403763
 20
181.9596417294
 30
0.0
 11
1405.2033403763
 21
181.9596417294
 31
0.0
  0
ARC
  5
AA
100
AcDbEntity
  8
_Y__________
  6
CONTINUOUS
 62
         7
100
AcDbCircle
 10
1404.2033403763
 20
180.9596417294
 30
0.0
 40
1.0
100
AcDbArc
 50
90.0
 51
180.0
  0
LINE
  5
AB
100
AcDbEntity
  8
_Y__________
  6
CONTINUOUS
 62
         7
100
AcDbLine
 10
1419.6033403763
 20
9.3416652593
 30
0.0
 11
1442.5033403763
 21
9.3416652593
 31
0.0
  0
LINE
  5
AC
100
AcDbEntity
  8
_Y__________
  6
CONTINUOUS
 62
         7
100
AcDbLine
 10
1419.6033403763
 20
-35.2283347407
 30
0.0
 11
1442.5033403763
 21
-35.2283347407
 31
0.0
  0
ARC
  5
AD
100
AcDbEntity
  8
_Y__________
  6
CONTINUOUS
 62
         7
100
AcDbCircle
 10
1419.6033403763
 20
-35.7283347407
 30
0.0
 40
0.5
100
AcDbArc
 50
90.0
 51
180.0
  0
ARC
  5
AE
100
AcDbEntity
  8
_Y__________
  6
CONTINUOUS
 62
         7
100
AcDbCircle
 10
1419.6033403763
 20
9.8416652593
 30
0.0
 40
0.5
100
AcDbArc
 50
180.0
 51
270.0
  0
LINE
  5
AF
100
AcDbEntity
  8
_Y__________
  6
CONTINUOUS
 62
         7
100
AcDbLine
 10
1414.639610775
 20
-44.7183347409
 30
0.0
 11
1418.1033403763
 21
-44.7183347409
 31
0.0
  0
LINE
  5
B0
100
AcDbEntity
  8
_Y__________
  6
CONTINUOUS
 62
         7
100
AcDbLine
 10
1412.9783403763
 20
-41.8409300049
 30
0.0
 11
1414.639610775
 21
-44.7183347407
 31
0.0
  0
ARC
  5
B1
100
AcDbEntity
  8
_Y__________
  6
CONTINUOUS
 62
         7
100
AcDbCircle
 10
1412.0045400445
 20
-42.0683347409
 30
0.0
 40
1.0
100
AcDbArc
 50
13.1443256895
 51
90.0
  0
LINE
  5
B2
100
AcDbEntity
  8
_Y__________
  6
CONTINUOUS
 62
         7
100
AcDbLine
 10
1410.202140708
 20
-41.0683347407
 30
0.0
 11
1412.0045400445
 21
-41.0683347407
 31
0.0
  0
ARC
  5
B3
100
AcDbEntity
  8
_Y__________
  6
CONTINUOUS
 62
         7
100
AcDbCircle
 10
1410.202140708
 20
-42.0683347407
 30
0.0
 40
1.0
100
AcDbArc
 50
90.0
 51
166.8556743105
  0
LINE
  5
B4
100
AcDbEntity
  8
_Y__________
  6
CONTINUOUS
 62
         7
100
AcDbLine
 10
1409.2283403763
 20
-41.8409300049
 30
0.0
 11
1407.5670699775
 21
-44.7183347407
 31
0.0
  0
LINE
  5
B5
100
AcDbEntity
  8
_Y__________
  6
CONTINUOUS
 62
         7
100
AcDbLine
 10
1403.2033403763
 20
-35.7433347409
 30
0.0
 11
1403.2033403763
 21
-43.7183347409
 31
0.0
  0
LINE
  5
B6
100
AcDbEntity
  8
_Y__________
  6
CONTINUOUS
 62
         7
100
AcDbLine
 10
1404.2033403763
 20
-44.7183347409
 30
0.0
 11
1407.5670699775
 21
-44.7183347409
 31
0.0
  0
ARC
  5
B7
100
AcDbEntity
  8
_Y__________
  6
CONTINUOUS
 62
         7
100
AcDbCircle
 10
1402.6033403763
 20
-35.7433347407
 30
0.0
 40
0.6
100
AcDbArc
 50
0.0
 51
90.0
  0
LINE
  5
B8
100
AcDbEntity
  8
_Y__________
  6
CONTINUOUS
 62
         7
100
AcDbLine
 10
1401.9497505378
 20
-35.1433347407
 30
0.0
 11
1402.6033403763
 21
-35.1433347407
 31
0.0
  0
LINE
  5
B9
100
AcDbEntity
  8
_Y__________
  6
CONTINUOUS
 62
         7
100
AcDbLine
 10
1401.2033403763
 20
-35.3433347409
 30
0.0
 11
1401.9497505378
 21
-35.1433347409
 31
0.0
  0
LINE
  5
BA
100
AcDbEntity
  8
_Y__________
  6
CENTER
 62
         1
100
AcDbLine
 10
1328.5556074009
 20
-12.9433347407
 30
0.0
 11
1378.0033403763
 21
-12.9433347407
 31
0.0
  0
LINE
  5
BB
100
AcDbEntity
  8
_Y__________
  6
CONTINUOUS
 62
         7
100
AcDbLine
 10
1332.6301721046
 20
-25.3430810344
 30
0.0
 11
1401.2033403767
 21
-35.3433347407
 31
0.0
  0
LINE
  5
BC
100
AcDbEntity
  8
_Y__________
  6
CONTINUOUS
 62
         7
100
AcDbLine
 10
1401.2033403763
 20
9.4566652593
 30
0.0
 11
1401.9497505378
 21
9.2566652593
 31
0.0
  0
LINE
  5
BD
100
AcDbEntity
  8
_Y__________
  6
CONTINUOUS
 62
         7
100
AcDbLine
 10
1332.6301721046
 20
-0.543588447
 30
0.0
 11
1401.2033403763
 21
9.4566652593
 31
0.0
  0
LINE
  5
BE
100
AcDbEntity
  8
_Y__________
  6
CONTINUOUS
 62
         7
100
AcDbLine
 10
1401.9497505378
 20
9.2566652593
 30
0.0
 11
1402.6033403763
 21
9.2566652593
 31
0.0
  0
ARC
  5
BF
100
AcDbEntity
  8
_Y__________
  6
CONTINUOUS
 62
         7
100
AcDbCircle
 10
1402.6033403763
 20
9.8566652593
 30
0.0
 40
0.6
100
AcDbArc
 50
270.0
 51
360.0
  0
LINE
  5
C0
100
AcDbEntity
  8
_Y__________
  6
CONTINUOUS
 62
         7
100
AcDbLine
 10
1403.2033403763
 20
9.8566652593
 30
0.0
 11
1403.2033403763
 21
17.8316652595
 31
0.0
  0
LINE
  5
C1
100
AcDbEntity
  8
_Y__________
  6
CONTINUOUS
 62
         7
100
AcDbLine
 10
1404.2033403763
 20
18.8316652595
 30
0.0
 11
1407.5670699775
 21
18.8316652595
 31
0.0
  0
LINE
  5
C2
100
AcDbEntity
  8
_Y__________
  6
CONTINUOUS
 62
         7
100
AcDbLine
 10
1409.2283403763
 20
15.9542605235
 30
0.0
 11
1407.5670699775
 21
18.8316652593
 31
0.0
  0
ARC
  5
C3
100
AcDbEntity
  8
_Y__________
  6
CONTINUOUS
 62
         7
100
AcDbCircle
 10
1410.202140708
 20
16.1816652595
 30
0.0
 40
1.0
100
AcDbArc
 50
193.1443256895
 51
270.0
  0
LINE
  5
C4
100
AcDbEntity
  8
_Y__________
  6
CONTINUOUS
 62
         7
100
AcDbLine
 10
1410.202140708
 20
15.1816652595
 30
0.0
 11
1412.0045400445
 21
15.1816652595
 31
0.0
  0
ARC
  5
C5
100
AcDbEntity
  8
_Y__________
  6
CONTINUOUS
 62
         7
100
AcDbCircle
 10
1412.0045400445
 20
16.1816652595
 30
0.0
 40
1.0
100
AcDbArc
 50
270.0
 51
346.8556743105
  0
LINE
  5
C6
100
AcDbEntity
  8
_Y__________
  6
CONTINUOUS
 62
         7
100
AcDbLine
 10
1412.9783403763
 20
15.9542605237
 30
0.0
 11
1414.639610775
 21
18.8316652595
 31
0.0
  0
LINE
  5
C7
100
AcDbEntity
  8
_Y__________
  6
CONTINUOUS
 62
         7
100
AcDbLine
 10
1414.639610775
 20
18.8316652595
 30
0.0
 11
1418.1033403763
 21
18.8316652595
 31
0.0
  0
LINE
  5
C8
100
AcDbEntity
  8
_Y__________
  6
CONTINUOUS
 62
         7
100
AcDbLine
 10
1409.2283403763
 20
179.0822369936
 30
0.0
 11
1407.5670699775
 21
181.9596417294
 31
0.0
  0
LINE
  5
C9
100
AcDbEntity
  8
_Y__________
  6
CONTINUOUS
 62
         7
100
AcDbLine
 10
1409.2283403763
 20
121.2870464652
 30
0.0
 11
1407.5670699775
 21
118.4096417294
 31
0.0
  0
LINE
  5
CA
100
AcDbEntity
  8
_Y__________
  6
CONTINUOUS
 62
         7
100
AcDbLine
 10
1403.2033403763
 20
180.9596417294
 30
0.0
 11
1403.2033403763
 21
119.4096417294
 31
0.0
  0
LINE
  5
CB
100
AcDbEntity
  8
_Y__________
  6
CENTER
 62
         1
100
AcDbLine
 10
1400.0033403763
 20
172.4096417294
 30
0.0
 11
1400.0033403763
 21
127.9596417294
 31
0.0
  0
LINE
  5
CC
100
AcDbEntity
  8
_Y__________
  6
CONTINUOUS
 62
         7
100
AcDbLine
 10
1404.2033403763
 20
118.4096417294
 30
0.0
 11
1407.5670699775
 21
118.4096417294
 31
0.0
  0
LINE
  5
CD
100
AcDbEntity
  8
_Y__________
  6
CONTINUOUS
 62
         7
100
AcDbLine
 10
1404.2033403763
 20
181.9596417294
 30
0.0
 11
1407.5670699775
 21
181.9596417294
 31
0.0
  0
LINE
  5
CE
100
AcDbEntity
  8
_Y__________
  6
CONTINUOUS
 62
         7
100
AcDbLine
 10
1419.1033403763
 20
180.9596417294
 30
0.0
 11
1419.1033403763
 21
119.4096417294
 31
0.0
  0
LINE
  5
CF
100
AcDbEntity
  8
_Y__________
  6
CONTINUOUS
 62
         7
100
AcDbLine
 10
1419.1033403763
 20
180.9596417294
 30
0.0
 11
1419.1033403763
 21
169.1846417294
 31
0.0
  0
LINE
  5
D0
100
AcDbEntity
  8
_Y__________
  6
CONTINUOUS
 62
         7
100
AcDbLine
 10
1410.202140708
 20
122.0596417294
 30
0.0
 11
1412.0045400445
 21
122.0596417294
 31
0.0
  0
ARC
  5
D1
100
AcDbEntity
  8
_Y__________
  6
CONTINUOUS
 62
         7
100
AcDbCircle
 10
1410.202140708
 20
121.0596417294
 30
0.0
 40
1.0
100
AcDbArc
 50
90.0
 51
166.8556743105
  0
LINE
  5
D2
100
AcDbEntity
  8
_Y__________
  6
CONTINUOUS
 62
         7
100
AcDbLine
 10
1412.9783403763
 20
121.2870464652
 30
0.0
 11
1414.639610775
 21
118.4096417294
 31
0.0
  0
ARC
  5
D3
100
AcDbEntity
  8
_Y__________
  6
CONTINUOUS
 62
         7
100
AcDbCircle
 10
1412.0045400445
 20
121.0596417294
 30
0.0
 40
1.0
100
AcDbArc
 50
13.1443256895
 51
90.0
  0
LINE
  5
D4
100
AcDbEntity
  8
_Y__________
  6
CONTINUOUS
 62
         7
100
AcDbLine
 10
1414.639610775
 20
118.4096417294
 30
0.0
 11
1418.1033403763
 21
118.4096417294
 31
0.0
  0
LINE
  5
D5
100
AcDbEntity
  8
_Y__________
  6
CONTINUOUS
 62
         7
100
AcDbLine
 10
1412.9783403763
 20
179.0822369936
 30
0.0
 11
1414.639610775
 21
181.9596417294
 31
0.0
  0
LINE
  5
D6
100
AcDbEntity
  8
_Y__________
  6
CONTINUOUS
 62
         7
100
AcDbLine
 10
1414.639610775
 20
181.9596417294
 30
0.0
 11
1418.1033403763
 21
181.9596417294
 31
0.0
  0
LINE
  5
D7
100
AcDbEntity
  8
_Y__________
  6
CONTINUOUS
 62
         7
100
AcDbLine
 10
1410.202140708
 20
178.3096417294
 30
0.0
 11
1412.0045400445
 21
178.3096417294
 31
0.0
  0
ARC
  5
D8
100
AcDbEntity
  8
_Y__________
  6
CONTINUOUS
 62
         7
100
AcDbCircle
 10
1410.202140708
 20
179.3096417294
 30
0.0
 40
1.0
100
AcDbArc
 50
193.1443256895
 51
270.0
  0
ARC
  5
D9
100
AcDbEntity
  8
_Y__________
  6
CONTINUOUS
 62
         7
100
AcDbCircle
 10
1412.0045400445
 20
179.3096417294
 30
0.0
 40
1.0
100
AcDbArc
 50
270.0
 51
346.8556743105
  0
LINE
  5
DA
100
AcDbEntity
  8
_Y__________
  6
CENTER
 62
         1
100
AcDbLine
 10
1411.1033403763
 20
187.6899050302
 30
0.0
 11
1411.1033403763
 21
112.6870854784
 31
0.0
  0
LINE
  5
DB
100
AcDbEntity
  8
_Y__________
  6
CONTINUOUS
 62
         7
100
AcDbLine
 10
1332.7801721046
 20
137.7630204357
 30
0.0
 11
1401.2033403763
 21
127.7846417294
 31
0.0
  0
LINE
  5
DC
100
AcDbEntity
  8
_Y__________
  6
CENTER
 62
         1
100
AcDbLine
 10
1329.3598386453
 20
150.1846417294
 30
0.0
 11
1378.4659535144
 21
150.1846417294
 31
0.0
  0
LINE
  5
DD
100
AcDbEntity
  8
_Y__________
  6
CONTINUOUS
 62
         7
100
AcDbLine
 10
1332.7801721046
 20
162.6062630231
 30
0.0
 11
1401.2033403763
 21
172.5846417294
 31
0.0
  0
LINE
  5
DE
100
AcDbEntity
  8
_Y__________
  6
CENTER
 62
         1
100
AcDbLine
 10
1396.6508489578
 20
150.1846417294
 30
0.0
 11
1419.1033403763
 21
150.1846417294
 31
0.0
  0
LINE
  5
DF
100
AcDbEntity
  8
_Y__________
  6
CONTINUOUS
 62
         7
100
AcDbLine
 10
1401.9497505378
 20
127.9846417294
 30
0.0
 11
1402.6033403763
 21
127.9846417294
 31
0.0
  0
LINE
  5
E0
100
AcDbEntity
  8
_Y__________
  6
CONTINUOUS
 62
         7
100
AcDbLine
 10
1401.2033403763
 20
127.7846417294
 30
0.0
 11
1401.9497505378
 21
127.9846417294
 31
0.0
  0
ARC
  5
E1
100
AcDbEntity
  8
_Y__________
  6
CONTINUOUS
 62
         7
100
AcDbCircle
 10
1402.6033403763
 20
127.3846417294
 30
0.0
 40
0.6
100
AcDbArc
 50
0.0
 51
90.0
  0
LINE
  5
E2
100
AcDbEntity
  8
_Y__________
  6
CONTINUOUS
 62
         7
100
AcDbLine
 10
1401.9497505378
 20
127.9846417294
 30
0.0
 11
1401.9497505378
 21
172.3846417294
 31
0.0
  0
LINE
  5
E3
100
AcDbEntity
  8
_Y__________
  6
CONTINUOUS
 62
         7
100
AcDbLine
 10
1401.2033403763
 20
127.7846417294
 30
0.0
 11
1401.2033403763
 21
172.5846417294
 31
0.0
  0
LINE
  5
E4
100
AcDbEntity
  8
_Y__________
  6
CONTINUOUS
 62
         7
100
AcDbLine
 10
1401.9497505378
 20
172.3846417294
 30
0.0
 11
1402.6033403763
 21
172.3846417294
 31
0.0
  0
LINE
  5
E5
100
AcDbEntity
  8
_Y__________
  6
CONTINUOUS
 62
         7
100
AcDbLine
 10
1401.2033403763
 20
172.5846417294
 30
0.0
 11
1401.9497505378
 21
172.3846417294
 31
0.0
  0
ARC
  5
E6
100
AcDbEntity
  8
_Y__________
  6
CONTINUOUS
 62
         7
100
AcDbCircle
 10
1402.6033403763
 20
172.9846417294
 30
0.0
 40
0.6
100
AcDbArc
 50
270.0
 51
360.0
  0
CIRCLE
  5
E7
100
AcDbEntity
  8
_Y__________
  6
CONTINUOUS
 62
         7
100
AcDbCircle
 10
1411.1033403763
 20
150.1846417294
 30
0.0
 40
5.0
  0
LINE
  5
E8
100
AcDbEntity
  8
_Y__________
  6
DASHED
 62
         2
100
AcDbLine
 10
1598.7833403762
 20
145.1846417294
 30
0.0
 11
1598.2833403762
 21
144.6846417294
 31
0.0
  0
LINE
  5
E9
100
AcDbEntity
  8
_Y__________
  6
DASHED
 62
         2
100
AcDbLine
 10
1598.7833403762
 20
155.1846417294
 30
0.0
 11
1598.2833403762
 21
155.6846417294
 31
0.0
  0
LINE
  5
EA
100
AcDbEntity
  8
_Y__________
  6
DASHED
 62
         2
100
AcDbLine
 10
1598.7833403762
 20
155.1846417294
 30
0.0
 11
1598.7833403762
 21
145.1846417294
 31
0.0
  0
LINE
  5
EB
100
AcDbEntity
  8
_Y__________
  6
DASHED
 62
         2
100
AcDbLine
 10
1598.7833403762
 20
145.1846417294
 30
0.0
 11
1604.9573403762
 21
145.1846417294
 31
0.0
  0
LINE
  5
EC
100
AcDbEntity
  8
_Y__________
  6
DASHED
 62
         2
100
AcDbLine
 10
1607.8440917222
 20
150.1846417294
 30
0.0
 11
1604.9573403762
 21
145.1846417294
 31
0.0
  0
LINE
  5
ED
100
AcDbEntity
  8
_Y__________
  6
DASHED
 62
         2
100
AcDbLine
 10
1604.9573403762
 20
155.1846417294
 30
0.0
 11
1607.8440917222
 21
150.1846417294
 31
0.0
  0
LINE
  5
EE
100
AcDbEntity
  8
_Y__________
  6
DASHED
 62
         2
100
AcDbLine
 10
1604.9573403762
 20
155.1846417294
 30
0.0
 11
1604.9573403762
 21
145.1846417294
 31
0.0
  0
LINE
  5
EF
100
AcDbEntity
  8
_Y__________
  6
DASHED
 62
         2
100
AcDbLine
 10
1598.7833403762
 20
155.1846417294
 30
0.0
 11
1604.9573403762
 21
155.1846417294
 31
0.0
  0
LINE
  5
F0
100
AcDbEntity
  8
_Y__________
  6
CONTINUOUS
 62
         7
100
AcDbLine
 10
1598.2833403762
 20
155.6846417294
 30
0.0
 11
1598.2833403762
 21
144.6846417294
 31
0.0
  0
LINE
  5
F1
100
AcDbEntity
  8
_Y__________
  6
CONTINUOUS
 62
         7
100
AcDbLine
 10
1419.1033403763
 20
120.4096417294
 30
0.0
 11
1419.1033403763
 21
119.4096417294
 31
0.0
  0
LINE
  5
F2
100
AcDbEntity
  8
_Y__________
  6
CONTINUOUS
 62
         7
100
AcDbLine
 10
1419.1033403763
 20
180.9596417294
 30
0.0
 11
1419.1033403763
 21
179.9596417294
 31
0.0
  0
LINE
  5
F3
100
AcDbEntity
  8
L1_115
  6
DASHED
 62
         2
100
AcDbLine
 10
1636.1143616913
 20
162.80862256
 30
0.0
 11
1637.4053262881
 21
165.0446388325
 31
0.0
  0
LINE
  5
F4
100
AcDbEntity
  8
L1_115
  6
DASHED
 62
         2
100
AcDbLine
 10
1627.800517815
 20
167.60862256
 30
0.0
 11
1629.0914824118
 21
169.8446388325
 31
0.0
  0
LINE
  5
F5
100
AcDbEntity
  8
L1_115
  6
DASHED
 62
         2
100
AcDbLine
 10
1627.800517815
 20
132.7606608987
 30
0.0
 11
1629.0914824118
 21
130.5246446263
 31
0.0
  0
LINE
  5
F6
100
AcDbEntity
  8
L1_115
  6
DASHED
 62
         2
100
AcDbLine
 10
1636.1143616913
 20
137.5606608987
 30
0.0
 11
1637.4053262881
 21
135.3246446263
 31
0.0
  0
LINE
  5
F7
100
AcDbEntity
  8
L1_115
  6
DASHED
 62
         2
100
AcDbLine
 10
1605.9351416225
 20
145.3846417294
 30
0.0
 11
1603.3532124288
 21
145.3846417294
 31
0.0
  0
LINE
  5
F8
100
AcDbEntity
  8
L1_115
  6
DASHED
 62
         2
100
AcDbLine
 10
1605.9351416225
 20
154.9846417294
 30
0.0
 11
1603.3532124288
 21
154.9846417294
 31
0.0
  0
LINE
  5
F9
100
AcDbEntity
  8
L1_115
  6
CONTINUOUS
 62
         7
100
AcDbLine
 10
1446.6083403763
 20
3.0566652593
 30
0.0
 11
1446.6083403763
 21
7.5566652593
 31
0.0
  0
LINE
  5
FA
100
AcDbEntity
  8
L1_115
  6
CONTINUOUS
 62
         7
100
AcDbLine
 10
1471.2082741959
 20
4.5566652593
 30
0.0
 11
1471.2082741959
 21
7.5566652593
 31
0.0
  0
ARC
  5
FB
100
AcDbEntity
  8
L1_115
  6
CONTINUOUS
 62
         7
100
AcDbCircle
 10
1451.4083403763
 20
150.1846417294
 30
0.0
 40
4.8
100
AcDbArc
 50
90.0
 51
270.0
  0
ARC
  5
FC
100
AcDbEntity
  8
L1_115
  6
CONTINUOUS
 62
         7
100
AcDbCircle
 10
1466.4082741959
 20
150.1846417294
 30
0.0
 40
4.8
100
AcDbArc
 50
270.0
 51
450.0
  0
LINE
  5
FD
100
AcDbEntity
  8
L1_115
  6
CONTINUOUS
 62
         7
100
AcDbLine
 10
1466.4082741959
 20
145.3846417294
 30
0.0
 11
1451.4083403763
 21
145.3846417294
 31
0.0
  0
LINE
  5
FE
100
AcDbEntity
  8
L1_115
  6
CONTINUOUS
 62
         7
100
AcDbLine
 10
1466.4082741959
 20
154.9846417294
 30
0.0
 11
1451.4083403763
 21
154.9846417294
 31
0.0
  0
DIMENSION
  5
102
100
AcDbEntity
  8
L1_115
  6
CONTINUOUS
 62
         4
100
AcDbDimension
  2
*D0
 10
1415.0020155108
 20
-80.3619234481
 30
0.0
 11
1452.5776779435
 21
-77.2299234481
 31
0.0
  3
DIMSTYLE1
100
AcDbAlignedDimension
 13
1415.0020155108
 23
-15.4433347407
 33
0.0
 14
1496.0033403763
 24
-30.6546596061
 34
0.0
100
AcDbRotatedDimension
  0
LINE
  5
10F
100
AcDbEntity
  8
L1_115
  6
CONTINUOUS
 62
         7
100
AcDbLine
 10
1471.0033403763
 20
-25.5806430779
 30
0.0
 11
1471.0033403763
 21
4.5566652593
 31
0.0
  0
LINE
  5
110
100
AcDbEntity
  8
L1_115
  6
CONTINUOUS
 62
         4
100
AcDbLine
 10
1470.0033403763
 20
-24.6572882157
 30
0.0
 11
1470.0033403763
 21
3.0566652593
 31
0.0
  0
POLYLINE
  5
112
100
AcDbEntity
  8
L1_115
  6
CONTINUOUS
 62
         7
100
AcDb2dPolyline
 66
         1
 10
0.0
 20
0.0
 30
0.0
 70
         2
  0
VERTEX
  5
114
100
AcDbEntity
  8
L1_115
  6
CONTINUOUS
 62
         7
100
AcDbVertex
100
AcDb2dVertex
 10
1466.6532741959
 20
-28.555793389
 30
0.0
 70
         1
  0
VERTEX
  5
116
100
AcDbEntity
  8
L1_115
  6
CONTINUOUS
 62
         7
100
AcDbVertex
100
AcDb2dVertex
 10
1467.6818757807
 20
-28.5142144948
 30
0.0
 70
         1
  0
VERTEX
  5
118
100
AcDbEntity
  8
L1_115
  6
CONTINUOUS
 62
         7
100
AcDbVertex
100
AcDb2dVertex
 10
1468.1334173717
 20
-28.46854881
 30
0.0
 70
         1
  0
VERTEX
  5
11A
100
AcDbEntity
  8
L1_115
  6
CONTINUOUS
 62
         7
100
AcDbVertex
100
AcDb2dVertex
 10
1468.5403817474
 20
-28.4115787889
 30
0.0
 70
         1
  0
VERTEX
  5
11C
100
AcDbEntity
  8
L1_115
  6
CONTINUOUS
 62
         7
100
AcDbVertex
100
AcDb2dVertex
 10
1468.9034759438
 20
-28.3467172746
 30
0.0
 70
         1
  0
VERTEX
  5
11E
100
AcDbEntity
  8
L1_115
  6
CONTINUOUS
 62
         7
100
AcDbVertex
100
AcDb2dVertex
 10
1469.2248356266
 20
-28.2768329894
 30
0.0
 70
         1
  0
VERTEX
  5
120
100
AcDbEntity
  8
L1_115
  6
CONTINUOUS
 62
         7
100
AcDbVertex
100
AcDb2dVertex
 10
1469.5074782947
 20
-28.2042493303
 30
0.0
 70
         1
  0
VERTEX
  5
122
100
AcDbEntity
  8
L1_115
  6
CONTINUOUS
 62
         7
100
AcDbVertex
100
AcDb2dVertex
 10
1469.8330704075
 20
-28.105380338
 30
0.0
 70
         1
  0
VERTEX
  5
124
100
AcDbEntity
  8
L1_115
  6
CONTINUOUS
 62
         7
100
AcDbVertex
100
AcDb2dVertex
 10
1470.1035582159
 20
-28.008088282
 30
0.0
 70
         1
  0
VERTEX
  5
126
100
AcDbEntity
  8
L1_115
  6
CONTINUOUS
 62
         7
100
AcDbVertex
100
AcDb2dVertex
 10
1470.3273796738
 20
-27.9144702006
 30
0.0
 70
         1
  0
VERTEX
  5
128
100
AcDbEntity
  8
L1_115
  6
CONTINUOUS
 62
         7
100
AcDbVertex
100
AcDb2dVertex
 10
1470.5121680588
 20
-27.825786137
 30
0.0
 70
         1
  0
VERTEX
  5
12A
100
AcDbEntity
  8
L1_115
  6
CONTINUOUS
 62
         7
100
AcDbVertex
100
AcDb2dVertex
 10
1470.7115368066
 20
-27.7148859904
 30
0.0
 70
         1
  0
VERTEX
  5
12C
100
AcDbEntity
  8
L1_115
  6
CONTINUOUS
 62
         7
100
AcDbVertex
100
AcDb2dVertex
 10
1470.8652222817
 20
-27.6146892033
 30
0.0
 70
         1
  0
VERTEX
  5
12E
100
AcDbEntity
  8
L1_115
  6
CONTINUOUS
 62
         7
100
AcDbVertex
100
AcDb2dVertex
 10
1471.0194727235
 20
-27.4952086406
 30
0.0
 70
         1
  0
VERTEX
  5
130
100
AcDbEntity
  8
L1_115
  6
CONTINUOUS
 62
         7
100
AcDbVertex
100
AcDb2dVertex
 10
1471.12848735
 20
-27.3932216393
 30
0.0
 70
         1
  0
VERTEX
  5
132
100
AcDbEntity
  8
L1_115
  6
CONTINUOUS
 62
         7
100
AcDbVertex
100
AcDb2dVertex
 10
1471.2284835226
 20
-27.2780585908
 30
0.0
 70
         1
  0
VERTEX
  5
134
100
AcDbEntity
  8
L1_115
  6
CONTINUOUS
 62
         7
100
AcDbVertex
100
AcDb2dVertex
 10
1471.3094033716
 20
-27.155980512
 30
0.0
 70
         1
  0
VERTEX
  5
136
100
AcDbEntity
  8
L1_115
  6
CONTINUOUS
 62
         7
100
AcDbVertex
100
AcDb2dVertex
 10
1471.3646742951
 20
-27.0369998626
 30
0.0
 70
         1
  0
VERTEX
  5
138
100
AcDbEntity
  8
L1_115
  6
CONTINUOUS
 62
         7
100
AcDbVertex
100
AcDb2dVertex
 10
1471.4005020396
 20
-26.9001034487
 30
0.0
 70
         1
  0
VERTEX
  5
13A
100
AcDbEntity
  8
L1_115
  6
CONTINUOUS
 62
         7
100
AcDbVertex
100
AcDb2dVertex
 10
1471.4082741959
 20
-26.7997412012
 30
0.0
 70
         1
  0
SEQEND
  5
13C
100
AcDbEntity
  8
L1_115
  6
CONTINUOUS
 62
         7
  0
POLYLINE
  5
13E
100
AcDbEntity
  8
L1_115
  6
CONTINUOUS
 62
         7
100
AcDb2dPolyline
 66
         1
 10
0.0
 20
0.0
 30
0.0
 70
         2
  0
VERTEX
  5
140
100
AcDbEntity
  8
L1_115
  6
CONTINUOUS
 62
         7
100
AcDbVertex
100
AcDb2dVertex
 10
1471.4082741959
 20
-26.7997412012
 30
0.0
 70
         1
  0
VERTEX
  5
142
100
AcDbEntity
  8
L1_115
  6
CONTINUOUS
 62
         7
100
AcDbVertex
100
AcDb2dVertex
 10
1471.3436953644
 20
-26.303879188
 30
0.0
 70
         1
  0
VERTEX
  5
144
100
AcDbEntity
  8
L1_115
  6
CONTINUOUS
 62
         7
100
AcDbVertex
100
AcDb2dVertex
 10
1471.2700860658
 20
-26.0772172717
 30
0.0
 70
         1
  0
VERTEX
  5
146
100
AcDbEntity
  8
L1_115
  6
CONTINUOUS
 62
         7
100
AcDbVertex
100
AcDb2dVertex
 10
1471.1751135935
 20
-25.8659867446
 30
0.0
 70
         1
  0
VERTEX
  5
148
100
AcDbEntity
  8
L1_115
  6
CONTINUOUS
 62
         7
100
AcDbVertex
100
AcDb2dVertex
 10
1471.0630799965
 20
-25.6704694554
 30
0.0
 70
         1
  0
VERTEX
  5
14A
100
AcDbEntity
  8
L1_115
  6
CONTINUOUS
 62
         7
100
AcDbVertex
100
AcDb2dVertex
 10
1470.8925348213
 20
-25.4323179417
 30
0.0
 70
         1
  0
VERTEX
  5
14C
100
AcDbEntity
  8
L1_115
  6
CONTINUOUS
 62
         7
100
AcDbVertex
100
AcDb2dVertex
 10
1470.7063846546
 20
-25.2211094049
 30
0.0
 70
         1
  0
VERTEX
  5
14E
100
AcDbEntity
  8
L1_115
  6
CONTINUOUS
 62
         7
100
AcDbVertex
100
AcDb2dVertex
 10
1470.5113227132
 20
-25.0350528979
 30
0.0
 70
         1
  0
VERTEX
  5
150
100
AcDbEntity
  8
L1_115
  6
CONTINUOUS
 62
         7
100
AcDbVertex
100
AcDb2dVertex
 10
1470.243696699
 20
-24.8204329025
 30
0.0
 70
         1
  0
VERTEX
  5
152
100
AcDbEntity
  8
L1_115
  6
CONTINUOUS
 62
         7
100
AcDbVertex
100
AcDb2dVertex
 10
1469.9788192027
 20
-24.641943858
 30
0.0
 70
         1
  0
VERTEX
  5
154
100
AcDbEntity
  8
L1_115
  6
CONTINUOUS
 62
         7
100
AcDbVertex
100
AcDb2dVertex
 10
1469.6358978364
 20
-24.4485558922
 30
0.0
 70
         1
  0
VERTEX
  5
156
100
AcDbEntity
  8
L1_115
  6
CONTINUOUS
 62
         7
100
AcDbVertex
100
AcDb2dVertex
 10
1469.3178235669
 20
-24.2993163516
 30
0.0
 70
         1
  0
VERTEX
  5
158
100
AcDbEntity
  8
L1_115
  6
CONTINUOUS
 62
         7
100
AcDbVertex
100
AcDb2dVertex
 10
1468.9314641061
 20
-24.1498526392
 30
0.0
 70
         1
  0
VERTEX
  5
15A
100
AcDbEntity
  8
L1_115
  6
CONTINUOUS
 62
         7
100
AcDbVertex
100
AcDb2dVertex
 10
1468.5977358477
 20
-24.0447526734
 30
0.0
 70
         1
  0
VERTEX
  5
15C
100
AcDbEntity
  8
L1_115
  6
CONTINUOUS
 62
         7
100
AcDbVertex
100
AcDb2dVertex
 10
1468.2185870831
 20
-23.9490615515
 30
0.0
 70
         1
  0
VERTEX
  5
15E
100
AcDbEntity
  8
L1_115
  6
CONTINUOUS
 62
         7
100
AcDbVertex
100
AcDb2dVertex
 10
1467.8159979367
 20
-23.872440803
 30
0.0
 70
         1
  0
VERTEX
  5
160
100
AcDbEntity
  8
L1_115
  6
CONTINUOUS
 62
         7
100
AcDbVertex
100
AcDb2dVertex
 10
1467.4247064987
 20
-23.8207884671
 30
0.0
 70
         1
  0
VERTEX
  5
162
100
AcDbEntity
  8
L1_115
  6
CONTINUOUS
 62
         7
100
AcDbVertex
100
AcDb2dVertex
 10
1467.0863788912
 20
-23.7933425279
 30
0.0
 70
         1
  0
VERTEX
  5
164
100
AcDbEntity
  8
L1_115
  6
CONTINUOUS
 62
         7
100
AcDbVertex
100
AcDb2dVertex
 10
1466.7581722611
 20
-23.781528093
 30
0.0
 70
         1
  0
VERTEX
  5
166
100
AcDbEntity
  8
L1_115
  6
CONTINUOUS
 62
         7
100
AcDbVertex
100
AcDb2dVertex
 10
1466.6532741959
 20
-23.780793389
 30
0.0
 70
         1
  0
SEQEND
  5
168
100
AcDbEntity
  8
L1_115
  6
CONTINUOUS
 62
         7
  0
LINE
  5
169
100
AcDbEntity
  8
L1_115
  6
CONTINUOUS
 62
         7
100
AcDbLine
 10
1466.6532741959
 20
-23.780793389
 30
0.0
 11
1451.1633403762
 21
-23.7807932717
 31
0.0
  0
LINE
  5
16A
100
AcDbEntity
  8
L1_115
  6
CONTINUOUS
 62
         7
100
AcDbLine
 10
1466.6532780192
 20
-28.555793389
 30
0.0
 11
1451.1633403632
 21
-28.5557932717
 31
0.0
  0
POLYLINE
  5
16C
100
AcDbEntity
  8
L1_115
  6
CONTINUOUS
 62
         7
100
AcDb2dPolyline
 66
         1
 10
0.0
 20
0.0
 30
0.0
 70
         2
  0
VERTEX
  5
16E
100
AcDbEntity
  8
L1_115
  6
CONTINUOUS
 62
         7
100
AcDbVertex
100
AcDb2dVertex
 10
1446.4083403763
 20
-26.7997410839
 30
0.0
 70
         1
  0
VERTEX
  5
170
100
AcDbEntity
  8
L1_115
  6
CONTINUOUS
 62
         7
100
AcDbVertex
100
AcDb2dVertex
 10
1446.4656955029
 20
-27.0716664298
 30
0.0
 70
         1
  0
VERTEX
  5
172
100
AcDbEntity
  8
L1_115
  6
CONTINUOUS
 62
         7
100
AcDbVertex
100
AcDb2dVertex
 10
1446.5357868256
 20
-27.2035829066
 30
0.0
 70
         1
  0
VERTEX
  5
174
100
AcDbEntity
  8
L1_115
  6
CONTINUOUS
 62
         7
100
AcDbVertex
100
AcDb2dVertex
 10
1446.6310372714
 20
-27.330856354
 30
0.0
 70
         1
  0
VERTEX
  5
176
100
AcDbEntity
  8
L1_115
  6
CONTINUOUS
 62
         7
100
AcDbVertex
100
AcDb2dVertex
 10
1446.7488111988
 20
-27.4522709073
 30
0.0
 70
         1
  0
VERTEX
  5
178
100
AcDbEntity
  8
L1_115
  6
CONTINUOUS
 62
         7
100
AcDbVertex
100
AcDb2dVertex
 10
1446.8860308305
 20
-27.566854512
 30
0.0
 70
         1
  0
VERTEX
  5
17A
100
AcDbEntity
  8
L1_115
  6
CONTINUOUS
 62
         7
100
AcDbVertex
100
AcDb2dVertex
 10
1447.0393565047
 20
-27.6738967172
 30
0.0
 70
         1
  0
VERTEX
  5
17C
100
AcDbEntity
  8
L1_115
  6
CONTINUOUS
 62
         7
100
AcDbVertex
100
AcDb2dVertex
 10
1447.2053607744
 20
-27.7729475013
 30
0.0
 70
         1
  0
VERTEX
  5
17E
100
AcDbEntity
  8
L1_115
  6
CONTINUOUS
 62
         7
100
AcDbVertex
100
AcDb2dVertex
 10
1447.3806822679
 20
-27.8638002456
 30
0.0
 70
         1
  0
VERTEX
  5
180
100
AcDbEntity
  8
L1_115
  6
CONTINUOUS
 62
         7
100
AcDbVertex
100
AcDb2dVertex
 10
1447.6268416869
 20
-27.9736013858
 30
0.0
 70
         1
  0
VERTEX
  5
182
100
AcDbEntity
  8
L1_115
  6
CONTINUOUS
 62
         7
100
AcDbVertex
100
AcDb2dVertex
 10
1447.8772832493
 20
-28.0689874369
 30
0.0
 70
         1
  0
VERTEX
  5
184
100
AcDbEntity
  8
L1_115
  6
CONTINUOUS
 62
         7
100
AcDbVertex
100
AcDb2dVertex
 10
1448.1261894914
 20
-28.1509051343
 30
0.0
 70
         1
  0
VERTEX
  5
186
100
AcDbEntity
  8
L1_115
  6
CONTINUOUS
 62
         7
100
AcDbVertex
100
AcDb2dVertex
 10
1448.4537735911
 20
-28.242792659
 30
0.0
 70
         1
  0
VERTEX
  5
188
100
AcDbEntity
  8
L1_115
  6
CONTINUOUS
 62
         7
100
AcDbVertex
100
AcDb2dVertex
 10
1448.7621399662
 20
-28.315439811
 30
0.0
 70
         1
  0
VERTEX
  5
18A
100
AcDbEntity
  8
L1_115
  6
CONTINUOUS
 62
         7
100
AcDbVertex
100
AcDb2dVertex
 10
1449.1447036819
 20
-28.3896956925
 30
0.0
 70
         1
  0
VERTEX
  5
18C
100
AcDbEntity
  8
L1_115
  6
CONTINUOUS
 62
         7
100
AcDbVertex
100
AcDb2dVertex
 10
1449.5926638464
 20
-28.457223677
 30
0.0
 70
         1
  0
VERTEX
  5
18E
100
AcDbEntity
  8
L1_115
  6
CONTINUOUS
 62
         7
100
AcDbVertex
100
AcDb2dVertex
 10
1450.0733395777
 20
-28.5090325596
 30
0.0
 70
         1
  0
VERTEX
  5
190
100
AcDbEntity
  8
L1_115
  6
CONTINUOUS
 62
         7
100
AcDbVertex
100
AcDb2dVertex
 10
1450.6812752366
 20
-28.5467455739
 30
0.0
 70
         1
  0
VERTEX
  5
192
100
AcDbEntity
  8
L1_115
  6
CONTINUOUS
 62
         7
100
AcDbVertex
100
AcDb2dVertex
 10
1451.1633403762
 20
-28.5557932717
 30
0.0
 70
         1
  0
SEQEND
  5
194
100
AcDbEntity
  8
L1_115
  6
CONTINUOUS
 62
         7
  0
POLYLINE
  5
196
100
AcDbEntity
  8
L1_115
  6
CONTINUOUS
 62
         7
100
AcDb2dPolyline
 66
         1
 10
0.0
 20
0.0
 30
0.0
 70
         2
  0
VERTEX
  5
198
100
AcDbEntity
  8
L1_115
  6
CONTINUOUS
 62
         7
100
AcDbVertex
100
AcDb2dVertex
 10
1451.1633403762
 20
-23.7807932717
 30
0.0
 70
         1
  0
VERTEX
  5
19A
100
AcDbEntity
  8
L1_115
  6
CONTINUOUS
 62
         7
100
AcDbVertex
100
AcDb2dVertex
 10
1450.4270268265
 20
-23.8172080212
 30
0.0
 70
         1
  0
VERTEX
  5
19C
100
AcDbEntity
  8
L1_115
  6
CONTINUOUS
 62
         7
100
AcDbVertex
100
AcDb2dVertex
 10
1450.0698262537
 20
-23.8617089771
 30
0.0
 70
         1
  0
VERTEX
  5
19E
100
AcDbEntity
  8
L1_115
  6
CONTINUOUS
 62
         7
100
AcDbVertex
100
AcDb2dVertex
 10
1449.7251979753
 20
-23.9221834513
 30
0.0
 70
         1
  0
VERTEX
  5
1A0
100
AcDbEntity
  8
L1_115
  6
CONTINUOUS
 62
         7
100
AcDbVertex
100
AcDb2dVertex
 10
1449.3964342832
 20
-23.996958076
 30
0.0
 70
         1
  0
VERTEX
  5
1A2
100
AcDbEntity
  8
L1_115
  6
CONTINUOUS
 62
         7
100
AcDbVertex
100
AcDb2dVertex
 10
1448.9818920548
 20
-24.1172387495
 30
0.0
 70
         1
  0
VERTEX
  5
1A4
100
AcDbEntity
  8
L1_115
  6
CONTINUOUS
 62
         7
100
AcDbVertex
100
AcDb2dVertex
 10
1448.6054854529
 20
-24.2547988428
 30
0.0
 70
         1
  0
VERTEX
  5
1A6
100
AcDbEntity
  8
L1_115
  6
CONTINUOUS
 62
         7
100
AcDbVertex
100
AcDb2dVertex
 10
1448.2693614076
 20
-24.4043167433
 30
0.0
 70
         1
  0
VERTEX
  5
1A8
100
AcDbEntity
  8
L1_115
  6
CONTINUOUS
 62
         7
100
AcDbVertex
100
AcDb2dVertex
 10
1447.9736517259
 20
-24.5607936753
 30
0.0
 70
         1
  0
VERTEX
  5
1AA
100
AcDbEntity
  8
L1_115
  6
CONTINUOUS
 62
         7
100
AcDbVertex
100
AcDb2dVertex
 10
1447.7168909215
 20
-24.7198258204
 30
0.0
 70
         1
  0
VERTEX
  5
1AC
100
AcDbEntity
  8
L1_115
  6
CONTINUOUS
 62
         7
100
AcDbVertex
100
AcDb2dVertex
 10
1447.4257447951
 20
-24.9334812217
 30
0.0
 70
         1
  0
VERTEX
  5
1AE
100
AcDbEntity
  8
L1_115
  6
CONTINUOUS
 62
         7
100
AcDbVertex
100
AcDb2dVertex
 10
1447.1931782752
 20
-25.138311958
 30
0.0
 70
         1
  0
VERTEX
  5
1B0
100
AcDbEntity
  8
L1_115
  6
CONTINUOUS
 62
         7
100
AcDbVertex
100
AcDb2dVertex
 10
1447.010007375
 20
-25.3298627061
 30
0.0
 70
         1
  0
VERTEX
  5
1B2
100
AcDbEntity
  8
L1_115
  6
CONTINUOUS
 62
         7
100
AcDbVertex
100
AcDb2dVertex
 10
1446.8234141246
 20
-25.5661611148
 30
0.0
 70
         1
  0
VERTEX
  5
1B4
100
AcDbEntity
  8
L1_115
  6
CONTINUOUS
 62
         7
100
AcDbVertex
100
AcDb2dVertex
 10
1446.6928404172
 20
-25.7711536684
 30
0.0
 70
         1
  0
VERTEX
  5
1B6
100
AcDbEntity
  8
L1_115
  6
CONTINUOUS
 62
         7
100
AcDbVertex
100
AcDb2dVertex
 10
1446.5759324227
 20
-26.0053009057
 30
0.0
 70
         1
  0
VERTEX
  5
1B8
100
AcDbEntity
  8
L1_115
  6
CONTINUOUS
 62
         7
100
AcDbVertex
100
AcDb2dVertex
 10
1446.4873983751
 20
-26.2515202576
 30
0.0
 70
         1
  0
VERTEX
  5
1BA
100
AcDbEntity
  8
L1_115
  6
CONTINUOUS
 62
         7
100
AcDbVertex
100
AcDb2dVertex
 10
1446.4349108724
 20
-26.4810370018
 30
0.0
 70
         1
  0
VERTEX
  5
1BC
100
AcDbEntity
  8
L1_115
  6
CONTINUOUS
 62
         7
100
AcDbVertex
100
AcDb2dVertex
 10
1446.4100053935
 20
-26.7198558174
 30
0.0
 70
         1
  0
VERTEX
  5
1BE
100
AcDbEntity
  8
L1_115
  6
CONTINUOUS
 62
         7
100
AcDbVertex
100
AcDb2dVertex
 10
1446.4083403763
 20
-26.7997410839
 30
0.0
 70
         1
  0
SEQEND
  5
1C0
100
AcDbEntity
  8
L1_115
  6
CONTINUOUS
 62
         7
  0
LINE
  5
1C1
100
AcDbEntity
  8
L1_115
  6
CONTINUOUS
 62
         4
100
AcDbLine
 10
1415.0020155108
 20
-15.4433347407
 30
0.0
 11
1415.0020155108
 21
-10.4433347407
 31
0.0
  0
LINE
  5
1C2
100
AcDbEntity
  8
L1_115
  6
CONTINUOUS
 62
         4
100
AcDbLine
 10
1491.6732133573
 20
129.7577756414
 30
0.0
 11
1491.6732133573
 21
170.6115078174
 31
0.0
  0
DIMENSION
  5
1C5
100
AcDbEntity
  8
L1_115
  6
CONTINUOUS
 62
         4
100
AcDbDimension
  2
*D1
 10
1400.0033403763
 20
218.6817557559
 30
0.0
 11
1447.4927884882
 21
220.7067557559
 31
0.0
  3
DIMSTYLE1
100
AcDbAlignedDimension
 13
1400.0033403763
 23
172.4096417294
 33
0.0
 14
1496.0033403763
 24
150.1846417294
 34
0.0
100
AcDbRotatedDimension
  0
DIMENSION
  5
1D3
100
AcDbEntity
  8
L1_115
  6
CONTINUOUS
 62
         4
100
AcDbDimension
  2
*D2
 10
1331.7533403763
 20
225.2126210379
 30
0.0
 11
1401.8342079666
 21
227.2376210379
 31
0.0
  3
DIMSTYLE1
100
AcDbAlignedDimension
 13
1331.7533403763
 23
161.4188234458
 33
0.0
 14
1496.0033403763
 24
150.1846417294
 34
0.0
100
AcDbRotatedDimension
  0
LINE
  5
1DF
100
AcDbEntity
  8
L1_115
  6
CONTINUOUS
 62
         7
100
AcDbLine
 10
1403.2033403763
 20
180.9596417294
 30
0.0
 11
1403.2033403763
 21
119.4096417294
 31
0.0
  0
LINE
  5
1E0
100
AcDbEntity
  8
L1_115
  6
CENTER
 62
         1
100
AcDbLine
 10
1400.0033403763
 20
172.4096417294
 30
0.0
 11
1400.0033403763
 21
127.9596417294
 31
0.0
  0
LINE
  5
1E1
100
AcDbEntity
  8
L1_115
  6
CONTINUOUS
 62
         7
100
AcDbLine
 10
1331.7533403763
 20
161.4188234458
 30
0.0
 11
1331.7533403763
 21
138.9504600129
 31
0.0
  0
LINE
  5
1E2
100
AcDbEntity
  8
L1_115
  6
CENTER
 62
         1
100
AcDbLine
 10
1623.2833403763
 20
127.6846417294
 30
0.0
 11
1623.2833403763
 21
172.6846417294
 31
0.0
  0
LINE
  5
1E3
100
AcDbEntity
  8
L1_115
  6
CENTER
 62
         1
100
AcDbLine
 10
1645.7833403763
 20
150.1846417294
 30
0.0
 11
1600.7833403763
 21
150.1846417294
 31
0.0
  0
CIRCLE
  5
1E4
100
AcDbEntity
  8
L1_115
  6
CONTINUOUS
 62
         7
100
AcDbCircle
 10
1623.2833403763
 20
150.1846417294
 30
0.0
 40
18.0
  0
CIRCLE
  5
1E5
100
AcDbEntity
  8
L1_115
  6
CONTINUOUS
 62
         7
100
AcDbCircle
 10
1623.2833403763
 20
150.1846417294
 30
0.0
 40
22.5
  0
CIRCLE
  5
1E6
100
AcDbEntity
  8
L1_115
  6
CONTINUOUS
 62
         7
100
AcDbCircle
 10
1623.2833403763
 20
150.1846417294
 30
0.0
 40
20.5
  0
LINE
  5
1E7
100
AcDbEntity
  8
L1_115
  6
CENTER
 62
         1
100
AcDbLine
 10
1496.0033403763
 20
-12.9433347407
 30
0.0
 11
1421.0033403763
 21
-12.9433347407
 31
0.0
  0
LINE
  5
1E8
100
AcDbEntity
  8
L1_115
  6
CONTINUOUS
 62
         7
100
AcDbLine
 10
1477.0033403763
 20
-33.3433347407
 30
0.0
 11
1477.1033403763
 21
-33.4433347407
 31
0.0
  0
LINE
  5
1E9
100
AcDbEntity
  8
L1_115
  6
CONTINUOUS
 62
         7
100
AcDbLine
 10
1491.1373149725
 20
-33.4433347407
 30
0.0
 11
1477.1033403763
 21
-33.4433347407
 31
0.0
  0
LINE
  5
1EA
100
AcDbEntity
  8
L1_115
  6
CONTINUOUS
 62
         7
100
AcDbLine
 10
1477.0033403763
 20
-32.4433347407
 30
0.0
 11
1477.0033403763
 21
-33.3433347407
 31
0.0
  0
LINE
  5
1EB
100
AcDbEntity
  8
L1_115
  6
CONTINUOUS
 62
         7
100
AcDbLine
 10
1475.0033403763
 20
-33.3433347407
 30
0.0
 11
1474.9033403763
 21
-33.4433347407
 31
0.0
  0
LINE
  5
1EC
100
AcDbEntity
  8
L1_115
  6
CONTINUOUS
 62
         7
100
AcDbLine
 10
1474.9033403763
 20
-33.4433347407
 30
0.0
 11
1445.5033403763
 21
-33.4433347407
 31
0.0
  0
LINE
  5
1ED
100
AcDbEntity
  8
L1_115
  6
CONTINUOUS
 62
         7
100
AcDbLine
 10
1475.0033403763
 20
-32.4433347407
 30
0.0
 11
1475.0033403763
 21
-33.3433347407
 31
0.0
  0
LINE
  5
1EE
100
AcDbEntity
  8
L1_115
  6
CONTINUOUS
 62
         7
100
AcDbLine
 10
1477.0033403763
 20
7.4566652593
 30
0.0
 11
1477.1033403763
 21
7.5566652593
 31
0.0
  0
LINE
  5
1EF
100
AcDbEntity
  8
L1_115
  6
CONTINUOUS
 62
         7
100
AcDbLine
 10
1491.1373149725
 20
7.5566652593
 30
0.0
 11
1477.1033403763
 21
7.5566652593
 31
0.0
  0
LINE
  5
1F0
100
AcDbEntity
  8
L1_115
  6
CONTINUOUS
 62
         7
100
AcDbLine
 10
1477.0033403763
 20
6.5566652593
 30
0.0
 11
1477.0033403763
 21
7.4566652593
 31
0.0
  0
LINE
  5
1F1
100
AcDbEntity
  8
L1_115
  6
CONTINUOUS
 62
         7
100
AcDbLine
 10
1474.9033403763
 20
7.5566652593
 30
0.0
 11
1475.0033403763
 21
7.4566652593
 31
0.0
  0
LINE
  5
1F2
100
AcDbEntity
  8
L1_115
  6
CONTINUOUS
 62
         7
100
AcDbLine
 10
1475.0033403763
 20
6.5566652593
 30
0.0
 11
1475.0033403763
 21
7.4566652593
 31
0.0
  0
LINE
  5
1F3
100
AcDbEntity
  8
L1_115
  6
CONTINUOUS
 62
         7
100
AcDbLine
 10
1474.9033403763
 20
7.5566652593
 30
0.0
 11
1445.5033403763
 21
7.5566652593
 31
0.0
  0
LINE
  5
1F4
100
AcDbEntity
  8
L1_115
  6
CONTINUOUS
 62
         4
100
AcDbLine
 10
1470.0033403763
 20
-28.9433347407
 30
0.0
 11
1470.0033403763
 21
-28.0459566002
 31
0.0
  0
ARC
  5
1F5
100
AcDbEntity
  8
L1_115
  6
CONTINUOUS
 62
         7
100
AcDbCircle
 10
1470.0033403763
 20
4.0566652593
 30
0.0
 40
1.0
100
AcDbArc
 50
270.0
 51
360.0
  0
ARC
  5
1F6
100
AcDbEntity
  8
L1_115
  6
CONTINUOUS
 62
         7
100
AcDbCircle
 10
1470.0033403763
 20
-29.9433347407
 30
0.0
 40
1.0
100
AcDbArc
 50
0.0
 51
90.0
  0
ARC
  5
1F7
100
AcDbEntity
  8
L1_115
  6
CONTINUOUS
 62
         7
100
AcDbCircle
 10
1495.5033403763
 20
-30.6546596061
 30
0.0
 40
0.5
100
AcDbArc
 50
300.0
 51
360.0
  0
ARC
  5
1F8
100
AcDbEntity
  8
L1_115
  6
CONTINUOUS
 62
         7
100
AcDbCircle
 10
1495.5033403763
 20
4.7679901247
 30
0.0
 40
0.5
100
AcDbArc
 50
0.0
 51
60.0
  0
LINE
  5
1F9
100
AcDbEntity
  8
L1_115
  6
CENTER
 62
         1
100
AcDbLine
 10
1451.4083403763
 20
-0.354140038
 30
0.0
 11
1451.4083403763
 21
12.7589287345
 31
0.0
  0
LINE
  5
1FA
100
AcDbEntity
  8
L1_115
  6
CENTER
 62
         1
100
AcDbLine
 10
1466.4082741959
 20
-0.354140038
 30
0.0
 11
1466.4082741959
 21
12.7589287345
 31
0.0
  0
LINE
  5
1FB
100
AcDbEntity
  8
L1_115
  6
CONTINUOUS
 62
         7
100
AcDbLine
 10
1415.0020155108
 20
-10.4433347407
 30
0.0
 11
1413.5586398379
 21
-12.9433347407
 31
0.0
  0
LINE
  5
1FC
100
AcDbEntity
  8
L1_115
  6
CONTINUOUS
 62
         7
100
AcDbLine
 10
1415.0020155108
 20
-15.4433347407
 30
0.0
 11
1413.5586398379
 21
-12.9433347407
 31
0.0
  0
LINE
  5
1FD
100
AcDbEntity
  8
L1_115
  6
CONTINUOUS
 62
         7
100
AcDbLine
 10
1495.5033403763
 20
4.0566652593
 30
0.0
 11
1476.0033403763
 21
4.0566652593
 31
0.0
  0
LINE
  5
1FE
100
AcDbEntity
  8
L1_115
  6
CONTINUOUS
 62
         7
100
AcDbLine
 10
1495.5033403763
 20
-29.9433347407
 30
0.0
 11
1476.0033403763
 21
-29.9433347407
 31
0.0
  0
LINE
  5
1FF
100
AcDbEntity
  8
L1_115
  6
CONTINUOUS
 62
         7
100
AcDbLine
 10
1496.0033403763
 20
-30.6546596061
 30
0.0
 11
1496.0033403763
 21
4.7679901247
 31
0.0
  0
LINE
  5
200
100
AcDbEntity
  8
L1_115
  6
CONTINUOUS
 62
         7
100
AcDbLine
 10
1471.0033403763
 20
-30.4433347407
 30
0.0
 11
1471.0033403763
 21
-27.5088624116
 31
0.0
  0
LINE
  5
201
100
AcDbEntity
  8
L1_115
  6
CONTINUOUS
 62
         7
100
AcDbLine
 10
1476.0033403763
 20
-30.4433347407
 30
0.0
 11
1476.0033403763
 21
4.5566652593
 31
0.0
  0
LINE
  5
202
100
AcDbEntity
  8
L1_115
  6
CONTINUOUS
 62
         7
100
AcDbLine
 10
1470.0033403763
 20
3.0566652593
 30
0.0
 11
1435.0033403763
 21
3.0566652593
 31
0.0
  0
LINE
  5
203
100
AcDbEntity
  8
L1_115
  6
CONTINUOUS
 62
         7
100
AcDbLine
 10
1470.0033403763
 20
-28.9433347407
 30
0.0
 11
1435.0033403763
 21
-28.9433347407
 31
0.0
  0
LINE
  5
204
100
AcDbEntity
  8
L1_115
  6
CONTINUOUS
 62
         7
100
AcDbLine
 10
1476.0033403763
 20
4.5566652593
 30
0.0
 11
1471.0033403763
 21
4.5566652593
 31
0.0
  0
LINE
  5
205
100
AcDbEntity
  8
L1_115
  6
CONTINUOUS
 62
         7
100
AcDbLine
 10
1476.0033403763
 20
-30.4433347407
 30
0.0
 11
1471.0033403763
 21
-30.4433347407
 31
0.0
  0
LINE
  5
206
100
AcDbEntity
  8
L1_115
  6
CONTINUOUS
 62
         7
100
AcDbLine
 10
1477.0033403763
 20
-32.4433347407
 30
0.0
 11
1475.0033403763
 21
-32.4433347407
 31
0.0
  0
LINE
  5
207
100
AcDbEntity
  8
L1_115
  6
CONTINUOUS
 62
         7
100
AcDbLine
 10
1477.0033403763
 20
6.5566652593
 30
0.0
 11
1475.0033403763
 21
6.5566652593
 31
0.0
  0
LINE
  5
208
100
AcDbEntity
  8
L1_115
  6
CONTINUOUS
 62
         4
100
AcDbLine
 10
1418.0033403763
 20
-15.9433347407
 30
0.0
 11
1418.0033403763
 21
-9.9433347407
 31
0.0
  0
LINE
  5
209
100
AcDbEntity
  8
L1_115
  6
CONTINUOUS
 62
         4
100
AcDbLine
 10
1430.0033403763
 20
-15.9433347407
 30
0.0
 11
1418.0033403763
 21
-15.9433347407
 31
0.0
  0
LINE
  5
20A
100
AcDbEntity
  8
L1_115
  6
CONTINUOUS
 62
         4
100
AcDbLine
 10
1430.0033403763
 20
-9.9433347407
 30
0.0
 11
1418.0033403763
 21
-9.9433347407
 31
0.0
  0
LINE
  5
20B
100
AcDbEntity
  8
L1_115
  6
CONTINUOUS
 62
         7
100
AcDbLine
 10
1430.0033403763
 20
-29.4433347407
 30
0.0
 11
1430.0033403763
 21
3.5566652593
 31
0.0
  0
LINE
  5
20C
100
AcDbEntity
  8
L1_115
  6
CONTINUOUS
 62
         7
100
AcDbLine
 10
1435.0033403763
 20
-29.4433347407
 30
0.0
 11
1435.0033403763
 21
3.5566652593
 31
0.0
  0
LINE
  5
20D
100
AcDbEntity
  8
L1_115
  6
CONTINUOUS
 62
         7
100
AcDbLine
 10
1435.0033403763
 20
3.5566652593
 30
0.0
 11
1430.0033403763
 21
3.5566652593
 31
0.0
  0
LINE
  5
20E
100
AcDbEntity
  8
L1_115
  6
CONTINUOUS
 62
         7
100
AcDbLine
 10
1435.0033403763
 20
-29.4433347407
 30
0.0
 11
1430.0033403763
 21
-29.4433347407
 31
0.0
  0
LINE
  5
20F
100
AcDbEntity
  8
L1_115
  6
CONTINUOUS
 62
         7
100
AcDbLine
 10
1495.7533403763
 20
5.2010028266
 30
0.0
 11
1492.1373149725
 21
7.2887160669
 31
0.0
  0
ARC
  5
210
100
AcDbEntity
  8
L1_115
  6
CONTINUOUS
 62
         7
100
AcDbCircle
 10
1491.1373149725
 20
5.5566652593
 30
0.0
 40
2.0
100
AcDbArc
 50
60.0
 51
90.0000000001
  0
ARC
  5
211
100
AcDbEntity
  8
L1_115
  6
CONTINUOUS
 62
         7
100
AcDbCircle
 10
1491.1373149725
 20
-31.4433347407
 30
0.0
 40
2.0
100
AcDbArc
 50
269.9999999999
 51
300.0
  0
LINE
  5
212
100
AcDbEntity
  8
L1_115
  6
CONTINUOUS
 62
         7
100
AcDbLine
 10
1495.7533403763
 20
-31.087672308
 30
0.0
 11
1492.1373149725
 21
-33.1753855482
 31
0.0
  0
LINE
  5
213
100
AcDbEntity
  8
L1_115
  6
CENTER
 62
         1
100
AcDbLine
 10
1432.5033403763
 20
-36.883636675
 30
0.0
 11
1432.5033403763
 21
-28.2483828809
 31
0.0
  0
LINE
  5
214
100
AcDbEntity
  8
L1_115
  6
CONTINUOUS
 62
         7
100
AcDbLine
 10
1433.5033403763
 20
-35.2283347407
 30
0.0
 11
1433.5033403763
 21
-29.4433347407
 31
0.0
  0
LINE
  5
215
100
AcDbEntity
  8
L1_115
  6
CONTINUOUS
 62
         7
100
AcDbLine
 10
1431.5033403763
 20
-35.2283347407
 30
0.0
 11
1431.5033403763
 21
-29.4433347407
 31
0.0
  0
LINE
  5
216
100
AcDbEntity
  8
L1_115
  6
CONTINUOUS
 62
         7
100
AcDbLine
 10
1444.7042692157
 20
-33.2433347407
 30
0.0
 11
1443.3033403763
 21
-33.2433347407
 31
0.0
  0
LINE
  5
217
100
AcDbEntity
  8
L1_115
  6
CONTINUOUS
 62
         7
100
AcDbLine
 10
1444.8077968337
 20
-33.2569644102
 30
0.0
 11
1445.5033403763
 21
-33.4433347407
 31
0.0
  0
ARC
  5
218
100
AcDbEntity
  8
L1_115
  6
CONTINUOUS
 62
         7
100
AcDbCircle
 10
1444.7042692157
 20
-33.6433347407
 30
0.0
 40
0.4
100
AcDbArc
 50
75.0
 51
90.0
  0
LINE
  5
219
100
AcDbEntity
  8
L1_115
  6
CONTINUOUS
 62
         7
100
AcDbLine
 10
1446.1398320494
 20
-33.4433347407
 30
0.0
 11
1445.5033403763
 21
-33.4433347407
 31
0.0
  0
LINE
  5
21A
100
AcDbEntity
  8
L1_115
  6
CONTINUOUS
 62
         7
100
AcDbLine
 10
1442.9034794587
 20
-33.6327873912
 30
0.0
 11
1443.0033403763
 21
-34.3433347407
 31
0.0
  0
ARC
  5
21B
100
AcDbEntity
  8
L1_115
  6
CONTINUOUS
 62
         7
100
AcDbCircle
 10
1443.3033403763
 20
-33.6433347407
 30
0.0
 40
0.4
100
AcDbArc
 50
90.0
 51
178.4890283439
  0
LINE
  5
21C
100
AcDbEntity
  8
L1_115
  6
CONTINUOUS
 62
         7
100
AcDbLine
 10
1443.0033403763
 20
-34.3433347407
 30
0.0
 11
1443.0033403763
 21
-34.7283347407
 31
0.0
  0
LINE
  5
21D
100
AcDbEntity
  8
L1_115
  6
CONTINUOUS
 62
         7
100
AcDbLine
 10
1444.7042692157
 20
7.3566652593
 30
0.0
 11
1443.3033403763
 21
7.3566652593
 31
0.0
  0
LINE
  5
21E
100
AcDbEntity
  8
L1_115
  6
CONTINUOUS
 62
         7
100
AcDbLine
 10
1444.8077968337
 20
7.3702949288
 30
0.0
 11
1445.5033403763
 21
7.5566652593
 31
0.0
  0
ARC
  5
21F
100
AcDbEntity
  8
L1_115
  6
CONTINUOUS
 62
         7
100
AcDbCircle
 10
1444.7042692157
 20
7.7566652593
 30
0.0
 40
0.4
100
AcDbArc
 50
270.0
 51
285.0
  0
LINE
  5
220
100
AcDbEntity
  8
L1_115
  6
CONTINUOUS
 62
         7
100
AcDbLine
 10
1446.1898320494
 20
7.5566652593
 30
0.0
 11
1445.5033403763
 21
7.5566652593
 31
0.0
  0
LINE
  5
221
100
AcDbEntity
  8
L1_115
  6
CONTINUOUS
 62
         7
100
AcDbLine
 10
1442.9034794587
 20
7.7461179098
 30
0.0
 11
1443.0033403763
 21
8.4566652593
 31
0.0
  0
ARC
  5
222
100
AcDbEntity
  8
L1_115
  6
CONTINUOUS
 62
         7
100
AcDbCircle
 10
1443.3033403763
 20
7.7566652593
 30
0.0
 40
0.4
100
AcDbArc
 50
181.5109716561
 51
270.0
  0
LINE
  5
223
100
AcDbEntity
  8
L1_115
  6
CONTINUOUS
 62
         7
100
AcDbLine
 10
1443.0033403763
 20
8.4566652593
 30
0.0
 11
1443.0033403763
 21
8.8416652593
 31
0.0
  0
LINE
  5
224
100
AcDbEntity
  8
L1_115
  6
CENTER
 62
         1
100
AcDbLine
 10
1496.0033403763
 20
150.1846417294
 30
0.0
 11
1419.1033403763
 21
150.1846417294
 31
0.0
  0
LINE
  5
225
100
AcDbEntity
  8
L1_115
  6
CONTINUOUS
 62
         7
100
AcDbLine
 10
1477.0033403763
 20
129.7846417294
 30
0.0
 11
1477.1033403763
 21
129.6846417294
 31
0.0
  0
LINE
  5
226
100
AcDbEntity
  8
L1_115
  6
CONTINUOUS
 62
         7
100
AcDbLine
 10
1491.1373149725
 20
129.6846417294
 30
0.0
 11
1477.1033403763
 21
129.6846417294
 31
0.0
  0
LINE
  5
227
100
AcDbEntity
  8
L1_115
  6
CONTINUOUS
 62
         7
100
AcDbLine
 10
1477.0033403763
 20
170.5846417294
 30
0.0
 11
1477.0033403763
 21
129.7846417294
 31
0.0
  0
LINE
  5
228
100
AcDbEntity
  8
L1_115
  6
CONTINUOUS
 62
         7
100
AcDbLine
 10
1475.0033403763
 20
129.7846417294
 30
0.0
 11
1474.9033403763
 21
129.6846417294
 31
0.0
  0
LINE
  5
229
100
AcDbEntity
  8
L1_115
  6
CONTINUOUS
 62
         7
100
AcDbLine
 10
1474.9033403763
 20
129.6846417294
 30
0.0
 11
1445.5033403763
 21
129.6846417294
 31
0.0
  0
LINE
  5
22A
100
AcDbEntity
  8
L1_115
  6
CONTINUOUS
 62
         7
100
AcDbLine
 10
1475.0033403763
 20
170.5846417294
 30
0.0
 11
1475.0033403763
 21
129.7846417294
 31
0.0
  0
LINE
  5
22B
100
AcDbEntity
  8
L1_115
  6
CONTINUOUS
 62
         7
100
AcDbLine
 10
1477.0033403763
 20
170.5846417294
 30
0.0
 11
1477.1033403763
 21
170.6846417294
 31
0.0
  0
LINE
  5
22C
100
AcDbEntity
  8
L1_115
  6
CONTINUOUS
 62
         7
100
AcDbLine
 10
1491.1373149725
 20
170.6846417294
 30
0.0
 11
1477.1033403763
 21
170.6846417294
 31
0.0
  0
LINE
  5
22D
100
AcDbEntity
  8
L1_115
  6
CONTINUOUS
 62
         7
100
AcDbLine
 10
1474.9033403763
 20
170.6846417294
 30
0.0
 11
1475.0033403763
 21
170.5846417294
 31
0.0
  0
LINE
  5
22E
100
AcDbEntity
  8
L1_115
  6
CONTINUOUS
 62
         7
100
AcDbLine
 10
1474.9033403763
 20
170.6846417294
 30
0.0
 11
1445.5033403763
 21
170.6846417294
 31
0.0
  0
LINE
  5
22F
100
AcDbEntity
  8
L1_115
  6
CONTINUOUS
 62
         4
100
AcDbLine
 10
1445.5033403763
 20
129.6846417294
 30
0.0
 11
1445.5033403763
 21
170.6846417294
 31
0.0
  0
LINE
  5
230
100
AcDbEntity
  8
L1_115
  6
CENTER
 62
         1
100
AcDbLine
 10
1451.4083403763
 20
145.1846417294
 30
0.0
 11
1451.4083403763
 21
155.0346417294
 31
0.0
  0
LINE
  5
231
100
AcDbEntity
  8
L1_115
  6
CENTER
 62
         1
100
AcDbLine
 10
1466.4082741959
 20
145.1846417294
 30
0.0
 11
1466.4082741959
 21
155.0346417294
 31
0.0
  0
LINE
  5
232
100
AcDbEntity
  8
L1_115
  6
CONTINUOUS
 62
         7
100
AcDbLine
 10
1496.0033403763
 20
132.7619919986
 30
0.0
 11
1496.0033403763
 21
167.6072914602
 31
0.0
  0
LINE
  5
233
100
AcDbEntity
  8
L1_115
  6
CONTINUOUS
 62
         7
100
AcDbLine
 10
1477.0033403763
 20
130.6846417294
 30
0.0
 11
1475.0033403763
 21
130.6846417294
 31
0.0
  0
LINE
  5
234
100
AcDbEntity
  8
L1_115
  6
CONTINUOUS
 62
         7
100
AcDbLine
 10
1477.0033403763
 20
169.6846417294
 30
0.0
 11
1475.0033403763
 21
169.6846417294
 31
0.0
  0
LINE
  5
235
100
AcDbEntity
  8
L1_115
  6
CONTINUOUS
 62
         7
100
AcDbLine
 10
1443.0033403763
 20
129.7492168605
 30
0.0
 11
1443.0033403763
 21
170.6200665983
 31
0.0
  0
ARC
  5
236
100
AcDbEntity
  8
L1_115
  6
CONTINUOUS
 62
         7
100
AcDbCircle
 10
1491.1373149725
 20
131.6846417294
 30
0.0
 40
2.0
100
AcDbArc
 50
269.9999999999
 51
300.0
  0
LINE
  5
237
100
AcDbEntity
  8
L1_115
  6
CONTINUOUS
 62
         7
100
AcDbLine
 10
1495.5033403763
 20
131.8959665948
 30
0.0
 11
1492.1373149725
 21
129.9525909218
 31
0.0
  0
ARC
  5
238
100
AcDbEntity
  8
L1_115
  6
CONTINUOUS
 62
         7
100
AcDbCircle
 10
1495.0033403763
 20
132.7619919986
 30
0.0
 40
1.0
100
AcDbArc
 50
300.0
 51
360.0
  0
ARC
  5
239
100
AcDbEntity
  8
L1_115
  6
CONTINUOUS
 62
         7
100
AcDbCircle
 10
1491.1373149725
 20
168.6846417294
 30
0.0
 40
2.0
100
AcDbArc
 50
60.0
 51
90.0000000001
  0
LINE
  5
23A
100
AcDbEntity
  8
L1_115
  6
CONTINUOUS
 62
         7
100
AcDbLine
 10
1495.5033403763
 20
168.473316864
 30
0.0
 11
1492.1373149725
 21
170.416692537
 31
0.0
  0
ARC
  5
23B
100
AcDbEntity
  8
L1_115
  6
CONTINUOUS
 62
         7
100
AcDbCircle
 10
1495.0033403763
 20
167.6072914602
 30
0.0
 40
1.0
100
AcDbArc
 50
0.0
 51
60.0
  0
DIMENSION
  5
23E
100
AcDbEntity
  8
L1_115
  6
CONTINUOUS
 62
         4
100
AcDbDimension
  2
*D3
 10
1516.4367069289
 20
168.1846417294
 30
0.0
 11
1513.3047069289
 21
142.3329165641
 31
0.0
  3
DIMSTYLE1
100
AcDbAlignedDimension
 13
1496.0033403763
 23
168.1846417294
 33
0.0
 14
1496.0033403763
 24
132.1846417294
 34
0.0
 50
90.0
100
AcDbRotatedDimension
  0
LINE
  5
24A
100
AcDbEntity
  8
L1_115
  6
CONTINUOUS
 62
         7
100
AcDbLine
 10
1444.7042692157
 20
170.4846417294
 30
0.0
 11
1443.3033403763
 21
170.4846417294
 31
0.0
  0
LINE
  5
24B
100
AcDbEntity
  8
L1_115
  6
CONTINUOUS
 62
         7
100
AcDbLine
 10
1444.8077968337
 20
170.4982713989
 30
0.0
 11
1445.5033403763
 21
170.6846417294
 31
0.0
  0
ARC
  5
24C
100
AcDbEntity
  8
L1_115
  6
CONTINUOUS
 62
         7
100
AcDbCircle
 10
1444.7042692157
 20
170.8846417294
 30
0.0
 40
0.4
100
AcDbArc
 50
270.0
 51
285.0
  0
LINE
  5
24D
100
AcDbEntity
  8
L1_115
  6
CONTINUOUS
 62
         7
100
AcDbLine
 10
1446.1398320494
 20
170.6846417294
 30
0.0
 11
1445.5033403763
 21
170.6846417294
 31
0.0
  0
LINE
  5
24E
100
AcDbEntity
  8
L1_115
  6
CONTINUOUS
 62
         7
100
AcDbLine
 10
1442.9034794587
 20
170.8740943799
 30
0.0
 11
1443.0033403763
 21
171.5846417294
 31
0.0
  0
ARC
  5
24F
100
AcDbEntity
  8
L1_115
  6
CONTINUOUS
 62
         7
100
AcDbCircle
 10
1443.3033403763
 20
170.8846417294
 30
0.0
 40
0.4
100
AcDbArc
 50
181.5109716561
 51
270.0
  0
LINE
  5
250
100
AcDbEntity
  8
L1_115
  6
CONTINUOUS
 62
         7
100
AcDbLine
 10
1443.0033403763
 20
171.5846417294
 30
0.0
 11
1443.0033403763
 21
171.9696417294
 31
0.0
  0
LINE
  5
251
100
AcDbEntity
  8
L1_115
  6
CONTINUOUS
 62
         7
100
AcDbLine
 10
1444.7042692157
 20
129.8846417294
 30
0.0
 11
1443.3033403763
 21
129.8846417294
 31
0.0
  0
LINE
  5
252
100
AcDbEntity
  8
L1_115
  6
CONTINUOUS
 62
         7
100
AcDbLine
 10
1444.8077968337
 20
129.8710120599
 30
0.0
 11
1445.5033403763
 21
129.6846417294
 31
0.0
  0
ARC
  5
253
100
AcDbEntity
  8
L1_115
  6
CONTINUOUS
 62
         7
100
AcDbCircle
 10
1444.7042692157
 20
129.4846417294
 30
0.0
 40
0.4
100
AcDbArc
 50
75.0
 51
90.0
  0
LINE
  5
254
100
AcDbEntity
  8
L1_115
  6
CONTINUOUS
 62
         7
100
AcDbLine
 10
1446.1398320494
 20
129.6846417294
 30
0.0
 11
1445.5033403763
 21
129.6846417294
 31
0.0
  0
LINE
  5
255
100
AcDbEntity
  8
L1_115
  6
CONTINUOUS
 62
         7
100
AcDbLine
 10
1442.9034794587
 20
129.4951890789
 30
0.0
 11
1443.0033403763
 21
128.7846417294
 31
0.0
  0
ARC
  5
256
100
AcDbEntity
  8
L1_115
  6
CONTINUOUS
 62
         7
100
AcDbCircle
 10
1443.3033403763
 20
129.4846417294
 30
0.0
 40
0.4
100
AcDbArc
 50
90.0
 51
178.4890283439
  0
LINE
  5
257
100
AcDbEntity
  8
L1_115
  6
CONTINUOUS
 62
         7
100
AcDbLine
 10
1443.0033403763
 20
128.7846417294
 30
0.0
 11
1443.0033403763
 21
128.3996417294
 31
0.0
  0
CIRCLE
  5
258
100
AcDbEntity
  8
L1_115
  6
DASHED
 62
         2
100
AcDbCircle
 10
1623.2833403763
 20
150.1846417294
 30
0.0
 40
19.5
  0
CIRCLE
  5
259
100
AcDbEntity
  8
L1_115
  6
CONTINUOUS
 62
         7
100
AcDbCircle
 10
1623.2833403763
 20
150.1846417294
 30
0.0
 40
2.0
  0
ARC
  5
25A
100
AcDbEntity
  8
L1_115
  6
CONTINUOUS
 62
         4
100
AcDbCircle
 10
1623.2833403763
 20
150.1846417294
 30
0.0
 40
3.0
100
AcDbArc
 50
270.0
 51
540.0
  0
CIRCLE
  5
25B
100
AcDbEntity
  8
L1_115
  6
CONTINUOUS
 62
         7
100
AcDbCircle
 10
1623.2833403763
 20
150.1846417294
 30
0.0
 40
17.0
  0
CIRCLE
  5
25C
100
AcDbEntity
  8
L1_115
  6
CONTINUOUS
 62
         7
100
AcDbCircle
 10
1623.2833403763
 20
150.1846417294
 30
0.0
 40
16.0
  0
CIRCLE
  5
25D
100
AcDbEntity
  8
L1_115
  6
DASHED
 62
         2
100
AcDbCircle
 10
1623.2833403763
 20
150.1846417294
 30
0.0
 40
16.5
  0
CIRCLE
  5
25E
100
AcDbEntity
  8
L1_115
  6
DASHED
 62
         2
100
AcDbCircle
 10
1623.2833403763
 20
150.1846417294
 30
0.0
 40
17.5
  0
LINE
  5
25F
100
AcDbEntity
  8
L1_115
  6
CENTER
 62
         1
100
AcDbLine
 10
1623.2833403763
 20
150.1846417294
 30
0.0
 11
1634.5333403763
 21
130.6990701442
 31
0.0
  0
LINE
  5
260
100
AcDbEntity
  8
L1_115
  6
CENTER
 62
         1
100
AcDbLine
 10
1623.2833403763
 20
150.1846417294
 30
0.0
 11
1634.5333403763
 21
169.6702133145
 31
0.0
  0
LINE
  5
261
100
AcDbEntity
  8
L1_115
  6
CONTINUOUS
 62
         7
100
AcDbLine
 10
1430.0033403763
 20
-10.4433347407
 30
0.0
 11
1415.0020155108
 21
-10.4433347407
 31
0.0
  0
LINE
  5
262
100
AcDbEntity
  8
L1_115
  6
CONTINUOUS
 62
         7
100
AcDbLine
 10
1430.0033403763
 20
-15.4433347407
 30
0.0
 11
1415.0020155108
 21
-15.4433347407
 31
0.0
  0
ARC
  5
263
100
AcDbEntity
  8
L1_115
  6
CONTINUOUS
 62
         7
100
AcDbCircle
 10
1495.5033403763
 20
-30.4433347407
 30
0.0
 40
0.5
100
AcDbArc
 50
0.0
 51
90.0
  0
ARC
  5
264
100
AcDbEntity
  8
L1_115
  6
CONTINUOUS
 62
         7
100
AcDbCircle
 10
1495.5033403763
 20
4.5566652593
 30
0.0
 40
0.5
100
AcDbArc
 50
270.0
 51
360.0
  0
LINE
  5
265
100
AcDbEntity
  8
L1_115
  6
CONTINUOUS
 62
         4
100
AcDbLine
 10
1495.5033403763
 20
-29.9433347407
 30
0.0
 11
1495.5033403763
 21
4.0566652593
 31
0.0
  0
ARC
  5
266
100
AcDbEntity
  8
L1_115
  6
CONTINUOUS
 62
         7
100
AcDbCircle
 10
1442.5033403763
 20
171.9696417294
 30
0.0
 40
0.5
100
AcDbArc
 50
0.0
 51
90.0
  0
ARC
  5
267
100
AcDbEntity
  8
L1_115
  6
CONTINUOUS
 62
         7
100
AcDbCircle
 10
1442.5033403763
 20
128.3996417294
 30
0.0
 40
0.5
100
AcDbArc
 50
270.0
 51
360.0
  0
ARC
  5
268
100
AcDbEntity
  8
L1_115
  6
CONTINUOUS
 62
         7
100
AcDbCircle
 10
1442.5033403763
 20
8.8416652593
 30
0.0
 40
0.5
100
AcDbArc
 50
0.0
 51
90.0
  0
ARC
  5
269
100
AcDbEntity
  8
L1_115
  6
CONTINUOUS
 62
         7
100
AcDbCircle
 10
1442.5033403763
 20
-34.7283347407
 30
0.0
 40
0.5
100
AcDbArc
 50
270.0
 51
360.0
  0
INSERT
  5
2BC
100
AcDbEntity
  8
0
  6
CONTINUOUS
100
AcDbBlockReference
  2
*X4
 10
0.0
 20
0.0
 30
0.0
  0
DIMENSION
  5
2BF
100
AcDbEntity
  8
L1_115
  6
CONTINUOUS
 62
         4
100
AcDbDimension
  2
*D5
 10
1590.7698910425
 20
59.616399125
 30
0.0
 11
1592.0160320899
 21
61.641399125
 31
0.0
  3
DIMSTYLE1
100
AcDbAlignedDimension
 13
1590.7698910425
 23
65.3716403392
 33
0.0
 14
1595.7698910425
 24
65.7716403392
 34
0.0
100
AcDbRotatedDimension
  0
LINE
  5
2CD
100
AcDbEntity
  8
L1_115
  6
CENTER
 62
         1
100
AcDbLine
 10
1806.5263342694
 20
74.6716403392
 30
0.0
 11
1518.1665147077
 21
74.6716403392
 31
0.0
  0
DIMENSION
  5
2D0
100
AcDbEntity
  8
L1_115
  6
CONTINUOUS
 62
         4
100
AcDbDimension
  2
*D6
 10
1792.2698910425
 20
104.132952199
 30
0.0
 11
1770.0448219048
 21
106.157952199
 31
0.0
  3
DIMSTYLE1
100
AcDbAlignedDimension
 13
1792.2698910425
 23
93.6716403392
 33
0.0
 14
1760.7698910425
 24
91.4716403392
 34
0.0
100
AcDbRotatedDimension
  0
DIMENSION
  5
2DE
100
AcDbEntity
  8
L1_115
  6
CONTINUOUS
 62
         4
100
AcDbDimension
  2
*D7
 10
1792.2698910425
 20
97.4227063905
 30
0.0
 11
1787.4646701571
 21
99.4477063905
 31
0.0
  3
DIMSTYLE1
100
AcDbAlignedDimension
 13
1792.2698910425
 23
93.6716403392
 33
0.0
 14
1785.2698910425
 24
93.6716403392
 34
0.0
100
AcDbRotatedDimension
  0
DIMENSION
  5
2EC
100
AcDbEntity
  8
L1_115
  6
CONTINUOUS
 62
         4
100
AcDbDimension
  2
*D8
 10
1799.2122167139
 20
94.1716403392
 30
0.0
 11
1797.1872167139
 21
70.2026325059
 31
0.0
  3
DIMSTYLE1
100
AcDbAlignedDimension
 13
1791.7698910425
 23
94.1716403392
 33
0.0
 14
1791.7698910425
 24
55.1716403392
 34
0.0
 50
90.0
100
AcDbRotatedDimension
  0
DIMENSION
  5
2FA
100
AcDbEntity
  8
L1_115
  6
CONTINUOUS
 62
         4
100
AcDbDimension
  2
*D9
 10
1758.022280179
 20
91.6716403392
 30
0.0
 11
1755.997280179
 21
63.4938558649
 31
0.0
  3
DIMSTYLE1
100
AcDbAlignedDimension
 13
1760.9698910425
 23
91.6716403392
 33
0.0
 14
1760.9698910425
 24
57.6716403392
 34
0.0
 50
90.0
100
AcDbRotatedDimension
  0
LINE
  5
306
100
AcDbEntity
  8
L1_115
  6
CONTINUOUS
 62
         7
100
AcDbLine
 10
1785.2698910425
 20
56.7716403392
 30
0.0
 11
1785.2698910425
 21
55.6716403392
 31
0.0
  0
ARC
  5
307
100
AcDbEntity
  8
L1_115
  6
CONTINUOUS
 62
         7
100
AcDbCircle
 10
1784.9698910425
 20
57.4716403392
 30
0.0
 40
0.4
100
AcDbArc
 50
1.5109716561
 51
90.0
  0
LINE
  5
308
100
AcDbEntity
  8
L1_115
  6
CONTINUOUS
 62
         7
100
AcDbLine
 10
1785.3697519601
 20
57.4821876887
 30
0.0
 11
1785.2698910425
 21
56.7716403392
 31
0.0
  0
LINE
  5
309
100
AcDbEntity
  8
L1_115
  6
CONTINUOUS
 62
         7
100
AcDbLine
 10
1782.1333993694
 20
57.6716403392
 30
0.0
 11
1782.7698910425
 21
57.6716403392
 31
0.0
  0
ARC
  5
30A
100
AcDbEntity
  8
L1_115
  6
CONTINUOUS
 62
         7
100
AcDbCircle
 10
1783.5689622031
 20
57.4716403392
 30
0.0
 40
0.4
100
AcDbArc
 50
90.0
 51
105.0
  0
LINE
  5
30B
100
AcDbEntity
  8
L1_115
  6
CONTINUOUS
 62
         7
100
AcDbLine
 10
1783.4654345851
 20
57.8580106697
 30
0.0
 11
1782.7698910425
 21
57.6716403392
 31
0.0
  0
LINE
  5
30C
100
AcDbEntity
  8
L1_115
  6
CONTINUOUS
 62
         7
100
AcDbLine
 10
1783.5689622031
 20
57.8716403392
 30
0.0
 11
1784.9698910425
 21
57.8716403392
 31
0.0
  0
LINE
  5
30D
100
AcDbEntity
  8
L1_115
  6
CONTINUOUS
 62
         7
100
AcDbLine
 10
1785.2698910425
 20
92.5716403392
 30
0.0
 11
1785.2698910425
 21
93.6716403392
 31
0.0
  0
ARC
  5
30E
100
AcDbEntity
  8
L1_115
  6
CONTINUOUS
 62
         7
100
AcDbCircle
 10
1784.9698910425
 20
91.8716403392
 30
0.0
 40
0.4
100
AcDbArc
 50
270.0
 51
358.4890283439
  0
LINE
  5
30F
100
AcDbEntity
  8
L1_115
  6
CONTINUOUS
 62
         7
100
AcDbLine
 10
1785.3697519601
 20
91.8610929897
 30
0.0
 11
1785.2698910425
 21
92.5716403392
 31
0.0
  0
LINE
  5
310
100
AcDbEntity
  8
L1_115
  6
CONTINUOUS
 62
         7
100
AcDbLine
 10
1782.1333993694
 20
91.6716403392
 30
0.0
 11
1782.7698910425
 21
91.6716403392
 31
0.0
  0
ARC
  5
311
100
AcDbEntity
  8
L1_115
  6
CONTINUOUS
 62
         7
100
AcDbCircle
 10
1783.5689622031
 20
91.8716403392
 30
0.0
 40
0.4
100
AcDbArc
 50
255.0
 51
270.0
  0
LINE
  5
312
100
AcDbEntity
  8
L1_115
  6
CONTINUOUS
 62
         7
100
AcDbLine
 10
1783.4654345851
 20
91.4852700087
 30
0.0
 11
1782.7698910425
 21
91.6716403392
 31
0.0
  0
LINE
  5
313
100
AcDbEntity
  8
L1_115
  6
CONTINUOUS
 62
         7
100
AcDbLine
 10
1783.5689622031
 20
91.4716403392
 30
0.0
 11
1784.9698910425
 21
91.4716403392
 31
0.0
  0
LINE
  5
314
100
AcDbEntity
  8
L1_115
  6
CONTINUOUS
 62
         7
100
AcDbLine
 10
1785.7698910425
 20
94.1716403392
 30
0.0
 11
1785.2698910425
 21
93.6716403392
 31
0.0
  0
LINE
  5
315
100
AcDbEntity
  8
L1_115
  6
CONTINUOUS
 62
         7
100
AcDbLine
 10
1791.7698910425
 20
94.1716403392
 30
0.0
 11
1785.7698910425
 21
94.1716403392
 31
0.0
  0
LINE
  5
316
100
AcDbEntity
  8
L1_115
  6
CONTINUOUS
 62
         7
100
AcDbLine
 10
1791.7698910425
 20
94.1716403392
 30
0.0
 11
1792.2698910425
 21
93.6716403392
 31
0.0
  0
LINE
  5
317
100
AcDbEntity
  8
L1_115
  6
CONTINUOUS
 62
         7
100
AcDbLine
 10
1785.2698910425
 20
57.7362154703
 30
0.0
 11
1785.2698910425
 21
91.6070652081
 31
0.0
  0
LINE
  5
318
100
AcDbEntity
  8
L1_115
  6
CONTINUOUS
 62
         7
100
AcDbLine
 10
1785.2698910425
 20
55.6716403392
 30
0.0
 11
1785.7698910425
 21
55.1716403392
 31
0.0
  0
LINE
  5
319
100
AcDbEntity
  8
L1_115
  6
CONTINUOUS
 62
         7
100
AcDbLine
 10
1792.2698910425
 20
55.6716403392
 30
0.0
 11
1792.2698910425
 21
93.6716403392
 31
0.0
  0
LINE
  5
31A
100
AcDbEntity
  8
L1_115
  6
CONTINUOUS
 62
         7
100
AcDbLine
 10
1791.7698910425
 20
55.1716403392
 30
0.0
 11
1785.7698910425
 21
55.1716403392
 31
0.0
  0
LINE
  5
31B
100
AcDbEntity
  8
L1_115
  6
CONTINUOUS
 62
         7
100
AcDbLine
 10
1792.2698910425
 20
55.6716403392
 30
0.0
 11
1791.7698910425
 21
55.1716403392
 31
0.0
  0
LINE
  5
31C
100
AcDbEntity
  8
L1_115
  6
CONTINUOUS
 62
         7
100
AcDbLine
 10
1782.7698910425
 20
91.6716403392
 30
0.0
 11
1761.2698910425
 21
91.6716403392
 31
0.0
  0
LINE
  5
31D
100
AcDbEntity
  8
L1_115
  6
CONTINUOUS
 62
         7
100
AcDbLine
 10
1760.7698910425
 20
91.3829652046
 30
0.0
 11
1760.7698910425
 21
57.9603154738
 31
0.0
  0
LINE
  5
31E
100
AcDbEntity
  8
L1_115
  6
CONTINUOUS
 62
         7
100
AcDbLine
 10
1782.7698910425
 20
57.6716403392
 30
0.0
 11
1761.2698910425
 21
57.6716403392
 31
0.0
  0
LINE
  5
31F
100
AcDbEntity
  8
L1_115
  6
CONTINUOUS
 62
         4
100
AcDbLine
 10
1791.7698910425
 20
94.1716403392
 30
0.0
 11
1791.7698910425
 21
55.1716403392
 31
0.0
  0
LINE
  5
320
100
AcDbEntity
  8
L1_115
  6
CONTINUOUS
 62
         4
100
AcDbLine
 10
1785.7698910425
 20
55.1716403392
 30
0.0
 11
1785.7698910425
 21
94.1716403392
 31
0.0
  0
LINE
  5
321
100
AcDbEntity
  8
L1_115
  6
CONTINUOUS
 62
         4
100
AcDbLine
 10
1782.7698910425
 20
57.6716403392
 30
0.0
 11
1782.7698910425
 21
91.6716403392
 31
0.0
  0
LINE
  5
322
100
AcDbEntity
  8
L1_115
  6
CONTINUOUS
 62
         7
100
AcDbLine
 10
1760.7698910425
 20
57.9603154738
 30
0.0
 11
1761.2698910425
 21
57.6716403392
 31
0.0
  0
LINE
  5
323
100
AcDbEntity
  8
L1_115
  6
CONTINUOUS
 62
         7
100
AcDbLine
 10
1760.7698910425
 20
91.3829652046
 30
0.0
 11
1761.2698910425
 21
91.6716403392
 31
0.0
  0
LINE
  5
324
100
AcDbEntity
  8
L1_115
  6
CONTINUOUS
 62
         4
100
AcDbLine
 10
1761.2698910425
 20
57.6716403392
 30
0.0
 11
1761.2698910425
 21
91.6716403392
 31
0.0
  0
DIMENSION
  5
327
100
AcDbEntity
  8
L1_115
  6
CONTINUOUS
 62
         4
100
AcDbDimension
  2
*D10
 10
1739.3798910426
 20
89.1869704393
 30
0.0
 11
1742.3022633949
 21
91.2119704393
 31
0.0
  3
DIMSTYLE1
100
AcDbAlignedDimension
 13
1739.3798910426
 23
84.0716403392
 33
0.0
 14
1740.8798910426
 24
84.0716403392
 34
0.0
100
AcDbRotatedDimension
  0
DIMENSION
  5
337
100
AcDbEntity
  8
L1_115
  6
CONTINUOUS
 62
         4
100
AcDbDimension
  2
*D11
 10
1728.7298910426
 20
87.1230524952
 30
0.0
 11
1719.3436333122
 21
89.1480524952
 31
0.0
  3
DIMSTYLE1
100
AcDbAlignedDimension
 13
1728.7298910426
 23
83.8716403392
 33
0.0
 14
1733.2298910426
 24
83.8716403392
 34
0.0
100
AcDbRotatedDimension
  0
DIMENSION
  5
347
100
AcDbEntity
  8
L1_115
  6
CONTINUOUS
 62
         4
100
AcDbDimension
  2
*D12
 10
1728.7298910426
 20
92.7251154863
 30
0.0
 11
1728.2801992445
 21
94.7501154863
 31
0.0
  3
DIMSTYLE1
100
AcDbAlignedDimension
 13
1728.7298910426
 23
83.6716403392
 33
0.0
 14
1740.8798910426
 24
84.0716403392
 34
0.0
100
AcDbRotatedDimension
  0
DIMENSION
  5
355
100
AcDbEntity
  8
L1_115
  6
CONTINUOUS
 62
         4
100
AcDbDimension
  2
*D13
 10
1725.4057922571
 20
84.1716403392
 30
0.0
 11
1723.3807922571
 21
69.4712452043
 31
0.0
  3
DIMSTYLE1
100
AcDbAlignedDimension
 13
1729.2298910426
 23
84.1716403392
 33
0.0
 14
1729.2298910426
 24
65.1716403392
 34
0.0
 50
90.0
100
AcDbRotatedDimension
  0
LINE
  5
361
100
AcDbEntity
  8
L1_115
  6
CONTINUOUS
 62
         4
100
AcDbLine
 10
1740.7798910425
 20
65.1716403392
 30
0.0
 11
1740.7798910425
 21
84.1716403392
 31
0.0
  0
LINE
  5
362
100
AcDbEntity
  8
L1_115
  6
CONTINUOUS
 62
         4
100
AcDbLine
 10
1739.4798910426
 20
65.1716403392
 30
0.0
 11
1739.4798910426
 21
84.1716403392
 31
0.0
  0
LINE
  5
363
100
AcDbEntity
  8
L1_115
  6
CONTINUOUS
 62
         4
100
AcDbLine
 10
1732.7298910426
 20
65.1716403392
 30
0.0
 11
1732.7298910426
 21
84.1716403392
 31
0.0
  0
LINE
  5
364
100
AcDbEntity
  8
L1_115
  6
CONTINUOUS
 62
         4
100
AcDbLine
 10
1729.2298910426
 20
65.1716403392
 30
0.0
 11
1729.2298910426
 21
84.1716403392
 31
0.0
  0
LINE
  5
365
100
AcDbEntity
  8
L1_115
  6
CONTINUOUS
 62
         7
100
AcDbLine
 10
1728.7298910426
 20
83.6716403392
 30
0.0
 11
1729.2298910426
 21
84.1716403392
 31
0.0
  0
LINE
  5
366
100
AcDbEntity
  8
L1_115
  6
CONTINUOUS
 62
         7
100
AcDbLine
 10
1733.2298910426
 20
83.6716403392
 30
0.0
 11
1732.7298910426
 21
84.1716403392
 31
0.0
  0
LINE
  5
367
100
AcDbEntity
  8
L1_115
  6
CONTINUOUS
 62
         7
100
AcDbLine
 10
1733.2298910426
 20
65.6716403392
 30
0.0
 11
1732.7298910426
 21
65.1716403392
 31
0.0
  0
LINE
  5
368
100
AcDbEntity
  8
L1_115
  6
CONTINUOUS
 62
         7
100
AcDbLine
 10
1728.7298910426
 20
65.6716403392
 30
0.0
 11
1729.2298910426
 21
65.1716403392
 31
0.0
  0
LINE
  5
369
100
AcDbEntity
  8
L1_115
  6
CONTINUOUS
 62
         7
100
AcDbLine
 10
1740.8798910426
 20
65.2716403392
 30
0.0
 11
1740.7798910425
 21
65.1716403392
 31
0.0
  0
LINE
  5
36A
100
AcDbEntity
  8
L1_115
  6
CONTINUOUS
 62
         7
100
AcDbLine
 10
1739.3798910426
 20
65.2716403392
 30
0.0
 11
1739.4798910426
 21
65.1716403392
 31
0.0
  0
LINE
  5
36B
100
AcDbEntity
  8
L1_115
  6
CONTINUOUS
 62
         7
100
AcDbLine
 10
1740.7798910425
 20
84.1716403392
 30
0.0
 11
1740.8798910426
 21
84.0716403392
 31
0.0
  0
LINE
  5
36C
100
AcDbEntity
  8
L1_115
  6
CONTINUOUS
 62
         7
100
AcDbLine
 10
1739.3798910426
 20
84.0716403392
 30
0.0
 11
1739.4798910426
 21
84.1716403392
 31
0.0
  0
LINE
  5
36D
100
AcDbEntity
  8
L1_115
  6
CONTINUOUS
 62
         7
100
AcDbLine
 10
1739.3798910426
 20
67.1716403392
 30
0.0
 11
1733.2298910426
 21
67.1716403392
 31
0.0
  0
LINE
  5
36E
100
AcDbEntity
  8
L1_115
  6
CONTINUOUS
 62
         7
100
AcDbLine
 10
1739.3798910426
 20
82.1716403392
 30
0.0
 11
1733.2298910426
 21
82.1716403392
 31
0.0
  0
LINE
  5
36F
100
AcDbEntity
  8
L1_115
  6
CONTINUOUS
 62
         7
100
AcDbLine
 10
1740.8798910426
 20
65.2716403392
 30
0.0
 11
1740.8798910426
 21
84.0716403392
 31
0.0
  0
LINE
  5
370
100
AcDbEntity
  8
L1_115
  6
CONTINUOUS
 62
         7
100
AcDbLine
 10
1740.7798910425
 20
84.1716403392
 30
0.0
 11
1739.4798910426
 21
84.1716403392
 31
0.0
  0
LINE
  5
371
100
AcDbEntity
  8
L1_115
  6
CONTINUOUS
 62
         7
100
AcDbLine
 10
1740.7798910425
 20
65.1716403392
 30
0.0
 11
1739.4798910426
 21
65.1716403392
 31
0.0
  0
LINE
  5
372
100
AcDbEntity
  8
L1_115
  6
CONTINUOUS
 62
         7
100
AcDbLine
 10
1732.7298910426
 20
65.1716403392
 30
0.0
 11
1729.2298910426
 21
65.1716403392
 31
0.0
  0
LINE
  5
373
100
AcDbEntity
  8
L1_115
  6
CONTINUOUS
 62
         7
100
AcDbLine
 10
1733.2298910426
 20
65.6716403392
 30
0.0
 11
1733.2298910426
 21
83.6716403392
 31
0.0
  0
LINE
  5
374
100
AcDbEntity
  8
L1_115
  6
CONTINUOUS
 62
         7
100
AcDbLine
 10
1732.7298910426
 20
84.1716403392
 30
0.0
 11
1729.2298910426
 21
84.1716403392
 31
0.0
  0
LINE
  5
375
100
AcDbEntity
  8
L1_115
  6
CONTINUOUS
 62
         7
100
AcDbLine
 10
1728.7298910426
 20
65.6716403392
 30
0.0
 11
1728.7298910426
 21
83.6716403392
 31
0.0
  0
DIMENSION
  5
378
100
AcDbEntity
  8
L1_115
  6
CONTINUOUS
 62
         4
100
AcDbDimension
  2
*D14
 10
1711.5073743233
 20
87.3716403392
 30
0.0
 11
1709.4823743233
 21
63.1840162904
 31
0.0
  3
DIMSTYLE1
100
AcDbAlignedDimension
 13
1696.7698910425
 23
87.3716403392
 33
0.0
 14
1696.7698910425
 24
61.9716403392
 34
0.0
 50
90.0
100
AcDbRotatedDimension
  0
DIMENSION
  5
386
100
AcDbEntity
  8
L1_115
  6
CONTINUOUS
 62
         4
100
AcDbDimension
  2
*D15
 10
1704.7865143254
 20
79.9216403392
 30
0.0
 11
1702.7615143254
 21
69.1440879568
 31
0.0
  3
DIMSTYLE1
100
AcDbAlignedDimension
 13
1697.4698910426
 23
79.9216403392
 33
0.0
 14
1697.4698910426
 24
69.4216403392
 34
0.0
 50
90.0
100
AcDbRotatedDimension
  0
DIMENSION
  5
394
100
AcDbEntity
  8
L1_115
  6
CONTINUOUS
 62
         4
100
AcDbDimension
  2
*D16
 10
1618.0477949354
 20
90.6716403392
 30
0.0
 11
1616.0227949354
 21
67.5739783367
 31
0.0
  3
DIMSTYLE1
100
AcDbAlignedDimension
 13
1623.9698910426
 23
90.6716403392
 33
0.0
 14
1623.9698910426
 24
58.6716403392
 34
0.0
 50
90.0
100
AcDbRotatedDimension
  0
DIMENSION
  5
3A2
100
AcDbEntity
  8
L1_115
  6
CONTINUOUS
 62
         4
100
AcDbDimension
  2
*D17
 10
1697.9698910426
 20
102.0696377037
 30
0.0
 11
1658.9373158174
 21
104.0946377037
 31
0.0
  3
DIMSTYLE1
100
AcDbAlignedDimension
 13
1697.9698910426
 23
86.8716403392
 33
0.0
 14
1622.9698910426
 24
89.6716403392
 34
0.0
100
AcDbRotatedDimension
  0
DIMENSION
  5
3B0
100
AcDbEntity
  8
L1_115
  6
CONTINUOUS
 62
         4
100
AcDbDimension
  2
*D18
 10
1666.4698910426
 20
95.8021304686
 30
0.0
 11
1676.1262054437
 21
97.8271304686
 31
0.0
  3
DIMSTYLE1
100
AcDbAlignedDimension
 13
1666.4698910426
 23
89.6716403392
 33
0.0
 14
1697.9698910426
 24
86.8716403392
 34
0.0
100
AcDbRotatedDimension
  0
LINE
  5
3BC
100
AcDbEntity
  8
L1_115
  6
CONTINUOUS
 62
         7
100
AcDbLine
 10
1693.1198910426
 20
62.0716403392
 30
0.0
 11
1693.2198910426
 21
61.9716403392
 31
0.0
  0
LINE
  5
3BD
100
AcDbEntity
  8
L1_115
  6
CONTINUOUS
 62
         7
100
AcDbLine
 10
1691.6198910426
 20
62.0716403392
 30
0.0
 11
1691.5198910426
 21
61.9716403392
 31
0.0
  0
LINE
  5
3BE
100
AcDbEntity
  8
L1_115
  6
CONTINUOUS
 62
         7
100
AcDbLine
 10
1693.1198910426
 20
87.2716403392
 30
0.0
 11
1693.2198910426
 21
87.3716403392
 31
0.0
  0
LINE
  5
3BF
100
AcDbEntity
  8
L1_115
  6
CONTINUOUS
 62
         7
100
AcDbLine
 10
1691.5198910426
 20
87.3716403392
 30
0.0
 11
1691.6198910426
 21
87.2716403392
 31
0.0
  0
ARC
  5
3C0
100
AcDbEntity
  8
L1_115
  6
CONTINUOUS
 62
         4
100
AcDbCircle
 10
1634.6370308403
 20
74.6716403392
 30
0.0
 40
5.34
100
AcDbArc
 50
90.0
 51
270.0
  0
ARC
  5
3C1
100
AcDbEntity
  8
L1_115
  6
CONTINUOUS
 62
         4
100
AcDbCircle
 10
1650.6057537339
 20
74.6716403392
 30
0.0
 40
5.34
100
AcDbArc
 50
270.0
 51
450.0
  0
LINE
  5
3C2
100
AcDbEntity
  8
L1_115
  6
CONTINUOUS
 62
         4
100
AcDbLine
 10
1650.6057537339
 20
69.3316403392
 30
0.0
 11
1634.6370308403
 21
69.3316403392
 31
0.0
  0
LINE
  5
3C3
100
AcDbEntity
  8
L1_115
  6
CONTINUOUS
 62
         4
100
AcDbLine
 10
1650.6057537339
 20
80.0116403392
 30
0.0
 11
1634.6370308403
 21
80.0116403392
 31
0.0
  0
ARC
  5
3C4
100
AcDbEntity
  8
L1_115
  6
CONTINUOUS
 62
         7
100
AcDbCircle
 10
1649.0163369245
 20
74.6716403392
 30
0.0
 40
4.84
100
AcDbArc
 50
270.0
 51
450.0
  0
ARC
  5
3C5
100
AcDbEntity
  8
L1_115
  6
CONTINUOUS
 62
         7
100
AcDbCircle
 10
1636.226447654
 20
74.6716403392
 30
0.0
 40
4.84
100
AcDbArc
 50
90.0
 51
270.0
  0
LINE
  5
3C6
100
AcDbEntity
  8
L1_115
  6
CONTINUOUS
 62
         7
100
AcDbLine
 10
1649.0163369245
 20
69.8316403392
 30
0.0
 11
1636.226447654
 21
69.8316403392
 31
0.0
  0
LINE
  5
3C7
100
AcDbEntity
  8
L1_115
  6
CONTINUOUS
 62
         7
100
AcDbLine
 10
1649.0163369245
 20
79.5116403392
 30
0.0
 11
1636.226447654
 21
79.5116403392
 31
0.0
  0
ARC
  5
3C8
100
AcDbEntity
  8
L1_115
  6
CONTINUOUS
 62
         7
100
AcDbCircle
 10
1636.173280476
 20
74.6716403392
 30
0.0
 40
3.0
100
AcDbArc
 50
90.0
 51
270.0
  0
ARC
  5
3C9
100
AcDbEntity
  8
L1_115
  6
CONTINUOUS
 62
         7
100
AcDbCircle
 10
1649.0695041024
 20
74.6716403392
 30
0.0
 40
3.0
100
AcDbArc
 50
270.0
 51
450.0
  0
LINE
  5
3CA
100
AcDbEntity
  8
L1_115
  6
CONTINUOUS
 62
         7
100
AcDbLine
 10
1666.4698910426
 20
61.0716403392
 30
0.0
 11
1666.4698910426
 21
59.6716403392
 31
0.0
  0
ARC
  5
3CB
100
AcDbEntity
  8
L1_115
  6
CONTINUOUS
 62
         7
100
AcDbCircle
 10
1666.7698910425
 20
61.7716403392
 30
0.0
 40
0.4
100
AcDbArc
 50
90.0
 51
178.4890283439
  0
LINE
  5
3CC
100
AcDbEntity
  8
L1_115
  6
CONTINUOUS
 62
         7
100
AcDbLine
 10
1666.370030125
 20
61.7821876887
 30
0.0
 11
1666.4698910426
 21
61.0716403392
 31
0.0
  0
LINE
  5
3CD
100
AcDbEntity
  8
L1_115
  6
CONTINUOUS
 62
         7
100
AcDbLine
 10
1669.6063827157
 20
61.9716403392
 30
0.0
 11
1668.9698910426
 21
61.9716403392
 31
0.0
  0
ARC
  5
3CE
100
AcDbEntity
  8
L1_115
  6
CONTINUOUS
 62
         7
100
AcDbCircle
 10
1668.170819882
 20
61.7716403392
 30
0.0
 40
0.4
100
AcDbArc
 50
75.0
 51
90.0
  0
LINE
  5
3CF
100
AcDbEntity
  8
L1_115
  6
CONTINUOUS
 62
         7
100
AcDbLine
 10
1668.2743475
 20
62.1580106697
 30
0.0
 11
1668.9698910426
 21
61.9716403392
 31
0.0
  0
LINE
  5
3D0
100
AcDbEntity
  8
L1_115
  6
CONTINUOUS
 62
         7
100
AcDbLine
 10
1668.170819882
 20
62.1716403392
 30
0.0
 11
1666.7698910425
 21
62.1716403392
 31
0.0
  0
LINE
  5
3D1
100
AcDbEntity
  8
L1_115
  6
CONTINUOUS
 62
         7
100
AcDbLine
 10
1666.4698910426
 20
88.2716403392
 30
0.0
 11
1666.4698910426
 21
89.6716403392
 31
0.0
  0
ARC
  5
3D2
100
AcDbEntity
  8
L1_115
  6
CONTINUOUS
 62
         7
100
AcDbCircle
 10
1666.7698910425
 20
87.5716403392
 30
0.0
 40
0.4
100
AcDbArc
 50
181.5109716561
 51
270.0
  0
LINE
  5
3D3
100
AcDbEntity
  8
L1_115
  6
CONTINUOUS
 62
         7
100
AcDbLine
 10
1666.370030125
 20
87.5610929897
 30
0.0
 11
1666.4698910426
 21
88.2716403392
 31
0.0
  0
LINE
  5
3D4
100
AcDbEntity
  8
L1_115
  6
CONTINUOUS
 62
         7
100
AcDbLine
 10
1669.6063827157
 20
87.3716403392
 30
0.0
 11
1668.9698910426
 21
87.3716403392
 31
0.0
  0
ARC
  5
3D5
100
AcDbEntity
  8
L1_115
  6
CONTINUOUS
 62
         7
100
AcDbCircle
 10
1668.170819882
 20
87.5716403392
 30
0.0
 40
0.4
100
AcDbArc
 50
270.0
 51
285.0
  0
LINE
  5
3D6
100
AcDbEntity
  8
L1_115
  6
CONTINUOUS
 62
         7
100
AcDbLine
 10
1668.2743475
 20
87.1852700087
 30
0.0
 11
1668.9698910426
 21
87.3716403392
 31
0.0
  0
LINE
  5
3D7
100
AcDbEntity
  8
L1_115
  6
CONTINUOUS
 62
         7
100
AcDbLine
 10
1668.170819882
 20
87.1716403392
 30
0.0
 11
1666.7698910425
 21
87.1716403392
 31
0.0
  0
LINE
  5
3D8
100
AcDbEntity
  8
L1_115
  6
CONTINUOUS
 62
         7
100
AcDbLine
 10
1693.1198910426
 20
62.8716403392
 30
0.0
 11
1691.6198910426
 21
62.8716403392
 31
0.0
  0
LINE
  5
3D9
100
AcDbEntity
  8
L1_115
  6
CONTINUOUS
 62
         7
100
AcDbLine
 10
1693.1198910426
 20
86.4716403392
 30
0.0
 11
1691.6198910426
 21
86.4716403392
 31
0.0
  0
LINE
  5
3DA
100
AcDbEntity
  8
L1_115
  6
CONTINUOUS
 62
         7
100
AcDbLine
 10
1691.5198910426
 20
61.9716403392
 30
0.0
 11
1668.9698910426
 21
61.9716403392
 31
0.0
  0
LINE
  5
3DB
100
AcDbEntity
  8
L1_115
  6
CONTINUOUS
 62
         7
100
AcDbLine
 10
1668.9698910426
 20
87.3716403392
 30
0.0
 11
1691.5198910426
 21
87.3716403392
 31
0.0
  0
LINE
  5
3DC
100
AcDbEntity
  8
L1_115
  6
CONTINUOUS
 62
         7
100
AcDbLine
 10
1697.4698910426
 20
61.9716403392
 30
0.0
 11
1693.2198910426
 21
61.9716403392
 31
0.0
  0
LINE
  5
3DD
100
AcDbEntity
  8
L1_115
  6
CONTINUOUS
 62
         7
100
AcDbLine
 10
1697.4698910426
 20
87.3716403392
 30
0.0
 11
1693.2198910426
 21
87.3716403392
 31
0.0
  0
LINE
  5
3DE
100
AcDbEntity
  8
L1_115
  6
CONTINUOUS
 62
         7
100
AcDbLine
 10
1697.9698910426
 20
62.4716403392
 30
0.0
 11
1697.4698910426
 21
61.9716403392
 31
0.0
  0
LINE
  5
3DF
100
AcDbEntity
  8
L1_115
  6
CONTINUOUS
 62
         7
100
AcDbLine
 10
1697.4698910426
 20
87.3716403392
 30
0.0
 11
1697.9698910426
 21
86.8716403392
 31
0.0
  0
LINE
  5
3E0
100
AcDbEntity
  8
L1_115
  6
CONTINUOUS
 62
         7
100
AcDbLine
 10
1665.4698910426
 20
90.6716403392
 30
0.0
 11
1625.6038656388
 21
90.6716403392
 31
0.0
  0
LINE
  5
3E1
100
AcDbEntity
  8
L1_115
  6
CONTINUOUS
 62
         7
100
AcDbLine
 10
1665.4698910426
 20
58.6716403392
 30
0.0
 11
1625.6038656388
 21
58.6716403392
 31
0.0
  0
LINE
  5
3E2
100
AcDbEntity
  8
L1_115
  6
CONTINUOUS
 62
         7
100
AcDbLine
 10
1622.9698910426
 20
60.4036911468
 30
0.0
 11
1622.9698910426
 21
88.9395895316
 31
0.0
  0
LINE
  5
3E3
100
AcDbEntity
  8
L1_115
  6
CONTINUOUS
 62
         7
100
AcDbLine
 10
1666.4698910426
 20
62.0362154703
 30
0.0
 11
1666.4698910426
 21
87.3070652081
 31
0.0
  0
LINE
  5
3E4
100
AcDbEntity
  8
L1_115
  6
CONTINUOUS
 62
         7
100
AcDbLine
 10
1691.6198910426
 20
62.0716403392
 30
0.0
 11
1691.6198910426
 21
87.2716403392
 31
0.0
  0
LINE
  5
3E5
100
AcDbEntity
  8
L1_115
  6
CONTINUOUS
 62
         7
100
AcDbLine
 10
1693.1198910426
 20
62.0716403392
 30
0.0
 11
1693.1198910426
 21
87.2716403392
 31
0.0
  0
LINE
  5
3E6
100
AcDbEntity
  8
L1_115
  6
CONTINUOUS
 62
         7
100
AcDbLine
 10
1693.1198910426
 20
69.9216403392
 30
0.0
 11
1693.1198910426
 21
79.4216403392
 31
0.0
  0
ARC
  5
3E7
100
AcDbEntity
  8
L1_115
  6
CONTINUOUS
 62
         7
100
AcDbCircle
 10
1693.6198910426
 20
79.4216403392
 30
0.0
 40
0.5
100
AcDbArc
 50
90.0
 51
180.0
  0
LINE
  5
3E8
100
AcDbEntity
  8
L1_115
  6
CONTINUOUS
 62
         7
100
AcDbLine
 10
1697.4698910426
 20
79.9216403392
 30
0.0
 11
1693.6198910426
 21
79.9216403392
 31
0.0
  0
ARC
  5
3E9
100
AcDbEntity
  8
L1_115
  6
CONTINUOUS
 62
         7
100
AcDbCircle
 10
1693.6198910426
 20
69.9216403392
 30
0.0
 40
0.5
100
AcDbArc
 50
180.0
 51
270.0
  0
LINE
  5
3EA
100
AcDbEntity
  8
L1_115
  6
CONTINUOUS
 62
         7
100
AcDbLine
 10
1697.4698910426
 20
69.4216403392
 30
0.0
 11
1693.6198910426
 21
69.4216403392
 31
0.0
  0
LINE
  5
3EB
100
AcDbEntity
  8
L1_115
  6
CONTINUOUS
 62
         4
100
AcDbLine
 10
1697.4698910426
 20
69.4216403392
 30
0.0
 11
1697.4698910426
 21
61.9716403392
 31
0.0
  0
LINE
  5
3EC
100
AcDbEntity
  8
L1_115
  6
CONTINUOUS
 62
         7
100
AcDbLine
 10
1697.4698910426
 20
69.4216403392
 30
0.0
 11
1697.9698910426
 21
68.9216403392
 31
0.0
  0
LINE
  5
3ED
100
AcDbEntity
  8
L1_115
  6
CONTINUOUS
 62
         4
100
AcDbLine
 10
1697.4698910426
 20
87.3716403392
 30
0.0
 11
1697.4698910426
 21
79.9216403392
 31
0.0
  0
LINE
  5
3EE
100
AcDbEntity
  8
L1_115
  6
CONTINUOUS
 62
         7
100
AcDbLine
 10
1697.9698910426
 20
80.4216403392
 30
0.0
 11
1697.4698910426
 21
79.9216403392
 31
0.0
  0
LINE
  5
3EF
100
AcDbEntity
  8
L1_115
  6
CONTINUOUS
 62
         7
100
AcDbLine
 10
1697.9698910426
 20
62.4716403392
 30
0.0
 11
1697.9698910426
 21
68.9216403392
 31
0.0
  0
LINE
  5
3F0
100
AcDbEntity
  8
L1_115
  6
CONTINUOUS
 62
         7
100
AcDbLine
 10
1697.9698910426
 20
80.4216403392
 30
0.0
 11
1697.9698910426
 21
86.8716403392
 31
0.0
  0
POLYLINE
  5
3F2
100
AcDbEntity
  8
L1_115
  6
CONTINUOUS
 62
         7
100
AcDb2dPolyline
 66
         1
 10
0.0
 20
0.0
 30
0.0
 70
         2
  0
VERTEX
  5
3F4
100
AcDbEntity
  8
L1_115
  6
CONTINUOUS
 62
         7
100
AcDbVertex
100
AcDb2dVertex
 10
1672.2698910425
 20
85.7959380698
 30
0.0
 70
         1
  0
VERTEX
  5
3F6
100
AcDbEntity
  8
L1_115
  6
CONTINUOUS
 62
         7
100
AcDbVertex
100
AcDb2dVertex
 10
1672.3146705021
 20
85.5855143079
 30
0.0
 70
         1
  0
VERTEX
  5
3F8
100
AcDbEntity
  8
L1_115
  6
CONTINUOUS
 62
         7
100
AcDbVertex
100
AcDb2dVertex
 10
1672.3639644894
 20
85.4928522842
 30
0.0
 70
         1
  0
VERTEX
  5
3FA
100
AcDbEntity
  8
L1_115
  6
CONTINUOUS
 62
         7
100
AcDbVertex
100
AcDb2dVertex
 10
1672.4329283035
 20
85.4004738189
 30
0.0
 70
         1
  0
VERTEX
  5
3FC
100
AcDbEntity
  8
L1_115
  6
CONTINUOUS
 62
         7
100
AcDbVertex
100
AcDb2dVertex
 10
1672.521932647
 20
85.309974736
 30
0.0
 70
         1
  0
VERTEX
  5
3FE
100
AcDbEntity
  8
L1_115
  6
CONTINUOUS
 62
         7
100
AcDbVertex
100
AcDb2dVertex
 10
1672.6306606124
 20
85.223023679
 30
0.0
 70
         1
  0
VERTEX
  5
400
100
AcDbEntity
  8
L1_115
  6
CONTINUOUS
 62
         7
100
AcDbVertex
100
AcDb2dVertex
 10
1672.7580606066
 20
85.1412685477
 30
0.0
 70
         1
  0
VERTEX
  5
402
100
AcDbEntity
  8
L1_115
  6
CONTINUOUS
 62
         7
100
AcDbVertex
100
AcDb2dVertex
 10
1672.9023612128
 20
85.0662357051
 30
0.0
 70
         1
  0
VERTEX
  5
404
100
AcDbEntity
  8
L1_115
  6
CONTINUOUS
 62
         7
100
AcDbVertex
100
AcDb2dVertex
 10
1673.0611518114
 20
84.9992340045
 30
0.0
 70
         1
  0
VERTEX
  5
406
100
AcDbEntity
  8
L1_115
  6
CONTINUOUS
 62
         7
100
AcDbVertex
100
AcDb2dVertex
 10
1673.2920792015
 20
84.9236015517
 30
0.0
 70
         1
  0
VERTEX
  5
408
100
AcDbEntity
  8
L1_115
  6
CONTINUOUS
 62
         7
100
AcDbVertex
100
AcDb2dVertex
 10
1673.5360025972
 20
84.8656951245
 30
0.0
 70
         1
  0
VERTEX
  5
40A
100
AcDbEntity
  8
L1_115
  6
CONTINUOUS
 62
         7
100
AcDbVertex
100
AcDb2dVertex
 10
1673.7849034173
 20
84.8257851175
 30
0.0
 70
         1
  0
VERTEX
  5
40C
100
AcDbEntity
  8
L1_115
  6
CONTINUOUS
 62
         7
100
AcDbVertex
100
AcDb2dVertex
 10
1674.1150941338
 20
84.7989378295
 30
0.0
 70
         1
  0
VERTEX
  5
40E
100
AcDbEntity
  8
L1_115
  6
CONTINUOUS
 62
         7
100
AcDbVertex
100
AcDb2dVertex
 10
1674.4265994256
 20
84.7990124855
 30
0.0
 70
         1
  0
VERTEX
  5
410
100
AcDbEntity
  8
L1_115
  6
CONTINUOUS
 62
         7
100
AcDbVertex
100
AcDb2dVertex
 10
1674.7099363312
 20
84.8204433051
 30
0.0
 70
         1
  0
VERTEX
  5
412
100
AcDbEntity
  8
L1_115
  6
CONTINUOUS
 62
         7
100
AcDbVertex
100
AcDb2dVertex
 10
1674.9603815423
 20
84.8574255673
 30
0.0
 70
         1
  0
VERTEX
  5
414
100
AcDbEntity
  8
L1_115
  6
CONTINUOUS
 62
         7
100
AcDbVertex
100
AcDb2dVertex
 10
1675.1769671421
 20
84.9047011555
 30
0.0
 70
         1
  0
VERTEX
  5
416
100
AcDbEntity
  8
L1_115
  6
CONTINUOUS
 62
         7
100
AcDbVertex
100
AcDb2dVertex
 10
1675.4188796372
 20
84.9774294857
 30
0.0
 70
         1
  0
VERTEX
  5
418
100
AcDbEntity
  8
L1_115
  6
CONTINUOUS
 62
         7
100
AcDbVertex
100
AcDb2dVertex
 10
1675.6095421361
 20
85.0534195604
 30
0.0
 70
         1
  0
VERTEX
  5
41A
100
AcDbEntity
  8
L1_115
  6
CONTINUOUS
 62
         7
100
AcDbVertex
100
AcDb2dVertex
 10
1675.7579693112
 20
85.1278020308
 30
0.0
 70
         1
  0
VERTEX
  5
41C
100
AcDbEntity
  8
L1_115
  6
CONTINUOUS
 62
         7
100
AcDbVertex
100
AcDb2dVertex
 10
1675.9071277552
 20
85.2216002018
 30
0.0
 70
         1
  0
VERTEX
  5
41E
100
AcDbEntity
  8
L1_115
  6
CONTINUOUS
 62
         7
100
AcDbVertex
100
AcDb2dVertex
 10
1676.0118776834
 20
85.3046432136
 30
0.0
 70
         1
  0
VERTEX
  5
420
100
AcDbEntity
  8
L1_115
  6
CONTINUOUS
 62
         7
100
AcDbVertex
100
AcDb2dVertex
 10
1676.1067334873
 20
85.4003341539
 30
0.0
 70
         1
  0
VERTEX
  5
422
100
AcDbEntity
  8
L1_115
  6
CONTINUOUS
 62
         7
100
AcDbVertex
100
AcDb2dVertex
 10
1676.1819397619
 20
85.5026507982
 30
0.0
 70
         1
  0
VERTEX
  5
424
100
AcDbEntity
  8
L1_115
  6
CONTINUOUS
 62
         7
100
AcDbVertex
100
AcDb2dVertex
 10
1676.2319512381
 20
85.6020825894
 30
0.0
 70
         1
  0
VERTEX
  5
426
100
AcDbEntity
  8
L1_115
  6
CONTINUOUS
 62
         7
100
AcDbVertex
100
AcDb2dVertex
 10
1676.2633154559
 20
85.714914758
 30
0.0
 70
         1
  0
VERTEX
  5
428
100
AcDbEntity
  8
L1_115
  6
CONTINUOUS
 62
         7
100
AcDbVertex
100
AcDb2dVertex
 10
1676.2698910425
 20
85.7959380698
 30
0.0
 70
         1
  0
VERTEX
  5
42A
100
AcDbEntity
  8
L1_115
  6
CONTINUOUS
 62
         7
100
AcDbVertex
100
AcDb2dVertex
 10
1676.2698910425
 20
85.7959380698
 30
0.0
 70
         1
  0
VERTEX
  5
42C
100
AcDbEntity
  8
L1_115
  6
CONTINUOUS
 62
         7
100
AcDbVertex
100
AcDb2dVertex
 10
1676.225111583
 20
86.0063618318
 30
0.0
 70
         1
  0
VERTEX
  5
42E
100
AcDbEntity
  8
L1_115
  6
CONTINUOUS
 62
         7
100
AcDbVertex
100
AcDb2dVertex
 10
1676.1758175957
 20
86.0990238555
 30
0.0
 70
         1
  0
VERTEX
  5
430
100
AcDbEntity
  8
L1_115
  6
CONTINUOUS
 62
         7
100
AcDbVertex
100
AcDb2dVertex
 10
1676.1068537816
 20
86.1914023208
 30
0.0
 70
         1
  0
VERTEX
  5
432
100
AcDbEntity
  8
L1_115
  6
CONTINUOUS
 62
         7
100
AcDbVertex
100
AcDb2dVertex
 10
1676.0178494381
 20
86.2819014037
 30
0.0
 70
         1
  0
VERTEX
  5
434
100
AcDbEntity
  8
L1_115
  6
CONTINUOUS
 62
         7
100
AcDbVertex
100
AcDb2dVertex
 10
1675.9091214727
 20
86.3688524607
 30
0.0
 70
         1
  0
VERTEX
  5
436
100
AcDbEntity
  8
L1_115
  6
CONTINUOUS
 62
         7
100
AcDbVertex
100
AcDb2dVertex
 10
1675.7817214785
 20
86.450607592
 30
0.0
 70
         1
  0
VERTEX
  5
438
100
AcDbEntity
  8
L1_115
  6
CONTINUOUS
 62
         7
100
AcDbVertex
100
AcDb2dVertex
 10
1675.6374208723
 20
86.5256404346
 30
0.0
 70
         1
  0
VERTEX
  5
43A
100
AcDbEntity
  8
L1_115
  6
CONTINUOUS
 62
         7
100
AcDbVertex
100
AcDb2dVertex
 10
1675.4786302737
 20
86.5926421352
 30
0.0
 70
         1
  0
VERTEX
  5
43C
100
AcDbEntity
  8
L1_115
  6
CONTINUOUS
 62
         7
100
AcDbVertex
100
AcDb2dVertex
 10
1675.2477028836
 20
86.668274588
 30
0.0
 70
         1
  0
VERTEX
  5
43E
100
AcDbEntity
  8
L1_115
  6
CONTINUOUS
 62
         7
100
AcDbVertex
100
AcDb2dVertex
 10
1675.0037794879
 20
86.7261810152
 30
0.0
 70
         1
  0
VERTEX
  5
440
100
AcDbEntity
  8
L1_115
  6
CONTINUOUS
 62
         7
100
AcDbVertex
100
AcDb2dVertex
 10
1674.7548786678
 20
86.7660910221
 30
0.0
 70
         1
  0
VERTEX
  5
442
100
AcDbEntity
  8
L1_115
  6
CONTINUOUS
 62
         7
100
AcDbVertex
100
AcDb2dVertex
 10
1674.4246879513
 20
86.7929383102
 30
0.0
 70
         1
  0
VERTEX
  5
444
100
AcDbEntity
  8
L1_115
  6
CONTINUOUS
 62
         7
100
AcDbVertex
100
AcDb2dVertex
 10
1674.1131826595
 20
86.7928636542
 30
0.0
 70
         1
  0
VERTEX
  5
446
100
AcDbEntity
  8
L1_115
  6
CONTINUOUS
 62
         7
100
AcDbVertex
100
AcDb2dVertex
 10
1673.8298457539
 20
86.7714328346
 30
0.0
 70
         1
  0
VERTEX
  5
448
100
AcDbEntity
  8
L1_115
  6
CONTINUOUS
 62
         7
100
AcDbVertex
100
AcDb2dVertex
 10
1673.5794005428
 20
86.7344505724
 30
0.0
 70
         1
  0
VERTEX
  5
44A
100
AcDbEntity
  8
L1_115
  6
CONTINUOUS
 62
         7
100
AcDbVertex
100
AcDb2dVertex
 10
1673.362814943
 20
86.6871749841
 30
0.0
 70
         1
  0
VERTEX
  5
44C
100
AcDbEntity
  8
L1_115
  6
CONTINUOUS
 62
         7
100
AcDbVertex
100
AcDb2dVertex
 10
1673.1209024479
 20
86.614446654
 30
0.0
 70
         1
  0
VERTEX
  5
44E
100
AcDbEntity
  8
L1_115
  6
CONTINUOUS
 62
         7
100
AcDbVertex
100
AcDb2dVertex
 10
1672.930239949
 20
86.5384565793
 30
0.0
 70
         1
  0
VERTEX
  5
450
100
AcDbEntity
  8
L1_115
  6
CONTINUOUS
 62
         7
100
AcDbVertex
100
AcDb2dVertex
 10
1672.7818127739
 20
86.4640741088
 30
0.0
 70
         1
  0
VERTEX
  5
452
100
AcDbEntity
  8
L1_115
  6
CONTINUOUS
 62
         7
100
AcDbVertex
100
AcDb2dVertex
 10
1672.6326543298
 20
86.3702759379
 30
0.0
 70
         1
  0
VERTEX
  5
454
100
AcDbEntity
  8
L1_115
  6
CONTINUOUS
 62
         7
100
AcDbVertex
100
AcDb2dVertex
 10
1672.5279044017
 20
86.287232926
 30
0.0
 70
         1
  0
VERTEX
  5
456
100
AcDbEntity
  8
L1_115
  6
CONTINUOUS
 62
         7
100
AcDbVertex
100
AcDb2dVertex
 10
1672.4330485978
 20
86.1915419858
 30
0.0
 70
         1
  0
VERTEX
  5
458
100
AcDbEntity
  8
L1_115
  6
CONTINUOUS
 62
         7
100
AcDbVertex
100
AcDb2dVertex
 10
1672.3578423232
 20
86.0892253415
 30
0.0
 70
         1
  0
VERTEX
  5
45A
100
AcDbEntity
  8
L1_115
  6
CONTINUOUS
 62
         7
100
AcDbVertex
100
AcDb2dVertex
 10
1672.307830847
 20
85.9897935503
 30
0.0
 70
         1
  0
VERTEX
  5
45C
100
AcDbEntity
  8
L1_115
  6
CONTINUOUS
 62
         7
100
AcDbVertex
100
AcDb2dVertex
 10
1672.2764666292
 20
85.8769613817
 30
0.0
 70
         1
  0
VERTEX
  5
45E
100
AcDbEntity
  8
L1_115
  6
CONTINUOUS
 62
         7
100
AcDbVertex
100
AcDb2dVertex
 10
1672.2698910425
 20
85.7959380698
 30
0.0
 70
         1
  0
SEQEND
  5
460
100
AcDbEntity
  8
L1_115
  6
CONTINUOUS
 62
         7
  0
POLYLINE
  5
462
100
AcDbEntity
  8
L1_115
  6
CONTINUOUS
 62
         7
100
AcDb2dPolyline
 66
         1
 10
0.0
 20
0.0
 30
0.0
 70
         2
  0
VERTEX
  5
464
100
AcDbEntity
  8
L1_115
  6
CONTINUOUS
 62
         7
100
AcDbVertex
100
AcDb2dVertex
 10
1672.2698910425
 20
63.5473426086
 30
0.0
 70
         1
  0
VERTEX
  5
466
100
AcDbEntity
  8
L1_115
  6
CONTINUOUS
 62
         7
100
AcDbVertex
100
AcDb2dVertex
 10
1672.3146705021
 20
63.3369188466
 30
0.0
 70
         1
  0
VERTEX
  5
468
100
AcDbEntity
  8
L1_115
  6
CONTINUOUS
 62
         7
100
AcDbVertex
100
AcDb2dVertex
 10
1672.3639644894
 20
63.2442568229
 30
0.0
 70
         1
  0
VERTEX
  5
46A
100
AcDbEntity
  8
L1_115
  6
CONTINUOUS
 62
         7
100
AcDbVertex
100
AcDb2dVertex
 10
1672.4329283035
 20
63.1518783576
 30
0.0
 70
         1
  0
VERTEX
  5
46C
100
AcDbEntity
  8
L1_115
  6
CONTINUOUS
 62
         7
100
AcDbVertex
100
AcDb2dVertex
 10
1672.521932647
 20
63.0613792747
 30
0.0
 70
         1
  0
VERTEX
  5
46E
100
AcDbEntity
  8
L1_115
  6
CONTINUOUS
 62
         7
100
AcDbVertex
100
AcDb2dVertex
 10
1672.6306606124
 20
62.9744282177
 30
0.0
 70
         1
  0
VERTEX
  5
470
100
AcDbEntity
  8
L1_115
  6
CONTINUOUS
 62
         7
100
AcDbVertex
100
AcDb2dVertex
 10
1672.7580606066
 20
62.8926730864
 30
0.0
 70
         1
  0
VERTEX
  5
472
100
AcDbEntity
  8
L1_115
  6
CONTINUOUS
 62
         7
100
AcDbVertex
100
AcDb2dVertex
 10
1672.9023612128
 20
62.8176402438
 30
0.0
 70
         1
  0
VERTEX
  5
474
100
AcDbEntity
  8
L1_115
  6
CONTINUOUS
 62
         7
100
AcDbVertex
100
AcDb2dVertex
 10
1673.0611518114
 20
62.7506385432
 30
0.0
 70
         1
  0
VERTEX
  5
476
100
AcDbEntity
  8
L1_115
  6
CONTINUOUS
 62
         7
100
AcDbVertex
100
AcDb2dVertex
 10
1673.2920792015
 20
62.6750060904
 30
0.0
 70
         1
  0
VERTEX
  5
478
100
AcDbEntity
  8
L1_115
  6
CONTINUOUS
 62
         7
100
AcDbVertex
100
AcDb2dVertex
 10
1673.5360025972
 20
62.6170996632
 30
0.0
 70
         1
  0
VERTEX
  5
47A
100
AcDbEntity
  8
L1_115
  6
CONTINUOUS
 62
         7
100
AcDbVertex
100
AcDb2dVertex
 10
1673.7849034173
 20
62.5771896563
 30
0.0
 70
         1
  0
VERTEX
  5
47C
100
AcDbEntity
  8
L1_115
  6
CONTINUOUS
 62
         7
100
AcDbVertex
100
AcDb2dVertex
 10
1674.1150941338
 20
62.5503423682
 30
0.0
 70
         1
  0
VERTEX
  5
47E
100
AcDbEntity
  8
L1_115
  6
CONTINUOUS
 62
         7
100
AcDbVertex
100
AcDb2dVertex
 10
1674.4265994256
 20
62.5504170242
 30
0.0
 70
         1
  0
VERTEX
  5
480
100
AcDbEntity
  8
L1_115
  6
CONTINUOUS
 62
         7
100
AcDbVertex
100
AcDb2dVertex
 10
1674.7099363312
 20
62.5718478438
 30
0.0
 70
         1
  0
VERTEX
  5
482
100
AcDbEntity
  8
L1_115
  6
CONTINUOUS
 62
         7
100
AcDbVertex
100
AcDb2dVertex
 10
1674.9603815423
 20
62.608830106
 30
0.0
 70
         1
  0
VERTEX
  5
484
100
AcDbEntity
  8
L1_115
  6
CONTINUOUS
 62
         7
100
AcDbVertex
100
AcDb2dVertex
 10
1675.1769671421
 20
62.6561056943
 30
0.0
 70
         1
  0
VERTEX
  5
486
100
AcDbEntity
  8
L1_115
  6
CONTINUOUS
 62
         7
100
AcDbVertex
100
AcDb2dVertex
 10
1675.4188796372
 20
62.7288340244
 30
0.0
 70
         1
  0
VERTEX
  5
488
100
AcDbEntity
  8
L1_115
  6
CONTINUOUS
 62
         7
100
AcDbVertex
100
AcDb2dVertex
 10
1675.6095421361
 20
62.8048240991
 30
0.0
 70
         1
  0
VERTEX
  5
48A
100
AcDbEntity
  8
L1_115
  6
CONTINUOUS
 62
         7
100
AcDbVertex
100
AcDb2dVertex
 10
1675.7579693112
 20
62.8792065696
 30
0.0
 70
         1
  0
VERTEX
  5
48C
100
AcDbEntity
  8
L1_115
  6
CONTINUOUS
 62
         7
100
AcDbVertex
100
AcDb2dVertex
 10
1675.9071277552
 20
62.9730047405
 30
0.0
 70
         1
  0
VERTEX
  5
48E
100
AcDbEntity
  8
L1_115
  6
CONTINUOUS
 62
         7
100
AcDbVertex
100
AcDb2dVertex
 10
1676.0118776834
 20
63.0560477524
 30
0.0
 70
         1
  0
VERTEX
  5
490
100
AcDbEntity
  8
L1_115
  6
CONTINUOUS
 62
         7
100
AcDbVertex
100
AcDb2dVertex
 10
1676.1067334873
 20
63.1517386926
 30
0.0
 70
         1
  0
VERTEX
  5
492
100
AcDbEntity
  8
L1_115
  6
CONTINUOUS
 62
         7
100
AcDbVertex
100
AcDb2dVertex
 10
1676.1819397619
 20
63.2540553369
 30
0.0
 70
         1
  0
VERTEX
  5
494
100
AcDbEntity
  8
L1_115
  6
CONTINUOUS
 62
         7
100
AcDbVertex
100
AcDb2dVertex
 10
1676.2319512381
 20
63.3534871281
 30
0.0
 70
         1
  0
VERTEX
  5
496
100
AcDbEntity
  8
L1_115
  6
CONTINUOUS
 62
         7
100
AcDbVertex
100
AcDb2dVertex
 10
1676.2633154559
 20
63.4663192967
 30
0.0
 70
         1
  0
VERTEX
  5
498
100
AcDbEntity
  8
L1_115
  6
CONTINUOUS
 62
         7
100
AcDbVertex
100
AcDb2dVertex
 10
1676.2698910425
 20
63.5473426086
 30
0.0
 70
         1
  0
VERTEX
  5
49A
100
AcDbEntity
  8
L1_115
  6
CONTINUOUS
 62
         7
100
AcDbVertex
100
AcDb2dVertex
 10
1676.2698910425
 20
63.5473426086
 30
0.0
 70
         1
  0
VERTEX
  5
49C
100
AcDbEntity
  8
L1_115
  6
CONTINUOUS
 62
         7
100
AcDbVertex
100
AcDb2dVertex
 10
1676.225111583
 20
63.7577663705
 30
0.0
 70
         1
  0
VERTEX
  5
49E
100
AcDbEntity
  8
L1_115
  6
CONTINUOUS
 62
         7
100
AcDbVertex
100
AcDb2dVertex
 10
1676.1758175957
 20
63.8504283942
 30
0.0
 70
         1
  0
VERTEX
  5
4A0
100
AcDbEntity
  8
L1_115
  6
CONTINUOUS
 62
         7
100
AcDbVertex
100
AcDb2dVertex
 10
1676.1068537816
 20
63.9428068595
 30
0.0
 70
         1
  0
VERTEX
  5
4A2
100
AcDbEntity
  8
L1_115
  6
CONTINUOUS
 62
         7
100
AcDbVertex
100
AcDb2dVertex
 10
1676.0178494381
 20
64.0333059424
 30
0.0
 70
         1
  0
VERTEX
  5
4A4
100
AcDbEntity
  8
L1_115
  6
CONTINUOUS
 62
         7
100
AcDbVertex
100
AcDb2dVertex
 10
1675.9091214727
 20
64.1202569994
 30
0.0
 70
         1
  0
VERTEX
  5
4A6
100
AcDbEntity
  8
L1_115
  6
CONTINUOUS
 62
         7
100
AcDbVertex
100
AcDb2dVertex
 10
1675.7817214785
 20
64.2020121307
 30
0.0
 70
         1
  0
VERTEX
  5
4A8
100
AcDbEntity
  8
L1_115
  6
CONTINUOUS
 62
         7
100
AcDbVertex
100
AcDb2dVertex
 10
1675.6374208723
 20
64.2770449733
 30
0.0
 70
         1
  0
VERTEX
  5
4AA
100
AcDbEntity
  8
L1_115
  6
CONTINUOUS
 62
         7
100
AcDbVertex
100
AcDb2dVertex
 10
1675.4786302737
 20
64.3440466739
 30
0.0
 70
         1
  0
VERTEX
  5
4AC
100
AcDbEntity
  8
L1_115
  6
CONTINUOUS
 62
         7
100
AcDbVertex
100
AcDb2dVertex
 10
1675.2477028836
 20
64.4196791267
 30
0.0
 70
         1
  0
VERTEX
  5
4AE
100
AcDbEntity
  8
L1_115
  6
CONTINUOUS
 62
         7
100
AcDbVertex
100
AcDb2dVertex
 10
1675.0037794879
 20
64.4775855539
 30
0.0
 70
         1
  0
VERTEX
  5
4B0
100
AcDbEntity
  8
L1_115
  6
CONTINUOUS
 62
         7
100
AcDbVertex
100
AcDb2dVertex
 10
1674.7548786678
 20
64.5174955609
 30
0.0
 70
         1
  0
VERTEX
  5
4B2
100
AcDbEntity
  8
L1_115
  6
CONTINUOUS
 62
         7
100
AcDbVertex
100
AcDb2dVertex
 10
1674.4246879513
 20
64.5443428489
 30
0.0
 70
         1
  0
VERTEX
  5
4B4
100
AcDbEntity
  8
L1_115
  6
CONTINUOUS
 62
         7
100
AcDbVertex
100
AcDb2dVertex
 10
1674.1131826595
 20
64.5442681929
 30
0.0
 70
         1
  0
VERTEX
  5
4B6
100
AcDbEntity
  8
L1_115
  6
CONTINUOUS
 62
         7
100
AcDbVertex
100
AcDb2dVertex
 10
1673.8298457539
 20
64.5228373733
 30
0.0
 70
         1
  0
VERTEX
  5
4B8
100
AcDbEntity
  8
L1_115
  6
CONTINUOUS
 62
         7
100
AcDbVertex
100
AcDb2dVertex
 10
1673.5794005428
 20
64.4858551111
 30
0.0
 70
         1
  0
VERTEX
  5
4BA
100
AcDbEntity
  8
L1_115
  6
CONTINUOUS
 62
         7
100
AcDbVertex
100
AcDb2dVertex
 10
1673.362814943
 20
64.4385795229
 30
0.0
 70
         1
  0
VERTEX
  5
4BC
100
AcDbEntity
  8
L1_115
  6
CONTINUOUS
 62
         7
100
AcDbVertex
100
AcDb2dVertex
 10
1673.1209024479
 20
64.3658511927
 30
0.0
 70
         1
  0
VERTEX
  5
4BE
100
AcDbEntity
  8
L1_115
  6
CONTINUOUS
 62
         7
100
AcDbVertex
100
AcDb2dVertex
 10
1672.930239949
 20
64.289861118
 30
0.0
 70
         1
  0
VERTEX
  5
4C0
100
AcDbEntity
  8
L1_115
  6
CONTINUOUS
 62
         7
100
AcDbVertex
100
AcDb2dVertex
 10
1672.7818127739
 20
64.2154786476
 30
0.0
 70
         1
  0
VERTEX
  5
4C2
100
AcDbEntity
  8
L1_115
  6
CONTINUOUS
 62
         7
100
AcDbVertex
100
AcDb2dVertex
 10
1672.6326543298
 20
64.1216804766
 30
0.0
 70
         1
  0
VERTEX
  5
4C4
100
AcDbEntity
  8
L1_115
  6
CONTINUOUS
 62
         7
100
AcDbVertex
100
AcDb2dVertex
 10
1672.5279044017
 20
64.0386374648
 30
0.0
 70
         1
  0
VERTEX
  5
4C6
100
AcDbEntity
  8
L1_115
  6
CONTINUOUS
 62
         7
100
AcDbVertex
100
AcDb2dVertex
 10
1672.4330485978
 20
63.9429465245
 30
0.0
 70
         1
  0
VERTEX
  5
4C8
100
AcDbEntity
  8
L1_115
  6
CONTINUOUS
 62
         7
100
AcDbVertex
100
AcDb2dVertex
 10
1672.3578423232
 20
63.8406298802
 30
0.0
 70
         1
  0
VERTEX
  5
4CA
100
AcDbEntity
  8
L1_115
  6
CONTINUOUS
 62
         7
100
AcDbVertex
100
AcDb2dVertex
 10
1672.307830847
 20
63.741198089
 30
0.0
 70
         1
  0
VERTEX
  5
4CC
100
AcDbEntity
  8
L1_115
  6
CONTINUOUS
 62
         7
100
AcDbVertex
100
AcDb2dVertex
 10
1672.2764666292
 20
63.6283659204
 30
0.0
 70
         1
  0
VERTEX
  5
4CE
100
AcDbEntity
  8
L1_115
  6
CONTINUOUS
 62
         7
100
AcDbVertex
100
AcDb2dVertex
 10
1672.2698910425
 20
63.5473426086
 30
0.0
 70
         1
  0
SEQEND
  5
4D0
100
AcDbEntity
  8
L1_115
  6
CONTINUOUS
 62
         7
  0
CIRCLE
  5
4D1
100
AcDbEntity
  8
L1_115
  6
CONTINUOUS
 62
         7
100
AcDbCircle
 10
1680.6698910425
 20
74.6716403392
 30
0.0
 40
2.5
  0
LINE
  5
4D2
100
AcDbEntity
  8
L1_115
  6
CENTER
 62
         1
100
AcDbLine
 10
1680.6698910425
 20
67.1998000616
 30
0.0
 11
1680.6698910425
 21
80.9525044662
 31
0.0
  0
LINE
  5
4D3
100
AcDbEntity
  8
L1_115
  6
CENTER
 62
         1
100
AcDbLine
 10
1674.2698910425
 20
56.9961806646
 30
0.0
 11
1674.2698910425
 21
90.7124882372
 31
0.0
  0
LINE
  5
4D4
100
AcDbEntity
  8
L1_115
  6
CENTER
 62
         1
100
AcDbLine
 10
1636.173280476
 20
68.8205785426
 30
0.0
 11
1636.173280476
 21
81.3416279392
 31
0.0
  0
LINE
  5
4D5
100
AcDbEntity
  8
L1_115
  6
CENTER
 62
         1
100
AcDbLine
 10
1649.0695041024
 20
68.8205785426
 30
0.0
 11
1649.0695041024
 21
81.3416279392
 31
0.0
  0
ARC
  5
4D6
100
AcDbEntity
  8
L1_115
  6
CONTINUOUS
 62
         7
100
AcDbCircle
 10
1665.4698910426
 20
89.6716403392
 30
0.0
 40
1.0
100
AcDbArc
 50
0.0
 51
90.0
  0
ARC
  5
4D7
100
AcDbEntity
  8
L1_115
  6
CONTINUOUS
 62
         7
100
AcDbCircle
 10
1665.4698910426
 20
59.6716403392
 30
0.0
 40
1.0
100
AcDbArc
 50
270.0
 51
360.0
  0
LINE
  5
4D8
100
AcDbEntity
  8
L1_115
  6
CONTINUOUS
 62
         4
100
AcDbLine
 10
1668.9698910426
 20
61.9716403392
 30
0.0
 11
1668.9698910426
 21
87.3716403392
 31
0.0
  0
LINE
  5
4D9
100
AcDbEntity
  8
L1_115
  6
CONTINUOUS
 62
         7
100
AcDbLine
 10
1649.0695041024
 20
77.6716403392
 30
0.0
 11
1636.173280476
 21
77.6716403392
 31
0.0
  0
LINE
  5
4DA
100
AcDbEntity
  8
L1_115
  6
CONTINUOUS
 62
         7
100
AcDbLine
 10
1649.0695041024
 20
71.6716403392
 30
0.0
 11
1636.173280476
 21
71.6716403392
 31
0.0
  0
LINE
  5
4DB
100
AcDbEntity
  8
L1_115
  6
CONTINUOUS
 62
         4
100
AcDbLine
 10
1625.4698910426
 20
58.6716403392
 30
0.0
 11
1625.4698910426
 21
90.6716403392
 31
0.0
  0
LINE
  5
4DC
100
AcDbEntity
  8
L1_115
  6
CONTINUOUS
 62
         7
100
AcDbLine
 10
1623.2198910426
 20
89.3726022335
 30
0.0
 11
1625.3538656388
 21
90.6046530411
 31
0.0
  0
LINE
  5
4DD
100
AcDbEntity
  8
L1_115
  6
CONTINUOUS
 62
         7
100
AcDbLine
 10
1623.2198910426
 20
59.9706784449
 30
0.0
 11
1625.3538656388
 21
58.7386276373
 31
0.0
  0
ARC
  5
4DE
100
AcDbEntity
  8
L1_115
  6
CONTINUOUS
 62
         7
100
AcDbCircle
 10
1625.6038656388
 20
90.1716403392
 30
0.0
 40
0.5
100
AcDbArc
 50
90.0
 51
120.0
  0
ARC
  5
4DF
100
AcDbEntity
  8
L1_115
  6
CONTINUOUS
 62
         7
100
AcDbCircle
 10
1623.4698910426
 20
88.9395895316
 30
0.0
 40
0.5
100
AcDbArc
 50
120.0
 51
180.0
  0
ARC
  5
4E0
100
AcDbEntity
  8
L1_115
  6
CONTINUOUS
 62
         7
100
AcDbCircle
 10
1623.4698910426
 20
60.4036911468
 30
0.0
 40
0.5
100
AcDbArc
 50
180.0
 51
240.0
  0
ARC
  5
4E1
100
AcDbEntity
  8
L1_115
  6
CONTINUOUS
 62
         7
100
AcDbCircle
 10
1625.6038656388
 20
59.1716403392
 30
0.0
 40
0.5
100
AcDbArc
 50
240.0
 51
270.0
  0
DIMENSION
  5
4E4
100
AcDbEntity
  8
L1_115
  6
CONTINUOUS
 62
         4
100
AcDbDimension
  2
*D19
 10
1563.2929047648
 20
97.1716403392
 30
0.0
 11
1561.2679047648
 21
69.3679371133
 31
0.0
  3
DIMSTYLE1
100
AcDbAlignedDimension
 13
1553.2359164463
 23
97.1716403392
 33
0.0
 14
1553.2359164463
 24
52.1716403392
 34
0.0
 50
90.0
100
AcDbRotatedDimension
  0
DIMENSION
  5
4F2
100
AcDbEntity
  8
L1_115
  6
CONTINUOUS
 62
         4
100
AcDbDimension
  2
*D20
 10
1524.3698910426
 20
100.1619517155
 30
0.0
 11
1538.3721154891
 21
102.1869517155
 31
0.0
  3
DIMSTYLE1
100
AcDbAlignedDimension
 13
1524.3698910426
 23
96.6716403392
 33
0.0
 14
1556.3698910426
 24
95.8829652046
 34
0.0
100
AcDbRotatedDimension
  0
LINE
  5
4FE
100
AcDbEntity
  8
L1_115
  6
CONTINUOUS
 62
         7
100
AcDbLine
 10
1556.3698910426
 20
53.4603154738
 30
0.0
 11
1556.3698910426
 21
95.8829652046
 31
0.0
  0
LINE
  5
4FF
100
AcDbEntity
  8
L1_115
  6
CONTINUOUS
 62
         7
100
AcDbLine
 10
1554.1019418501
 20
97.1716403392
 30
0.0
 11
1524.8698910426
 21
97.1716403392
 31
0.0
  0
LINE
  5
500
100
AcDbEntity
  8
L1_115
  6
CONTINUOUS
 62
         7
100
AcDbLine
 10
1524.3698910426
 20
96.6716403392
 30
0.0
 11
1524.8698910426
 21
97.1716403392
 31
0.0
  0
LINE
  5
501
100
AcDbEntity
  8
L1_115
  6
CONTINUOUS
 62
         7
100
AcDbLine
 10
1524.3698910426
 20
52.6716403392
 30
0.0
 11
1524.3698910426
 21
96.6716403392
 31
0.0
  0
LINE
  5
502
100
AcDbEntity
  8
L1_115
  6
CONTINUOUS
 62
         7
100
AcDbLine
 10
1554.1019418501
 20
52.1716403392
 30
0.0
 11
1524.8698910426
 21
52.1716403392
 31
0.0
  0
LINE
  5
503
100
AcDbEntity
  8
L1_115
  6
CONTINUOUS
 62
         7
100
AcDbLine
 10
1524.3698910426
 20
52.6716403392
 30
0.0
 11
1524.8698910426
 21
52.1716403392
 31
0.0
  0
LINE
  5
504
100
AcDbEntity
  8
L1_115
  6
CONTINUOUS
 62
         4
100
AcDbLine
 10
1524.8698910426
 20
97.1716403392
 30
0.0
 11
1524.8698910426
 21
52.1716403392
 31
0.0
  0
ARC
  5
505
100
AcDbEntity
  8
L1_115
  6
CONTINUOUS
 62
         7
100
AcDbCircle
 10
1554.1019418501
 20
95.1716403392
 30
0.0
 40
2.0
100
AcDbArc
 50
60.0
 51
90.0
  0
LINE
  5
506
100
AcDbEntity
  8
L1_115
  6
CONTINUOUS
 62
         7
100
AcDbLine
 10
1555.1019418501
 20
96.9036911468
 30
0.0
 11
1556.1198910426
 21
96.3159779065
 31
0.0
  0
ARC
  5
507
100
AcDbEntity
  8
L1_115
  6
CONTINUOUS
 62
         7
100
AcDbCircle
 10
1555.8698910426
 20
95.8829652046
 30
0.0
 40
0.5
100
AcDbArc
 50
0.0
 51
60.0
  0
ARC
  5
508
100
AcDbEntity
  8
L1_115
  6
CONTINUOUS
 62
         7
100
AcDbCircle
 10
1555.8698910426
 20
53.4603154738
 30
0.0
 40
0.5
100
AcDbArc
 50
300.0
 51
360.0
  0
LINE
  5
509
100
AcDbEntity
  8
L1_115
  6
CONTINUOUS
 62
         7
100
AcDbLine
 10
1555.1019418501
 20
52.4395895316
 30
0.0
 11
1556.1198910426
 21
53.0273027719
 31
0.0
  0
ARC
  5
50A
100
AcDbEntity
  8
L1_115
  6
CONTINUOUS
 62
         7
100
AcDbCircle
 10
1554.1019418501
 20
54.1716403392
 30
0.0
 40
2.0
100
AcDbArc
 50
270.0
 51
300.0
  0
LINE
  5
50B
100
AcDbEntity
  8
L1_115
  6
CONTINUOUS
 62
         4
100
AcDbLine
 10
1554.637840235
 20
52.2447742512
 30
0.0
 11
1554.637840235
 21
97.0985064272
 31
0.0
  0
DIMENSION
  5
50E
100
AcDbEntity
  8
L1_115
  6
CONTINUOUS
 62
         4
100
AcDbDimension
  2
*D21
 10
1578.50978776
 20
82.1716403392
 30
0.0
 11
1576.48478776
 21
68.7209378147
 31
0.0
  3
DIMSTYLE1
100
AcDbAlignedDimension
 13
1580.3698910426
 23
82.1716403392
 33
0.0
 14
1580.3698910426
 24
67.1716403392
 34
0.0
 50
90.0
100
AcDbRotatedDimension
  0
DIMENSION
  5
51C
100
AcDbEntity
  8
L1_115
  6
CONTINUOUS
 62
         4
100
AcDbDimension
  2
*D22
 10
1602.4647948446
 20
84.0716403392
 30
0.0
 11
1600.4397948446
 21
66.5177922205
 31
0.0
  3
DIMSTYLE1
100
AcDbAlignedDimension
 13
1595.2698910425
 23
84.0716403392
 33
0.0
 14
1595.2698910425
 24
65.2716403392
 34
0.0
 50
90.0
100
AcDbRotatedDimension
  0
DIMENSION
  5
52A
100
AcDbEntity
  8
L1_115
  6
CONTINUOUS
 62
         4
100
AcDbDimension
  2
*D23
 10
1595.7698910425
 20
86.6452788001
 30
0.0
 11
1582.772247368
 21
88.6702788001
 31
0.0
  3
DIMSTYLE1
100
AcDbAlignedDimension
 13
1595.7698910425
 23
83.5716403392
 33
0.0
 14
1580.2698910425
 24
82.0716403392
 34
0.0
100
AcDbRotatedDimension
  0
LINE
  5
536
100
AcDbEntity
  8
L1_115
  6
CONTINUOUS
 62
         7
100
AcDbLine
 10
1580.2698910425
 20
67.6716403392
 30
0.0
 11
1580.2698910425
 21
81.6716403392
 31
0.0
  0
ARC
  5
537
100
AcDbEntity
  8
L1_115
  6
CONTINUOUS
 62
         7
100
AcDbCircle
 10
1590.2698910425
 20
82.6716403392
 30
0.0
 40
0.5
100
AcDbArc
 50
270.0
 51
360.0
  0
LINE
  5
538
100
AcDbEntity
  8
L1_115
  6
CONTINUOUS
 62
         7
100
AcDbLine
 10
1590.7698910425
 20
65.4716403392
 30
0.0
 11
1590.7698910425
 21
83.8716403392
 31
0.0
  0
LINE
  5
539
100
AcDbEntity
  8
L1_115
  6
CONTINUOUS
 62
         7
100
AcDbLine
 10
1590.2698910425
 20
82.1716403392
 30
0.0
 11
1580.7698910425
 21
82.1716403392
 31
0.0
  0
LINE
  5
53A
100
AcDbEntity
  8
L1_115
  6
CONTINUOUS
 62
         7
100
AcDbLine
 10
1590.2698910425
 20
67.1716403392
 30
0.0
 11
1580.7698910425
 21
67.1716403392
 31
0.0
  0
ARC
  5
53B
100
AcDbEntity
  8
L1_115
  6
CONTINUOUS
 62
         7
100
AcDbCircle
 10
1590.2698910425
 20
66.6716403392
 30
0.0
 40
0.5
100
AcDbArc
 50
0.0
 51
90.0
  0
LINE
  5
53C
100
AcDbEntity
  8
L1_115
  6
CONTINUOUS
 62
         7
100
AcDbLine
 10
1595.2698910425
 20
84.0716403392
 30
0.0
 11
1590.9698910426
 21
84.0716403392
 31
0.0
  0
LINE
  5
53D
100
AcDbEntity
  8
L1_115
  6
CONTINUOUS
 62
         7
100
AcDbLine
 10
1595.2698910425
 20
84.0716403392
 30
0.0
 11
1595.7698910425
 21
83.5716403392
 31
0.0
  0
LINE
  5
53E
100
AcDbEntity
  8
L1_115
  6
CONTINUOUS
 62
         7
100
AcDbLine
 10
1595.7698910425
 20
65.7716403392
 30
0.0
 11
1595.7698910425
 21
83.5716403392
 31
0.0
  0
LINE
  5
53F
100
AcDbEntity
  8
L1_115
  6
CONTINUOUS
 62
         7
100
AcDbLine
 10
1595.2698910425
 20
65.2716403392
 30
0.0
 11
1590.9698910426
 21
65.2716403392
 31
0.0
  0
LINE
  5
540
100
AcDbEntity
  8
L1_115
  6
CONTINUOUS
 62
         7
100
AcDbLine
 10
1595.7698910425
 20
65.7716403392
 30
0.0
 11
1595.2698910425
 21
65.2716403392
 31
0.0
  0
LINE
  5
541
100
AcDbEntity
  8
L1_115
  6
CONTINUOUS
 62
         4
100
AcDbLine
 10
1595.2698910425
 20
84.0716403392
 30
0.0
 11
1595.2698910425
 21
65.2716403392
 31
0.0
  0
LINE
  5
542
100
AcDbEntity
  8
L1_115
  6
CONTINUOUS
 62
         4
100
AcDbLine
 10
1590.2698910425
 20
82.1716403392
 30
0.0
 11
1590.2698910425
 21
67.1716403392
 31
0.0
  0
LINE
  5
543
100
AcDbEntity
  8
L1_115
  6
CONTINUOUS
 62
         7
100
AcDbLine
 10
1580.2698910425
 20
81.6716403392
 30
0.0
 11
1580.7698910425
 21
82.1716403392
 31
0.0
  0
LINE
  5
544
100
AcDbEntity
  8
L1_115
  6
CONTINUOUS
 62
         7
100
AcDbLine
 10
1580.2698910425
 20
67.6716403392
 30
0.0
 11
1580.7698910425
 21
67.1716403392
 31
0.0
  0
LINE
  5
545
100
AcDbEntity
  8
L1_115
  6
CONTINUOUS
 62
         7
100
AcDbLine
 10
1590.7698910425
 20
83.8716403392
 30
0.0
 11
1590.9698910426
 21
84.0716403392
 31
0.0
  0
LINE
  5
546
100
AcDbEntity
  8
L1_115
  6
CONTINUOUS
 62
         7
100
AcDbLine
 10
1590.7698910425
 20
65.4716403392
 30
0.0
 11
1590.9698910426
 21
65.2716403392
 31
0.0
  0
LINE
  5
547
100
AcDbEntity
  8
L1_115
  6
CONTINUOUS
 62
         4
100
AcDbLine
 10
1580.7698910425
 20
67.1716403392
 30
0.0
 11
1580.7698910425
 21
82.1716403392
 31
0.0
  0
LINE
  5
548
100
AcDbEntity
  8
L1_115
  6
CONTINUOUS
 62
         4
100
AcDbLine
 10
1590.9698910426
 20
65.2716403392
 30
0.0
 11
1590.9698910426
 21
84.0716403392
 31
0.0
  0
LINE
  5
549
100
AcDbEntity
  8
L1_115
  6
CONTINUOUS
 62
         4
100
AcDbLine
 10
1665.4698910426
 20
90.6716403392
 30
0.0
 11
1665.4698910426
 21
58.6716403392
 31
0.0
  0
LINE
  5
54A
100
AcDbEntity
  8
L1_115
  6
CONTINUOUS
 62
         7
100
AcDbLine
 10
1739.3798910426
 20
65.2716403392
 30
0.0
 11
1739.3798910426
 21
84.0716403392
 31
0.0
  0
DIMENSION
  5
54D
100
AcDbEntity
  8
L1_115
  6
CONTINUOUS
 62
         4
100
AcDbDimension
  2
*D24
 10
1595.0860026253
 20
-60.3118285165
 30
0.0
 11
1588.2860026253
 21
-58.2868285165
 31
0.0
  3
DIMSTYLE1
100
AcDbAlignedDimension
 13
1595.0860026253
 23
-53.1673461906
 33
0.0
 14
1589.5860026253
 24
-53.1673461906
 34
0.0
100
AcDbRotatedDimension
  0
DIMENSION
  5
55D
100
AcDbEntity
  8
L1_115
  6
CONTINUOUS
 62
         4
100
AcDbDimension
  2
*D25
 10
1535.403729122
 20
-44.1673461906
 30
0.0
 11
1533.378729122
 21
-53.9173461906
 31
0.0
  3
DIMSTYLE1
100
AcDbAlignedDimension
 13
1543.8360026253
 23
-44.1673461906
 33
0.0
 14
1543.8360026253
 24
-50.1673461906
 34
0.0
 50
90.0
100
AcDbRotatedDimension
  0
DIMENSION
  5
56D
100
AcDbEntity
  8
L1_115
  6
CONTINUOUS
 62
         4
100
AcDbDimension
  2
*D26
 10
1636.1055794989
 20
-47.8568693787
 30
0.0
 11
1644.0235708215
 21
-44.0976240811
 31
0.0
 70
         3
  3
DIMSTYLE1
100
AcDbDiametricDimension
 15
1640.6635258667
 25
-46.4778230024
 35
0.0
 40
0.0
  0
DIMENSION
  5
57A
100
AcDbEntity
  8
L1_115
  6
CONTINUOUS
 62
         4
100
AcDbDimension
  2
*D27
 10
1708.6557541872
 20
-26.0763742886
 30
0.0
 11
1707.8057541872
 21
-24.0513742886
 31
0.0
  3
DIMSTYLE1
100
AcDbAlignedDimension
 13
1708.6557541872
 23
-36.9173461906
 33
0.0
 14
1709.6557541872
 24
-36.9173461906
 34
0.0
100
AcDbRotatedDimension
  0
DIMENSION
  5
58A
100
AcDbEntity
  8
L1_115
  6
CONTINUOUS
 62
         4
100
AcDbDimension
  2
*D28
 10
1786.952421104
 20
-33.5256447877
 30
0.0
 11
1789.7829720006
 21
-35.7853710345
 31
0.0
 70
         3
  3
DIMSTYLE1
100
AcDbDiametricDimension
 15
1787.7288728012
 25
-34.8090475935
 35
0.0
 40
0.0
  0
DIMENSION
  5
597
100
AcDbEntity
  8
L1_115
  6
CONTINUOUS
 62
         4
100
AcDbDimension
  2
*D29
 10
1758.3686609905
 20
-36.9788012478
 30
0.0
 11
1762.3190184532
 21
-39.2328168091
 31
0.0
 70
         3
  3
DIMSTYLE1
100
AcDbDiametricDimension
 15
1759.4126329147
 25
-38.0558911333
 35
0.0
 40
0.0
  0
DIMENSION
  5
5A4
100
AcDbEntity
  8
L1_115
  6
CONTINUOUS
 62
         4
100
AcDbDimension
  2
*D30
 10
1737.1204858141
 20
-25.7847655972
 30
0.0
 11
1740.160245307
 21
-28.9430814008
 31
0.0
 70
         3
  3
DIMSTYLE1
100
AcDbDiametricDimension
 15
1738.0608080912
 25
-27.5499267839
 35
0.0
 40
0.0
  0
CIRCLE
  5
5AF
100
AcDbEntity
  8
L1_115
  6
CONTINUOUS
 62
         7
100
AcDbCircle
 10
1638.3845526828
 20
-47.1673461906
 30
0.0
 40
2.381
  0
CIRCLE
  5
5B0
100
AcDbEntity
  8
L1_115
  6
CONTINUOUS
 62
         7
100
AcDbCircle
 10
1787.3406469526
 20
-60.1673461906
 30
0.0
 40
0.75
  0
LINE
  5
5B1
100
AcDbEntity
  8
L1_115
  6
CONTINUOUS
 62
         7
100
AcDbLine
 10
1788.0906469526
 20
-60.1673461906
 30
0.0
 11
1788.0906469526
 21
-34.1673461906
 31
0.0
  0
CIRCLE
  5
5B2
100
AcDbEntity
  8
L1_115
  6
CONTINUOUS
 62
         7
100
AcDbCircle
 10
1787.3406469526
 20
-34.1673461906
 30
0.0
 40
0.75
  0
LINE
  5
5B3
100
AcDbEntity
  8
L1_115
  6
CONTINUOUS
 62
         7
100
AcDbLine
 10
1786.5906469526
 20
-60.1673461906
 30
0.0
 11
1786.5906469526
 21
-34.1673461906
 31
0.0
  0
DIMENSION
  5
5B6
100
AcDbEntity
  8
L1_115
  6
CONTINUOUS
 62
         4
100
AcDbDimension
  2
*D31
 10
1783.2356743965
 20
-33.4173461906
 30
0.0
 11
1781.2106743965
 21
-55.2673461906
 31
0.0
  3
DIMSTYLE1
100
AcDbAlignedDimension
 13
1787.3406469526
 23
-33.4173461906
 33
0.0
 14
1787.3406469526
 24
-60.9173461906
 34
0.0
 50
90.0
100
AcDbRotatedDimension
  0
CIRCLE
  5
5C2
100
AcDbEntity
  8
L1_115
  6
CONTINUOUS
 62
         7
100
AcDbCircle
 10
1758.8906469526
 20
-37.5173461906
 30
0.0
 40
0.75
  0
CIRCLE
  5
5C3
100
AcDbEntity
  8
L1_115
  6
CONTINUOUS
 62
         7
100
AcDbCircle
 10
1758.8906469526
 20
-56.8173461906
 30
0.0
 40
0.75
  0
LINE
  5
5C4
100
AcDbEntity
  8
L1_115
  6
CONTINUOUS
 62
         7
100
AcDbLine
 10
1758.1406469526
 20
-56.8173461906
 30
0.0
 11
1758.1406469526
 21
-37.5173461906
 31
0.0
  0
LINE
  5
5C5
100
AcDbEntity
  8
L1_115
  6
CONTINUOUS
 62
         7
100
AcDbLine
 10
1759.6406469526
 20
-56.8173461906
 30
0.0
 11
1759.6406469526
 21
-37.5173461906
 31
0.0
  0
DIMENSION
  5
5C8
100
AcDbEntity
  8
L1_115
  6
CONTINUOUS
 62
         4
100
AcDbDimension
  2
*D32
 10
1754.9573005903
 20
-36.7673461906
 30
0.0
 11
1752.9323005903
 21
-52.5673461906
 31
0.0
  3
DIMSTYLE1
100
AcDbAlignedDimension
 13
1758.8906469526
 23
-36.7673461906
 33
0.0
 14
1758.8906469526
 24
-57.5673461906
 34
0.0
 50
90.0
100
AcDbRotatedDimension
  0
DIMENSION
  5
5D6
100
AcDbEntity
  8
L1_115
  6
CONTINUOUS
 62
         4
100
AcDbDimension
  2
*D33
 10
1602.120232428
 20
-40.6673461906
 30
0.0
 11
1600.095232428
 21
-52.7479285959
 31
0.0
  3
DIMSTYLE1
100
AcDbAlignedDimension
 13
1594.5860026253
 23
-40.6673461906
 33
0.0
 14
1594.5860026253
 24
-53.6673461906
 34
0.0
 50
90.0
100
AcDbRotatedDimension
  0
DIMENSION
  5
5E4
100
AcDbEntity
  8
L1_115
  6
CONTINUOUS
 62
         4
100
AcDbDimension
  2
*D34
 10
1608.1854088336
 20
-38.8442930653
 30
0.0
 11
1598.3448099104
 21
-36.8192930653
 31
0.0
  3
DIMSTYLE1
100
AcDbAlignedDimension
 13
1608.1854088336
 23
-47.1673461906
 33
0.0
 14
1612.8042109871
 24
-47.1673461906
 34
0.0
100
AcDbRotatedDimension
  0
LINE
  5
5F0
100
AcDbEntity
  8
L1_115
  6
CONTINUOUS
 62
         7
100
AcDbLine
 10
1611.6495104488
 20
-49.1673461906
 30
0.0
 11
1612.8042109871
 21
-47.1673461906
 31
0.0
  0
LINE
  5
5F1
100
AcDbEntity
  8
L1_115
  6
CONTINUOUS
 62
         7
100
AcDbLine
 10
1612.8042109871
 20
-47.1673461906
 30
0.0
 11
1611.6495104488
 21
-45.1673461906
 31
0.0
  0
LINE
  5
5F2
100
AcDbEntity
  8
L1_115
  6
CONTINUOUS
 62
         7
100
AcDbLine
 10
1611.6495104488
 20
-45.1673461906
 30
0.0
 11
1609.340109372
 21
-45.1673461906
 31
0.0
  0
LINE
  5
5F3
100
AcDbEntity
  8
L1_115
  6
CONTINUOUS
 62
         7
100
AcDbLine
 10
1609.340109372
 20
-45.1673461906
 30
0.0
 11
1608.1854088336
 21
-47.1673461906
 31
0.0
  0
LINE
  5
5F4
100
AcDbEntity
  8
L1_115
  6
CONTINUOUS
 62
         7
100
AcDbLine
 10
1608.1854088336
 20
-47.1673461906
 30
0.0
 11
1609.340109372
 21
-49.1673461906
 31
0.0
  0
LINE
  5
5F5
100
AcDbEntity
  8
L1_115
  6
CONTINUOUS
 62
         7
100
AcDbLine
 10
1609.340109372
 20
-49.1673461906
 30
0.0
 11
1611.6495104488
 21
-49.1673461906
 31
0.0
  0
DIMENSION
  5
5F8
100
AcDbEntity
  8
L1_115
  6
CONTINUOUS
 62
         4
100
AcDbDimension
  2
*D35
 10
1619.3390484307
 20
-45.1673461906
 30
0.0
 11
1617.3140484307
 21
-48.5173461906
 31
0.0
  3
DIMSTYLE1
100
AcDbAlignedDimension
 13
1611.6495104488
 23
-45.1673461906
 33
0.0
 14
1611.6495104488
 24
-49.1673461906
 34
0.0
 50
90.0
100
AcDbRotatedDimension
  0
DIMENSION
  5
606
100
AcDbEntity
  8
L1_115
  6
CONTINUOUS
 62
         4
100
AcDbDimension
  2
*D36
 10
1554.5860026253
 20
-37.7677395272
 30
0.0
 11
1568.1941079063
 21
-35.7427395272
 31
0.0
  3
DIMSTYLE1
100
AcDbAlignedDimension
 13
1554.5860026253
 23
-44.1673461906
 33
0.0
 14
1589.5860026253
 24
-41.1673461906
 34
0.0
100
AcDbRotatedDimension
  0
LINE
  5
612
100
AcDbEntity
  8
L1_115
  6
CENTER
 62
         1
100
AcDbLine
 10
1804.2482519614
 20
-47.1673461906
 30
0.0
 11
1519.1599727131
 21
-47.1673461906
 31
0.0
  0
DIMENSION
  5
615
100
AcDbEntity
  8
L1_115
  6
CONTINUOUS
 62
         4
100
AcDbDimension
  2
*D37
 10
1665.7360260225
 20
-48.4597477148
 30
0.0
 11
1675.7414457631
 21
-44.2844678035
 31
0.0
 70
         3
  3
DIMSTYLE1
100
AcDbDiametricDimension
 15
1674.9036003036
 25
-45.8749446663
 35
0.0
 40
0.0
  0
LINE
  5
620
100
AcDbEntity
  8
L1_115
  6
CONTINUOUS
 62
         7
100
AcDbLine
 10
1736.5906469526
 20
-67.6673461906
 30
0.0
 11
1736.5906469526
 21
-26.6673461906
 31
0.0
  0
LINE
  5
621
100
AcDbEntity
  8
L1_115
  6
CONTINUOUS
 62
         7
100
AcDbLine
 10
1738.5906469526
 20
-67.6673461906
 30
0.0
 11
1738.5906469526
 21
-26.6673461906
 31
0.0
  0
CIRCLE
  5
622
100
AcDbEntity
  8
L1_115
  6
CONTINUOUS
 62
         7
100
AcDbCircle
 10
1737.5906469526
 20
-67.6673461906
 30
0.0
 40
1.0
  0
CIRCLE
  5
623
100
AcDbEntity
  8
L1_115
  6
CONTINUOUS
 62
         7
100
AcDbCircle
 10
1737.5906469526
 20
-26.6673461906
 30
0.0
 40
1.0
  0
DIMENSION
  5
626
100
AcDbEntity
  8
L1_115
  6
CONTINUOUS
 62
         4
100
AcDbDimension
  2
*D38
 10
1701.5813020942
 20
-36.9173461906
 30
0.0
 11
1699.5563020942
 21
-55.2673461906
 31
0.0
  3
DIMSTYLE1
100
AcDbAlignedDimension
 13
1708.6557541872
 23
-36.9173461906
 33
0.0
 14
1708.6557541872
 24
-57.4173461906
 34
0.0
 50
90.0
100
AcDbRotatedDimension
  0
TEXT
  5
633
100
AcDbEntity
  8
L1_115
  6
CONTINUOUS
 62
         4
100
AcDbText
 10
1699.1836087178
 20
-38.1256790198
 30
0.0
 40
1.7
  1
%%p 0.2
 50
90.0
  7
BOX
100
AcDbText
  0
DIMENSION
  5
636
100
AcDbEntity
  8
L1_115
  6
CONTINUOUS
 62
         4
100
AcDbDimension
  2
*D39
 10
1728.3231159118
 20
-25.6673461906
 30
0.0
 11
1726.2981159118
 21
-52.5673461906
 31
0.0
  3
DIMSTYLE1
100
AcDbAlignedDimension
 13
1737.5906469526
 23
-25.6673461906
 33
0.0
 14
1737.5906469526
 24
-68.6673461906
 34
0.0
 50
90.0
100
AcDbRotatedDimension
  0
TEXT
  5
643
100
AcDbEntity
  8
L1_115
  6
CONTINUOUS
 62
         4
100
AcDbText
 10
1711.6978228396
 20
-23.6390874607
 30
0.0
 40
1.7
  1
%%p 0.05
  7
BOX
100
AcDbText
  0
LINE
  5
644
100
AcDbEntity
  8
L1_115
  6
CONTINUOUS
 62
         7
100
AcDbLine
 10
1708.6557541872
 20
-57.4173461906
 30
0.0
 11
1708.6557541872
 21
-36.9173461906
 31
0.0
  0
LINE
  5
645
100
AcDbEntity
  8
L1_115
  6
CONTINUOUS
 62
         7
100
AcDbLine
 10
1709.6557541872
 20
-57.4173461906
 30
0.0
 11
1709.6557541872
 21
-36.9173461906
 31
0.0
  0
LINE
  5
646
100
AcDbEntity
  8
L1_115
  6
CONTINUOUS
 62
         7
100
AcDbLine
 10
1709.6557541872
 20
-57.4173461906
 30
0.0
 11
1708.6557541872
 21
-57.4173461906
 31
0.0
  0
LINE
  5
647
100
AcDbEntity
  8
L1_115
  6
CONTINUOUS
 62
         7
100
AcDbLine
 10
1709.6557541872
 20
-36.9173461906
 30
0.0
 11
1708.6557541872
 21
-36.9173461906
 31
0.0
  0
LINE
  5
648
100
AcDbEntity
  8
L1_115
  6
CONTINUOUS
 62
         7
100
AcDbLine
 10
1709.6557541872
 20
-54.9173461906
 30
0.0
 11
1708.6557541872
 21
-54.9173461906
 31
0.0
  0
LINE
  5
649
100
AcDbEntity
  8
L1_115
  6
CONTINUOUS
 62
         7
100
AcDbLine
 10
1709.6557541872
 20
-39.4173461906
 30
0.0
 11
1708.6557541872
 21
-39.4173461906
 31
0.0
  0
DIMENSION
  5
64C
100
AcDbEntity
  8
L1_115
  6
CONTINUOUS
 62
         4
100
AcDbDimension
  2
*D40
 10
1567.5918310253
 20
-43.1918461906
 30
0.0
 11
1565.5668310253
 21
-56.6173461906
 31
0.0
  3
DIMSTYLE1
100
AcDbAlignedDimension
 13
1555.5615026253
 23
-43.1918461906
 33
0.0
 14
1555.5615026253
 24
-51.1428461906
 34
0.0
 50
90.0
100
AcDbRotatedDimension
  0
DIMENSION
  5
65A
100
AcDbEntity
  8
L1_115
  6
CONTINUOUS
 62
         4
100
AcDbDimension
  2
*D41
 10
1543.3360026253
 20
-57.8803260998
 30
0.0
 11
1542.2110026253
 21
-55.8553260998
 31
0.0
  3
DIMSTYLE1
100
AcDbAlignedDimension
 13
1543.3360026253
 23
-49.6673461906
 33
0.0
 14
1554.5860026253
 24
-50.1673461906
 34
0.0
100
AcDbRotatedDimension
  0
LINE
  5
666
100
AcDbEntity
  8
L1_115
  6
CONTINUOUS
 62
         4
100
AcDbLine
 10
1590.0860026253
 20
-40.6673461906
 30
0.0
 11
1590.0860026253
 21
-53.6673461906
 31
0.0
  0
LINE
  5
667
100
AcDbEntity
  8
L1_115
  6
CONTINUOUS
 62
         4
100
AcDbLine
 10
1594.5860026253
 20
-40.6673461906
 30
0.0
 11
1594.5860026253
 21
-53.6673461906
 31
0.0
  0
LINE
  5
668
100
AcDbEntity
  8
L1_115
  6
CONTINUOUS
 62
         7
100
AcDbLine
 10
1589.5860026253
 20
-51.1428461906
 30
0.0
 11
1555.5615026253
 21
-51.1428461906
 31
0.0
  0
LINE
  5
669
100
AcDbEntity
  8
L1_115
  6
CONTINUOUS
 62
         7
100
AcDbLine
 10
1589.5860026253
 20
-43.1918461906
 30
0.0
 11
1555.5615026253
 21
-43.1918461906
 31
0.0
  0
LINE
  5
66A
100
AcDbEntity
  8
L1_115
  6
CONTINUOUS
 62
         7
100
AcDbLine
 10
1595.0860026253
 20
-41.1673461906
 30
0.0
 11
1594.5860026253
 21
-40.6673461906
 31
0.0
  0
LINE
  5
66B
100
AcDbEntity
  8
L1_115
  6
CONTINUOUS
 62
         7
100
AcDbLine
 10
1594.5860026253
 20
-40.6673461906
 30
0.0
 11
1590.0860026253
 21
-40.6673461906
 31
0.0
  0
LINE
  5
66C
100
AcDbEntity
  8
L1_115
  6
CONTINUOUS
 62
         7
100
AcDbLine
 10
1595.0860026253
 20
-53.1673461906
 30
0.0
 11
1595.0860026253
 21
-41.1673461906
 31
0.0
  0
LINE
  5
66D
100
AcDbEntity
  8
L1_115
  6
CONTINUOUS
 62
         7
100
AcDbLine
 10
1595.0860026253
 20
-53.1673461906
 30
0.0
 11
1594.5860026253
 21
-53.6673461906
 31
0.0
  0
LINE
  5
66E
100
AcDbEntity
  8
L1_115
  6
CONTINUOUS
 62
         7
100
AcDbLine
 10
1594.5860026253
 20
-53.6673461906
 30
0.0
 11
1590.0860026253
 21
-53.6673461906
 31
0.0
  0
LINE
  5
66F
100
AcDbEntity
  8
L1_115
  6
CONTINUOUS
 62
         7
100
AcDbLine
 10
1589.5860026253
 20
-53.1673461906
 30
0.0
 11
1590.0860026253
 21
-53.6673461906
 31
0.0
  0
LINE
  5
670
100
AcDbEntity
  8
L1_115
  6
CONTINUOUS
 62
         7
100
AcDbLine
 10
1589.5860026253
 20
-53.1673461906
 30
0.0
 11
1589.5860026253
 21
-41.1673461906
 31
0.0
  0
LINE
  5
671
100
AcDbEntity
  8
L1_115
  6
CONTINUOUS
 62
         7
100
AcDbLine
 10
1590.0860026253
 20
-40.6673461906
 30
0.0
 11
1589.5860026253
 21
-41.1673461906
 31
0.0
  0
LINE
  5
672
100
AcDbEntity
  8
L1_115
  6
CONTINUOUS
 62
         4
100
AcDbLine
 10
1554.5860026253
 20
-49.6673461906
 30
0.0
 11
1543.3360026253
 21
-49.6673461906
 31
0.0
  0
LINE
  5
673
100
AcDbEntity
  8
L1_115
  6
CONTINUOUS
 62
         4
100
AcDbLine
 10
1554.5860026253
 20
-44.6673461906
 30
0.0
 11
1543.3360026253
 21
-44.6673461906
 31
0.0
  0
LINE
  5
674
100
AcDbEntity
  8
L1_115
  6
CONTINUOUS
 62
         7
100
AcDbLine
 10
1554.5860026253
 20
-50.1673461906
 30
0.0
 11
1543.8360026253
 21
-50.1673461906
 31
0.0
  0
LINE
  5
675
100
AcDbEntity
  8
L1_115
  6
CONTINUOUS
 62
         7
100
AcDbLine
 10
1543.8360026253
 20
-50.1673461906
 30
0.0
 11
1543.3360026253
 21
-49.6673461906
 31
0.0
  0
LINE
  5
676
100
AcDbEntity
  8
L1_115
  6
CONTINUOUS
 62
         7
100
AcDbLine
 10
1543.3360026253
 20
-49.6673461906
 30
0.0
 11
1543.3360026253
 21
-44.6673461906
 31
0.0
  0
LINE
  5
677
100
AcDbEntity
  8
L1_115
  6
CONTINUOUS
 62
         7
100
AcDbLine
 10
1543.8360026253
 20
-44.1673461906
 30
0.0
 11
1543.3360026253
 21
-44.6673461906
 31
0.0
  0
LINE
  5
678
100
AcDbEntity
  8
L1_115
  6
CONTINUOUS
 62
         7
100
AcDbLine
 10
1554.5860026253
 20
-44.1673461906
 30
0.0
 11
1543.8360026253
 21
-44.1673461906
 31
0.0
  0
LINE
  5
679
100
AcDbEntity
  8
L1_115
  6
CONTINUOUS
 62
         4
100
AcDbLine
 10
1555.5615026253
 20
-43.1918461906
 30
0.0
 11
1555.5615026253
 21
-51.1428461906
 31
0.0
  0
LINE
  5
67A
100
AcDbEntity
  8
L1_115
  6
CONTINUOUS
 62
         7
100
AcDbLine
 10
1554.5860026253
 20
-50.1673461906
 30
0.0
 11
1554.5860026253
 21
-44.1673461906
 31
0.0
  0
LINE
  5
67B
100
AcDbEntity
  8
L1_115
  6
CONTINUOUS
 62
         7
100
AcDbLine
 10
1555.5615026253
 20
-51.1428461906
 30
0.0
 11
1554.5860026253
 21
-50.1673461906
 31
0.0
  0
LINE
  5
67C
100
AcDbEntity
  8
L1_115
  6
CONTINUOUS
 62
         7
100
AcDbLine
 10
1555.5615026253
 20
-43.1918461906
 30
0.0
 11
1554.5860026253
 21
-44.1673461906
 31
0.0
  0
CIRCLE
  5
67D
100
AcDbEntity
  8
L1_115
  6
CONTINUOUS
 62
         7
100
AcDbCircle
 10
1670.3198131631
 20
-47.1673461906
 30
0.0
 40
4.7625
  0
LINE
  5
67E
100
AcDbEntity
  8
L1_115
  6
CENTER
 62
         1
100
AcDbLine
 10
1725.2585650591
 20
13.8726690273
 30
0.0
 11
1609.6921568472
 21
13.8726690273
 31
0.0
  0
CIRCLE
  5
67F
100
AcDbEntity
  8
L1_115
  6
CONTINUOUS
 62
         7
100
AcDbCircle
 10
1708.5729112399
 20
19.6726690273
 30
0.0
 40
0.6
  0
CIRCLE
  5
680
100
AcDbEntity
  8
L1_115
  6
CONTINUOUS
 62
         7
100
AcDbCircle
 10
1707.3729112399
 20
19.6726690273
 30
0.0
 40
0.6
  0
CIRCLE
  5
681
100
AcDbEntity
  8
L1_115
  6
CONTINUOUS
 62
         7
100
AcDbCircle
 10
1706.1729112399
 20
19.6726690273
 30
0.0
 40
0.6
  0
CIRCLE
  5
682
100
AcDbEntity
  8
L1_115
  6
CONTINUOUS
 62
         7
100
AcDbCircle
 10
1704.9729112399
 20
19.6726690273
 30
0.0
 40
0.6
  0
CIRCLE
  5
683
100
AcDbEntity
  8
L1_115
  6
CONTINUOUS
 62
         7
100
AcDbCircle
 10
1703.7729112399
 20
19.6726690273
 30
0.0
 40
0.6
  0
CIRCLE
  5
684
100
AcDbEntity
  8
L1_115
  6
CONTINUOUS
 62
         7
100
AcDbCircle
 10
1702.5729112399
 20
19.6726690273
 30
0.0
 40
0.6
  0
CIRCLE
  5
685
100
AcDbEntity
  8
L1_115
  6
CONTINUOUS
 62
         7
100
AcDbCircle
 10
1707.3729112399
 20
8.0726690273
 30
0.0
 40
0.6
  0
CIRCLE
  5
686
100
AcDbEntity
  8
L1_115
  6
CONTINUOUS
 62
         7
100
AcDbCircle
 10
1706.1729112399
 20
8.0726690273
 30
0.0
 40
0.6
  0
CIRCLE
  5
687
100
AcDbEntity
  8
L1_115
  6
CONTINUOUS
 62
         7
100
AcDbCircle
 10
1704.9729112399
 20
8.0726690273
 30
0.0
 40
0.6
  0
CIRCLE
  5
688
100
AcDbEntity
  8
L1_115
  6
CONTINUOUS
 62
         7
100
AcDbCircle
 10
1703.7729112399
 20
8.0726690273
 30
0.0
 40
0.6
  0
CIRCLE
  5
689
100
AcDbEntity
  8
L1_115
  6
CONTINUOUS
 62
         7
100
AcDbCircle
 10
1702.5729112399
 20
8.0726690273
 30
0.0
 40
0.6
  0
CIRCLE
  5
68A
100
AcDbEntity
  8
L1_115
  6
CONTINUOUS
 62
         7
100
AcDbCircle
 10
1701.3729112399
 20
8.0726690273
 30
0.0
 40
0.6
  0
LINE
  5
68B
100
AcDbEntity
  8
L1_115
  6
CONTINUOUS
 62
         7
100
AcDbLine
 10
1709.1729112399
 20
19.6726690273
 30
0.0
 11
1707.9729112399
 21
8.0726690273
 31
0.0
  0
LINE
  5
68C
100
AcDbEntity
  8
L1_115
  6
CONTINUOUS
 62
         7
100
AcDbLine
 10
1701.9729112399
 20
19.6726690273
 30
0.0
 11
1700.7729112399
 21
8.0726690273
 31
0.0
  0
LINE
  5
68D
100
AcDbEntity
  8
L1_115
  6
CONTINUOUS
 62
         7
100
AcDbLine
 10
1703.1729112399
 20
19.6726690273
 30
0.0
 11
1701.9729112399
 21
8.0726690273
 31
0.0
  0
LINE
  5
68E
100
AcDbEntity
  8
L1_115
  6
CONTINUOUS
 62
         7
100
AcDbLine
 10
1704.3729112399
 20
19.6726690273
 30
0.0
 11
1703.1729112399
 21
8.0726690273
 31
0.0
  0
LINE
  5
68F
100
AcDbEntity
  8
L1_115
  6
CONTINUOUS
 62
         7
100
AcDbLine
 10
1704.3729112399
 20
8.0726690273
 30
0.0
 11
1705.5729112399
 21
19.6726690273
 31
0.0
  0
LINE
  5
690
100
AcDbEntity
  8
L1_115
  6
CONTINUOUS
 62
         7
100
AcDbLine
 10
1706.7729112399
 20
19.6726690273
 30
0.0
 11
1705.5729112399
 21
8.0726690273
 31
0.0
  0
LINE
  5
691
100
AcDbEntity
  8
L1_115
  6
CONTINUOUS
 62
         7
100
AcDbLine
 10
1706.7729112399
 20
8.0726690273
 30
0.0
 11
1707.9729112399
 21
19.6726690273
 31
0.0
  0
CIRCLE
  5
692
100
AcDbEntity
  8
L1_115
  6
CONTINUOUS
 62
         7
100
AcDbCircle
 10
1691.7476880571
 20
27.6726690273
 30
0.0
 40
0.75
  0
CIRCLE
  5
693
100
AcDbEntity
  8
L1_115
  6
CONTINUOUS
 62
         7
100
AcDbCircle
 10
1690.2476880571
 20
27.6726690273
 30
0.0
 40
0.75
  0
CIRCLE
  5
694
100
AcDbEntity
  8
L1_115
  6
CONTINUOUS
 62
         7
100
AcDbCircle
 10
1688.7476880571
 20
27.6726690273
 30
0.0
 40
0.75
  0
CIRCLE
  5
695
100
AcDbEntity
  8
L1_115
  6
CONTINUOUS
 62
         7
100
AcDbCircle
 10
1687.2476880571
 20
27.6726690273
 30
0.0
 40
0.75
  0
CIRCLE
  5
696
100
AcDbEntity
  8
L1_115
  6
CONTINUOUS
 62
         7
100
AcDbCircle
 10
1690.2476880571
 20
0.0726690273
 30
0.0
 40
0.75
  0
CIRCLE
  5
697
100
AcDbEntity
  8
L1_115
  6
CONTINUOUS
 62
         7
100
AcDbCircle
 10
1688.7476880571
 20
0.0726690273
 30
0.0
 40
0.75
  0
CIRCLE
  5
698
100
AcDbEntity
  8
L1_115
  6
CONTINUOUS
 62
         7
100
AcDbCircle
 10
1687.2476880571
 20
0.0726690273
 30
0.0
 40
0.75
  0
CIRCLE
  5
699
100
AcDbEntity
  8
L1_115
  6
CONTINUOUS
 62
         7
100
AcDbCircle
 10
1685.7476880571
 20
0.0726690273
 30
0.0
 40
0.75
  0
LINE
  5
69A
100
AcDbEntity
  8
L1_115
  6
CONTINUOUS
 62
         7
100
AcDbLine
 10
1692.4976880571
 20
27.6726690273
 30
0.0
 11
1690.9976880571
 21
0.0726690273
 31
0.0
  0
LINE
  5
69B
100
AcDbEntity
  8
L1_115
  6
CONTINUOUS
 62
         7
100
AcDbLine
 10
1684.9976880571
 20
0.0726690273
 30
0.0
 11
1686.4976880571
 21
27.6726690273
 31
0.0
  0
LINE
  5
69C
100
AcDbEntity
  8
L1_115
  6
CONTINUOUS
 62
         7
100
AcDbLine
 10
1687.9976880571
 20
27.6726690273
 30
0.0
 11
1686.4976880571
 21
0.0726690273
 31
0.0
  0
LINE
  5
69D
100
AcDbEntity
  8
L1_115
  6
CONTINUOUS
 62
         7
100
AcDbLine
 10
1687.9976880571
 20
0.0726690273
 30
0.0
 11
1689.4976880571
 21
27.6726690273
 31
0.0
  0
LINE
  5
69E
100
AcDbEntity
  8
L1_115
  6
CONTINUOUS
 62
         7
100
AcDbLine
 10
1690.9976880571
 20
27.6726690273
 30
0.0
 11
1689.4976880571
 21
0.0726690273
 31
0.0
  0
CIRCLE
  5
69F
100
AcDbEntity
  8
L1_115
  6
CONTINUOUS
 62
         7
100
AcDbCircle
 10
1673.0387931705
 20
22.4726690273
 30
0.0
 40
0.75
  0
CIRCLE
  5
6A0
100
AcDbEntity
  8
L1_115
  6
CONTINUOUS
 62
         7
100
AcDbCircle
 10
1671.5387931705
 20
22.4726690273
 30
0.0
 40
0.75
  0
CIRCLE
  5
6A1
100
AcDbEntity
  8
L1_115
  6
CONTINUOUS
 62
         7
100
AcDbCircle
 10
1670.0387931705
 20
22.4726690273
 30
0.0
 40
0.75
  0
CIRCLE
  5
6A2
100
AcDbEntity
  8
L1_115
  6
CONTINUOUS
 62
         7
100
AcDbCircle
 10
1668.5387931705
 20
22.4726690273
 30
0.0
 40
0.75
  0
CIRCLE
  5
6A3
100
AcDbEntity
  8
L1_115
  6
CONTINUOUS
 62
         7
100
AcDbCircle
 10
1667.0387931705
 20
22.4726690273
 30
0.0
 40
0.75
  0
CIRCLE
  5
6A4
100
AcDbEntity
  8
L1_115
  6
CONTINUOUS
 62
         7
100
AcDbCircle
 10
1665.5387931705
 20
22.4726690273
 30
0.0
 40
0.75
  0
CIRCLE
  5
6A5
100
AcDbEntity
  8
L1_115
  6
CONTINUOUS
 62
         7
100
AcDbCircle
 10
1664.0387931705
 20
22.4726690273
 30
0.0
 40
0.75
  0
CIRCLE
  5
6A6
100
AcDbEntity
  8
L1_115
  6
CONTINUOUS
 62
         7
100
AcDbCircle
 10
1671.5387931705
 20
5.2726690273
 30
0.0
 40
0.75
  0
CIRCLE
  5
6A7
100
AcDbEntity
  8
L1_115
  6
CONTINUOUS
 62
         7
100
AcDbCircle
 10
1670.0387931705
 20
5.2726690273
 30
0.0
 40
0.75
  0
CIRCLE
  5
6A8
100
AcDbEntity
  8
L1_115
  6
CONTINUOUS
 62
         7
100
AcDbCircle
 10
1668.5387931705
 20
5.2726690273
 30
0.0
 40
0.75
  0
CIRCLE
  5
6A9
100
AcDbEntity
  8
L1_115
  6
CONTINUOUS
 62
         7
100
AcDbCircle
 10
1667.0387931705
 20
5.2726690273
 30
0.0
 40
0.75
  0
CIRCLE
  5
6AA
100
AcDbEntity
  8
L1_115
  6
CONTINUOUS
 62
         7
100
AcDbCircle
 10
1665.5387931705
 20
5.2726690273
 30
0.0
 40
0.75
  0
CIRCLE
  5
6AB
100
AcDbEntity
  8
L1_115
  6
CONTINUOUS
 62
         7
100
AcDbCircle
 10
1664.0387931705
 20
5.2726690273
 30
0.0
 40
0.75
  0
CIRCLE
  5
6AC
100
AcDbEntity
  8
L1_115
  6
CONTINUOUS
 62
         7
100
AcDbCircle
 10
1662.5387931705
 20
5.2726690273
 30
0.0
 40
0.75
  0
CIRCLE
  5
6AD
100
AcDbEntity
  8
L1_115
  6
CONTINUOUS
 62
         7
100
AcDbCircle
 10
1661.0387931705
 20
5.2726690273
 30
0.0
 40
0.75
  0
LINE
  5
6AE
100
AcDbEntity
  8
L1_115
  6
CONTINUOUS
 62
         7
100
AcDbLine
 10
1673.7887931705
 20
22.4726690273
 30
0.0
 11
1672.2887931705
 21
5.2726690273
 31
0.0
  0
LINE
  5
6AF
100
AcDbEntity
  8
L1_115
  6
CONTINUOUS
 62
         7
100
AcDbLine
 10
1670.7887931705
 20
5.2726690273
 30
0.0
 11
1672.2887931705
 21
22.4726690273
 31
0.0
  0
LINE
  5
6B0
100
AcDbEntity
  8
L1_115
  6
CONTINUOUS
 62
         7
100
AcDbLine
 10
1670.7887931705
 20
22.4726690273
 30
0.0
 11
1669.2887931705
 21
5.2726690273
 31
0.0
  0
LINE
  5
6B1
100
AcDbEntity
  8
L1_115
  6
CONTINUOUS
 62
         7
100
AcDbLine
 10
1667.7887931705
 20
5.2726690273
 30
0.0
 11
1669.2887931705
 21
22.4726690273
 31
0.0
  0
LINE
  5
6B2
100
AcDbEntity
  8
L1_115
  6
CONTINUOUS
 62
         7
100
AcDbLine
 10
1667.7887931705
 20
22.4726690273
 30
0.0
 11
1666.2887931705
 21
5.2726690273
 31
0.0
  0
LINE
  5
6B3
100
AcDbEntity
  8
L1_115
  6
CONTINUOUS
 62
         7
100
AcDbLine
 10
1664.7887931705
 20
5.2726690273
 30
0.0
 11
1666.2887931705
 21
22.4726690273
 31
0.0
  0
LINE
  5
6B4
100
AcDbEntity
  8
L1_115
  6
CONTINUOUS
 62
         7
100
AcDbLine
 10
1664.7887931705
 20
22.4726690273
 30
0.0
 11
1663.2887931705
 21
5.2726690273
 31
0.0
  0
LINE
  5
6B5
100
AcDbEntity
  8
L1_115
  6
CONTINUOUS
 62
         7
100
AcDbLine
 10
1661.7887931705
 20
5.2726690273
 30
0.0
 11
1663.2887931705
 21
22.4726690273
 31
0.0
  0
LINE
  5
6B6
100
AcDbEntity
  8
L1_115
  6
CONTINUOUS
 62
         7
100
AcDbLine
 10
1663.2887931705
 20
22.4726690273
 30
0.0
 11
1660.2887931705
 21
5.2726690273
 31
0.0
  0
CIRCLE
  5
6B7
100
AcDbEntity
  8
L1_115
  6
CONTINUOUS
 62
         7
100
AcDbCircle
 10
1630.4560226054
 20
19.0226690273
 30
0.0
 40
0.75
  0
CIRCLE
  5
6B8
100
AcDbEntity
  8
L1_115
  6
CONTINUOUS
 62
         7
100
AcDbCircle
 10
1637.9560226054
 20
19.0226690273
 30
0.0
 40
0.75
  0
CIRCLE
  5
6B9
100
AcDbEntity
  8
L1_115
  6
CONTINUOUS
 62
         7
100
AcDbCircle
 10
1636.4560226054
 20
19.0226690273
 30
0.0
 40
0.75
  0
CIRCLE
  5
6BA
100
AcDbEntity
  8
L1_115
  6
CONTINUOUS
 62
         7
100
AcDbCircle
 10
1634.9560226054
 20
19.0226690273
 30
0.0
 40
0.75
  0
CIRCLE
  5
6BB
100
AcDbEntity
  8
L1_115
  6
CONTINUOUS
 62
         7
100
AcDbCircle
 10
1633.4560226054
 20
19.0226690273
 30
0.0
 40
0.75
  0
CIRCLE
  5
6BC
100
AcDbEntity
  8
L1_115
  6
CONTINUOUS
 62
         7
100
AcDbCircle
 10
1631.9560226054
 20
19.0226690273
 30
0.0
 40
0.75
  0
CIRCLE
  5
6BD
100
AcDbEntity
  8
L1_115
  6
CONTINUOUS
 62
         7
100
AcDbCircle
 10
1645.4560226054
 20
19.0226690273
 30
0.0
 40
0.75
  0
CIRCLE
  5
6BE
100
AcDbEntity
  8
L1_115
  6
CONTINUOUS
 62
         7
100
AcDbCircle
 10
1643.9560226054
 20
19.0226690273
 30
0.0
 40
0.75
  0
CIRCLE
  5
6BF
100
AcDbEntity
  8
L1_115
  6
CONTINUOUS
 62
         7
100
AcDbCircle
 10
1642.4560226054
 20
19.0226690273
 30
0.0
 40
0.75
  0
CIRCLE
  5
6C0
100
AcDbEntity
  8
L1_115
  6
CONTINUOUS
 62
         7
100
AcDbCircle
 10
1640.9560226054
 20
19.0226690273
 30
0.0
 40
0.75
  0
CIRCLE
  5
6C1
100
AcDbEntity
  8
L1_115
  6
CONTINUOUS
 62
         7
100
AcDbCircle
 10
1639.4560226054
 20
19.0226690273
 30
0.0
 40
0.75
  0
CIRCLE
  5
6C2
100
AcDbEntity
  8
L1_115
  6
CONTINUOUS
 62
         7
100
AcDbCircle
 10
1629.7060226054
 20
8.7226690273
 30
0.0
 40
0.75
  0
CIRCLE
  5
6C3
100
AcDbEntity
  8
L1_115
  6
CONTINUOUS
 62
         7
100
AcDbCircle
 10
1637.2060226054
 20
8.7226690273
 30
0.0
 40
0.75
  0
CIRCLE
  5
6C4
100
AcDbEntity
  8
L1_115
  6
CONTINUOUS
 62
         7
100
AcDbCircle
 10
1635.7060226054
 20
8.7226690273
 30
0.0
 40
0.75
  0
CIRCLE
  5
6C5
100
AcDbEntity
  8
L1_115
  6
CONTINUOUS
 62
         7
100
AcDbCircle
 10
1634.2060226054
 20
8.7226690273
 30
0.0
 40
0.75
  0
CIRCLE
  5
6C6
100
AcDbEntity
  8
L1_115
  6
CONTINUOUS
 62
         7
100
AcDbCircle
 10
1632.7060226054
 20
8.7226690273
 30
0.0
 40
0.75
  0
CIRCLE
  5
6C7
100
AcDbEntity
  8
L1_115
  6
CONTINUOUS
 62
         7
100
AcDbCircle
 10
1631.2060226054
 20
8.7226690273
 30
0.0
 40
0.75
  0
CIRCLE
  5
6C8
100
AcDbEntity
  8
L1_115
  6
CONTINUOUS
 62
         7
100
AcDbCircle
 10
1644.7060226054
 20
8.7226690273
 30
0.0
 40
0.75
  0
CIRCLE
  5
6C9
100
AcDbEntity
  8
L1_115
  6
CONTINUOUS
 62
         7
100
AcDbCircle
 10
1643.2060226054
 20
8.7226690273
 30
0.0
 40
0.75
  0
CIRCLE
  5
6CA
100
AcDbEntity
  8
L1_115
  6
CONTINUOUS
 62
         7
100
AcDbCircle
 10
1641.7060226054
 20
8.7226690273
 30
0.0
 40
0.75
  0
CIRCLE
  5
6CB
100
AcDbEntity
  8
L1_115
  6
CONTINUOUS
 62
         7
100
AcDbCircle
 10
1640.2060226054
 20
8.7226690273
 30
0.0
 40
0.75
  0
CIRCLE
  5
6CC
100
AcDbEntity
  8
L1_115
  6
CONTINUOUS
 62
         7
100
AcDbCircle
 10
1638.7060226054
 20
8.7226690273
 30
0.0
 40
0.75
  0
LINE
  5
6CD
100
AcDbEntity
  8
L1_115
  6
CONTINUOUS
 62
         7
100
AcDbLine
 10
1646.2060226054
 20
19.0226690273
 30
0.0
 11
1645.4560226054
 21
8.7226690273
 31
0.0
  0
LINE
  5
6CE
100
AcDbEntity
  8
L1_115
  6
CONTINUOUS
 62
         7
100
AcDbLine
 10
1644.7060226054
 20
19.0226690273
 30
0.0
 11
1643.9560226054
 21
8.7226690273
 31
0.0
  0
LINE
  5
6CF
100
AcDbEntity
  8
L1_115
  6
CONTINUOUS
 62
         7
100
AcDbLine
 10
1643.2060226054
 20
19.0226690273
 30
0.0
 11
1642.4560226054
 21
8.7226690273
 31
0.0
  0
LINE
  5
6D0
100
AcDbEntity
  8
L1_115
  6
CONTINUOUS
 62
         7
100
AcDbLine
 10
1640.9560226054
 20
8.7226690273
 30
0.0
 11
1641.7060226054
 21
19.0226690273
 31
0.0
  0
LINE
  5
6D1
100
AcDbEntity
  8
L1_115
  6
CONTINUOUS
 62
         7
100
AcDbLine
 10
1640.2060226054
 20
19.0226690273
 30
0.0
 11
1639.4560226054
 21
8.7226690273
 31
0.0
  0
LINE
  5
6D2
100
AcDbEntity
  8
L1_115
  6
CONTINUOUS
 62
         7
100
AcDbLine
 10
1637.9560226054
 20
8.7226690273
 30
0.0
 11
1638.7060226054
 21
19.0226690273
 31
0.0
  0
LINE
  5
6D3
100
AcDbEntity
  8
L1_115
  6
CONTINUOUS
 62
         7
100
AcDbLine
 10
1637.2060226054
 20
19.0226690273
 30
0.0
 11
1636.4560226054
 21
8.7226690273
 31
0.0
  0
LINE
  5
6D4
100
AcDbEntity
  8
L1_115
  6
CONTINUOUS
 62
         7
100
AcDbLine
 10
1634.9560226054
 20
8.7226690273
 30
0.0
 11
1635.7060226054
 21
19.0226690273
 31
0.0
  0
LINE
  5
6D5
100
AcDbEntity
  8
L1_115
  6
CONTINUOUS
 62
         7
100
AcDbLine
 10
1634.2060226054
 20
19.0226690273
 30
0.0
 11
1633.4560226054
 21
8.7226690273
 31
0.0
  0
LINE
  5
6D6
100
AcDbEntity
  8
L1_115
  6
CONTINUOUS
 62
         7
100
AcDbLine
 10
1631.9560226054
 20
8.7226690273
 30
0.0
 11
1632.7060226054
 21
19.0226690273
 31
0.0
  0
LINE
  5
6D7
100
AcDbEntity
  8
L1_115
  6
CONTINUOUS
 62
         7
100
AcDbLine
 10
1631.2060226054
 20
19.0226690273
 30
0.0
 11
1630.4560226054
 21
8.7226690273
 31
0.0
  0
LINE
  5
6D8
100
AcDbEntity
  8
L1_115
  6
CONTINUOUS
 62
         7
100
AcDbLine
 10
1628.9560226054
 20
8.7226690273
 30
0.0
 11
1629.7060226054
 21
19.0226690273
 31
0.0
  0
DIMENSION
  5
6DB
100
AcDbEntity
  8
L1_115
  6
CONTINUOUS
 62
         4
100
AcDbDimension
  2
*D42
 10
1496.0033403763
 20
202.3890449723
 30
0.0
 11
1463.3393196251
 21
205.5210449723
 31
0.0
  3
DIMSTYLE1
100
AcDbAlignedDimension
 13
1496.0033403763
 23
167.6072914602
 33
0.0
 14
1443.0033403763
 24
171.6846417294
 34
0.0
100
AcDbRotatedDimension
  0
DIMENSION
  5
6E9
100
AcDbEntity
  8
L1_115
  6
CONTINUOUS
 62
         4
100
AcDbDimension
  2
*D43
 10
1496.0033403763
 20
192.0000383803
 30
0.0
 11
1482.5783403763
 21
195.1320383803
 31
0.0
  3
DIMSTYLE1
100
AcDbAlignedDimension
 13
1496.0033403763
 23
167.6072914602
 33
0.0
 14
1475.0033403763
 24
170.6846417294
 34
0.0
100
AcDbRotatedDimension
  0
DIMENSION
  5
6F7
100
AcDbEntity
  8
L1_115
  6
CONTINUOUS
 62
         4
100
AcDbDimension
  2
*D44
 10
1475.0033403763
 20
182.7299277772
 30
0.0
 11
1478.7802489371
 21
185.8619277772
 31
0.0
  3
DIMSTYLE1
100
AcDbAlignedDimension
 13
1475.0033403763
 23
170.6846417294
 33
0.0
 14
1477.0033403763
 24
170.6846417294
 34
0.0
100
AcDbRotatedDimension
  0
DIMENSION
  5
707
100
AcDbEntity
  8
L1_115
  6
CONTINUOUS
 62
         4
100
AcDbDimension
  2
*D45
 10
1525.6880281053
 20
169.6846417294
 30
0.0
 11
1522.5560281053
 21
140.3473538612
 31
0.0
  3
DIMSTYLE1
100
AcDbAlignedDimension
 13
1477.0033403763
 23
169.6846417294
 33
0.0
 14
1477.0033403763
 24
130.6846417294
 34
0.0
 50
90.0
100
AcDbRotatedDimension
  0
DIMENSION
  5
715
100
AcDbEntity
  8
L1_115
  6
CONTINUOUS
 62
         4
100
AcDbDimension
  2
*D46
 10
1534.9393492817
 20
170.6846417294
 30
0.0
 11
1531.8073492817
 21
139.2528174198
 31
0.0
  3
DIMSTYLE1
100
AcDbAlignedDimension
 13
1490.2712895687
 23
170.6846417294
 33
0.0
 14
1490.2712895687
 24
129.6846417294
 34
0.0
 50
90.0
100
AcDbRotatedDimension
  0
DIMENSION
  5
723
100
AcDbEntity
  8
L1_115
  6
CONTINUOUS
 62
         4
100
AcDbDimension
  2
*D47
 10
1466.4082741959
 20
115.714967216
 30
0.0
 11
1475.5808072861
 21
118.846967216
 31
0.0
  3
DIMSTYLE1
100
AcDbAlignedDimension
 13
1466.4082741959
 23
145.2146417294
 33
0.0
 14
1496.0033403763
 24
132.7619919986
 34
0.0
100
AcDbRotatedDimension
  0
DIMENSION
  5
731
100
AcDbEntity
  8
L1_115
  6
CONTINUOUS
 62
         4
100
AcDbDimension
  2
*D48
 10
1451.4083403763
 20
105.7739192814
 30
0.0
 11
1462.5689703403
 21
108.9059192814
 31
0.0
  3
DIMSTYLE1
100
AcDbAlignedDimension
 13
1451.4083403763
 23
145.2146417294
 33
0.0
 14
1496.0033403763
 24
132.7619919986
 34
0.0
100
AcDbRotatedDimension
  0
DIMENSION
  5
73F
100
AcDbEntity
  8
L1_115
  6
CONTINUOUS
 62
         4
100
AcDbDimension
  2
*D49
 10
1458.9634716272
 20
154.9846417294
 30
0.0
 11
1455.8314716272
 21
107.3534214716
 31
0.0
  3
DIMSTYLE1
100
AcDbAlignedDimension
 13
1451.4083403763
 23
154.9846417294
 33
0.0
 14
1451.4083403763
 24
145.3846417294
 34
0.0
 50
90.0
100
AcDbRotatedDimension
  0
DIMENSION
  5
74F
100
AcDbEntity
  8
L1_115
  6
CONTINUOUS
 62
         4
100
AcDbDimension
  2
*D50
 10
1446.6083403763
 20
14.1917360085
 30
0.0
 11
1448.0425313366
 21
17.3237360085
 31
0.0
  3
DIMSTYLE1
100
AcDbAlignedDimension
 13
1446.6083403763
 23
7.5566652593
 33
0.0
 14
1471.2082741959
 24
7.5566652593
 34
0.0
100
AcDbRotatedDimension
  0
DIMENSION
  5
75D
100
AcDbEntity
  8
L1_115
  6
CONTINUOUS
 62
         4
100
AcDbDimension
  2
*D51
 10
1496.0033403763
 20
-69.7717555683
 30
0.0
 11
1456.1185899024
 21
-66.6397555683
 31
0.0
  3
DIMSTYLE1
100
AcDbAlignedDimension
 13
1496.0033403763
 23
-30.3278646868
 33
0.0
 14
1430.0033403763
 24
-29.4433347407
 34
0.0
100
AcDbRotatedDimension
  0
DIMENSION
  5
76B
100
AcDbEntity
  8
L1_115
  6
CONTINUOUS
 62
         4
100
AcDbDimension
  2
*D52
 10
1496.0033403763
 20
-48.9530593812
 30
0.0
 11
1477.8810669833
 21
-45.8210593812
 31
0.0
  3
DIMSTYLE1
100
AcDbAlignedDimension
 13
1496.0033403763
 23
-30.3278646868
 33
0.0
 14
1471.0033403763
 24
-30.4433347407
 34
0.0
100
AcDbRotatedDimension
  0
DIMENSION
  5
779
100
AcDbEntity
  8
L1_115
  6
CONTINUOUS
 62
         4
100
AcDbDimension
  2
*D53
 10
1519.5641711857
 20
3.0566652593
 30
0.0
 11
1516.4321711857
 21
-20.9507516815
 31
0.0
  3
DIMSTYLE1
100
AcDbAlignedDimension
 13
1471.0033403763
 23
3.0566652593
 33
0.0
 14
1471.0033403763
 24
-28.9433347407
 34
0.0
 50
90.0
100
AcDbRotatedDimension
  0
DIMENSION
  5
787
100
AcDbEntity
  8
L1_115
  6
CONTINUOUS
 62
         4
100
AcDbDimension
  2
*D54
 10
1531.6715864264
 20
4.0566652593
 30
0.0
 11
1528.5395864264
 21
-21.6075939878
 31
0.0
  3
DIMSTYLE1
100
AcDbAlignedDimension
 13
1495.8033403763
 23
4.0566652593
 33
0.0
 14
1495.8033403763
 24
-29.9433347407
 34
0.0
 50
90.0
100
AcDbRotatedDimension
  0
TEXT
  5
794
100
AcDbEntity
  8
L1_115
  6
CONTINUOUS
 62
         2
100
AcDbText
 10
1607.8551181589
 20
224.3704784082
 30
0.0
 40
4.5
  1
531542
 41
0.98
  7
BOX
100
AcDbText
  0
ENDSEC
  0
SECTION
  2
OBJECTS
  0
DICTIONARY
  5
19
100
AcDbDictionary
  3
ACAD_GROUP
350
1A
  3
ACAD_MLINESTYLE
350
1B
  0
DICTIONARY
  5
1A
102
{ACAD_REACTORS
330
19
102
}
100
AcDbDictionary
  0
DICTIONARY
  5
1B
102
{ACAD_REACTORS
330
19
102
}
100
AcDbDictionary
  3
STANDARD
350
1C
  0
MLINESTYLE
  5
1C
102
{ACAD_REACTORS
330
1B
102
}
100
AcDbMlineStyle
  2
STANDARD
 70
         0
  3

 62
         0
 51
90.0
 52
90.0
 71
         2
 49
0.5
 62
       256
  6
BYLAYER
 49
-0.5
 62
       256
  6
BYLAYER
  0
ENDSEC
  0
EOF
