  0
SECTION
  2
HEADER
  9
$ACADVER
  1
AC1014
  9
$ACADMAINTVER
 70
         0
  9
$DWGCODEPAGE
  3
BIG5
  9
$INSBASE
 10
0.0
 20
0.0
 30
0.0
  9
$EXTMIN
 10
1086.4634270431
 20
-159.180233964
 30
0.0
  9
$EXTMAX
 10
1896.8423451528
 20
249.3876808361
 30
0.0
  9
$LIMMIN
 10
0.0
 20
0.0
  9
$LIMMAX
 10
0.0
 20
0.0
  9
$ORTHOMODE
 70
         0
  9
$REGENMODE
 70
         1
  9
$FILLMODE
 70
         1
  9
$QTEXTMODE
 70
         0
  9
$MIRRTEXT
 70
         1
  9
$DRAGMODE
 70
         2
  9
$LTSCALE
 40
1.0
  9
$OSMODE
 70
         0
  9
$ATTMODE
 70
         1
  9
$TEXTSIZE
 40
1.0
  9
$TRACEWID
 40
0.05
  9
$TEXTSTYLE
  7
STANDARD
  9
$CLAYER
  8
0
  9
$CELTYPE
  6
CONTINUOUS
  9
$CECOLOR
 62
         4
  9
$CELTSCALE
 40
1.0
  9
$DELOBJ
 70
         1
  9
$DISPSILH
 70
         0
  9
$DIMSCALE
 40
1.0
  9
$DIMASZ
 40
0.18
  9
$DIMEXO
 40
0.0625
  9
$DIMDLI
 40
0.38
  9
$DIMRND
 40
0.0
  9
$DIMDLE
 40
0.0
  9
$DIMEXE
 40
0.25
  9
$DIMTP
 40
0.01
  9
$DIMTM
 40
-0.01
  9
$DIMTXT
 40
2.7
  9
$DIMCEN
 40
0.09
  9
$DIMTSZ
 40
0.0
  9
$DIMTOL
 70
         0
  9
$DIMLIM
 70
         0
  9
$DIMTIH
 70
         1
  9
$DIMTOH
 70
         1
  9
$DIMSE1
 70
         0
  9
$DIMSE2
 70
         0
  9
$DIMTAD
 70
         0
  9
$DIMZIN
 70
         0
  9
$DIMBLK
  1

  9
$DIMASO
 70
         1
  9
$DIMSHO
 70
         1
  9
$DIMPOST
  1

  9
$DIMAPOST
  1

  9
$DIMALT
 70
         0
  9
$DIMALTD
 70
         2
  9
$DIMALTF
 40
25.4
  9
$DIMLFAC
 40
1.0
  9
$DIMTOFL
 70
         0
  9
$DIMTVP
 40
0.0
  9
$DIMTIX
 70
         0
  9
$DIMSOXD
 70
         0
  9
$DIMSAH
 70
         0
  9
$DIMBLK1
  1

  9
$DIMBLK2
  1

  9
$DIMSTYLE
  2
STANDARD
  9
$DIMCLRD
 70
         0
  9
$DIMCLRE
 70
         0
  9
$DIMCLRT
 70
         4
  9
$DIMTFAC
 40
1.0
  9
$DIMGAP
 40
0.09
  9
$DIMJUST
 70
         0
  9
$DIMSD1
 70
         0
  9
$DIMSD2
 70
         0
  9
$DIMTOLJ
 70
         1
  9
$DIMTZIN
 70
         0
  9
$DIMALTZ
 70
         0
  9
$DIMALTTZ
 70
         0
  9
$DIMFIT
 70
         3
  9
$DIMUPT
 70
         0
  9
$DIMUNIT
 70
         2
  9
$DIMDEC
 70
         4
  9
$DIMTDEC
 70
         4
  9
$DIMALTU
 70
         2
  9
$DIMALTTD
 70
         2
  9
$DIMTXSTY
  7
STANDARD
  9
$DIMAUNIT
 70
         0
  9
$LUNITS
 70
         2
  9
$LUPREC
 70
        10
  9
$SKETCHINC
 40
0.1
  9
$FILLETRAD
 40
0.0
  9
$AUNITS
 70
         0
  9
$AUPREC
 70
         0
  9
$MENU
  1
acad
  9
$ELEVATION
 40
0.0
  9
$PELEVATION
 40
0.0
  9
$THICKNESS
 40
0.0
  9
$LIMCHECK
 70
         0
  9
$BLIPMODE
 70
         1
  9
$CHAMFERA
 40
0.0
  9
$CHAMFERB
 40
0.0
  9
$CHAMFERC
 40
0.0
  9
$CHAMFERD
 40
0.0
  9
$SKPOLY
 70
         0
  9
$TDCREATE
 40
0.000000000
  9
$TDUPDATE
 40
0.000000000
  9
$TDINDWG
 40
0.0000000000
  9
$TDUSRTIMER
 40
0.0000000000
  9
$USRTIMER
 70
         1
  9
$ANGBASE
 50
0.0
  9
$ANGDIR
 70
         0
  9
$PDMODE
 70
         2
  9
$PDSIZE
 40
0.0
  9
$PLINEWID
 40
0.0
  9
$COORDS
 70
         1
  9
$SPLFRAME
 70
         0
  9
$SPLINETYPE
 70
         6
  9
$SPLINESEGS
 70
         8
  9
$ATTDIA
 70
         0
  9
$ATTREQ
 70
         1
  9
$HANDLING
 70
         1
  9
$HANDSEED
  5
65C
  9
$SURFTAB1
 70
         6
  9
$SURFTAB2
 70
         6
  9
$SURFTYPE
 70
         6
  9
$SURFU
 70
         6
  9
$SURFV
 70
         6
  9
$UCSNAME
  2

  9
$UCSORG
 10
0.0
 20
0.0
 30
0.0
  9
$UCSXDIR
 10
1.0
 20
0.0
 30
0.0
  9
$UCSYDIR
 10
0.0
 20
1.0
 30
0.0
  9
$PUCSNAME
  2

  9
$PUCSORG
 10
0.0
 20
0.0
 30
0.0
  9
$PUCSXDIR
 10
1.0
 20
0.0
 30
0.0
  9
$PUCSYDIR
 10
0.0
 20
1.0
 30
0.0
  9
$USERI1
 70
         0
  9
$USERI2
 70
         0
  9
$USERI3
 70
         0
  9
$USERI4
 70
         0
  9
$USERI5
 70
         0
  9
$USERR1
 40
0.0
  9
$USERR2
 40
0.0
  9
$USERR3
 40
0.0
  9
$USERR4
 40
0.0
  9
$USERR5
 40
0.0
  9
$WORLDVIEW
 70
         1
  9
$SHADEDGE
 70
         3
  9
$SHADEDIF
 70
        70
  9
$TILEMODE
 70
         1
  9
$MAXACTVP
 70
        16
  9
$PINSBASE
 10
0.0
 20
0.0
 30
0.0
  9
$PLIMCHECK
 70
         0
  9
$PEXTMIN
 10
1.0000000000E+20
 20
1.0000000000E+20
 30
1.0000000000E+20
  9
$PEXTMAX
 10
-1.0000000000E+20
 20
-1.0000000000E+20
 30
-1.0000000000E+20
  9
$PLIMMIN
 10
0.0
 20
0.0
  9
$PLIMMAX
 10
12.0
 20
9.0
  9
$UNITMODE
 70
         0
  9
$VISRETAIN
 70
         0
  9
$PLINEGEN
 70
         1
  9
$PSLTSCALE
 70
         0
  9
$TREEDEPTH
 70
      3020
  9
$PICKSTYLE
 70
         1
  9
$CMLSTYLE
  2
STANDARD
  9
$CMLJUST
 70
         0
  9
$CMLSCALE
 40
1.0
  9
$PROXYGRAPHICS
 70
         0
  9
$MEASUREMENT
 70
         0
  0
ENDSEC
  0
SECTION
  2
CLASSES
  0
CLASS
  1
LWPOLYLINE
  2
AcDbPolyline
  3
"AutoCAD"
 90
        0
280
         0
281
         1
  0
CLASS
  1
IMAGE
  2
AcDbRasterImage
  3
ISM
 90
      127
280
         0
281
         1
  0
CLASS
  1
OLE2FRAME
  2
AcDbOle2Frame
  3
""
 90
        0
280
         0
281
         1
  0
CLASS
  1
HATCH
  2
AcDbHatch
  3
"ACAD_SEDONA"
 90
        0
280
         0
281
         1
  0
CLASS
  1
DICTIONARYVAR
  2
AcDbDictionaryVar
  3
"AutoCAD"
 90
        0
280
         0
281
         0
  0
CLASS
  1
RASTERVARIABLES
  2
AcDbRasterVariables
  3
ISM
 90
        0
280
         0
281
         0
  0
CLASS
  1
IMAGEDEF
  2
AcDbRasterImageDef
  3
ISM
 90
        0
280
         0
281
         0
  0
CLASS
  1
IMAGEDEF_REACTOR
  2
AcDbRasterImageDefReactor
  3
ISM
 90
        1
280
         0
281
         0
  0
CLASS
  1
IDBUFFER
  2
AcDbIdBuffer
  3
"Acad"
 90
        0
280
         0
281
         0
  0
CLASS
  1
SPATIAL_FILTER
  2
AcDbSpatialFilter
  3
"Acad"
 90
        0
280
         0
281
         0
  0
CLASS
  1
XRECORD
  2
AcDbXrecord
  3
"<Built In>"
 90
        0
280
         0
281
         0
  0
CLASS
  1
SORTENTSTABLE
  2
AcDbSortentsTable
  3
"AutoCAD"
 90
        0
280
         0
281
         0
  0
CLASS
  1
LAYER_INDEX
  2
AcDbLayerIndex
  3
"Acad"
 90
        0
280
         0
281
         0
  0
CLASS
  1
SPATIAL_INDEX
  2
AcDbSpatialIndex
  3
"Acad"
 90
        0
280
         0
281
         0
  0
CLASS
  1
OBJECT_PTR
  2
CAseDLPNTableRecord
  3
"ASE-LPNTableRecord"
 90
        1
280
         0
281
         0
  0
CLASS
  1
LAYOUT
  2
AcDbLayout
  3
"AutoCAD 2000"
 90
        1
280
         0
281
         0
  0
CLASS
  1
PLOTSETTINGS
  2
AcDbPlotSettings
  3
"AutoCAD 2000"
 90
        1
280
         0
281
         0
  0
CLASS
  1
ACDBDICTIONARYWDFLT
  2
AcDbDictionaryWithDefault
  3
"AutoCAD 2000"
 90
        1
280
         0
281
         0
  0
CLASS
  1
ACDBPLACEHOLDER
  2
AcDbPlaceHolder
  3
"AutoCAD 2000"
 90
        1
280
         0
281
         0
  0
CLASS
  1
VBA_PROJECT
  2
AcDbVbaProject
  3
"acadvba"
 90
        1
280
         0
281
         0
  0
CLASS
  1
WIPEOUT
  2
AcDbWipeout
  3
WipeOut|AutoCAD Express Tool|expresstools@autodesk.com
 90
      127
280
         0
281
         1
  0
CLASS
  1
WIPEOUTVARIABLES
  2
AcDbWipeoutVariables
  3
WipeOut|AutoCAD Express Tool|expresstools@autodesk.com
 90
        0
280
         0
281
         0
  0
CLASS
  1
RTEXT
  2
RText
  3
RText|AutoCAD Express Tool|expresstools@autodesk.com
 90
        0
280
         0
281
         1
  0
CLASS
  1
ARCALIGNEDTEXT
  2
AcDbArcAlignedText
  3
ATEXT|AutoCAD Express Tool|expresstools@autodesk.com
 90
        0
280
         0
281
         1
  0
ENDSEC
  0
SECTION
  2
TABLES
  0
TABLE
  2
VPORT
  5
7
100
AcDbSymbolTable
 70
         1
  0
VPORT
  5
15
100
AcDbSymbolTableRecord
100
AcDbViewportTableRecord
  2
*ACTIVE
 70
         0
 10
0.0
 20
0.0
 11
1.0
 21
1.0
 12
1491.652886098
 22
45.1037234361
 13
0.0
 23
0.0
 14
1.0
 24
1.0
 15
0.0
 25
0.0
 16
0.0
 26
0.0
 36
1.0
 17
0.0
 27
0.0
 37
0.0
 40
408.5679148002
 41
1.9834619625
 42
50.0
 43
0.0
 44
0.0
 50
0.0
 51
0.0
 71
         0
 72
       100
 73
         1
 74
         1
 75
         0
 76
         0
 77
         0
 78
         0
  0
ENDTAB
  0
TABLE
  2
LTYPE
  5
4
100
AcDbSymbolTable
 70
         6
  0
LTYPE
  5
11
100
AcDbSymbolTableRecord
100
AcDbLinetypeTableRecord
  2
BYBLOCK
 70
        64
  3

 72
        65
 73
         0
 40
0.0
  0
LTYPE
  5
12
100
AcDbSymbolTableRecord
100
AcDbLinetypeTableRecord
  2
BYLAYER
 70
        64
  3

 72
        65
 73
         0
 40
0.0
  0
LTYPE
  5
13
100
AcDbSymbolTableRecord
100
AcDbLinetypeTableRecord
  2
CONTINUOUS
 70
        64
  3
Solid line
 72
        65
 73
         0
 40
0.0
  0
LTYPE
  5
1D
100
AcDbSymbolTableRecord
100
AcDbLinetypeTableRecord
  2
DASHED
 70
        64
  3
_ _ _ _ _ _ _ _ _ _ _ _ _ _ _ _
 72
        65
 73
         2
 40
0.2
 49
0.1
 74
         0
 49
-0.1
 74
         0
  0
LTYPE
  5
1E
100
AcDbSymbolTableRecord
100
AcDbLinetypeTableRecord
  2
CENTER
 70
        64
  3
___ _ ___ _ ___ _ ___ _ ___ _ ___ _ ___ _ ___ _
 72
        65
 73
         4
 40
0.95
 49
0.625
 74
         0
 49
-0.125
 74
         0
 49
0.075
 74
         0
 49
-0.125
 74
         0
  0
LTYPE
  5
1F
100
AcDbSymbolTableRecord
100
AcDbLinetypeTableRecord
  2
PHANTOM
 70
        64
  3
______  __  __  ______  __  __  ______  __  __  
 72
        65
 73
         6
 40
1.025
 49
0.625
 74
         0
 49
-0.125
 74
         0
 49
0.075
 74
         0
 49
-0.125
 74
         0
 49
0.075
 74
         0
 49
-0.125
 74
         0
  0
ENDTAB
  0
TABLE
  2
LAYER
  5
2
100
AcDbSymbolTable
 70
         5
  0
LAYER
  5
14
100
AcDbSymbolTableRecord
100
AcDbLayerTableRecord
  2
0
 70
         0
 62
         7
  6
CONTINUOUS
  0
LAYER
  5
21
100
AcDbSymbolTableRecord
100
AcDbLayerTableRecord
  2
_____U
 70
         1
 62
         7
  6
CONTINUOUS
  0
LAYER
  5
22
100
AcDbSymbolTableRecord
100
AcDbLayerTableRecord
  2
_Y__________
 70
         0
 62
         7
  6
CONTINUOUS
  0
LAYER
  5
23
100
AcDbSymbolTableRecord
100
AcDbLayerTableRecord
  2
L1_115
 70
         0
 62
         7
  6
CONTINUOUS
  0
LAYER
  5
1AD
100
AcDbSymbolTableRecord
100
AcDbLayerTableRecord
  2
DEFPOINTS
 70
         0
 62
        -7
  6
CONTINUOUS
  0
ENDTAB
  0
TABLE
  2
STYLE
  5
3
100
AcDbSymbolTable
 70
        35
  0
STYLE
  5
17
100
AcDbSymbolTableRecord
100
AcDbTextStyleTableRecord
  2
STANDARD
 70
         0
 40
0.0
 41
1.0
 50
0.0
 71
         0
 42
0.0
  3
txt
  4

  0
STYLE
  5
1B6
100
AcDbSymbolTableRecord
100
AcDbTextStyleTableRecord
  2
BOX
 70
         0
 40
1.0
 41
1.0
 50
0.0
 71
         0
 42
0.2
  3
txt.shx
  4

  0
STYLE
  5
1CF
100
AcDbSymbolTableRecord
100
AcDbTextStyleTableRecord
  2
BOX
 70
         0
 40
1.0
 41
1.0
 50
0.0
 71
         0
 42
0.2
  3
txt.shx
  4

  0
STYLE
  5
1E0
100
AcDbSymbolTableRecord
100
AcDbTextStyleTableRecord
  2
BOX
 70
         0
 40
1.0
 41
1.0
 50
0.0
 71
         0
 42
0.2
  3
txt.shx
  4

  0
STYLE
  5
1EE
100
AcDbSymbolTableRecord
100
AcDbTextStyleTableRecord
  2
BOX
 70
         0
 40
1.0
 41
1.0
 50
0.0
 71
         0
 42
0.2
  3
txt.shx
  4

  0
STYLE
  5
215
100
AcDbSymbolTableRecord
100
AcDbTextStyleTableRecord
  2
BOX
 70
         0
 40
1.0
 41
1.0
 50
0.0
 71
         0
 42
0.2
  3
txt.shx
  4

  0
STYLE
  5
44B
100
AcDbSymbolTableRecord
100
AcDbTextStyleTableRecord
  2
BOX
 70
         0
 40
1.0
 41
1.0
 50
0.0
 71
         0
 42
0.2
  3
txt.shx
  4

  0
STYLE
  5
475
100
AcDbSymbolTableRecord
100
AcDbTextStyleTableRecord
  2
BOX
 70
         0
 40
1.0
 41
1.0
 50
0.0
 71
         0
 42
0.2
  3
txt.shx
  4

  0
STYLE
  5
483
100
AcDbSymbolTableRecord
100
AcDbTextStyleTableRecord
  2
BOX
 70
         0
 40
1.0
 41
1.0
 50
0.0
 71
         0
 42
0.2
  3
txt.shx
  4

  0
STYLE
  5
491
100
AcDbSymbolTableRecord
100
AcDbTextStyleTableRecord
  2
BOX
 70
         0
 40
1.0
 41
1.0
 50
0.0
 71
         0
 42
0.2
  3
txt.shx
  4

  0
STYLE
  5
4FF
100
AcDbSymbolTableRecord
100
AcDbTextStyleTableRecord
  2
BOX
 70
         0
 40
1.0
 41
1.0
 50
0.0
 71
         0
 42
0.2
  3
txt.shx
  4

  0
STYLE
  5
50D
100
AcDbSymbolTableRecord
100
AcDbTextStyleTableRecord
  2
BOX
 70
         0
 40
1.0
 41
1.0
 50
0.0
 71
         0
 42
0.2
  3
txt.shx
  4

  0
STYLE
  5
51B
100
AcDbSymbolTableRecord
100
AcDbTextStyleTableRecord
  2
BOX
 70
         0
 40
1.0
 41
1.0
 50
0.0
 71
         0
 42
0.2
  3
txt.shx
  4

  0
STYLE
  5
529
100
AcDbSymbolTableRecord
100
AcDbTextStyleTableRecord
  2
BOX
 70
         0
 40
1.0
 41
1.0
 50
0.0
 71
         0
 42
0.2
  3
txt.shx
  4

  0
STYLE
  5
538
100
AcDbSymbolTableRecord
100
AcDbTextStyleTableRecord
  2
BOX
 70
         0
 40
1.0
 41
1.0
 50
0.0
 71
         0
 42
0.2
  3
txt.shx
  4

  0
STYLE
  5
546
100
AcDbSymbolTableRecord
100
AcDbTextStyleTableRecord
  2
BOX
 70
         0
 40
1.0
 41
1.0
 50
0.0
 71
         0
 42
0.2
  3
txt.shx
  4

  0
STYLE
  5
566
100
AcDbSymbolTableRecord
100
AcDbTextStyleTableRecord
  2
BOX
 70
         0
 40
1.0
 41
1.0
 50
0.0
 71
         0
 42
0.2
  3
txt.shx
  4

  0
STYLE
  5
574
100
AcDbSymbolTableRecord
100
AcDbTextStyleTableRecord
  2
BOX
 70
         0
 40
1.0
 41
1.0
 50
0.0
 71
         0
 42
0.2
  3
txt.shx
  4

  0
STYLE
  5
582
100
AcDbSymbolTableRecord
100
AcDbTextStyleTableRecord
  2
BOX
 70
         0
 40
1.0
 41
1.0
 50
0.0
 71
         0
 42
0.2
  3
txt.shx
  4

  0
STYLE
  5
591
100
AcDbSymbolTableRecord
100
AcDbTextStyleTableRecord
  2
BOX
 70
         0
 40
1.0
 41
1.0
 50
0.0
 71
         0
 42
0.2
  3
txt.shx
  4

  0
STYLE
  5
59C
100
AcDbSymbolTableRecord
100
AcDbTextStyleTableRecord
  2
BOX
 70
         0
 40
1.0
 41
1.0
 50
0.0
 71
         0
 42
0.2
  3
txt.shx
  4

  0
STYLE
  5
5AB
100
AcDbSymbolTableRecord
100
AcDbTextStyleTableRecord
  2
BOX
 70
         0
 40
1.0
 41
1.0
 50
0.0
 71
         0
 42
0.2
  3
txt.shx
  4

  0
STYLE
  5
5B9
100
AcDbSymbolTableRecord
100
AcDbTextStyleTableRecord
  2
BOX
 70
         0
 40
1.0
 41
1.0
 50
0.0
 71
         0
 42
0.2
  3
txt.shx
  4

  0
STYLE
  5
5C8
100
AcDbSymbolTableRecord
100
AcDbTextStyleTableRecord
  2
BOX
 70
         0
 40
1.0
 41
1.0
 50
0.0
 71
         0
 42
0.2
  3
txt.shx
  4

  0
STYLE
  5
5D6
100
AcDbSymbolTableRecord
100
AcDbTextStyleTableRecord
  2
BOX
 70
         0
 40
1.0
 41
1.0
 50
0.0
 71
         0
 42
0.2
  3
txt.shx
  4

  0
STYLE
  5
5E4
100
AcDbSymbolTableRecord
100
AcDbTextStyleTableRecord
  2
BOX
 70
         0
 40
1.0
 41
1.0
 50
0.0
 71
         0
 42
0.2
  3
txt.shx
  4

  0
STYLE
  5
5F4
100
AcDbSymbolTableRecord
100
AcDbTextStyleTableRecord
  2
BOX
 70
         0
 40
1.0
 41
1.0
 50
0.0
 71
         0
 42
0.2
  3
txt.shx
  4

  0
STYLE
  5
603
100
AcDbSymbolTableRecord
100
AcDbTextStyleTableRecord
  2
BOX
 70
         0
 40
1.0
 41
1.0
 50
0.0
 71
         0
 42
0.2
  3
txt.shx
  4

  0
STYLE
  5
611
100
AcDbSymbolTableRecord
100
AcDbTextStyleTableRecord
  2
BOX
 70
         0
 40
1.0
 41
1.0
 50
0.0
 71
         0
 42
0.2
  3
txt.shx
  4

  0
STYLE
  5
61F
100
AcDbSymbolTableRecord
100
AcDbTextStyleTableRecord
  2
BOX
 70
         0
 40
1.0
 41
1.0
 50
0.0
 71
         0
 42
0.2
  3
txt.shx
  4

  0
STYLE
  5
62D
100
AcDbSymbolTableRecord
100
AcDbTextStyleTableRecord
  2
BOX
 70
         0
 40
1.0
 41
1.0
 50
0.0
 71
         0
 42
0.2
  3
txt.shx
  4

  0
STYLE
  5
63B
100
AcDbSymbolTableRecord
100
AcDbTextStyleTableRecord
  2
BOX
 70
         0
 40
1.0
 41
1.0
 50
0.0
 71
         0
 42
0.2
  3
txt.shx
  4

  0
STYLE
  5
649
100
AcDbSymbolTableRecord
100
AcDbTextStyleTableRecord
  2
BOX
 70
         0
 40
1.0
 41
1.0
 50
0.0
 71
         0
 42
0.2
  3
txt.shx
  4

  0
STYLE
  5
657
100
AcDbSymbolTableRecord
100
AcDbTextStyleTableRecord
  2
BOX
 70
         0
 40
1.0
 41
1.0
 50
0.0
 71
         0
 42
0.2
  3
txt.shx
  4

  0
STYLE
  5
65A
100
AcDbSymbolTableRecord
100
AcDbTextStyleTableRecord
  2
BOX
 70
         0
 40
1.0
 41
1.0
 50
0.0
 71
         0
 42
0.2
  3
txt.shx
  4

  0
ENDTAB
  0
TABLE
  2
VIEW
  5
5
100
AcDbSymbolTable
 70
         0
  0
ENDTAB
  0
TABLE
  2
UCS
  5
6
100
AcDbSymbolTable
 70
         1
  0
UCS
  5
20
100
AcDbSymbolTableRecord
100
AcDbUCSTableRecord
  2
CK_VIEW_1
 70
         0
 10
0.0
 20
0.0
 30
1.0
 11
1.0
 21
0.0
 31
0.0
 12
0.0
 22
1.0
 32
0.0
  0
ENDTAB
  0
TABLE
  2
APPID
  5
8
100
AcDbSymbolTable
 70
         1
  0
APPID
  5
16
100
AcDbSymbolTableRecord
100
AcDbRegAppTableRecord
  2
ACAD
 70
         0
  0
ENDTAB
  0
TABLE
  2
DIMSTYLE
  5
9
100
AcDbSymbolTable
 70
         2
  0
DIMSTYLE
105
18
100
AcDbSymbolTableRecord
100
AcDbDimStyleTableRecord
  2
STANDARD
 70
         0
  3

  4

  5

  6

  7

 40
1.0
 41
0.18
 42
0.0625
 43
0.38
 44
0.18
 45
0.0
 46
0.0
 47
0.0
 48
0.0
 71
         0
 72
         0
 73
         1
 74
         1
 75
         0
 76
         0
 77
         0
 78
         0
140
0.18
141
0.09
142
0.0
143
25.4
144
1.0
145
0.0
146
1.0
147
0.09
170
         0
171
         2
172
         0
173
         0
174
         0
175
         0
176
         0
177
         0
178
         0
270
         2
271
         4
272
         4
273
         2
274
         2
275
         0
280
         0
281
         0
282
         0
283
         1
284
         0
285
         0
286
         0
287
         0
288
         0
340
17
  0
DIMSTYLE
105
1A9
100
AcDbSymbolTableRecord
100
AcDbDimStyleTableRecord
  2
DIMSTYLE1
 70
         0
  3

  4

  5

  6

  7

 40
1.0
 41
2.7
 42
0.0625
 43
0.38
 44
2.7
 45
0.0
 46
0.0
 47
0.0
 48
0.0
 71
         0
 72
         0
 73
         1
 74
         1
 75
         0
 76
         0
 77
         0
 78
         0
140
2.7
141
0.09
142
0.0
143
25.4
144
1.0
145
0.0
146
1.0
147
0.09
170
         0
171
         2
172
         0
173
         0
174
         0
175
         0
176
         0
177
         0
178
         0
270
         2
271
         4
272
         4
273
         2
274
         2
275
         0
280
         0
281
         0
282
         0
283
         1
284
         0
285
         0
286
         0
287
         0
288
         0
340
17
  0
ENDTAB
  0
TABLE
  2
BLOCK_RECORD
  5
1
100
AcDbSymbolTable
 70
        34
  0
BLOCK_RECORD
  5
A
100
AcDbSymbolTableRecord
100
AcDbBlockTableRecord
  2
*MODEL_SPACE
  0
BLOCK_RECORD
  5
B
100
AcDbSymbolTableRecord
100
AcDbBlockTableRecord
  2
*PAPER_SPACE
  0
BLOCK_RECORD
  5
24
100
AcDbSymbolTableRecord
100
AcDbBlockTableRecord
  2
*X0
  0
BLOCK_RECORD
  5
1AA
100
AcDbSymbolTableRecord
100
AcDbBlockTableRecord
  2
*D1
  0
BLOCK_RECORD
  5
1C4
100
AcDbSymbolTableRecord
100
AcDbBlockTableRecord
  2
*D2
  0
BLOCK_RECORD
  5
1D5
100
AcDbSymbolTableRecord
100
AcDbBlockTableRecord
  2
*D3
  0
BLOCK_RECORD
  5
1E3
100
AcDbSymbolTableRecord
100
AcDbBlockTableRecord
  2
*D4
  0
BLOCK_RECORD
  5
20A
100
AcDbSymbolTableRecord
100
AcDbBlockTableRecord
  2
*D5
  0
BLOCK_RECORD
  5
440
100
AcDbSymbolTableRecord
100
AcDbBlockTableRecord
  2
*D6
  0
BLOCK_RECORD
  5
46A
100
AcDbSymbolTableRecord
100
AcDbBlockTableRecord
  2
*D7
  0
BLOCK_RECORD
  5
478
100
AcDbSymbolTableRecord
100
AcDbBlockTableRecord
  2
*D8
  0
BLOCK_RECORD
  5
486
100
AcDbSymbolTableRecord
100
AcDbBlockTableRecord
  2
*D9
  0
BLOCK_RECORD
  5
4F4
100
AcDbSymbolTableRecord
100
AcDbBlockTableRecord
  2
*D10
  0
BLOCK_RECORD
  5
502
100
AcDbSymbolTableRecord
100
AcDbBlockTableRecord
  2
*D11
  0
BLOCK_RECORD
  5
510
100
AcDbSymbolTableRecord
100
AcDbBlockTableRecord
  2
*D12
  0
BLOCK_RECORD
  5
51E
100
AcDbSymbolTableRecord
100
AcDbBlockTableRecord
  2
*D13
  0
BLOCK_RECORD
  5
52D
100
AcDbSymbolTableRecord
100
AcDbBlockTableRecord
  2
*D14
  0
BLOCK_RECORD
  5
53B
100
AcDbSymbolTableRecord
100
AcDbBlockTableRecord
  2
*D15
  0
BLOCK_RECORD
  5
55B
100
AcDbSymbolTableRecord
100
AcDbBlockTableRecord
  2
*D16
  0
BLOCK_RECORD
  5
569
100
AcDbSymbolTableRecord
100
AcDbBlockTableRecord
  2
*D17
  0
BLOCK_RECORD
  5
577
100
AcDbSymbolTableRecord
100
AcDbBlockTableRecord
  2
*D18
  0
BLOCK_RECORD
  5
589
100
AcDbSymbolTableRecord
100
AcDbBlockTableRecord
  2
*D19
  0
BLOCK_RECORD
  5
594
100
AcDbSymbolTableRecord
100
AcDbBlockTableRecord
  2
*D20
  0
BLOCK_RECORD
  5
5A0
100
AcDbSymbolTableRecord
100
AcDbBlockTableRecord
  2
*D21
  0
BLOCK_RECORD
  5
5AE
100
AcDbSymbolTableRecord
100
AcDbBlockTableRecord
  2
*D22
  0
BLOCK_RECORD
  5
5BC
100
AcDbSymbolTableRecord
100
AcDbBlockTableRecord
  2
*D23
  0
BLOCK_RECORD
  5
5CB
100
AcDbSymbolTableRecord
100
AcDbBlockTableRecord
  2
*D24
  0
BLOCK_RECORD
  5
5D9
100
AcDbSymbolTableRecord
100
AcDbBlockTableRecord
  2
*D25
  0
BLOCK_RECORD
  5
5E7
100
AcDbSymbolTableRecord
100
AcDbBlockTableRecord
  2
*D26
  0
BLOCK_RECORD
  5
5F7
100
AcDbSymbolTableRecord
100
AcDbBlockTableRecord
  2
*D27
  0
BLOCK_RECORD
  5
606
100
AcDbSymbolTableRecord
100
AcDbBlockTableRecord
  2
*D28
  0
BLOCK_RECORD
  5
614
100
AcDbSymbolTableRecord
100
AcDbBlockTableRecord
  2
*D29
  0
BLOCK_RECORD
  5
622
100
AcDbSymbolTableRecord
100
AcDbBlockTableRecord
  2
*D30
  0
BLOCK_RECORD
  5
630
100
AcDbSymbolTableRecord
100
AcDbBlockTableRecord
  2
*D31
  0
BLOCK_RECORD
  5
63E
100
AcDbSymbolTableRecord
100
AcDbBlockTableRecord
  2
*D32
  0
BLOCK_RECORD
  5
64C
100
AcDbSymbolTableRecord
100
AcDbBlockTableRecord
  2
*D33
  0
ENDTAB
  0
ENDSEC
  0
SECTION
  2
BLOCKS
  0
BLOCK
  5
D
100
AcDbEntity
  8
0
100
AcDbBlockBegin
  2
*MODEL_SPACE
 70
         0
 10
0.0
 20
0.0
 30
0.0
  3
*MODEL_SPACE
  1

  0
ENDBLK
  5
E
100
AcDbEntity
  8
0
100
AcDbBlockEnd
  0
BLOCK
  5
F
100
AcDbEntity
 67
         1
  8
0
100
AcDbBlockBegin
  2
*PAPER_SPACE
 70
         0
 10
0.0
 20
0.0
 30
0.0
  3
*PAPER_SPACE
  1

  0
ENDBLK
  5
10
100
AcDbEntity
 67
         1
  8
0
100
AcDbBlockEnd
  0
BLOCK
  5
25
100
AcDbEntity
  8
0
100
AcDbBlockBegin
  2
*X0
 70
        65
 10
0.0
 20
0.0
 30
0.0
  3
*X0
  1

  0
LINE
  5
26
100
AcDbEntity
  8
L1_115
  6
CONTINUOUS
 62
         4
100
AcDbLine
 10
1487.925685507
 20
-41.8038882623
 30
0.0
 11
1492.3919600125
 21
-37.3376137568
 31
0.0
  0
LINE
  5
27
100
AcDbEntity
  8
L1_115
  6
CONTINUOUS
 62
         4
100
AcDbLine
 10
1484.0033403763
 20
-41.4835927059
 30
0.0
 11
1488.5435983415
 21
-36.9433347407
 31
0.0
  0
LINE
  5
28
100
AcDbEntity
  8
L1_115
  6
CONTINUOUS
 62
         4
100
AcDbLine
 10
1479.3009576544
 20
-41.9433347407
 30
0.0
 11
1484.3009576544
 21
-36.9433347407
 31
0.0
  0
LINE
  5
29
100
AcDbEntity
  8
L1_115
  6
CONTINUOUS
 62
         4
100
AcDbLine
 10
1475.0583169673
 20
-41.9433347407
 30
0.0
 11
1480.0583169673
 21
-36.9433347407
 31
0.0
  0
LINE
  5
2A
100
AcDbEntity
  8
L1_115
  6
CONTINUOUS
 62
         4
100
AcDbLine
 10
1470.8156762802
 20
-41.9433347407
 30
0.0
 11
1475.8156762802
 21
-36.9433347407
 31
0.0
  0
LINE
  5
2B
100
AcDbEntity
  8
L1_115
  6
CONTINUOUS
 62
         4
100
AcDbLine
 10
1466.573035593
 20
-41.9433347407
 30
0.0
 11
1471.573035593
 21
-36.9433347407
 31
0.0
  0
LINE
  5
2C
100
AcDbEntity
  8
L1_115
  6
CONTINUOUS
 62
         4
100
AcDbLine
 10
1462.3303949059
 20
-41.9433347407
 30
0.0
 11
1467.3303949059
 21
-36.9433347407
 31
0.0
  0
LINE
  5
2D
100
AcDbEntity
  8
L1_115
  6
CONTINUOUS
 62
         4
100
AcDbLine
 10
1458.0877542188
 20
-41.9433347407
 30
0.0
 11
1463.0877542188
 21
-36.9433347407
 31
0.0
  0
LINE
  5
2E
100
AcDbEntity
  8
L1_115
  6
CONTINUOUS
 62
         4
100
AcDbLine
 10
1453.8451135317
 20
-41.9433347407
 30
0.0
 11
1458.8451135317
 21
-36.9433347407
 31
0.0
  0
LINE
  5
2F
100
AcDbEntity
  8
L1_115
  6
CONTINUOUS
 62
         4
100
AcDbLine
 10
1449.6024728446
 20
-41.9433347407
 30
0.0
 11
1454.6024728446
 21
-36.9433347407
 31
0.0
  0
LINE
  5
30
100
AcDbEntity
  8
L1_115
  6
CONTINUOUS
 62
         4
100
AcDbLine
 10
1445.3598321574
 20
-41.9433347407
 30
0.0
 11
1450.3598321574
 21
-36.9433347407
 31
0.0
  0
LINE
  5
31
100
AcDbEntity
  8
L1_115
  6
CONTINUOUS
 62
         4
100
AcDbLine
 10
1438.6171914703
 20
-44.4433347407
 30
0.0
 11
1442.5033403763
 21
-40.5571858348
 31
0.0
  0
LINE
  5
32
100
AcDbEntity
  8
L1_115
  6
CONTINUOUS
 62
         4
100
AcDbLine
 10
1444.5033403763
 20
-38.5571858348
 30
0.0
 11
1446.1171914703
 21
-36.9433347407
 31
0.0
  0
LINE
  5
33
100
AcDbEntity
  8
L1_115
  6
CONTINUOUS
 62
         4
100
AcDbLine
 10
1435.0951622446
 20
-43.7227232793
 30
0.0
 11
1441.3745507832
 21
-37.4433347407
 31
0.0
  0
LINE
  5
34
100
AcDbEntity
  8
L1_115
  6
CONTINUOUS
 62
         4
100
AcDbLine
 10
1489.8745507832
 20
11.0566652593
 30
0.0
 11
1492.7725602391
 21
13.9546747152
 31
0.0
  0
LINE
  5
35
100
AcDbEntity
  8
L1_115
  6
CONTINUOUS
 62
         4
100
AcDbLine
 10
1435.0553403763
 20
-39.5199044605
 30
0.0
 11
1440.0057015658
 21
-34.569543271
 31
0.0
  0
LINE
  5
36
100
AcDbEntity
  8
L1_115
  6
CONTINUOUS
 62
         4
100
AcDbLine
 10
1485.6319100961
 20
11.0566652593
 30
0.0
 11
1489.950039579
 21
15.3747947422
 31
0.0
  0
LINE
  5
37
100
AcDbEntity
  8
L1_115
  6
CONTINUOUS
 62
         4
100
AcDbLine
 10
1434.932510843
 20
-35.4000933066
 30
0.0
 11
1439.4474854874
 21
-30.8851186623
 31
0.0
  0
LINE
  5
38
100
AcDbEntity
  8
L1_115
  6
CONTINUOUS
 62
         4
100
AcDbLine
 10
1481.389269409
 20
11.0566652593
 30
0.0
 11
1486.389269409
 21
16.0566652593
 31
0.0
  0
LINE
  5
39
100
AcDbEntity
  8
L1_115
  6
CONTINUOUS
 62
         4
100
AcDbLine
 10
1430.8616287219
 20
-35.2283347407
 30
0.0
 11
1435.6466287219
 21
-30.4433347407
 31
0.0
  0
LINE
  5
3A
100
AcDbEntity
  8
L1_115
  6
CONTINUOUS
 62
         4
100
AcDbLine
 10
1477.1466287219
 20
11.0566652593
 30
0.0
 11
1482.0033403763
 21
15.9133769137
 31
0.0
  0
LINE
  5
3B
100
AcDbEntity
  8
L1_115
  6
CONTINUOUS
 62
         4
100
AcDbLine
 10
1417.1289880347
 20
-44.7183347407
 30
0.0
 11
1419.1033403763
 21
-42.7439823992
 31
0.0
  0
LINE
  5
3C
100
AcDbEntity
  8
L1_115
  6
CONTINUOUS
 62
         4
100
AcDbLine
 10
1426.6189880347
 20
-35.2283347407
 30
0.0
 11
1431.4039880347
 21
-30.4433347407
 31
0.0
  0
LINE
  5
3D
100
AcDbEntity
  8
L1_115
  6
CONTINUOUS
 62
         4
100
AcDbLine
 10
1476.9483403763
 20
15.1010176009
 30
0.0
 11
1477.9039880347
 21
16.0566652593
 31
0.0
  0
LINE
  5
3E
100
AcDbEntity
  8
L1_115
  6
CONTINUOUS
 62
         4
100
AcDbLine
 10
1413.9978718211
 20
-43.6068102672
 30
0.0
 11
1419.1033403763
 21
-38.501341712
 31
0.0
  0
LINE
  5
3F
100
AcDbEntity
  8
L1_115
  6
CONTINUOUS
 62
         4
100
AcDbLine
 10
1422.3763473476
 20
-35.2283347407
 30
0.0
 11
1427.1613473476
 21
-30.4433347407
 31
0.0
  0
LINE
  5
40
100
AcDbEntity
  8
L1_115
  6
CONTINUOUS
 62
         4
100
AcDbLine
 10
1412.2604162241
 20
-41.1016251771
 30
0.0
 11
1422.9187066605
 21
-30.4433347407
 31
0.0
  0
LINE
  5
41
100
AcDbEntity
  8
L1_115
  6
CONTINUOUS
 62
         4
100
AcDbLine
 10
1404.4010659734
 20
-44.7183347407
 30
0.0
 11
1418.6760659734
 21
-30.4433347407
 31
0.0
  0
LINE
  5
42
100
AcDbEntity
  8
L1_115
  6
CONTINUOUS
 62
         4
100
AcDbLine
 10
1403.2033403763
 20
-41.6734196507
 30
0.0
 11
1413.9357145339
 21
-30.9410454931
 31
0.0
  0
LINE
  5
43
100
AcDbEntity
  8
L1_115
  6
CONTINUOUS
 62
         4
100
AcDbLine
 10
1403.2033403763
 20
-37.4307789636
 30
0.0
 11
1413.0033403763
 21
-27.6307789636
 31
0.0
  0
LINE
  5
44
100
AcDbEntity
  8
L1_115
  6
CONTINUOUS
 62
         4
100
AcDbLine
 10
1401.0678961893
 20
-35.3235824634
 30
0.0
 11
1413.0033403763
 21
-23.3881382764
 31
0.0
  0
LINE
  5
45
100
AcDbEntity
  8
L1_115
  6
CONTINUOUS
 62
         4
100
AcDbLine
 10
1447.448143912
 20
11.0566652593
 30
0.0
 11
1448.9583403763
 21
12.5668617236
 31
0.0
  0
LINE
  5
46
100
AcDbEntity
  8
L1_115
  6
CONTINUOUS
 62
         4
100
AcDbLine
 10
1397.3652279533
 20
-34.7836100123
 30
0.0
 11
1413.0033403763
 21
-19.1454975893
 31
0.0
  0
LINE
  5
47
100
AcDbEntity
  8
L1_115
  6
CONTINUOUS
 62
         4
100
AcDbLine
 10
1436.7055032249
 20
4.5566652593
 30
0.0
 11
1440.0057015658
 21
7.8568636002
 31
0.0
  0
LINE
  5
48
100
AcDbEntity
  8
L1_115
  6
CONTINUOUS
 62
         4
100
AcDbLine
 10
1443.7055032249
 20
11.5566652593
 30
0.0
 11
1448.2055032249
 21
16.0566652593
 31
0.0
  0
LINE
  5
49
100
AcDbEntity
  8
L1_115
  6
CONTINUOUS
 62
         4
100
AcDbLine
 10
1393.6625597172
 20
-34.2436375612
 30
0.0
 11
1412.233101457
 21
-15.6730958214
 31
0.0
  0
LINE
  5
4A
100
AcDbEntity
  8
L1_115
  6
CONTINUOUS
 62
         4
100
AcDbLine
 10
1432.4628625378
 20
4.5566652593
 30
0.0
 11
1443.7679668392
 21
15.8617695607
 31
0.0
  0
LINE
  5
4B
100
AcDbEntity
  8
L1_115
  6
CONTINUOUS
 62
         4
100
AcDbLine
 10
1389.9598914812
 20
-33.7036651101
 30
0.0
 11
1408.2202218507
 21
-15.4433347407
 31
0.0
  0
LINE
  5
4C
100
AcDbEntity
  8
L1_115
  6
CONTINUOUS
 62
         4
100
AcDbLine
 10
1428.2202218507
 20
4.5566652593
 30
0.0
 11
1433.0052218507
 21
9.3416652593
 31
0.0
  0
LINE
  5
4D
100
AcDbEntity
  8
L1_115
  6
CONTINUOUS
 62
         4
100
AcDbLine
 10
1435.0553403763
 20
11.3917837849
 30
0.0
 11
1441.94829353
 21
18.2847369387
 31
0.0
  0
LINE
  5
4E
100
AcDbEntity
  8
L1_115
  6
CONTINUOUS
 62
         4
100
AcDbLine
 10
1386.2572232452
 20
-33.1636926591
 30
0.0
 11
1403.9775811635
 21
-15.4433347407
 31
0.0
  0
LINE
  5
4F
100
AcDbEntity
  8
L1_115
  6
CONTINUOUS
 62
         4
100
AcDbLine
 10
1408.9775811635
 20
-10.4433347407
 30
0.0
 11
1413.0033403763
 21
-6.417575528
 31
0.0
  0
LINE
  5
50
100
AcDbEntity
  8
L1_115
  6
CONTINUOUS
 62
         4
100
AcDbLine
 10
1423.9775811635
 20
4.5566652593
 30
0.0
 11
1428.7625811635
 21
9.3416652593
 31
0.0
  0
LINE
  5
51
100
AcDbEntity
  8
L1_115
  6
CONTINUOUS
 62
         4
100
AcDbLine
 10
1435.0553403763
 20
15.634424472
 30
0.0
 11
1437.9775811635
 21
18.5566652593
 31
0.0
  0
LINE
  5
52
100
AcDbEntity
  8
L1_115
  6
CONTINUOUS
 62
         4
100
AcDbLine
 10
1382.5545550091
 20
-32.623720208
 30
0.0
 11
1399.7349404764
 21
-15.4433347407
 31
0.0
  0
LINE
  5
53
100
AcDbEntity
  8
L1_115
  6
CONTINUOUS
 62
         4
100
AcDbLine
 10
1404.7349404764
 20
-10.4433347407
 30
0.0
 11
1413.0033403763
 21
-2.1749348408
 31
0.0
  0
LINE
  5
54
100
AcDbEntity
  8
L1_115
  6
CONTINUOUS
 62
         4
100
AcDbLine
 10
1419.7349404764
 20
4.5566652593
 30
0.0
 11
1424.5199404764
 21
9.3416652593
 31
0.0
  0
LINE
  5
55
100
AcDbEntity
  8
L1_115
  6
CONTINUOUS
 62
         4
100
AcDbLine
 10
1378.8518867731
 20
-32.0837477569
 30
0.0
 11
1395.4922997893
 21
-15.4433347407
 31
0.0
  0
LINE
  5
56
100
AcDbEntity
  8
L1_115
  6
CONTINUOUS
 62
         4
100
AcDbLine
 10
1400.4922997893
 20
-10.4433347407
 30
0.0
 11
1413.0033403763
 21
2.0677058463
 31
0.0
  0
LINE
  5
57
100
AcDbEntity
  8
L1_115
  6
CONTINUOUS
 62
         4
100
AcDbLine
 10
1415.9922997893
 20
5.0566652593
 30
0.0
 11
1420.2772997893
 21
9.3416652593
 31
0.0
  0
LINE
  5
58
100
AcDbEntity
  8
L1_115
  6
CONTINUOUS
 62
         4
100
AcDbLine
 10
1375.1492185371
 20
-31.5437753058
 30
0.0
 11
1393.5143321037
 21
-13.1786617392
 31
0.0
  0
LINE
  5
59
100
AcDbEntity
  8
L1_115
  6
CONTINUOUS
 62
         4
100
AcDbLine
 10
1396.2496591022
 20
-10.4433347407
 30
0.0
 11
1419.1033403763
 21
12.4103465334
 31
0.0
  0
LINE
  5
5A
100
AcDbEntity
  8
L1_115
  6
CONTINUOUS
 62
         4
100
AcDbLine
 10
1371.446550301
 20
-31.0038028547
 30
0.0
 11
1419.1033403763
 21
16.6529872205
 31
0.0
  0
LINE
  5
5B
100
AcDbEntity
  8
L1_115
  6
CONTINUOUS
 62
         4
100
AcDbLine
 10
1367.743882065
 20
-30.4638304036
 30
0.0
 11
1417.0393777279
 21
18.8316652593
 31
0.0
  0
LINE
  5
5C
100
AcDbEntity
  8
L1_115
  6
CONTINUOUS
 62
         4
100
AcDbLine
 10
1364.041213829
 20
-29.9238579525
 30
0.0
 11
1409.4678749295
 21
15.502803148
 31
0.0
  0
LINE
  5
5D
100
AcDbEntity
  8
L1_115
  6
CONTINUOUS
 62
         4
100
AcDbLine
 10
1360.3385455929
 20
-29.3838855014
 30
0.0
 11
1369.7790963537
 21
-19.9433347407
 31
0.0
  0
LINE
  5
5E
100
AcDbEntity
  8
L1_115
  6
CONTINUOUS
 62
         4
100
AcDbLine
 10
1370.4279646779
 20
-19.2944664165
 30
0.0
 11
1398.8334937157
 21
9.1110626213
 31
0.0
  0
LINE
  5
5F
100
AcDbEntity
  8
L1_115
  6
CONTINUOUS
 62
         4
100
AcDbLine
 10
1403.2033403763
 20
13.4809092819
 30
0.0
 11
1407.9283467054
 21
18.205915611
 31
0.0
  0
LINE
  5
60
100
AcDbEntity
  8
L1_115
  6
CONTINUOUS
 62
         4
100
AcDbLine
 10
1356.6358773569
 20
-28.8439130504
 30
0.0
 11
1365.5364556666
 21
-19.9433347407
 31
0.0
  0
LINE
  5
61
100
AcDbEntity
  8
L1_115
  6
CONTINUOUS
 62
         4
100
AcDbLine
 10
1373.5244014795
 20
-11.9553889277
 30
0.0
 11
1393.8664997405
 21
8.3867093333
 31
0.0
  0
LINE
  5
62
100
AcDbEntity
  8
L1_115
  6
CONTINUOUS
 62
         4
100
AcDbLine
 10
1403.2033403763
 20
17.723549969
 30
0.0
 11
1404.3114556666
 21
18.8316652593
 31
0.0
  0
LINE
  5
63
100
AcDbEntity
  8
L1_115
  6
CONTINUOUS
 62
         4
100
AcDbLine
 10
1352.9332091209
 20
-28.3039405993
 30
0.0
 11
1361.2938149795
 21
-19.9433347407
 31
0.0
  0
LINE
  5
64
100
AcDbEntity
  8
L1_115
  6
CONTINUOUS
 62
         4
100
AcDbLine
 10
1371.9714872089
 20
-9.2656625112
 30
0.0
 11
1388.8995057654
 21
7.6623560452
 31
0.0
  0
LINE
  5
65
100
AcDbEntity
  8
L1_115
  6
CONTINUOUS
 62
         4
100
AcDbLine
 10
1349.2305408848
 20
-27.7639681482
 30
0.0
 11
1357.0511742923
 21
-19.9433347407
 31
0.0
  0
LINE
  5
66
100
AcDbEntity
  8
L1_115
  6
CONTINUOUS
 62
         4
100
AcDbLine
 10
1370.4185729383
 20
-6.5759360947
 30
0.0
 11
1383.9325117902
 21
6.9380027572
 31
0.0
  0
LINE
  5
67
100
AcDbEntity
  8
L1_115
  6
CONTINUOUS
 62
         4
100
AcDbLine
 10
1345.5278726488
 20
-27.2239956971
 30
0.0
 11
1352.8085336052
 21
-19.9433347407
 31
0.0
  0
LINE
  5
68
100
AcDbEntity
  8
L1_115
  6
CONTINUOUS
 62
         4
100
AcDbLine
 10
1366.8085336052
 20
-5.9433347407
 30
0.0
 11
1378.9655178151
 21
6.2136494692
 31
0.0
  0
LINE
  5
69
100
AcDbEntity
  8
L1_115
  6
CONTINUOUS
 62
         4
100
AcDbLine
 10
1341.8252044128
 20
-26.684023246
 30
0.0
 11
1348.5658929181
 21
-19.9433347407
 31
0.0
  0
LINE
  5
6A
100
AcDbEntity
  8
L1_115
  6
CONTINUOUS
 62
         4
100
AcDbLine
 10
1362.5658929181
 20
-5.9433347407
 30
0.0
 11
1373.9985238399
 21
5.4892961811
 31
0.0
  0
LINE
  5
6B
100
AcDbEntity
  8
L1_115
  6
CONTINUOUS
 62
         4
100
AcDbLine
 10
1338.1225361768
 20
-26.1440507949
 30
0.0
 11
1344.323252231
 21
-19.9433347407
 31
0.0
  0
LINE
  5
6C
100
AcDbEntity
  8
L1_115
  6
CONTINUOUS
 62
         4
100
AcDbLine
 10
1358.323252231
 20
-5.9433347407
 30
0.0
 11
1369.0315298647
 21
4.7649428931
 31
0.0
  0
LINE
  5
6D
100
AcDbEntity
  8
L1_115
  6
CONTINUOUS
 62
         4
100
AcDbLine
 10
1334.4198679407
 20
-25.6040783438
 30
0.0
 11
1340.0806115439
 21
-19.9433347407
 31
0.0
  0
LINE
  5
6E
100
AcDbEntity
  8
L1_115
  6
CONTINUOUS
 62
         4
100
AcDbLine
 10
1354.0806115439
 20
-5.9433347407
 30
0.0
 11
1364.0645358896
 21
4.040589605
 31
0.0
  0
LINE
  5
6F
100
AcDbEntity
  8
L1_115
  6
CONTINUOUS
 62
         4
100
AcDbLine
 10
1331.7533403763
 20
-24.0279652212
 30
0.0
 11
1334.6879708568
 21
-21.0933347407
 31
0.0
  0
LINE
  5
70
100
AcDbEntity
  8
L1_115
  6
CONTINUOUS
 62
         4
100
AcDbLine
 10
1349.8379708568
 20
-5.9433347407
 30
0.0
 11
1359.0975419144
 21
3.316236317
 31
0.0
  0
LINE
  5
71
100
AcDbEntity
  8
L1_115
  6
CONTINUOUS
 62
         4
100
AcDbLine
 10
1345.5953301696
 20
-5.9433347407
 30
0.0
 11
1354.1305479392
 21
2.5918830289
 31
0.0
  0
LINE
  5
72
100
AcDbEntity
  8
L1_115
  6
CONTINUOUS
 62
         4
100
AcDbLine
 10
1341.3526894825
 20
-5.9433347407
 30
0.0
 11
1349.1635539641
 21
1.8675297409
 31
0.0
  0
LINE
  5
73
100
AcDbEntity
  8
L1_115
  6
CONTINUOUS
 62
         4
100
AcDbLine
 10
1337.3831159421
 20
-5.670267594
 30
0.0
 11
1344.1965599889
 21
1.1431764528
 31
0.0
  0
LINE
  5
74
100
AcDbEntity
  8
L1_115
  6
CONTINUOUS
 62
         4
100
AcDbLine
 10
1334.0174081083
 20
-4.7933347407
 30
0.0
 11
1339.2295660137
 21
0.4188231648
 31
0.0
  0
LINE
  5
75
100
AcDbEntity
  8
L1_115
  6
CONTINUOUS
 62
         4
100
AcDbLine
 10
1331.7533403763
 20
-2.8147617856
 30
0.0
 11
1334.2625720386
 21
-0.3055301233
 31
0.0
  0
ENDBLK
  5
76
100
AcDbEntity
  8
0
  6
CONTINUOUS
100
AcDbBlockEnd
  0
BLOCK
  5
1AB
100
AcDbEntity
  8
0
100
AcDbBlockBegin
  2
*D1
 70
        65
 10
0.0
 20
0.0
 30
0.0
  3
*D1
  1

  0
POINT
  5
1AE
100
AcDbEntity
  8
DEFPOINTS
  6
CONTINUOUS
 62
         0
100
AcDbPoint
 10
1531.9937674808
 20
181.6846417294
 30
0.0
  0
POINT
  5
1AF
100
AcDbEntity
  8
DEFPOINTS
  6
CONTINUOUS
 62
         0
100
AcDbPoint
 10
1441.0033403763
 20
181.6846417294
 30
0.0
  0
POINT
  5
1B0
100
AcDbEntity
  8
DEFPOINTS
  6
CONTINUOUS
 62
         0
100
AcDbPoint
 10
1441.0033403763
 20
118.6846417294
 30
0.0
  0
LINE
  5
1B1
100
AcDbEntity
  8
L1_115
  6
CONTINUOUS
 62
         4
100
AcDbLine
 10
1442.3533403763
 20
181.6846417294
 30
0.0
 11
1532.6687674808
 21
181.6846417294
 31
0.0
  0
LINE
  5
1B2
100
AcDbEntity
  8
L1_115
  6
CONTINUOUS
 62
         4
100
AcDbLine
 10
1442.3533403763
 20
118.6846417294
 30
0.0
 11
1532.6687674808
 21
118.6846417294
 31
0.0
  0
LINE
  5
1B3
100
AcDbEntity
  8
L1_115
  6
CONTINUOUS
 62
         4
100
AcDbLine
 10
1531.9937674808
 20
181.6846417294
 30
0.0
 11
1531.9937674808
 21
118.6846417294
 31
0.0
  0
SOLID
  5
1B4
100
AcDbEntity
  8
L1_115
  6
CONTINUOUS
 62
         4
100
AcDbTrace
 10
1531.9937674808
 20
181.6846417294
 30
0.0
 11
1532.3987674808
 21
178.9846417294
 31
0.0
 12
1531.5887674808
 22
178.9846417294
 32
0.0
 13
1531.9937674808
 23
181.6846417294
 33
0.0
  0
SOLID
  5
1B5
100
AcDbEntity
  8
L1_115
  6
CONTINUOUS
 62
         4
100
AcDbTrace
 10
1531.9937674808
 20
118.6846417294
 30
0.0
 11
1531.5887674808
 21
121.3846417294
 31
0.0
 12
1532.3987674808
 22
121.3846417294
 32
0.0
 13
1531.9937674808
 23
118.6846417294
 33
0.0
  0
TEXT
  5
1B7
100
AcDbEntity
  8
L1_115
  6
CONTINUOUS
 62
         4
100
AcDbText
 10
1529.9687674808
 20
145.3889543407
 30
0.0
 40
2.7
  1
崷63
 50
90.0
  7
BOX
100
AcDbText
  0
ENDBLK
  5
1B8
100
AcDbEntity
  8
0
  6
CONTINUOUS
100
AcDbBlockEnd
  0
BLOCK
  5
1C5
100
AcDbEntity
  8
0
100
AcDbBlockBegin
  2
*D2
 70
        65
 10
0.0
 20
0.0
 30
0.0
  3
*D2
  1

  0
POINT
  5
1C7
100
AcDbEntity
  8
DEFPOINTS
  6
CONTINUOUS
 62
         0
100
AcDbPoint
 10
1509.0081487071
 20
177.6846417294
 30
0.0
  0
POINT
  5
1C8
100
AcDbEntity
  8
DEFPOINTS
  6
CONTINUOUS
 62
         0
100
AcDbPoint
 10
1493.0033403763
 20
177.6846417294
 30
0.0
  0
POINT
  5
1C9
100
AcDbEntity
  8
DEFPOINTS
  6
CONTINUOUS
 62
         0
100
AcDbPoint
 10
1493.0033403763
 20
122.6846417294
 30
0.0
  0
LINE
  5
1CA
100
AcDbEntity
  8
L1_115
  6
CONTINUOUS
 62
         4
100
AcDbLine
 10
1494.3533403763
 20
177.6846417294
 30
0.0
 11
1509.6831487071
 21
177.6846417294
 31
0.0
  0
LINE
  5
1CB
100
AcDbEntity
  8
L1_115
  6
CONTINUOUS
 62
         4
100
AcDbLine
 10
1494.3533403763
 20
122.6846417294
 30
0.0
 11
1509.6831487071
 21
122.6846417294
 31
0.0
  0
LINE
  5
1CC
100
AcDbEntity
  8
L1_115
  6
CONTINUOUS
 62
         4
100
AcDbLine
 10
1509.0081487071
 20
177.6846417294
 30
0.0
 11
1509.0081487071
 21
122.6846417294
 31
0.0
  0
SOLID
  5
1CD
100
AcDbEntity
  8
L1_115
  6
CONTINUOUS
 62
         4
100
AcDbTrace
 10
1509.0081487071
 20
177.6846417294
 30
0.0
 11
1509.4131487071
 21
174.9846417294
 31
0.0
 12
1508.6031487071
 22
174.9846417294
 32
0.0
 13
1509.0081487071
 23
177.6846417294
 33
0.0
  0
SOLID
  5
1CE
100
AcDbEntity
  8
L1_115
  6
CONTINUOUS
 62
         4
100
AcDbTrace
 10
1509.0081487071
 20
122.6846417294
 30
0.0
 11
1508.6031487071
 21
125.3846417294
 31
0.0
 12
1509.4131487071
 22
125.3846417294
 32
0.0
 13
1509.0081487071
 23
122.6846417294
 33
0.0
  0
TEXT
  5
1D0
100
AcDbEntity
  8
L1_115
  6
CONTINUOUS
 62
         4
100
AcDbText
 10
1506.9831487071
 20
144.6334048145
 30
0.0
 40
2.7
  1
崷55
 50
90.0
  7
BOX
100
AcDbText
  0
ENDBLK
  5
1D1
100
AcDbEntity
  8
0
  6
CONTINUOUS
100
AcDbBlockEnd
  0
BLOCK
  5
1D6
100
AcDbEntity
  8
0
100
AcDbBlockBegin
  2
*D3
 70
        65
 10
0.0
 20
0.0
 30
0.0
  3
*D3
  1

  0
POINT
  5
1D8
100
AcDbEntity
  8
DEFPOINTS
  6
CONTINUOUS
 62
         0
100
AcDbPoint
 10
1331.7533403763
 20
226.0914119816
 30
0.0
  0
POINT
  5
1D9
100
AcDbEntity
  8
DEFPOINTS
  6
CONTINUOUS
 62
         0
100
AcDbPoint
 10
1331.7533403763
 20
161.4188234458
 30
0.0
  0
POINT
  5
1DA
100
AcDbEntity
  8
DEFPOINTS
  6
CONTINUOUS
 62
         0
100
AcDbPoint
 10
1493.0033403763
 20
150.1846417294
 30
0.0
  0
LINE
  5
1DB
100
AcDbEntity
  8
L1_115
  6
CONTINUOUS
 62
         4
100
AcDbLine
 10
1331.7533403763
 20
162.7688234458
 30
0.0
 11
1331.7533403763
 21
226.7664119816
 31
0.0
  0
LINE
  5
1DC
100
AcDbEntity
  8
L1_115
  6
CONTINUOUS
 62
         4
100
AcDbLine
 10
1493.0033403763
 20
151.5346417294
 30
0.0
 11
1493.0033403763
 21
226.7664119816
 31
0.0
  0
LINE
  5
1DD
100
AcDbEntity
  8
L1_115
  6
CONTINUOUS
 62
         4
100
AcDbLine
 10
1331.7533403763
 20
226.0914119816
 30
0.0
 11
1493.0033403763
 21
226.0914119816
 31
0.0
  0
SOLID
  5
1DE
100
AcDbEntity
  8
L1_115
  6
CONTINUOUS
 62
         4
100
AcDbTrace
 10
1331.7533403763
 20
226.0914119816
 30
0.0
 11
1334.4533403763
 21
226.4964119816
 31
0.0
 12
1334.4533403763
 22
225.6864119816
 32
0.0
 13
1331.7533403763
 23
226.0914119816
 33
0.0
  0
SOLID
  5
1DF
100
AcDbEntity
  8
L1_115
  6
CONTINUOUS
 62
         4
100
AcDbTrace
 10
1493.0033403763
 20
226.0914119816
 30
0.0
 11
1490.3033403763
 21
225.6864119816
 31
0.0
 12
1490.3033403763
 22
226.4964119816
 32
0.0
 13
1493.0033403763
 23
226.0914119816
 33
0.0
  0
TEXT
  5
1E1
100
AcDbEntity
  8
L1_115
  6
CONTINUOUS
 62
         4
100
AcDbText
 10
1415.3964200495
 20
228.1164119816
 30
0.0
 40
2.7
  1
161.25
  7
BOX
100
AcDbText
  0
ENDBLK
  5
1E2
100
AcDbEntity
  8
0
  6
CONTINUOUS
100
AcDbBlockEnd
  0
BLOCK
  5
1E4
100
AcDbEntity
  8
0
100
AcDbBlockBegin
  2
*D4
 70
        65
 10
0.0
 20
0.0
 30
0.0
  3
*D4
  1

  0
POINT
  5
1E6
100
AcDbEntity
  8
DEFPOINTS
  6
CONTINUOUS
 62
         0
100
AcDbPoint
 10
1400.0033403763
 20
220.3904295324
 30
0.0
  0
POINT
  5
1E7
100
AcDbEntity
  8
DEFPOINTS
  6
CONTINUOUS
 62
         0
100
AcDbPoint
 10
1400.0033403763
 20
172.4096417294
 30
0.0
  0
POINT
  5
1E8
100
AcDbEntity
  8
DEFPOINTS
  6
CONTINUOUS
 62
         0
100
AcDbPoint
 10
1493.0033403763
 20
150.1846417294
 30
0.0
  0
LINE
  5
1E9
100
AcDbEntity
  8
L1_115
  6
CONTINUOUS
 62
         4
100
AcDbLine
 10
1400.0033403763
 20
173.7596417294
 30
0.0
 11
1400.0033403763
 21
221.0654295324
 31
0.0
  0
LINE
  5
1EA
100
AcDbEntity
  8
L1_115
  6
CONTINUOUS
 62
         4
100
AcDbLine
 10
1493.0033403763
 20
151.5346417294
 30
0.0
 11
1493.0033403763
 21
221.0654295324
 31
0.0
  0
LINE
  5
1EB
100
AcDbEntity
  8
L1_115
  6
CONTINUOUS
 62
         4
100
AcDbLine
 10
1400.0033403763
 20
220.3904295324
 30
0.0
 11
1493.0033403763
 21
220.3904295324
 31
0.0
  0
SOLID
  5
1EC
100
AcDbEntity
  8
L1_115
  6
CONTINUOUS
 62
         4
100
AcDbTrace
 10
1400.0033403763
 20
220.3904295324
 30
0.0
 11
1402.7033403763
 21
220.7954295324
 31
0.0
 12
1402.7033403763
 22
219.9854295324
 32
0.0
 13
1400.0033403763
 23
220.3904295324
 33
0.0
  0
SOLID
  5
1ED
100
AcDbEntity
  8
L1_115
  6
CONTINUOUS
 62
         4
100
AcDbTrace
 10
1493.0033403763
 20
220.3904295324
 30
0.0
 11
1490.3033403763
 21
219.9854295324
 31
0.0
 12
1490.3033403763
 22
220.7954295324
 32
0.0
 13
1493.0033403763
 23
220.3904295324
 33
0.0
  0
TEXT
  5
1EF
100
AcDbEntity
  8
L1_115
  6
CONTINUOUS
 62
         4
100
AcDbText
 10
1455.0205505327
 20
222.4154295324
 30
0.0
 40
2.7
  1
93
  7
BOX
100
AcDbText
  0
ENDBLK
  5
1F0
100
AcDbEntity
  8
0
  6
CONTINUOUS
100
AcDbBlockEnd
  0
BLOCK
  5
20B
100
AcDbEntity
  8
0
100
AcDbBlockBegin
  2
*D5
 70
        65
 10
0.0
 20
0.0
 30
0.0
  3
*D5
  1

  0
POINT
  5
20D
100
AcDbEntity
  8
DEFPOINTS
  6
CONTINUOUS
 62
         0
100
AcDbPoint
 10
1493.0033403763
 20
-87.0801955925
 30
0.0
  0
POINT
  5
20E
100
AcDbEntity
  8
DEFPOINTS
  6
CONTINUOUS
 62
         0
100
AcDbPoint
 10
1493.0033403763
 20
-38.9086807647
 30
0.0
  0
POINT
  5
20F
100
AcDbEntity
  8
DEFPOINTS
  6
CONTINUOUS
 62
         0
100
AcDbPoint
 10
1395.0030155108
 20
-15.4433347407
 30
0.0
  0
LINE
  5
210
100
AcDbEntity
  8
L1_115
  6
CONTINUOUS
 62
         4
100
AcDbLine
 10
1493.0033403763
 20
-40.2586807647
 30
0.0
 11
1493.0033403763
 21
-87.7551955925
 31
0.0
  0
LINE
  5
211
100
AcDbEntity
  8
L1_115
  6
CONTINUOUS
 62
         4
100
AcDbLine
 10
1395.0030155108
 20
-16.7933347407
 30
0.0
 11
1395.0030155108
 21
-87.7551955925
 31
0.0
  0
LINE
  5
212
100
AcDbEntity
  8
L1_115
  6
CONTINUOUS
 62
         4
100
AcDbLine
 10
1493.0033403763
 20
-87.0801955925
 30
0.0
 11
1395.0030155108
 21
-87.0801955925
 31
0.0
  0
SOLID
  5
213
100
AcDbEntity
  8
L1_115
  6
CONTINUOUS
 62
         4
100
AcDbTrace
 10
1493.0033403763
 20
-87.0801955925
 30
0.0
 11
1490.3033403763
 21
-87.4851955925
 31
0.0
 12
1490.3033403763
 22
-86.6751955925
 32
0.0
 13
1493.0033403763
 23
-87.0801955925
 33
0.0
  0
SOLID
  5
214
100
AcDbEntity
  8
L1_115
  6
CONTINUOUS
 62
         4
100
AcDbTrace
 10
1395.0030155108
 20
-87.0801955925
 30
0.0
 11
1397.7030155108
 21
-86.6751955925
 31
0.0
 12
1397.7030155108
 22
-87.4851955925
 32
0.0
 13
1395.0030155108
 23
-87.0801955925
 33
0.0
  0
TEXT
  5
216
100
AcDbEntity
  8
L1_115
  6
CONTINUOUS
 62
         4
100
AcDbText
 10
1442.824638991
 20
-83.9481955925
 30
0.0
 40
2.7
  1
98
  7
BOX
100
AcDbText
  0
ENDBLK
  5
217
100
AcDbEntity
  8
0
  6
CONTINUOUS
100
AcDbBlockEnd
  0
BLOCK
  5
441
100
AcDbEntity
  8
0
100
AcDbBlockBegin
  2
*D6
 70
        65
 10
0.0
 20
0.0
 30
0.0
  3
*D6
  1

  0
POINT
  5
443
100
AcDbEntity
  8
DEFPOINTS
  6
CONTINUOUS
 62
         0
100
AcDbPoint
 10
1205.7026796829
 20
-115.7289651095
 30
0.0
  0
POINT
  5
444
100
AcDbEntity
  8
DEFPOINTS
  6
CONTINUOUS
 62
         0
100
AcDbPoint
 10
1207.0504143746
 20
-115.7289651095
 30
0.0
  0
POINT
  5
445
100
AcDbEntity
  8
DEFPOINTS
  6
CONTINUOUS
 62
         0
100
AcDbPoint
 10
1207.0504143746
 20
-121.7289651095
 30
0.0
  0
LINE
  5
446
100
AcDbEntity
  8
L1_115
  6
CONTINUOUS
 62
         4
100
AcDbLine
 10
1205.7004143746
 20
-115.7289651095
 30
0.0
 11
1205.0276796829
 21
-115.7289651095
 31
0.0
  0
LINE
  5
447
100
AcDbEntity
  8
L1_115
  6
CONTINUOUS
 62
         4
100
AcDbLine
 10
1205.7004143746
 20
-121.7289651095
 30
0.0
 11
1205.0276796829
 21
-121.7289651095
 31
0.0
  0
LINE
  5
448
100
AcDbEntity
  8
L1_115
  6
CONTINUOUS
 62
         4
100
AcDbLine
 10
1205.7026796829
 20
-115.7289651095
 30
0.0
 11
1205.7026796829
 21
-121.7289651095
 31
0.0
  0
SOLID
  5
449
100
AcDbEntity
  8
L1_115
  6
CONTINUOUS
 62
         4
100
AcDbTrace
 10
1205.7026796829
 20
-115.7289651095
 30
0.0
 11
1206.1076796829
 21
-118.4289651095
 31
0.0
 12
1205.2976796829
 22
-118.4289651095
 32
0.0
 13
1205.7026796829
 23
-115.7289651095
 33
0.0
  0
SOLID
  5
44A
100
AcDbEntity
  8
L1_115
  6
CONTINUOUS
 62
         4
100
AcDbTrace
 10
1205.7026796829
 20
-121.7289651095
 30
0.0
 11
1205.2976796829
 21
-119.0289651095
 31
0.0
 12
1206.1076796829
 22
-119.0289651095
 32
0.0
 13
1205.7026796829
 23
-121.7289651095
 33
0.0
  0
TEXT
  5
44C
100
AcDbEntity
  8
L1_115
  6
CONTINUOUS
 62
         4
100
AcDbText
 10
1203.6776796829
 20
-125.4789651095
 30
0.0
 40
2.7
  1
M6xP1
 50
90.0
  7
BOX
100
AcDbText
  0
ENDBLK
  5
44D
100
AcDbEntity
  8
0
  6
CONTINUOUS
100
AcDbBlockEnd
  0
BLOCK
  5
46B
100
AcDbEntity
  8
0
100
AcDbBlockBegin
  2
*D7
 70
        65
 10
0.0
 20
0.0
 30
0.0
  3
*D7
  1

  0
POINT
  5
46D
100
AcDbEntity
  8
DEFPOINTS
  6
CONTINUOUS
 62
         0
100
AcDbPoint
 10
1206.5504143746
 20
-91.6581433718
 30
0.0
  0
POINT
  5
46E
100
AcDbEntity
  8
DEFPOINTS
  6
CONTINUOUS
 62
         0
100
AcDbPoint
 10
1206.5504143746
 20
-116.2289651095
 30
0.0
  0
POINT
  5
46F
100
AcDbEntity
  8
DEFPOINTS
  6
CONTINUOUS
 62
         0
100
AcDbPoint
 10
1268.3004143746
 20
-112.7289651095
 30
0.0
  0
LINE
  5
470
100
AcDbEntity
  8
L1_115
  6
CONTINUOUS
 62
         4
100
AcDbLine
 10
1206.5504143746
 20
-114.8789651095
 30
0.0
 11
1206.5504143746
 21
-90.9831433718
 31
0.0
  0
LINE
  5
471
100
AcDbEntity
  8
L1_115
  6
CONTINUOUS
 62
         4
100
AcDbLine
 10
1268.3004143746
 20
-111.3789651095
 30
0.0
 11
1268.3004143746
 21
-90.9831433718
 31
0.0
  0
LINE
  5
472
100
AcDbEntity
  8
L1_115
  6
CONTINUOUS
 62
         4
100
AcDbLine
 10
1206.5504143746
 20
-91.6581433718
 30
0.0
 11
1268.3004143746
 21
-91.6581433718
 31
0.0
  0
SOLID
  5
473
100
AcDbEntity
  8
L1_115
  6
CONTINUOUS
 62
         4
100
AcDbTrace
 10
1206.5504143746
 20
-91.6581433718
 30
0.0
 11
1209.2504143746
 21
-91.2531433718
 31
0.0
 12
1209.2504143746
 22
-92.0631433718
 32
0.0
 13
1206.5504143746
 23
-91.6581433718
 33
0.0
  0
SOLID
  5
474
100
AcDbEntity
  8
L1_115
  6
CONTINUOUS
 62
         4
100
AcDbTrace
 10
1268.3004143746
 20
-91.6581433718
 30
0.0
 11
1265.6004143746
 21
-92.0631433718
 31
0.0
 12
1265.6004143746
 22
-91.2531433718
 32
0.0
 13
1268.3004143746
 23
-91.6581433718
 33
0.0
  0
TEXT
  5
476
100
AcDbEntity
  8
L1_115
  6
CONTINUOUS
 62
         4
100
AcDbText
 10
1232.5016809162
 20
-89.6331433718
 30
0.0
 40
2.7
  1
56.8
  7
BOX
100
AcDbText
  0
ENDBLK
  5
477
100
AcDbEntity
  8
0
  6
CONTINUOUS
100
AcDbBlockEnd
  0
BLOCK
  5
479
100
AcDbEntity
  8
0
100
AcDbBlockBegin
  2
*D8
 70
        65
 10
0.0
 20
0.0
 30
0.0
  3
*D8
  1

  0
POINT
  5
47B
100
AcDbEntity
  8
DEFPOINTS
  6
CONTINUOUS
 62
         0
100
AcDbPoint
 10
1206.5504143746
 20
-100.7832759068
 30
0.0
  0
POINT
  5
47C
100
AcDbEntity
  8
DEFPOINTS
  6
CONTINUOUS
 62
         0
100
AcDbPoint
 10
1206.5504143746
 20
-116.2289651095
 30
0.0
  0
POINT
  5
47D
100
AcDbEntity
  8
DEFPOINTS
  6
CONTINUOUS
 62
         0
100
AcDbPoint
 10
1217.8004143746
 20
-115.7289651095
 30
0.0
  0
LINE
  5
47E
100
AcDbEntity
  8
L1_115
  6
CONTINUOUS
 62
         4
100
AcDbLine
 10
1206.5504143746
 20
-114.8789651095
 30
0.0
 11
1206.5504143746
 21
-100.1082759068
 31
0.0
  0
LINE
  5
47F
100
AcDbEntity
  8
L1_115
  6
CONTINUOUS
 62
         4
100
AcDbLine
 10
1217.8004143746
 20
-114.3789651095
 30
0.0
 11
1217.8004143746
 21
-100.1082759068
 31
0.0
  0
LINE
  5
480
100
AcDbEntity
  8
L1_115
  6
CONTINUOUS
 62
         4
100
AcDbLine
 10
1206.5504143746
 20
-100.7832759068
 30
0.0
 11
1217.8004143746
 21
-100.7832759068
 31
0.0
  0
SOLID
  5
481
100
AcDbEntity
  8
L1_115
  6
CONTINUOUS
 62
         4
100
AcDbTrace
 10
1206.5504143746
 20
-100.7832759068
 30
0.0
 11
1209.2504143746
 21
-100.3782759068
 31
0.0
 12
1209.2504143746
 22
-101.1882759068
 32
0.0
 13
1206.5504143746
 23
-100.7832759068
 33
0.0
  0
SOLID
  5
482
100
AcDbEntity
  8
L1_115
  6
CONTINUOUS
 62
         4
100
AcDbTrace
 10
1217.8004143746
 20
-100.7832759068
 30
0.0
 11
1215.1004143746
 21
-101.1882759068
 31
0.0
 12
1215.1004143746
 22
-100.3782759068
 32
0.0
 13
1217.8004143746
 23
-100.7832759068
 33
0.0
  0
TEXT
  5
484
100
AcDbEntity
  8
L1_115
  6
CONTINUOUS
 62
         4
100
AcDbText
 10
1207.5427272671
 20
-98.7582759068
 30
0.0
 40
2.7
  1
11.25
  7
BOX
100
AcDbText
  0
ENDBLK
  5
485
100
AcDbEntity
  8
0
  6
CONTINUOUS
100
AcDbBlockEnd
  0
BLOCK
  5
487
100
AcDbEntity
  8
0
100
AcDbBlockBegin
  2
*D9
 70
        65
 10
0.0
 20
0.0
 30
0.0
  3
*D9
  1

  0
POINT
  5
489
100
AcDbEntity
  8
DEFPOINTS
  6
CONTINUOUS
 62
         0
100
AcDbPoint
 10
1275.6231601628
 20
-112.2289651095
 30
0.0
  0
POINT
  5
48A
100
AcDbEntity
  8
DEFPOINTS
  6
CONTINUOUS
 62
         0
100
AcDbPoint
 10
1267.8004143746
 20
-112.2289651095
 30
0.0
  0
POINT
  5
48B
100
AcDbEntity
  8
DEFPOINTS
  6
CONTINUOUS
 62
         0
100
AcDbPoint
 10
1267.8004143746
 20
-125.2289651095
 30
0.0
  0
LINE
  5
48C
100
AcDbEntity
  8
L1_115
  6
CONTINUOUS
 62
         4
100
AcDbLine
 10
1269.1504143746
 20
-112.2289651095
 30
0.0
 11
1276.2981601628
 21
-112.2289651095
 31
0.0
  0
LINE
  5
48D
100
AcDbEntity
  8
L1_115
  6
CONTINUOUS
 62
         4
100
AcDbLine
 10
1269.1504143746
 20
-125.2289651095
 30
0.0
 11
1276.2981601628
 21
-125.2289651095
 31
0.0
  0
LINE
  5
48E
100
AcDbEntity
  8
L1_115
  6
CONTINUOUS
 62
         4
100
AcDbLine
 10
1275.6231601628
 20
-112.2289651095
 30
0.0
 11
1275.6231601628
 21
-125.2289651095
 31
0.0
  0
SOLID
  5
48F
100
AcDbEntity
  8
L1_115
  6
CONTINUOUS
 62
         4
100
AcDbTrace
 10
1275.6231601628
 20
-112.2289651095
 30
0.0
 11
1276.0281601628
 21
-114.9289651095
 31
0.0
 12
1275.2181601628
 22
-114.9289651095
 32
0.0
 13
1275.6231601628
 23
-112.2289651095
 33
0.0
  0
SOLID
  5
490
100
AcDbEntity
  8
L1_115
  6
CONTINUOUS
 62
         4
100
AcDbTrace
 10
1275.6231601628
 20
-125.2289651095
 30
0.0
 11
1275.2181601628
 21
-122.5289651095
 31
0.0
 12
1276.0281601628
 22
-122.5289651095
 32
0.0
 13
1275.6231601628
 23
-125.2289651095
 33
0.0
  0
TEXT
  5
492
100
AcDbEntity
  8
L1_115
  6
CONTINUOUS
 62
         4
100
AcDbText
 10
1273.5981601628
 20
-124.1289651095
 30
0.0
 40
2.7
  1
崷13
 50
90.0
  7
BOX
100
AcDbText
  0
ENDBLK
  5
493
100
AcDbEntity
  8
0
  6
CONTINUOUS
100
AcDbBlockEnd
  0
BLOCK
  5
4F5
100
AcDbEntity
  8
0
100
AcDbBlockBegin
  2
*D10
 70
        65
 10
0.0
 20
0.0
 30
0.0
  3
*D10
  1

  0
POINT
  5
4F7
100
AcDbEntity
  8
DEFPOINTS
  6
CONTINUOUS
 62
         0
100
AcDbPoint
 10
1402.2133629978
 20
-108.6589651095
 30
0.0
  0
POINT
  5
4F8
100
AcDbEntity
  8
DEFPOINTS
  6
CONTINUOUS
 62
         0
100
AcDbPoint
 10
1411.9319281677
 20
-108.6589651095
 30
0.0
  0
POINT
  5
4F9
100
AcDbEntity
  8
DEFPOINTS
  6
CONTINUOUS
 62
         0
100
AcDbPoint
 10
1410.5619281677
 20
-128.7989651095
 30
0.0
  0
LINE
  5
4FA
100
AcDbEntity
  8
L1_115
  6
CONTINUOUS
 62
         4
100
AcDbLine
 10
1410.5819281677
 20
-108.6589651095
 30
0.0
 11
1401.5383629978
 21
-108.6589651095
 31
0.0
  0
LINE
  5
4FB
100
AcDbEntity
  8
L1_115
  6
CONTINUOUS
 62
         4
100
AcDbLine
 10
1409.2119281677
 20
-128.7989651095
 30
0.0
 11
1401.5383629978
 21
-128.7989651095
 31
0.0
  0
LINE
  5
4FC
100
AcDbEntity
  8
L1_115
  6
CONTINUOUS
 62
         4
100
AcDbLine
 10
1402.2133629978
 20
-108.6589651095
 30
0.0
 11
1402.2133629978
 21
-128.7989651095
 31
0.0
  0
SOLID
  5
4FD
100
AcDbEntity
  8
L1_115
  6
CONTINUOUS
 62
         4
100
AcDbTrace
 10
1402.2133629978
 20
-108.6589651095
 30
0.0
 11
1402.6183629978
 21
-111.3589651095
 31
0.0
 12
1401.8083629978
 22
-111.3589651095
 32
0.0
 13
1402.2133629978
 23
-108.6589651095
 33
0.0
  0
SOLID
  5
4FE
100
AcDbEntity
  8
L1_115
  6
CONTINUOUS
 62
         4
100
AcDbTrace
 10
1402.2133629978
 20
-128.7989651095
 30
0.0
 11
1401.8083629978
 21
-126.0989651095
 31
0.0
 12
1402.6183629978
 22
-126.0989651095
 32
0.0
 13
1402.2133629978
 23
-128.7989651095
 33
0.0
  0
TEXT
  5
500
100
AcDbEntity
  8
L1_115
  6
CONTINUOUS
 62
         4
100
AcDbText
 10
1400.1883629978
 20
-124.1289651095
 30
0.0
 40
2.7
  1
崷21
 50
90.0
  7
BOX
100
AcDbText
  0
ENDBLK
  5
501
100
AcDbEntity
  8
0
  6
CONTINUOUS
100
AcDbBlockEnd
  0
BLOCK
  5
503
100
AcDbEntity
  8
0
100
AcDbBlockBegin
  2
*D11
 70
        65
 10
0.0
 20
0.0
 30
0.0
  3
*D11
  1

  0
POINT
  5
505
100
AcDbEntity
  8
DEFPOINTS
  6
CONTINUOUS
 62
         0
100
AcDbPoint
 10
1356.9322063388
 20
-112.3839651095
 30
0.0
  0
POINT
  5
506
100
AcDbEntity
  8
DEFPOINTS
  6
CONTINUOUS
 62
         0
100
AcDbPoint
 10
1364.3253980379
 20
-112.3839651095
 30
0.0
  0
POINT
  5
507
100
AcDbEntity
  8
DEFPOINTS
  6
CONTINUOUS
 62
         0
100
AcDbPoint
 10
1362.8553980379
 20
-125.0739651095
 30
0.0
  0
LINE
  5
508
100
AcDbEntity
  8
L1_115
  6
CONTINUOUS
 62
         4
100
AcDbLine
 10
1362.9753980379
 20
-112.3839651095
 30
0.0
 11
1356.2572063388
 21
-112.3839651095
 31
0.0
  0
LINE
  5
509
100
AcDbEntity
  8
L1_115
  6
CONTINUOUS
 62
         4
100
AcDbLine
 10
1361.5053980379
 20
-125.0739651095
 30
0.0
 11
1356.2572063388
 21
-125.0739651095
 31
0.0
  0
LINE
  5
50A
100
AcDbEntity
  8
L1_115
  6
CONTINUOUS
 62
         4
100
AcDbLine
 10
1356.9322063388
 20
-112.3839651095
 30
0.0
 11
1356.9322063388
 21
-125.0739651095
 31
0.0
  0
SOLID
  5
50B
100
AcDbEntity
  8
L1_115
  6
CONTINUOUS
 62
         4
100
AcDbTrace
 10
1356.9322063388
 20
-112.3839651095
 30
0.0
 11
1357.3372063388
 21
-115.0839651095
 31
0.0
 12
1356.5272063388
 22
-115.0839651095
 32
0.0
 13
1356.9322063388
 23
-112.3839651095
 33
0.0
  0
SOLID
  5
50C
100
AcDbEntity
  8
L1_115
  6
CONTINUOUS
 62
         4
100
AcDbTrace
 10
1356.9322063388
 20
-125.0739651095
 30
0.0
 11
1356.5272063388
 21
-122.3739651095
 31
0.0
 12
1357.3372063388
 22
-122.3739651095
 32
0.0
 13
1356.9322063388
 23
-125.0739651095
 33
0.0
  0
TEXT
  5
50E
100
AcDbEntity
  8
L1_115
  6
CONTINUOUS
 62
         4
100
AcDbText
 10
1354.9072063388
 20
-124.1289651095
 30
0.0
 40
2.7
  1
崷12
 50
90.0
  7
BOX
100
AcDbText
  0
ENDBLK
  5
50F
100
AcDbEntity
  8
0
  6
CONTINUOUS
100
AcDbBlockEnd
  0
BLOCK
  5
511
100
AcDbEntity
  8
0
100
AcDbBlockBegin
  2
*D12
 70
        65
 10
0.0
 20
0.0
 30
0.0
  3
*D12
  1

  0
POINT
  5
513
100
AcDbEntity
  8
DEFPOINTS
  6
CONTINUOUS
 62
         0
100
AcDbPoint
 10
1329.5274674014
 20
-96.8489651095
 30
0.0
  0
POINT
  5
514
100
AcDbEntity
  8
DEFPOINTS
  6
CONTINUOUS
 62
         0
100
AcDbPoint
 10
1336.4068584888
 20
-96.8489651095
 30
0.0
  0
POINT
  5
515
100
AcDbEntity
  8
DEFPOINTS
  6
CONTINUOUS
 62
         0
100
AcDbPoint
 10
1334.6368584888
 20
-140.6089651095
 30
0.0
  0
LINE
  5
516
100
AcDbEntity
  8
L1_115
  6
CONTINUOUS
 62
         4
100
AcDbLine
 10
1335.0568584888
 20
-96.8489651095
 30
0.0
 11
1328.8524674014
 21
-96.8489651095
 31
0.0
  0
LINE
  5
517
100
AcDbEntity
  8
L1_115
  6
CONTINUOUS
 62
         4
100
AcDbLine
 10
1333.2868584888
 20
-140.6089651095
 30
0.0
 11
1328.8524674014
 21
-140.6089651095
 31
0.0
  0
LINE
  5
518
100
AcDbEntity
  8
L1_115
  6
CONTINUOUS
 62
         4
100
AcDbLine
 10
1329.5274674014
 20
-96.8489651095
 30
0.0
 11
1329.5274674014
 21
-140.6089651095
 31
0.0
  0
SOLID
  5
519
100
AcDbEntity
  8
L1_115
  6
CONTINUOUS
 62
         4
100
AcDbTrace
 10
1329.5274674014
 20
-96.8489651095
 30
0.0
 11
1329.9324674014
 21
-99.5489651095
 31
0.0
 12
1329.1224674014
 22
-99.5489651095
 32
0.0
 13
1329.5274674014
 23
-96.8489651095
 33
0.0
  0
SOLID
  5
51A
100
AcDbEntity
  8
L1_115
  6
CONTINUOUS
 62
         4
100
AcDbTrace
 10
1329.5274674014
 20
-140.6089651095
 30
0.0
 11
1329.1224674014
 21
-137.9089651095
 31
0.0
 12
1329.9324674014
 22
-137.9089651095
 32
0.0
 13
1329.5274674014
 23
-140.6089651095
 33
0.0
  0
TEXT
  5
51C
100
AcDbEntity
  8
L1_115
  6
CONTINUOUS
 62
         4
100
AcDbText
 10
1327.5024674014
 20
-124.1289651095
 30
0.0
 40
2.7
  1
崷44
 50
90.0
  7
BOX
100
AcDbText
  0
ENDBLK
  5
51D
100
AcDbEntity
  8
0
  6
CONTINUOUS
100
AcDbBlockEnd
  0
BLOCK
  5
51F
100
AcDbEntity
  8
0
100
AcDbBlockBegin
  2
*D13
 70
        65
 10
0.0
 20
0.0
 30
0.0
  3
*D13
  1

  0
POINT
  5
521
100
AcDbEntity
  8
DEFPOINTS
  6
CONTINUOUS
 62
         0
100
AcDbPoint
 10
1291.3567609995
 20
-107.0439651095
 30
0.0
  0
POINT
  5
522
100
AcDbEntity
  8
DEFPOINTS
  6
CONTINUOUS
 62
         0
100
AcDbPoint
 10
1297.0701750661
 20
-107.0439651095
 30
0.0
  0
POINT
  5
523
100
AcDbEntity
  8
DEFPOINTS
  6
CONTINUOUS
 62
         0
100
AcDbPoint
 10
1295.5001750662
 20
-130.4139651095
 30
0.0
  0
LINE
  5
524
100
AcDbEntity
  8
L1_115
  6
CONTINUOUS
 62
         4
100
AcDbLine
 10
1295.7201750661
 20
-107.0439651095
 30
0.0
 11
1290.6817609995
 21
-107.0439651095
 31
0.0
  0
LINE
  5
525
100
AcDbEntity
  8
L1_115
  6
CONTINUOUS
 62
         4
100
AcDbLine
 10
1294.1501750662
 20
-130.4139651095
 30
0.0
 11
1290.6817609995
 21
-130.4139651095
 31
0.0
  0
LINE
  5
526
100
AcDbEntity
  8
L1_115
  6
CONTINUOUS
 62
         4
100
AcDbLine
 10
1291.3567609995
 20
-107.0439651095
 30
0.0
 11
1291.3567609995
 21
-130.4139651095
 31
0.0
  0
SOLID
  5
527
100
AcDbEntity
  8
L1_115
  6
CONTINUOUS
 62
         4
100
AcDbTrace
 10
1291.3567609995
 20
-107.0439651095
 30
0.0
 11
1291.7617609995
 21
-109.7439651095
 31
0.0
 12
1290.9517609995
 22
-109.7439651095
 32
0.0
 13
1291.3567609995
 23
-107.0439651095
 33
0.0
  0
SOLID
  5
528
100
AcDbEntity
  8
L1_115
  6
CONTINUOUS
 62
         4
100
AcDbTrace
 10
1291.3567609995
 20
-130.4139651095
 30
0.0
 11
1290.9517609995
 21
-127.7139651095
 31
0.0
 12
1291.7617609995
 22
-127.7139651095
 32
0.0
 13
1291.3567609995
 23
-130.4139651095
 33
0.0
  0
TEXT
  5
52A
100
AcDbEntity
  8
L1_115
  6
CONTINUOUS
 62
         4
100
AcDbText
 10
1289.3317609995
 20
-126.8289651095
 30
0.0
 40
2.7
  1
崷23.5
 50
90.0
  7
BOX
100
AcDbText
  0
ENDBLK
  5
52B
100
AcDbEntity
  8
0
  6
CONTINUOUS
100
AcDbBlockEnd
  0
BLOCK
  5
52E
100
AcDbEntity
  8
0
100
AcDbBlockBegin
  2
*D14
 70
        65
 10
0.0
 20
0.0
 30
0.0
  3
*D14
  1

  0
POINT
  5
530
100
AcDbEntity
  8
DEFPOINTS
  6
CONTINUOUS
 62
         0
100
AcDbPoint
 10
1707.213798028
 20
-1.4239722593
 30
0.0
  0
POINT
  5
531
100
AcDbEntity
  8
DEFPOINTS
  6
CONTINUOUS
 62
         0
100
AcDbPoint
 10
1697.034786142
 20
-1.4239722593
 30
0.0
  0
POINT
  5
532
100
AcDbEntity
  8
DEFPOINTS
  6
CONTINUOUS
 62
         0
100
AcDbPoint
 10
1697.034786142
 20
-42.9239722593
 30
0.0
  0
LINE
  5
533
100
AcDbEntity
  8
L1_115
  6
CONTINUOUS
 62
         4
100
AcDbLine
 10
1698.384786142
 20
-1.4239722593
 30
0.0
 11
1707.888798028
 21
-1.4239722593
 31
0.0
  0
LINE
  5
534
100
AcDbEntity
  8
L1_115
  6
CONTINUOUS
 62
         4
100
AcDbLine
 10
1698.384786142
 20
-42.9239722593
 30
0.0
 11
1707.888798028
 21
-42.9239722593
 31
0.0
  0
LINE
  5
535
100
AcDbEntity
  8
L1_115
  6
CONTINUOUS
 62
         4
100
AcDbLine
 10
1707.213798028
 20
-1.4239722593
 30
0.0
 11
1707.213798028
 21
-42.9239722593
 31
0.0
  0
SOLID
  5
536
100
AcDbEntity
  8
L1_115
  6
CONTINUOUS
 62
         4
100
AcDbTrace
 10
1707.213798028
 20
-1.4239722593
 30
0.0
 11
1707.618798028
 21
-4.1239722593
 31
0.0
 12
1706.808798028
 22
-4.1239722593
 32
0.0
 13
1707.213798028
 23
-1.4239722593
 33
0.0
  0
SOLID
  5
537
100
AcDbEntity
  8
L1_115
  6
CONTINUOUS
 62
         4
100
AcDbTrace
 10
1707.213798028
 20
-42.9239722593
 30
0.0
 11
1706.808798028
 21
-40.2239722593
 31
0.0
 12
1707.618798028
 22
-40.2239722593
 32
0.0
 13
1707.213798028
 23
-42.9239722593
 33
0.0
  0
TEXT
  5
539
100
AcDbEntity
  8
L1_115
  6
CONTINUOUS
 62
         4
100
AcDbText
 10
1705.188798028
 20
-30.2739722593
 30
0.0
 40
2.7
  1
崷40.5
 50
90.0
  7
BOX
100
AcDbText
  0
ENDBLK
  5
53A
100
AcDbEntity
  8
0
  6
CONTINUOUS
100
AcDbBlockEnd
  0
BLOCK
  5
53C
100
AcDbEntity
  8
0
100
AcDbBlockBegin
  2
*D15
 70
        65
 10
0.0
 20
0.0
 30
0.0
  3
*D15
  1

  0
POINT
  5
53E
100
AcDbEntity
  8
DEFPOINTS
  6
CONTINUOUS
 62
         0
100
AcDbPoint
 10
1682.6221336297
 20
-5.9239722593
 30
0.0
  0
POINT
  5
53F
100
AcDbEntity
  8
DEFPOINTS
  6
CONTINUOUS
 62
         0
100
AcDbPoint
 10
1671.9935270148
 20
-5.9239722593
 30
0.0
  0
POINT
  5
540
100
AcDbEntity
  8
DEFPOINTS
  6
CONTINUOUS
 62
         0
100
AcDbPoint
 10
1671.9935270148
 20
-38.4239722593
 30
0.0
  0
LINE
  5
541
100
AcDbEntity
  8
L1_115
  6
CONTINUOUS
 62
         4
100
AcDbLine
 10
1673.3435270148
 20
-5.9239722593
 30
0.0
 11
1683.2971336297
 21
-5.9239722593
 31
0.0
  0
LINE
  5
542
100
AcDbEntity
  8
L1_115
  6
CONTINUOUS
 62
         4
100
AcDbLine
 10
1673.3435270148
 20
-38.4239722593
 30
0.0
 11
1683.2971336297
 21
-38.4239722593
 31
0.0
  0
LINE
  5
543
100
AcDbEntity
  8
L1_115
  6
CONTINUOUS
 62
         4
100
AcDbLine
 10
1682.6221336297
 20
-5.9239722593
 30
0.0
 11
1682.6221336297
 21
-38.4239722593
 31
0.0
  0
SOLID
  5
544
100
AcDbEntity
  8
L1_115
  6
CONTINUOUS
 62
         4
100
AcDbTrace
 10
1682.6221336297
 20
-5.9239722593
 30
0.0
 11
1683.0271336297
 21
-8.6239722593
 31
0.0
 12
1682.2171336297
 22
-8.6239722593
 32
0.0
 13
1682.6221336297
 23
-5.9239722593
 33
0.0
  0
SOLID
  5
545
100
AcDbEntity
  8
L1_115
  6
CONTINUOUS
 62
         4
100
AcDbTrace
 10
1682.6221336297
 20
-38.4239722593
 30
0.0
 11
1682.2171336297
 21
-35.7239722593
 31
0.0
 12
1683.0271336297
 22
-35.7239722593
 32
0.0
 13
1682.6221336297
 23
-38.4239722593
 33
0.0
  0
TEXT
  5
547
100
AcDbEntity
  8
L1_115
  6
CONTINUOUS
 62
         4
100
AcDbText
 10
1680.5971336297
 20
-30.2739722593
 30
0.0
 40
2.7
  1
崷33.5
 50
90.0
  7
BOX
100
AcDbText
  0
ENDBLK
  5
548
100
AcDbEntity
  8
0
  6
CONTINUOUS
100
AcDbBlockEnd
  0
BLOCK
  5
55C
100
AcDbEntity
  8
0
100
AcDbBlockBegin
  2
*D16
 70
        65
 10
0.0
 20
0.0
 30
0.0
  3
*D16
  1

  0
POINT
  5
55E
100
AcDbEntity
  8
DEFPOINTS
  6
CONTINUOUS
 62
         0
100
AcDbPoint
 10
1620.0466203997
 20
7.8260277407
 30
0.0
  0
POINT
  5
55F
100
AcDbEntity
  8
DEFPOINTS
  6
CONTINUOUS
 62
         0
100
AcDbPoint
 10
1607.4930865599
 20
7.8260277407
 30
0.0
  0
POINT
  5
560
100
AcDbEntity
  8
DEFPOINTS
  6
CONTINUOUS
 62
         0
100
AcDbPoint
 10
1607.4930865599
 20
-52.1739722593
 30
0.0
  0
LINE
  5
561
100
AcDbEntity
  8
L1_115
  6
CONTINUOUS
 62
         4
100
AcDbLine
 10
1608.8430865599
 20
7.8260277407
 30
0.0
 11
1620.7216203997
 21
7.8260277407
 31
0.0
  0
LINE
  5
562
100
AcDbEntity
  8
L1_115
  6
CONTINUOUS
 62
         4
100
AcDbLine
 10
1608.8430865599
 20
-52.1739722593
 30
0.0
 11
1620.7216203997
 21
-52.1739722593
 31
0.0
  0
LINE
  5
563
100
AcDbEntity
  8
L1_115
  6
CONTINUOUS
 62
         4
100
AcDbLine
 10
1620.0466203997
 20
7.8260277407
 30
0.0
 11
1620.0466203997
 21
-52.1739722593
 31
0.0
  0
SOLID
  5
564
100
AcDbEntity
  8
L1_115
  6
CONTINUOUS
 62
         4
100
AcDbTrace
 10
1620.0466203997
 20
7.8260277407
 30
0.0
 11
1620.4516203997
 21
5.1260277407
 31
0.0
 12
1619.6416203997
 22
5.1260277407
 32
0.0
 13
1620.0466203997
 23
7.8260277407
 33
0.0
  0
SOLID
  5
565
100
AcDbEntity
  8
L1_115
  6
CONTINUOUS
 62
         4
100
AcDbTrace
 10
1620.0466203997
 20
-52.1739722593
 30
0.0
 11
1619.6416203997
 21
-49.4739722593
 31
0.0
 12
1620.4516203997
 22
-49.4739722593
 32
0.0
 13
1620.0466203997
 23
-52.1739722593
 33
0.0
  0
TEXT
  5
567
100
AcDbEntity
  8
L1_115
  6
CONTINUOUS
 62
         4
100
AcDbText
 10
1618.0216203997
 20
-27.5739722593
 30
0.0
 40
2.7
  1
崷59
 50
90.0
  7
BOX
100
AcDbText
  0
ENDBLK
  5
568
100
AcDbEntity
  8
0
  6
CONTINUOUS
100
AcDbBlockEnd
  0
BLOCK
  5
56A
100
AcDbEntity
  8
0
100
AcDbBlockBegin
  2
*D17
 70
        65
 10
0.0
 20
0.0
 30
0.0
  3
*D17
  1

  0
POINT
  5
56C
100
AcDbEntity
  8
DEFPOINTS
  6
CONTINUOUS
 62
         0
100
AcDbPoint
 10
1649.6896667405
 20
-9.2239722593
 30
0.0
  0
POINT
  5
56D
100
AcDbEntity
  8
DEFPOINTS
  6
CONTINUOUS
 62
         0
100
AcDbPoint
 10
1642.2076228906
 20
-9.2239722593
 30
0.0
  0
POINT
  5
56E
100
AcDbEntity
  8
DEFPOINTS
  6
CONTINUOUS
 62
         0
100
AcDbPoint
 10
1642.2076228906
 20
-35.1239722593
 30
0.0
  0
LINE
  5
56F
100
AcDbEntity
  8
L1_115
  6
CONTINUOUS
 62
         4
100
AcDbLine
 10
1643.5576228906
 20
-9.2239722593
 30
0.0
 11
1650.3646667405
 21
-9.2239722593
 31
0.0
  0
LINE
  5
570
100
AcDbEntity
  8
L1_115
  6
CONTINUOUS
 62
         4
100
AcDbLine
 10
1643.5576228906
 20
-35.1239722593
 30
0.0
 11
1650.3646667405
 21
-35.1239722593
 31
0.0
  0
LINE
  5
571
100
AcDbEntity
  8
L1_115
  6
CONTINUOUS
 62
         4
100
AcDbLine
 10
1649.6896667405
 20
-9.2239722593
 30
0.0
 11
1649.6896667405
 21
-35.1239722593
 31
0.0
  0
SOLID
  5
572
100
AcDbEntity
  8
L1_115
  6
CONTINUOUS
 62
         4
100
AcDbTrace
 10
1649.6896667405
 20
-9.2239722593
 30
0.0
 11
1650.0946667405
 21
-11.9239722593
 31
0.0
 12
1649.2846667405
 22
-11.9239722593
 32
0.0
 13
1649.6896667405
 23
-9.2239722593
 33
0.0
  0
SOLID
  5
573
100
AcDbEntity
  8
L1_115
  6
CONTINUOUS
 62
         4
100
AcDbTrace
 10
1649.6896667405
 20
-35.1239722593
 30
0.0
 11
1649.2846667405
 21
-32.4239722593
 31
0.0
 12
1650.0946667405
 22
-32.4239722593
 32
0.0
 13
1649.6896667405
 23
-35.1239722593
 33
0.0
  0
TEXT
  5
575
100
AcDbEntity
  8
L1_115
  6
CONTINUOUS
 62
         4
100
AcDbText
 10
1647.6646667405
 20
-27.5739722593
 30
0.0
 40
2.7
  1
崷26
 50
90.0
  7
BOX
100
AcDbText
  0
ENDBLK
  5
576
100
AcDbEntity
  8
0
  6
CONTINUOUS
100
AcDbBlockEnd
  0
BLOCK
  5
578
100
AcDbEntity
  8
0
100
AcDbBlockBegin
  2
*D18
 70
        65
 10
0.0
 20
0.0
 30
0.0
  3
*D18
  1

  0
POINT
  5
57A
100
AcDbEntity
  8
DEFPOINTS
  6
CONTINUOUS
 62
         0
100
AcDbPoint
 10
1641.0076228906
 20
-3.7786708379
 30
0.0
  0
POINT
  5
57B
100
AcDbEntity
  8
DEFPOINTS
  6
CONTINUOUS
 62
         0
100
AcDbPoint
 10
1641.0076228906
 20
-9.2239722593
 30
0.0
  0
POINT
  5
57C
100
AcDbEntity
  8
DEFPOINTS
  6
CONTINUOUS
 62
         0
100
AcDbPoint
 10
1642.2076228906
 20
-9.2239722593
 30
0.0
  0
LINE
  5
57D
100
AcDbEntity
  8
L1_115
  6
CONTINUOUS
 62
         4
100
AcDbLine
 10
1641.0076228906
 20
-7.8739722593
 30
0.0
 11
1641.0076228906
 21
-3.1036708379
 31
0.0
  0
LINE
  5
57E
100
AcDbEntity
  8
L1_115
  6
CONTINUOUS
 62
         4
100
AcDbLine
 10
1642.2076228906
 20
-7.8739722593
 30
0.0
 11
1642.2076228906
 21
-3.1036708379
 31
0.0
  0
LINE
  5
57F
100
AcDbEntity
  8
L1_115
  6
CONTINUOUS
 62
         4
100
AcDbLine
 10
1641.0076228906
 20
-3.7786708379
 30
0.0
 11
1642.2076228906
 21
-3.7786708379
 31
0.0
  0
SOLID
  5
580
100
AcDbEntity
  8
L1_115
  6
CONTINUOUS
 62
         4
100
AcDbTrace
 10
1641.0076228906
 20
-3.7786708379
 30
0.0
 11
1643.7076228906
 21
-3.3736708379
 31
0.0
 12
1643.7076228906
 22
-4.1836708379
 32
0.0
 13
1641.0076228906
 23
-3.7786708379
 33
0.0
  0
SOLID
  5
581
100
AcDbEntity
  8
L1_115
  6
CONTINUOUS
 62
         4
100
AcDbTrace
 10
1642.2076228906
 20
-3.7786708379
 30
0.0
 11
1639.5076228906
 21
-4.1836708379
 31
0.0
 12
1639.5076228906
 22
-3.3736708379
 32
0.0
 13
1642.2076228906
 23
-3.7786708379
 33
0.0
  0
TEXT
  5
583
100
AcDbEntity
  8
L1_115
  6
CONTINUOUS
 62
         4
100
AcDbText
 10
1637.5576228906
 20
-1.7536708379
 30
0.0
 40
2.7
  1
1.2
  7
BOX
100
AcDbText
  0
ENDBLK
  5
584
100
AcDbEntity
  8
0
  6
CONTINUOUS
100
AcDbBlockEnd
  0
BLOCK
  5
58A
100
AcDbEntity
  8
0
100
AcDbBlockBegin
  2
*D19
 70
        65
 10
0.0
 20
0.0
 30
0.0
  3
*D19
  1

  0
POINT
  5
58C
100
AcDbEntity
  8
DEFPOINTS
  6
CONTINUOUS
 62
         0
100
AcDbPoint
 10
1727.2592527236
 20
-22.1739722593
 30
0.0
  0
POINT
  5
58D
100
AcDbEntity
  8
DEFPOINTS
  6
CONTINUOUS
 62
         0
100
AcDbPoint
 10
1729.004858058
 20
-19.5219000475
 30
0.0
  0
LINE
  5
58E
100
AcDbEntity
  8
L1_115
  6
CONTINUOUS
 62
         4
100
AcDbLine
 10
1729.004858058
 20
-19.5219000475
 30
0.0
 11
1727.2592527236
 21
-22.1739722593
 31
0.0
  0
LINE
  5
58F
100
AcDbEntity
  8
L1_115
  6
CONTINUOUS
 62
         4
100
AcDbLine
 10
1729.004858058
 20
-19.5219000475
 30
0.0
 11
1742.0893348304
 21
0.3571508291
 31
0.0
  0
SOLID
  5
590
100
AcDbEntity
  8
L1_115
  6
CONTINUOUS
 62
         4
100
AcDbTrace
 10
1729.004858058
 20
-19.5219000475
 30
0.0
 11
1727.858702103
 21
-21.9998733175
 31
0.0
 12
1727.1821104521
 22
-21.5545377834
 32
0.0
 13
1729.004858058
 23
-19.5219000475
 33
0.0
  0
TEXT
  5
592
100
AcDbEntity
  8
L1_115
  6
CONTINUOUS
 62
         4
100
AcDbText
 10
1731.6469313616
 20
-13.1050716169
 30
0.0
 40
2.7
  1
R3.175
 50
56.6469156004
  7
BOX
100
AcDbText
  0
ENDBLK
  5
593
100
AcDbEntity
  8
0
  6
CONTINUOUS
100
AcDbBlockEnd
  0
BLOCK
  5
595
100
AcDbEntity
  8
0
100
AcDbBlockBegin
  2
*D20
 70
        65
 10
0.0
 20
0.0
 30
0.0
  3
*D20
  1

  0
POINT
  5
597
100
AcDbEntity
  8
DEFPOINTS
  6
CONTINUOUS
 62
         0
100
AcDbPoint
 10
1752.3187727115
 20
-22.1739722593
 30
0.0
  0
POINT
  5
598
100
AcDbEntity
  8
DEFPOINTS
  6
CONTINUOUS
 62
         0
100
AcDbPoint
 10
1756.1997079097
 20
-19.4135831133
 30
0.0
  0
LINE
  5
599
100
AcDbEntity
  8
L1_115
  6
CONTINUOUS
 62
         4
100
AcDbLine
 10
1756.1997079097
 20
-19.4135831133
 30
0.0
 11
1752.3187727115
 21
-22.1739722593
 31
0.0
  0
LINE
  5
59A
100
AcDbEntity
  8
L1_115
  6
CONTINUOUS
 62
         4
100
AcDbLine
 10
1756.1997079097
 20
-19.4135831133
 30
0.0
 11
1770.0572857111
 21
-9.5571167206
 31
0.0
  0
SOLID
  5
59B
100
AcDbEntity
  8
L1_115
  6
CONTINUOUS
 62
         4
100
AcDbTrace
 10
1756.1997079097
 20
-19.4135831133
 30
0.0
 11
1754.2342344333
 21
-21.3085604255
 31
0.0
 12
1753.764750925
 22
-20.6484958564
 32
0.0
 13
1756.1997079097
 23
-19.4135831133
 33
0.0
  0
TEXT
  5
59D
100
AcDbEntity
  8
L1_115
  6
CONTINUOUS
 62
         4
100
AcDbText
 10
1755.3250214652
 20
-18.4484897
 30
0.0
 40
2.7
  1
R4.763
 50
35.4230654292
  7
BOX
100
AcDbText
  0
ENDBLK
  5
59E
100
AcDbEntity
  8
0
  6
CONTINUOUS
100
AcDbBlockEnd
  0
BLOCK
  5
5A1
100
AcDbEntity
  8
0
100
AcDbBlockBegin
  2
*D21
 70
        65
 10
0.0
 20
0.0
 30
0.0
  3
*D21
  1

  0
POINT
  5
5A3
100
AcDbEntity
  8
DEFPOINTS
  6
CONTINUOUS
 62
         0
100
AcDbPoint
 10
1524.3290153143
 20
179.1846417294
 30
0.0
  0
POINT
  5
5A4
100
AcDbEntity
  8
DEFPOINTS
  6
CONTINUOUS
 62
         0
100
AcDbPoint
 10
1484.5432133573
 20
179.1846417294
 30
0.0
  0
POINT
  5
5A5
100
AcDbEntity
  8
DEFPOINTS
  6
CONTINUOUS
 62
         0
100
AcDbPoint
 10
1484.0033403763
 20
121.1846417294
 30
0.0
  0
LINE
  5
5A6
100
AcDbEntity
  8
L1_115
  6
CONTINUOUS
 62
         4
100
AcDbLine
 10
1485.8932133573
 20
179.1846417294
 30
0.0
 11
1525.0040153143
 21
179.1846417294
 31
0.0
  0
LINE
  5
5A7
100
AcDbEntity
  8
L1_115
  6
CONTINUOUS
 62
         4
100
AcDbLine
 10
1485.3533403763
 20
121.1846417294
 30
0.0
 11
1525.0040153143
 21
121.1846417294
 31
0.0
  0
LINE
  5
5A8
100
AcDbEntity
  8
L1_115
  6
CONTINUOUS
 62
         4
100
AcDbLine
 10
1524.3290153143
 20
179.1846417294
 30
0.0
 11
1524.3290153143
 21
121.1846417294
 31
0.0
  0
SOLID
  5
5A9
100
AcDbEntity
  8
L1_115
  6
CONTINUOUS
 62
         4
100
AcDbTrace
 10
1524.3290153143
 20
179.1846417294
 30
0.0
 11
1524.7340153143
 21
176.4846417294
 31
0.0
 12
1523.9240153143
 22
176.4846417294
 32
0.0
 13
1524.3290153143
 23
179.1846417294
 33
0.0
  0
SOLID
  5
5AA
100
AcDbEntity
  8
L1_115
  6
CONTINUOUS
 62
         4
100
AcDbTrace
 10
1524.3290153143
 20
121.1846417294
 30
0.0
 11
1523.9240153143
 21
123.8846417294
 31
0.0
 12
1524.7340153143
 22
123.8846417294
 32
0.0
 13
1524.3290153143
 23
121.1846417294
 33
0.0
  0
TEXT
  5
5AC
100
AcDbEntity
  8
L1_115
  6
CONTINUOUS
 62
         4
100
AcDbText
 10
1521.1970153143
 20
138.0917562359
 30
0.0
 40
2.7
  1
崷58
 50
90.0
  7
BOX
100
AcDbText
  0
ENDBLK
  5
5AD
100
AcDbEntity
  8
0
  6
CONTINUOUS
100
AcDbBlockEnd
  0
BLOCK
  5
5AF
100
AcDbEntity
  8
0
100
AcDbBlockBegin
  2
*D22
 70
        65
 10
0.0
 20
0.0
 30
0.0
  3
*D22
  1

  0
POINT
  5
5B1
100
AcDbEntity
  8
DEFPOINTS
  6
CONTINUOUS
 62
         0
100
AcDbPoint
 10
1516.4061423897
 20
178.1846417294
 30
0.0
  0
POINT
  5
5B2
100
AcDbEntity
  8
DEFPOINTS
  6
CONTINUOUS
 62
         0
100
AcDbPoint
 10
1484.0033403763
 20
178.1846417294
 30
0.0
  0
POINT
  5
5B3
100
AcDbEntity
  8
DEFPOINTS
  6
CONTINUOUS
 62
         0
100
AcDbPoint
 10
1484.0033403763
 20
122.1846417294
 30
0.0
  0
LINE
  5
5B4
100
AcDbEntity
  8
L1_115
  6
CONTINUOUS
 62
         4
100
AcDbLine
 10
1485.3533403763
 20
178.1846417294
 30
0.0
 11
1517.0811423897
 21
178.1846417294
 31
0.0
  0
LINE
  5
5B5
100
AcDbEntity
  8
L1_115
  6
CONTINUOUS
 62
         4
100
AcDbLine
 10
1485.3533403763
 20
122.1846417294
 30
0.0
 11
1517.0811423897
 21
122.1846417294
 31
0.0
  0
LINE
  5
5B6
100
AcDbEntity
  8
L1_115
  6
CONTINUOUS
 62
         4
100
AcDbLine
 10
1516.4061423897
 20
178.1846417294
 30
0.0
 11
1516.4061423897
 21
122.1846417294
 31
0.0
  0
SOLID
  5
5B7
100
AcDbEntity
  8
L1_115
  6
CONTINUOUS
 62
         4
100
AcDbTrace
 10
1516.4061423897
 20
178.1846417294
 30
0.0
 11
1516.8111423897
 21
175.4846417294
 31
0.0
 12
1516.0011423897
 22
175.4846417294
 32
0.0
 13
1516.4061423897
 23
178.1846417294
 33
0.0
  0
SOLID
  5
5B8
100
AcDbEntity
  8
L1_115
  6
CONTINUOUS
 62
         4
100
AcDbTrace
 10
1516.4061423897
 20
122.1846417294
 30
0.0
 11
1516.0011423897
 21
124.8846417294
 31
0.0
 12
1516.8111423897
 22
124.8846417294
 32
0.0
 13
1516.4061423897
 23
122.1846417294
 33
0.0
  0
TEXT
  5
5BA
100
AcDbEntity
  8
L1_115
  6
CONTINUOUS
 62
         4
100
AcDbText
 10
1513.2741423897
 20
140.495767433
 30
0.0
 40
2.7
  1
崷56
 50
90.0
  7
BOX
100
AcDbText
  0
ENDBLK
  5
5BB
100
AcDbEntity
  8
0
  6
CONTINUOUS
100
AcDbBlockEnd
  0
BLOCK
  5
5BD
100
AcDbEntity
  8
0
100
AcDbBlockBegin
  2
*D23
 70
        65
 10
0.0
 20
0.0
 30
0.0
  3
*D23
  1

  0
POINT
  5
5BF
100
AcDbEntity
  8
DEFPOINTS
  6
CONTINUOUS
 62
         0
100
AcDbPoint
 10
1463.0120921578
 20
155.1346417294
 30
0.0
  0
POINT
  5
5C0
100
AcDbEntity
  8
DEFPOINTS
  6
CONTINUOUS
 62
         0
100
AcDbPoint
 10
1453.9083403763
 20
155.1346417294
 30
0.0
  0
POINT
  5
5C1
100
AcDbEntity
  8
DEFPOINTS
  6
CONTINUOUS
 62
         0
100
AcDbPoint
 10
1453.9083403763
 20
145.2346417294
 30
0.0
  0
LINE
  5
5C2
100
AcDbEntity
  8
L1_115
  6
CONTINUOUS
 62
         4
100
AcDbLine
 10
1455.2583403763
 20
155.1346417294
 30
0.0
 11
1463.6870921578
 21
155.1346417294
 31
0.0
  0
LINE
  5
5C3
100
AcDbEntity
  8
L1_115
  6
CONTINUOUS
 62
         4
100
AcDbLine
 10
1455.2583403763
 20
145.2346417294
 30
0.0
 11
1463.6870921578
 21
145.2346417294
 31
0.0
  0
LINE
  5
5C4
100
AcDbEntity
  8
L1_115
  6
CONTINUOUS
 62
         4
100
AcDbLine
 10
1463.0120921578
 20
155.1346417294
 30
0.0
 11
1463.0120921578
 21
145.2346417294
 31
0.0
  0
SOLID
  5
5C5
100
AcDbEntity
  8
L1_115
  6
CONTINUOUS
 62
         4
100
AcDbTrace
 10
1463.0120921578
 20
155.1346417294
 30
0.0
 11
1463.4170921578
 21
152.4346417294
 31
0.0
 12
1462.6070921578
 22
152.4346417294
 32
0.0
 13
1463.0120921578
 23
155.1346417294
 33
0.0
  0
LINE
  5
5C6
100
AcDbEntity
  8
L1_115
  6
CONTINUOUS
 62
         4
100
AcDbLine
 10
1463.0120921578
 20
145.2346417294
 30
0.0
 11
1463.0120921578
 21
128.8794802453
 31
0.0
  0
SOLID
  5
5C7
100
AcDbEntity
  8
L1_115
  6
CONTINUOUS
 62
         4
100
AcDbTrace
 10
1463.0120921578
 20
145.2346417294
 30
0.0
 11
1462.6070921578
 21
147.9346417294
 31
0.0
 12
1463.4170921578
 22
147.9346417294
 32
0.0
 13
1463.0120921578
 23
145.2346417294
 33
0.0
  0
TEXT
  5
5C9
100
AcDbEntity
  8
L1_115
  6
CONTINUOUS
 62
         4
100
AcDbText
 10
1459.8800921578
 20
130.2294802453
 30
0.0
 40
2.7
  1
9.55
 50
90.0
  7
BOX
100
AcDbText
  0
ENDBLK
  5
5CA
100
AcDbEntity
  8
0
  6
CONTINUOUS
100
AcDbBlockEnd
  0
BLOCK
  5
5CC
100
AcDbEntity
  8
0
100
AcDbBlockBegin
  2
*D24
 70
        65
 10
0.0
 20
0.0
 30
0.0
  3
*D24
  1

  0
POINT
  5
5CE
100
AcDbEntity
  8
DEFPOINTS
  6
CONTINUOUS
 62
         0
100
AcDbPoint
 10
1471.9983403763
 20
110.4110370841
 30
0.0
  0
POINT
  5
5CF
100
AcDbEntity
  8
DEFPOINTS
  6
CONTINUOUS
 62
         0
100
AcDbPoint
 10
1471.9983403763
 20
142.3499119521
 30
0.0
  0
POINT
  5
5D0
100
AcDbEntity
  8
DEFPOINTS
  6
CONTINUOUS
 62
         0
100
AcDbPoint
 10
1493.0033403763
 20
125.8001117832
 30
0.0
  0
LINE
  5
5D1
100
AcDbEntity
  8
L1_115
  6
CONTINUOUS
 62
         4
100
AcDbLine
 10
1471.9983403763
 20
140.9999119521
 30
0.0
 11
1471.9983403763
 21
109.7360370841
 31
0.0
  0
LINE
  5
5D2
100
AcDbEntity
  8
L1_115
  6
CONTINUOUS
 62
         4
100
AcDbLine
 10
1493.0033403763
 20
124.4501117832
 30
0.0
 11
1493.0033403763
 21
109.7360370841
 31
0.0
  0
LINE
  5
5D3
100
AcDbEntity
  8
L1_115
  6
CONTINUOUS
 62
         4
100
AcDbLine
 10
1471.9983403763
 20
110.4110370841
 30
0.0
 11
1493.0033403763
 21
110.4110370841
 31
0.0
  0
SOLID
  5
5D4
100
AcDbEntity
  8
L1_115
  6
CONTINUOUS
 62
         4
100
AcDbTrace
 10
1471.9983403763
 20
110.4110370841
 30
0.0
 11
1474.6983403763
 21
110.8160370841
 31
0.0
 12
1474.6983403763
 22
110.0060370841
 32
0.0
 13
1471.9983403763
 23
110.4110370841
 33
0.0
  0
SOLID
  5
5D5
100
AcDbEntity
  8
L1_115
  6
CONTINUOUS
 62
         4
100
AcDbTrace
 10
1493.0033403763
 20
110.4110370841
 30
0.0
 11
1490.3033403763
 21
110.0060370841
 31
0.0
 12
1490.3033403763
 22
110.8160370841
 32
0.0
 13
1493.0033403763
 23
110.4110370841
 33
0.0
  0
TEXT
  5
5D7
100
AcDbEntity
  8
L1_115
  6
CONTINUOUS
 62
         4
100
AcDbText
 10
1475.7223564215
 20
113.5430370841
 30
0.0
 40
2.7
  1
21
  7
BOX
100
AcDbText
  0
ENDBLK
  5
5D8
100
AcDbEntity
  8
0
  6
CONTINUOUS
100
AcDbBlockEnd
  0
BLOCK
  5
5DA
100
AcDbEntity
  8
0
100
AcDbBlockBegin
  2
*D25
 70
        65
 10
0.0
 20
0.0
 30
0.0
  3
*D25
  1

  0
POINT
  5
5DC
100
AcDbEntity
  8
DEFPOINTS
  6
CONTINUOUS
 62
         0
100
AcDbPoint
 10
1493.0033403763
 20
100.5306055178
 30
0.0
  0
POINT
  5
5DD
100
AcDbEntity
  8
DEFPOINTS
  6
CONTINUOUS
 62
         0
100
AcDbPoint
 10
1493.0033403763
 20
125.8001117832
 30
0.0
  0
POINT
  5
5DE
100
AcDbEntity
  8
DEFPOINTS
  6
CONTINUOUS
 62
         0
100
AcDbPoint
 10
1453.9083403763
 20
142.3499119489
 30
0.0
  0
LINE
  5
5DF
100
AcDbEntity
  8
L1_115
  6
CONTINUOUS
 62
         4
100
AcDbLine
 10
1493.0033403763
 20
124.4501117832
 30
0.0
 11
1493.0033403763
 21
99.8556055178
 31
0.0
  0
LINE
  5
5E0
100
AcDbEntity
  8
L1_115
  6
CONTINUOUS
 62
         4
100
AcDbLine
 10
1453.9083403763
 20
140.9999119489
 30
0.0
 11
1453.9083403763
 21
99.8556055178
 31
0.0
  0
LINE
  5
5E1
100
AcDbEntity
  8
L1_115
  6
CONTINUOUS
 62
         4
100
AcDbLine
 10
1493.0033403763
 20
100.5306055178
 30
0.0
 11
1453.9083403763
 21
100.5306055178
 31
0.0
  0
SOLID
  5
5E2
100
AcDbEntity
  8
L1_115
  6
CONTINUOUS
 62
         4
100
AcDbTrace
 10
1493.0033403763
 20
100.5306055178
 30
0.0
 11
1490.3033403763
 21
100.1256055178
 31
0.0
 12
1490.3033403763
 22
100.9356055178
 32
0.0
 13
1493.0033403763
 23
100.5306055178
 33
0.0
  0
SOLID
  5
5E3
100
AcDbEntity
  8
L1_115
  6
CONTINUOUS
 62
         4
100
AcDbTrace
 10
1453.9083403763
 20
100.5306055178
 30
0.0
 11
1456.6083403763
 21
100.9356055178
 31
0.0
 12
1456.6083403763
 22
100.1256055178
 32
0.0
 13
1453.9083403763
 23
100.5306055178
 33
0.0
  0
TEXT
  5
5E5
100
AcDbEntity
  8
L1_115
  6
CONTINUOUS
 62
         4
100
AcDbText
 10
1464.1473021024
 20
103.6626055178
 30
0.0
 40
2.7
  1
39.1
  7
BOX
100
AcDbText
  0
ENDBLK
  5
5E6
100
AcDbEntity
  8
0
  6
CONTINUOUS
100
AcDbBlockEnd
  0
BLOCK
  5
5E8
100
AcDbEntity
  8
0
100
AcDbBlockBegin
  2
*D26
 70
        65
 10
0.0
 20
0.0
 30
0.0
  3
*D26
  1

  0
POINT
  5
5EA
100
AcDbEntity
  8
DEFPOINTS
  6
CONTINUOUS
 62
         0
100
AcDbPoint
 10
1482.0033403763
 20
192.0936291409
 30
0.0
  0
POINT
  5
5EB
100
AcDbEntity
  8
DEFPOINTS
  6
CONTINUOUS
 62
         0
100
AcDbPoint
 10
1482.0033403763
 20
179.1846417294
 30
0.0
  0
POINT
  5
5EC
100
AcDbEntity
  8
DEFPOINTS
  6
CONTINUOUS
 62
         0
100
AcDbPoint
 10
1484.0033403763
 20
179.1846417294
 30
0.0
  0
LINE
  5
5ED
100
AcDbEntity
  8
L1_115
  6
CONTINUOUS
 62
         4
100
AcDbLine
 10
1482.0033403763
 20
180.5346417294
 30
0.0
 11
1482.0033403763
 21
192.7686291409
 31
0.0
  0
LINE
  5
5EE
100
AcDbEntity
  8
L1_115
  6
CONTINUOUS
 62
         4
100
AcDbLine
 10
1484.0033403763
 20
180.5346417294
 30
0.0
 11
1484.0033403763
 21
192.7686291409
 31
0.0
  0
LINE
  5
5EF
100
AcDbEntity
  8
L1_115
  6
CONTINUOUS
 62
         4
100
AcDbLine
 10
1482.0033403763
 20
192.0936291409
 30
0.0
 11
1466.9263326744
 21
192.0936291409
 31
0.0
  0
SOLID
  5
5F0
100
AcDbEntity
  8
L1_115
  6
CONTINUOUS
 62
         4
100
AcDbTrace
 10
1482.0033403763
 20
192.0936291409
 30
0.0
 11
1479.3033403763
 21
191.6886291409
 31
0.0
 12
1479.3033403763
 22
192.4986291409
 32
0.0
 13
1482.0033403763
 23
192.0936291409
 33
0.0
  0
LINE
  5
5F1
100
AcDbEntity
  8
L1_115
  6
CONTINUOUS
 62
         4
100
AcDbLine
 10
1484.0033403763
 20
192.0936291409
 30
0.0
 11
1489.4033403763
 21
192.0936291409
 31
0.0
  0
SOLID
  5
5F2
100
AcDbEntity
  8
L1_115
  6
CONTINUOUS
 62
         4
100
AcDbTrace
 10
1484.0033403763
 20
192.0936291409
 30
0.0
 11
1486.7033403763
 21
192.4986291409
 31
0.0
 12
1486.7033403763
 22
191.6886291409
 32
0.0
 13
1484.0033403763
 23
192.0936291409
 33
0.0
  0
LINE
  5
5F3
100
AcDbEntity
  8
L1_115
  6
CONTINUOUS
 62
         4
100
AcDbLine
 10
1482.0033403763
 20
192.0936291409
 30
0.0
 11
1484.0033403763
 21
192.0936291409
 31
0.0
  0
TEXT
  5
5F5
100
AcDbEntity
  8
L1_115
  6
CONTINUOUS
 62
         4
100
AcDbText
 10
1468.2763326744
 20
195.2256291409
 30
0.0
 40
2.7
  1
2
  7
BOX
100
AcDbText
  0
ENDBLK
  5
5F6
100
AcDbEntity
  8
0
  6
CONTINUOUS
100
AcDbBlockEnd
  0
BLOCK
  5
5F8
100
AcDbEntity
  8
0
100
AcDbBlockBegin
  2
*D27
 70
        65
 10
0.0
 20
0.0
 30
0.0
  3
*D27
  1

  0
POINT
  5
5FA
100
AcDbEntity
  8
DEFPOINTS
  6
CONTINUOUS
 62
         0
100
AcDbPoint
 10
1493.0033403763
 20
199.4994441768
 30
0.0
  0
POINT
  5
5FB
100
AcDbEntity
  8
DEFPOINTS
  6
CONTINUOUS
 62
         0
100
AcDbPoint
 10
1493.0033403763
 20
174.5691716756
 30
0.0
  0
POINT
  5
5FC
100
AcDbEntity
  8
DEFPOINTS
  6
CONTINUOUS
 62
         0
100
AcDbPoint
 10
1482.0033403763
 20
179.1846417294
 30
0.0
  0
LINE
  5
5FD
100
AcDbEntity
  8
L1_115
  6
CONTINUOUS
 62
         4
100
AcDbLine
 10
1493.0033403763
 20
175.9191716756
 30
0.0
 11
1493.0033403763
 21
200.1744441768
 31
0.0
  0
LINE
  5
5FE
100
AcDbEntity
  8
L1_115
  6
CONTINUOUS
 62
         4
100
AcDbLine
 10
1482.0033403763
 20
180.5346417294
 30
0.0
 11
1482.0033403763
 21
200.1744441768
 31
0.0
  0
LINE
  5
5FF
100
AcDbEntity
  8
L1_115
  6
CONTINUOUS
 62
         4
100
AcDbLine
 10
1493.0033403763
 20
199.4994441768
 30
0.0
 11
1482.0033403763
 21
199.4994441768
 31
0.0
  0
SOLID
  5
600
100
AcDbEntity
  8
L1_115
  6
CONTINUOUS
 62
         4
100
AcDbTrace
 10
1493.0033403763
 20
199.4994441768
 30
0.0
 11
1490.3033403763
 21
199.0944441768
 31
0.0
 12
1490.3033403763
 22
199.9044441768
 32
0.0
 13
1493.0033403763
 23
199.4994441768
 33
0.0
  0
LINE
  5
601
100
AcDbEntity
  8
L1_115
  6
CONTINUOUS
 62
         4
100
AcDbLine
 10
1482.0033403763
 20
199.4994441768
 30
0.0
 11
1476.6027683944
 21
199.4994441768
 31
0.0
  0
SOLID
  5
602
100
AcDbEntity
  8
L1_115
  6
CONTINUOUS
 62
         4
100
AcDbTrace
 10
1482.0033403763
 20
199.4994441768
 30
0.0
 11
1484.7033403763
 21
199.9044441768
 31
0.0
 12
1484.7033403763
 22
199.0944441768
 32
0.0
 13
1482.0033403763
 23
199.4994441768
 33
0.0
  0
TEXT
  5
604
100
AcDbEntity
  8
L1_115
  6
CONTINUOUS
 62
         4
100
AcDbText
 10
1477.9527683944
 20
202.6314441768
 30
0.0
 40
2.7
  1
11
  7
BOX
100
AcDbText
  0
ENDBLK
  5
605
100
AcDbEntity
  8
0
  6
CONTINUOUS
100
AcDbBlockEnd
  0
BLOCK
  5
607
100
AcDbEntity
  8
0
100
AcDbBlockBegin
  2
*D28
 70
        65
 10
0.0
 20
0.0
 30
0.0
  3
*D28
  1

  0
POINT
  5
609
100
AcDbEntity
  8
DEFPOINTS
  6
CONTINUOUS
 62
         0
100
AcDbPoint
 10
1493.0033403763
 20
207.830986092
 30
0.0
  0
POINT
  5
60A
100
AcDbEntity
  8
DEFPOINTS
  6
CONTINUOUS
 62
         0
100
AcDbPoint
 10
1493.0033403763
 20
174.5691716756
 30
0.0
  0
POINT
  5
60B
100
AcDbEntity
  8
DEFPOINTS
  6
CONTINUOUS
 62
         0
100
AcDbPoint
 10
1442.0033403763
 20
180.6846417294
 30
0.0
  0
LINE
  5
60C
100
AcDbEntity
  8
L1_115
  6
CONTINUOUS
 62
         4
100
AcDbLine
 10
1493.0033403763
 20
175.9191716756
 30
0.0
 11
1493.0033403763
 21
208.505986092
 31
0.0
  0
LINE
  5
60D
100
AcDbEntity
  8
L1_115
  6
CONTINUOUS
 62
         4
100
AcDbLine
 10
1442.0033403763
 20
182.0346417294
 30
0.0
 11
1442.0033403763
 21
208.505986092
 31
0.0
  0
LINE
  5
60E
100
AcDbEntity
  8
L1_115
  6
CONTINUOUS
 62
         4
100
AcDbLine
 10
1493.0033403763
 20
207.830986092
 30
0.0
 11
1442.0033403763
 21
207.830986092
 31
0.0
  0
SOLID
  5
60F
100
AcDbEntity
  8
L1_115
  6
CONTINUOUS
 62
         4
100
AcDbTrace
 10
1493.0033403763
 20
207.830986092
 30
0.0
 11
1490.3033403763
 21
207.425986092
 31
0.0
 12
1490.3033403763
 22
208.235986092
 32
0.0
 13
1493.0033403763
 23
207.830986092
 33
0.0
  0
SOLID
  5
610
100
AcDbEntity
  8
L1_115
  6
CONTINUOUS
 62
         4
100
AcDbTrace
 10
1442.0033403763
 20
207.830986092
 30
0.0
 11
1444.7033403763
 21
208.235986092
 31
0.0
 12
1444.7033403763
 22
207.425986092
 32
0.0
 13
1442.0033403763
 23
207.830986092
 33
0.0
  0
TEXT
  5
612
100
AcDbEntity
  8
L1_115
  6
CONTINUOUS
 62
         4
100
AcDbText
 10
1462.9765646553
 20
210.962986092
 30
0.0
 40
2.7
  1
51
  7
BOX
100
AcDbText
  0
ENDBLK
  5
613
100
AcDbEntity
  8
0
  6
CONTINUOUS
100
AcDbBlockEnd
  0
BLOCK
  5
615
100
AcDbEntity
  8
0
100
AcDbBlockBegin
  2
*D29
 70
        65
 10
0.0
 20
0.0
 30
0.0
  3
*D29
  1

  0
POINT
  5
617
100
AcDbEntity
  8
DEFPOINTS
  6
CONTINUOUS
 62
         0
100
AcDbPoint
 10
1493.0033403763
 20
-77.7782125383
 30
0.0
  0
POINT
  5
618
100
AcDbEntity
  8
DEFPOINTS
  6
CONTINUOUS
 62
         0
100
AcDbPoint
 10
1493.0033403763
 20
-37.3278646868
 30
0.0
  0
POINT
  5
619
100
AcDbEntity
  8
DEFPOINTS
  6
CONTINUOUS
 62
         0
100
AcDbPoint
 10
1413.0033403763
 20
-30.9433347407
 30
0.0
  0
LINE
  5
61A
100
AcDbEntity
  8
L1_115
  6
CONTINUOUS
 62
         4
100
AcDbLine
 10
1493.0033403763
 20
-38.6778646868
 30
0.0
 11
1493.0033403763
 21
-78.4532125383
 31
0.0
  0
LINE
  5
61B
100
AcDbEntity
  8
L1_115
  6
CONTINUOUS
 62
         4
100
AcDbLine
 10
1413.0033403763
 20
-32.2933347407
 30
0.0
 11
1413.0033403763
 21
-78.4532125383
 31
0.0
  0
LINE
  5
61C
100
AcDbEntity
  8
L1_115
  6
CONTINUOUS
 62
         4
100
AcDbLine
 10
1493.0033403763
 20
-77.7782125383
 30
0.0
 11
1413.0033403763
 21
-77.7782125383
 31
0.0
  0
SOLID
  5
61D
100
AcDbEntity
  8
L1_115
  6
CONTINUOUS
 62
         4
100
AcDbTrace
 10
1493.0033403763
 20
-77.7782125383
 30
0.0
 11
1490.3033403763
 21
-78.1832125383
 31
0.0
 12
1490.3033403763
 22
-77.3732125383
 32
0.0
 13
1493.0033403763
 23
-77.7782125383
 33
0.0
  0
SOLID
  5
61E
100
AcDbEntity
  8
L1_115
  6
CONTINUOUS
 62
         4
100
AcDbTrace
 10
1413.0033403763
 20
-77.7782125383
 30
0.0
 11
1415.7033403763
 21
-77.3732125383
 31
0.0
 12
1415.7033403763
 22
-78.1832125383
 32
0.0
 13
1413.0033403763
 23
-77.7782125383
 33
0.0
  0
TEXT
  5
620
100
AcDbEntity
  8
L1_115
  6
CONTINUOUS
 62
         4
100
AcDbText
 10
1450.0783403763
 20
-74.6462125383
 30
0.0
 40
2.7
  1
80
  7
BOX
100
AcDbText
  0
ENDBLK
  5
621
100
AcDbEntity
  8
0
  6
CONTINUOUS
100
AcDbBlockEnd
  0
BLOCK
  5
623
100
AcDbEntity
  8
0
100
AcDbBlockBegin
  2
*D30
 70
        65
 10
0.0
 20
0.0
 30
0.0
  3
*D30
  1

  0
POINT
  5
625
100
AcDbEntity
  8
DEFPOINTS
  6
CONTINUOUS
 62
         0
100
AcDbPoint
 10
1440.0057015658
 20
-65.7933929011
 30
0.0
  0
POINT
  5
626
100
AcDbEntity
  8
DEFPOINTS
  6
CONTINUOUS
 62
         0
100
AcDbPoint
 10
1440.0057015658
 20
-37.4433347407
 30
0.0
  0
POINT
  5
627
100
AcDbEntity
  8
DEFPOINTS
  6
CONTINUOUS
 62
         0
100
AcDbPoint
 10
1493.0033403763
 20
-37.7886342023
 30
0.0
  0
LINE
  5
628
100
AcDbEntity
  8
L1_115
  6
CONTINUOUS
 62
         4
100
AcDbLine
 10
1440.0057015658
 20
-38.7933347407
 30
0.0
 11
1440.0057015658
 21
-66.4683929011
 31
0.0
  0
LINE
  5
629
100
AcDbEntity
  8
L1_115
  6
CONTINUOUS
 62
         4
100
AcDbLine
 10
1493.0033403763
 20
-39.1386342023
 30
0.0
 11
1493.0033403763
 21
-66.4683929011
 31
0.0
  0
LINE
  5
62A
100
AcDbEntity
  8
L1_115
  6
CONTINUOUS
 62
         4
100
AcDbLine
 10
1440.0057015658
 20
-65.7933929011
 30
0.0
 11
1493.0033403763
 21
-65.7933929011
 31
0.0
  0
SOLID
  5
62B
100
AcDbEntity
  8
L1_115
  6
CONTINUOUS
 62
         4
100
AcDbTrace
 10
1440.0057015658
 20
-65.7933929011
 30
0.0
 11
1442.7057015658
 21
-65.3883929011
 31
0.0
 12
1442.7057015658
 22
-66.1983929011
 32
0.0
 13
1440.0057015658
 23
-65.7933929011
 33
0.0
  0
SOLID
  5
62C
100
AcDbEntity
  8
L1_115
  6
CONTINUOUS
 62
         4
100
AcDbTrace
 10
1493.0033403763
 20
-65.7933929011
 30
0.0
 11
1490.3033403763
 21
-66.1983929011
 31
0.0
 12
1490.3033403763
 22
-65.3883929011
 32
0.0
 13
1493.0033403763
 23
-65.7933929011
 33
0.0
  0
TEXT
  5
62E
100
AcDbEntity
  8
L1_115
  6
CONTINUOUS
 62
         4
100
AcDbText
 10
1460.8157191756
 20
-62.6613929011
 30
0.0
 40
2.7
  1
53
  7
BOX
100
AcDbText
  0
ENDBLK
  5
62F
100
AcDbEntity
  8
0
  6
CONTINUOUS
100
AcDbBlockEnd
  0
BLOCK
  5
631
100
AcDbEntity
  8
0
100
AcDbBlockBegin
  2
*D31
 70
        65
 10
0.0
 20
0.0
 30
0.0
  3
*D31
  1

  0
POINT
  5
633
100
AcDbEntity
  8
DEFPOINTS
  6
CONTINUOUS
 62
         0
100
AcDbPoint
 10
1448.9583403763
 20
22.5276946084
 30
0.0
  0
POINT
  5
634
100
AcDbEntity
  8
DEFPOINTS
  6
CONTINUOUS
 62
         0
100
AcDbPoint
 10
1448.9583403763
 20
16.0566652593
 30
0.0
  0
POINT
  5
635
100
AcDbEntity
  8
DEFPOINTS
  6
CONTINUOUS
 62
         0
100
AcDbPoint
 10
1476.9483403763
 20
16.0566652593
 30
0.0
  0
LINE
  5
636
100
AcDbEntity
  8
L1_115
  6
CONTINUOUS
 62
         4
100
AcDbLine
 10
1448.9583403763
 20
17.4066652593
 30
0.0
 11
1448.9583403763
 21
23.2026946084
 31
0.0
  0
LINE
  5
637
100
AcDbEntity
  8
L1_115
  6
CONTINUOUS
 62
         4
100
AcDbLine
 10
1476.9483403763
 20
17.4066652593
 30
0.0
 11
1476.9483403763
 21
23.2026946084
 31
0.0
  0
LINE
  5
638
100
AcDbEntity
  8
L1_115
  6
CONTINUOUS
 62
         4
100
AcDbLine
 10
1448.9583403763
 20
22.5276946084
 30
0.0
 11
1476.9483403763
 21
22.5276946084
 31
0.0
  0
SOLID
  5
639
100
AcDbEntity
  8
L1_115
  6
CONTINUOUS
 62
         4
100
AcDbTrace
 10
1448.9583403763
 20
22.5276946084
 30
0.0
 11
1451.6583403763
 21
22.9326946084
 31
0.0
 12
1451.6583403763
 22
22.1226946084
 32
0.0
 13
1448.9583403763
 23
22.5276946084
 33
0.0
  0
SOLID
  5
63A
100
AcDbEntity
  8
L1_115
  6
CONTINUOUS
 62
         4
100
AcDbTrace
 10
1476.9483403763
 20
22.5276946084
 30
0.0
 11
1474.2483403763
 21
22.1226946084
 31
0.0
 12
1474.2483403763
 22
22.9326946084
 32
0.0
 13
1476.9483403763
 23
22.5276946084
 33
0.0
  0
TEXT
  5
63C
100
AcDbEntity
  8
L1_115
  6
CONTINUOUS
 62
         4
100
AcDbText
 10
1457.3283403763
 20
25.6596946084
 30
0.0
 40
2.7
  1
27.7
  7
BOX
100
AcDbText
  0
ENDBLK
  5
63D
100
AcDbEntity
  8
0
  6
CONTINUOUS
100
AcDbBlockEnd
  0
BLOCK
  5
63F
100
AcDbEntity
  8
0
100
AcDbBlockBegin
  2
*D32
 70
        65
 10
0.0
 20
0.0
 30
0.0
  3
*D32
  1

  0
POINT
  5
641
100
AcDbEntity
  8
DEFPOINTS
  6
CONTINUOUS
 62
         0
100
AcDbPoint
 10
1508.9390544535
 20
4.5566652593
 30
0.0
  0
POINT
  5
642
100
AcDbEntity
  8
DEFPOINTS
  6
CONTINUOUS
 62
         0
100
AcDbPoint
 10
1439.0057015658
 20
4.5566652593
 30
0.0
  0
POINT
  5
643
100
AcDbEntity
  8
DEFPOINTS
  6
CONTINUOUS
 62
         0
100
AcDbPoint
 10
1439.0057015658
 20
-30.4433347407
 30
0.0
  0
LINE
  5
644
100
AcDbEntity
  8
L1_115
  6
CONTINUOUS
 62
         4
100
AcDbLine
 10
1440.3557015658
 20
4.5566652593
 30
0.0
 11
1509.6140544535
 21
4.5566652593
 31
0.0
  0
LINE
  5
645
100
AcDbEntity
  8
L1_115
  6
CONTINUOUS
 62
         4
100
AcDbLine
 10
1440.3557015658
 20
-30.4433347407
 30
0.0
 11
1509.6140544535
 21
-30.4433347407
 31
0.0
  0
LINE
  5
646
100
AcDbEntity
  8
L1_115
  6
CONTINUOUS
 62
         4
100
AcDbLine
 10
1508.9390544535
 20
4.5566652593
 30
0.0
 11
1508.9390544535
 21
-30.4433347407
 31
0.0
  0
SOLID
  5
647
100
AcDbEntity
  8
L1_115
  6
CONTINUOUS
 62
         4
100
AcDbTrace
 10
1508.9390544535
 20
4.5566652593
 30
0.0
 11
1509.3440544535
 21
1.8566652593
 31
0.0
 12
1508.5340544535
 22
1.8566652593
 32
0.0
 13
1508.9390544535
 23
4.5566652593
 33
0.0
  0
SOLID
  5
648
100
AcDbEntity
  8
L1_115
  6
CONTINUOUS
 62
         4
100
AcDbTrace
 10
1508.9390544535
 20
-30.4433347407
 30
0.0
 11
1508.5340544535
 21
-27.7433347407
 31
0.0
 12
1509.3440544535
 22
-27.7433347407
 32
0.0
 13
1508.9390544535
 23
-30.4433347407
 33
0.0
  0
TEXT
  5
64A
100
AcDbEntity
  8
L1_115
  6
CONTINUOUS
 62
         4
100
AcDbText
 10
1506.9140544535
 20
-19.8342330444
 30
0.0
 40
2.7
  1
崷35
 50
90.0
  7
BOX
100
AcDbText
  0
ENDBLK
  5
64B
100
AcDbEntity
  8
0
  6
CONTINUOUS
100
AcDbBlockEnd
  0
BLOCK
  5
64D
100
AcDbEntity
  8
0
100
AcDbBlockBegin
  2
*D33
 70
        65
 10
0.0
 20
0.0
 30
0.0
  3
*D33
  1

  0
POINT
  5
64F
100
AcDbEntity
  8
DEFPOINTS
  6
CONTINUOUS
 62
         0
100
AcDbPoint
 10
1527.7871677832
 20
11.0566652593
 30
0.0
  0
POINT
  5
650
100
AcDbEntity
  8
DEFPOINTS
  6
CONTINUOUS
 62
         0
100
AcDbPoint
 10
1492.8033403763
 20
11.0566652593
 30
0.0
  0
POINT
  5
651
100
AcDbEntity
  8
DEFPOINTS
  6
CONTINUOUS
 62
         0
100
AcDbPoint
 10
1492.8033403763
 20
-36.9433347407
 30
0.0
  0
LINE
  5
652
100
AcDbEntity
  8
L1_115
  6
CONTINUOUS
 62
         4
100
AcDbLine
 10
1494.1533403763
 20
11.0566652593
 30
0.0
 11
1528.4621677832
 21
11.0566652593
 31
0.0
  0
LINE
  5
653
100
AcDbEntity
  8
L1_115
  6
CONTINUOUS
 62
         4
100
AcDbLine
 10
1494.1533403763
 20
-36.9433347407
 30
0.0
 11
1528.4621677832
 21
-36.9433347407
 31
0.0
  0
LINE
  5
654
100
AcDbEntity
  8
L1_115
  6
CONTINUOUS
 62
         4
100
AcDbLine
 10
1527.7871677832
 20
11.0566652593
 30
0.0
 11
1527.7871677832
 21
-36.9433347407
 31
0.0
  0
SOLID
  5
655
100
AcDbEntity
  8
L1_115
  6
CONTINUOUS
 62
         4
100
AcDbTrace
 10
1527.7871677832
 20
11.0566652593
 30
0.0
 11
1528.1921677832
 21
8.3566652593
 31
0.0
 12
1527.3821677832
 22
8.3566652593
 32
0.0
 13
1527.7871677832
 23
11.0566652593
 33
0.0
  0
SOLID
  5
656
100
AcDbEntity
  8
L1_115
  6
CONTINUOUS
 62
         4
100
AcDbTrace
 10
1527.7871677832
 20
-36.9433347407
 30
0.0
 11
1527.3821677832
 21
-34.2433347407
 31
0.0
 12
1528.1921677832
 22
-34.2433347407
 32
0.0
 13
1527.7871677832
 23
-36.9433347407
 33
0.0
  0
TEXT
  5
658
100
AcDbEntity
  8
L1_115
  6
CONTINUOUS
 62
         4
100
AcDbText
 10
1525.7621677832
 20
-20.3134223664
 30
0.0
 40
2.7
  1
崷48
 50
90.0
  7
BOX
100
AcDbText
  0
ENDBLK
  5
659
100
AcDbEntity
  8
0
  6
CONTINUOUS
100
AcDbBlockEnd
  0
ENDSEC
  0
SECTION
  2
ENTITIES
  0
INSERT
  5
78
100
AcDbEntity
  8
0
  6
CONTINUOUS
100
AcDbBlockReference
  2
*X0
 10
0.0
 20
0.0
 30
0.0
  0
LINE
  5
79
100
AcDbEntity
  8
L1_115
  6
DASHED
 62
         2
100
AcDbLine
 10
1598.7833403762
 20
143.1677348992
 30
0.0
 11
1598.2833403762
 21
142.6677348992
 31
0.0
  0
LINE
  5
7A
100
AcDbEntity
  8
L1_115
  6
DASHED
 62
         2
100
AcDbLine
 10
1598.7833403762
 20
143.1677348992
 30
0.0
 11
1601.6333403762
 21
143.1761883143
 31
0.0
  0
ARC
  5
7B
100
AcDbEntity
  8
L1_115
  6
DASHED
 62
         2
100
AcDbCircle
 10
1601.6333403762
 20
144.1761883143
 30
0.0
 40
1.0
100
AcDbArc
 50
270.0
 51
360.0
  0
LINE
  5
7C
100
AcDbEntity
  8
L1_115
  6
DASHED
 62
         2
100
AcDbLine
 10
1602.6333403762
 20
156.1930951445
 30
0.0
 11
1602.6333403762
 21
144.1761883143
 31
0.0
  0
ARC
  5
7D
100
AcDbEntity
  8
L1_115
  6
DASHED
 62
         2
100
AcDbCircle
 10
1601.6333403762
 20
156.1930951445
 30
0.0
 40
1.0
100
AcDbArc
 50
0.0
 51
90.0
  0
LINE
  5
7E
100
AcDbEntity
  8
L1_115
  6
DASHED
 62
         2
100
AcDbLine
 10
1598.7833403762
 20
157.1846417294
 30
0.0
 11
1601.6333403762
 21
157.1930951445
 31
0.0
  0
LINE
  5
7F
100
AcDbEntity
  8
L1_115
  6
DASHED
 62
         2
100
AcDbLine
 10
1598.7833403762
 20
157.1846417294
 30
0.0
 11
1598.7833403762
 21
143.1677348992
 31
0.0
  0
LINE
  5
80
100
AcDbEntity
  8
L1_115
  6
DASHED
 62
         2
100
AcDbLine
 10
1598.7833403762
 20
157.1846417294
 30
0.0
 11
1598.2833403762
 21
157.6846417294
 31
0.0
  0
LINE
  5
81
100
AcDbEntity
  8
L1_115
  6
CONTINUOUS
 62
         7
100
AcDbLine
 10
1417.1033403763
 20
153.1884952543
 30
0.0
 11
1417.1033403763
 21
147.1884952543
 31
0.0
  0
ARC
  5
82
100
AcDbEntity
  8
L1_115
  6
CONTINUOUS
 62
         7
100
AcDbCircle
 10
1413.1033403763
 20
147.1884952543
 30
0.0
 40
4.0
100
AcDbArc
 50
270.0
 51
360.0
  0
LINE
  5
83
100
AcDbEntity
  8
L1_115
  6
CONTINUOUS
 62
         7
100
AcDbLine
 10
1409.1033403763
 20
143.1884952543
 30
0.0
 11
1413.1033403763
 21
143.1884952543
 31
0.0
  0
ARC
  5
84
100
AcDbEntity
  8
L1_115
  6
CONTINUOUS
 62
         7
100
AcDbCircle
 10
1409.1033403763
 20
147.1884952543
 30
0.0
 40
4.0
100
AcDbArc
 50
180.0
 51
270.0
  0
LINE
  5
85
100
AcDbEntity
  8
L1_115
  6
CONTINUOUS
 62
         7
100
AcDbLine
 10
1405.1033403763
 20
153.1884952543
 30
0.0
 11
1405.1033403763
 21
147.1884952543
 31
0.0
  0
ARC
  5
86
100
AcDbEntity
  8
L1_115
  6
CONTINUOUS
 62
         7
100
AcDbCircle
 10
1409.1033403763
 20
153.1884952543
 30
0.0
 40
4.0
100
AcDbArc
 50
90.0
 51
180.0
  0
LINE
  5
87
100
AcDbEntity
  8
L1_115
  6
CONTINUOUS
 62
         7
100
AcDbLine
 10
1409.1033403763
 20
157.1884952543
 30
0.0
 11
1413.1033403763
 21
157.1884952543
 31
0.0
  0
ARC
  5
88
100
AcDbEntity
  8
L1_115
  6
CONTINUOUS
 62
         7
100
AcDbCircle
 10
1413.1033403763
 20
153.1884952543
 30
0.0
 40
4.0
100
AcDbArc
 50
0.0
 51
90.0
  0
LINE
  5
89
100
AcDbEntity
  8
L1_115
  6
CONTINUOUS
 62
         4
100
AcDbLine
 10
1491.3033403763
 20
-36.9433347407
 30
0.0
 11
1491.3033403763
 21
11.0566652593
 31
0.0
  0
ARC
  5
8A
100
AcDbEntity
  8
L1_115
  6
CONTINUOUS
 62
         7
100
AcDbCircle
 10
1491.3033403763
 20
12.7566652593
 30
0.0
 40
1.7
100
AcDbArc
 50
270.0
 51
360.0
  0
ARC
  5
8B
100
AcDbEntity
  8
L1_115
  6
CONTINUOUS
 62
         7
100
AcDbCircle
 10
1491.3033403763
 20
-38.6433347407
 30
0.0
 40
1.7
100
AcDbArc
 50
0.0
 51
90.0
  0
ARC
  5
8C
100
AcDbEntity
  8
L1_115
  6
CONTINUOUS
 62
         7
100
AcDbCircle
 10
1436.0553403763
 20
-43.4433347407
 30
0.0
 40
1.0
100
AcDbArc
 50
180.0
 51
270.0
  0
ARC
  5
8D
100
AcDbEntity
  8
L1_115
  6
CONTINUOUS
 62
         7
100
AcDbCircle
 10
1436.0553403763
 20
17.5566652593
 30
0.0
 40
1.0
100
AcDbArc
 50
90.0
 51
180.0
  0
LINE
  5
8E
100
AcDbEntity
  8
L1_115
  6
CONTINUOUS
 62
         7
100
AcDbLine
 10
1435.0553403763
 20
9.8416652593
 30
0.0
 11
1435.0553403763
 21
17.5566652593
 31
0.0
  0
LINE
  5
8F
100
AcDbEntity
  8
L1_115
  6
CONTINUOUS
 62
         7
100
AcDbLine
 10
1435.0553403763
 20
-43.4433347407
 30
0.0
 11
1435.0553403763
 21
-35.7283347407
 31
0.0
  0
ARC
  5
90
100
AcDbEntity
  8
L1_115
  6
CONTINUOUS
 62
         7
100
AcDbCircle
 10
1436.0553403763
 20
119.6846417294
 30
0.0
 40
1.0
100
AcDbArc
 50
180.0
 51
270.0
  0
ARC
  5
91
100
AcDbEntity
  8
L1_115
  6
CONTINUOUS
 62
         7
100
AcDbCircle
 10
1436.0553403763
 20
180.6846417294
 30
0.0
 40
1.0
100
AcDbArc
 50
90.0
 51
180.0
  0
LINE
  5
92
100
AcDbEntity
  8
L1_115
  6
CONTINUOUS
 62
         7
100
AcDbLine
 10
1435.0553403763
 20
119.6846417294
 30
0.0
 11
1435.0553403763
 21
180.6846417294
 31
0.0
  0
LINE
  5
93
100
AcDbEntity
  8
L1_115
  6
CENTER
 62
         1
100
AcDbLine
 10
1471.9983403763
 20
8.221935482
 30
0.0
 11
1471.9983403763
 21
18.8501239669
 31
0.0
  0
LINE
  5
94
100
AcDbEntity
  8
L1_115
  6
CENTER
 62
         1
100
AcDbLine
 10
1453.9083403763
 20
8.2219354789
 30
0.0
 11
1453.9083403763
 21
18.8501239669
 31
0.0
  0
LINE
  5
95
100
AcDbEntity
  8
L1_115
  6
CENTER
 62
         1
100
AcDbLine
 10
1623.2833403763
 20
150.1846417294
 30
0.0
 11
1639.0333403763
 21
177.4644419486
 31
0.0
  0
LINE
  5
96
100
AcDbEntity
  8
L1_115
  6
CENTER
 62
         1
100
AcDbLine
 10
1623.2833403763
 20
150.1846417294
 30
0.0
 11
1639.0333403763
 21
122.9048415102
 31
0.0
  0
LINE
  5
97
100
AcDbEntity
  8
L1_115
  6
CONTINUOUS
 62
         4
100
AcDbLine
 10
1395.0030155108
 20
-15.4433347407
 30
0.0
 11
1395.0030155108
 21
-10.4433347407
 31
0.0
  0
LINE
  5
98
100
AcDbEntity
  8
L1_115
  6
CONTINUOUS
 62
         7
100
AcDbLine
 10
1412.0033403763
 20
-15.4433347407
 30
0.0
 11
1395.0030155108
 21
-15.4433347407
 31
0.0
  0
LINE
  5
99
100
AcDbEntity
  8
L1_115
  6
CONTINUOUS
 62
         7
100
AcDbLine
 10
1412.0033403763
 20
-10.4433347407
 30
0.0
 11
1395.0030155108
 21
-10.4433347407
 31
0.0
  0
LINE
  5
9A
100
AcDbEntity
  8
L1_115
  6
CONTINUOUS
 62
         7
100
AcDbLine
 10
1395.0030155108
 20
-15.4433347407
 30
0.0
 11
1393.3596398379
 21
-12.9433347407
 31
0.0
  0
LINE
  5
9B
100
AcDbEntity
  8
L1_115
  6
CONTINUOUS
 62
         7
100
AcDbLine
 10
1395.0030155108
 20
-10.4433347407
 30
0.0
 11
1393.3596398379
 21
-12.9433347407
 31
0.0
  0
CIRCLE
  5
9C
100
AcDbEntity
  8
L1_115
  6
DASHED
 62
         2
100
AcDbCircle
 10
1623.2833403763
 20
150.1846417294
 30
0.0
 40
24.5
  0
CIRCLE
  5
9D
100
AcDbEntity
  8
L1_115
  6
CONTINUOUS
 62
         7
100
AcDbCircle
 10
1623.2833403763
 20
150.1846417294
 30
0.0
 40
24.0
  0
CIRCLE
  5
9E
100
AcDbEntity
  8
L1_115
  6
DASHED
 62
         2
100
AcDbCircle
 10
1623.2833403763
 20
150.1846417294
 30
0.0
 40
18.0
  0
CIRCLE
  5
9F
100
AcDbEntity
  8
L1_115
  6
CONTINUOUS
 62
         7
100
AcDbCircle
 10
1623.2833403763
 20
150.1846417294
 30
0.0
 40
17.5
  0
ARC
  5
A0
100
AcDbEntity
  8
L1_115
  6
CONTINUOUS
 62
         4
100
AcDbCircle
 10
1623.2833403763
 20
150.1846417294
 30
0.0
 40
3.0
100
AcDbArc
 50
270.0
 51
540.0
  0
CIRCLE
  5
A1
100
AcDbEntity
  8
L1_115
  6
CONTINUOUS
 62
         7
100
AcDbCircle
 10
1623.2833403763
 20
150.1846417294
 30
0.0
 40
2.0
  0
CIRCLE
  5
A2
100
AcDbEntity
  8
L1_115
  6
CONTINUOUS
 62
         7
100
AcDbCircle
 10
1623.2833403763
 20
150.1846417294
 30
0.0
 40
27.5
  0
LINE
  5
A3
100
AcDbEntity
  8
L1_115
  6
CENTER
 62
         1
100
AcDbLine
 10
1623.2833403763
 20
118.6846417294
 30
0.0
 11
1623.2833403763
 21
181.6846417294
 31
0.0
  0
LINE
  5
A4
100
AcDbEntity
  8
L1_115
  6
CENTER
 62
         1
100
AcDbLine
 10
1654.7833403763
 20
150.1846417294
 30
0.0
 11
1591.7833403763
 21
150.1846417294
 31
0.0
  0
CIRCLE
  5
A5
100
AcDbEntity
  8
L1_115
  6
CONTINUOUS
 62
         7
100
AcDbCircle
 10
1623.2833403763
 20
150.1846417294
 30
0.0
 40
31.5
  0
CIRCLE
  5
A6
100
AcDbEntity
  8
L1_115
  6
CONTINUOUS
 62
         7
100
AcDbCircle
 10
1623.2833403763
 20
150.1846417294
 30
0.0
 40
29.0
  0
CIRCLE
  5
A7
100
AcDbEntity
  8
L1_115
  6
DASHED
 62
         2
100
AcDbCircle
 10
1623.2833403763
 20
150.1846417294
 30
0.0
 40
28.0
  0
LINE
  5
A8
100
AcDbEntity
  8
L1_115
  6
CENTER
 62
         1
100
AcDbLine
 10
1493.0033403763
 20
-12.9433347407
 30
0.0
 11
1418.0033403763
 21
-12.9433347407
 31
0.0
  0
LINE
  5
A9
100
AcDbEntity
  8
L1_115
  6
CONTINUOUS
 62
         7
100
AcDbLine
 10
1442.0033403763
 20
16.9566652593
 30
0.0
 11
1442.0033403763
 21
18.0566652593
 31
0.0
  0
ARC
  5
AA
100
AcDbEntity
  8
L1_115
  6
CONTINUOUS
 62
         7
100
AcDbCircle
 10
1442.3033403763
 20
16.2566652593
 30
0.0
 40
0.4
100
AcDbArc
 50
181.5109716561
 51
270.0
  0
LINE
  5
AB
100
AcDbEntity
  8
L1_115
  6
CONTINUOUS
 62
         7
100
AcDbLine
 10
1441.9034794587
 20
16.2461179098
 30
0.0
 11
1442.0033403763
 21
16.9566652593
 31
0.0
  0
LINE
  5
AC
100
AcDbEntity
  8
L1_115
  6
CONTINUOUS
 62
         7
100
AcDbLine
 10
1445.1398320494
 20
16.0566652593
 30
0.0
 11
1444.5033403763
 21
16.0566652593
 31
0.0
  0
ARC
  5
AD
100
AcDbEntity
  8
L1_115
  6
CONTINUOUS
 62
         7
100
AcDbCircle
 10
1443.7042692157
 20
16.2566652593
 30
0.0
 40
0.4
100
AcDbArc
 50
270.0
 51
285.0
  0
LINE
  5
AE
100
AcDbEntity
  8
L1_115
  6
CONTINUOUS
 62
         7
100
AcDbLine
 10
1443.8077968337
 20
15.8702949288
 30
0.0
 11
1444.5033403763
 21
16.0566652593
 31
0.0
  0
LINE
  5
AF
100
AcDbEntity
  8
L1_115
  6
CONTINUOUS
 62
         7
100
AcDbLine
 10
1443.7042692157
 20
15.8566652593
 30
0.0
 11
1442.3033403763
 21
15.8566652593
 31
0.0
  0
LINE
  5
B0
100
AcDbEntity
  8
L1_115
  6
CONTINUOUS
 62
         7
100
AcDbLine
 10
1442.0033403763
 20
-42.8433347407
 30
0.0
 11
1442.0033403763
 21
-43.9433347407
 31
0.0
  0
ARC
  5
B1
100
AcDbEntity
  8
L1_115
  6
CONTINUOUS
 62
         7
100
AcDbCircle
 10
1442.3033403763
 20
-42.1433347407
 30
0.0
 40
0.4
100
AcDbArc
 50
90.0
 51
178.4890283439
  0
LINE
  5
B2
100
AcDbEntity
  8
L1_115
  6
CONTINUOUS
 62
         7
100
AcDbLine
 10
1441.9034794587
 20
-42.1327873912
 30
0.0
 11
1442.0033403763
 21
-42.8433347407
 31
0.0
  0
LINE
  5
B3
100
AcDbEntity
  8
L1_115
  6
CONTINUOUS
 62
         7
100
AcDbLine
 10
1445.1398320494
 20
-41.9433347407
 30
0.0
 11
1444.5033403763
 21
-41.9433347407
 31
0.0
  0
ARC
  5
B4
100
AcDbEntity
  8
L1_115
  6
CONTINUOUS
 62
         7
100
AcDbCircle
 10
1443.7042692157
 20
-42.1433347407
 30
0.0
 40
0.4
100
AcDbArc
 50
75.0
 51
90.0
  0
LINE
  5
B5
100
AcDbEntity
  8
L1_115
  6
CONTINUOUS
 62
         7
100
AcDbLine
 10
1443.8077968337
 20
-41.7569644102
 30
0.0
 11
1444.5033403763
 21
-41.9433347407
 31
0.0
  0
LINE
  5
B6
100
AcDbEntity
  8
L1_115
  6
CONTINUOUS
 62
         7
100
AcDbLine
 10
1443.7042692157
 20
-41.7433347407
 30
0.0
 11
1442.3033403763
 21
-41.7433347407
 31
0.0
  0
LINE
  5
B7
100
AcDbEntity
  8
L1_115
  6
CONTINUOUS
 62
         7
100
AcDbLine
 10
1442.5033403763
 20
-41.7433347407
 30
0.0
 11
1442.5033403763
 21
-37.4433347407
 31
0.0
  0
LINE
  5
B8
100
AcDbEntity
  8
L1_115
  6
CONTINUOUS
 62
         7
100
AcDbLine
 10
1444.5033403763
 20
-41.9433347407
 30
0.0
 11
1444.5033403763
 21
-37.4433347407
 31
0.0
  0
LINE
  5
B9
100
AcDbEntity
  8
L1_115
  6
CENTER
 62
         1
100
AcDbLine
 10
1443.5033403763
 20
-44.4433347407
 30
0.0
 11
1443.5033403763
 21
-30.9433347407
 31
0.0
  0
LINE
  5
BA
100
AcDbEntity
  8
L1_115
  6
CONTINUOUS
 62
         7
100
AcDbLine
 10
1418.0033403763
 20
-30.9433347407
 30
0.0
 11
1414.0033403763
 21
-30.9433347407
 31
0.0
  0
LINE
  5
BB
100
AcDbEntity
  8
L1_115
  6
CONTINUOUS
 62
         7
100
AcDbLine
 10
1418.0033403763
 20
5.0566652593
 30
0.0
 11
1414.0033403763
 21
5.0566652593
 31
0.0
  0
LINE
  5
BC
100
AcDbEntity
  8
L1_115
  6
CONTINUOUS
 62
         7
100
AcDbLine
 10
1439.0057015658
 20
-30.4433347407
 30
0.0
 11
1440.0057015658
 21
-31.4433347407
 31
0.0
  0
LINE
  5
BD
100
AcDbEntity
  8
L1_115
  6
CONTINUOUS
 62
         7
100
AcDbLine
 10
1440.0057015658
 20
5.5566652593
 30
0.0
 11
1439.0057015658
 21
4.5566652593
 31
0.0
  0
LINE
  5
BE
100
AcDbEntity
  8
L1_115
  6
CONTINUOUS
 62
         7
100
AcDbLine
 10
1445.0057015658
 20
-37.4433347407
 30
0.0
 11
1441.0057015658
 21
-37.4433347407
 31
0.0
  0
LINE
  5
BF
100
AcDbEntity
  8
L1_115
  6
CONTINUOUS
 62
         7
100
AcDbLine
 10
1445.0057015658
 20
11.5566652593
 30
0.0
 11
1441.0057015658
 21
11.5566652593
 31
0.0
  0
LINE
  5
C0
100
AcDbEntity
  8
L1_115
  6
CONTINUOUS
 62
         7
100
AcDbLine
 10
1439.0057015658
 20
-30.4433347407
 30
0.0
 11
1418.0033403763
 21
-30.4433347407
 31
0.0
  0
LINE
  5
C1
100
AcDbEntity
  8
L1_115
  6
CONTINUOUS
 62
         7
100
AcDbLine
 10
1439.0057015658
 20
4.5566652593
 30
0.0
 11
1418.0033403763
 21
4.5566652593
 31
0.0
  0
LINE
  5
C2
100
AcDbEntity
  8
L1_115
  6
CONTINUOUS
 62
         7
100
AcDbLine
 10
1413.0033403763
 20
-29.9433347407
 30
0.0
 11
1413.0033403763
 21
4.0566652593
 31
0.0
  0
LINE
  5
C3
100
AcDbEntity
  8
L1_115
  6
CONTINUOUS
 62
         7
100
AcDbLine
 10
1440.0057015658
 20
-36.4433347407
 30
0.0
 11
1440.0057015658
 21
10.5566652593
 31
0.0
  0
LINE
  5
C4
100
AcDbEntity
  8
L1_115
  6
CONTINUOUS
 62
         7
100
AcDbLine
 10
1482.0033403763
 20
-40.9433347407
 30
0.0
 11
1482.0033403763
 21
-41.8433347407
 31
0.0
  0
LINE
  5
C5
100
AcDbEntity
  8
L1_115
  6
CONTINUOUS
 62
         7
100
AcDbLine
 10
1484.0033403763
 20
-40.9433347407
 30
0.0
 11
1482.0033403763
 21
-40.9433347407
 31
0.0
  0
LINE
  5
C6
100
AcDbEntity
  8
L1_115
  6
CONTINUOUS
 62
         7
100
AcDbLine
 10
1484.0033403763
 20
-40.9433347407
 30
0.0
 11
1484.0033403763
 21
-41.8433347407
 31
0.0
  0
LINE
  5
C7
100
AcDbEntity
  8
L1_115
  6
CONTINUOUS
 62
         7
100
AcDbLine
 10
1487.1419591697
 20
-41.9433347407
 30
0.0
 11
1484.1033403763
 21
-41.9433347407
 31
0.0
  0
LINE
  5
C8
100
AcDbEntity
  8
L1_115
  6
CONTINUOUS
 62
         7
100
AcDbLine
 10
1481.9033403763
 20
-41.9433347407
 30
0.0
 11
1444.5033403763
 21
-41.9433347407
 31
0.0
  0
LINE
  5
C9
100
AcDbEntity
  8
L1_115
  6
CONTINUOUS
 62
         7
100
AcDbLine
 10
1484.0033403763
 20
15.0566652593
 30
0.0
 11
1484.0033403763
 21
15.9566652593
 31
0.0
  0
LINE
  5
CA
100
AcDbEntity
  8
L1_115
  6
CONTINUOUS
 62
         7
100
AcDbLine
 10
1487.1419591697
 20
16.0566652593
 30
0.0
 11
1484.1033403763
 21
16.0566652593
 31
0.0
  0
LINE
  5
CB
100
AcDbEntity
  8
L1_115
  6
CONTINUOUS
 62
         7
100
AcDbLine
 10
1484.0033403763
 20
15.0566652593
 30
0.0
 11
1482.0033403763
 21
15.0566652593
 31
0.0
  0
LINE
  5
CC
100
AcDbEntity
  8
L1_115
  6
CONTINUOUS
 62
         7
100
AcDbLine
 10
1482.0033403763
 20
15.0566652593
 30
0.0
 11
1482.0033403763
 21
15.9566652593
 31
0.0
  0
LINE
  5
CD
100
AcDbEntity
  8
L1_115
  6
CONTINUOUS
 62
         7
100
AcDbLine
 10
1481.9033403763
 20
16.0566652593
 30
0.0
 11
1444.5033403763
 21
16.0566652593
 31
0.0
  0
LINE
  5
CE
100
AcDbEntity
  8
L1_115
  6
CONTINUOUS
 62
         7
100
AcDbLine
 10
1493.0033403763
 20
-38.9086807647
 30
0.0
 11
1493.0033403763
 21
13.0220112834
 31
0.0
  0
LINE
  5
CF
100
AcDbEntity
  8
L1_115
  6
CONTINUOUS
 62
         7
100
AcDbLine
 10
1491.3033403763
 20
-36.9433347407
 30
0.0
 11
1445.0057015658
 21
-36.9433347407
 31
0.0
  0
LINE
  5
D0
100
AcDbEntity
  8
L1_115
  6
CONTINUOUS
 62
         7
100
AcDbLine
 10
1491.3033403763
 20
11.0566652593
 30
0.0
 11
1445.0057015658
 21
11.0566652593
 31
0.0
  0
LINE
  5
D1
100
AcDbEntity
  8
L1_115
  6
CONTINUOUS
 62
         7
100
AcDbLine
 10
1441.5033403763
 20
18.5566652593
 30
0.0
 11
1436.0553403763
 21
18.5566652593
 31
0.0
  0
LINE
  5
D2
100
AcDbEntity
  8
L1_115
  6
CONTINUOUS
 62
         7
100
AcDbLine
 10
1441.5033403763
 20
-44.4433347407
 30
0.0
 11
1436.0553403763
 21
-44.4433347407
 31
0.0
  0
LINE
  5
D3
100
AcDbEntity
  8
L1_115
  6
CONTINUOUS
 62
         4
100
AcDbLine
 10
1412.5033403763
 20
-9.9433347407
 30
0.0
 11
1400.0033403763
 21
-9.9433347407
 31
0.0
  0
LINE
  5
D4
100
AcDbEntity
  8
L1_115
  6
CONTINUOUS
 62
         4
100
AcDbLine
 10
1412.5033403763
 20
-15.9433347407
 30
0.0
 11
1400.0033403763
 21
-15.9433347407
 31
0.0
  0
LINE
  5
D5
100
AcDbEntity
  8
L1_115
  6
CONTINUOUS
 62
         4
100
AcDbLine
 10
1400.0033403763
 20
-15.9433347407
 30
0.0
 11
1400.0033403763
 21
-9.9433347407
 31
0.0
  0
LINE
  5
D6
100
AcDbEntity
  8
L1_115
  6
CONTINUOUS
 62
         7
100
AcDbLine
 10
1418.0033403763
 20
-30.9433347407
 30
0.0
 11
1418.0033403763
 21
5.0566652593
 31
0.0
  0
LINE
  5
D7
100
AcDbEntity
  8
L1_115
  6
CONTINUOUS
 62
         7
100
AcDbLine
 10
1445.0057015658
 20
-37.4433347407
 30
0.0
 11
1445.0057015658
 21
11.5566652593
 31
0.0
  0
LINE
  5
D8
100
AcDbEntity
  8
L1_115
  6
CONTINUOUS
 62
         4
100
AcDbLine
 10
1439.0057015658
 20
4.5566652593
 30
0.0
 11
1439.0057015658
 21
-30.4433347407
 31
0.0
  0
ARC
  5
D9
100
AcDbEntity
  8
L1_115
  6
CONTINUOUS
 62
         7
100
AcDbCircle
 10
1441.5033403763
 20
18.0566652593
 30
0.0
 40
0.5
100
AcDbArc
 50
0.0
 51
90.0
  0
ARC
  5
DA
100
AcDbEntity
  8
L1_115
  6
CONTINUOUS
 62
         7
100
AcDbCircle
 10
1441.5033403763
 20
-43.9433347407
 30
0.0
 40
0.5
100
AcDbArc
 50
270.0
 51
360.0
  0
LINE
  5
DB
100
AcDbEntity
  8
L1_115
  6
CONTINUOUS
 62
         7
100
AcDbLine
 10
1481.9033403763
 20
16.0566652593
 30
0.0
 11
1482.0033403763
 21
15.9566652593
 31
0.0
  0
LINE
  5
DC
100
AcDbEntity
  8
L1_115
  6
CONTINUOUS
 62
         7
100
AcDbLine
 10
1484.0033403763
 20
15.9566652593
 30
0.0
 11
1484.1033403763
 21
16.0566652593
 31
0.0
  0
LINE
  5
DD
100
AcDbEntity
  8
L1_115
  6
CONTINUOUS
 62
         7
100
AcDbLine
 10
1482.0033403763
 20
-41.8433347407
 30
0.0
 11
1481.9033403763
 21
-41.9433347407
 31
0.0
  0
LINE
  5
DE
100
AcDbEntity
  8
L1_115
  6
CONTINUOUS
 62
         7
100
AcDbLine
 10
1484.0033403763
 20
-41.8433347407
 30
0.0
 11
1484.1033403763
 21
-41.9433347407
 31
0.0
  0
POLYLINE
  5
E0
100
AcDbEntity
  8
L1_115
  6
CONTINUOUS
 62
         7
100
AcDb2dPolyline
 66
         1
 10
0.0
 20
0.0
 30
0.0
 70
         2
  0
VERTEX
  5
E2
100
AcDbEntity
  8
L1_115
  6
CONTINUOUS
 62
         7
100
AcDbVertex
100
AcDb2dVertex
 10
1453.7133403762
 20
-23.7807916884
 30
0.0
 70
         1
  0
VERTEX
  5
E4
100
AcDbEntity
  8
L1_115
  6
CONTINUOUS
 62
         7
100
AcDbVertex
100
AcDb2dVertex
 10
1452.9770268265
 20
-23.8172064379
 30
0.0
 70
         1
  0
VERTEX
  5
E6
100
AcDbEntity
  8
L1_115
  6
CONTINUOUS
 62
         7
100
AcDbVertex
100
AcDb2dVertex
 10
1452.6198262537
 20
-23.8617073938
 30
0.0
 70
         1
  0
VERTEX
  5
E8
100
AcDbEntity
  8
L1_115
  6
CONTINUOUS
 62
         7
100
AcDbVertex
100
AcDb2dVertex
 10
1452.2751979753
 20
-23.922181868
 30
0.0
 70
         1
  0
VERTEX
  5
EA
100
AcDbEntity
  8
L1_115
  6
CONTINUOUS
 62
         7
100
AcDbVertex
100
AcDb2dVertex
 10
1451.9464342832
 20
-23.9969564927
 30
0.0
 70
         1
  0
VERTEX
  5
EC
100
AcDbEntity
  8
L1_115
  6
CONTINUOUS
 62
         7
100
AcDbVertex
100
AcDb2dVertex
 10
1451.5318920548
 20
-24.1172371662
 30
0.0
 70
         1
  0
VERTEX
  5
EE
100
AcDbEntity
  8
L1_115
  6
CONTINUOUS
 62
         7
100
AcDbVertex
100
AcDb2dVertex
 10
1451.1554854529
 20
-24.2547972595
 30
0.0
 70
         1
  0
VERTEX
  5
F0
100
AcDbEntity
  8
L1_115
  6
CONTINUOUS
 62
         7
100
AcDbVertex
100
AcDb2dVertex
 10
1450.8193614076
 20
-24.40431516
 30
0.0
 70
         1
  0
VERTEX
  5
F2
100
AcDbEntity
  8
L1_115
  6
CONTINUOUS
 62
         7
100
AcDbVertex
100
AcDb2dVertex
 10
1450.5236517259
 20
-24.560792092
 30
0.0
 70
         1
  0
VERTEX
  5
F4
100
AcDbEntity
  8
L1_115
  6
CONTINUOUS
 62
         7
100
AcDbVertex
100
AcDb2dVertex
 10
1450.2668909215
 20
-24.7198242371
 30
0.0
 70
         1
  0
VERTEX
  5
F6
100
AcDbEntity
  8
L1_115
  6
CONTINUOUS
 62
         7
100
AcDbVertex
100
AcDb2dVertex
 10
1449.9757447951
 20
-24.9334796384
 30
0.0
 70
         1
  0
VERTEX
  5
F8
100
AcDbEntity
  8
L1_115
  6
CONTINUOUS
 62
         7
100
AcDbVertex
100
AcDb2dVertex
 10
1449.7431782752
 20
-25.1383103747
 30
0.0
 70
         1
  0
VERTEX
  5
FA
100
AcDbEntity
  8
L1_115
  6
CONTINUOUS
 62
         7
100
AcDbVertex
100
AcDb2dVertex
 10
1449.560007375
 20
-25.3298611228
 30
0.0
 70
         1
  0
VERTEX
  5
FC
100
AcDbEntity
  8
L1_115
  6
CONTINUOUS
 62
         7
100
AcDbVertex
100
AcDb2dVertex
 10
1449.3734141246
 20
-25.5661595315
 30
0.0
 70
         1
  0
VERTEX
  5
FE
100
AcDbEntity
  8
L1_115
  6
CONTINUOUS
 62
         7
100
AcDbVertex
100
AcDb2dVertex
 10
1449.2428404172
 20
-25.7711520851
 30
0.0
 70
         1
  0
VERTEX
  5
100
100
AcDbEntity
  8
L1_115
  6
CONTINUOUS
 62
         7
100
AcDbVertex
100
AcDb2dVertex
 10
1449.1259324227
 20
-26.0052993224
 30
0.0
 70
         1
  0
VERTEX
  5
102
100
AcDbEntity
  8
L1_115
  6
CONTINUOUS
 62
         7
100
AcDbVertex
100
AcDb2dVertex
 10
1449.0373983751
 20
-26.2515186743
 30
0.0
 70
         1
  0
VERTEX
  5
104
100
AcDbEntity
  8
L1_115
  6
CONTINUOUS
 62
         7
100
AcDbVertex
100
AcDb2dVertex
 10
1448.9849108724
 20
-26.4810354185
 30
0.0
 70
         1
  0
VERTEX
  5
106
100
AcDbEntity
  8
L1_115
  6
CONTINUOUS
 62
         7
100
AcDbVertex
100
AcDb2dVertex
 10
1448.9600053935
 20
-26.7198542341
 30
0.0
 70
         1
  0
VERTEX
  5
108
100
AcDbEntity
  8
L1_115
  6
CONTINUOUS
 62
         7
100
AcDbVertex
100
AcDb2dVertex
 10
1448.9583403762
 20
-26.7997395006
 30
0.0
 70
         1
  0
SEQEND
  5
10A
100
AcDbEntity
  8
L1_115
  6
CONTINUOUS
 62
         7
  0
LINE
  5
10B
100
AcDbEntity
  8
L1_115
  6
CONTINUOUS
 62
         7
100
AcDbLine
 10
1472.1933403763
 20
-23.7807944323
 30
0.0
 11
1453.7133403762
 21
-23.7807916884
 31
0.0
  0
POLYLINE
  5
10D
100
AcDbEntity
  8
L1_115
  6
CONTINUOUS
 62
         7
100
AcDb2dPolyline
 66
         1
 10
0.0
 20
0.0
 30
0.0
 70
         2
  0
VERTEX
  5
10F
100
AcDbEntity
  8
L1_115
  6
CONTINUOUS
 62
         7
100
AcDbVertex
100
AcDb2dVertex
 10
1472.1933403763
 20
-28.5557944323
 30
0.0
 70
         1
  0
VERTEX
  5
111
100
AcDbEntity
  8
L1_115
  6
CONTINUOUS
 62
         7
100
AcDbVertex
100
AcDb2dVertex
 10
1473.2219419611
 20
-28.5142155381
 30
0.0
 70
         1
  0
VERTEX
  5
113
100
AcDbEntity
  8
L1_115
  6
CONTINUOUS
 62
         7
100
AcDbVertex
100
AcDb2dVertex
 10
1473.6734835521
 20
-28.4685498533
 30
0.0
 70
         1
  0
VERTEX
  5
115
100
AcDbEntity
  8
L1_115
  6
CONTINUOUS
 62
         7
100
AcDbVertex
100
AcDb2dVertex
 10
1474.0804479278
 20
-28.4115798323
 30
0.0
 70
         1
  0
VERTEX
  5
117
100
AcDbEntity
  8
L1_115
  6
CONTINUOUS
 62
         7
100
AcDbVertex
100
AcDb2dVertex
 10
1474.4435421242
 20
-28.346718318
 30
0.0
 70
         1
  0
VERTEX
  5
119
100
AcDbEntity
  8
L1_115
  6
CONTINUOUS
 62
         7
100
AcDbVertex
100
AcDb2dVertex
 10
1474.764901807
 20
-28.2768340327
 30
0.0
 70
         1
  0
VERTEX
  5
11B
100
AcDbEntity
  8
L1_115
  6
CONTINUOUS
 62
         7
100
AcDbVertex
100
AcDb2dVertex
 10
1475.0475444751
 20
-28.2042503737
 30
0.0
 70
         1
  0
VERTEX
  5
11D
100
AcDbEntity
  8
L1_115
  6
CONTINUOUS
 62
         7
100
AcDbVertex
100
AcDb2dVertex
 10
1475.3731365879
 20
-28.1053813813
 30
0.0
 70
         1
  0
VERTEX
  5
11F
100
AcDbEntity
  8
L1_115
  6
CONTINUOUS
 62
         7
100
AcDbVertex
100
AcDb2dVertex
 10
1475.6436243963
 20
-28.0080893254
 30
0.0
 70
         1
  0
VERTEX
  5
121
100
AcDbEntity
  8
L1_115
  6
CONTINUOUS
 62
         7
100
AcDbVertex
100
AcDb2dVertex
 10
1475.8674458542
 20
-27.914471244
 30
0.0
 70
         1
  0
VERTEX
  5
123
100
AcDbEntity
  8
L1_115
  6
CONTINUOUS
 62
         7
100
AcDbVertex
100
AcDb2dVertex
 10
1476.0522342392
 20
-27.8257871803
 30
0.0
 70
         1
  0
VERTEX
  5
125
100
AcDbEntity
  8
L1_115
  6
CONTINUOUS
 62
         7
100
AcDbVertex
100
AcDb2dVertex
 10
1476.251602987
 20
-27.7148870337
 30
0.0
 70
         1
  0
VERTEX
  5
127
100
AcDbEntity
  8
L1_115
  6
CONTINUOUS
 62
         7
100
AcDbVertex
100
AcDb2dVertex
 10
1476.4052884621
 20
-27.6146902466
 30
0.0
 70
         1
  0
VERTEX
  5
129
100
AcDbEntity
  8
L1_115
  6
CONTINUOUS
 62
         7
100
AcDbVertex
100
AcDb2dVertex
 10
1476.5595389039
 20
-27.495209684
 30
0.0
 70
         1
  0
VERTEX
  5
12B
100
AcDbEntity
  8
L1_115
  6
CONTINUOUS
 62
         7
100
AcDbVertex
100
AcDb2dVertex
 10
1476.6685535304
 20
-27.3932226826
 30
0.0
 70
         1
  0
VERTEX
  5
12D
100
AcDbEntity
  8
L1_115
  6
CONTINUOUS
 62
         7
100
AcDbVertex
100
AcDb2dVertex
 10
1476.768549703
 20
-27.2780596341
 30
0.0
 70
         1
  0
VERTEX
  5
12F
100
AcDbEntity
  8
L1_115
  6
CONTINUOUS
 62
         7
100
AcDbVertex
100
AcDb2dVertex
 10
1476.849469552
 20
-27.1559815553
 30
0.0
 70
         1
  0
VERTEX
  5
131
100
AcDbEntity
  8
L1_115
  6
CONTINUOUS
 62
         7
100
AcDbVertex
100
AcDb2dVertex
 10
1476.9047404755
 20
-27.0370009059
 30
0.0
 70
         1
  0
VERTEX
  5
133
100
AcDbEntity
  8
L1_115
  6
CONTINUOUS
 62
         7
100
AcDbVertex
100
AcDb2dVertex
 10
1476.94056822
 20
-26.900104492
 30
0.0
 70
         1
  0
VERTEX
  5
135
100
AcDbEntity
  8
L1_115
  6
CONTINUOUS
 62
         7
100
AcDbVertex
100
AcDb2dVertex
 10
1476.9483403763
 20
-26.7997422446
 30
0.0
 70
         1
  0
SEQEND
  5
137
100
AcDbEntity
  8
L1_115
  6
CONTINUOUS
 62
         7
  0
POLYLINE
  5
139
100
AcDbEntity
  8
L1_115
  6
CONTINUOUS
 62
         7
100
AcDb2dPolyline
 66
         1
 10
0.0
 20
0.0
 30
0.0
 70
         2
  0
VERTEX
  5
13B
100
AcDbEntity
  8
L1_115
  6
CONTINUOUS
 62
         7
100
AcDbVertex
100
AcDb2dVertex
 10
1448.9583403762
 20
-26.7997395006
 30
0.0
 70
         1
  0
VERTEX
  5
13D
100
AcDbEntity
  8
L1_115
  6
CONTINUOUS
 62
         7
100
AcDbVertex
100
AcDb2dVertex
 10
1449.0156955029
 20
-27.0716648465
 30
0.0
 70
         1
  0
VERTEX
  5
13F
100
AcDbEntity
  8
L1_115
  6
CONTINUOUS
 62
         7
100
AcDbVertex
100
AcDb2dVertex
 10
1449.0857868256
 20
-27.2035813233
 30
0.0
 70
         1
  0
VERTEX
  5
141
100
AcDbEntity
  8
L1_115
  6
CONTINUOUS
 62
         7
100
AcDbVertex
100
AcDb2dVertex
 10
1449.1810372714
 20
-27.3308547707
 30
0.0
 70
         1
  0
VERTEX
  5
143
100
AcDbEntity
  8
L1_115
  6
CONTINUOUS
 62
         7
100
AcDbVertex
100
AcDb2dVertex
 10
1449.2988111988
 20
-27.452269324
 30
0.0
 70
         1
  0
VERTEX
  5
145
100
AcDbEntity
  8
L1_115
  6
CONTINUOUS
 62
         7
100
AcDbVertex
100
AcDb2dVertex
 10
1449.4360308305
 20
-27.5668529287
 30
0.0
 70
         1
  0
VERTEX
  5
147
100
AcDbEntity
  8
L1_115
  6
CONTINUOUS
 62
         7
100
AcDbVertex
100
AcDb2dVertex
 10
1449.5893565047
 20
-27.6738951339
 30
0.0
 70
         1
  0
VERTEX
  5
149
100
AcDbEntity
  8
L1_115
  6
CONTINUOUS
 62
         7
100
AcDbVertex
100
AcDb2dVertex
 10
1449.7553607744
 20
-27.772945918
 30
0.0
 70
         1
  0
VERTEX
  5
14B
100
AcDbEntity
  8
L1_115
  6
CONTINUOUS
 62
         7
100
AcDbVertex
100
AcDb2dVertex
 10
1449.9306822679
 20
-27.8637986623
 30
0.0
 70
         1
  0
VERTEX
  5
14D
100
AcDbEntity
  8
L1_115
  6
CONTINUOUS
 62
         7
100
AcDbVertex
100
AcDb2dVertex
 10
1450.1768416869
 20
-27.9735998025
 30
0.0
 70
         1
  0
VERTEX
  5
14F
100
AcDbEntity
  8
L1_115
  6
CONTINUOUS
 62
         7
100
AcDbVertex
100
AcDb2dVertex
 10
1450.4272832493
 20
-28.0689858536
 30
0.0
 70
         1
  0
VERTEX
  5
151
100
AcDbEntity
  8
L1_115
  6
CONTINUOUS
 62
         7
100
AcDbVertex
100
AcDb2dVertex
 10
1450.6761894914
 20
-28.150903551
 30
0.0
 70
         1
  0
VERTEX
  5
153
100
AcDbEntity
  8
L1_115
  6
CONTINUOUS
 62
         7
100
AcDbVertex
100
AcDb2dVertex
 10
1451.0037735911
 20
-28.2427910757
 30
0.0
 70
         1
  0
VERTEX
  5
155
100
AcDbEntity
  8
L1_115
  6
CONTINUOUS
 62
         7
100
AcDbVertex
100
AcDb2dVertex
 10
1451.3121399662
 20
-28.3154382277
 30
0.0
 70
         1
  0
VERTEX
  5
157
100
AcDbEntity
  8
L1_115
  6
CONTINUOUS
 62
         7
100
AcDbVertex
100
AcDb2dVertex
 10
1451.6947036819
 20
-28.3896941092
 30
0.0
 70
         1
  0
VERTEX
  5
159
100
AcDbEntity
  8
L1_115
  6
CONTINUOUS
 62
         7
100
AcDbVertex
100
AcDb2dVertex
 10
1452.1426638464
 20
-28.4572220937
 30
0.0
 70
         1
  0
VERTEX
  5
15B
100
AcDbEntity
  8
L1_115
  6
CONTINUOUS
 62
         7
100
AcDbVertex
100
AcDb2dVertex
 10
1452.6233395777
 20
-28.5090309763
 30
0.0
 70
         1
  0
VERTEX
  5
15D
100
AcDbEntity
  8
L1_115
  6
CONTINUOUS
 62
         7
100
AcDbVertex
100
AcDb2dVertex
 10
1453.2312752366
 20
-28.5467439906
 30
0.0
 70
         1
  0
VERTEX
  5
15F
100
AcDbEntity
  8
L1_115
  6
CONTINUOUS
 62
         7
100
AcDbVertex
100
AcDb2dVertex
 10
1453.7133403762
 20
-28.5557916884
 30
0.0
 70
         1
  0
SEQEND
  5
161
100
AcDbEntity
  8
L1_115
  6
CONTINUOUS
 62
         7
  0
LINE
  5
162
100
AcDbEntity
  8
L1_115
  6
CONTINUOUS
 62
         7
100
AcDbLine
 10
1472.1933441996
 20
-28.5557944323
 30
0.0
 11
1453.7133403632
 21
-28.5557916884
 31
0.0
  0
POLYLINE
  5
164
100
AcDbEntity
  8
L1_115
  6
CONTINUOUS
 62
         7
100
AcDb2dPolyline
 66
         1
 10
0.0
 20
0.0
 30
0.0
 70
         2
  0
VERTEX
  5
166
100
AcDbEntity
  8
L1_115
  6
CONTINUOUS
 62
         7
100
AcDbVertex
100
AcDb2dVertex
 10
1476.9483403763
 20
-26.7997422446
 30
0.0
 70
         1
  0
VERTEX
  5
168
100
AcDbEntity
  8
L1_115
  6
CONTINUOUS
 62
         7
100
AcDbVertex
100
AcDb2dVertex
 10
1476.8837615448
 20
-26.3038802314
 30
0.0
 70
         1
  0
VERTEX
  5
16A
100
AcDbEntity
  8
L1_115
  6
CONTINUOUS
 62
         7
100
AcDbVertex
100
AcDb2dVertex
 10
1476.8101522462
 20
-26.077218315
 30
0.0
 70
         1
  0
VERTEX
  5
16C
100
AcDbEntity
  8
L1_115
  6
CONTINUOUS
 62
         7
100
AcDbVertex
100
AcDb2dVertex
 10
1476.7151797739
 20
-25.8659877879
 30
0.0
 70
         1
  0
VERTEX
  5
16E
100
AcDbEntity
  8
L1_115
  6
CONTINUOUS
 62
         7
100
AcDbVertex
100
AcDb2dVertex
 10
1476.6031461769
 20
-25.6704704987
 30
0.0
 70
         1
  0
VERTEX
  5
170
100
AcDbEntity
  8
L1_115
  6
CONTINUOUS
 62
         7
100
AcDbVertex
100
AcDb2dVertex
 10
1476.4326010017
 20
-25.432318985
 30
0.0
 70
         1
  0
VERTEX
  5
172
100
AcDbEntity
  8
L1_115
  6
CONTINUOUS
 62
         7
100
AcDbVertex
100
AcDb2dVertex
 10
1476.246450835
 20
-25.2211104483
 30
0.0
 70
         1
  0
VERTEX
  5
174
100
AcDbEntity
  8
L1_115
  6
CONTINUOUS
 62
         7
100
AcDbVertex
100
AcDb2dVertex
 10
1476.0513888937
 20
-25.0350539413
 30
0.0
 70
         1
  0
VERTEX
  5
176
100
AcDbEntity
  8
L1_115
  6
CONTINUOUS
 62
         7
100
AcDbVertex
100
AcDb2dVertex
 10
1475.7837628794
 20
-24.8204339458
 30
0.0
 70
         1
  0
VERTEX
  5
178
100
AcDbEntity
  8
L1_115
  6
CONTINUOUS
 62
         7
100
AcDbVertex
100
AcDb2dVertex
 10
1475.5188853831
 20
-24.6419449013
 30
0.0
 70
         1
  0
VERTEX
  5
17A
100
AcDbEntity
  8
L1_115
  6
CONTINUOUS
 62
         7
100
AcDbVertex
100
AcDb2dVertex
 10
1475.1759640168
 20
-24.4485569355
 30
0.0
 70
         1
  0
VERTEX
  5
17C
100
AcDbEntity
  8
L1_115
  6
CONTINUOUS
 62
         7
100
AcDbVertex
100
AcDb2dVertex
 10
1474.8578897473
 20
-24.2993173949
 30
0.0
 70
         1
  0
VERTEX
  5
17E
100
AcDbEntity
  8
L1_115
  6
CONTINUOUS
 62
         7
100
AcDbVertex
100
AcDb2dVertex
 10
1474.4715302865
 20
-24.1498536826
 30
0.0
 70
         1
  0
VERTEX
  5
180
100
AcDbEntity
  8
L1_115
  6
CONTINUOUS
 62
         7
100
AcDbVertex
100
AcDb2dVertex
 10
1474.1378020281
 20
-24.0447537168
 30
0.0
 70
         1
  0
VERTEX
  5
182
100
AcDbEntity
  8
L1_115
  6
CONTINUOUS
 62
         7
100
AcDbVertex
100
AcDb2dVertex
 10
1473.7586532635
 20
-23.9490625948
 30
0.0
 70
         1
  0
VERTEX
  5
184
100
AcDbEntity
  8
L1_115
  6
CONTINUOUS
 62
         7
100
AcDbVertex
100
AcDb2dVertex
 10
1473.3560641172
 20
-23.8724418464
 30
0.0
 70
         1
  0
VERTEX
  5
186
100
AcDbEntity
  8
L1_115
  6
CONTINUOUS
 62
         7
100
AcDbVertex
100
AcDb2dVertex
 10
1472.9647726791
 20
-23.8207895105
 30
0.0
 70
         1
  0
VERTEX
  5
188
100
AcDbEntity
  8
L1_115
  6
CONTINUOUS
 62
         7
100
AcDbVertex
100
AcDb2dVertex
 10
1472.6264450716
 20
-23.7933435713
 30
0.0
 70
         1
  0
VERTEX
  5
18A
100
AcDbEntity
  8
L1_115
  6
CONTINUOUS
 62
         7
100
AcDbVertex
100
AcDb2dVertex
 10
1472.2982384415
 20
-23.7815291363
 30
0.0
 70
         1
  0
VERTEX
  5
18C
100
AcDbEntity
  8
L1_115
  6
CONTINUOUS
 62
         7
100
AcDbVertex
100
AcDb2dVertex
 10
1472.1933403763
 20
-23.7807944323
 30
0.0
 70
         1
  0
SEQEND
  5
18E
100
AcDbEntity
  8
L1_115
  6
CONTINUOUS
 62
         7
  0
LINE
  5
18F
100
AcDbEntity
  8
L1_115
  6
CENTER
 62
         1
100
AcDbLine
 10
1493.0033403763
 20
150.1846417294
 30
0.0
 11
1440.0033403763
 21
150.1846417294
 31
0.0
  0
LINE
  5
190
100
AcDbEntity
  8
L1_115
  6
CONTINUOUS
 62
         4
100
AcDbLine
 10
1444.5033403763
 20
121.1846417294
 30
0.0
 11
1444.5033403763
 21
179.1846417294
 31
0.0
  0
ARC
  5
191
100
AcDbEntity
  8
L1_115
  6
CONTINUOUS
 62
         7
100
AcDbCircle
 10
1442.3033403763
 20
120.9846417294
 30
0.0
 40
0.4
100
AcDbArc
 50
90.0
 51
178.4890283439
  0
LINE
  5
192
100
AcDbEntity
  8
L1_115
  6
CONTINUOUS
 62
         7
100
AcDbLine
 10
1441.9034794587
 20
120.9951890789
 30
0.0
 11
1442.0033403763
 21
120.2846417294
 31
0.0
  0
LINE
  5
193
100
AcDbEntity
  8
L1_115
  6
CONTINUOUS
 62
         7
100
AcDbLine
 10
1445.1398320494
 20
121.1846417294
 30
0.0
 11
1444.5033403763
 21
121.1846417294
 31
0.0
  0
ARC
  5
194
100
AcDbEntity
  8
L1_115
  6
CONTINUOUS
 62
         7
100
AcDbCircle
 10
1443.7042692157
 20
120.9846417294
 30
0.0
 40
0.4
100
AcDbArc
 50
75.0
 51
90.0
  0
LINE
  5
195
100
AcDbEntity
  8
L1_115
  6
CONTINUOUS
 62
         7
100
AcDbLine
 10
1443.8077968337
 20
121.3710120599
 30
0.0
 11
1444.5033403763
 21
121.1846417294
 31
0.0
  0
LINE
  5
196
100
AcDbEntity
  8
L1_115
  6
CONTINUOUS
 62
         7
100
AcDbLine
 10
1443.7042692157
 20
121.3846417294
 30
0.0
 11
1442.3033403763
 21
121.3846417294
 31
0.0
  0
ARC
  5
197
100
AcDbEntity
  8
L1_115
  6
CONTINUOUS
 62
         7
100
AcDbCircle
 10
1442.3033403763
 20
179.3846417294
 30
0.0
 40
0.4
100
AcDbArc
 50
181.5109716561
 51
270.0
  0
LINE
  5
198
100
AcDbEntity
  8
L1_115
  6
CONTINUOUS
 62
         7
100
AcDbLine
 10
1441.9034794587
 20
179.3740943799
 30
0.0
 11
1442.0033403763
 21
180.0846417294
 31
0.0
  0
LINE
  5
199
100
AcDbEntity
  8
L1_115
  6
CONTINUOUS
 62
         7
100
AcDbLine
 10
1445.1398320494
 20
179.1846417294
 30
0.0
 11
1444.5033403763
 21
179.1846417294
 31
0.0
  0
ARC
  5
19A
100
AcDbEntity
  8
L1_115
  6
CONTINUOUS
 62
         7
100
AcDbCircle
 10
1443.7042692157
 20
179.3846417294
 30
0.0
 40
0.4
100
AcDbArc
 50
270.0
 51
285.0
  0
LINE
  5
19B
100
AcDbEntity
  8
L1_115
  6
CONTINUOUS
 62
         7
100
AcDbLine
 10
1443.8077968337
 20
178.9982713989
 30
0.0
 11
1444.5033403763
 21
179.1846417294
 31
0.0
  0
LINE
  5
19C
100
AcDbEntity
  8
L1_115
  6
CONTINUOUS
 62
         7
100
AcDbLine
 10
1443.7042692157
 20
178.9846417294
 30
0.0
 11
1442.3033403763
 21
178.9846417294
 31
0.0
  0
LINE
  5
19D
100
AcDbEntity
  8
L1_115
  6
CONTINUOUS
 62
         7
100
AcDbLine
 10
1482.0033403763
 20
179.0846417294
 30
0.0
 11
1482.0033403763
 21
121.2846417294
 31
0.0
  0
LINE
  5
19E
100
AcDbEntity
  8
L1_115
  6
CONTINUOUS
 62
         7
100
AcDbLine
 10
1484.0033403763
 20
122.1846417294
 30
0.0
 11
1482.0033403763
 21
122.1846417294
 31
0.0
  0
LINE
  5
19F
100
AcDbEntity
  8
L1_115
  6
CONTINUOUS
 62
         7
100
AcDbLine
 10
1484.0033403763
 20
179.0846417294
 30
0.0
 11
1484.0033403763
 21
121.2846417294
 31
0.0
  0
LINE
  5
1A0
100
AcDbEntity
  8
L1_115
  6
CONTINUOUS
 62
         7
100
AcDbLine
 10
1487.1419591697
 20
121.1846417294
 30
0.0
 11
1484.1033403763
 21
121.1846417294
 31
0.0
  0
LINE
  5
1A1
100
AcDbEntity
  8
L1_115
  6
CONTINUOUS
 62
         7
100
AcDbLine
 10
1481.9033403763
 20
121.1846417294
 30
0.0
 11
1444.5033403763
 21
121.1846417294
 31
0.0
  0
LINE
  5
1A2
100
AcDbEntity
  8
L1_115
  6
CONTINUOUS
 62
         7
100
AcDbLine
 10
1487.1419591697
 20
179.1846417294
 30
0.0
 11
1484.1033403763
 21
179.1846417294
 31
0.0
  0
LINE
  5
1A3
100
AcDbEntity
  8
L1_115
  6
CONTINUOUS
 62
         7
100
AcDbLine
 10
1484.0033403763
 20
178.1846417294
 30
0.0
 11
1482.0033403763
 21
178.1846417294
 31
0.0
  0
LINE
  5
1A4
100
AcDbEntity
  8
L1_115
  6
CONTINUOUS
 62
         7
100
AcDbLine
 10
1481.9033403763
 20
179.1846417294
 30
0.0
 11
1444.5033403763
 21
179.1846417294
 31
0.0
  0
LINE
  5
1A5
100
AcDbEntity
  8
L1_115
  6
CONTINUOUS
 62
         7
100
AcDbLine
 10
1493.0033403763
 20
124.2192957053
 30
0.0
 11
1493.0033403763
 21
176.1499877534
 31
0.0
  0
LINE
  5
1A6
100
AcDbEntity
  8
L1_115
  6
CONTINUOUS
 62
         7
100
AcDbLine
 10
1442.0033403763
 20
119.1846417294
 30
0.0
 11
1442.0033403763
 21
120.2846417294
 31
0.0
  0
LINE
  5
1A7
100
AcDbEntity
  8
L1_115
  6
CONTINUOUS
 62
         7
100
AcDbLine
 10
1441.5033403763
 20
181.6846417294
 30
0.0
 11
1436.0553403763
 21
181.6846417294
 31
0.0
  0
LINE
  5
1A8
100
AcDbEntity
  8
L1_115
  6
CONTINUOUS
 62
         7
100
AcDbLine
 10
1441.5033403763
 20
118.6846417294
 30
0.0
 11
1436.0553403763
 21
118.6846417294
 31
0.0
  0
DIMENSION
  5
1AC
100
AcDbEntity
  8
L1_115
  6
CONTINUOUS
 62
         4
100
AcDbDimension
  2
*D1
 10
1531.9937674808
 20
181.6846417294
 30
0.0
 11
1529.9687674808
 21
145.3889543407
 31
0.0
  3
DIMSTYLE1
100
AcDbAlignedDimension
 13
1441.0033403763
 23
181.6846417294
 33
0.0
 14
1441.0033403763
 24
118.6846417294
 34
0.0
 50
90.0
100
AcDbRotatedDimension
  0
LINE
  5
1B9
100
AcDbEntity
  8
L1_115
  6
CENTER
 62
         1
100
AcDbLine
 10
1471.9983403763
 20
142.3499119521
 30
0.0
 11
1471.9983403763
 21
158.0592538929
 31
0.0
  0
LINE
  5
1BA
100
AcDbEntity
  8
L1_115
  6
CENTER
 62
         1
100
AcDbLine
 10
1453.9083403763
 20
142.3499119489
 30
0.0
 11
1453.9083403763
 21
158.0592538898
 31
0.0
  0
ARC
  5
1BB
100
AcDbEntity
  8
L1_115
  6
CONTINUOUS
 62
         7
100
AcDbCircle
 10
1441.5033403763
 20
181.1846417294
 30
0.0
 40
0.5
100
AcDbArc
 50
0.0
 51
90.0
  0
ARC
  5
1BC
100
AcDbEntity
  8
L1_115
  6
CONTINUOUS
 62
         7
100
AcDbCircle
 10
1441.5033403763
 20
119.1846417294
 30
0.0
 40
0.5
100
AcDbArc
 50
270.0
 51
360.0
  0
LINE
  5
1BD
100
AcDbEntity
  8
L1_115
  6
CONTINUOUS
 62
         7
100
AcDbLine
 10
1442.0033403763
 20
180.0846417294
 30
0.0
 11
1442.0033403763
 21
181.1846417294
 31
0.0
  0
LINE
  5
1BE
100
AcDbEntity
  8
L1_115
  6
CONTINUOUS
 62
         7
100
AcDbLine
 10
1442.0033403763
 20
121.2492168605
 30
0.0
 11
1442.0033403763
 21
179.1200665983
 31
0.0
  0
LINE
  5
1BF
100
AcDbEntity
  8
L1_115
  6
CONTINUOUS
 62
         4
100
AcDbLine
 10
1441.5033403763
 20
181.6846417294
 30
0.0
 11
1441.5033403763
 21
118.6846417294
 31
0.0
  0
LINE
  5
1C0
100
AcDbEntity
  8
L1_115
  6
CONTINUOUS
 62
         7
100
AcDbLine
 10
1484.0033403763
 20
179.0846417294
 30
0.0
 11
1484.1033403763
 21
179.1846417294
 31
0.0
  0
LINE
  5
1C1
100
AcDbEntity
  8
L1_115
  6
CONTINUOUS
 62
         7
100
AcDbLine
 10
1481.9033403763
 20
179.1846417294
 30
0.0
 11
1482.0033403763
 21
179.0846417294
 31
0.0
  0
LINE
  5
1C2
100
AcDbEntity
  8
L1_115
  6
CONTINUOUS
 62
         7
100
AcDbLine
 10
1482.0033403763
 20
121.2846417294
 30
0.0
 11
1481.9033403763
 21
121.1846417294
 31
0.0
  0
LINE
  5
1C3
100
AcDbEntity
  8
L1_115
  6
CONTINUOUS
 62
         7
100
AcDbLine
 10
1484.0033403763
 20
121.2846417294
 30
0.0
 11
1484.1033403763
 21
121.1846417294
 31
0.0
  0
DIMENSION
  5
1C6
100
AcDbEntity
  8
L1_115
  6
CONTINUOUS
 62
         4
100
AcDbDimension
  2
*D2
 10
1509.0081487071
 20
177.6846417294
 30
0.0
 11
1506.9831487071
 21
144.6334048145
 31
0.0
  3
DIMSTYLE1
100
AcDbAlignedDimension
 13
1493.0033403763
 23
177.6846417294
 33
0.0
 14
1493.0033403763
 24
122.6846417294
 34
0.0
 50
90.0
100
AcDbRotatedDimension
  0
LINE
  5
1D2
100
AcDbEntity
  8
L1_115
  6
CONTINUOUS
 62
         7
100
AcDbLine
 10
1331.7533403763
 20
161.4188234458
 30
0.0
 11
1331.7533403763
 21
138.9504600129
 31
0.0
  0
LINE
  5
1D3
100
AcDbEntity
  8
L1_115
  6
CENTER
 62
         1
100
AcDbLine
 10
1400.0033403763
 20
172.4096417294
 30
0.0
 11
1400.0033403763
 21
127.9596417294
 31
0.0
  0
LINE
  5
1D4
100
AcDbEntity
  8
L1_115
  6
CONTINUOUS
 62
         7
100
AcDbLine
 10
1403.2033403763
 20
180.9596417294
 30
0.0
 11
1403.2033403763
 21
119.4096417294
 31
0.0
  0
DIMENSION
  5
1D7
100
AcDbEntity
  8
L1_115
  6
CONTINUOUS
 62
         4
100
AcDbDimension
  2
*D3
 10
1331.7533403763
 20
226.0914119816
 30
0.0
 11
1415.3964200495
 21
228.1164119816
 31
0.0
  3
DIMSTYLE1
100
AcDbAlignedDimension
 13
1331.7533403763
 23
161.4188234458
 33
0.0
 14
1493.0033403763
 24
150.1846417294
 34
0.0
100
AcDbRotatedDimension
  0
DIMENSION
  5
1E5
100
AcDbEntity
  8
L1_115
  6
CONTINUOUS
 62
         4
100
AcDbDimension
  2
*D4
 10
1400.0033403763
 20
220.3904295324
 30
0.0
 11
1455.0205505327
 21
222.4154295324
 31
0.0
  3
DIMSTYLE1
100
AcDbAlignedDimension
 13
1400.0033403763
 23
172.4096417294
 33
0.0
 14
1493.0033403763
 24
150.1846417294
 34
0.0
100
AcDbRotatedDimension
  0
LINE
  5
1F1
100
AcDbEntity
  8
L1_115
  6
CONTINUOUS
 62
         7
100
AcDbLine
 10
1491.5209784665
 20
178.081839406
 30
0.0
 11
1487.6595972599
 21
179.116493382
 31
0.0
  0
ARC
  5
1F2
100
AcDbEntity
  8
L1_115
  6
CONTINUOUS
 62
         7
100
AcDbCircle
 10
1491.0033403763
 20
176.1499877534
 30
0.0
 40
2.0
100
AcDbArc
 50
0.0
 51
75.0
  0
ARC
  5
1F3
100
AcDbEntity
  8
L1_115
  6
CONTINUOUS
 62
         7
100
AcDbCircle
 10
1487.1419591697
 20
177.1846417294
 30
0.0
 40
2.0
100
AcDbArc
 50
75.0
 51
90.0
  0
ARC
  5
1F4
100
AcDbEntity
  8
L1_115
  6
CONTINUOUS
 62
         7
100
AcDbCircle
 10
1491.0033403763
 20
124.2192957053
 30
0.0
 40
2.0
100
AcDbArc
 50
285.0
 51
360.0
  0
ARC
  5
1F5
100
AcDbEntity
  8
L1_115
  6
CONTINUOUS
 62
         7
100
AcDbCircle
 10
1487.1419591697
 20
123.1846417294
 30
0.0
 40
2.0
100
AcDbArc
 50
270.0
 51
285.0
  0
LINE
  5
1F6
100
AcDbEntity
  8
L1_115
  6
CONTINUOUS
 62
         7
100
AcDbLine
 10
1491.5209784665
 20
122.2874440528
 30
0.0
 11
1487.6595972599
 21
121.2527900768
 31
0.0
  0
ARC
  5
1F7
100
AcDbEntity
  8
L1_115
  6
CONTINUOUS
 62
         7
100
AcDbCircle
 10
1491.0033403763
 20
-38.9086807647
 30
0.0
 40
2.0
100
AcDbArc
 50
285.0
 51
360.0
  0
LINE
  5
1F8
100
AcDbEntity
  8
L1_115
  6
CONTINUOUS
 62
         7
100
AcDbLine
 10
1491.5209784665
 20
-40.8405324173
 30
0.0
 11
1487.6595972599
 21
-41.8751863933
 31
0.0
  0
ARC
  5
1F9
100
AcDbEntity
  8
L1_115
  6
CONTINUOUS
 62
         7
100
AcDbCircle
 10
1491.0033403763
 20
13.0220112834
 30
0.0
 40
2.0
100
AcDbArc
 50
0.0
 51
75.0
  0
ARC
  5
1FA
100
AcDbEntity
  8
L1_115
  6
CONTINUOUS
 62
         7
100
AcDbCircle
 10
1487.1419591697
 20
14.0566652593
 30
0.0
 40
2.0
100
AcDbArc
 50
75.0
 51
90.0
  0
LINE
  5
1FB
100
AcDbEntity
  8
L1_115
  6
CONTINUOUS
 62
         7
100
AcDbLine
 10
1491.5209784665
 20
14.9538629359
 30
0.0
 11
1487.6595972599
 21
15.9885169119
 31
0.0
  0
ARC
  5
1FC
100
AcDbEntity
  8
L1_115
  6
CONTINUOUS
 62
         7
100
AcDbCircle
 10
1487.1419591697
 20
-39.9433347407
 30
0.0
 40
2.0
100
AcDbArc
 50
270.0
 51
285.0
  0
LINE
  5
1FD
100
AcDbEntity
  8
L1_115
  6
CONTINUOUS
 62
         4
100
AcDbLine
 10
1487.4052641649
 20
121.2020498704
 30
0.0
 11
1487.4052641649
 21
179.1672335884
 31
0.0
  0
LINE
  5
1FE
100
AcDbEntity
  8
L1_115
  6
DASHED
 62
         2
100
AcDbLine
 10
1599.7993564723
 20
155.1346417294
 30
0.0
 11
1594.7089199972
 21
155.1346417294
 31
0.0
  0
LINE
  5
1FF
100
AcDbEntity
  8
L1_115
  6
DASHED
 62
         2
100
AcDbLine
 10
1599.7993564723
 20
145.2346417294
 30
0.0
 11
1594.7089199972
 21
145.2346417294
 31
0.0
  0
LINE
  5
200
100
AcDbEntity
  8
L1_115
  6
DASHED
 62
         2
100
AcDbLine
 10
1630.7385065795
 20
127.3719150865
 30
0.0
 11
1633.2837248171
 21
122.9634677827
 31
0.0
  0
LINE
  5
201
100
AcDbEntity
  8
L1_115
  6
DASHED
 62
         2
100
AcDbLine
 10
1639.312158077
 20
132.3219150865
 30
0.0
 11
1641.8573763145
 21
127.9134677827
 31
0.0
  0
LINE
  5
202
100
AcDbEntity
  8
L1_115
  6
DASHED
 62
         2
100
AcDbLine
 10
1639.312158077
 20
168.0473683723
 30
0.0
 11
1641.8573763145
 21
172.4558156761
 31
0.0
  0
LINE
  5
203
100
AcDbEntity
  8
L1_115
  6
DASHED
 62
         2
100
AcDbLine
 10
1630.7385065795
 20
172.9973683723
 30
0.0
 11
1633.2837248171
 21
177.4058156761
 31
0.0
  0
LINE
  5
204
100
AcDbEntity
  8
L1_115
  6
CONTINUOUS
 62
         7
100
AcDbLine
 10
1471.9983403763
 20
155.1346417294
 30
0.0
 11
1453.9083403763
 21
155.1346417294
 31
0.0
  0
LINE
  5
205
100
AcDbEntity
  8
L1_115
  6
CONTINUOUS
 62
         7
100
AcDbLine
 10
1471.9983403763
 20
145.2346417294
 30
0.0
 11
1453.9083403763
 21
145.2346417294
 31
0.0
  0
ARC
  5
206
100
AcDbEntity
  8
L1_115
  6
CONTINUOUS
 62
         7
100
AcDbCircle
 10
1453.9083403763
 20
150.1846417294
 30
0.0
 40
4.95
100
AcDbArc
 50
90.0
 51
270.0
  0
ARC
  5
207
100
AcDbEntity
  8
L1_115
  6
CONTINUOUS
 62
         7
100
AcDbCircle
 10
1471.9983403763
 20
150.1846417294
 30
0.0
 40
4.95
100
AcDbArc
 50
270.0
 51
450.0
  0
LINE
  5
208
100
AcDbEntity
  8
L1_115
  6
CONTINUOUS
 62
         7
100
AcDbLine
 10
1476.9483403763
 20
11.0566652593
 30
0.0
 11
1476.9483403763
 21
16.0566652593
 31
0.0
  0
LINE
  5
209
100
AcDbEntity
  8
L1_115
  6
CONTINUOUS
 62
         7
100
AcDbLine
 10
1448.9583403763
 20
11.0566652593
 30
0.0
 11
1448.9583403763
 21
16.0566652593
 31
0.0
  0
DIMENSION
  5
20C
100
AcDbEntity
  8
L1_115
  6
CONTINUOUS
 62
         4
100
AcDbDimension
  2
*D5
 10
1493.0033403763
 20
-87.0801955925
 30
0.0
 11
1442.824638991
 21
-83.9481955925
 31
0.0
  3
DIMSTYLE1
100
AcDbAlignedDimension
 13
1493.0033403763
 23
-38.9086807647
 33
0.0
 14
1395.0030155108
 24
-15.4433347407
 34
0.0
100
AcDbRotatedDimension
  0
ARC
  5
218
100
AcDbEntity
  8
L1_115
  6
CONTINUOUS
 62
         7
100
AcDbCircle
 10
1414.0033403763
 20
4.0566652593
 30
0.0
 40
1.0
100
AcDbArc
 50
90.0
 51
180.0
  0
ARC
  5
219
100
AcDbEntity
  8
L1_115
  6
CONTINUOUS
 62
         7
100
AcDbCircle
 10
1414.0033403763
 20
-29.9433347407
 30
0.0
 40
1.0
100
AcDbArc
 50
180.0
 51
270.0
  0
ARC
  5
21A
100
AcDbEntity
  8
L1_115
  6
CONTINUOUS
 62
         7
100
AcDbCircle
 10
1441.0057015658
 20
-36.4433347407
 30
0.0
 40
1.0
100
AcDbArc
 50
180.0
 51
270.0
  0
ARC
  5
21B
100
AcDbEntity
  8
L1_115
  6
CONTINUOUS
 62
         7
100
AcDbCircle
 10
1441.0057015658
 20
10.5566652593
 30
0.0
 40
1.0
100
AcDbArc
 50
90.0
 51
180.0
  0
LINE
  5
21C
100
AcDbEntity
  8
L1_115
  6
CONTINUOUS
 62
         7
100
AcDbLine
 10
1413.0033403763
 20
-9.4433347407
 30
0.0
 11
1412.0033403763
 21
-10.4433347407
 31
0.0
  0
LINE
  5
21D
100
AcDbEntity
  8
L1_115
  6
CONTINUOUS
 62
         4
100
AcDbLine
 10
1412.0033403763
 20
-15.4433347407
 30
0.0
 11
1412.0033403763
 21
-10.4433347407
 31
0.0
  0
LINE
  5
21E
100
AcDbEntity
  8
L1_115
  6
CONTINUOUS
 62
         7
100
AcDbLine
 10
1412.0033403763
 20
-15.4433347407
 30
0.0
 11
1413.0033403763
 21
-16.4433347407
 31
0.0
  0
LINE
  5
21F
100
AcDbEntity
  8
_Y__________
  6
CONTINUOUS
 62
         7
100
AcDbLine
 10
1419.1033403763
 20
180.9596417294
 30
0.0
 11
1419.1033403763
 21
179.9596417294
 31
0.0
  0
LINE
  5
220
100
AcDbEntity
  8
_Y__________
  6
CONTINUOUS
 62
         7
100
AcDbLine
 10
1419.1033403763
 20
120.4096417294
 30
0.0
 11
1419.1033403763
 21
119.4096417294
 31
0.0
  0
ARC
  5
221
100
AcDbEntity
  8
_Y__________
  6
CONTINUOUS
 62
         7
100
AcDbCircle
 10
1419.6033403763
 20
9.8416652593
 30
0.0
 40
0.5
100
AcDbArc
 50
180.0
 51
270.0
  0
ARC
  5
222
100
AcDbEntity
  8
_Y__________
  6
CONTINUOUS
 62
         7
100
AcDbCircle
 10
1419.6033403763
 20
-35.7283347407
 30
0.0
 40
0.5
100
AcDbArc
 50
90.0
 51
180.0
  0
LINE
  5
223
100
AcDbEntity
  8
_Y__________
  6
CONTINUOUS
 62
         7
100
AcDbLine
 10
1419.6033403763
 20
-35.2283347407
 30
0.0
 11
1434.2553403763
 21
-35.2283347407
 31
0.0
  0
LINE
  5
224
100
AcDbEntity
  8
_Y__________
  6
CONTINUOUS
 62
         7
100
AcDbLine
 10
1419.6033403763
 20
9.3416652593
 30
0.0
 11
1434.2553403763
 21
9.3416652593
 31
0.0
  0
ARC
  5
225
100
AcDbEntity
  8
_Y__________
  6
CONTINUOUS
 62
         7
100
AcDbCircle
 10
1404.2033403763
 20
180.9596417294
 30
0.0
 40
1.0
100
AcDbArc
 50
90.0
 51
180.0
  0
LINE
  5
226
100
AcDbEntity
  8
_Y__________
  6
CONTINUOUS
 62
         7
100
AcDbLine
 10
1404.2033403763
 20
181.9596417294
 30
0.0
 11
1405.2033403763
 21
181.9596417294
 31
0.0
  0
LINE
  5
227
100
AcDbEntity
  8
_Y__________
  6
CONTINUOUS
 62
         7
100
AcDbLine
 10
1403.2033403763
 20
180.9596417294
 30
0.0
 11
1403.2033403763
 21
179.9596417294
 31
0.0
  0
LINE
  5
228
100
AcDbEntity
  8
_Y__________
  6
CONTINUOUS
 62
         7
100
AcDbLine
 10
1417.1033403763
 20
181.9596417294
 30
0.0
 11
1418.1033403763
 21
181.9596417294
 31
0.0
  0
ARC
  5
229
100
AcDbEntity
  8
_Y__________
  6
CONTINUOUS
 62
         7
100
AcDbCircle
 10
1418.1033403763
 20
180.9596417294
 30
0.0
 40
1.0
100
AcDbArc
 50
0.0
 51
90.0
  0
ARC
  5
22A
100
AcDbEntity
  8
_Y__________
  6
CONTINUOUS
 62
         7
100
AcDbCircle
 10
1404.2033403763
 20
119.4096417294
 30
0.0
 40
1.0
100
AcDbArc
 50
180.0
 51
270.0
  0
LINE
  5
22B
100
AcDbEntity
  8
_Y__________
  6
CONTINUOUS
 62
         7
100
AcDbLine
 10
1404.2033403763
 20
118.4096417294
 30
0.0
 11
1405.2033403763
 21
118.4096417294
 31
0.0
  0
LINE
  5
22C
100
AcDbEntity
  8
_Y__________
  6
CONTINUOUS
 62
         7
100
AcDbLine
 10
1417.1033403763
 20
118.4096417294
 30
0.0
 11
1418.1033403763
 21
118.4096417294
 31
0.0
  0
ARC
  5
22D
100
AcDbEntity
  8
_Y__________
  6
CONTINUOUS
 62
         7
100
AcDbCircle
 10
1418.1033403763
 20
119.4096417294
 30
0.0
 40
1.0
100
AcDbArc
 50
270.0
 51
360.0
  0
LINE
  5
22E
100
AcDbEntity
  8
_Y__________
  6
CONTINUOUS
 62
         7
100
AcDbLine
 10
1419.1033403763
 20
180.9596417294
 30
0.0
 11
1419.1033403763
 21
172.9696417294
 31
0.0
  0
LINE
  5
22F
100
AcDbEntity
  8
_Y__________
  6
CONTINUOUS
 62
         7
100
AcDbLine
 10
1403.2033403763
 20
120.4096417294
 30
0.0
 11
1403.2033403763
 21
119.4096417294
 31
0.0
  0
LINE
  5
230
100
AcDbEntity
  8
_Y__________
  6
CONTINUOUS
 62
         7
100
AcDbLine
 10
1419.1033403763
 20
127.3996417294
 30
0.0
 11
1419.1033403763
 21
119.4096417294
 31
0.0
  0
LINE
  5
231
100
AcDbEntity
  8
_Y__________
  6
CONTINUOUS
 62
         7
100
AcDbLine
 10
1419.1033403763
 20
-42.7183347407
 30
0.0
 11
1419.1033403763
 21
-43.7183347407
 31
0.0
  0
LINE
  5
232
100
AcDbEntity
  8
_Y__________
  6
CONTINUOUS
 62
         7
100
AcDbLine
 10
1403.2033403763
 20
-42.7183347407
 30
0.0
 11
1403.2033403763
 21
-43.7183347407
 31
0.0
  0
LINE
  5
233
100
AcDbEntity
  8
_Y__________
  6
CONTINUOUS
 62
         7
100
AcDbLine
 10
1419.1033403763
 20
17.8316652593
 30
0.0
 11
1419.1033403763
 21
16.8316652593
 31
0.0
  0
ARC
  5
234
100
AcDbEntity
  8
_Y__________
  6
CONTINUOUS
 62
         7
100
AcDbCircle
 10
1418.1033403763
 20
-43.7183347407
 30
0.0
 40
1.0
100
AcDbArc
 50
270.0
 51
360.0
  0
LINE
  5
235
100
AcDbEntity
  8
_Y__________
  6
CONTINUOUS
 62
         7
100
AcDbLine
 10
1417.1033403763
 20
-44.7183347407
 30
0.0
 11
1418.1033403763
 21
-44.7183347407
 31
0.0
  0
LINE
  5
236
100
AcDbEntity
  8
_Y__________
  6
CONTINUOUS
 62
         7
100
AcDbLine
 10
1404.2033403763
 20
-44.7183347407
 30
0.0
 11
1405.2033403763
 21
-44.7183347407
 31
0.0
  0
ARC
  5
237
100
AcDbEntity
  8
_Y__________
  6
CONTINUOUS
 62
         7
100
AcDbCircle
 10
1404.2033403763
 20
-43.7183347407
 30
0.0
 40
1.0
100
AcDbArc
 50
180.0
 51
270.0
  0
ARC
  5
238
100
AcDbEntity
  8
_Y__________
  6
CONTINUOUS
 62
         7
100
AcDbCircle
 10
1418.1033403763
 20
17.8316652593
 30
0.0
 40
1.0
100
AcDbArc
 50
0.0
 51
90.0
  0
LINE
  5
239
100
AcDbEntity
  8
_Y__________
  6
CONTINUOUS
 62
         7
100
AcDbLine
 10
1417.1033403763
 20
18.8316652593
 30
0.0
 11
1418.1033403763
 21
18.8316652593
 31
0.0
  0
LINE
  5
23A
100
AcDbEntity
  8
_Y__________
  6
CONTINUOUS
 62
         7
100
AcDbLine
 10
1403.2033403763
 20
17.8316652593
 30
0.0
 11
1403.2033403763
 21
16.8316652593
 31
0.0
  0
LINE
  5
23B
100
AcDbEntity
  8
_Y__________
  6
CONTINUOUS
 62
         7
100
AcDbLine
 10
1404.2033403763
 20
18.8316652593
 30
0.0
 11
1405.2033403763
 21
18.8316652593
 31
0.0
  0
ARC
  5
23C
100
AcDbEntity
  8
_Y__________
  6
CONTINUOUS
 62
         7
100
AcDbCircle
 10
1404.2033403763
 20
17.8316652593
 30
0.0
 40
1.0
100
AcDbArc
 50
90.0
 51
180.0
  0
LINE
  5
23D
100
AcDbEntity
  8
_Y__________
  6
CONTINUOUS
 62
         7
100
AcDbLine
 10
1419.6033403763
 20
172.4696417294
 30
0.0
 11
1434.2553403763
 21
172.4696417294
 31
0.0
  0
LINE
  5
23E
100
AcDbEntity
  8
_Y__________
  6
CONTINUOUS
 62
         7
100
AcDbLine
 10
1434.2553403763
 20
127.8996417294
 30
0.0
 11
1434.5553403763
 21
127.8996417294
 31
0.0
  0
ARC
  5
23F
100
AcDbEntity
  8
_Y__________
  6
CONTINUOUS
 62
         7
100
AcDbCircle
 10
1419.6033403763
 20
127.3996417294
 30
0.0
 40
0.5
100
AcDbArc
 50
90.0
 51
180.0
  0
ARC
  5
240
100
AcDbEntity
  8
_Y__________
  6
CONTINUOUS
 62
         7
100
AcDbCircle
 10
1419.6033403763
 20
172.9696417294
 30
0.0
 40
0.5
100
AcDbArc
 50
180.0
 51
270.0
  0
LINE
  5
241
100
AcDbEntity
  8
_Y__________
  6
CONTINUOUS
 62
         7
100
AcDbLine
 10
1419.1033403763
 20
17.8316652595
 30
0.0
 11
1419.1033403763
 21
9.8416652593
 31
0.0
  0
LINE
  5
242
100
AcDbEntity
  8
_Y__________
  6
CONTINUOUS
 62
         7
100
AcDbLine
 10
1419.1033403763
 20
-35.7283347407
 30
0.0
 11
1419.1033403763
 21
-43.7183347409
 31
0.0
  0
ARC
  5
243
100
AcDbEntity
  8
_Y__________
  6
CONTINUOUS
 62
         7
100
AcDbCircle
 10
1434.5553403763
 20
172.9696417294
 30
0.0
 40
0.5
100
AcDbArc
 50
270.0
 51
360.0
  0
LINE
  5
244
100
AcDbEntity
  8
_Y__________
  6
CONTINUOUS
 62
         7
100
AcDbLine
 10
1434.2553403763
 20
172.4696417294
 30
0.0
 11
1434.5553403763
 21
172.4696417294
 31
0.0
  0
ARC
  5
245
100
AcDbEntity
  8
_Y__________
  6
CONTINUOUS
 62
         7
100
AcDbCircle
 10
1434.5553403763
 20
127.3996417294
 30
0.0
 40
0.5
100
AcDbArc
 50
0.0
 51
90.0
  0
LINE
  5
246
100
AcDbEntity
  8
_Y__________
  6
CONTINUOUS
 62
         7
100
AcDbLine
 10
1419.6033403763
 20
127.8996417294
 30
0.0
 11
1434.2553403763
 21
127.8996417294
 31
0.0
  0
ARC
  5
247
100
AcDbEntity
  8
_Y__________
  6
CONTINUOUS
 62
         7
100
AcDbCircle
 10
1434.5553403763
 20
9.8416652593
 30
0.0
 40
0.5
100
AcDbArc
 50
270.0
 51
360.0
  0
LINE
  5
248
100
AcDbEntity
  8
_Y__________
  6
CONTINUOUS
 62
         7
100
AcDbLine
 10
1434.2553403763
 20
9.3416652593
 30
0.0
 11
1434.5553403763
 21
9.3416652593
 31
0.0
  0
ARC
  5
249
100
AcDbEntity
  8
_Y__________
  6
CONTINUOUS
 62
         7
100
AcDbCircle
 10
1434.5553403763
 20
-35.7283347407
 30
0.0
 40
0.5
100
AcDbArc
 50
0.0
 51
90.0
  0
LINE
  5
24A
100
AcDbEntity
  8
_Y__________
  6
CONTINUOUS
 62
         7
100
AcDbLine
 10
1434.2553403763
 20
-35.2283347407
 30
0.0
 11
1434.5553403763
 21
-35.2283347407
 31
0.0
  0
LINE
  5
24B
100
AcDbEntity
  8
_Y__________
  6
CONTINUOUS
 62
         7
100
AcDbLine
 10
1435.0553403763
 20
127.3996417294
 30
0.0
 11
1435.0553403763
 21
172.9696417294
 31
0.0
  0
LINE
  5
24C
100
AcDbEntity
  8
_Y__________
  6
DASHED
 62
         2
100
AcDbLine
 10
1598.2833403762
 20
155.6846417294
 30
0.0
 11
1598.2833403762
 21
144.6846417294
 31
0.0
  0
ARC
  5
24D
100
AcDbEntity
  8
_Y__________
  6
CONTINUOUS
 62
         7
100
AcDbCircle
 10
1402.6033403763
 20
172.9846417294
 30
0.0
 40
0.6
100
AcDbArc
 50
270.0
 51
360.0
  0
LINE
  5
24E
100
AcDbEntity
  8
_Y__________
  6
CONTINUOUS
 62
         7
100
AcDbLine
 10
1401.2033403763
 20
172.5846417294
 30
0.0
 11
1401.9497505378
 21
172.3846417294
 31
0.0
  0
LINE
  5
24F
100
AcDbEntity
  8
_Y__________
  6
CONTINUOUS
 62
         7
100
AcDbLine
 10
1401.9497505378
 20
172.3846417294
 30
0.0
 11
1402.6033403763
 21
172.3846417294
 31
0.0
  0
LINE
  5
250
100
AcDbEntity
  8
_Y__________
  6
CONTINUOUS
 62
         7
100
AcDbLine
 10
1401.2033403763
 20
127.7846417294
 30
0.0
 11
1401.2033403763
 21
172.5846417294
 31
0.0
  0
LINE
  5
251
100
AcDbEntity
  8
_Y__________
  6
CONTINUOUS
 62
         7
100
AcDbLine
 10
1401.9497505378
 20
127.9846417294
 30
0.0
 11
1401.9497505378
 21
172.3846417294
 31
0.0
  0
ARC
  5
252
100
AcDbEntity
  8
_Y__________
  6
CONTINUOUS
 62
         7
100
AcDbCircle
 10
1402.6033403763
 20
127.3846417294
 30
0.0
 40
0.6
100
AcDbArc
 50
0.0
 51
90.0
  0
LINE
  5
253
100
AcDbEntity
  8
_Y__________
  6
CONTINUOUS
 62
         7
100
AcDbLine
 10
1401.2033403763
 20
127.7846417294
 30
0.0
 11
1401.9497505378
 21
127.9846417294
 31
0.0
  0
LINE
  5
254
100
AcDbEntity
  8
_Y__________
  6
CONTINUOUS
 62
         7
100
AcDbLine
 10
1401.9497505378
 20
127.9846417294
 30
0.0
 11
1402.6033403763
 21
127.9846417294
 31
0.0
  0
LINE
  5
255
100
AcDbEntity
  8
_Y__________
  6
CENTER
 62
         1
100
AcDbLine
 10
1396.6508489578
 20
150.1846417294
 30
0.0
 11
1419.1033403763
 21
150.1846417294
 31
0.0
  0
LINE
  5
256
100
AcDbEntity
  8
_Y__________
  6
CONTINUOUS
 62
         7
100
AcDbLine
 10
1332.7801721046
 20
162.6062630231
 30
0.0
 11
1401.2033403763
 21
172.5846417294
 31
0.0
  0
LINE
  5
257
100
AcDbEntity
  8
_Y__________
  6
CENTER
 62
         1
100
AcDbLine
 10
1329.3598386453
 20
150.1846417294
 30
0.0
 11
1378.4659535144
 21
150.1846417294
 31
0.0
  0
LINE
  5
258
100
AcDbEntity
  8
_Y__________
  6
CONTINUOUS
 62
         7
100
AcDbLine
 10
1332.7801721046
 20
137.7630204357
 30
0.0
 11
1401.2033403763
 21
127.7846417294
 31
0.0
  0
LINE
  5
259
100
AcDbEntity
  8
_Y__________
  6
CENTER
 62
         1
100
AcDbLine
 10
1411.1033403763
 20
187.6899050302
 30
0.0
 11
1411.1033403763
 21
112.6870854784
 31
0.0
  0
ARC
  5
25A
100
AcDbEntity
  8
_Y__________
  6
CONTINUOUS
 62
         7
100
AcDbCircle
 10
1412.0045400445
 20
179.3096417294
 30
0.0
 40
1.0
100
AcDbArc
 50
270.0
 51
346.8556743105
  0
ARC
  5
25B
100
AcDbEntity
  8
_Y__________
  6
CONTINUOUS
 62
         7
100
AcDbCircle
 10
1410.202140708
 20
179.3096417294
 30
0.0
 40
1.0
100
AcDbArc
 50
193.1443256895
 51
270.0
  0
LINE
  5
25C
100
AcDbEntity
  8
_Y__________
  6
CONTINUOUS
 62
         7
100
AcDbLine
 10
1410.202140708
 20
178.3096417294
 30
0.0
 11
1412.0045400445
 21
178.3096417294
 31
0.0
  0
LINE
  5
25D
100
AcDbEntity
  8
_Y__________
  6
CONTINUOUS
 62
         7
100
AcDbLine
 10
1414.639610775
 20
181.9596417294
 30
0.0
 11
1418.1033403763
 21
181.9596417294
 31
0.0
  0
LINE
  5
25E
100
AcDbEntity
  8
_Y__________
  6
CONTINUOUS
 62
         7
100
AcDbLine
 10
1412.9783403763
 20
179.0822369936
 30
0.0
 11
1414.639610775
 21
181.9596417294
 31
0.0
  0
LINE
  5
25F
100
AcDbEntity
  8
_Y__________
  6
CONTINUOUS
 62
         7
100
AcDbLine
 10
1414.639610775
 20
118.4096417294
 30
0.0
 11
1418.1033403763
 21
118.4096417294
 31
0.0
  0
ARC
  5
260
100
AcDbEntity
  8
_Y__________
  6
CONTINUOUS
 62
         7
100
AcDbCircle
 10
1412.0045400445
 20
121.0596417294
 30
0.0
 40
1.0
100
AcDbArc
 50
13.1443256895
 51
90.0
  0
LINE
  5
261
100
AcDbEntity
  8
_Y__________
  6
CONTINUOUS
 62
         7
100
AcDbLine
 10
1412.9783403763
 20
121.2870464652
 30
0.0
 11
1414.639610775
 21
118.4096417294
 31
0.0
  0
ARC
  5
262
100
AcDbEntity
  8
_Y__________
  6
CONTINUOUS
 62
         7
100
AcDbCircle
 10
1410.202140708
 20
121.0596417294
 30
0.0
 40
1.0
100
AcDbArc
 50
90.0
 51
166.8556743105
  0
LINE
  5
263
100
AcDbEntity
  8
_Y__________
  6
CONTINUOUS
 62
         7
100
AcDbLine
 10
1410.202140708
 20
122.0596417294
 30
0.0
 11
1412.0045400445
 21
122.0596417294
 31
0.0
  0
LINE
  5
264
100
AcDbEntity
  8
_Y__________
  6
CONTINUOUS
 62
         7
100
AcDbLine
 10
1419.1033403763
 20
180.9596417294
 30
0.0
 11
1419.1033403763
 21
169.1846417294
 31
0.0
  0
LINE
  5
265
100
AcDbEntity
  8
_Y__________
  6
CONTINUOUS
 62
         7
100
AcDbLine
 10
1419.1033403763
 20
180.9596417294
 30
0.0
 11
1419.1033403763
 21
119.4096417294
 31
0.0
  0
LINE
  5
266
100
AcDbEntity
  8
_Y__________
  6
CONTINUOUS
 62
         7
100
AcDbLine
 10
1404.2033403763
 20
181.9596417294
 30
0.0
 11
1407.5670699775
 21
181.9596417294
 31
0.0
  0
LINE
  5
267
100
AcDbEntity
  8
_Y__________
  6
CONTINUOUS
 62
         7
100
AcDbLine
 10
1404.2033403763
 20
118.4096417294
 30
0.0
 11
1407.5670699775
 21
118.4096417294
 31
0.0
  0
LINE
  5
268
100
AcDbEntity
  8
_Y__________
  6
CENTER
 62
         1
100
AcDbLine
 10
1400.0033403763
 20
172.4096417294
 30
0.0
 11
1400.0033403763
 21
127.9596417294
 31
0.0
  0
LINE
  5
269
100
AcDbEntity
  8
_Y__________
  6
CONTINUOUS
 62
         7
100
AcDbLine
 10
1403.2033403763
 20
180.9596417294
 30
0.0
 11
1403.2033403763
 21
119.4096417294
 31
0.0
  0
LINE
  5
26A
100
AcDbEntity
  8
_Y__________
  6
CONTINUOUS
 62
         7
100
AcDbLine
 10
1409.2283403763
 20
121.2870464652
 30
0.0
 11
1407.5670699775
 21
118.4096417294
 31
0.0
  0
LINE
  5
26B
100
AcDbEntity
  8
_Y__________
  6
CONTINUOUS
 62
         7
100
AcDbLine
 10
1409.2283403763
 20
179.0822369936
 30
0.0
 11
1407.5670699775
 21
181.9596417294
 31
0.0
  0
LINE
  5
26C
100
AcDbEntity
  8
_Y__________
  6
CONTINUOUS
 62
         7
100
AcDbLine
 10
1414.639610775
 20
18.8316652595
 30
0.0
 11
1418.1033403763
 21
18.8316652595
 31
0.0
  0
LINE
  5
26D
100
AcDbEntity
  8
_Y__________
  6
CONTINUOUS
 62
         7
100
AcDbLine
 10
1412.9783403763
 20
15.9542605237
 30
0.0
 11
1414.639610775
 21
18.8316652595
 31
0.0
  0
ARC
  5
26E
100
AcDbEntity
  8
_Y__________
  6
CONTINUOUS
 62
         7
100
AcDbCircle
 10
1412.0045400445
 20
16.1816652595
 30
0.0
 40
1.0
100
AcDbArc
 50
270.0
 51
346.8556743105
  0
LINE
  5
26F
100
AcDbEntity
  8
_Y__________
  6
CONTINUOUS
 62
         7
100
AcDbLine
 10
1410.202140708
 20
15.1816652595
 30
0.0
 11
1412.0045400445
 21
15.1816652595
 31
0.0
  0
ARC
  5
270
100
AcDbEntity
  8
_Y__________
  6
CONTINUOUS
 62
         7
100
AcDbCircle
 10
1410.202140708
 20
16.1816652595
 30
0.0
 40
1.0
100
AcDbArc
 50
193.1443256895
 51
270.0
  0
LINE
  5
271
100
AcDbEntity
  8
_Y__________
  6
CONTINUOUS
 62
         7
100
AcDbLine
 10
1409.2283403763
 20
15.9542605235
 30
0.0
 11
1407.5670699775
 21
18.8316652593
 31
0.0
  0
LINE
  5
272
100
AcDbEntity
  8
_Y__________
  6
CONTINUOUS
 62
         7
100
AcDbLine
 10
1404.2033403763
 20
18.8316652595
 30
0.0
 11
1407.5670699775
 21
18.8316652595
 31
0.0
  0
LINE
  5
273
100
AcDbEntity
  8
_Y__________
  6
CONTINUOUS
 62
         7
100
AcDbLine
 10
1403.2033403763
 20
9.8566652593
 30
0.0
 11
1403.2033403763
 21
17.8316652595
 31
0.0
  0
ARC
  5
274
100
AcDbEntity
  8
_Y__________
  6
CONTINUOUS
 62
         7
100
AcDbCircle
 10
1402.6033403763
 20
9.8566652593
 30
0.0
 40
0.6
100
AcDbArc
 50
270.0
 51
360.0
  0
LINE
  5
275
100
AcDbEntity
  8
_Y__________
  6
CONTINUOUS
 62
         7
100
AcDbLine
 10
1401.9497505378
 20
9.2566652593
 30
0.0
 11
1402.6033403763
 21
9.2566652593
 31
0.0
  0
LINE
  5
276
100
AcDbEntity
  8
_Y__________
  6
CONTINUOUS
 62
         7
100
AcDbLine
 10
1332.6301721046
 20
-0.543588447
 30
0.0
 11
1401.2033403763
 21
9.4566652593
 31
0.0
  0
LINE
  5
277
100
AcDbEntity
  8
_Y__________
  6
CONTINUOUS
 62
         7
100
AcDbLine
 10
1401.2033403763
 20
9.4566652593
 30
0.0
 11
1401.9497505378
 21
9.2566652593
 31
0.0
  0
LINE
  5
278
100
AcDbEntity
  8
_Y__________
  6
CONTINUOUS
 62
         7
100
AcDbLine
 10
1332.6301721046
 20
-25.3430810344
 30
0.0
 11
1401.2033403767
 21
-35.3433347407
 31
0.0
  0
LINE
  5
279
100
AcDbEntity
  8
_Y__________
  6
CENTER
 62
         1
100
AcDbLine
 10
1328.5556074009
 20
-12.9433347407
 30
0.0
 11
1397.1033403763
 21
-12.9433347407
 31
0.0
  0
LINE
  5
27A
100
AcDbEntity
  8
_Y__________
  6
CONTINUOUS
 62
         7
100
AcDbLine
 10
1401.2033403763
 20
-35.3433347409
 30
0.0
 11
1401.9497505378
 21
-35.1433347409
 31
0.0
  0
LINE
  5
27B
100
AcDbEntity
  8
_Y__________
  6
CONTINUOUS
 62
         7
100
AcDbLine
 10
1401.9497505378
 20
-35.1433347407
 30
0.0
 11
1402.6033403763
 21
-35.1433347407
 31
0.0
  0
ARC
  5
27C
100
AcDbEntity
  8
_Y__________
  6
CONTINUOUS
 62
         7
100
AcDbCircle
 10
1402.6033403763
 20
-35.7433347407
 30
0.0
 40
0.6
100
AcDbArc
 50
0.0
 51
90.0
  0
LINE
  5
27D
100
AcDbEntity
  8
_Y__________
  6
CONTINUOUS
 62
         7
100
AcDbLine
 10
1404.2033403763
 20
-44.7183347409
 30
0.0
 11
1407.5670699775
 21
-44.7183347409
 31
0.0
  0
LINE
  5
27E
100
AcDbEntity
  8
_Y__________
  6
CONTINUOUS
 62
         7
100
AcDbLine
 10
1403.2033403763
 20
-35.7433347409
 30
0.0
 11
1403.2033403763
 21
-43.7183347409
 31
0.0
  0
LINE
  5
27F
100
AcDbEntity
  8
_Y__________
  6
CONTINUOUS
 62
         7
100
AcDbLine
 10
1409.2283403763
 20
-41.8409300049
 30
0.0
 11
1407.5670699775
 21
-44.7183347407
 31
0.0
  0
ARC
  5
280
100
AcDbEntity
  8
_Y__________
  6
CONTINUOUS
 62
         7
100
AcDbCircle
 10
1410.202140708
 20
-42.0683347407
 30
0.0
 40
1.0
100
AcDbArc
 50
90.0
 51
166.8556743105
  0
LINE
  5
281
100
AcDbEntity
  8
_Y__________
  6
CONTINUOUS
 62
         7
100
AcDbLine
 10
1410.202140708
 20
-41.0683347407
 30
0.0
 11
1412.0045400445
 21
-41.0683347407
 31
0.0
  0
ARC
  5
282
100
AcDbEntity
  8
_Y__________
  6
CONTINUOUS
 62
         7
100
AcDbCircle
 10
1412.0045400445
 20
-42.0683347409
 30
0.0
 40
1.0
100
AcDbArc
 50
13.1443256895
 51
90.0
  0
LINE
  5
283
100
AcDbEntity
  8
_Y__________
  6
CONTINUOUS
 62
         7
100
AcDbLine
 10
1412.9783403763
 20
-41.8409300049
 30
0.0
 11
1414.639610775
 21
-44.7183347407
 31
0.0
  0
LINE
  5
284
100
AcDbEntity
  8
_Y__________
  6
CONTINUOUS
 62
         7
100
AcDbLine
 10
1414.639610775
 20
-44.7183347409
 30
0.0
 11
1418.1033403763
 21
-44.7183347409
 31
0.0
  0
CIRCLE
  5
285
100
AcDbEntity
  8
_Y__________
  6
DASHED
 62
         2
100
AcDbCircle
 10
1623.2833403763
 20
150.1846417294
 30
0.0
 40
22.225
  0
LINE
  5
286
100
AcDbEntity
  8
_Y__________
  6
CONTINUOUS
 62
         7
100
AcDbLine
 10
1414.639610775
 20
141.3346417294
 30
0.0
 11
1414.639610775
 21
118.4096417294
 31
0.0
  0
LINE
  5
287
100
AcDbEntity
  8
_Y__________
  6
CONTINUOUS
 62
         7
100
AcDbLine
 10
1412.9783403763
 20
142.1346417294
 30
0.0
 11
1412.9783403763
 21
121.2870464652
 31
0.0
  0
LINE
  5
288
100
AcDbEntity
  8
_Y__________
  6
CONTINUOUS
 62
         7
100
AcDbLine
 10
1409.2283403763
 20
142.1346417294
 30
0.0
 11
1409.2283403763
 21
121.2870464652
 31
0.0
  0
LINE
  5
289
100
AcDbEntity
  8
_Y__________
  6
CONTINUOUS
 62
         7
100
AcDbLine
 10
1407.5670699775
 20
141.3346417294
 30
0.0
 11
1407.5670699775
 21
118.4096417294
 31
0.0
  0
LINE
  5
28A
100
AcDbEntity
  8
_Y__________
  6
CONTINUOUS
 62
         7
100
AcDbLine
 10
1419.1033403763
 20
159.0346417294
 30
0.0
 11
1414.639610775
 21
159.0346417294
 31
0.0
  0
LINE
  5
28B
100
AcDbEntity
  8
_Y__________
  6
CONTINUOUS
 62
         7
100
AcDbLine
 10
1412.9783403763
 20
158.2346417294
 30
0.0
 11
1414.639610775
 21
159.0346417294
 31
0.0
  0
LINE
  5
28C
100
AcDbEntity
  8
_Y__________
  6
CONTINUOUS
 62
         7
100
AcDbLine
 10
1419.1033403763
 20
159.0346417294
 30
0.0
 11
1418.3033403763
 21
158.2346417294
 31
0.0
  0
LINE
  5
28D
100
AcDbEntity
  8
_Y__________
  6
CONTINUOUS
 62
         7
100
AcDbLine
 10
1412.9783403763
 20
142.1346417294
 30
0.0
 11
1414.639610775
 21
141.3346417294
 31
0.0
  0
LINE
  5
28E
100
AcDbEntity
  8
_Y__________
  6
CONTINUOUS
 62
         7
100
AcDbLine
 10
1418.3033403763
 20
142.1346417294
 30
0.0
 11
1419.1033403763
 21
141.3346417294
 31
0.0
  0
LINE
  5
28F
100
AcDbEntity
  8
_Y__________
  6
CONTINUOUS
 62
         7
100
AcDbLine
 10
1419.1033403763
 20
141.3346417294
 30
0.0
 11
1414.639610775
 21
141.3346417294
 31
0.0
  0
LINE
  5
290
100
AcDbEntity
  8
_Y__________
  6
CONTINUOUS
 62
         7
100
AcDbLine
 10
1418.3033403763
 20
158.2346417294
 30
0.0
 11
1418.3033403763
 21
142.1346417294
 31
0.0
  0
LINE
  5
291
100
AcDbEntity
  8
_Y__________
  6
CONTINUOUS
 62
         7
100
AcDbLine
 10
1407.5670699775
 20
159.0346417294
 30
0.0
 11
1403.2033403763
 21
159.0346417294
 31
0.0
  0
LINE
  5
292
100
AcDbEntity
  8
_Y__________
  6
CONTINUOUS
 62
         7
100
AcDbLine
 10
1403.2033403763
 20
159.0346417294
 30
0.0
 11
1404.0033403763
 21
158.2346417294
 31
0.0
  0
LINE
  5
293
100
AcDbEntity
  8
_Y__________
  6
CONTINUOUS
 62
         7
100
AcDbLine
 10
1404.0033403763
 20
142.1346417294
 30
0.0
 11
1403.2033403763
 21
141.3346417294
 31
0.0
  0
LINE
  5
294
100
AcDbEntity
  8
_Y__________
  6
CONTINUOUS
 62
         7
100
AcDbLine
 10
1407.5670699775
 20
141.3346417294
 30
0.0
 11
1403.2033403763
 21
141.3346417294
 31
0.0
  0
LINE
  5
295
100
AcDbEntity
  8
_Y__________
  6
CONTINUOUS
 62
         7
100
AcDbLine
 10
1404.0033403763
 20
158.2346417294
 30
0.0
 11
1404.0033403763
 21
142.1346417294
 31
0.0
  0
LINE
  5
296
100
AcDbEntity
  8
_Y__________
  6
CONTINUOUS
 62
         7
100
AcDbLine
 10
1407.5670699775
 20
141.3346417294
 30
0.0
 11
1409.2283403763
 21
142.1346417294
 31
0.0
  0
LINE
  5
297
100
AcDbEntity
  8
_Y__________
  6
CONTINUOUS
 62
         7
100
AcDbLine
 10
1407.5670699775
 20
159.0346417294
 30
0.0
 11
1409.2283403763
 21
158.2346417294
 31
0.0
  0
LINE
  5
298
100
AcDbEntity
  8
_Y__________
  6
CONTINUOUS
 62
         7
100
AcDbLine
 10
1418.3033403763
 20
142.1346417294
 30
0.0
 11
1404.0033403763
 21
142.1346417294
 31
0.0
  0
LINE
  5
299
100
AcDbEntity
  8
_Y__________
  6
CONTINUOUS
 62
         7
100
AcDbLine
 10
1418.3033403763
 20
158.2346417294
 30
0.0
 11
1404.0033403763
 21
158.2346417294
 31
0.0
  0
LINE
  5
29A
100
AcDbEntity
  8
_Y__________
  6
CONTINUOUS
 62
         7
100
AcDbLine
 10
1414.639610775
 20
181.9596417294
 30
0.0
 11
1414.639610775
 21
159.0346417294
 31
0.0
  0
LINE
  5
29B
100
AcDbEntity
  8
_Y__________
  6
CONTINUOUS
 62
         7
100
AcDbLine
 10
1412.9783403763
 20
179.0822369936
 30
0.0
 11
1412.9783403763
 21
158.2346417294
 31
0.0
  0
LINE
  5
29C
100
AcDbEntity
  8
_Y__________
  6
CONTINUOUS
 62
         7
100
AcDbLine
 10
1409.2283403763
 20
179.0822369936
 30
0.0
 11
1409.2283403763
 21
158.2346417294
 31
0.0
  0
LINE
  5
29D
100
AcDbEntity
  8
_Y__________
  6
CONTINUOUS
 62
         7
100
AcDbLine
 10
1407.5670699775
 20
181.9596417294
 30
0.0
 11
1407.5670699775
 21
159.0346417294
 31
0.0
  0
ARC
  5
29E
100
AcDbEntity
  8
_Y__________
  6
CONTINUOUS
 62
         7
100
AcDbCircle
 10
1623.2833403763
 20
150.1846417294
 30
0.0
 40
31.775
100
AcDbArc
 50
195.411296411
 51
344.588703589
  0
ARC
  5
29F
100
AcDbEntity
  8
_Y__________
  6
CONTINUOUS
 62
         7
100
AcDbCircle
 10
1623.2833403763
 20
150.1846417294
 30
0.0
 40
31.775
100
AcDbArc
 50
15.411296411
 51
164.588703589
  0
LINE
  5
2A0
100
AcDbEntity
  8
_Y__________
  6
CENTER
 62
         1
100
AcDbLine
 10
1623.2833403763
 20
184.9596417294
 30
0.0
 11
1623.2833403763
 21
115.4096417294
 31
0.0
  0
ARC
  5
2A1
100
AcDbEntity
  8
_Y__________
  6
DASHED
 62
         2
100
AcDbCircle
 10
1623.2833403763
 20
150.1846417294
 30
0.0
 40
28.125
100
AcDbArc
 50
16.6319205355
 51
163.3680794645
  0
ARC
  5
2A2
100
AcDbEntity
  8
_Y__________
  6
DASHED
 62
         2
100
AcDbCircle
 10
1623.2833403763
 20
150.1846417294
 30
0.0
 40
28.125
100
AcDbArc
 50
198.3406919436
 51
343.3680794645
  0
LINE
  5
2A3
100
AcDbEntity
  8
_Y__________
  6
DASHED
 62
         2
100
AcDbLine
 10
1646.0833403763
 20
157.7346417294
 30
0.0
 11
1646.0833403763
 21
142.6346417294
 31
0.0
  0
LINE
  5
2A4
100
AcDbEntity
  8
_Y__________
  6
DASHED
 62
         2
100
AcDbLine
 10
1646.0833403763
 20
157.7346417294
 30
0.0
 11
1646.5833403763
 21
158.2346417294
 31
0.0
  0
LINE
  5
2A5
100
AcDbEntity
  8
_Y__________
  6
DASHED
 62
         2
100
AcDbLine
 10
1646.5833403763
 20
158.2346417294
 30
0.0
 11
1653.5217223278
 21
158.2346417294
 31
0.0
  0
LINE
  5
2A6
100
AcDbEntity
  8
_Y__________
  6
DASHED
 62
         2
100
AcDbLine
 10
1653.915807609
 20
158.6287270106
 30
0.0
 11
1653.5217223278
 21
158.2346417294
 31
0.0
  0
LINE
  5
2A7
100
AcDbEntity
  8
_Y__________
  6
DASHED
 62
         2
100
AcDbLine
 10
1646.5833403763
 20
142.1346417294
 30
0.0
 11
1653.5217223278
 21
142.1346417294
 31
0.0
  0
LINE
  5
2A8
100
AcDbEntity
  8
_Y__________
  6
DASHED
 62
         2
100
AcDbLine
 10
1646.0833403763
 20
142.6346417294
 30
0.0
 11
1646.5833403763
 21
142.1346417294
 31
0.0
  0
LINE
  5
2A9
100
AcDbEntity
  8
_Y__________
  6
DASHED
 62
         2
100
AcDbLine
 10
1653.915807609
 20
141.7405564482
 30
0.0
 11
1653.5217223278
 21
142.1346417294
 31
0.0
  0
LINE
  5
2AA
100
AcDbEntity
  8
_Y__________
  6
DASHED
 62
         2
100
AcDbLine
 10
1593.0449584247
 20
158.2346417294
 30
0.0
 11
1597.7833403762
 21
158.2346417294
 31
0.0
  0
LINE
  5
2AB
100
AcDbEntity
  8
_Y__________
  6
DASHED
 62
         2
100
AcDbLine
 10
1598.2833403762
 20
157.7346417294
 30
0.0
 11
1598.2833403762
 21
142.6346417294
 31
0.0
  0
LINE
  5
2AC
100
AcDbEntity
  8
_Y__________
  6
DASHED
 62
         2
100
AcDbLine
 10
1598.2833403762
 20
157.7346417294
 30
0.0
 11
1597.7833403762
 21
158.2346417294
 31
0.0
  0
LINE
  5
2AD
100
AcDbEntity
  8
_Y__________
  6
DASHED
 62
         2
100
AcDbLine
 10
1592.6508731435
 20
158.6287270106
 30
0.0
 11
1593.0449584247
 21
158.2346417294
 31
0.0
  0
LINE
  5
2AE
100
AcDbEntity
  8
_Y__________
  6
DASHED
 62
         2
100
AcDbLine
 10
1598.2833403762
 20
142.6346417294
 30
0.0
 11
1597.7833403762
 21
142.1346417294
 31
0.0
  0
LINE
  5
2AF
100
AcDbEntity
  8
_Y__________
  6
DASHED
 62
         2
100
AcDbLine
 10
1592.6508731435
 20
141.7405564482
 30
0.0
 11
1593.0449584247
 21
142.1346417294
 31
0.0
  0
LINE
  5
2B0
100
AcDbEntity
  8
_Y__________
  6
DASHED
 62
         2
100
AcDbLine
 10
1593.0449584247
 20
142.1346417294
 30
0.0
 11
1597.7833403762
 21
142.1346417294
 31
0.0
  0
LINE
  5
2B1
100
AcDbEntity
  8
_Y__________
  6
CENTER
 62
         1
100
AcDbLine
 10
1596.790952795
 20
150.1846417294
 30
0.0
 11
1650.7694097755
 21
150.1846417294
 31
0.0
  0
LINE
  5
2B2
100
AcDbEntity
  8
_Y__________
  6
CENTER
 62
         1
100
AcDbLine
 10
1183.1483403763
 20
150.1846417294
 30
0.0
 11
1246.6983403763
 21
150.1846417294
 31
0.0
  0
ARC
  5
2B3
100
AcDbEntity
  8
_Y__________
  6
CONTINUOUS
 62
         7
100
AcDbCircle
 10
1214.9233403763
 20
150.1846417294
 30
0.0
 40
31.775
100
AcDbArc
 50
195.411296411
 51
344.588703589
  0
ARC
  5
2B4
100
AcDbEntity
  8
_Y__________
  6
CONTINUOUS
 62
         7
100
AcDbCircle
 10
1214.9233403763
 20
150.1846417294
 30
0.0
 40
31.775
100
AcDbArc
 50
15.411296411
 51
164.588703589
  0
LINE
  5
2B5
100
AcDbEntity
  8
_Y__________
  6
CENTER
 62
         1
100
AcDbLine
 10
1214.9233403763
 20
114.5732894966
 30
0.0
 11
1214.9233403763
 21
185.4173498279
 31
0.0
  0
CIRCLE
  5
2B6
100
AcDbEntity
  8
_Y__________
  6
CONTINUOUS
 62
         7
100
AcDbCircle
 10
1214.9233403763
 20
150.1846417294
 30
0.0
 40
12.7165768873
  0
CIRCLE
  5
2B7
100
AcDbEntity
  8
_Y__________
  6
CONTINUOUS
 62
         7
100
AcDbCircle
 10
1214.9233403763
 20
150.1846417294
 30
0.0
 40
7.0
  0
ARC
  5
2B8
100
AcDbEntity
  8
_Y__________
  6
CONTINUOUS
 62
         5
100
AcDbCircle
 10
1214.9233403763
 20
150.1846417294
 30
0.0
 40
8.0
100
AcDbArc
 50
352.9901372228
 51
621.2264515101
  0
CIRCLE
  5
2B9
100
AcDbEntity
  8
_Y__________
  6
CONTINUOUS
 62
         7
100
AcDbCircle
 10
1214.9233403763
 20
150.1846417294
 30
0.0
 40
9.5
  0
CIRCLE
  5
2BA
100
AcDbEntity
  8
_Y__________
  6
CONTINUOUS
 62
         7
100
AcDbCircle
 10
1214.9233403763
 20
150.1846417294
 30
0.0
 40
8.5
  0
CIRCLE
  5
2BB
100
AcDbEntity
  8
_Y__________
  6
CONTINUOUS
 62
         7
100
AcDbCircle
 10
1214.9233403763
 20
150.1846417294
 30
0.0
 40
22.225
  0
LINE
  5
2BC
100
AcDbEntity
  8
_Y__________
  6
CONTINUOUS
 62
         7
100
AcDbLine
 10
1245.1617223278
 20
158.2346417294
 30
0.0
 11
1240.4233403763
 21
158.2346417294
 31
0.0
  0
LINE
  5
2BD
100
AcDbEntity
  8
_Y__________
  6
CONTINUOUS
 62
         7
100
AcDbLine
 10
1245.555807609
 20
158.6287270106
 30
0.0
 11
1245.1617223278
 21
158.2346417294
 31
0.0
  0
LINE
  5
2BE
100
AcDbEntity
  8
_Y__________
  6
CONTINUOUS
 62
         7
100
AcDbLine
 10
1239.9233403763
 20
157.7346417294
 30
0.0
 11
1240.4233403763
 21
158.2346417294
 31
0.0
  0
LINE
  5
2BF
100
AcDbEntity
  8
_Y__________
  6
CONTINUOUS
 62
         7
100
AcDbLine
 10
1245.555807609
 20
141.7405564482
 30
0.0
 11
1245.1617223278
 21
142.1346417294
 31
0.0
  0
LINE
  5
2C0
100
AcDbEntity
  8
_Y__________
  6
CONTINUOUS
 62
         7
100
AcDbLine
 10
1239.9233403763
 20
142.6346417294
 30
0.0
 11
1240.4233403763
 21
142.1346417294
 31
0.0
  0
LINE
  5
2C1
100
AcDbEntity
  8
_Y__________
  6
CONTINUOUS
 62
         7
100
AcDbLine
 10
1239.9233403763
 20
142.6346417294
 30
0.0
 11
1239.9233403763
 21
157.7346417294
 31
0.0
  0
LINE
  5
2C2
100
AcDbEntity
  8
_Y__________
  6
CONTINUOUS
 62
         7
100
AcDbLine
 10
1245.1617223278
 20
142.1346417294
 30
0.0
 11
1240.4233403763
 21
142.1346417294
 31
0.0
  0
LINE
  5
2C3
100
AcDbEntity
  8
_Y__________
  6
CONTINUOUS
 62
         7
100
AcDbLine
 10
1184.2908731435
 20
158.6287270106
 30
0.0
 11
1184.6849584247
 21
158.2346417294
 31
0.0
  0
LINE
  5
2C4
100
AcDbEntity
  8
_Y__________
  6
CONTINUOUS
 62
         7
100
AcDbLine
 10
1192.1233403763
 20
157.7346417294
 30
0.0
 11
1191.6233403763
 21
158.2346417294
 31
0.0
  0
LINE
  5
2C5
100
AcDbEntity
  8
_Y__________
  6
CONTINUOUS
 62
         7
100
AcDbLine
 10
1191.6233403763
 20
158.2346417294
 30
0.0
 11
1184.6849584247
 21
158.2346417294
 31
0.0
  0
LINE
  5
2C6
100
AcDbEntity
  8
_Y__________
  6
CONTINUOUS
 62
         7
100
AcDbLine
 10
1184.2908731435
 20
141.7405564482
 30
0.0
 11
1184.6849584247
 21
142.1346417294
 31
0.0
  0
LINE
  5
2C7
100
AcDbEntity
  8
_Y__________
  6
CONTINUOUS
 62
         7
100
AcDbLine
 10
1191.6233403763
 20
142.1346417294
 30
0.0
 11
1184.6849584247
 21
142.1346417294
 31
0.0
  0
LINE
  5
2C8
100
AcDbEntity
  8
_Y__________
  6
CONTINUOUS
 62
         7
100
AcDbLine
 10
1192.1233403763
 20
142.6346417294
 30
0.0
 11
1191.6233403763
 21
142.1346417294
 31
0.0
  0
LINE
  5
2C9
100
AcDbEntity
  8
_Y__________
  6
CONTINUOUS
 62
         7
100
AcDbLine
 10
1192.1233403763
 20
142.6346417294
 30
0.0
 11
1192.1233403763
 21
157.7346417294
 31
0.0
  0
LINE
  5
2CA
100
AcDbEntity
  8
_Y__________
  6
CONTINUOUS
 62
         7
100
AcDbLine
 10
1370.0533403763
 20
-5.9433347407
 30
0.0
 11
1370.0533403763
 21
-19.9433347407
 31
0.0
  0
LINE
  5
2CB
100
AcDbEntity
  8
_Y__________
  6
CONTINUOUS
 62
         7
100
AcDbLine
 10
1370.0533403763
 20
-5.9433347407
 30
0.0
 11
1337.5061830887
 21
-5.9433347407
 31
0.0
  0
LINE
  5
2CC
100
AcDbEntity
  8
_Y__________
  6
CONTINUOUS
 62
         7
100
AcDbLine
 10
1370.0533403763
 20
-19.9433347407
 30
0.0
 11
1337.5061830887
 21
-19.9433347407
 31
0.0
  0
LINE
  5
2CD
100
AcDbEntity
  8
_Y__________
  6
CONTINUOUS
 62
         7
100
AcDbLine
 10
1370.0533403763
 20
-5.9433347407
 30
0.0
 11
1374.0947922606
 21
-12.9433347407
 31
0.0
  0
LINE
  5
2CE
100
AcDbEntity
  8
_Y__________
  6
CONTINUOUS
 62
         7
100
AcDbLine
 10
1370.0533403763
 20
-19.9433347407
 30
0.0
 11
1374.0947922606
 21
-12.9433347407
 31
0.0
  0
LINE
  5
2CF
100
AcDbEntity
  8
_Y__________
  6
CONTINUOUS
 62
         7
100
AcDbLine
 10
1331.7533403763
 20
161.4188234458
 30
0.0
 11
1331.7533403763
 21
138.9504600129
 31
0.0
  0
ARC
  5
2D0
100
AcDbEntity
  8
_Y__________
  6
CONTINUOUS
 62
         7
100
AcDbCircle
 10
1332.9533403763
 20
161.4188234458
 30
0.0
 40
1.2
100
AcDbArc
 50
98.2971449698
 51
180.0
  0
ARC
  5
2D1
100
AcDbEntity
  8
_Y__________
  6
CONTINUOUS
 62
         7
100
AcDbCircle
 10
1332.9533403763
 20
138.9504600129
 30
0.0
 40
1.2
100
AcDbArc
 50
180.0
 51
261.7028550302
  0
LINE
  5
2D2
100
AcDbEntity
  8
_Y__________
  6
CONTINUOUS
 62
         7
100
AcDbLine
 10
1331.7533403763
 20
-1.7091530242
 30
0.0
 11
1331.7533403763
 21
-24.1775164571
 31
0.0
  0
ARC
  5
2D3
100
AcDbEntity
  8
_Y__________
  6
CONTINUOUS
 62
         7
100
AcDbCircle
 10
1332.9533403763
 20
-1.7091530242
 30
0.0
 40
1.2
100
AcDbArc
 50
98.2971449698
 51
180.0
  0
ARC
  5
2D4
100
AcDbEntity
  8
_Y__________
  6
CONTINUOUS
 62
         7
100
AcDbCircle
 10
1332.9533403763
 20
-24.1775164571
 30
0.0
 40
1.2
100
AcDbArc
 50
180.0
 51
261.7028550302
  0
LINE
  5
2D5
100
AcDbEntity
  8
_Y__________
  6
CONTINUOUS
 62
         7
100
AcDbLine
 10
1360.2033403763
 20
-4.9433347407
 30
0.0
 11
1360.2033403763
 21
-20.9433347407
 31
0.0
  0
LINE
  5
2D6
100
AcDbEntity
  8
_Y__________
  6
CONTINUOUS
 62
         5
100
AcDbLine
 10
1336.6561830887
 20
-20.9433347407
 30
0.0
 11
1360.2033403763
 21
-20.9433347407
 31
0.0
  0
ARC
  5
2D7
100
AcDbEntity
  8
_Y__________
  6
CONTINUOUS
 62
         7
100
AcDbCircle
 10
1332.7533403763
 20
-22.0933347407
 30
0.0
 40
1.0
100
AcDbArc
 50
90.0
 51
180.0
  0
LINE
  5
2D8
100
AcDbEntity
  8
_Y__________
  6
CONTINUOUS
 62
         7
100
AcDbLine
 10
1332.7533403763
 20
-21.0933347407
 30
0.0
 11
1335.5233403763
 21
-21.0933347407
 31
0.0
  0
LINE
  5
2D9
100
AcDbEntity
  8
_Y__________
  6
CONTINUOUS
 62
         7
100
AcDbLine
 10
1335.8711121475
 20
-21.1865199059
 30
0.0
 11
1335.5233403763
 21
-21.0933347407
 31
0.0
  0
LINE
  5
2DA
100
AcDbEntity
  8
_Y__________
  6
CONTINUOUS
 62
         7
100
AcDbLine
 10
1335.9228759565
 20
-21.1933347407
 30
0.0
 11
1336.3233403763
 21
-21.1933347407
 31
0.0
  0
ARC
  5
2DB
100
AcDbEntity
  8
_Y__________
  6
CONTINUOUS
 62
         7
100
AcDbCircle
 10
1336.3233403763
 20
-20.9933347407
 30
0.0
 40
0.2
100
AcDbArc
 50
270.0
 51
314.9999999962
  0
LINE
  5
2DC
100
AcDbEntity
  8
_Y__________
  6
CONTINUOUS
 62
         7
100
AcDbLine
 10
1336.4647617325
 20
-21.1347560969
 30
0.0
 11
1337.6561830887
 21
-19.9433347407
 31
0.0
  0
LINE
  5
2DD
100
AcDbEntity
  8
_Y__________
  6
CONTINUOUS
 62
         7
100
AcDbLine
 10
1337.6561830887
 20
-19.9433347407
 30
0.0
 11
1360.2033403763
 21
-19.9433347407
 31
0.0
  0
LINE
  5
2DE
100
AcDbEntity
  8
_Y__________
  6
CONTINUOUS
 62
         7
100
AcDbLine
 10
1337.6561830887
 20
-5.9433347407
 30
0.0
 11
1337.6561830887
 21
-19.9433347407
 31
0.0
  0
LINE
  5
2DF
100
AcDbEntity
  8
_Y__________
  6
CONTINUOUS
 62
         7
100
AcDbLine
 10
1337.6561830887
 20
-5.9433347407
 30
0.0
 11
1360.2033403763
 21
-5.9433347407
 31
0.0
  0
LINE
  5
2E0
100
AcDbEntity
  8
_Y__________
  6
CONTINUOUS
 62
         5
100
AcDbLine
 10
1336.6561830887
 20
-4.9433347407
 30
0.0
 11
1360.2033403763
 21
-4.9433347407
 31
0.0
  0
LINE
  5
2E1
100
AcDbEntity
  8
_Y__________
  6
CONTINUOUS
 62
         7
100
AcDbLine
 10
1335.5233403763
 20
-4.7933347407
 30
0.0
 11
1335.5233403763
 21
-21.0933347407
 31
0.0
  0
LINE
  5
2E2
100
AcDbEntity
  8
_Y__________
  6
CONTINUOUS
 62
         7
100
AcDbLine
 10
1336.5233403763
 20
-5.1498119
 30
0.0
 11
1336.5233403763
 21
-20.6220880762
 31
0.0
  0
ARC
  5
2E3
100
AcDbEntity
  8
_Y__________
  6
CONTINUOUS
 62
         7
100
AcDbCircle
 10
1336.3233403763
 20
-4.8933347407
 30
0.0
 40
0.2
100
AcDbArc
 50
45.0000000038
 51
90.0
  0
LINE
  5
2E4
100
AcDbEntity
  8
_Y__________
  6
CONTINUOUS
 62
         7
100
AcDbLine
 10
1336.4647617325
 20
-4.7519133844
 30
0.0
 11
1337.6561830887
 21
-5.9433347407
 31
0.0
  0
LINE
  5
2E5
100
AcDbEntity
  8
_Y__________
  6
CONTINUOUS
 62
         7
100
AcDbLine
 10
1335.9228759565
 20
-4.6933347407
 30
0.0
 11
1336.3233403763
 21
-4.6933347407
 31
0.0
  0
LINE
  5
2E6
100
AcDbEntity
  8
_Y__________
  6
CONTINUOUS
 62
         7
100
AcDbLine
 10
1335.8711121475
 20
-4.7001495754
 30
0.0
 11
1335.5233403763
 21
-4.7933347407
 31
0.0
  0
ARC
  5
2E7
100
AcDbEntity
  8
_Y__________
  6
CONTINUOUS
 62
         7
100
AcDbCircle
 10
1335.9228759565
 20
-4.8933347407
 30
0.0
 40
0.2
100
AcDbArc
 50
90.0
 51
105.0
  0
LINE
  5
2E8
100
AcDbEntity
  8
_Y__________
  6
CONTINUOUS
 62
         7
100
AcDbLine
 10
1332.7533403763
 20
-4.7933347407
 30
0.0
 11
1335.5233403763
 21
-4.7933347407
 31
0.0
  0
ARC
  5
2E9
100
AcDbEntity
  8
_Y__________
  6
CONTINUOUS
 62
         7
100
AcDbCircle
 10
1332.7533403763
 20
-3.7933347407
 30
0.0
 40
1.0
100
AcDbArc
 50
180.0
 51
270.0
  0
LINE
  5
2EA
100
AcDbEntity
  8
L1_115
  6
CONTINUOUS
 62
         4
100
AcDbLine
 10
1780.7350604774
 20
45.8834859018
 30
0.0
 11
1780.7350604774
 21
98.8834859018
 31
0.0
  0
LINE
  5
2EB
100
AcDbEntity
  8
L1_115
  6
CONTINUOUS
 62
         4
100
AcDbLine
 10
1788.7350604774
 20
98.8834859018
 30
0.0
 11
1788.7350604774
 21
45.8834859018
 31
0.0
  0
LINE
  5
2EC
100
AcDbEntity
  8
L1_115
  6
CONTINUOUS
 62
         4
100
AcDbLine
 10
1710.3350604774
 20
87.8834859018
 30
0.0
 11
1710.3350604774
 21
56.8834859018
 31
0.0
  0
LINE
  5
2ED
100
AcDbEntity
  8
L1_115
  6
CONTINUOUS
 62
         4
100
AcDbLine
 10
1698.2850604774
 20
64.1334859018
 30
0.0
 11
1698.2850604774
 21
52.3834859018
 31
0.0
  0
LINE
  5
2EE
100
AcDbEntity
  8
L1_115
  6
CONTINUOUS
 62
         4
100
AcDbLine
 10
1698.2850604774
 20
80.6334859018
 30
0.0
 11
1698.2850604774
 21
92.3834859018
 31
0.0
  0
LINE
  5
2EF
100
AcDbEntity
  8
L1_115
  6
CONTINUOUS
 62
         4
100
AcDbLine
 10
1643.5350604774
 20
48.3834859018
 30
0.0
 11
1643.5350604774
 21
96.3834859018
 31
0.0
  0
LINE
  5
2F0
100
AcDbEntity
  8
L1_115
  6
CONTINUOUS
 62
         4
100
AcDbLine
 10
1618.6774216669
 20
96.3834859018
 30
0.0
 11
1618.6774216669
 21
48.3834859018
 31
0.0
  0
LINE
  5
2F1
100
AcDbEntity
  8
L1_115
  6
CONTINUOUS
 62
         4
100
AcDbLine
 10
1597.6750604774
 20
56.8834859018
 30
0.0
 11
1597.6750604774
 21
87.8834859018
 31
0.0
  0
LINE
  5
2F2
100
AcDbEntity
  8
L1_115
  6
CONTINUOUS
 62
         4
100
AcDbLine
 10
1567.9350604774
 20
82.6334859018
 30
0.0
 11
1567.9350604774
 21
62.1334859018
 31
0.0
  0
LINE
  5
2F3
100
AcDbEntity
  8
L1_115
  6
CONTINUOUS
 62
         4
100
AcDbLine
 10
1586.8350604774
 20
60.3834859018
 30
0.0
 11
1586.8350604774
 21
84.3834859018
 31
0.0
  0
LINE
  5
2F4
100
AcDbEntity
  8
L1_115
  6
CONTINUOUS
 62
         4
100
AcDbLine
 10
1556.0910858812
 20
40.8834859018
 30
0.0
 11
1556.0910858812
 21
103.8834859018
 31
0.0
  0
LINE
  5
2F5
100
AcDbEntity
  8
L1_115
  6
CONTINUOUS
 62
         7
100
AcDbLine
 10
1567.4350604774
 20
82.1334859018
 30
0.0
 11
1567.9350604774
 21
82.6334859018
 31
0.0
  0
LINE
  5
2F6
100
AcDbEntity
  8
L1_115
  6
CONTINUOUS
 62
         7
100
AcDbLine
 10
1567.4350604774
 20
62.6334859018
 30
0.0
 11
1567.9350604774
 21
62.1334859018
 31
0.0
  0
LINE
  5
2F7
100
AcDbEntity
  8
L1_115
  6
CONTINUOUS
 62
         7
100
AcDbLine
 10
1698.7850604774
 20
81.1334859018
 30
0.0
 11
1698.7850604774
 21
91.8834859018
 31
0.0
  0
LINE
  5
2F8
100
AcDbEntity
  8
L1_115
  6
CONTINUOUS
 62
         7
100
AcDbLine
 10
1698.7850604774
 20
52.8834859018
 30
0.0
 11
1698.7850604774
 21
63.6334859018
 31
0.0
  0
LINE
  5
2F9
100
AcDbEntity
  8
L1_115
  6
CONTINUOUS
 62
         7
100
AcDbLine
 10
1698.7850604774
 20
81.1334859018
 30
0.0
 11
1698.2850604774
 21
80.6334859018
 31
0.0
  0
LINE
  5
2FA
100
AcDbEntity
  8
L1_115
  6
CONTINUOUS
 62
         7
100
AcDbLine
 10
1698.7850604774
 20
63.6334859018
 30
0.0
 11
1698.2850604774
 21
64.1334859018
 31
0.0
  0
LINE
  5
2FB
100
AcDbEntity
  8
L1_115
  6
CONTINUOUS
 62
         7
100
AcDbLine
 10
1698.2850604774
 20
64.1334859018
 30
0.0
 11
1692.7850604774
 21
64.1334859018
 31
0.0
  0
ARC
  5
2FC
100
AcDbEntity
  8
L1_115
  6
CONTINUOUS
 62
         7
100
AcDbCircle
 10
1692.7850604774
 20
64.6334859018
 30
0.0
 40
0.5
100
AcDbArc
 50
180.0
 51
270.0
  0
LINE
  5
2FD
100
AcDbEntity
  8
L1_115
  6
CONTINUOUS
 62
         7
100
AcDbLine
 10
1698.2850604774
 20
80.6334859018
 30
0.0
 11
1692.7850604774
 21
80.6334859018
 31
0.0
  0
LINE
  5
2FE
100
AcDbEntity
  8
L1_115
  6
CONTINUOUS
 62
         7
100
AcDbLine
 10
1692.2850604774
 20
64.6334859018
 30
0.0
 11
1692.2850604774
 21
80.1334859018
 31
0.0
  0
ARC
  5
2FF
100
AcDbEntity
  8
L1_115
  6
CONTINUOUS
 62
         7
100
AcDbCircle
 10
1692.7850604774
 20
80.1334859018
 30
0.0
 40
0.5
100
AcDbArc
 50
90.0
 51
180.0
  0
ARC
  5
300
100
AcDbEntity
  8
L1_115
  6
CONTINUOUS
 62
         7
100
AcDbCircle
 10
1637.2661919453
 20
72.3834859018
 30
0.0
 40
4.755
100
AcDbArc
 50
270.0
 51
450.0
  0
ARC
  5
301
100
AcDbEntity
  8
L1_115
  6
CONTINUOUS
 62
         7
100
AcDbCircle
 10
1624.9590723402
 20
72.3834858987
 30
0.0
 40
4.755
100
AcDbArc
 50
90.0
 51
270.0
  0
LINE
  5
302
100
AcDbEntity
  8
L1_115
  6
CONTINUOUS
 62
         7
100
AcDbLine
 10
1637.2661919453
 20
67.6284859018
 30
0.0
 11
1624.9590723402
 21
67.6284858987
 31
0.0
  0
LINE
  5
303
100
AcDbEntity
  8
L1_115
  6
CONTINUOUS
 62
         7
100
AcDbLine
 10
1637.2661919453
 20
77.1384859018
 30
0.0
 11
1624.9590723402
 21
77.1384858987
 31
0.0
  0
LINE
  5
304
100
AcDbEntity
  8
L1_115
  6
CENTER
 62
         1
100
AcDbLine
 10
1659.3350604774
 20
55.97615769
 30
0.0
 11
1659.3350604774
 21
54.1497979622
 31
0.0
  0
POLYLINE
  5
306
100
AcDbEntity
  8
L1_115
  6
CONTINUOUS
 62
         7
100
AcDb2dPolyline
 66
         1
 10
0.0
 20
0.0
 30
0.0
 70
         2
  0
VERTEX
  5
308
100
AcDbEntity
  8
L1_115
  6
CONTINUOUS
 62
         7
100
AcDbVertex
100
AcDb2dVertex
 10
1657.3350604774
 20
55.0629778261
 30
0.0
 70
         1
  0
VERTEX
  5
30A
100
AcDbEntity
  8
L1_115
  6
CONTINUOUS
 62
         7
100
AcDbVertex
100
AcDb2dVertex
 10
1657.379839937
 20
54.8708230838
 30
0.0
 70
         1
  0
VERTEX
  5
30C
100
AcDbEntity
  8
L1_115
  6
CONTINUOUS
 62
         7
100
AcDbVertex
100
AcDb2dVertex
 10
1657.4291339242
 20
54.7862059896
 30
0.0
 70
         1
  0
VERTEX
  5
30E
100
AcDbEntity
  8
L1_115
  6
CONTINUOUS
 62
         7
100
AcDbVertex
100
AcDb2dVertex
 10
1657.4980977383
 20
54.7018478352
 30
0.0
 70
         1
  0
VERTEX
  5
310
100
AcDbEntity
  8
L1_115
  6
CONTINUOUS
 62
         7
100
AcDbVertex
100
AcDb2dVertex
 10
1657.5871020819
 20
54.619205895
 30
0.0
 70
         1
  0
VERTEX
  5
312
100
AcDbEntity
  8
L1_115
  6
CONTINUOUS
 62
         7
100
AcDbVertex
100
AcDb2dVertex
 10
1657.6958300472
 20
54.5398039407
 30
0.0
 70
         1
  0
VERTEX
  5
314
100
AcDbEntity
  8
L1_115
  6
CONTINUOUS
 62
         7
100
AcDbVertex
100
AcDb2dVertex
 10
1657.8232300415
 20
54.4651468009
 30
0.0
 70
         1
  0
VERTEX
  5
316
100
AcDbEntity
  8
L1_115
  6
CONTINUOUS
 62
         7
100
AcDbVertex
100
AcDb2dVertex
 10
1657.9675306476
 20
54.3966283199
 30
0.0
 70
         1
  0
VERTEX
  5
318
100
AcDbEntity
  8
L1_115
  6
CONTINUOUS
 62
         7
100
AcDbVertex
100
AcDb2dVertex
 10
1658.1263212462
 20
54.3354437161
 30
0.0
 70
         1
  0
VERTEX
  5
31A
100
AcDbEntity
  8
L1_115
  6
CONTINUOUS
 62
         7
100
AcDbVertex
100
AcDb2dVertex
 10
1658.3572486364
 20
54.2663776832
 30
0.0
 70
         1
  0
VERTEX
  5
31C
100
AcDbEntity
  8
L1_115
  6
CONTINUOUS
 62
         7
100
AcDbVertex
100
AcDb2dVertex
 10
1658.601172032
 20
54.2134986998
 30
0.0
 70
         1
  0
VERTEX
  5
31E
100
AcDbEntity
  8
L1_115
  6
CONTINUOUS
 62
         7
100
AcDbVertex
100
AcDb2dVertex
 10
1658.8500728522
 20
54.1770536851
 30
0.0
 70
         1
  0
VERTEX
  5
320
100
AcDbEntity
  8
L1_115
  6
CONTINUOUS
 62
         7
100
AcDbVertex
100
AcDb2dVertex
 10
1659.1802635686
 20
54.1525372823
 30
0.0
 70
         1
  0
VERTEX
  5
322
100
AcDbEntity
  8
L1_115
  6
CONTINUOUS
 62
         7
100
AcDbVertex
100
AcDb2dVertex
 10
1659.4917688604
 20
54.1526054567
 30
0.0
 70
         1
  0
VERTEX
  5
324
100
AcDbEntity
  8
L1_115
  6
CONTINUOUS
 62
         7
100
AcDbVertex
100
AcDb2dVertex
 10
1659.7751057661
 20
54.1721756496
 30
0.0
 70
         1
  0
VERTEX
  5
326
100
AcDbEntity
  8
L1_115
  6
CONTINUOUS
 62
         7
100
AcDbVertex
100
AcDb2dVertex
 10
1660.0255509772
 20
54.2059471067
 30
0.0
 70
         1
  0
VERTEX
  5
328
100
AcDbEntity
  8
L1_115
  6
CONTINUOUS
 62
         7
100
AcDbVertex
100
AcDb2dVertex
 10
1660.3104545506
 20
54.2657599846
 30
0.0
 70
         1
  0
VERTEX
  5
32A
100
AcDbEntity
  8
L1_115
  6
CONTINUOUS
 62
         7
100
AcDbVertex
100
AcDb2dVertex
 10
1660.5382052672
 20
54.3335130526
 30
0.0
 70
         1
  0
VERTEX
  5
32C
100
AcDbEntity
  8
L1_115
  6
CONTINUOUS
 62
         7
100
AcDbVertex
100
AcDb2dVertex
 10
1660.7170117821
 20
54.402860164
 30
0.0
 70
         1
  0
VERTEX
  5
32E
100
AcDbEntity
  8
L1_115
  6
CONTINUOUS
 62
         7
100
AcDbVertex
100
AcDb2dVertex
 10
1660.8559031932
 20
54.4699314035
 30
0.0
 70
         1
  0
VERTEX
  5
330
100
AcDbEntity
  8
L1_115
  6
CONTINUOUS
 62
         7
100
AcDbVertex
100
AcDb2dVertex
 10
1660.9953220226
 20
54.5538172795
 30
0.0
 70
         1
  0
VERTEX
  5
332
100
AcDbEntity
  8
L1_115
  6
CONTINUOUS
 62
         7
100
AcDbVertex
100
AcDb2dVertex
 10
1661.0932156614
 20
54.6276844317
 30
0.0
 70
         1
  0
VERTEX
  5
334
100
AcDbEntity
  8
L1_115
  6
CONTINUOUS
 62
         7
100
AcDbVertex
100
AcDb2dVertex
 10
1661.1819239743
 20
54.7125334606
 30
0.0
 70
         1
  0
VERTEX
  5
336
100
AcDbEntity
  8
L1_115
  6
CONTINUOUS
 62
         7
100
AcDbVertex
100
AcDb2dVertex
 10
1661.252365278
 20
54.8031054229
 30
0.0
 70
         1
  0
VERTEX
  5
338
100
AcDbEntity
  8
L1_115
  6
CONTINUOUS
 62
         7
100
AcDbVertex
100
AcDb2dVertex
 10
1661.2993158503
 20
54.8911028985
 30
0.0
 70
         1
  0
VERTEX
  5
33A
100
AcDbEntity
  8
L1_115
  6
CONTINUOUS
 62
         7
100
AcDbVertex
100
AcDb2dVertex
 10
1661.3288490277
 20
54.9910635109
 30
0.0
 70
         1
  0
VERTEX
  5
33C
100
AcDbEntity
  8
L1_115
  6
CONTINUOUS
 62
         7
100
AcDbVertex
100
AcDb2dVertex
 10
1661.3350604774
 20
55.0629778261
 30
0.0
 70
         1
  0
VERTEX
  5
33E
100
AcDbEntity
  8
L1_115
  6
CONTINUOUS
 62
         7
100
AcDbVertex
100
AcDb2dVertex
 10
1661.3350604774
 20
55.0629778261
 30
0.0
 70
         1
  0
VERTEX
  5
340
100
AcDbEntity
  8
L1_115
  6
CONTINUOUS
 62
         7
100
AcDbVertex
100
AcDb2dVertex
 10
1661.2902810178
 20
55.2551325684
 30
0.0
 70
         1
  0
VERTEX
  5
342
100
AcDbEntity
  8
L1_115
  6
CONTINUOUS
 62
         7
100
AcDbVertex
100
AcDb2dVertex
 10
1661.2409870306
 20
55.3397496626
 30
0.0
 70
         1
  0
VERTEX
  5
344
100
AcDbEntity
  8
L1_115
  6
CONTINUOUS
 62
         7
100
AcDbVertex
100
AcDb2dVertex
 10
1661.1720232165
 20
55.424107817
 30
0.0
 70
         1
  0
VERTEX
  5
346
100
AcDbEntity
  8
L1_115
  6
CONTINUOUS
 62
         7
100
AcDbVertex
100
AcDb2dVertex
 10
1661.083018873
 20
55.5067497572
 30
0.0
 70
         1
  0
VERTEX
  5
348
100
AcDbEntity
  8
L1_115
  6
CONTINUOUS
 62
         7
100
AcDbVertex
100
AcDb2dVertex
 10
1660.9742909076
 20
55.5861517116
 30
0.0
 70
         1
  0
VERTEX
  5
34A
100
AcDbEntity
  8
L1_115
  6
CONTINUOUS
 62
         7
100
AcDbVertex
100
AcDb2dVertex
 10
1660.8468909133
 20
55.6608088513
 30
0.0
 70
         1
  0
VERTEX
  5
34C
100
AcDbEntity
  8
L1_115
  6
CONTINUOUS
 62
         7
100
AcDbVertex
100
AcDb2dVertex
 10
1660.7025903072
 20
55.7293273323
 30
0.0
 70
         1
  0
VERTEX
  5
34E
100
AcDbEntity
  8
L1_115
  6
CONTINUOUS
 62
         7
100
AcDbVertex
100
AcDb2dVertex
 10
1660.5437997086
 20
55.7905119361
 30
0.0
 70
         1
  0
VERTEX
  5
350
100
AcDbEntity
  8
L1_115
  6
CONTINUOUS
 62
         7
100
AcDbVertex
100
AcDb2dVertex
 10
1660.3128723184
 20
55.859577969
 30
0.0
 70
         1
  0
VERTEX
  5
352
100
AcDbEntity
  8
L1_115
  6
CONTINUOUS
 62
         7
100
AcDbVertex
100
AcDb2dVertex
 10
1660.0689489228
 20
55.9124569524
 30
0.0
 70
         1
  0
VERTEX
  5
354
100
AcDbEntity
  8
L1_115
  6
CONTINUOUS
 62
         7
100
AcDbVertex
100
AcDb2dVertex
 10
1659.8200481026
 20
55.9489019671
 30
0.0
 70
         1
  0
VERTEX
  5
356
100
AcDbEntity
  8
L1_115
  6
CONTINUOUS
 62
         7
100
AcDbVertex
100
AcDb2dVertex
 10
1659.4898573862
 20
55.9734183699
 30
0.0
 70
         1
  0
VERTEX
  5
358
100
AcDbEntity
  8
L1_115
  6
CONTINUOUS
 62
         7
100
AcDbVertex
100
AcDb2dVertex
 10
1659.1783520944
 20
55.9733501955
 30
0.0
 70
         1
  0
VERTEX
  5
35A
100
AcDbEntity
  8
L1_115
  6
CONTINUOUS
 62
         7
100
AcDbVertex
100
AcDb2dVertex
 10
1658.8950151887
 20
55.9537800026
 30
0.0
 70
         1
  0
VERTEX
  5
35C
100
AcDbEntity
  8
L1_115
  6
CONTINUOUS
 62
         7
100
AcDbVertex
100
AcDb2dVertex
 10
1658.6445699776
 20
55.9200085455
 30
0.0
 70
         1
  0
VERTEX
  5
35E
100
AcDbEntity
  8
L1_115
  6
CONTINUOUS
 62
         7
100
AcDbVertex
100
AcDb2dVertex
 10
1658.3596664042
 20
55.8601956676
 30
0.0
 70
         1
  0
VERTEX
  5
360
100
AcDbEntity
  8
L1_115
  6
CONTINUOUS
 62
         7
100
AcDbVertex
100
AcDb2dVertex
 10
1658.1319156876
 20
55.7924425996
 30
0.0
 70
         1
  0
VERTEX
  5
362
100
AcDbEntity
  8
L1_115
  6
CONTINUOUS
 62
         7
100
AcDbVertex
100
AcDb2dVertex
 10
1657.9531091727
 20
55.7230954882
 30
0.0
 70
         1
  0
VERTEX
  5
364
100
AcDbEntity
  8
L1_115
  6
CONTINUOUS
 62
         7
100
AcDbVertex
100
AcDb2dVertex
 10
1657.8142177616
 20
55.6560242487
 30
0.0
 70
         1
  0
VERTEX
  5
366
100
AcDbEntity
  8
L1_115
  6
CONTINUOUS
 62
         7
100
AcDbVertex
100
AcDb2dVertex
 10
1657.6747989323
 20
55.5721383727
 30
0.0
 70
         1
  0
VERTEX
  5
368
100
AcDbEntity
  8
L1_115
  6
CONTINUOUS
 62
         7
100
AcDbVertex
100
AcDb2dVertex
 10
1657.5769052934
 20
55.4982712205
 30
0.0
 70
         1
  0
VERTEX
  5
36A
100
AcDbEntity
  8
L1_115
  6
CONTINUOUS
 62
         7
100
AcDbVertex
100
AcDb2dVertex
 10
1657.4881969806
 20
55.4134221916
 30
0.0
 70
         1
  0
VERTEX
  5
36C
100
AcDbEntity
  8
L1_115
  6
CONTINUOUS
 62
         7
100
AcDbVertex
100
AcDb2dVertex
 10
1657.4177556768
 20
55.3228502293
 30
0.0
 70
         1
  0
VERTEX
  5
36E
100
AcDbEntity
  8
L1_115
  6
CONTINUOUS
 62
         7
100
AcDbVertex
100
AcDb2dVertex
 10
1657.3708051046
 20
55.2348527537
 30
0.0
 70
         1
  0
VERTEX
  5
370
100
AcDbEntity
  8
L1_115
  6
CONTINUOUS
 62
         7
100
AcDbVertex
100
AcDb2dVertex
 10
1657.3412719271
 20
55.1348921414
 30
0.0
 70
         1
  0
VERTEX
  5
372
100
AcDbEntity
  8
L1_115
  6
CONTINUOUS
 62
         7
100
AcDbVertex
100
AcDb2dVertex
 10
1657.3350604774
 20
55.0629778261
 30
0.0
 70
         1
  0
SEQEND
  5
374
100
AcDbEntity
  8
L1_115
  6
CONTINUOUS
 62
         7
  0
POLYLINE
  5
376
100
AcDbEntity
  8
L1_115
  6
CONTINUOUS
 62
         7
100
AcDb2dPolyline
 66
         1
 10
0.0
 20
0.0
 30
0.0
 70
         2
  0
VERTEX
  5
378
100
AcDbEntity
  8
L1_115
  6
CONTINUOUS
 62
         7
100
AcDbVertex
100
AcDb2dVertex
 10
1661.3350604774
 20
89.7039939775
 30
0.0
 70
         1
  0
VERTEX
  5
37A
100
AcDbEntity
  8
L1_115
  6
CONTINUOUS
 62
         7
100
AcDbVertex
100
AcDb2dVertex
 10
1661.2902810178
 20
89.8961487198
 30
0.0
 70
         1
  0
VERTEX
  5
37C
100
AcDbEntity
  8
L1_115
  6
CONTINUOUS
 62
         7
100
AcDbVertex
100
AcDb2dVertex
 10
1661.2409870306
 20
89.980765814
 30
0.0
 70
         1
  0
VERTEX
  5
37E
100
AcDbEntity
  8
L1_115
  6
CONTINUOUS
 62
         7
100
AcDbVertex
100
AcDb2dVertex
 10
1661.1720232165
 20
90.0651239684
 30
0.0
 70
         1
  0
VERTEX
  5
380
100
AcDbEntity
  8
L1_115
  6
CONTINUOUS
 62
         7
100
AcDbVertex
100
AcDb2dVertex
 10
1661.0830188729
 20
90.1477659086
 30
0.0
 70
         1
  0
VERTEX
  5
382
100
AcDbEntity
  8
L1_115
  6
CONTINUOUS
 62
         7
100
AcDbVertex
100
AcDb2dVertex
 10
1660.9742909076
 20
90.2271678629
 30
0.0
 70
         1
  0
VERTEX
  5
384
100
AcDbEntity
  8
L1_115
  6
CONTINUOUS
 62
         7
100
AcDbVertex
100
AcDb2dVertex
 10
1660.8468909133
 20
90.3018250027
 30
0.0
 70
         1
  0
VERTEX
  5
386
100
AcDbEntity
  8
L1_115
  6
CONTINUOUS
 62
         7
100
AcDbVertex
100
AcDb2dVertex
 10
1660.7025903072
 20
90.3703434837
 30
0.0
 70
         1
  0
VERTEX
  5
388
100
AcDbEntity
  8
L1_115
  6
CONTINUOUS
 62
         7
100
AcDbVertex
100
AcDb2dVertex
 10
1660.5437997086
 20
90.4315280875
 30
0.0
 70
         1
  0
VERTEX
  5
38A
100
AcDbEntity
  8
L1_115
  6
CONTINUOUS
 62
         7
100
AcDbVertex
100
AcDb2dVertex
 10
1660.3128723184
 20
90.5005941204
 30
0.0
 70
         1
  0
VERTEX
  5
38C
100
AcDbEntity
  8
L1_115
  6
CONTINUOUS
 62
         7
100
AcDbVertex
100
AcDb2dVertex
 10
1660.0689489228
 20
90.5534731038
 30
0.0
 70
         1
  0
VERTEX
  5
38E
100
AcDbEntity
  8
L1_115
  6
CONTINUOUS
 62
         7
100
AcDbVertex
100
AcDb2dVertex
 10
1659.8200481026
 20
90.5899181184
 30
0.0
 70
         1
  0
VERTEX
  5
390
100
AcDbEntity
  8
L1_115
  6
CONTINUOUS
 62
         7
100
AcDbVertex
100
AcDb2dVertex
 10
1659.4898573862
 20
90.6144345213
 30
0.0
 70
         1
  0
VERTEX
  5
392
100
AcDbEntity
  8
L1_115
  6
CONTINUOUS
 62
         7
100
AcDbVertex
100
AcDb2dVertex
 10
1659.1783520944
 20
90.6143663469
 30
0.0
 70
         1
  0
VERTEX
  5
394
100
AcDbEntity
  8
L1_115
  6
CONTINUOUS
 62
         7
100
AcDbVertex
100
AcDb2dVertex
 10
1658.8950151887
 20
90.594796154
 30
0.0
 70
         1
  0
VERTEX
  5
396
100
AcDbEntity
  8
L1_115
  6
CONTINUOUS
 62
         7
100
AcDbVertex
100
AcDb2dVertex
 10
1658.6445699776
 20
90.5610246969
 30
0.0
 70
         1
  0
VERTEX
  5
398
100
AcDbEntity
  8
L1_115
  6
CONTINUOUS
 62
         7
100
AcDbVertex
100
AcDb2dVertex
 10
1658.3596664042
 20
90.501211819
 30
0.0
 70
         1
  0
VERTEX
  5
39A
100
AcDbEntity
  8
L1_115
  6
CONTINUOUS
 62
         7
100
AcDbVertex
100
AcDb2dVertex
 10
1658.1319156876
 20
90.433458751
 30
0.0
 70
         1
  0
VERTEX
  5
39C
100
AcDbEntity
  8
L1_115
  6
CONTINUOUS
 62
         7
100
AcDbVertex
100
AcDb2dVertex
 10
1657.9531091727
 20
90.3641116396
 30
0.0
 70
         1
  0
VERTEX
  5
39E
100
AcDbEntity
  8
L1_115
  6
CONTINUOUS
 62
         7
100
AcDbVertex
100
AcDb2dVertex
 10
1657.8142177616
 20
90.2970404001
 30
0.0
 70
         1
  0
VERTEX
  5
3A0
100
AcDbEntity
  8
L1_115
  6
CONTINUOUS
 62
         7
100
AcDbVertex
100
AcDb2dVertex
 10
1657.6747989323
 20
90.2131545241
 30
0.0
 70
         1
  0
VERTEX
  5
3A2
100
AcDbEntity
  8
L1_115
  6
CONTINUOUS
 62
         7
100
AcDbVertex
100
AcDb2dVertex
 10
1657.5769052934
 20
90.1392873719
 30
0.0
 70
         1
  0
VERTEX
  5
3A4
100
AcDbEntity
  8
L1_115
  6
CONTINUOUS
 62
         7
100
AcDbVertex
100
AcDb2dVertex
 10
1657.4881969806
 20
90.054438343
 30
0.0
 70
         1
  0
VERTEX
  5
3A6
100
AcDbEntity
  8
L1_115
  6
CONTINUOUS
 62
         7
100
AcDbVertex
100
AcDb2dVertex
 10
1657.4177556768
 20
89.9638663807
 30
0.0
 70
         1
  0
VERTEX
  5
3A8
100
AcDbEntity
  8
L1_115
  6
CONTINUOUS
 62
         7
100
AcDbVertex
100
AcDb2dVertex
 10
1657.3708051046
 20
89.8758689051
 30
0.0
 70
         1
  0
VERTEX
  5
3AA
100
AcDbEntity
  8
L1_115
  6
CONTINUOUS
 62
         7
100
AcDbVertex
100
AcDb2dVertex
 10
1657.3412719271
 20
89.7759082927
 30
0.0
 70
         1
  0
VERTEX
  5
3AC
100
AcDbEntity
  8
L1_115
  6
CONTINUOUS
 62
         7
100
AcDbVertex
100
AcDb2dVertex
 10
1657.3350604774
 20
89.7039939775
 30
0.0
 70
         1
  0
VERTEX
  5
3AE
100
AcDbEntity
  8
L1_115
  6
CONTINUOUS
 62
         7
100
AcDbVertex
100
AcDb2dVertex
 10
1657.3350604774
 20
89.7039939775
 30
0.0
 70
         1
  0
VERTEX
  5
3B0
100
AcDbEntity
  8
L1_115
  6
CONTINUOUS
 62
         7
100
AcDbVertex
100
AcDb2dVertex
 10
1657.379839937
 20
89.5118392352
 30
0.0
 70
         1
  0
VERTEX
  5
3B2
100
AcDbEntity
  8
L1_115
  6
CONTINUOUS
 62
         7
100
AcDbVertex
100
AcDb2dVertex
 10
1657.4291339242
 20
89.427222141
 30
0.0
 70
         1
  0
VERTEX
  5
3B4
100
AcDbEntity
  8
L1_115
  6
CONTINUOUS
 62
         7
100
AcDbVertex
100
AcDb2dVertex
 10
1657.4980977383
 20
89.3428639866
 30
0.0
 70
         1
  0
VERTEX
  5
3B6
100
AcDbEntity
  8
L1_115
  6
CONTINUOUS
 62
         7
100
AcDbVertex
100
AcDb2dVertex
 10
1657.5871020819
 20
89.2602220464
 30
0.0
 70
         1
  0
VERTEX
  5
3B8
100
AcDbEntity
  8
L1_115
  6
CONTINUOUS
 62
         7
100
AcDbVertex
100
AcDb2dVertex
 10
1657.6958300472
 20
89.180820092
 30
0.0
 70
         1
  0
VERTEX
  5
3BA
100
AcDbEntity
  8
L1_115
  6
CONTINUOUS
 62
         7
100
AcDbVertex
100
AcDb2dVertex
 10
1657.8232300415
 20
89.1061629523
 30
0.0
 70
         1
  0
VERTEX
  5
3BC
100
AcDbEntity
  8
L1_115
  6
CONTINUOUS
 62
         7
100
AcDbVertex
100
AcDb2dVertex
 10
1657.9675306476
 20
89.0376444713
 30
0.0
 70
         1
  0
VERTEX
  5
3BE
100
AcDbEntity
  8
L1_115
  6
CONTINUOUS
 62
         7
100
AcDbVertex
100
AcDb2dVertex
 10
1658.1263212462
 20
88.9764598675
 30
0.0
 70
         1
  0
VERTEX
  5
3C0
100
AcDbEntity
  8
L1_115
  6
CONTINUOUS
 62
         7
100
AcDbVertex
100
AcDb2dVertex
 10
1658.3572486364
 20
88.9073938346
 30
0.0
 70
         1
  0
VERTEX
  5
3C2
100
AcDbEntity
  8
L1_115
  6
CONTINUOUS
 62
         7
100
AcDbVertex
100
AcDb2dVertex
 10
1658.601172032
 20
88.8545148512
 30
0.0
 70
         1
  0
VERTEX
  5
3C4
100
AcDbEntity
  8
L1_115
  6
CONTINUOUS
 62
         7
100
AcDbVertex
100
AcDb2dVertex
 10
1658.8500728522
 20
88.8180698365
 30
0.0
 70
         1
  0
VERTEX
  5
3C6
100
AcDbEntity
  8
L1_115
  6
CONTINUOUS
 62
         7
100
AcDbVertex
100
AcDb2dVertex
 10
1659.1802635686
 20
88.7935534337
 30
0.0
 70
         1
  0
VERTEX
  5
3C8
100
AcDbEntity
  8
L1_115
  6
CONTINUOUS
 62
         7
100
AcDbVertex
100
AcDb2dVertex
 10
1659.4917688604
 20
88.7936216081
 30
0.0
 70
         1
  0
VERTEX
  5
3CA
100
AcDbEntity
  8
L1_115
  6
CONTINUOUS
 62
         7
100
AcDbVertex
100
AcDb2dVertex
 10
1659.7751057661
 20
88.813191801
 30
0.0
 70
         1
  0
VERTEX
  5
3CC
100
AcDbEntity
  8
L1_115
  6
CONTINUOUS
 62
         7
100
AcDbVertex
100
AcDb2dVertex
 10
1660.0255509772
 20
88.8469632581
 30
0.0
 70
         1
  0
VERTEX
  5
3CE
100
AcDbEntity
  8
L1_115
  6
CONTINUOUS
 62
         7
100
AcDbVertex
100
AcDb2dVertex
 10
1660.3104545506
 20
88.906776136
 30
0.0
 70
         1
  0
VERTEX
  5
3D0
100
AcDbEntity
  8
L1_115
  6
CONTINUOUS
 62
         7
100
AcDbVertex
100
AcDb2dVertex
 10
1660.5382052672
 20
88.974529204
 30
0.0
 70
         1
  0
VERTEX
  5
3D2
100
AcDbEntity
  8
L1_115
  6
CONTINUOUS
 62
         7
100
AcDbVertex
100
AcDb2dVertex
 10
1660.7170117821
 20
89.0438763154
 30
0.0
 70
         1
  0
VERTEX
  5
3D4
100
AcDbEntity
  8
L1_115
  6
CONTINUOUS
 62
         7
100
AcDbVertex
100
AcDb2dVertex
 10
1660.8559031932
 20
89.1109475549
 30
0.0
 70
         1
  0
VERTEX
  5
3D6
100
AcDbEntity
  8
L1_115
  6
CONTINUOUS
 62
         7
100
AcDbVertex
100
AcDb2dVertex
 10
1660.9953220226
 20
89.1948334309
 30
0.0
 70
         1
  0
VERTEX
  5
3D8
100
AcDbEntity
  8
L1_115
  6
CONTINUOUS
 62
         7
100
AcDbVertex
100
AcDb2dVertex
 10
1661.0932156614
 20
89.2687005831
 30
0.0
 70
         1
  0
VERTEX
  5
3DA
100
AcDbEntity
  8
L1_115
  6
CONTINUOUS
 62
         7
100
AcDbVertex
100
AcDb2dVertex
 10
1661.1819239743
 20
89.353549612
 30
0.0
 70
         1
  0
VERTEX
  5
3DC
100
AcDbEntity
  8
L1_115
  6
CONTINUOUS
 62
         7
100
AcDbVertex
100
AcDb2dVertex
 10
1661.252365278
 20
89.4441215743
 30
0.0
 70
         1
  0
VERTEX
  5
3DE
100
AcDbEntity
  8
L1_115
  6
CONTINUOUS
 62
         7
100
AcDbVertex
100
AcDb2dVertex
 10
1661.2993158502
 20
89.5321190499
 30
0.0
 70
         1
  0
VERTEX
  5
3E0
100
AcDbEntity
  8
L1_115
  6
CONTINUOUS
 62
         7
100
AcDbVertex
100
AcDb2dVertex
 10
1661.3288490277
 20
89.6320796622
 30
0.0
 70
         1
  0
VERTEX
  5
3E2
100
AcDbEntity
  8
L1_115
  6
CONTINUOUS
 62
         7
100
AcDbVertex
100
AcDb2dVertex
 10
1661.3350604774
 20
89.7039939775
 30
0.0
 70
         1
  0
SEQEND
  5
3E4
100
AcDbEntity
  8
L1_115
  6
CONTINUOUS
 62
         7
  0
LINE
  5
3E5
100
AcDbEntity
  8
L1_115
  6
CONTINUOUS
 62
         7
100
AcDbLine
 10
1582.3350604774
 20
84.2834859018
 30
0.0
 11
1582.4350604774
 21
84.3834859018
 31
0.0
  0
LINE
  5
3E6
100
AcDbEntity
  8
L1_115
  6
CONTINUOUS
 62
         7
100
AcDbLine
 10
1582.4350604774
 20
60.3834859018
 30
0.0
 11
1582.3350604774
 21
60.4834859018
 31
0.0
  0
ARC
  5
3E7
100
AcDbEntity
  8
L1_115
  6
CONTINUOUS
 62
         7
100
AcDbCircle
 10
1581.8350604774
 20
83.1334859018
 30
0.0
 40
0.5
100
AcDbArc
 50
270.0
 51
360.0
  0
LINE
  5
3E8
100
AcDbEntity
  8
L1_115
  6
CONTINUOUS
 62
         7
100
AcDbLine
 10
1582.3350604774
 20
60.4834859018
 30
0.0
 11
1582.3350604774
 21
84.2834859018
 31
0.0
  0
LINE
  5
3E9
100
AcDbEntity
  8
L1_115
  6
CONTINUOUS
 62
         7
100
AcDbLine
 10
1581.8350604774
 20
82.6334859018
 30
0.0
 11
1567.9350604774
 21
82.6334859018
 31
0.0
  0
LINE
  5
3EA
100
AcDbEntity
  8
L1_115
  6
CONTINUOUS
 62
         7
100
AcDbLine
 10
1581.8350604774
 20
62.1334859018
 30
0.0
 11
1567.9350604774
 21
62.1334859018
 31
0.0
  0
ARC
  5
3EB
100
AcDbEntity
  8
L1_115
  6
CONTINUOUS
 62
         7
100
AcDbCircle
 10
1581.8350604774
 20
61.6334859018
 30
0.0
 40
0.5
100
AcDbArc
 50
0.0
 51
90.0
  0
LINE
  5
3EC
100
AcDbEntity
  8
L1_115
  6
CONTINUOUS
 62
         7
100
AcDbLine
 10
1586.8350604774
 20
84.3834859018
 30
0.0
 11
1582.4350604774
 21
84.3834859018
 31
0.0
  0
LINE
  5
3ED
100
AcDbEntity
  8
L1_115
  6
CONTINUOUS
 62
         7
100
AcDbLine
 10
1586.8350604774
 20
84.3834859018
 30
0.0
 11
1587.3350604774
 21
83.8834859018
 31
0.0
  0
LINE
  5
3EE
100
AcDbEntity
  8
L1_115
  6
CONTINUOUS
 62
         7
100
AcDbLine
 10
1587.3350604774
 20
60.8834859018
 30
0.0
 11
1587.3350604774
 21
83.8834859018
 31
0.0
  0
LINE
  5
3EF
100
AcDbEntity
  8
L1_115
  6
CONTINUOUS
 62
         7
100
AcDbLine
 10
1586.8350604774
 20
60.3834859018
 30
0.0
 11
1582.4350604774
 21
60.3834859018
 31
0.0
  0
LINE
  5
3F0
100
AcDbEntity
  8
L1_115
  6
CONTINUOUS
 62
         7
100
AcDbLine
 10
1587.3350604774
 20
60.8834859018
 30
0.0
 11
1586.8350604774
 21
60.3834859018
 31
0.0
  0
LINE
  5
3F1
100
AcDbEntity
  8
L1_115
  6
CONTINUOUS
 62
         7
100
AcDbLine
 10
1567.4350604774
 20
62.6334859018
 30
0.0
 11
1567.4350604774
 21
82.1334859018
 31
0.0
  0
LINE
  5
3F2
100
AcDbEntity
  8
L1_115
  6
CONTINUOUS
 62
         7
100
AcDbLine
 10
1522.1250604774
 20
41.3834859018
 30
0.0
 11
1522.6250604774
 21
40.8834859018
 31
0.0
  0
LINE
  5
3F3
100
AcDbEntity
  8
L1_115
  6
CONTINUOUS
 62
         7
100
AcDbLine
 10
1556.0910858812
 20
40.8834859018
 30
0.0
 11
1522.6250604774
 21
40.8834859018
 31
0.0
  0
LINE
  5
3F4
100
AcDbEntity
  8
L1_115
  6
CONTINUOUS
 62
         7
100
AcDbLine
 10
1522.1250604774
 20
41.3834859018
 30
0.0
 11
1522.1250604774
 21
103.3834859018
 31
0.0
  0
LINE
  5
3F5
100
AcDbEntity
  8
L1_115
  6
CONTINUOUS
 62
         7
100
AcDbLine
 10
1522.1250604774
 20
103.3834859018
 30
0.0
 11
1522.6250604774
 21
103.8834859018
 31
0.0
  0
LINE
  5
3F6
100
AcDbEntity
  8
L1_115
  6
CONTINUOUS
 62
         7
100
AcDbLine
 10
1556.0910858812
 20
103.8834859018
 30
0.0
 11
1522.6250604774
 21
103.8834859018
 31
0.0
  0
ARC
  5
3F7
100
AcDbEntity
  8
L1_115
  6
CONTINUOUS
 62
         7
100
AcDbCircle
 10
1558.7250604774
 20
42.6721610364
 30
0.0
 40
0.5
100
AcDbArc
 50
300.0
 51
360.0
  0
ARC
  5
3F8
100
AcDbEntity
  8
L1_115
  6
CONTINUOUS
 62
         7
100
AcDbCircle
 10
1558.7250604774
 20
102.0948107672
 30
0.0
 40
0.5
100
AcDbArc
 50
0.0
 51
59.9999999999
  0
ARC
  5
3F9
100
AcDbEntity
  8
L1_115
  6
CONTINUOUS
 62
         7
100
AcDbCircle
 10
1556.0910858812
 20
42.8834859018
 30
0.0
 40
2.0
100
AcDbArc
 50
270.0
 51
300.0
  0
ARC
  5
3FA
100
AcDbEntity
  8
L1_115
  6
CONTINUOUS
 62
         7
100
AcDbCircle
 10
1556.0910858812
 20
101.8834859018
 30
0.0
 40
2.0
100
AcDbArc
 50
60.0
 51
90.0
  0
LINE
  5
3FB
100
AcDbEntity
  8
L1_115
  6
CONTINUOUS
 62
         7
100
AcDbLine
 10
1559.2250604774
 20
42.6721610364
 30
0.0
 11
1559.2250604774
 21
102.0948107672
 31
0.0
  0
LINE
  5
3FC
100
AcDbEntity
  8
L1_115
  6
CONTINUOUS
 62
         7
100
AcDbLine
 10
1557.0910858812
 20
41.1514350942
 30
0.0
 11
1558.9750604774
 21
42.2391483345
 31
0.0
  0
LINE
  5
3FD
100
AcDbEntity
  8
L1_115
  6
CONTINUOUS
 62
         7
100
AcDbLine
 10
1557.0910858812
 20
103.6155367094
 30
0.0
 11
1558.9750604774
 21
102.5278234691
 31
0.0
  0
LINE
  5
3FE
100
AcDbEntity
  8
L1_115
  6
CENTER
 62
         1
100
AcDbLine
 10
1659.3350604774
 20
88.7908141136
 30
0.0
 11
1659.3350604774
 21
90.6171738414
 31
0.0
  0
ARC
  5
3FF
100
AcDbEntity
  8
L1_115
  6
CONTINUOUS
 62
         7
100
AcDbCircle
 10
1645.0350604774
 20
52.3834859018
 30
0.0
 40
0.5
100
AcDbArc
 50
0.0
 51
180.0
  0
ARC
  5
400
100
AcDbEntity
  8
L1_115
  6
CONTINUOUS
 62
         7
100
AcDbCircle
 10
1645.0350604774
 20
92.3834859018
 30
0.0
 40
0.5
100
AcDbArc
 50
180.0
 51
360.0
  0
LINE
  5
401
100
AcDbEntity
  8
L1_115
  6
CONTINUOUS
 62
         7
100
AcDbLine
 10
1698.7850604774
 20
52.8834859018
 30
0.0
 11
1698.2850604774
 21
52.3834859018
 31
0.0
  0
LINE
  5
402
100
AcDbEntity
  8
L1_115
  6
CONTINUOUS
 62
         7
100
AcDbLine
 10
1698.2850604774
 20
92.3834859018
 30
0.0
 11
1698.7850604774
 21
91.8834859018
 31
0.0
  0
LINE
  5
403
100
AcDbEntity
  8
L1_115
  6
CONTINUOUS
 62
         7
100
AcDbLine
 10
1644.5350604774
 20
49.3834859018
 30
0.0
 11
1644.5350604774
 21
95.3834859018
 31
0.0
  0
LINE
  5
404
100
AcDbEntity
  8
L1_115
  6
CONTINUOUS
 62
         7
100
AcDbLine
 10
1596.6750604774
 20
57.8834859018
 30
0.0
 11
1596.6750604774
 21
86.8834859018
 31
0.0
  0
LINE
  5
405
100
AcDbEntity
  8
L1_115
  6
CONTINUOUS
 62
         7
100
AcDbLine
 10
1698.2850604774
 20
52.3834859018
 30
0.0
 11
1691.2850604774
 21
52.3834859018
 31
0.0
  0
LINE
  5
406
100
AcDbEntity
  8
L1_115
  6
CONTINUOUS
 62
         7
100
AcDbLine
 10
1698.2850604774
 20
92.3834859018
 30
0.0
 11
1691.2850604774
 21
92.3834859018
 31
0.0
  0
LINE
  5
407
100
AcDbEntity
  8
L1_115
  6
CONTINUOUS
 62
         7
100
AcDbLine
 10
1645.5350604774
 20
92.3834859018
 30
0.0
 11
1689.7850604774
 21
92.3834859018
 31
0.0
  0
LINE
  5
408
100
AcDbEntity
  8
L1_115
  6
CONTINUOUS
 62
         7
100
AcDbLine
 10
1689.7850604774
 20
52.3834859018
 30
0.0
 11
1645.5350604774
 21
52.3834859018
 31
0.0
  0
LINE
  5
409
100
AcDbEntity
  8
L1_115
  6
CONTINUOUS
 62
         7
100
AcDbLine
 10
1691.2850604774
 20
91.8834859018
 30
0.0
 11
1689.7850604774
 21
91.8834859018
 31
0.0
  0
LINE
  5
40A
100
AcDbEntity
  8
L1_115
  6
CONTINUOUS
 62
         7
100
AcDbLine
 10
1689.7850604774
 20
52.3834859018
 30
0.0
 11
1689.7850604774
 21
92.3834859018
 31
0.0
  0
LINE
  5
40B
100
AcDbEntity
  8
L1_115
  6
CONTINUOUS
 62
         7
100
AcDbLine
 10
1691.2850604774
 20
52.8834859018
 30
0.0
 11
1689.7850604774
 21
52.8834859018
 31
0.0
  0
LINE
  5
40C
100
AcDbEntity
  8
L1_115
  6
CONTINUOUS
 62
         7
100
AcDbLine
 10
1691.2850604774
 20
52.3834859018
 30
0.0
 11
1691.2850604774
 21
92.3834859018
 31
0.0
  0
LINE
  5
40D
100
AcDbEntity
  8
L1_115
  6
CONTINUOUS
 62
         7
100
AcDbLine
 10
1643.5350604774
 20
96.3834859018
 30
0.0
 11
1618.6774216669
 21
96.3834859018
 31
0.0
  0
LINE
  5
40E
100
AcDbEntity
  8
L1_115
  6
CONTINUOUS
 62
         7
100
AcDbLine
 10
1643.5350604774
 20
48.3834859018
 30
0.0
 11
1618.6774216669
 21
48.3834859018
 31
0.0
  0
LINE
  5
40F
100
AcDbEntity
  8
L1_115
  6
CONTINUOUS
 62
         7
100
AcDbLine
 10
1643.5350604774
 20
96.3834859018
 30
0.0
 11
1644.5350604774
 21
95.3834859018
 31
0.0
  0
LINE
  5
410
100
AcDbEntity
  8
L1_115
  6
CONTINUOUS
 62
         7
100
AcDbLine
 10
1644.5350604774
 20
49.3834859018
 30
0.0
 11
1643.5350604774
 21
48.3834859018
 31
0.0
  0
LINE
  5
411
100
AcDbEntity
  8
L1_115
  6
CONTINUOUS
 62
         7
100
AcDbLine
 10
1617.6774216669
 20
95.3834859018
 30
0.0
 11
1618.6774216669
 21
96.3834859018
 31
0.0
  0
LINE
  5
412
100
AcDbEntity
  8
L1_115
  6
CONTINUOUS
 62
         7
100
AcDbLine
 10
1616.6774216669
 20
87.8834859018
 30
0.0
 11
1597.6750604774
 21
87.8834859018
 31
0.0
  0
LINE
  5
413
100
AcDbEntity
  8
L1_115
  6
CONTINUOUS
 62
         7
100
AcDbLine
 10
1596.6750604774
 20
86.8834859018
 30
0.0
 11
1597.6750604774
 21
87.8834859018
 31
0.0
  0
LINE
  5
414
100
AcDbEntity
  8
L1_115
  6
CONTINUOUS
 62
         7
100
AcDbLine
 10
1596.6750604774
 20
57.8834859018
 30
0.0
 11
1597.6750604774
 21
56.8834859018
 31
0.0
  0
LINE
  5
415
100
AcDbEntity
  8
L1_115
  6
CONTINUOUS
 62
         7
100
AcDbLine
 10
1616.6774216669
 20
56.8834859018
 30
0.0
 11
1597.6750604774
 21
56.8834859018
 31
0.0
  0
LINE
  5
416
100
AcDbEntity
  8
L1_115
  6
CONTINUOUS
 62
         7
100
AcDbLine
 10
1617.6774216669
 20
95.3834859018
 30
0.0
 11
1617.6774216669
 21
49.3834859018
 31
0.0
  0
LINE
  5
417
100
AcDbEntity
  8
L1_115
  6
CONTINUOUS
 62
         7
100
AcDbLine
 10
1617.6774216669
 20
49.3834859018
 30
0.0
 11
1618.6774216669
 21
48.3834859018
 31
0.0
  0
ARC
  5
418
100
AcDbEntity
  8
L1_115
  6
CONTINUOUS
 62
         7
100
AcDbCircle
 10
1617.1774216669
 20
87.8834859018
 30
0.0
 40
0.5
100
AcDbArc
 50
180.0
 51
360.0
  0
ARC
  5
419
100
AcDbEntity
  8
L1_115
  6
CONTINUOUS
 62
         7
100
AcDbCircle
 10
1617.1774216669
 20
56.8834859018
 30
0.0
 40
0.5
100
AcDbArc
 50
0.0
 51
180.0
  0
LINE
  5
41A
100
AcDbEntity
  8
L1_115
  6
CONTINUOUS
 62
         7
100
AcDbLine
 10
1724.5850604774
 20
56.9834859018
 30
0.0
 11
1724.5850604774
 21
87.7834859018
 31
0.0
  0
LINE
  5
41B
100
AcDbEntity
  8
L1_115
  6
CONTINUOUS
 62
         7
100
AcDbLine
 10
1715.8350604774
 20
56.9834859018
 30
0.0
 11
1715.8350604774
 21
87.7834859018
 31
0.0
  0
LINE
  5
41C
100
AcDbEntity
  8
L1_115
  6
CONTINUOUS
 62
         7
100
AcDbLine
 10
1726.4850604774
 20
87.8834859018
 30
0.0
 11
1726.5850604774
 21
87.7834859018
 31
0.0
  0
LINE
  5
41D
100
AcDbEntity
  8
L1_115
  6
CONTINUOUS
 62
         7
100
AcDbLine
 10
1726.5850604774
 20
56.9834859018
 30
0.0
 11
1726.5850604774
 21
87.7834859018
 31
0.0
  0
LINE
  5
41E
100
AcDbEntity
  8
L1_115
  6
CONTINUOUS
 62
         7
100
AcDbLine
 10
1726.4850604774
 20
87.8834859018
 30
0.0
 11
1724.6850604774
 21
87.8834859018
 31
0.0
  0
LINE
  5
41F
100
AcDbEntity
  8
L1_115
  6
CONTINUOUS
 62
         7
100
AcDbLine
 10
1726.5850604774
 20
56.9834859018
 30
0.0
 11
1726.4850604774
 21
56.8834859018
 31
0.0
  0
LINE
  5
420
100
AcDbEntity
  8
L1_115
  6
CONTINUOUS
 62
         7
100
AcDbLine
 10
1726.4850604774
 20
56.8834859018
 30
0.0
 11
1724.6850604774
 21
56.8834859018
 31
0.0
  0
LINE
  5
421
100
AcDbEntity
  8
L1_115
  6
CONTINUOUS
 62
         7
100
AcDbLine
 10
1724.6850604774
 20
87.8834859018
 30
0.0
 11
1724.5850604774
 21
87.7834859018
 31
0.0
  0
LINE
  5
422
100
AcDbEntity
  8
L1_115
  6
CONTINUOUS
 62
         7
100
AcDbLine
 10
1724.5850604774
 20
56.9834859018
 30
0.0
 11
1724.6850604774
 21
56.8834859018
 31
0.0
  0
LINE
  5
423
100
AcDbEntity
  8
L1_115
  6
CONTINUOUS
 62
         7
100
AcDbLine
 10
1715.7350604774
 20
56.8834859018
 30
0.0
 11
1710.3350604774
 21
56.8834859018
 31
0.0
  0
LINE
  5
424
100
AcDbEntity
  8
L1_115
  6
CONTINUOUS
 62
         7
100
AcDbLine
 10
1715.7350604774
 20
87.8834859018
 30
0.0
 11
1710.3350604774
 21
87.8834859018
 31
0.0
  0
LINE
  5
425
100
AcDbEntity
  8
L1_115
  6
CONTINUOUS
 62
         7
100
AcDbLine
 10
1709.8350604774
 20
57.3834859018
 30
0.0
 11
1710.3350604774
 21
56.8834859018
 31
0.0
  0
LINE
  5
426
100
AcDbEntity
  8
L1_115
  6
CONTINUOUS
 62
         7
100
AcDbLine
 10
1709.8350604774
 20
57.3834859018
 30
0.0
 11
1709.8350604774
 21
87.3834859018
 31
0.0
  0
LINE
  5
427
100
AcDbEntity
  8
L1_115
  6
CONTINUOUS
 62
         7
100
AcDbLine
 10
1710.3350604774
 20
87.8834859018
 30
0.0
 11
1709.8350604774
 21
87.3834859018
 31
0.0
  0
LINE
  5
428
100
AcDbEntity
  8
L1_115
  6
CONTINUOUS
 62
         7
100
AcDbLine
 10
1724.5850604774
 20
58.8834859018
 30
0.0
 11
1715.8350604774
 21
58.8834859018
 31
0.0
  0
LINE
  5
429
100
AcDbEntity
  8
L1_115
  6
CONTINUOUS
 62
         7
100
AcDbLine
 10
1724.5850604774
 20
85.8834859018
 30
0.0
 11
1715.8350604774
 21
85.8834859018
 31
0.0
  0
LINE
  5
42A
100
AcDbEntity
  8
L1_115
  6
CONTINUOUS
 62
         7
100
AcDbLine
 10
1715.7350604774
 20
87.8834859018
 30
0.0
 11
1715.8350604774
 21
87.7834859018
 31
0.0
  0
LINE
  5
42B
100
AcDbEntity
  8
L1_115
  6
CONTINUOUS
 62
         7
100
AcDbLine
 10
1715.8350604774
 20
56.9834859018
 30
0.0
 11
1715.7350604774
 21
56.8834859018
 31
0.0
  0
LINE
  5
42C
100
AcDbEntity
  8
L1_115
  6
CONTINUOUS
 62
         7
100
AcDbLine
 10
1788.7350604774
 20
98.8834859018
 30
0.0
 11
1789.2350604774
 21
98.3834859018
 31
0.0
  0
LINE
  5
42D
100
AcDbEntity
  8
L1_115
  6
CONTINUOUS
 62
         7
100
AcDbLine
 10
1789.2350604774
 20
46.3834859018
 30
0.0
 11
1788.7350604774
 21
45.8834859018
 31
0.0
  0
LINE
  5
42E
100
AcDbEntity
  8
L1_115
  6
CONTINUOUS
 62
         7
100
AcDbLine
 10
1789.2350604774
 20
46.3834859018
 30
0.0
 11
1789.2350604774
 21
98.3834859018
 31
0.0
  0
LINE
  5
42F
100
AcDbEntity
  8
L1_115
  6
CONTINUOUS
 62
         7
100
AcDbLine
 10
1741.6850604774
 20
96.3834859018
 30
0.0
 11
1741.4850604774
 21
96.1834859018
 31
0.0
  0
LINE
  5
430
100
AcDbEntity
  8
L1_115
  6
CONTINUOUS
 62
         7
100
AcDbLine
 10
1741.4850604774
 20
96.1834859018
 30
0.0
 11
1741.4850604774
 21
48.5834859018
 31
0.0
  0
LINE
  5
431
100
AcDbEntity
  8
L1_115
  6
CONTINUOUS
 62
         7
100
AcDbLine
 10
1741.4850604774
 20
48.5834859018
 30
0.0
 11
1741.6850604774
 21
48.3834859018
 31
0.0
  0
LINE
  5
432
100
AcDbEntity
  8
L1_115
  6
CONTINUOUS
 62
         7
100
AcDbLine
 10
1780.2350604774
 20
46.3834859018
 30
0.0
 11
1780.2350604774
 21
98.3834859018
 31
0.0
  0
LINE
  5
433
100
AcDbEntity
  8
L1_115
  6
CONTINUOUS
 62
         7
100
AcDbLine
 10
1780.7350604774
 20
98.8834859018
 30
0.0
 11
1780.2350604774
 21
98.3834859018
 31
0.0
  0
LINE
  5
434
100
AcDbEntity
  8
L1_115
  6
CONTINUOUS
 62
         7
100
AcDbLine
 10
1788.7350604774
 20
98.8834859018
 30
0.0
 11
1780.7350604774
 21
98.8834859018
 31
0.0
  0
ARC
  5
435
100
AcDbEntity
  8
L1_115
  6
CONTINUOUS
 62
         7
100
AcDbCircle
 10
1779.7350604774
 20
96.3834859018
 30
0.0
 40
0.5
100
AcDbArc
 50
179.9999999998
 51
360.0000000002
  0
LINE
  5
436
100
AcDbEntity
  8
L1_115
  6
CONTINUOUS
 62
         7
100
AcDbLine
 10
1779.2350604774
 20
96.3834859018
 30
0.0
 11
1741.6850604774
 21
96.3834859018
 31
0.0
  0
LINE
  5
437
100
AcDbEntity
  8
L1_115
  6
CONTINUOUS
 62
         7
100
AcDbLine
 10
1780.2350604774
 20
46.3834859018
 30
0.0
 11
1780.7350604774
 21
45.8834859018
 31
0.0
  0
LINE
  5
438
100
AcDbEntity
  8
L1_115
  6
CONTINUOUS
 62
         7
100
AcDbLine
 10
1788.7350604774
 20
45.8834859018
 30
0.0
 11
1780.7350604774
 21
45.8834859018
 31
0.0
  0
ARC
  5
439
100
AcDbEntity
  8
L1_115
  6
CONTINUOUS
 62
         7
100
AcDbCircle
 10
1779.7350604774
 20
48.3834859018
 30
0.0
 40
0.5
100
AcDbArc
 50
359.9999999998
 51
540.0000000002
  0
LINE
  5
43A
100
AcDbEntity
  8
L1_115
  6
CONTINUOUS
 62
         7
100
AcDbLine
 10
1779.2350604774
 20
48.3834859018
 30
0.0
 11
1741.6850604774
 21
48.3834859018
 31
0.0
  0
LINE
  5
43B
100
AcDbEntity
  8
L1_115
  6
CENTER
 62
         1
100
AcDbLine
 10
1669.0850604774
 20
75.6334859018
 30
0.0
 11
1669.0850604774
 21
69.1334859018
 31
0.0
  0
CIRCLE
  5
43C
100
AcDbEntity
  8
L1_115
  6
CONTINUOUS
 62
         7
100
AcDbCircle
 10
1669.0850604774
 20
72.3834859018
 30
0.0
 40
3.25
  0
LINE
  5
43D
100
AcDbEntity
  8
L1_115
  6
CENTER
 62
         1
100
AcDbLine
 10
1637.2661919453
 20
65.9589374614
 30
0.0
 11
1637.2661919453
 21
79.2338938512
 31
0.0
  0
LINE
  5
43E
100
AcDbEntity
  8
L1_115
  6
CENTER
 62
         1
100
AcDbLine
 10
1624.9590723402
 20
65.9589374551
 30
0.0
 11
1624.9590723402
 21
79.233893845
 31
0.0
  0
LINE
  5
43F
100
AcDbEntity
  8
L1_115
  6
CENTER
 62
         1
100
AcDbLine
 10
1800.1574318197
 20
72.3834859018
 30
0.0
 11
1511.1928861733
 21
72.3834859018
 31
0.0
  0
DIMENSION
  5
442
100
AcDbEntity
  8
L1_115
  6
CONTINUOUS
 62
         4
100
AcDbDimension
  2
*D6
 10
1205.7026796829
 20
-115.7289651095
 30
0.0
 11
1203.6776796829
 21
-125.4789651095
 31
0.0
  3
DIMSTYLE1
100
AcDbAlignedDimension
 13
1207.0504143746
 23
-115.7289651095
 33
0.0
 14
1207.0504143746
 24
-121.7289651095
 34
0.0
 50
90.0
100
AcDbRotatedDimension
  0
LINE
  5
44E
100
AcDbEntity
  8
L1_115
  6
DASHED
 62
         2
100
AcDbLine
 10
1268.3004143746
 20
-120.7289651095
 30
0.0
 11
1265.3004143746
 21
-120.7289651095
 31
0.0
  0
LINE
  5
44F
100
AcDbEntity
  8
L1_115
  6
DASHED
 62
         2
100
AcDbLine
 10
1268.3004143746
 20
-116.7289651095
 30
0.0
 11
1265.3004143746
 21
-116.7289651095
 31
0.0
  0
LINE
  5
450
100
AcDbEntity
  8
L1_115
  6
DASHED
 62
         2
100
AcDbLine
 10
1265.3004143746
 20
-121.7289651095
 30
0.0
 11
1265.3004143746
 21
-115.7289651095
 31
0.0
  0
LINE
  5
451
100
AcDbEntity
  8
L1_115
  6
DASHED
 62
         2
100
AcDbLine
 10
1268.3004143746
 20
-121.7289651095
 30
0.0
 11
1265.3004143746
 21
-121.7289651095
 31
0.0
  0
LINE
  5
452
100
AcDbEntity
  8
L1_115
  6
DASHED
 62
         2
100
AcDbLine
 10
1268.3004143746
 20
-115.7289651095
 30
0.0
 11
1265.3004143746
 21
-115.7289651095
 31
0.0
  0
LINE
  5
453
100
AcDbEntity
  8
L1_115
  6
CONTINUOUS
 62
         4
100
AcDbLine
 10
1267.8004143746
 20
-112.2289651095
 30
0.0
 11
1267.8004143746
 21
-125.2289651095
 31
0.0
  0
LINE
  5
454
100
AcDbEntity
  8
L1_115
  6
CONTINUOUS
 62
         4
100
AcDbLine
 10
1263.3004143746
 20
-112.2289651095
 30
0.0
 11
1263.3004143746
 21
-125.2289651095
 31
0.0
  0
LINE
  5
455
100
AcDbEntity
  8
L1_115
  6
CONTINUOUS
 62
         7
100
AcDbLine
 10
1263.3004143746
 20
-112.2289651095
 30
0.0
 11
1262.8004143746
 21
-112.7289651095
 31
0.0
  0
LINE
  5
456
100
AcDbEntity
  8
L1_115
  6
CONTINUOUS
 62
         7
100
AcDbLine
 10
1262.8004143746
 20
-124.7289651095
 30
0.0
 11
1262.8004143746
 21
-112.7289651095
 31
0.0
  0
LINE
  5
457
100
AcDbEntity
  8
L1_115
  6
CONTINUOUS
 62
         7
100
AcDbLine
 10
1262.8004143746
 20
-124.7289651095
 30
0.0
 11
1263.3004143746
 21
-125.2289651095
 31
0.0
  0
LINE
  5
458
100
AcDbEntity
  8
L1_115
  6
CONTINUOUS
 62
         7
100
AcDbLine
 10
1267.8004143746
 20
-125.2289651095
 30
0.0
 11
1263.3004143746
 21
-125.2289651095
 31
0.0
  0
LINE
  5
459
100
AcDbEntity
  8
L1_115
  6
CONTINUOUS
 62
         7
100
AcDbLine
 10
1268.3004143746
 20
-124.7289651095
 30
0.0
 11
1267.8004143746
 21
-125.2289651095
 31
0.0
  0
LINE
  5
45A
100
AcDbEntity
  8
L1_115
  6
CONTINUOUS
 62
         7
100
AcDbLine
 10
1268.3004143746
 20
-124.7289651095
 30
0.0
 11
1268.3004143746
 21
-112.7289651095
 31
0.0
  0
LINE
  5
45B
100
AcDbEntity
  8
L1_115
  6
CONTINUOUS
 62
         7
100
AcDbLine
 10
1267.8004143746
 20
-112.2289651095
 30
0.0
 11
1263.3004143746
 21
-112.2289651095
 31
0.0
  0
LINE
  5
45C
100
AcDbEntity
  8
L1_115
  6
CONTINUOUS
 62
         7
100
AcDbLine
 10
1268.3004143746
 20
-112.7289651095
 30
0.0
 11
1267.8004143746
 21
-112.2289651095
 31
0.0
  0
LINE
  5
45D
100
AcDbEntity
  8
L1_115
  6
CONTINUOUS
 62
         7
100
AcDbLine
 10
1262.8004143746
 20
-114.7534651095
 30
0.0
 11
1218.7759143746
 21
-114.7534651095
 31
0.0
  0
LINE
  5
45E
100
AcDbEntity
  8
L1_115
  6
CONTINUOUS
 62
         7
100
AcDbLine
 10
1218.7759143746
 20
-114.7534651095
 30
0.0
 11
1217.8004143746
 21
-115.7289651095
 31
0.0
  0
LINE
  5
45F
100
AcDbEntity
  8
L1_115
  6
CONTINUOUS
 62
         7
100
AcDbLine
 10
1218.7759143746
 20
-122.7044651095
 30
0.0
 11
1217.8004143746
 21
-121.7289651095
 31
0.0
  0
LINE
  5
460
100
AcDbEntity
  8
L1_115
  6
CONTINUOUS
 62
         7
100
AcDbLine
 10
1262.8004143746
 20
-122.7044651095
 30
0.0
 11
1218.7759143746
 21
-122.7044651095
 31
0.0
  0
LINE
  5
461
100
AcDbEntity
  8
L1_115
  6
CONTINUOUS
 62
         7
100
AcDbLine
 10
1217.8004143746
 20
-121.7289651095
 30
0.0
 11
1217.8004143746
 21
-115.7289651095
 31
0.0
  0
LINE
  5
462
100
AcDbEntity
  8
L1_115
  6
CONTINUOUS
 62
         4
100
AcDbLine
 10
1218.7759143746
 20
-114.7534651095
 30
0.0
 11
1218.7759143746
 21
-122.7044651095
 31
0.0
  0
LINE
  5
463
100
AcDbEntity
  8
L1_115
  6
CONTINUOUS
 62
         7
100
AcDbLine
 10
1217.8004143746
 20
-115.7289651095
 30
0.0
 11
1207.0504143746
 21
-115.7289651095
 31
0.0
  0
LINE
  5
464
100
AcDbEntity
  8
L1_115
  6
CONTINUOUS
 62
         7
100
AcDbLine
 10
1207.0504143746
 20
-115.7289651095
 30
0.0
 11
1206.5504143746
 21
-116.2289651095
 31
0.0
  0
LINE
  5
465
100
AcDbEntity
  8
L1_115
  6
CONTINUOUS
 62
         7
100
AcDbLine
 10
1206.5504143746
 20
-121.2289651095
 30
0.0
 11
1206.5504143746
 21
-116.2289651095
 31
0.0
  0
LINE
  5
466
100
AcDbEntity
  8
L1_115
  6
CONTINUOUS
 62
         7
100
AcDbLine
 10
1207.0504143746
 20
-121.7289651095
 30
0.0
 11
1206.5504143746
 21
-121.2289651095
 31
0.0
  0
LINE
  5
467
100
AcDbEntity
  8
L1_115
  6
CONTINUOUS
 62
         7
100
AcDbLine
 10
1217.8004143746
 20
-121.7289651095
 30
0.0
 11
1207.0504143746
 21
-121.7289651095
 31
0.0
  0
LINE
  5
468
100
AcDbEntity
  8
L1_115
  6
CONTINUOUS
 62
         4
100
AcDbLine
 10
1217.8004143746
 20
-116.2289651095
 30
0.0
 11
1206.5504143746
 21
-116.2289651095
 31
0.0
  0
LINE
  5
469
100
AcDbEntity
  8
L1_115
  6
CONTINUOUS
 62
         4
100
AcDbLine
 10
1217.8004143746
 20
-121.2289651095
 30
0.0
 11
1206.5504143746
 21
-121.2289651095
 31
0.0
  0
DIMENSION
  5
46C
100
AcDbEntity
  8
L1_115
  6
CONTINUOUS
 62
         4
100
AcDbDimension
  2
*D7
 10
1206.5504143746
 20
-91.6581433718
 30
0.0
 11
1232.5016809162
 21
-89.6331433718
 31
0.0
  3
DIMSTYLE1
100
AcDbAlignedDimension
 13
1206.5504143746
 23
-116.2289651095
 33
0.0
 14
1268.3004143746
 24
-112.7289651095
 34
0.0
100
AcDbRotatedDimension
  0
DIMENSION
  5
47A
100
AcDbEntity
  8
L1_115
  6
CONTINUOUS
 62
         4
100
AcDbDimension
  2
*D8
 10
1206.5504143746
 20
-100.7832759068
 30
0.0
 11
1207.5427272671
 21
-98.7582759068
 31
0.0
  3
DIMSTYLE1
100
AcDbAlignedDimension
 13
1206.5504143746
 23
-116.2289651095
 33
0.0
 14
1217.8004143746
 24
-115.7289651095
 34
0.0
100
AcDbRotatedDimension
  0
DIMENSION
  5
488
100
AcDbEntity
  8
L1_115
  6
CONTINUOUS
 62
         4
100
AcDbDimension
  2
*D9
 10
1275.6231601628
 20
-112.2289651095
 30
0.0
 11
1273.5981601628
 21
-124.1289651095
 31
0.0
  3
DIMSTYLE1
100
AcDbAlignedDimension
 13
1267.8004143746
 23
-112.2289651095
 33
0.0
 14
1267.8004143746
 24
-125.2289651095
 34
0.0
 50
90.0
100
AcDbRotatedDimension
  0
CIRCLE
  5
494
100
AcDbEntity
  8
L1_115
  6
CONTINUOUS
 62
         7
100
AcDbCircle
 10
1364.3253980379
 20
-113.1189651095
 30
0.0
 40
0.735
  0
CIRCLE
  5
495
100
AcDbEntity
  8
L1_115
  6
CONTINUOUS
 62
         7
100
AcDbCircle
 10
1365.7953980379
 20
-113.1189651095
 30
0.0
 40
0.735
  0
CIRCLE
  5
496
100
AcDbEntity
  8
L1_115
  6
CONTINUOUS
 62
         7
100
AcDbCircle
 10
1367.2653980379
 20
-113.1189651095
 30
0.0
 40
0.735
  0
CIRCLE
  5
497
100
AcDbEntity
  8
L1_115
  6
CONTINUOUS
 62
         7
100
AcDbCircle
 10
1368.7353980379
 20
-113.1189651095
 30
0.0
 40
0.735
  0
CIRCLE
  5
498
100
AcDbEntity
  8
L1_115
  6
CONTINUOUS
 62
         7
100
AcDbCircle
 10
1370.2053980379
 20
-113.1189651095
 30
0.0
 40
0.735
  0
CIRCLE
  5
499
100
AcDbEntity
  8
L1_115
  6
CONTINUOUS
 62
         7
100
AcDbCircle
 10
1371.6753980379
 20
-113.1189651095
 30
0.0
 40
0.735
  0
CIRCLE
  5
49A
100
AcDbEntity
  8
L1_115
  6
CONTINUOUS
 62
         7
100
AcDbCircle
 10
1373.1453980379
 20
-113.1189651095
 30
0.0
 40
0.735
  0
CIRCLE
  5
49B
100
AcDbEntity
  8
L1_115
  6
CONTINUOUS
 62
         7
100
AcDbCircle
 10
1374.6153980379
 20
-113.1189651095
 30
0.0
 40
0.735
  0
CIRCLE
  5
49C
100
AcDbEntity
  8
L1_115
  6
CONTINUOUS
 62
         7
100
AcDbCircle
 10
1376.0853980379
 20
-113.1189651095
 30
0.0
 40
0.735
  0
CIRCLE
  5
49D
100
AcDbEntity
  8
L1_115
  6
CONTINUOUS
 62
         7
100
AcDbCircle
 10
1377.5553980379
 20
-113.1189651095
 30
0.0
 40
0.735
  0
CIRCLE
  5
49E
100
AcDbEntity
  8
L1_115
  6
CONTINUOUS
 62
         7
100
AcDbCircle
 10
1379.0253980379
 20
-113.1189651095
 30
0.0
 40
0.735
  0
CIRCLE
  5
49F
100
AcDbEntity
  8
L1_115
  6
CONTINUOUS
 62
         7
100
AcDbCircle
 10
1380.4953980379
 20
-113.1189651095
 30
0.0
 40
0.735
  0
CIRCLE
  5
4A0
100
AcDbEntity
  8
L1_115
  6
CONTINUOUS
 62
         7
100
AcDbCircle
 10
1381.9653980379
 20
-113.1189651095
 30
0.0
 40
0.735
  0
CIRCLE
  5
4A1
100
AcDbEntity
  8
L1_115
  6
CONTINUOUS
 62
         7
100
AcDbCircle
 10
1383.4353980379
 20
-113.1189651095
 30
0.0
 40
0.735
  0
CIRCLE
  5
4A2
100
AcDbEntity
  8
L1_115
  6
CONTINUOUS
 62
         7
100
AcDbCircle
 10
1384.9053980379
 20
-113.1189651095
 30
0.0
 40
0.735
  0
CIRCLE
  5
4A3
100
AcDbEntity
  8
L1_115
  6
CONTINUOUS
 62
         7
100
AcDbCircle
 10
1362.8553980379
 20
-124.3389651095
 30
0.0
 40
0.735
  0
CIRCLE
  5
4A4
100
AcDbEntity
  8
L1_115
  6
CONTINUOUS
 62
         7
100
AcDbCircle
 10
1364.3253980379
 20
-124.3389651095
 30
0.0
 40
0.735
  0
CIRCLE
  5
4A5
100
AcDbEntity
  8
L1_115
  6
CONTINUOUS
 62
         7
100
AcDbCircle
 10
1365.7953980379
 20
-124.3389651095
 30
0.0
 40
0.735
  0
CIRCLE
  5
4A6
100
AcDbEntity
  8
L1_115
  6
CONTINUOUS
 62
         7
100
AcDbCircle
 10
1367.2653980379
 20
-124.3389651095
 30
0.0
 40
0.735
  0
CIRCLE
  5
4A7
100
AcDbEntity
  8
L1_115
  6
CONTINUOUS
 62
         7
100
AcDbCircle
 10
1368.7353980379
 20
-124.3389651095
 30
0.0
 40
0.735
  0
CIRCLE
  5
4A8
100
AcDbEntity
  8
L1_115
  6
CONTINUOUS
 62
         7
100
AcDbCircle
 10
1370.2053980379
 20
-124.3389651095
 30
0.0
 40
0.735
  0
CIRCLE
  5
4A9
100
AcDbEntity
  8
L1_115
  6
CONTINUOUS
 62
         7
100
AcDbCircle
 10
1371.6753980379
 20
-124.3389651095
 30
0.0
 40
0.735
  0
CIRCLE
  5
4AA
100
AcDbEntity
  8
L1_115
  6
CONTINUOUS
 62
         7
100
AcDbCircle
 10
1373.1453980379
 20
-124.3389651095
 30
0.0
 40
0.735
  0
CIRCLE
  5
4AB
100
AcDbEntity
  8
L1_115
  6
CONTINUOUS
 62
         7
100
AcDbCircle
 10
1374.6153980379
 20
-124.3389651095
 30
0.0
 40
0.735
  0
CIRCLE
  5
4AC
100
AcDbEntity
  8
L1_115
  6
CONTINUOUS
 62
         7
100
AcDbCircle
 10
1376.0853980379
 20
-124.3389651095
 30
0.0
 40
0.735
  0
CIRCLE
  5
4AD
100
AcDbEntity
  8
L1_115
  6
CONTINUOUS
 62
         7
100
AcDbCircle
 10
1377.5553980379
 20
-124.3389651095
 30
0.0
 40
0.735
  0
CIRCLE
  5
4AE
100
AcDbEntity
  8
L1_115
  6
CONTINUOUS
 62
         7
100
AcDbCircle
 10
1379.0253980379
 20
-124.3389651095
 30
0.0
 40
0.735
  0
CIRCLE
  5
4AF
100
AcDbEntity
  8
L1_115
  6
CONTINUOUS
 62
         7
100
AcDbCircle
 10
1380.4953980379
 20
-124.3389651095
 30
0.0
 40
0.735
  0
CIRCLE
  5
4B0
100
AcDbEntity
  8
L1_115
  6
CONTINUOUS
 62
         7
100
AcDbCircle
 10
1381.9653980379
 20
-124.3389651095
 30
0.0
 40
0.735
  0
CIRCLE
  5
4B1
100
AcDbEntity
  8
L1_115
  6
CONTINUOUS
 62
         7
100
AcDbCircle
 10
1383.4353980379
 20
-124.3389651095
 30
0.0
 40
0.735
  0
LINE
  5
4B2
100
AcDbEntity
  8
L1_115
  6
CONTINUOUS
 62
         7
100
AcDbLine
 10
1385.6403980379
 20
-113.1189651095
 30
0.0
 11
1384.1703980379
 21
-124.3389651095
 31
0.0
  0
LINE
  5
4B3
100
AcDbEntity
  8
L1_115
  6
CONTINUOUS
 62
         7
100
AcDbLine
 10
1382.7003980379
 20
-124.3389651095
 30
0.0
 11
1384.1703980379
 21
-113.1189651095
 31
0.0
  0
LINE
  5
4B4
100
AcDbEntity
  8
L1_115
  6
CONTINUOUS
 62
         7
100
AcDbLine
 10
1379.7603980379
 20
-124.3389651095
 30
0.0
 11
1381.2303980379
 21
-113.1189651095
 31
0.0
  0
LINE
  5
4B5
100
AcDbEntity
  8
L1_115
  6
CONTINUOUS
 62
         7
100
AcDbLine
 10
1382.7003980379
 20
-113.1189651095
 30
0.0
 11
1381.2303980379
 21
-124.3389651095
 31
0.0
  0
LINE
  5
4B6
100
AcDbEntity
  8
L1_115
  6
CONTINUOUS
 62
         7
100
AcDbLine
 10
1376.8203980379
 20
-124.3389651095
 30
0.0
 11
1378.2903980379
 21
-113.1189651095
 31
0.0
  0
LINE
  5
4B7
100
AcDbEntity
  8
L1_115
  6
CONTINUOUS
 62
         7
100
AcDbLine
 10
1379.7603980379
 20
-113.1189651095
 30
0.0
 11
1378.2903980379
 21
-124.3389651095
 31
0.0
  0
LINE
  5
4B8
100
AcDbEntity
  8
L1_115
  6
CONTINUOUS
 62
         7
100
AcDbLine
 10
1373.8803980379
 20
-124.3389651095
 30
0.0
 11
1375.3503980379
 21
-113.1189651095
 31
0.0
  0
LINE
  5
4B9
100
AcDbEntity
  8
L1_115
  6
CONTINUOUS
 62
         7
100
AcDbLine
 10
1376.8203980379
 20
-113.1189651095
 30
0.0
 11
1375.3503980379
 21
-124.3389651095
 31
0.0
  0
LINE
  5
4BA
100
AcDbEntity
  8
L1_115
  6
CONTINUOUS
 62
         7
100
AcDbLine
 10
1370.9403980379
 20
-124.3389651095
 30
0.0
 11
1372.4103980379
 21
-113.1189651095
 31
0.0
  0
LINE
  5
4BB
100
AcDbEntity
  8
L1_115
  6
CONTINUOUS
 62
         7
100
AcDbLine
 10
1373.8803980379
 20
-113.1189651095
 30
0.0
 11
1372.4103980379
 21
-124.3389651095
 31
0.0
  0
LINE
  5
4BC
100
AcDbEntity
  8
L1_115
  6
CONTINUOUS
 62
         7
100
AcDbLine
 10
1368.0003980379
 20
-124.3389651095
 30
0.0
 11
1369.4703980379
 21
-113.1189651095
 31
0.0
  0
LINE
  5
4BD
100
AcDbEntity
  8
L1_115
  6
CONTINUOUS
 62
         7
100
AcDbLine
 10
1370.9403980379
 20
-113.1189651095
 30
0.0
 11
1369.4703980379
 21
-124.3389651095
 31
0.0
  0
LINE
  5
4BE
100
AcDbEntity
  8
L1_115
  6
CONTINUOUS
 62
         7
100
AcDbLine
 10
1365.0603980379
 20
-124.3389651095
 30
0.0
 11
1366.5303980379
 21
-113.1189651095
 31
0.0
  0
LINE
  5
4BF
100
AcDbEntity
  8
L1_115
  6
CONTINUOUS
 62
         7
100
AcDbLine
 10
1368.0003980379
 20
-113.1189651095
 30
0.0
 11
1366.5303980379
 21
-124.3389651095
 31
0.0
  0
LINE
  5
4C0
100
AcDbEntity
  8
L1_115
  6
CONTINUOUS
 62
         7
100
AcDbLine
 10
1362.1203980379
 20
-124.3389651095
 30
0.0
 11
1363.5903980379
 21
-113.1189651095
 31
0.0
  0
LINE
  5
4C1
100
AcDbEntity
  8
L1_115
  6
CONTINUOUS
 62
         7
100
AcDbLine
 10
1365.0603980379
 20
-113.1189651095
 30
0.0
 11
1363.5903980379
 21
-124.3389651095
 31
0.0
  0
CIRCLE
  5
4C2
100
AcDbEntity
  8
L1_115
  6
CONTINUOUS
 62
         7
100
AcDbCircle
 10
1411.9319281677
 20
-109.3439651095
 30
0.0
 40
0.685
  0
CIRCLE
  5
4C3
100
AcDbEntity
  8
L1_115
  6
CONTINUOUS
 62
         7
100
AcDbCircle
 10
1413.3019281677
 20
-109.3439651095
 30
0.0
 40
0.685
  0
CIRCLE
  5
4C4
100
AcDbEntity
  8
L1_115
  6
CONTINUOUS
 62
         7
100
AcDbCircle
 10
1414.6719281677
 20
-109.3439651095
 30
0.0
 40
0.685
  0
CIRCLE
  5
4C5
100
AcDbEntity
  8
L1_115
  6
CONTINUOUS
 62
         7
100
AcDbCircle
 10
1416.0419281677
 20
-109.3439651095
 30
0.0
 40
0.685
  0
CIRCLE
  5
4C6
100
AcDbEntity
  8
L1_115
  6
CONTINUOUS
 62
         7
100
AcDbCircle
 10
1417.4119281677
 20
-109.3439651095
 30
0.0
 40
0.685
  0
CIRCLE
  5
4C7
100
AcDbEntity
  8
L1_115
  6
CONTINUOUS
 62
         7
100
AcDbCircle
 10
1418.7819281677
 20
-109.3439651095
 30
0.0
 40
0.685
  0
CIRCLE
  5
4C8
100
AcDbEntity
  8
L1_115
  6
CONTINUOUS
 62
         7
100
AcDbCircle
 10
1410.5619281677
 20
-128.1139651095
 30
0.0
 40
0.685
  0
CIRCLE
  5
4C9
100
AcDbEntity
  8
L1_115
  6
CONTINUOUS
 62
         7
100
AcDbCircle
 10
1411.9319281677
 20
-128.1139651095
 30
0.0
 40
0.685
  0
CIRCLE
  5
4CA
100
AcDbEntity
  8
L1_115
  6
CONTINUOUS
 62
         7
100
AcDbCircle
 10
1413.3019281677
 20
-128.1139651095
 30
0.0
 40
0.685
  0
CIRCLE
  5
4CB
100
AcDbEntity
  8
L1_115
  6
CONTINUOUS
 62
         7
100
AcDbCircle
 10
1414.6719281677
 20
-128.1139651095
 30
0.0
 40
0.685
  0
CIRCLE
  5
4CC
100
AcDbEntity
  8
L1_115
  6
CONTINUOUS
 62
         7
100
AcDbCircle
 10
1416.0419281677
 20
-128.1139651095
 30
0.0
 40
0.685
  0
CIRCLE
  5
4CD
100
AcDbEntity
  8
L1_115
  6
CONTINUOUS
 62
         7
100
AcDbCircle
 10
1417.4119281677
 20
-128.1139651095
 30
0.0
 40
0.685
  0
LINE
  5
4CE
100
AcDbEntity
  8
L1_115
  6
CONTINUOUS
 62
         7
100
AcDbLine
 10
1419.4669281677
 20
-109.3439651095
 30
0.0
 11
1418.0969281677
 21
-128.1139651095
 31
0.0
  0
LINE
  5
4CF
100
AcDbEntity
  8
L1_115
  6
CONTINUOUS
 62
         7
100
AcDbLine
 10
1416.7269281677
 20
-128.1139651095
 30
0.0
 11
1418.0969281677
 21
-109.3439651095
 31
0.0
  0
LINE
  5
4D0
100
AcDbEntity
  8
L1_115
  6
CONTINUOUS
 62
         7
100
AcDbLine
 10
1416.7269281677
 20
-109.3439651095
 30
0.0
 11
1415.3569281677
 21
-128.1139651095
 31
0.0
  0
LINE
  5
4D1
100
AcDbEntity
  8
L1_115
  6
CONTINUOUS
 62
         7
100
AcDbLine
 10
1413.9869281677
 20
-128.1139651095
 30
0.0
 11
1415.3569281677
 21
-109.3439651095
 31
0.0
  0
LINE
  5
4D2
100
AcDbEntity
  8
L1_115
  6
CONTINUOUS
 62
         7
100
AcDbLine
 10
1413.9869281677
 20
-109.3439651095
 30
0.0
 11
1412.6169281677
 21
-128.1139651095
 31
0.0
  0
LINE
  5
4D3
100
AcDbEntity
  8
L1_115
  6
CONTINUOUS
 62
         7
100
AcDbLine
 10
1411.2469281677
 20
-128.1139651095
 30
0.0
 11
1412.6169281677
 21
-109.3439651095
 31
0.0
  0
LINE
  5
4D4
100
AcDbEntity
  8
L1_115
  6
CONTINUOUS
 62
         7
100
AcDbLine
 10
1411.2469281677
 20
-109.3439651095
 30
0.0
 11
1409.8769281677
 21
-128.1139651095
 31
0.0
  0
CIRCLE
  5
4D5
100
AcDbEntity
  8
L1_115
  6
CONTINUOUS
 62
         7
100
AcDbCircle
 10
1295.5001750662
 20
-129.6289651095
 30
0.0
 40
0.785
  0
CIRCLE
  5
4D6
100
AcDbEntity
  8
L1_115
  6
CONTINUOUS
 62
         7
100
AcDbCircle
 10
1297.0701750661
 20
-129.6289651095
 30
0.0
 40
0.785
  0
CIRCLE
  5
4D7
100
AcDbEntity
  8
L1_115
  6
CONTINUOUS
 62
         7
100
AcDbCircle
 10
1298.6401750661
 20
-129.6289651095
 30
0.0
 40
0.785
  0
CIRCLE
  5
4D8
100
AcDbEntity
  8
L1_115
  6
CONTINUOUS
 62
         7
100
AcDbCircle
 10
1300.2101750661
 20
-129.6289651095
 30
0.0
 40
0.785
  0
CIRCLE
  5
4D9
100
AcDbEntity
  8
L1_115
  6
CONTINUOUS
 62
         7
100
AcDbCircle
 10
1301.7801750661
 20
-129.6289651095
 30
0.0
 40
0.785
  0
CIRCLE
  5
4DA
100
AcDbEntity
  8
L1_115
  6
CONTINUOUS
 62
         7
100
AcDbCircle
 10
1303.3501750661
 20
-129.6289651095
 30
0.0
 40
0.785
  0
CIRCLE
  5
4DB
100
AcDbEntity
  8
L1_115
  6
CONTINUOUS
 62
         7
100
AcDbCircle
 10
1297.0701750661
 20
-107.8289651095
 30
0.0
 40
0.785
  0
CIRCLE
  5
4DC
100
AcDbEntity
  8
L1_115
  6
CONTINUOUS
 62
         7
100
AcDbCircle
 10
1298.6401750661
 20
-107.8289651095
 30
0.0
 40
0.785
  0
CIRCLE
  5
4DD
100
AcDbEntity
  8
L1_115
  6
CONTINUOUS
 62
         7
100
AcDbCircle
 10
1300.2101750661
 20
-107.8289651095
 30
0.0
 40
0.785
  0
CIRCLE
  5
4DE
100
AcDbEntity
  8
L1_115
  6
CONTINUOUS
 62
         7
100
AcDbCircle
 10
1301.7801750661
 20
-107.8289651095
 30
0.0
 40
0.785
  0
CIRCLE
  5
4DF
100
AcDbEntity
  8
L1_115
  6
CONTINUOUS
 62
         7
100
AcDbCircle
 10
1303.3501750661
 20
-107.8289651095
 30
0.0
 40
0.785
  0
CIRCLE
  5
4E0
100
AcDbEntity
  8
L1_115
  6
CONTINUOUS
 62
         7
100
AcDbCircle
 10
1304.9201750661
 20
-107.8289651095
 30
0.0
 40
0.785
  0
CIRCLE
  5
4E1
100
AcDbEntity
  8
L1_115
  6
CONTINUOUS
 62
         7
100
AcDbCircle
 10
1306.4901750661
 20
-107.8289651095
 30
0.0
 40
0.785
  0
LINE
  5
4E2
100
AcDbEntity
  8
L1_115
  6
CONTINUOUS
 62
         7
100
AcDbLine
 10
1296.2851750661
 20
-107.8289651095
 30
0.0
 11
1294.7151750662
 21
-129.6289651095
 31
0.0
  0
LINE
  5
4E3
100
AcDbEntity
  8
L1_115
  6
CONTINUOUS
 62
         7
100
AcDbLine
 10
1304.1351750661
 20
-129.6289651095
 30
0.0
 11
1307.2751750661
 21
-107.8289651095
 31
0.0
  0
LINE
  5
4E4
100
AcDbEntity
  8
L1_115
  6
CONTINUOUS
 62
         7
100
AcDbLine
 10
1297.8551750661
 20
-107.8289651095
 30
0.0
 11
1296.2851750662
 21
-129.6289651095
 31
0.0
  0
LINE
  5
4E5
100
AcDbEntity
  8
L1_115
  6
CONTINUOUS
 62
         7
100
AcDbLine
 10
1297.8551750661
 20
-129.6289651095
 30
0.0
 11
1299.4251750661
 21
-107.8289651095
 31
0.0
  0
LINE
  5
4E6
100
AcDbEntity
  8
L1_115
  6
CONTINUOUS
 62
         7
100
AcDbLine
 10
1300.9951750661
 20
-107.8289651095
 30
0.0
 11
1299.4251750661
 21
-129.6289651095
 31
0.0
  0
LINE
  5
4E7
100
AcDbEntity
  8
L1_115
  6
CONTINUOUS
 62
         7
100
AcDbLine
 10
1300.9951750661
 20
-129.6289651095
 30
0.0
 11
1302.5651750661
 21
-107.8289651095
 31
0.0
  0
LINE
  5
4E8
100
AcDbEntity
  8
L1_115
  6
CONTINUOUS
 62
         7
100
AcDbLine
 10
1304.1351750661
 20
-107.8289651095
 30
0.0
 11
1302.5651750661
 21
-129.6289651095
 31
0.0
  0
LINE
  5
4E9
100
AcDbEntity
  8
L1_115
  6
CONTINUOUS
 62
         7
100
AcDbLine
 10
1304.1351750661
 20
-129.6289651095
 30
0.0
 11
1305.7051750661
 21
-107.8289651095
 31
0.0
  0
CIRCLE
  5
4EA
100
AcDbEntity
  8
L1_115
  6
CONTINUOUS
 62
         7
100
AcDbCircle
 10
1338.1768584888
 20
-139.7239651095
 30
0.0
 40
0.885
  0
CIRCLE
  5
4EB
100
AcDbEntity
  8
L1_115
  6
CONTINUOUS
 62
         7
100
AcDbCircle
 10
1336.4068584888
 20
-139.7239651095
 30
0.0
 40
0.885
  0
CIRCLE
  5
4EC
100
AcDbEntity
  8
L1_115
  6
CONTINUOUS
 62
         7
100
AcDbCircle
 10
1334.6368584888
 20
-139.7239651095
 30
0.0
 40
0.885
  0
CIRCLE
  5
4ED
100
AcDbEntity
  8
L1_115
  6
CONTINUOUS
 62
         7
100
AcDbCircle
 10
1339.9468584888
 20
-97.7339651095
 30
0.0
 40
0.885
  0
CIRCLE
  5
4EE
100
AcDbEntity
  8
L1_115
  6
CONTINUOUS
 62
         7
100
AcDbCircle
 10
1338.1768584888
 20
-97.7339651095
 30
0.0
 40
0.885
  0
CIRCLE
  5
4EF
100
AcDbEntity
  8
L1_115
  6
CONTINUOUS
 62
         7
100
AcDbCircle
 10
1336.4068584888
 20
-97.7339651095
 30
0.0
 40
0.885
  0
LINE
  5
4F0
100
AcDbEntity
  8
L1_115
  6
CONTINUOUS
 62
         7
100
AcDbLine
 10
1340.8318584888
 20
-97.7339651095
 30
0.0
 11
1339.0618584888
 21
-139.7239651095
 31
0.0
  0
LINE
  5
4F1
100
AcDbEntity
  8
L1_115
  6
CONTINUOUS
 62
         7
100
AcDbLine
 10
1337.2918584888
 20
-139.7239651095
 30
0.0
 11
1339.0618584888
 21
-97.7339651095
 31
0.0
  0
LINE
  5
4F2
100
AcDbEntity
  8
L1_115
  6
CONTINUOUS
 62
         7
100
AcDbLine
 10
1337.2918584888
 20
-97.7339651095
 30
0.0
 11
1335.5218584888
 21
-139.7239651095
 31
0.0
  0
LINE
  5
4F3
100
AcDbEntity
  8
L1_115
  6
CONTINUOUS
 62
         7
100
AcDbLine
 10
1335.5218584888
 20
-97.7339651095
 30
0.0
 11
1333.7518584888
 21
-139.7239651095
 31
0.0
  0
DIMENSION
  5
4F6
100
AcDbEntity
  8
L1_115
  6
CONTINUOUS
 62
         4
100
AcDbDimension
  2
*D10
 10
1402.2133629978
 20
-108.6589651095
 30
0.0
 11
1400.1883629978
 21
-124.1289651095
 31
0.0
  3
DIMSTYLE1
100
AcDbAlignedDimension
 13
1411.9319281677
 23
-108.6589651095
 33
0.0
 14
1410.5619281677
 24
-128.7989651095
 34
0.0
 50
90.0
100
AcDbRotatedDimension
  0
DIMENSION
  5
504
100
AcDbEntity
  8
L1_115
  6
CONTINUOUS
 62
         4
100
AcDbDimension
  2
*D11
 10
1356.9322063388
 20
-112.3839651095
 30
0.0
 11
1354.9072063388
 21
-124.1289651095
 31
0.0
  3
DIMSTYLE1
100
AcDbAlignedDimension
 13
1364.3253980379
 23
-112.3839651095
 33
0.0
 14
1362.8553980379
 24
-125.0739651095
 34
0.0
 50
90.0
100
AcDbRotatedDimension
  0
DIMENSION
  5
512
100
AcDbEntity
  8
L1_115
  6
CONTINUOUS
 62
         4
100
AcDbDimension
  2
*D12
 10
1329.5274674014
 20
-96.8489651095
 30
0.0
 11
1327.5024674014
 21
-124.1289651095
 31
0.0
  3
DIMSTYLE1
100
AcDbAlignedDimension
 13
1336.4068584888
 23
-96.8489651095
 33
0.0
 14
1334.6368584888
 24
-140.6089651095
 34
0.0
 50
90.0
100
AcDbRotatedDimension
  0
DIMENSION
  5
520
100
AcDbEntity
  8
L1_115
  6
CONTINUOUS
 62
         4
100
AcDbDimension
  2
*D13
 10
1291.3567609995
 20
-107.0439651095
 30
0.0
 11
1289.3317609995
 21
-126.8289651095
 31
0.0
  3
DIMSTYLE1
100
AcDbAlignedDimension
 13
1297.0701750661
 23
-107.0439651095
 33
0.0
 14
1295.5001750662
 24
-130.4139651095
 34
0.0
 50
90.0
100
AcDbRotatedDimension
  0
LINE
  5
52C
100
AcDbEntity
  8
L1_115
  6
CENTER
 62
         1
100
AcDbLine
 10
1426.0751864273
 20
-118.7289651095
 30
0.0
 11
1192.1832187957
 21
-118.7289651095
 31
0.0
  0
DIMENSION
  5
52F
100
AcDbEntity
  8
L1_115
  6
CONTINUOUS
 62
         4
100
AcDbDimension
  2
*D14
 10
1707.213798028
 20
-1.4239722593
 30
0.0
 11
1705.188798028
 21
-30.2739722593
 31
0.0
  3
DIMSTYLE1
100
AcDbAlignedDimension
 13
1697.034786142
 23
-1.4239722593
 33
0.0
 14
1697.034786142
 24
-42.9239722593
 34
0.0
 50
90.0
100
AcDbRotatedDimension
  0
DIMENSION
  5
53D
100
AcDbEntity
  8
L1_115
  6
CONTINUOUS
 62
         4
100
AcDbDimension
  2
*D15
 10
1682.6221336297
 20
-5.9239722593
 30
0.0
 11
1680.5971336297
 21
-30.2739722593
 31
0.0
  3
DIMSTYLE1
100
AcDbAlignedDimension
 13
1671.9935270148
 23
-5.9239722593
 33
0.0
 14
1671.9935270148
 24
-38.4239722593
 34
0.0
 50
90.0
100
AcDbRotatedDimension
  0
CIRCLE
  5
549
100
AcDbEntity
  8
L1_115
  6
CONTINUOUS
 62
         7
100
AcDbCircle
 10
1671.9935270148
 20
-37.6739722593
 30
0.0
 40
0.75
  0
LINE
  5
54A
100
AcDbEntity
  8
L1_115
  6
CONTINUOUS
 62
         7
100
AcDbLine
 10
1671.2435270148
 20
-6.6739722593
 30
0.0
 11
1671.2435270148
 21
-37.6739722593
 31
0.0
  0
LINE
  5
54B
100
AcDbEntity
  8
L1_115
  6
CONTINUOUS
 62
         7
100
AcDbLine
 10
1672.7435270148
 20
-37.6739722593
 30
0.0
 11
1672.7435270148
 21
-6.6739722593
 31
0.0
  0
CIRCLE
  5
54C
100
AcDbEntity
  8
L1_115
  6
CONTINUOUS
 62
         7
100
AcDbCircle
 10
1671.9935270148
 20
-6.6739722593
 30
0.0
 40
0.75
  0
CIRCLE
  5
54D
100
AcDbEntity
  8
L1_115
  6
CONTINUOUS
 62
         7
100
AcDbCircle
 10
1697.034786142
 20
-42.1739722593
 30
0.0
 40
0.75
  0
LINE
  5
54E
100
AcDbEntity
  8
L1_115
  6
CONTINUOUS
 62
         7
100
AcDbLine
 10
1697.784786142
 20
-2.1739722593
 30
0.0
 11
1697.784786142
 21
-42.1739722593
 31
0.0
  0
LINE
  5
54F
100
AcDbEntity
  8
L1_115
  6
CONTINUOUS
 62
         7
100
AcDbLine
 10
1696.284786142
 20
-42.1739722593
 30
0.0
 11
1696.284786142
 21
-2.1739722593
 31
0.0
  0
CIRCLE
  5
550
100
AcDbEntity
  8
L1_115
  6
CONTINUOUS
 62
         7
100
AcDbCircle
 10
1697.034786142
 20
-2.1739722593
 30
0.0
 40
0.75
  0
LINE
  5
551
100
AcDbEntity
  8
L1_115
  6
CONTINUOUS
 62
         7
100
AcDbLine
 10
1642.2076228906
 20
-35.1239722593
 30
0.0
 11
1642.2076228906
 21
-9.2239722593
 31
0.0
  0
LINE
  5
552
100
AcDbEntity
  8
L1_115
  6
CONTINUOUS
 62
         7
100
AcDbLine
 10
1641.0076228906
 20
-35.1239722593
 30
0.0
 11
1641.0076228906
 21
-9.2239722593
 31
0.0
  0
LINE
  5
553
100
AcDbEntity
  8
L1_115
  6
CONTINUOUS
 62
         7
100
AcDbLine
 10
1642.2076228906
 20
-9.2239722593
 30
0.0
 11
1641.0076228906
 21
-9.2239722593
 31
0.0
  0
LINE
  5
554
100
AcDbEntity
  8
L1_115
  6
CONTINUOUS
 62
         7
100
AcDbLine
 10
1642.2076228906
 20
-35.1239722593
 30
0.0
 11
1641.0076228906
 21
-35.1239722593
 31
0.0
  0
LINE
  5
555
100
AcDbEntity
  8
L1_115
  6
CONTINUOUS
 62
         7
100
AcDbLine
 10
1642.2076228906
 20
-11.7239722593
 30
0.0
 11
1641.0076228906
 21
-11.7239722593
 31
0.0
  0
LINE
  5
556
100
AcDbEntity
  8
L1_115
  6
CONTINUOUS
 62
         7
100
AcDbLine
 10
1642.2076228906
 20
-32.6239722593
 30
0.0
 11
1641.0076228906
 21
-32.6239722593
 31
0.0
  0
CIRCLE
  5
557
100
AcDbEntity
  8
L1_115
  6
CONTINUOUS
 62
         7
100
AcDbCircle
 10
1607.4930865599
 20
6.8260277407
 30
0.0
 40
1.0
  0
CIRCLE
  5
558
100
AcDbEntity
  8
L1_115
  6
CONTINUOUS
 62
         7
100
AcDbCircle
 10
1607.4930865599
 20
-51.1739722593
 30
0.0
 40
1.0
  0
LINE
  5
559
100
AcDbEntity
  8
L1_115
  6
CONTINUOUS
 62
         7
100
AcDbLine
 10
1608.4930865599
 20
6.8260277407
 30
0.0
 11
1608.4930865599
 21
-51.1739722593
 31
0.0
  0
LINE
  5
55A
100
AcDbEntity
  8
L1_115
  6
CONTINUOUS
 62
         7
100
AcDbLine
 10
1606.4930865599
 20
-51.1739722593
 30
0.0
 11
1606.4930865599
 21
6.8260277407
 31
0.0
  0
DIMENSION
  5
55D
100
AcDbEntity
  8
L1_115
  6
CONTINUOUS
 62
         4
100
AcDbDimension
  2
*D16
 10
1620.0466203997
 20
7.8260277407
 30
0.0
 11
1618.0216203997
 21
-27.5739722593
 31
0.0
  3
DIMSTYLE1
100
AcDbAlignedDimension
 13
1607.4930865599
 23
7.8260277407
 33
0.0
 14
1607.4930865599
 24
-52.1739722593
 34
0.0
 50
90.0
100
AcDbRotatedDimension
  0
DIMENSION
  5
56B
100
AcDbEntity
  8
L1_115
  6
CONTINUOUS
 62
         4
100
AcDbDimension
  2
*D17
 10
1649.6896667405
 20
-9.2239722593
 30
0.0
 11
1647.6646667405
 21
-27.5739722593
 31
0.0
  3
DIMSTYLE1
100
AcDbAlignedDimension
 13
1642.2076228906
 23
-9.2239722593
 33
0.0
 14
1642.2076228906
 24
-35.1239722593
 34
0.0
 50
90.0
100
AcDbRotatedDimension
  0
DIMENSION
  5
579
100
AcDbEntity
  8
L1_115
  6
CONTINUOUS
 62
         4
100
AcDbDimension
  2
*D18
 10
1641.0076228906
 20
-3.7786708379
 30
0.0
 11
1637.5576228906
 21
-1.7536708379
 31
0.0
  3
DIMSTYLE1
100
AcDbAlignedDimension
 13
1641.0076228906
 23
-9.2239722593
 33
0.0
 14
1642.2076228906
 24
-9.2239722593
 34
0.0
100
AcDbRotatedDimension
  0
LINE
  5
585
100
AcDbEntity
  8
L1_115
  6
CENTER
 62
         1
100
AcDbLine
 10
1727.2592527236
 20
-30.3993405059
 30
0.0
 11
1727.2592527236
 21
-11.6187897658
 31
0.0
  0
LINE
  5
586
100
AcDbEntity
  8
L1_115
  6
CENTER
 62
         1
100
AcDbLine
 10
1752.3187727115
 20
-30.3993405059
 30
0.0
 11
1752.3187727115
 21
-11.6187897658
 31
0.0
  0
CIRCLE
  5
587
100
AcDbEntity
  8
L1_115
  6
CONTINUOUS
 62
         7
100
AcDbCircle
 10
1727.2592527236
 20
-22.1739722593
 30
0.0
 40
3.175
  0
CIRCLE
  5
588
100
AcDbEntity
  8
L1_115
  6
CONTINUOUS
 62
         7
100
AcDbCircle
 10
1752.3187727115
 20
-22.1739722593
 30
0.0
 40
4.7625
  0
DIMENSION
  5
58B
100
AcDbEntity
  8
L1_115
  6
CONTINUOUS
 62
         4
100
AcDbDimension
  2
*D19
 10
1727.2592527236
 20
-22.1739722593
 30
0.0
 11
1731.6469313616
 21
-13.1050716169
 31
0.0
 70
         4
  3
DIMSTYLE1
100
AcDbRadialDimension
 15
1729.004858058
 25
-19.5219000475
 35
0.0
 40
0.0
  0
DIMENSION
  5
596
100
AcDbEntity
  8
L1_115
  6
CONTINUOUS
 62
         4
100
AcDbDimension
  2
*D20
 10
1752.3187727115
 20
-22.1739722593
 30
0.0
 11
1755.3250214652
 21
-18.4484897
 31
0.0
 70
         4
  3
DIMSTYLE1
100
AcDbRadialDimension
 15
1756.1997079097
 25
-19.4135831133
 35
0.0
 40
0.0
  0
LINE
  5
59F
100
AcDbEntity
  8
L1_115
  6
CENTER
 62
         1
100
AcDbLine
 10
1766.9655708665
 20
-22.1739722593
 30
0.0
 11
1599.2120632758
 21
-22.1739722593
 31
0.0
  0
DIMENSION
  5
5A2
100
AcDbEntity
  8
L1_115
  6
CONTINUOUS
 62
         4
100
AcDbDimension
  2
*D21
 10
1524.3290153143
 20
179.1846417294
 30
0.0
 11
1521.1970153143
 21
138.0917562359
 31
0.0
  3
DIMSTYLE1
100
AcDbAlignedDimension
 13
1484.5432133573
 23
179.1846417294
 33
0.0
 14
1484.0033403763
 24
121.1846417294
 34
0.0
 50
90.0
100
AcDbRotatedDimension
  0
DIMENSION
  5
5B0
100
AcDbEntity
  8
L1_115
  6
CONTINUOUS
 62
         4
100
AcDbDimension
  2
*D22
 10
1516.4061423897
 20
178.1846417294
 30
0.0
 11
1513.2741423897
 21
140.495767433
 31
0.0
  3
DIMSTYLE1
100
AcDbAlignedDimension
 13
1484.0033403763
 23
178.1846417294
 33
0.0
 14
1484.0033403763
 24
122.1846417294
 34
0.0
 50
90.0
100
AcDbRotatedDimension
  0
DIMENSION
  5
5BE
100
AcDbEntity
  8
L1_115
  6
CONTINUOUS
 62
         4
100
AcDbDimension
  2
*D23
 10
1463.0120921578
 20
155.1346417294
 30
0.0
 11
1459.8800921578
 21
130.2294802453
 31
0.0
  3
DIMSTYLE1
100
AcDbAlignedDimension
 13
1453.9083403763
 23
155.1346417294
 33
0.0
 14
1453.9083403763
 24
145.2346417294
 34
0.0
 50
90.0
100
AcDbRotatedDimension
  0
DIMENSION
  5
5CD
100
AcDbEntity
  8
L1_115
  6
CONTINUOUS
 62
         4
100
AcDbDimension
  2
*D24
 10
1471.9983403763
 20
110.4110370841
 30
0.0
 11
1475.7223564215
 21
113.5430370841
 31
0.0
  3
DIMSTYLE1
100
AcDbAlignedDimension
 13
1471.9983403763
 23
142.3499119521
 33
0.0
 14
1493.0033403763
 24
125.8001117832
 34
0.0
100
AcDbRotatedDimension
  0
DIMENSION
  5
5DB
100
AcDbEntity
  8
L1_115
  6
CONTINUOUS
 62
         4
100
AcDbDimension
  2
*D25
 10
1493.0033403763
 20
100.5306055178
 30
0.0
 11
1464.1473021024
 21
103.6626055178
 31
0.0
  3
DIMSTYLE1
100
AcDbAlignedDimension
 13
1493.0033403763
 23
125.8001117832
 33
0.0
 14
1453.9083403763
 24
142.3499119489
 34
0.0
100
AcDbRotatedDimension
  0
DIMENSION
  5
5E9
100
AcDbEntity
  8
L1_115
  6
CONTINUOUS
 62
         4
100
AcDbDimension
  2
*D26
 10
1482.0033403763
 20
192.0936291409
 30
0.0
 11
1468.2763326744
 21
195.2256291409
 31
0.0
  3
DIMSTYLE1
100
AcDbAlignedDimension
 13
1482.0033403763
 23
179.1846417294
 33
0.0
 14
1484.0033403763
 24
179.1846417294
 34
0.0
100
AcDbRotatedDimension
  0
DIMENSION
  5
5F9
100
AcDbEntity
  8
L1_115
  6
CONTINUOUS
 62
         4
100
AcDbDimension
  2
*D27
 10
1493.0033403763
 20
199.4994441768
 30
0.0
 11
1477.9527683944
 21
202.6314441768
 31
0.0
  3
DIMSTYLE1
100
AcDbAlignedDimension
 13
1493.0033403763
 23
174.5691716756
 33
0.0
 14
1482.0033403763
 24
179.1846417294
 34
0.0
100
AcDbRotatedDimension
  0
DIMENSION
  5
608
100
AcDbEntity
  8
L1_115
  6
CONTINUOUS
 62
         4
100
AcDbDimension
  2
*D28
 10
1493.0033403763
 20
207.830986092
 30
0.0
 11
1462.9765646553
 21
210.962986092
 31
0.0
  3
DIMSTYLE1
100
AcDbAlignedDimension
 13
1493.0033403763
 23
174.5691716756
 33
0.0
 14
1442.0033403763
 24
180.6846417294
 34
0.0
100
AcDbRotatedDimension
  0
DIMENSION
  5
616
100
AcDbEntity
  8
L1_115
  6
CONTINUOUS
 62
         4
100
AcDbDimension
  2
*D29
 10
1493.0033403763
 20
-77.7782125383
 30
0.0
 11
1450.0783403763
 21
-74.6462125383
 31
0.0
  3
DIMSTYLE1
100
AcDbAlignedDimension
 13
1493.0033403763
 23
-37.3278646868
 33
0.0
 14
1413.0033403763
 24
-30.9433347407
 34
0.0
100
AcDbRotatedDimension
  0
DIMENSION
  5
624
100
AcDbEntity
  8
L1_115
  6
CONTINUOUS
 62
         4
100
AcDbDimension
  2
*D30
 10
1440.0057015658
 20
-65.7933929011
 30
0.0
 11
1460.8157191756
 21
-62.6613929011
 31
0.0
  3
DIMSTYLE1
100
AcDbAlignedDimension
 13
1440.0057015658
 23
-37.4433347407
 33
0.0
 14
1493.0033403763
 24
-37.7886342023
 34
0.0
100
AcDbRotatedDimension
  0
DIMENSION
  5
632
100
AcDbEntity
  8
L1_115
  6
CONTINUOUS
 62
         4
100
AcDbDimension
  2
*D31
 10
1448.9583403763
 20
22.5276946084
 30
0.0
 11
1457.3283403763
 21
25.6596946084
 31
0.0
  3
DIMSTYLE1
100
AcDbAlignedDimension
 13
1448.9583403763
 23
16.0566652593
 33
0.0
 14
1476.9483403763
 24
16.0566652593
 34
0.0
100
AcDbRotatedDimension
  0
DIMENSION
  5
640
100
AcDbEntity
  8
L1_115
  6
CONTINUOUS
 62
         4
100
AcDbDimension
  2
*D32
 10
1508.9390544535
 20
4.5566652593
 30
0.0
 11
1506.9140544535
 21
-19.8342330444
 31
0.0
  3
DIMSTYLE1
100
AcDbAlignedDimension
 13
1439.0057015658
 23
4.5566652593
 33
0.0
 14
1439.0057015658
 24
-30.4433347407
 34
0.0
 50
90.0
100
AcDbRotatedDimension
  0
DIMENSION
  5
64E
100
AcDbEntity
  8
L1_115
  6
CONTINUOUS
 62
         4
100
AcDbDimension
  2
*D33
 10
1527.7871677832
 20
11.0566652593
 30
0.0
 11
1525.7621677832
 21
-20.3134223664
 31
0.0
  3
DIMSTYLE1
100
AcDbAlignedDimension
 13
1492.8033403763
 23
11.0566652593
 33
0.0
 14
1492.8033403763
 24
-36.9433347407
 34
0.0
 50
90.0
100
AcDbRotatedDimension
  0
TEXT
  5
65B
100
AcDbEntity
  8
L1_115
  6
CONTINUOUS
 62
         2
100
AcDbText
 10
1607.8551181589
 20
224.3704784082
 30
0.0
 40
4.5
  1
531544
 41
0.98
  7
BOX
100
AcDbText
  0
ENDSEC
  0
SECTION
  2
OBJECTS
  0
DICTIONARY
  5
19
100
AcDbDictionary
  3
ACAD_GROUP
350
1A
  3
ACAD_MLINESTYLE
350
1B
  0
DICTIONARY
  5
1A
102
{ACAD_REACTORS
330
19
102
}
100
AcDbDictionary
  0
DICTIONARY
  5
1B
102
{ACAD_REACTORS
330
19
102
}
100
AcDbDictionary
  3
STANDARD
350
1C
  0
MLINESTYLE
  5
1C
102
{ACAD_REACTORS
330
1B
102
}
100
AcDbMlineStyle
  2
STANDARD
 70
         0
  3

 62
         0
 51
90.0
 52
90.0
 71
         2
 49
0.5
 62
       256
  6
BYLAYER
 49
-0.5
 62
       256
  6
BYLAYER
  0
ENDSEC
  0
EOF
