  0
SECTION
  2
HEADER
  9
$ACADVER
  1
AC1014
  9
$ACADMAINTVER
 70
         0
  9
$DWGCODEPAGE
  3
BIG5
  9
$INSBASE
 10
0.0
 20
0.0
 30
0.0
  9
$EXTMIN
 10
1098.3204642889
 20
-221.5825950512
 30
0.0
  9
$EXTMAX
 10
2022.2733143179
 20
244.2457734737
 30
0.0
  9
$LIMMIN
 10
0.0
 20
0.0
  9
$LIMMAX
 10
0.0
 20
0.0
  9
$ORTHOMODE
 70
         0
  9
$REGENMODE
 70
         1
  9
$FILLMODE
 70
         1
  9
$QTEXTMODE
 70
         0
  9
$MIRRTEXT
 70
         1
  9
$DRAGMODE
 70
         2
  9
$LTSCALE
 40
1.0
  9
$OSMODE
 70
         0
  9
$ATTMODE
 70
         1
  9
$TEXTSIZE
 40
2.7
  9
$TRACEWID
 40
0.05
  9
$TEXTSTYLE
  7
STANDARD
  9
$CLAYER
  8
0
  9
$CELTYPE
  6
CONTINUOUS
  9
$CECOLOR
 62
         4
  9
$CELTSCALE
 40
1.0
  9
$DELOBJ
 70
         1
  9
$DISPSILH
 70
         0
  9
$DIMSCALE
 40
1.0
  9
$DIMASZ
 40
0.18
  9
$DIMEXO
 40
0.0625
  9
$DIMDLI
 40
0.38
  9
$DIMRND
 40
0.0
  9
$DIMDLE
 40
0.0
  9
$DIMEXE
 40
0.25
  9
$DIMTP
 40
0.01
  9
$DIMTM
 40
-0.01
  9
$DIMTXT
 40
3.5
  9
$DIMCEN
 40
0.09
  9
$DIMTSZ
 40
0.0
  9
$DIMTOL
 70
         0
  9
$DIMLIM
 70
         0
  9
$DIMTIH
 70
         1
  9
$DIMTOH
 70
         1
  9
$DIMSE1
 70
         0
  9
$DIMSE2
 70
         0
  9
$DIMTAD
 70
         0
  9
$DIMZIN
 70
         0
  9
$DIMBLK
  1

  9
$DIMASO
 70
         1
  9
$DIMSHO
 70
         1
  9
$DIMPOST
  1

  9
$DIMAPOST
  1

  9
$DIMALT
 70
         0
  9
$DIMALTD
 70
         2
  9
$DIMALTF
 40
25.4
  9
$DIMLFAC
 40
1.0
  9
$DIMTOFL
 70
         0
  9
$DIMTVP
 40
0.0
  9
$DIMTIX
 70
         0
  9
$DIMSOXD
 70
         0
  9
$DIMSAH
 70
         0
  9
$DIMBLK1
  1

  9
$DIMBLK2
  1

  9
$DIMSTYLE
  2
STANDARD
  9
$DIMCLRD
 70
         0
  9
$DIMCLRE
 70
         0
  9
$DIMCLRT
 70
         4
  9
$DIMTFAC
 40
1.0
  9
$DIMGAP
 40
0.09
  9
$DIMJUST
 70
         0
  9
$DIMSD1
 70
         0
  9
$DIMSD2
 70
         0
  9
$DIMTOLJ
 70
         1
  9
$DIMTZIN
 70
         0
  9
$DIMALTZ
 70
         0
  9
$DIMALTTZ
 70
         0
  9
$DIMFIT
 70
         3
  9
$DIMUPT
 70
         0
  9
$DIMUNIT
 70
         2
  9
$DIMDEC
 70
         4
  9
$DIMTDEC
 70
         4
  9
$DIMALTU
 70
         2
  9
$DIMALTTD
 70
         2
  9
$DIMTXSTY
  7
STANDARD
  9
$DIMAUNIT
 70
         0
  9
$LUNITS
 70
         2
  9
$LUPREC
 70
        10
  9
$SKETCHINC
 40
0.1
  9
$FILLETRAD
 40
0.0
  9
$AUNITS
 70
         0
  9
$AUPREC
 70
         0
  9
$MENU
  1
acad
  9
$ELEVATION
 40
0.0
  9
$PELEVATION
 40
0.0
  9
$THICKNESS
 40
0.0
  9
$LIMCHECK
 70
         0
  9
$BLIPMODE
 70
         1
  9
$CHAMFERA
 40
0.0
  9
$CHAMFERB
 40
0.0
  9
$CHAMFERC
 40
0.0
  9
$CHAMFERD
 40
0.0
  9
$SKPOLY
 70
         0
  9
$TDCREATE
 40
0.000000000
  9
$TDUPDATE
 40
0.000000000
  9
$TDINDWG
 40
0.0000000000
  9
$TDUSRTIMER
 40
0.0000000000
  9
$USRTIMER
 70
         1
  9
$ANGBASE
 50
0.0
  9
$ANGDIR
 70
         0
  9
$PDMODE
 70
         2
  9
$PDSIZE
 40
0.0
  9
$PLINEWID
 40
0.0
  9
$COORDS
 70
         1
  9
$SPLFRAME
 70
         0
  9
$SPLINETYPE
 70
         6
  9
$SPLINESEGS
 70
         8
  9
$ATTDIA
 70
         0
  9
$ATTREQ
 70
         1
  9
$HANDLING
 70
         1
  9
$HANDSEED
  5
7D9
  9
$SURFTAB1
 70
         6
  9
$SURFTAB2
 70
         6
  9
$SURFTYPE
 70
         6
  9
$SURFU
 70
         6
  9
$SURFV
 70
         6
  9
$UCSNAME
  2

  9
$UCSORG
 10
0.0
 20
0.0
 30
0.0
  9
$UCSXDIR
 10
1.0
 20
0.0
 30
0.0
  9
$UCSYDIR
 10
0.0
 20
1.0
 30
0.0
  9
$PUCSNAME
  2

  9
$PUCSORG
 10
0.0
 20
0.0
 30
0.0
  9
$PUCSXDIR
 10
1.0
 20
0.0
 30
0.0
  9
$PUCSYDIR
 10
0.0
 20
1.0
 30
0.0
  9
$USERI1
 70
         0
  9
$USERI2
 70
         0
  9
$USERI3
 70
         0
  9
$USERI4
 70
         0
  9
$USERI5
 70
         0
  9
$USERR1
 40
0.0
  9
$USERR2
 40
0.0
  9
$USERR3
 40
0.0
  9
$USERR4
 40
0.0
  9
$USERR5
 40
0.0
  9
$WORLDVIEW
 70
         1
  9
$SHADEDGE
 70
         3
  9
$SHADEDIF
 70
        70
  9
$TILEMODE
 70
         1
  9
$MAXACTVP
 70
        16
  9
$PINSBASE
 10
0.0
 20
0.0
 30
0.0
  9
$PLIMCHECK
 70
         0
  9
$PEXTMIN
 10
1.0000000000E+20
 20
1.0000000000E+20
 30
1.0000000000E+20
  9
$PEXTMAX
 10
-1.0000000000E+20
 20
-1.0000000000E+20
 30
-1.0000000000E+20
  9
$PLIMMIN
 10
0.0
 20
0.0
  9
$PLIMMAX
 10
12.0
 20
9.0
  9
$UNITMODE
 70
         0
  9
$VISRETAIN
 70
         0
  9
$PLINEGEN
 70
         1
  9
$PSLTSCALE
 70
         0
  9
$TREEDEPTH
 70
      3020
  9
$PICKSTYLE
 70
         1
  9
$CMLSTYLE
  2
STANDARD
  9
$CMLJUST
 70
         0
  9
$CMLSCALE
 40
1.0
  9
$PROXYGRAPHICS
 70
         0
  9
$MEASUREMENT
 70
         0
  0
ENDSEC
  0
SECTION
  2
CLASSES
  0
CLASS
  1
LWPOLYLINE
  2
AcDbPolyline
  3
"AutoCAD"
 90
        0
280
         0
281
         1
  0
CLASS
  1
IMAGE
  2
AcDbRasterImage
  3
ISM
 90
      127
280
         0
281
         1
  0
CLASS
  1
OLE2FRAME
  2
AcDbOle2Frame
  3
""
 90
        0
280
         0
281
         1
  0
CLASS
  1
HATCH
  2
AcDbHatch
  3
"ACAD_SEDONA"
 90
        0
280
         0
281
         1
  0
CLASS
  1
DICTIONARYVAR
  2
AcDbDictionaryVar
  3
"AutoCAD"
 90
        0
280
         0
281
         0
  0
CLASS
  1
RASTERVARIABLES
  2
AcDbRasterVariables
  3
ISM
 90
        0
280
         0
281
         0
  0
CLASS
  1
IMAGEDEF
  2
AcDbRasterImageDef
  3
ISM
 90
        0
280
         0
281
         0
  0
CLASS
  1
IMAGEDEF_REACTOR
  2
AcDbRasterImageDefReactor
  3
ISM
 90
        1
280
         0
281
         0
  0
CLASS
  1
IDBUFFER
  2
AcDbIdBuffer
  3
"Acad"
 90
        0
280
         0
281
         0
  0
CLASS
  1
SPATIAL_FILTER
  2
AcDbSpatialFilter
  3
"Acad"
 90
        0
280
         0
281
         0
  0
CLASS
  1
XRECORD
  2
AcDbXrecord
  3
"<Built In>"
 90
        0
280
         0
281
         0
  0
CLASS
  1
SORTENTSTABLE
  2
AcDbSortentsTable
  3
"AutoCAD"
 90
        0
280
         0
281
         0
  0
CLASS
  1
LAYER_INDEX
  2
AcDbLayerIndex
  3
"Acad"
 90
        0
280
         0
281
         0
  0
CLASS
  1
SPATIAL_INDEX
  2
AcDbSpatialIndex
  3
"Acad"
 90
        0
280
         0
281
         0
  0
CLASS
  1
OBJECT_PTR
  2
CAseDLPNTableRecord
  3
"ASE-LPNTableRecord"
 90
        1
280
         0
281
         0
  0
CLASS
  1
LAYOUT
  2
AcDbLayout
  3
"AutoCAD 2000"
 90
        1
280
         0
281
         0
  0
CLASS
  1
PLOTSETTINGS
  2
AcDbPlotSettings
  3
"AutoCAD 2000"
 90
        1
280
         0
281
         0
  0
CLASS
  1
ACDBDICTIONARYWDFLT
  2
AcDbDictionaryWithDefault
  3
"AutoCAD 2000"
 90
        1
280
         0
281
         0
  0
CLASS
  1
ACDBPLACEHOLDER
  2
AcDbPlaceHolder
  3
"AutoCAD 2000"
 90
        1
280
         0
281
         0
  0
CLASS
  1
VBA_PROJECT
  2
AcDbVbaProject
  3
"acadvba"
 90
        1
280
         0
281
         0
  0
CLASS
  1
WIPEOUT
  2
AcDbWipeout
  3
WipeOut|AutoCAD Express Tool|expresstools@autodesk.com
 90
      127
280
         0
281
         1
  0
CLASS
  1
WIPEOUTVARIABLES
  2
AcDbWipeoutVariables
  3
WipeOut|AutoCAD Express Tool|expresstools@autodesk.com
 90
        0
280
         0
281
         0
  0
CLASS
  1
RTEXT
  2
RText
  3
RText|AutoCAD Express Tool|expresstools@autodesk.com
 90
        0
280
         0
281
         1
  0
CLASS
  1
ARCALIGNEDTEXT
  2
AcDbArcAlignedText
  3
ATEXT|AutoCAD Express Tool|expresstools@autodesk.com
 90
        0
280
         0
281
         1
  0
ENDSEC
  0
SECTION
  2
TABLES
  0
TABLE
  2
VPORT
  5
7
100
AcDbSymbolTable
 70
         1
  0
VPORT
  5
15
100
AcDbSymbolTableRecord
100
AcDbViewportTableRecord
  2
*ACTIVE
 70
         0
 10
0.0
 20
0.0
 11
1.0
 21
1.0
 12
1560.2968893034
 22
11.3315892113
 13
0.0
 23
0.0
 14
1.0
 24
1.0
 15
0.0
 25
0.0
 16
0.0
 26
0.0
 36
1.0
 17
0.0
 27
0.0
 37
0.0
 40
465.8283685249
 41
1.9834619625
 42
50.0
 43
0.0
 44
0.0
 50
0.0
 51
0.0
 71
         0
 72
       100
 73
         1
 74
         1
 75
         0
 76
         0
 77
         0
 78
         0
  0
ENDTAB
  0
TABLE
  2
LTYPE
  5
4
100
AcDbSymbolTable
 70
         6
  0
LTYPE
  5
11
100
AcDbSymbolTableRecord
100
AcDbLinetypeTableRecord
  2
BYBLOCK
 70
        64
  3

 72
        65
 73
         0
 40
0.0
  0
LTYPE
  5
12
100
AcDbSymbolTableRecord
100
AcDbLinetypeTableRecord
  2
BYLAYER
 70
        64
  3

 72
        65
 73
         0
 40
0.0
  0
LTYPE
  5
13
100
AcDbSymbolTableRecord
100
AcDbLinetypeTableRecord
  2
CONTINUOUS
 70
        64
  3
Solid line
 72
        65
 73
         0
 40
0.0
  0
LTYPE
  5
1D
100
AcDbSymbolTableRecord
100
AcDbLinetypeTableRecord
  2
DASHED
 70
        64
  3
_ _ _ _ _ _ _ _ _ _ _ _ _ _ _ _
 72
        65
 73
         2
 40
0.2
 49
0.1
 74
         0
 49
-0.1
 74
         0
  0
LTYPE
  5
1E
100
AcDbSymbolTableRecord
100
AcDbLinetypeTableRecord
  2
CENTER
 70
        64
  3
___ _ ___ _ ___ _ ___ _ ___ _ ___ _ ___ _ ___ _
 72
        65
 73
         4
 40
0.95
 49
0.625
 74
         0
 49
-0.125
 74
         0
 49
0.075
 74
         0
 49
-0.125
 74
         0
  0
LTYPE
  5
1F
100
AcDbSymbolTableRecord
100
AcDbLinetypeTableRecord
  2
PHANTOM
 70
        64
  3
______  __  __  ______  __  __  ______  __  __  
 72
        65
 73
         6
 40
1.025
 49
0.625
 74
         0
 49
-0.125
 74
         0
 49
0.075
 74
         0
 49
-0.125
 74
         0
 49
0.075
 74
         0
 49
-0.125
 74
         0
  0
ENDTAB
  0
TABLE
  2
LAYER
  5
2
100
AcDbSymbolTable
 70
         5
  0
LAYER
  5
14
100
AcDbSymbolTableRecord
100
AcDbLayerTableRecord
  2
0
 70
         0
 62
         7
  6
CONTINUOUS
  0
LAYER
  5
21
100
AcDbSymbolTableRecord
100
AcDbLayerTableRecord
  2
_____U
 70
         1
 62
         7
  6
CONTINUOUS
  0
LAYER
  5
22
100
AcDbSymbolTableRecord
100
AcDbLayerTableRecord
  2
_Y__________
 70
         0
 62
         7
  6
CONTINUOUS
  0
LAYER
  5
23
100
AcDbSymbolTableRecord
100
AcDbLayerTableRecord
  2
L1_130
 70
         0
 62
         7
  6
CONTINUOUS
  0
LAYER
  5
35
100
AcDbSymbolTableRecord
100
AcDbLayerTableRecord
  2
DEFPOINTS
 70
         0
 62
        -7
  6
CONTINUOUS
  0
ENDTAB
  0
TABLE
  2
STYLE
  5
3
100
AcDbSymbolTable
 70
        62
  0
STYLE
  5
17
100
AcDbSymbolTableRecord
100
AcDbTextStyleTableRecord
  2
STANDARD
 70
         0
 40
0.0
 41
1.0
 50
0.0
 71
         0
 42
0.0
  3
txt
  4

  0
STYLE
  5
24
100
AcDbSymbolTableRecord
100
AcDbTextStyleTableRecord
  2
BOX
 70
         0
 40
1.0
 41
1.0
 50
0.0
 71
         0
 42
0.2
  3
txt.shx
  4

  0
STYLE
  5
3E
100
AcDbSymbolTableRecord
100
AcDbTextStyleTableRecord
  2
BOX
 70
         0
 40
1.0
 41
1.0
 50
0.0
 71
         0
 42
0.2
  3
txt.shx
  4

  0
STYLE
  5
65
100
AcDbSymbolTableRecord
100
AcDbTextStyleTableRecord
  2
BOX
 70
         0
 40
1.0
 41
1.0
 50
0.0
 71
         0
 42
0.2
  3
txt.shx
  4

  0
STYLE
  5
73
100
AcDbSymbolTableRecord
100
AcDbTextStyleTableRecord
  2
BOX
 70
         0
 40
1.0
 41
1.0
 50
0.0
 71
         0
 42
0.2
  3
txt.shx
  4

  0
STYLE
  5
8F
100
AcDbSymbolTableRecord
100
AcDbTextStyleTableRecord
  2
BOX
 70
         0
 40
1.0
 41
1.0
 50
0.0
 71
         0
 42
0.2
  3
txt.shx
  4

  0
STYLE
  5
AB
100
AcDbSymbolTableRecord
100
AcDbTextStyleTableRecord
  2
BOX
 70
         0
 40
1.0
 41
1.0
 50
0.0
 71
         0
 42
0.2
  3
txt.shx
  4

  0
STYLE
  5
B9
100
AcDbSymbolTableRecord
100
AcDbTextStyleTableRecord
  2
BOX
 70
         0
 40
1.0
 41
1.0
 50
0.0
 71
         0
 42
0.2
  3
txt.shx
  4

  0
STYLE
  5
C7
100
AcDbSymbolTableRecord
100
AcDbTextStyleTableRecord
  2
BOX
 70
         0
 40
1.0
 41
1.0
 50
0.0
 71
         0
 42
0.2
  3
txt.shx
  4

  0
STYLE
  5
D5
100
AcDbSymbolTableRecord
100
AcDbTextStyleTableRecord
  2
BOX
 70
         0
 40
1.0
 41
1.0
 50
0.0
 71
         0
 42
0.2
  3
txt.shx
  4

  0
STYLE
  5
E5
100
AcDbSymbolTableRecord
100
AcDbTextStyleTableRecord
  2
BOX
 70
         0
 40
1.0
 41
1.0
 50
0.0
 71
         0
 42
0.2
  3
txt.shx
  4

  0
STYLE
  5
F3
100
AcDbSymbolTableRecord
100
AcDbTextStyleTableRecord
  2
BOX
 70
         0
 40
1.0
 41
1.0
 50
0.0
 71
         0
 42
0.2
  3
txt.shx
  4

  0
STYLE
  5
101
100
AcDbSymbolTableRecord
100
AcDbTextStyleTableRecord
  2
BOX
 70
         0
 40
1.0
 41
1.0
 50
0.0
 71
         0
 42
0.2
  3
txt.shx
  4

  0
STYLE
  5
10F
100
AcDbSymbolTableRecord
100
AcDbTextStyleTableRecord
  2
BOX
 70
         0
 40
1.0
 41
1.0
 50
0.0
 71
         0
 42
0.2
  3
txt.shx
  4

  0
STYLE
  5
111
100
AcDbSymbolTableRecord
100
AcDbTextStyleTableRecord
  2
BOX
 70
         0
 40
1.0
 41
1.0
 50
0.0
 71
         0
 42
0.2
  3
txt.shx
  4

  0
STYLE
  5
113
100
AcDbSymbolTableRecord
100
AcDbTextStyleTableRecord
  2
BOX
 70
         0
 40
1.0
 41
1.0
 50
0.0
 71
         0
 42
0.2
  3
txt.shx
  4

  0
STYLE
  5
140
100
AcDbSymbolTableRecord
100
AcDbTextStyleTableRecord
  2
BOX
 70
         0
 40
1.0
 41
1.0
 50
0.0
 71
         0
 42
0.2
  3
txt.shx
  4

  0
STYLE
  5
169
100
AcDbSymbolTableRecord
100
AcDbTextStyleTableRecord
  2
BOX
 70
         0
 40
1.0
 41
1.0
 50
0.0
 71
         0
 42
0.2
  3
txt.shx
  4

  0
STYLE
  5
177
100
AcDbSymbolTableRecord
100
AcDbTextStyleTableRecord
  2
BOX
 70
         0
 40
1.0
 41
1.0
 50
0.0
 71
         0
 42
0.2
  3
txt.shx
  4

  0
STYLE
  5
185
100
AcDbSymbolTableRecord
100
AcDbTextStyleTableRecord
  2
BOX
 70
         0
 40
1.0
 41
1.0
 50
0.0
 71
         0
 42
0.2
  3
txt.shx
  4

  0
STYLE
  5
195
100
AcDbSymbolTableRecord
100
AcDbTextStyleTableRecord
  2
BOX
 70
         0
 40
1.0
 41
1.0
 50
0.0
 71
         0
 42
0.2
  3
txt.shx
  4

  0
STYLE
  5
26C
100
AcDbSymbolTableRecord
100
AcDbTextStyleTableRecord
  2
BOX
 70
         0
 40
1.0
 41
1.0
 50
0.0
 71
         0
 42
0.2
  3
txt.shx
  4

  0
STYLE
  5
28E
100
AcDbSymbolTableRecord
100
AcDbTextStyleTableRecord
  2
BOX
 70
         0
 40
1.0
 41
1.0
 50
0.0
 71
         0
 42
0.2
  3
txt.shx
  4

  0
STYLE
  5
29C
100
AcDbSymbolTableRecord
100
AcDbTextStyleTableRecord
  2
BOX
 70
         0
 40
1.0
 41
1.0
 50
0.0
 71
         0
 42
0.2
  3
txt.shx
  4

  0
STYLE
  5
2AA
100
AcDbSymbolTableRecord
100
AcDbTextStyleTableRecord
  2
BOX
 70
         0
 40
1.0
 41
1.0
 50
0.0
 71
         0
 42
0.2
  3
txt.shx
  4

  0
STYLE
  5
2C6
100
AcDbSymbolTableRecord
100
AcDbTextStyleTableRecord
  2
BOX
 70
         0
 40
1.0
 41
1.0
 50
0.0
 71
         0
 42
0.2
  3
txt.shx
  4

  0
STYLE
  5
2D4
100
AcDbSymbolTableRecord
100
AcDbTextStyleTableRecord
  2
BOX
 70
         0
 40
1.0
 41
1.0
 50
0.0
 71
         0
 42
0.2
  3
txt.shx
  4

  0
STYLE
  5
409
100
AcDbSymbolTableRecord
100
AcDbTextStyleTableRecord
  2
BOX
 70
         0
 40
1.0
 41
1.0
 50
0.0
 71
         0
 42
0.2
  3
txt.shx
  4

  0
STYLE
  5
417
100
AcDbSymbolTableRecord
100
AcDbTextStyleTableRecord
  2
BOX
 70
         0
 40
1.0
 41
1.0
 50
0.0
 71
         0
 42
0.2
  3
txt.shx
  4

  0
STYLE
  5
425
100
AcDbSymbolTableRecord
100
AcDbTextStyleTableRecord
  2
BOX
 70
         0
 40
1.0
 41
1.0
 50
0.0
 71
         0
 42
0.2
  3
txt.shx
  4

  0
STYLE
  5
433
100
AcDbSymbolTableRecord
100
AcDbTextStyleTableRecord
  2
BOX
 70
         0
 40
1.0
 41
1.0
 50
0.0
 71
         0
 42
0.2
  3
txt.shx
  4

  0
STYLE
  5
441
100
AcDbSymbolTableRecord
100
AcDbTextStyleTableRecord
  2
BOX
 70
         0
 40
1.0
 41
1.0
 50
0.0
 71
         0
 42
0.2
  3
txt.shx
  4

  0
STYLE
  5
465
100
AcDbSymbolTableRecord
100
AcDbTextStyleTableRecord
  2
BOX
 70
         0
 40
1.0
 41
1.0
 50
0.0
 71
         0
 42
0.2
  3
txt.shx
  4

  0
STYLE
  5
473
100
AcDbSymbolTableRecord
100
AcDbTextStyleTableRecord
  2
BOX
 70
         0
 40
1.0
 41
1.0
 50
0.0
 71
         0
 42
0.2
  3
txt.shx
  4

  0
STYLE
  5
483
100
AcDbSymbolTableRecord
100
AcDbTextStyleTableRecord
  2
BOX
 70
         0
 40
1.0
 41
1.0
 50
0.0
 71
         0
 42
0.2
  3
txt.shx
  4

  0
STYLE
  5
493
100
AcDbSymbolTableRecord
100
AcDbTextStyleTableRecord
  2
BOX
 70
         0
 40
1.0
 41
1.0
 50
0.0
 71
         0
 42
0.2
  3
txt.shx
  4

  0
STYLE
  5
4C0
100
AcDbSymbolTableRecord
100
AcDbTextStyleTableRecord
  2
BOX
 70
         0
 40
1.0
 41
1.0
 50
0.0
 71
         0
 42
0.2
  3
txt.shx
  4

  0
STYLE
  5
4CE
100
AcDbSymbolTableRecord
100
AcDbTextStyleTableRecord
  2
BOX
 70
         0
 40
1.0
 41
1.0
 50
0.0
 71
         0
 42
0.2
  3
txt.shx
  4

  0
STYLE
  5
4DC
100
AcDbSymbolTableRecord
100
AcDbTextStyleTableRecord
  2
BOX
 70
         0
 40
1.0
 41
1.0
 50
0.0
 71
         0
 42
0.2
  3
txt.shx
  4

  0
STYLE
  5
4EA
100
AcDbSymbolTableRecord
100
AcDbTextStyleTableRecord
  2
BOX
 70
         0
 40
1.0
 41
1.0
 50
0.0
 71
         0
 42
0.2
  3
txt.shx
  4

  0
STYLE
  5
511
100
AcDbSymbolTableRecord
100
AcDbTextStyleTableRecord
  2
BOX
 70
         0
 40
1.0
 41
1.0
 50
0.0
 71
         0
 42
0.2
  3
txt.shx
  4

  0
STYLE
  5
51F
100
AcDbSymbolTableRecord
100
AcDbTextStyleTableRecord
  2
BOX
 70
         0
 40
1.0
 41
1.0
 50
0.0
 71
         0
 42
0.2
  3
txt.shx
  4

  0
STYLE
  5
528
100
AcDbSymbolTableRecord
100
AcDbTextStyleTableRecord
  2
BOX
 70
         0
 40
1.0
 41
1.0
 50
0.0
 71
         0
 42
0.2
  3
txt.shx
  4

  0
STYLE
  5
535
100
AcDbSymbolTableRecord
100
AcDbTextStyleTableRecord
  2
BOX
 70
         0
 40
1.0
 41
1.0
 50
0.0
 71
         0
 42
0.2
  3
txt.shx
  4

  0
STYLE
  5
538
100
AcDbSymbolTableRecord
100
AcDbTextStyleTableRecord
  2
BOX
 70
         0
 40
1.0
 41
1.0
 50
0.0
 71
         0
 42
0.2
  3
txt.shx
  4

  0
STYLE
  5
545
100
AcDbSymbolTableRecord
100
AcDbTextStyleTableRecord
  2
BOX
 70
         0
 40
1.0
 41
1.0
 50
0.0
 71
         0
 42
0.2
  3
txt.shx
  4

  0
STYLE
  5
556
100
AcDbSymbolTableRecord
100
AcDbTextStyleTableRecord
  2
BOX
 70
         0
 40
1.0
 41
1.0
 50
0.0
 71
         0
 42
0.2
  3
txt.shx
  4

  0
STYLE
  5
565
100
AcDbSymbolTableRecord
100
AcDbTextStyleTableRecord
  2
BOX
 70
         0
 40
1.0
 41
1.0
 50
0.0
 71
         0
 42
0.2
  3
txt.shx
  4

  0
STYLE
  5
573
100
AcDbSymbolTableRecord
100
AcDbTextStyleTableRecord
  2
BOX
 70
         0
 40
1.0
 41
1.0
 50
0.0
 71
         0
 42
0.2
  3
txt.shx
  4

  0
STYLE
  5
587
100
AcDbSymbolTableRecord
100
AcDbTextStyleTableRecord
  2
BOX
 70
         0
 40
1.0
 41
1.0
 50
0.0
 71
         0
 42
0.2
  3
txt.shx
  4

  0
STYLE
  5
595
100
AcDbSymbolTableRecord
100
AcDbTextStyleTableRecord
  2
BOX
 70
         0
 40
1.0
 41
1.0
 50
0.0
 71
         0
 42
0.2
  3
txt.shx
  4

  0
STYLE
  5
5A3
100
AcDbSymbolTableRecord
100
AcDbTextStyleTableRecord
  2
BOX
 70
         0
 40
1.0
 41
1.0
 50
0.0
 71
         0
 42
0.2
  3
txt.shx
  4

  0
STYLE
  5
5B5
100
AcDbSymbolTableRecord
100
AcDbTextStyleTableRecord
  2
BOX
 70
         0
 40
1.0
 41
1.0
 50
0.0
 71
         0
 42
0.2
  3
txt.shx
  4

  0
STYLE
  5
5C7
100
AcDbSymbolTableRecord
100
AcDbTextStyleTableRecord
  2
BOX
 70
         0
 40
1.0
 41
1.0
 50
0.0
 71
         0
 42
0.2
  3
txt.shx
  4

  0
STYLE
  5
5D4
100
AcDbSymbolTableRecord
100
AcDbTextStyleTableRecord
  2
BOX
 70
         0
 40
1.0
 41
1.0
 50
0.0
 71
         0
 42
0.2
  3
txt.shx
  4

  0
STYLE
  5
5E1
100
AcDbSymbolTableRecord
100
AcDbTextStyleTableRecord
  2
BOX
 70
         0
 40
1.0
 41
1.0
 50
0.0
 71
         0
 42
0.2
  3
txt.shx
  4

  0
STYLE
  5
5F1
100
AcDbSymbolTableRecord
100
AcDbTextStyleTableRecord
  2
BOX
 70
         0
 40
1.0
 41
1.0
 50
0.0
 71
         0
 42
0.2
  3
txt.shx
  4

  0
STYLE
  5
5FE
100
AcDbSymbolTableRecord
100
AcDbTextStyleTableRecord
  2
BOX
 70
         0
 40
1.0
 41
1.0
 50
0.0
 71
         0
 42
0.2
  3
txt.shx
  4

  0
STYLE
  5
60E
100
AcDbSymbolTableRecord
100
AcDbTextStyleTableRecord
  2
BOX
 70
         0
 40
1.0
 41
1.0
 50
0.0
 71
         0
 42
0.2
  3
txt.shx
  4

  0
STYLE
  5
61E
100
AcDbSymbolTableRecord
100
AcDbTextStyleTableRecord
  2
BOX
 70
         0
 40
1.0
 41
1.0
 50
0.0
 71
         0
 42
0.2
  3
txt.shx
  4

  0
STYLE
  5
62E
100
AcDbSymbolTableRecord
100
AcDbTextStyleTableRecord
  2
BOX
 70
         0
 40
1.0
 41
1.0
 50
0.0
 71
         0
 42
0.2
  3
txt.shx
  4

  0
STYLE
  5
7D6
100
AcDbSymbolTableRecord
100
AcDbTextStyleTableRecord
  2
BOX
 70
         0
 40
1.0
 41
1.0
 50
0.0
 71
         0
 42
0.2
  3
txt.shx
  4

  0
ENDTAB
  0
TABLE
  2
VIEW
  5
5
100
AcDbSymbolTable
 70
         0
  0
ENDTAB
  0
TABLE
  2
UCS
  5
6
100
AcDbSymbolTable
 70
         1
  0
UCS
  5
20
100
AcDbSymbolTableRecord
100
AcDbUCSTableRecord
  2
CK_VIEW_1
 70
         0
 10
0.0
 20
0.0
 30
1.0
 11
1.0
 21
0.0
 31
0.0
 12
0.0
 22
1.0
 32
0.0
  0
ENDTAB
  0
TABLE
  2
APPID
  5
8
100
AcDbSymbolTable
 70
         1
  0
APPID
  5
16
100
AcDbSymbolTableRecord
100
AcDbRegAppTableRecord
  2
ACAD
 70
         0
  0
ENDTAB
  0
TABLE
  2
DIMSTYLE
  5
9
100
AcDbSymbolTable
 70
         3
  0
DIMSTYLE
105
18
100
AcDbSymbolTableRecord
100
AcDbDimStyleTableRecord
  2
STANDARD
 70
         0
  3

  4

  5

  6

  7

 40
1.0
 41
0.18
 42
0.0625
 43
0.38
 44
0.18
 45
0.0
 46
0.0
 47
0.0
 48
0.0
 71
         0
 72
         0
 73
         1
 74
         1
 75
         0
 76
         0
 77
         0
 78
         0
140
0.18
141
0.09
142
0.0
143
25.4
144
1.0
145
0.0
146
1.0
147
0.09
170
         0
171
         2
172
         0
173
         0
174
         0
175
         0
176
         0
177
         0
178
         0
270
         2
271
         4
272
         4
273
         2
274
         2
275
         0
280
         0
281
         0
282
         0
283
         1
284
         0
285
         0
286
         0
287
         0
288
         0
340
17
  0
DIMSTYLE
105
31
100
AcDbSymbolTableRecord
100
AcDbDimStyleTableRecord
  2
DIMSTYLE1
 70
         0
  3

  4

  5

  6

  7

 40
1.0
 41
3.5
 42
0.0625
 43
0.38
 44
3.5
 45
0.0
 46
0.0
 47
0.0
 48
0.0
 71
         0
 72
         0
 73
         1
 74
         1
 75
         0
 76
         0
 77
         0
 78
         0
140
3.5
141
0.09
142
0.0
143
25.4
144
1.0
145
0.0
146
1.0
147
0.09
170
         0
171
         2
172
         0
173
         0
174
         0
175
         0
176
         0
177
         0
178
         0
270
         2
271
         4
272
         4
273
         2
274
         2
275
         0
280
         0
281
         0
282
         0
283
         1
284
         0
285
         0
286
         0
287
         0
288
         0
340
17
  0
DIMSTYLE
105
282
100
AcDbSymbolTableRecord
100
AcDbDimStyleTableRecord
  2
DIMSTYLE2
 70
         0
  3

  4

  5

  6

  7

 40
1.0
 41
2.7
 42
0.0625
 43
0.38
 44
2.7
 45
0.0
 46
0.0
 47
0.0
 48
0.0
 71
         0
 72
         0
 73
         1
 74
         1
 75
         0
 76
         0
 77
         0
 78
         0
140
2.7
141
0.09
142
0.0
143
25.4
144
1.0
145
0.0
146
1.0
147
0.09
170
         0
171
         2
172
         0
173
         0
174
         0
175
         0
176
         0
177
         0
178
         0
270
         2
271
         4
272
         4
273
         2
274
         2
275
         0
280
         0
281
         0
282
         0
283
         1
284
         0
285
         0
286
         0
287
         0
288
         0
340
17
  0
ENDTAB
  0
TABLE
  2
BLOCK_RECORD
  5
1
100
AcDbSymbolTable
 70
        57
  0
BLOCK_RECORD
  5
A
100
AcDbSymbolTableRecord
100
AcDbBlockTableRecord
  2
*MODEL_SPACE
  0
BLOCK_RECORD
  5
B
100
AcDbSymbolTableRecord
100
AcDbBlockTableRecord
  2
*PAPER_SPACE
  0
BLOCK_RECORD
  5
32
100
AcDbSymbolTableRecord
100
AcDbBlockTableRecord
  2
*D0
  0
BLOCK_RECORD
  5
5A
100
AcDbSymbolTableRecord
100
AcDbBlockTableRecord
  2
*D1
  0
BLOCK_RECORD
  5
68
100
AcDbSymbolTableRecord
100
AcDbBlockTableRecord
  2
*D2
  0
BLOCK_RECORD
  5
84
100
AcDbSymbolTableRecord
100
AcDbBlockTableRecord
  2
*D3
  0
BLOCK_RECORD
  5
9E
100
AcDbSymbolTableRecord
100
AcDbBlockTableRecord
  2
*D4
  0
BLOCK_RECORD
  5
AE
100
AcDbSymbolTableRecord
100
AcDbBlockTableRecord
  2
*D5
  0
BLOCK_RECORD
  5
BC
100
AcDbSymbolTableRecord
100
AcDbBlockTableRecord
  2
*D6
  0
BLOCK_RECORD
  5
CA
100
AcDbSymbolTableRecord
100
AcDbBlockTableRecord
  2
*D7
  0
BLOCK_RECORD
  5
DA
100
AcDbSymbolTableRecord
100
AcDbBlockTableRecord
  2
*D8
  0
BLOCK_RECORD
  5
E8
100
AcDbSymbolTableRecord
100
AcDbBlockTableRecord
  2
*D9
  0
BLOCK_RECORD
  5
F6
100
AcDbSymbolTableRecord
100
AcDbBlockTableRecord
  2
*D10
  0
BLOCK_RECORD
  5
104
100
AcDbSymbolTableRecord
100
AcDbBlockTableRecord
  2
*D11
  0
BLOCK_RECORD
  5
135
100
AcDbSymbolTableRecord
100
AcDbBlockTableRecord
  2
*D12
  0
BLOCK_RECORD
  5
15E
100
AcDbSymbolTableRecord
100
AcDbBlockTableRecord
  2
*D13
  0
BLOCK_RECORD
  5
16C
100
AcDbSymbolTableRecord
100
AcDbBlockTableRecord
  2
*D14
  0
BLOCK_RECORD
  5
17A
100
AcDbSymbolTableRecord
100
AcDbBlockTableRecord
  2
*D15
  0
BLOCK_RECORD
  5
18A
100
AcDbSymbolTableRecord
100
AcDbBlockTableRecord
  2
*D16
  0
BLOCK_RECORD
  5
261
100
AcDbSymbolTableRecord
100
AcDbBlockTableRecord
  2
*D17
  0
BLOCK_RECORD
  5
283
100
AcDbSymbolTableRecord
100
AcDbBlockTableRecord
  2
*D18
  0
BLOCK_RECORD
  5
291
100
AcDbSymbolTableRecord
100
AcDbBlockTableRecord
  2
*D19
  0
BLOCK_RECORD
  5
29F
100
AcDbSymbolTableRecord
100
AcDbBlockTableRecord
  2
*D20
  0
BLOCK_RECORD
  5
2BB
100
AcDbSymbolTableRecord
100
AcDbBlockTableRecord
  2
*D21
  0
BLOCK_RECORD
  5
2C9
100
AcDbSymbolTableRecord
100
AcDbBlockTableRecord
  2
*D22
  0
BLOCK_RECORD
  5
3FE
100
AcDbSymbolTableRecord
100
AcDbBlockTableRecord
  2
*D23
  0
BLOCK_RECORD
  5
40C
100
AcDbSymbolTableRecord
100
AcDbBlockTableRecord
  2
*D24
  0
BLOCK_RECORD
  5
41A
100
AcDbSymbolTableRecord
100
AcDbBlockTableRecord
  2
*D25
  0
BLOCK_RECORD
  5
428
100
AcDbSymbolTableRecord
100
AcDbBlockTableRecord
  2
*D26
  0
BLOCK_RECORD
  5
436
100
AcDbSymbolTableRecord
100
AcDbBlockTableRecord
  2
*D27
  0
BLOCK_RECORD
  5
45A
100
AcDbSymbolTableRecord
100
AcDbBlockTableRecord
  2
*D28
  0
BLOCK_RECORD
  5
468
100
AcDbSymbolTableRecord
100
AcDbBlockTableRecord
  2
*D29
  0
BLOCK_RECORD
  5
476
100
AcDbSymbolTableRecord
100
AcDbBlockTableRecord
  2
*D30
  0
BLOCK_RECORD
  5
486
100
AcDbSymbolTableRecord
100
AcDbBlockTableRecord
  2
*D31
  0
BLOCK_RECORD
  5
4B5
100
AcDbSymbolTableRecord
100
AcDbBlockTableRecord
  2
*D32
  0
BLOCK_RECORD
  5
4C3
100
AcDbSymbolTableRecord
100
AcDbBlockTableRecord
  2
*D33
  0
BLOCK_RECORD
  5
4D1
100
AcDbSymbolTableRecord
100
AcDbBlockTableRecord
  2
*D34
  0
BLOCK_RECORD
  5
4DF
100
AcDbSymbolTableRecord
100
AcDbBlockTableRecord
  2
*D35
  0
BLOCK_RECORD
  5
506
100
AcDbSymbolTableRecord
100
AcDbBlockTableRecord
  2
*D36
  0
BLOCK_RECORD
  5
514
100
AcDbSymbolTableRecord
100
AcDbBlockTableRecord
  2
*D37
  0
BLOCK_RECORD
  5
52A
100
AcDbSymbolTableRecord
100
AcDbBlockTableRecord
  2
*D38
  0
BLOCK_RECORD
  5
53A
100
AcDbSymbolTableRecord
100
AcDbBlockTableRecord
  2
*D39
  0
BLOCK_RECORD
  5
54C
100
AcDbSymbolTableRecord
100
AcDbBlockTableRecord
  2
*D40
  0
BLOCK_RECORD
  5
55A
100
AcDbSymbolTableRecord
100
AcDbBlockTableRecord
  2
*D41
  0
BLOCK_RECORD
  5
568
100
AcDbSymbolTableRecord
100
AcDbBlockTableRecord
  2
*D42
  0
BLOCK_RECORD
  5
57C
100
AcDbSymbolTableRecord
100
AcDbBlockTableRecord
  2
*D43
  0
BLOCK_RECORD
  5
58A
100
AcDbSymbolTableRecord
100
AcDbBlockTableRecord
  2
*D44
  0
BLOCK_RECORD
  5
598
100
AcDbSymbolTableRecord
100
AcDbBlockTableRecord
  2
*D45
  0
BLOCK_RECORD
  5
5AA
100
AcDbSymbolTableRecord
100
AcDbBlockTableRecord
  2
*D46
  0
BLOCK_RECORD
  5
5BD
100
AcDbSymbolTableRecord
100
AcDbBlockTableRecord
  2
*D47
  0
BLOCK_RECORD
  5
5CA
100
AcDbSymbolTableRecord
100
AcDbBlockTableRecord
  2
*D48
  0
BLOCK_RECORD
  5
5D7
100
AcDbSymbolTableRecord
100
AcDbBlockTableRecord
  2
*D49
  0
BLOCK_RECORD
  5
5E4
100
AcDbSymbolTableRecord
100
AcDbBlockTableRecord
  2
*D50
  0
BLOCK_RECORD
  5
5F4
100
AcDbSymbolTableRecord
100
AcDbBlockTableRecord
  2
*D51
  0
BLOCK_RECORD
  5
601
100
AcDbSymbolTableRecord
100
AcDbBlockTableRecord
  2
*D52
  0
BLOCK_RECORD
  5
611
100
AcDbSymbolTableRecord
100
AcDbBlockTableRecord
  2
*D53
  0
BLOCK_RECORD
  5
621
100
AcDbSymbolTableRecord
100
AcDbBlockTableRecord
  2
*D54
  0
BLOCK_RECORD
  5
762
100
AcDbSymbolTableRecord
100
AcDbBlockTableRecord
  2
*X55
  0
BLOCK_RECORD
  5
7CA
100
AcDbSymbolTableRecord
100
AcDbBlockTableRecord
  2
*D56
  0
ENDTAB
  0
ENDSEC
  0
SECTION
  2
BLOCKS
  0
BLOCK
  5
D
100
AcDbEntity
  8
0
100
AcDbBlockBegin
  2
*MODEL_SPACE
 70
         0
 10
0.0
 20
0.0
 30
0.0
  3
*MODEL_SPACE
  1

  0
ENDBLK
  5
E
100
AcDbEntity
  8
0
100
AcDbBlockEnd
  0
BLOCK
  5
F
100
AcDbEntity
 67
         1
  8
0
100
AcDbBlockBegin
  2
*PAPER_SPACE
 70
         0
 10
0.0
 20
0.0
 30
0.0
  3
*PAPER_SPACE
  1

  0
ENDBLK
  5
10
100
AcDbEntity
 67
         1
  8
0
100
AcDbBlockEnd
  0
BLOCK
  5
33
100
AcDbEntity
  8
0
100
AcDbBlockBegin
  2
*D0
 70
        65
 10
0.0
 20
0.0
 30
0.0
  3
*D0
  1

  0
POINT
  5
36
100
AcDbEntity
  8
DEFPOINTS
  6
CONTINUOUS
 62
         0
100
AcDbPoint
 10
1585.3836999334
 20
-97.2148132542
 30
0.0
  0
POINT
  5
37
100
AcDbEntity
  8
DEFPOINTS
  6
CONTINUOUS
 62
         0
100
AcDbPoint
 10
1585.3836999334
 20
-106.2400166132
 30
0.0
  0
POINT
  5
38
100
AcDbEntity
  8
DEFPOINTS
  6
CONTINUOUS
 62
         0
100
AcDbPoint
 10
1609.983633753
 20
-106.2400166132
 30
0.0
  0
LINE
  5
39
100
AcDbEntity
  8
L1_130
  6
CONTINUOUS
 62
         4
100
AcDbLine
 10
1585.3836999334
 20
-104.4900166132
 30
0.0
 11
1585.3836999334
 21
-96.3398132542
 31
0.0
  0
LINE
  5
3A
100
AcDbEntity
  8
L1_130
  6
CONTINUOUS
 62
         4
100
AcDbLine
 10
1609.983633753
 20
-104.4900166132
 30
0.0
 11
1609.983633753
 21
-96.3398132542
 31
0.0
  0
LINE
  5
3B
100
AcDbEntity
  8
L1_130
  6
CONTINUOUS
 62
         4
100
AcDbLine
 10
1585.3836999334
 20
-97.2148132542
 30
0.0
 11
1609.983633753
 21
-97.2148132542
 31
0.0
  0
SOLID
  5
3C
100
AcDbEntity
  8
L1_130
  6
CONTINUOUS
 62
         4
100
AcDbTrace
 10
1585.3836999334
 20
-97.2148132542
 30
0.0
 11
1588.8836999334
 21
-96.6898132542
 31
0.0
 12
1588.8836999334
 22
-97.7398132542
 32
0.0
 13
1585.3836999334
 23
-97.2148132542
 33
0.0
  0
SOLID
  5
3D
100
AcDbEntity
  8
L1_130
  6
CONTINUOUS
 62
         4
100
AcDbTrace
 10
1609.983633753
 20
-97.2148132542
 30
0.0
 11
1606.483633753
 21
-97.7398132542
 31
0.0
 12
1606.483633753
 22
-96.6898132542
 32
0.0
 13
1609.983633753
 23
-97.2148132542
 33
0.0
  0
TEXT
  5
3F
100
AcDbEntity
  8
L1_130
  6
CONTINUOUS
 62
         4
100
AcDbText
 10
1584.6585503408
 20
-93.1548132542
 30
0.0
 40
3.5
  1
24.6
  7
BOX
100
AcDbText
  0
ENDBLK
  5
40
100
AcDbEntity
  8
0
  6
CONTINUOUS
100
AcDbBlockEnd
  0
BLOCK
  5
5B
100
AcDbEntity
  8
0
100
AcDbBlockBegin
  2
*D1
 70
        65
 10
0.0
 20
0.0
 30
0.0
  3
*D1
  1

  0
POINT
  5
5D
100
AcDbEntity
  8
DEFPOINTS
  6
CONTINUOUS
 62
         0
100
AcDbPoint
 10
1422.1786999334
 20
216.9467567226
 30
0.0
  0
POINT
  5
5E
100
AcDbEntity
  8
DEFPOINTS
  6
CONTINUOUS
 62
         0
100
AcDbPoint
 10
1422.1786999334
 20
130.1987502026
 30
0.0
  0
POINT
  5
5F
100
AcDbEntity
  8
DEFPOINTS
  6
CONTINUOUS
 62
         0
100
AcDbPoint
 10
1634.7786999334
 20
112.2524144385
 30
0.0
  0
LINE
  5
60
100
AcDbEntity
  8
L1_130
  6
CONTINUOUS
 62
         4
100
AcDbLine
 10
1422.1786999334
 20
131.9487502026
 30
0.0
 11
1422.1786999334
 21
217.8217567226
 31
0.0
  0
LINE
  5
61
100
AcDbEntity
  8
L1_130
  6
CONTINUOUS
 62
         4
100
AcDbLine
 10
1634.7786999334
 20
114.0024144385
 30
0.0
 11
1634.7786999334
 21
217.8217567226
 31
0.0
  0
LINE
  5
62
100
AcDbEntity
  8
L1_130
  6
CONTINUOUS
 62
         4
100
AcDbLine
 10
1422.1786999334
 20
216.9467567226
 30
0.0
 11
1634.7786999334
 21
216.9467567226
 31
0.0
  0
SOLID
  5
63
100
AcDbEntity
  8
L1_130
  6
CONTINUOUS
 62
         4
100
AcDbTrace
 10
1422.1786999334
 20
216.9467567226
 30
0.0
 11
1425.6786999334
 21
217.4717567226
 31
0.0
 12
1425.6786999334
 22
216.4217567226
 32
0.0
 13
1422.1786999334
 23
216.9467567226
 33
0.0
  0
SOLID
  5
64
100
AcDbEntity
  8
L1_130
  6
CONTINUOUS
 62
         4
100
AcDbTrace
 10
1634.7786999334
 20
216.9467567226
 30
0.0
 11
1631.2786999334
 21
216.4217567226
 31
0.0
 12
1631.2786999334
 22
217.4717567226
 32
0.0
 13
1634.7786999334
 23
216.9467567226
 33
0.0
  0
TEXT
  5
66
100
AcDbEntity
  8
L1_130
  6
CONTINUOUS
 62
         4
100
AcDbText
 10
1524.3160690117
 20
219.5717567226
 30
0.0
 40
3.5
  1
212.6
  7
BOX
100
AcDbText
  0
ENDBLK
  5
67
100
AcDbEntity
  8
0
  6
CONTINUOUS
100
AcDbBlockEnd
  0
BLOCK
  5
69
100
AcDbEntity
  8
0
100
AcDbBlockBegin
  2
*D2
 70
        65
 10
0.0
 20
0.0
 30
0.0
  3
*D2
  1

  0
POINT
  5
6B
100
AcDbEntity
  8
DEFPOINTS
  6
CONTINUOUS
 62
         0
100
AcDbPoint
 10
1634.7786999334
 20
208.3902554906
 30
0.0
  0
POINT
  5
6C
100
AcDbEntity
  8
DEFPOINTS
  6
CONTINUOUS
 62
         0
100
AcDbPoint
 10
1634.7786999334
 20
112.2524144385
 30
0.0
  0
POINT
  5
6D
100
AcDbEntity
  8
DEFPOINTS
  6
CONTINUOUS
 62
         0
100
AcDbPoint
 10
1523.7786999334
 20
151.9774144385
 30
0.0
  0
LINE
  5
6E
100
AcDbEntity
  8
L1_130
  6
CONTINUOUS
 62
         4
100
AcDbLine
 10
1634.7786999334
 20
114.0024144385
 30
0.0
 11
1634.7786999334
 21
209.2652554906
 31
0.0
  0
LINE
  5
6F
100
AcDbEntity
  8
L1_130
  6
CONTINUOUS
 62
         4
100
AcDbLine
 10
1523.7786999334
 20
153.7274144385
 30
0.0
 11
1523.7786999334
 21
209.2652554906
 31
0.0
  0
LINE
  5
70
100
AcDbEntity
  8
L1_130
  6
CONTINUOUS
 62
         4
100
AcDbLine
 10
1634.7786999334
 20
208.3902554906
 30
0.0
 11
1523.7786999334
 21
208.3902554906
 31
0.0
  0
SOLID
  5
71
100
AcDbEntity
  8
L1_130
  6
CONTINUOUS
 62
         4
100
AcDbTrace
 10
1634.7786999334
 20
208.3902554906
 30
0.0
 11
1631.2786999334
 21
207.8652554906
 31
0.0
 12
1631.2786999334
 22
208.9152554906
 32
0.0
 13
1634.7786999334
 23
208.3902554906
 33
0.0
  0
SOLID
  5
72
100
AcDbEntity
  8
L1_130
  6
CONTINUOUS
 62
         4
100
AcDbTrace
 10
1523.7786999334
 20
208.3902554906
 30
0.0
 11
1527.2786999334
 21
208.9152554906
 31
0.0
 12
1527.2786999334
 22
207.8652554906
 32
0.0
 13
1523.7786999334
 23
208.3902554906
 33
0.0
  0
TEXT
  5
74
100
AcDbEntity
  8
L1_130
  6
CONTINUOUS
 62
         4
100
AcDbText
 10
1573.5490928382
 20
211.0152554906
 30
0.0
 40
3.5
  1
111
  7
BOX
100
AcDbText
  0
ENDBLK
  5
75
100
AcDbEntity
  8
0
  6
CONTINUOUS
100
AcDbBlockEnd
  0
BLOCK
  5
85
100
AcDbEntity
  8
0
100
AcDbBlockBegin
  2
*D3
 70
        65
 10
0.0
 20
0.0
 30
0.0
  3
*D3
  1

  0
POINT
  5
87
100
AcDbEntity
  8
DEFPOINTS
  6
CONTINUOUS
 62
         0
100
AcDbPoint
 10
1654.5809183797
 20
130.2524144385
 30
0.0
  0
POINT
  5
88
100
AcDbEntity
  8
DEFPOINTS
  6
CONTINUOUS
 62
         0
100
AcDbPoint
 10
1634.7786999334
 20
130.2524144385
 30
0.0
  0
POINT
  5
89
100
AcDbEntity
  8
DEFPOINTS
  6
CONTINUOUS
 62
         0
100
AcDbPoint
 10
1634.7786999334
 20
94.2524144385
 30
0.0
  0
LINE
  5
8A
100
AcDbEntity
  8
L1_130
  6
CONTINUOUS
 62
         4
100
AcDbLine
 10
1636.5286999334
 20
130.2524144385
 30
0.0
 11
1655.4559183797
 21
130.2524144385
 31
0.0
  0
LINE
  5
8B
100
AcDbEntity
  8
L1_130
  6
CONTINUOUS
 62
         4
100
AcDbLine
 10
1636.5286999334
 20
94.2524144385
 30
0.0
 11
1655.4559183797
 21
94.2524144385
 31
0.0
  0
LINE
  5
8C
100
AcDbEntity
  8
L1_130
  6
CONTINUOUS
 62
         4
100
AcDbLine
 10
1654.5809183797
 20
130.2524144385
 30
0.0
 11
1654.5809183797
 21
94.2524144385
 31
0.0
  0
SOLID
  5
8D
100
AcDbEntity
  8
L1_130
  6
CONTINUOUS
 62
         4
100
AcDbTrace
 10
1654.5809183797
 20
130.2524144385
 30
0.0
 11
1655.1059183797
 21
126.7524144385
 31
0.0
 12
1654.0559183797
 22
126.7524144385
 32
0.0
 13
1654.5809183797
 23
130.2524144385
 33
0.0
  0
SOLID
  5
8E
100
AcDbEntity
  8
L1_130
  6
CONTINUOUS
 62
         4
100
AcDbTrace
 10
1654.5809183797
 20
94.2524144385
 30
0.0
 11
1654.0559183797
 21
97.7524144385
 31
0.0
 12
1655.1059183797
 22
97.7524144385
 32
0.0
 13
1654.5809183797
 23
94.2524144385
 33
0.0
  0
TEXT
  5
90
100
AcDbEntity
  8
L1_130
  6
CONTINUOUS
 62
         4
100
AcDbText
 10
1650.5209183797
 20
103.7667303676
 30
0.0
 40
3.5
  1
崷36
 50
90.0
  7
BOX
100
AcDbText
  0
ENDBLK
  5
91
100
AcDbEntity
  8
0
  6
CONTINUOUS
100
AcDbBlockEnd
  0
BLOCK
  5
9F
100
AcDbEntity
  8
0
100
AcDbBlockBegin
  2
*D4
 70
        65
 10
0.0
 20
0.0
 30
0.0
  3
*D4
  1

  0
POINT
  5
A1
100
AcDbEntity
  8
DEFPOINTS
  6
CONTINUOUS
 62
         0
100
AcDbPoint
 10
1613.7786999334
 20
150.5256920453
 30
0.0
  0
POINT
  5
A2
100
AcDbEntity
  8
DEFPOINTS
  6
CONTINUOUS
 62
         0
100
AcDbPoint
 10
1613.7786999334
 20
132.7524144385
 30
0.0
  0
POINT
  5
A3
100
AcDbEntity
  8
DEFPOINTS
  6
CONTINUOUS
 62
         0
100
AcDbPoint
 10
1615.7786999334
 20
132.7524144385
 30
0.0
  0
LINE
  5
A4
100
AcDbEntity
  8
L1_130
  6
CONTINUOUS
 62
         4
100
AcDbLine
 10
1613.7786999334
 20
134.5024144385
 30
0.0
 11
1613.7786999334
 21
151.4006920453
 31
0.0
  0
LINE
  5
A5
100
AcDbEntity
  8
L1_130
  6
CONTINUOUS
 62
         4
100
AcDbLine
 10
1615.7786999334
 20
134.5024144385
 30
0.0
 11
1615.7786999334
 21
151.4006920453
 31
0.0
  0
LINE
  5
A6
100
AcDbEntity
  8
L1_130
  6
CONTINUOUS
 62
         4
100
AcDbLine
 10
1613.7786999334
 20
150.5256920453
 30
0.0
 11
1606.7786999334
 21
150.5256920453
 31
0.0
  0
SOLID
  5
A7
100
AcDbEntity
  8
L1_130
  6
CONTINUOUS
 62
         4
100
AcDbTrace
 10
1613.7786999334
 20
150.5256920453
 30
0.0
 11
1610.2786999334
 21
150.0006920453
 31
0.0
 12
1610.2786999334
 22
151.0506920453
 32
0.0
 13
1613.7786999334
 23
150.5256920453
 33
0.0
  0
LINE
  5
A8
100
AcDbEntity
  8
L1_130
  6
CONTINUOUS
 62
         4
100
AcDbLine
 10
1615.7786999334
 20
150.5256920453
 30
0.0
 11
1624.7719702719
 21
150.5256920453
 31
0.0
  0
SOLID
  5
A9
100
AcDbEntity
  8
L1_130
  6
CONTINUOUS
 62
         4
100
AcDbTrace
 10
1615.7786999334
 20
150.5256920453
 30
0.0
 11
1619.2786999334
 21
151.0506920453
 31
0.0
 12
1619.2786999334
 22
150.0006920453
 32
0.0
 13
1615.7786999334
 23
150.5256920453
 33
0.0
  0
LINE
  5
AA
100
AcDbEntity
  8
L1_130
  6
CONTINUOUS
 62
         4
100
AcDbLine
 10
1613.7786999334
 20
150.5256920453
 30
0.0
 11
1615.7786999334
 21
150.5256920453
 31
0.0
  0
TEXT
  5
AC
100
AcDbEntity
  8
L1_130
  6
CONTINUOUS
 62
         4
100
AcDbText
 10
1618.3553036053
 20
154.5856920453
 30
0.0
 40
3.5
  1
2
  7
BOX
100
AcDbText
  0
ENDBLK
  5
AD
100
AcDbEntity
  8
0
  6
CONTINUOUS
100
AcDbBlockEnd
  0
BLOCK
  5
AF
100
AcDbEntity
  8
0
100
AcDbBlockBegin
  2
*D5
 70
        65
 10
0.0
 20
0.0
 30
0.0
  3
*D5
  1

  0
POINT
  5
B1
100
AcDbEntity
  8
DEFPOINTS
  6
CONTINUOUS
 62
         0
100
AcDbPoint
 10
1678.6655460542
 20
132.7524144385
 30
0.0
  0
POINT
  5
B2
100
AcDbEntity
  8
DEFPOINTS
  6
CONTINUOUS
 62
         0
100
AcDbPoint
 10
1629.0466491258
 20
132.7524144385
 30
0.0
  0
POINT
  5
B3
100
AcDbEntity
  8
DEFPOINTS
  6
CONTINUOUS
 62
         0
100
AcDbPoint
 10
1629.0466491258
 20
91.7524144385
 30
0.0
  0
LINE
  5
B4
100
AcDbEntity
  8
L1_130
  6
CONTINUOUS
 62
         4
100
AcDbLine
 10
1630.7966491258
 20
132.7524144385
 30
0.0
 11
1679.5405460542
 21
132.7524144385
 31
0.0
  0
LINE
  5
B5
100
AcDbEntity
  8
L1_130
  6
CONTINUOUS
 62
         4
100
AcDbLine
 10
1630.7966491258
 20
91.7524144385
 30
0.0
 11
1679.5405460542
 21
91.7524144385
 31
0.0
  0
LINE
  5
B6
100
AcDbEntity
  8
L1_130
  6
CONTINUOUS
 62
         4
100
AcDbLine
 10
1678.6655460542
 20
132.7524144385
 30
0.0
 11
1678.6655460542
 21
91.7524144385
 31
0.0
  0
SOLID
  5
B7
100
AcDbEntity
  8
L1_130
  6
CONTINUOUS
 62
         4
100
AcDbTrace
 10
1678.6655460542
 20
132.7524144385
 30
0.0
 11
1679.1905460542
 21
129.2524144385
 31
0.0
 12
1678.1405460542
 22
129.2524144385
 32
0.0
 13
1678.6655460542
 23
132.7524144385
 33
0.0
  0
SOLID
  5
B8
100
AcDbEntity
  8
L1_130
  6
CONTINUOUS
 62
         4
100
AcDbTrace
 10
1678.6655460542
 20
91.7524144385
 30
0.0
 11
1678.1405460542
 21
95.2524144385
 31
0.0
 12
1679.1905460542
 22
95.2524144385
 32
0.0
 13
1678.6655460542
 23
91.7524144385
 33
0.0
  0
TEXT
  5
BA
100
AcDbEntity
  8
L1_130
  6
CONTINUOUS
 62
         4
100
AcDbText
 10
1674.6055460542
 20
99.3267556247
 30
0.0
 40
3.5
  1
崷41
 50
90.0
  7
BOX
100
AcDbText
  0
ENDBLK
  5
BB
100
AcDbEntity
  8
0
  6
CONTINUOUS
100
AcDbBlockEnd
  0
BLOCK
  5
BD
100
AcDbEntity
  8
0
100
AcDbBlockBegin
  2
*D6
 70
        65
 10
0.0
 20
0.0
 30
0.0
  3
*D6
  1

  0
POINT
  5
BF
100
AcDbEntity
  8
DEFPOINTS
  6
CONTINUOUS
 62
         0
100
AcDbPoint
 10
1691.6065400285
 20
134.7524144385
 30
0.0
  0
POINT
  5
C0
100
AcDbEntity
  8
DEFPOINTS
  6
CONTINUOUS
 62
         0
100
AcDbPoint
 10
1580.7786999334
 20
134.7524144385
 30
0.0
  0
POINT
  5
C1
100
AcDbEntity
  8
DEFPOINTS
  6
CONTINUOUS
 62
         0
100
AcDbPoint
 10
1580.7786999334
 20
89.7524144385
 30
0.0
  0
LINE
  5
C2
100
AcDbEntity
  8
L1_130
  6
CONTINUOUS
 62
         4
100
AcDbLine
 10
1582.5286999334
 20
134.7524144385
 30
0.0
 11
1692.4815400285
 21
134.7524144385
 31
0.0
  0
LINE
  5
C3
100
AcDbEntity
  8
L1_130
  6
CONTINUOUS
 62
         4
100
AcDbLine
 10
1582.5286999334
 20
89.7524144385
 30
0.0
 11
1692.4815400285
 21
89.7524144385
 31
0.0
  0
LINE
  5
C4
100
AcDbEntity
  8
L1_130
  6
CONTINUOUS
 62
         4
100
AcDbLine
 10
1691.6065400285
 20
134.7524144385
 30
0.0
 11
1691.6065400285
 21
89.7524144385
 31
0.0
  0
SOLID
  5
C5
100
AcDbEntity
  8
L1_130
  6
CONTINUOUS
 62
         4
100
AcDbTrace
 10
1691.6065400285
 20
134.7524144385
 30
0.0
 11
1692.1315400285
 21
131.2524144385
 31
0.0
 12
1691.0815400285
 22
131.2524144385
 32
0.0
 13
1691.6065400285
 23
134.7524144385
 33
0.0
  0
SOLID
  5
C6
100
AcDbEntity
  8
L1_130
  6
CONTINUOUS
 62
         4
100
AcDbTrace
 10
1691.6065400285
 20
89.7524144385
 30
0.0
 11
1691.0815400285
 21
93.2524144385
 31
0.0
 12
1692.1315400285
 22
93.2524144385
 32
0.0
 13
1691.6065400285
 23
89.7524144385
 33
0.0
  0
TEXT
  5
C8
100
AcDbEntity
  8
L1_130
  6
CONTINUOUS
 62
         4
100
AcDbText
 10
1687.5465400285
 20
105.7887606761
 30
0.0
 40
3.5
  1
崷45
 50
90.0
  7
BOX
100
AcDbText
  0
ENDBLK
  5
C9
100
AcDbEntity
  8
0
  6
CONTINUOUS
100
AcDbBlockEnd
  0
BLOCK
  5
CB
100
AcDbEntity
  8
0
100
AcDbBlockBegin
  2
*D7
 70
        65
 10
0.0
 20
0.0
 30
0.0
  3
*D7
  1

  0
POINT
  5
CD
100
AcDbEntity
  8
DEFPOINTS
  6
CONTINUOUS
 62
         0
100
AcDbPoint
 10
1666.4434961895
 20
131.7524144385
 30
0.0
  0
POINT
  5
CE
100
AcDbEntity
  8
DEFPOINTS
  6
CONTINUOUS
 62
         0
100
AcDbPoint
 10
1615.7786999334
 20
131.7524144385
 30
0.0
  0
POINT
  5
CF
100
AcDbEntity
  8
DEFPOINTS
  6
CONTINUOUS
 62
         0
100
AcDbPoint
 10
1615.7786999334
 20
92.7524144385
 30
0.0
  0
LINE
  5
D0
100
AcDbEntity
  8
L1_130
  6
CONTINUOUS
 62
         4
100
AcDbLine
 10
1617.5286999334
 20
131.7524144385
 30
0.0
 11
1667.3184961895
 21
131.7524144385
 31
0.0
  0
LINE
  5
D1
100
AcDbEntity
  8
L1_130
  6
CONTINUOUS
 62
         4
100
AcDbLine
 10
1617.5286999334
 20
92.7524144385
 30
0.0
 11
1667.3184961895
 21
92.7524144385
 31
0.0
  0
LINE
  5
D2
100
AcDbEntity
  8
L1_130
  6
CONTINUOUS
 62
         4
100
AcDbLine
 10
1666.4434961895
 20
131.7524144385
 30
0.0
 11
1666.4434961895
 21
92.7524144385
 31
0.0
  0
SOLID
  5
D3
100
AcDbEntity
  8
L1_130
  6
CONTINUOUS
 62
         4
100
AcDbTrace
 10
1666.4434961895
 20
131.7524144385
 30
0.0
 11
1666.9684961895
 21
128.2524144385
 31
0.0
 12
1665.9184961895
 22
128.2524144385
 32
0.0
 13
1666.4434961895
 23
131.7524144385
 33
0.0
  0
SOLID
  5
D4
100
AcDbEntity
  8
L1_130
  6
CONTINUOUS
 62
         4
100
AcDbTrace
 10
1666.4434961895
 20
92.7524144385
 30
0.0
 11
1665.9184961895
 21
96.2524144385
 31
0.0
 12
1666.9684961895
 22
96.2524144385
 32
0.0
 13
1666.4434961895
 23
92.7524144385
 33
0.0
  0
TEXT
  5
D6
100
AcDbEntity
  8
L1_130
  6
CONTINUOUS
 62
         4
100
AcDbText
 10
1662.3834961895
 20
100.2147505733
 30
0.0
 40
3.5
  1
崷39
 50
90.0
  7
BOX
100
AcDbText
  0
ENDBLK
  5
D7
100
AcDbEntity
  8
0
  6
CONTINUOUS
100
AcDbBlockEnd
  0
BLOCK
  5
DB
100
AcDbEntity
  8
0
100
AcDbBlockBegin
  2
*D8
 70
        65
 10
0.0
 20
0.0
 30
0.0
  3
*D8
  1

  0
POINT
  5
DD
100
AcDbEntity
  8
DEFPOINTS
  6
CONTINUOUS
 62
         0
100
AcDbPoint
 10
1605.183633753
 20
71.1792462953
 30
0.0
  0
POINT
  5
DE
100
AcDbEntity
  8
DEFPOINTS
  6
CONTINUOUS
 62
         0
100
AcDbPoint
 10
1605.183633753
 20
107.2824144385
 30
0.0
  0
POINT
  5
DF
100
AcDbEntity
  8
DEFPOINTS
  6
CONTINUOUS
 62
         0
100
AcDbPoint
 10
1634.7786999334
 20
94.8297647077
 30
0.0
  0
LINE
  5
E0
100
AcDbEntity
  8
L1_130
  6
CONTINUOUS
 62
         4
100
AcDbLine
 10
1605.183633753
 20
105.5324144385
 30
0.0
 11
1605.183633753
 21
70.3042462953
 31
0.0
  0
LINE
  5
E1
100
AcDbEntity
  8
L1_130
  6
CONTINUOUS
 62
         4
100
AcDbLine
 10
1634.7786999334
 20
93.0797647077
 30
0.0
 11
1634.7786999334
 21
70.3042462953
 31
0.0
  0
LINE
  5
E2
100
AcDbEntity
  8
L1_130
  6
CONTINUOUS
 62
         4
100
AcDbLine
 10
1605.183633753
 20
71.1792462953
 30
0.0
 11
1634.7786999334
 21
71.1792462953
 31
0.0
  0
SOLID
  5
E3
100
AcDbEntity
  8
L1_130
  6
CONTINUOUS
 62
         4
100
AcDbTrace
 10
1605.183633753
 20
71.1792462953
 30
0.0
 11
1608.683633753
 21
71.7042462953
 31
0.0
 12
1608.683633753
 22
70.6542462953
 32
0.0
 13
1605.183633753
 23
71.1792462953
 33
0.0
  0
SOLID
  5
E4
100
AcDbEntity
  8
L1_130
  6
CONTINUOUS
 62
         4
100
AcDbTrace
 10
1634.7786999334
 20
71.1792462953
 30
0.0
 11
1631.2786999334
 21
70.6542462953
 31
0.0
 12
1631.2786999334
 22
71.7042462953
 32
0.0
 13
1634.7786999334
 23
71.1792462953
 33
0.0
  0
TEXT
  5
E6
100
AcDbEntity
  8
L1_130
  6
CONTINUOUS
 62
         4
100
AcDbText
 10
1607.6767421079
 20
75.2392462953
 30
0.0
 40
3.5
  1
29.6
  7
BOX
100
AcDbText
  0
ENDBLK
  5
E7
100
AcDbEntity
  8
0
  6
CONTINUOUS
100
AcDbBlockEnd
  0
BLOCK
  5
E9
100
AcDbEntity
  8
0
100
AcDbBlockBegin
  2
*D9
 70
        65
 10
0.0
 20
0.0
 30
0.0
  3
*D9
  1

  0
POINT
  5
EB
100
AcDbEntity
  8
DEFPOINTS
  6
CONTINUOUS
 62
         0
100
AcDbPoint
 10
1590.1836999334
 20
60.0753705052
 30
0.0
  0
POINT
  5
EC
100
AcDbEntity
  8
DEFPOINTS
  6
CONTINUOUS
 62
         0
100
AcDbPoint
 10
1590.1836999334
 20
107.2824144385
 30
0.0
  0
POINT
  5
ED
100
AcDbEntity
  8
DEFPOINTS
  6
CONTINUOUS
 62
         0
100
AcDbPoint
 10
1634.7786999334
 20
94.8297647077
 30
0.0
  0
LINE
  5
EE
100
AcDbEntity
  8
L1_130
  6
CONTINUOUS
 62
         4
100
AcDbLine
 10
1590.1836999334
 20
105.5324144385
 30
0.0
 11
1590.1836999334
 21
59.2003705052
 31
0.0
  0
LINE
  5
EF
100
AcDbEntity
  8
L1_130
  6
CONTINUOUS
 62
         4
100
AcDbLine
 10
1634.7786999334
 20
93.0797647077
 30
0.0
 11
1634.7786999334
 21
59.2003705052
 31
0.0
  0
LINE
  5
F0
100
AcDbEntity
  8
L1_130
  6
CONTINUOUS
 62
         4
100
AcDbLine
 10
1590.1836999334
 20
60.0753705052
 30
0.0
 11
1634.7786999334
 21
60.0753705052
 31
0.0
  0
SOLID
  5
F1
100
AcDbEntity
  8
L1_130
  6
CONTINUOUS
 62
         4
100
AcDbTrace
 10
1590.1836999334
 20
60.0753705052
 30
0.0
 11
1593.6836999334
 21
60.6003705052
 31
0.0
 12
1593.6836999334
 22
59.5503705052
 32
0.0
 13
1590.1836999334
 23
60.0753705052
 33
0.0
  0
SOLID
  5
F2
100
AcDbEntity
  8
L1_130
  6
CONTINUOUS
 62
         4
100
AcDbTrace
 10
1634.7786999334
 20
60.0753705052
 30
0.0
 11
1631.2786999334
 21
59.5503705052
 31
0.0
 12
1631.2786999334
 22
60.6003705052
 32
0.0
 13
1634.7786999334
 23
60.0753705052
 33
0.0
  0
TEXT
  5
F4
100
AcDbEntity
  8
L1_130
  6
CONTINUOUS
 62
         4
100
AcDbText
 10
1604.4689557685
 20
64.1353705052
 30
0.0
 40
3.5
  1
44.6
  7
BOX
100
AcDbText
  0
ENDBLK
  5
F5
100
AcDbEntity
  8
0
  6
CONTINUOUS
100
AcDbBlockEnd
  0
BLOCK
  5
F7
100
AcDbEntity
  8
0
100
AcDbBlockBegin
  2
*D10
 70
        65
 10
0.0
 20
0.0
 30
0.0
  3
*D10
  1

  0
POINT
  5
F9
100
AcDbEntity
  8
DEFPOINTS
  6
CONTINUOUS
 62
         0
100
AcDbPoint
 10
1634.7786999334
 20
162.3235600723
 30
0.0
  0
POINT
  5
FA
100
AcDbEntity
  8
DEFPOINTS
  6
CONTINUOUS
 62
         0
100
AcDbPoint
 10
1634.7786999334
 20
129.6750641694
 30
0.0
  0
POINT
  5
FB
100
AcDbEntity
  8
DEFPOINTS
  6
CONTINUOUS
 62
         0
100
AcDbPoint
 10
1613.7786999334
 20
132.7524144385
 30
0.0
  0
LINE
  5
FC
100
AcDbEntity
  8
L1_130
  6
CONTINUOUS
 62
         4
100
AcDbLine
 10
1634.7786999334
 20
131.4250641694
 30
0.0
 11
1634.7786999334
 21
163.1985600723
 31
0.0
  0
LINE
  5
FD
100
AcDbEntity
  8
L1_130
  6
CONTINUOUS
 62
         4
100
AcDbLine
 10
1613.7786999334
 20
134.5024144385
 30
0.0
 11
1613.7786999334
 21
163.1985600723
 31
0.0
  0
LINE
  5
FE
100
AcDbEntity
  8
L1_130
  6
CONTINUOUS
 62
         4
100
AcDbLine
 10
1634.7786999334
 20
162.3235600723
 30
0.0
 11
1613.7786999334
 21
162.3235600723
 31
0.0
  0
SOLID
  5
FF
100
AcDbEntity
  8
L1_130
  6
CONTINUOUS
 62
         4
100
AcDbTrace
 10
1634.7786999334
 20
162.3235600723
 30
0.0
 11
1631.2786999334
 21
161.7985600723
 31
0.0
 12
1631.2786999334
 22
162.8485600723
 32
0.0
 13
1634.7786999334
 23
162.3235600723
 33
0.0
  0
SOLID
  5
100
100
AcDbEntity
  8
L1_130
  6
CONTINUOUS
 62
         4
100
AcDbTrace
 10
1613.7786999334
 20
162.3235600723
 30
0.0
 11
1617.2786999334
 21
162.8485600723
 31
0.0
 12
1617.2786999334
 22
161.7985600723
 32
0.0
 13
1613.7786999334
 23
162.3235600723
 33
0.0
  0
TEXT
  5
102
100
AcDbEntity
  8
L1_130
  6
CONTINUOUS
 62
         4
100
AcDbText
 10
1615.1247868333
 20
166.3835600723
 30
0.0
 40
3.5
  1
21
  7
BOX
100
AcDbText
  0
ENDBLK
  5
103
100
AcDbEntity
  8
0
  6
CONTINUOUS
100
AcDbBlockEnd
  0
BLOCK
  5
105
100
AcDbEntity
  8
0
100
AcDbBlockBegin
  2
*D11
 70
        65
 10
0.0
 20
0.0
 30
0.0
  3
*D11
  1

  0
POINT
  5
107
100
AcDbEntity
  8
DEFPOINTS
  6
CONTINUOUS
 62
         0
100
AcDbPoint
 10
1634.7786999334
 20
172.7334436255
 30
0.0
  0
POINT
  5
108
100
AcDbEntity
  8
DEFPOINTS
  6
CONTINUOUS
 62
         0
100
AcDbPoint
 10
1634.7786999334
 20
129.6750641694
 30
0.0
  0
POINT
  5
109
100
AcDbEntity
  8
DEFPOINTS
  6
CONTINUOUS
 62
         0
100
AcDbPoint
 10
1581.7786999334
 20
133.7524144385
 30
0.0
  0
LINE
  5
10A
100
AcDbEntity
  8
L1_130
  6
CONTINUOUS
 62
         4
100
AcDbLine
 10
1634.7786999334
 20
131.4250641694
 30
0.0
 11
1634.7786999334
 21
173.6084436255
 31
0.0
  0
LINE
  5
10B
100
AcDbEntity
  8
L1_130
  6
CONTINUOUS
 62
         4
100
AcDbLine
 10
1581.7786999334
 20
135.5024144385
 30
0.0
 11
1581.7786999334
 21
173.6084436255
 31
0.0
  0
LINE
  5
10C
100
AcDbEntity
  8
L1_130
  6
CONTINUOUS
 62
         4
100
AcDbLine
 10
1634.7786999334
 20
172.7334436255
 30
0.0
 11
1581.7786999334
 21
172.7334436255
 31
0.0
  0
SOLID
  5
10D
100
AcDbEntity
  8
L1_130
  6
CONTINUOUS
 62
         4
100
AcDbTrace
 10
1634.7786999334
 20
172.7334436255
 30
0.0
 11
1631.2786999334
 21
172.2084436255
 31
0.0
 12
1631.2786999334
 22
173.2584436255
 32
0.0
 13
1634.7786999334
 23
172.7334436255
 33
0.0
  0
SOLID
  5
10E
100
AcDbEntity
  8
L1_130
  6
CONTINUOUS
 62
         4
100
AcDbTrace
 10
1581.7786999334
 20
172.7334436255
 30
0.0
 11
1585.2786999334
 21
173.2584436255
 31
0.0
 12
1585.2786999334
 22
172.2084436255
 32
0.0
 13
1581.7786999334
 23
172.7334436255
 33
0.0
  0
TEXT
  5
110
100
AcDbEntity
  8
L1_130
  6
CONTINUOUS
 62
         4
100
AcDbText
 10
1599.8261135225
 20
176.7934436255
 30
0.0
 40
3.5
  1
53
  7
BOX
100
AcDbText
  0
TEXT
  5
112
100
AcDbEntity
  8
L1_130
  6
CONTINUOUS
 62
         4
100
AcDbText
 10
1608.5761135225
 20
178.7184436255
 30
0.0
 40
2.45
  1
 0
  7
BOX
100
AcDbText
  0
TEXT
  5
114
100
AcDbEntity
  8
L1_130
  6
CONTINUOUS
 62
         4
100
AcDbText
 10
1608.5761135225
 20
176.1319436255
 30
0.0
 40
2.45
  1
-0.1
  7
BOX
100
AcDbText
  0
ENDBLK
  5
115
100
AcDbEntity
  8
0
  6
CONTINUOUS
100
AcDbBlockEnd
  0
BLOCK
  5
136
100
AcDbEntity
  8
0
100
AcDbBlockBegin
  2
*D12
 70
        65
 10
0.0
 20
0.0
 30
0.0
  3
*D12
  1

  0
POINT
  5
138
100
AcDbEntity
  8
DEFPOINTS
  6
CONTINUOUS
 62
         0
100
AcDbPoint
 10
1634.7786999334
 20
-175.6383066988
 30
0.0
  0
POINT
  5
139
100
AcDbEntity
  8
DEFPOINTS
  6
CONTINUOUS
 62
         0
100
AcDbPoint
 10
1634.7786999334
 20
-144.1245465594
 30
0.0
  0
POINT
  5
13A
100
AcDbEntity
  8
DEFPOINTS
  6
CONTINUOUS
 62
         0
100
AcDbPoint
 10
1571.2786999334
 20
-150.6803185475
 30
0.0
  0
LINE
  5
13B
100
AcDbEntity
  8
L1_130
  6
CONTINUOUS
 62
         4
100
AcDbLine
 10
1634.7786999334
 20
-145.8745465594
 30
0.0
 11
1634.7786999334
 21
-176.5133066988
 31
0.0
  0
LINE
  5
13C
100
AcDbEntity
  8
L1_130
  6
CONTINUOUS
 62
         4
100
AcDbLine
 10
1571.2786999334
 20
-152.4303185475
 30
0.0
 11
1571.2786999334
 21
-176.5133066988
 31
0.0
  0
LINE
  5
13D
100
AcDbEntity
  8
L1_130
  6
CONTINUOUS
 62
         4
100
AcDbLine
 10
1634.7786999334
 20
-175.6383066988
 30
0.0
 11
1571.2786999334
 21
-175.6383066988
 31
0.0
  0
SOLID
  5
13E
100
AcDbEntity
  8
L1_130
  6
CONTINUOUS
 62
         4
100
AcDbTrace
 10
1634.7786999334
 20
-175.6383066988
 30
0.0
 11
1631.2786999334
 21
-176.1633066988
 31
0.0
 12
1631.2786999334
 22
-175.1133066988
 32
0.0
 13
1634.7786999334
 23
-175.6383066988
 33
0.0
  0
SOLID
  5
13F
100
AcDbEntity
  8
L1_130
  6
CONTINUOUS
 62
         4
100
AcDbTrace
 10
1571.2786999334
 20
-175.6383066988
 30
0.0
 11
1574.7786999334
 21
-175.1133066988
 31
0.0
 12
1574.7786999334
 22
-176.1633066988
 32
0.0
 13
1571.2786999334
 23
-175.6383066988
 33
0.0
  0
TEXT
  5
141
100
AcDbEntity
  8
L1_130
  6
CONTINUOUS
 62
         4
100
AcDbText
 10
1595.6214158512
 20
-171.5783066988
 30
0.0
 40
3.5
  1
63.5
  7
BOX
100
AcDbText
  0
ENDBLK
  5
142
100
AcDbEntity
  8
0
  6
CONTINUOUS
100
AcDbBlockEnd
  0
BLOCK
  5
15F
100
AcDbEntity
  8
0
100
AcDbBlockBegin
  2
*D13
 70
        65
 10
0.0
 20
0.0
 30
0.0
  3
*D13
  1

  0
POINT
  5
161
100
AcDbEntity
  8
DEFPOINTS
  6
CONTINUOUS
 62
         0
100
AcDbPoint
 10
1670.1788439311
 20
-109.7400166132
 30
0.0
  0
POINT
  5
162
100
AcDbEntity
  8
DEFPOINTS
  6
CONTINUOUS
 62
         0
100
AcDbPoint
 10
1634.5786999334
 20
-109.7400166132
 30
0.0
  0
POINT
  5
163
100
AcDbEntity
  8
DEFPOINTS
  6
CONTINUOUS
 62
         0
100
AcDbPoint
 10
1634.5786999334
 20
-143.7400166132
 30
0.0
  0
LINE
  5
164
100
AcDbEntity
  8
L1_130
  6
CONTINUOUS
 62
         4
100
AcDbLine
 10
1636.3286999334
 20
-109.7400166132
 30
0.0
 11
1671.0538439311
 21
-109.7400166132
 31
0.0
  0
LINE
  5
165
100
AcDbEntity
  8
L1_130
  6
CONTINUOUS
 62
         4
100
AcDbLine
 10
1636.3286999334
 20
-143.7400166132
 30
0.0
 11
1671.0538439311
 21
-143.7400166132
 31
0.0
  0
LINE
  5
166
100
AcDbEntity
  8
L1_130
  6
CONTINUOUS
 62
         4
100
AcDbLine
 10
1670.1788439311
 20
-109.7400166132
 30
0.0
 11
1670.1788439311
 21
-143.7400166132
 31
0.0
  0
SOLID
  5
167
100
AcDbEntity
  8
L1_130
  6
CONTINUOUS
 62
         4
100
AcDbTrace
 10
1670.1788439311
 20
-109.7400166132
 30
0.0
 11
1670.7038439311
 21
-113.2400166132
 31
0.0
 12
1669.6538439311
 22
-113.2400166132
 32
0.0
 13
1670.1788439311
 23
-109.7400166132
 33
0.0
  0
SOLID
  5
168
100
AcDbEntity
  8
L1_130
  6
CONTINUOUS
 62
         4
100
AcDbTrace
 10
1670.1788439311
 20
-143.7400166132
 30
0.0
 11
1669.6538439311
 21
-140.2400166132
 31
0.0
 12
1670.7038439311
 22
-140.2400166132
 32
0.0
 13
1670.1788439311
 23
-143.7400166132
 33
0.0
  0
TEXT
  5
16A
100
AcDbEntity
  8
L1_130
  6
CONTINUOUS
 62
         4
100
AcDbText
 10
1667.5538439311
 20
-136.1892486102
 30
0.0
 40
3.5
  1
崷34
 50
90.0
  7
BOX
100
AcDbText
  0
ENDBLK
  5
16B
100
AcDbEntity
  8
0
  6
CONTINUOUS
100
AcDbBlockEnd
  0
BLOCK
  5
16D
100
AcDbEntity
  8
0
100
AcDbBlockBegin
  2
*D14
 70
        65
 10
0.0
 20
0.0
 30
0.0
  3
*D14
  1

  0
POINT
  5
16F
100
AcDbEntity
  8
DEFPOINTS
  6
CONTINUOUS
 62
         0
100
AcDbPoint
 10
1656.8264894458
 20
-110.7400166132
 30
0.0
  0
POINT
  5
170
100
AcDbEntity
  8
DEFPOINTS
  6
CONTINUOUS
 62
         0
100
AcDbPoint
 10
1609.7786999334
 20
-110.7400166132
 30
0.0
  0
POINT
  5
171
100
AcDbEntity
  8
DEFPOINTS
  6
CONTINUOUS
 62
         0
100
AcDbPoint
 10
1609.7786999334
 20
-142.7400166132
 30
0.0
  0
LINE
  5
172
100
AcDbEntity
  8
L1_130
  6
CONTINUOUS
 62
         4
100
AcDbLine
 10
1611.5286999334
 20
-110.7400166132
 30
0.0
 11
1657.7014894458
 21
-110.7400166132
 31
0.0
  0
LINE
  5
173
100
AcDbEntity
  8
L1_130
  6
CONTINUOUS
 62
         4
100
AcDbLine
 10
1611.5286999334
 20
-142.7400166132
 30
0.0
 11
1657.7014894458
 21
-142.7400166132
 31
0.0
  0
LINE
  5
174
100
AcDbEntity
  8
L1_130
  6
CONTINUOUS
 62
         4
100
AcDbLine
 10
1656.8264894458
 20
-110.7400166132
 30
0.0
 11
1656.8264894458
 21
-142.7400166132
 31
0.0
  0
SOLID
  5
175
100
AcDbEntity
  8
L1_130
  6
CONTINUOUS
 62
         4
100
AcDbTrace
 10
1656.8264894458
 20
-110.7400166132
 30
0.0
 11
1657.3514894458
 21
-114.2400166132
 31
0.0
 12
1656.3014894458
 22
-114.2400166132
 32
0.0
 13
1656.8264894458
 23
-110.7400166132
 33
0.0
  0
SOLID
  5
176
100
AcDbEntity
  8
L1_130
  6
CONTINUOUS
 62
         4
100
AcDbTrace
 10
1656.8264894458
 20
-142.7400166132
 30
0.0
 11
1656.3014894458
 21
-139.2400166132
 31
0.0
 12
1657.3514894458
 22
-139.2400166132
 32
0.0
 13
1656.8264894458
 23
-142.7400166132
 33
0.0
  0
TEXT
  5
178
100
AcDbEntity
  8
L1_130
  6
CONTINUOUS
 62
         4
100
AcDbText
 10
1654.2014894458
 20
-134.5458819043
 30
0.0
 40
3.5
  1
崷32
 50
90.0
  7
BOX
100
AcDbText
  0
ENDBLK
  5
179
100
AcDbEntity
  8
0
  6
CONTINUOUS
100
AcDbBlockEnd
  0
BLOCK
  5
17B
100
AcDbEntity
  8
0
100
AcDbBlockBegin
  2
*D15
 70
        65
 10
0.0
 20
0.0
 30
0.0
  3
*D15
  1

  0
POINT
  5
17D
100
AcDbEntity
  8
DEFPOINTS
  6
CONTINUOUS
 62
         0
100
AcDbPoint
 10
1634.7786999334
 20
-166.5179740266
 30
0.0
  0
POINT
  5
17E
100
AcDbEntity
  8
DEFPOINTS
  6
CONTINUOUS
 62
         0
100
AcDbPoint
 10
1634.7786999334
 20
-144.1245465594
 30
0.0
  0
POINT
  5
17F
100
AcDbEntity
  8
DEFPOINTS
  6
CONTINUOUS
 62
         0
100
AcDbPoint
 10
1609.7786999334
 20
-144.2400166132
 30
0.0
  0
LINE
  5
180
100
AcDbEntity
  8
L1_130
  6
CONTINUOUS
 62
         4
100
AcDbLine
 10
1634.7786999334
 20
-145.8745465594
 30
0.0
 11
1634.7786999334
 21
-167.3929740266
 31
0.0
  0
LINE
  5
181
100
AcDbEntity
  8
L1_130
  6
CONTINUOUS
 62
         4
100
AcDbLine
 10
1609.7786999334
 20
-145.9900166132
 30
0.0
 11
1609.7786999334
 21
-167.3929740266
 31
0.0
  0
LINE
  5
182
100
AcDbEntity
  8
L1_130
  6
CONTINUOUS
 62
         4
100
AcDbLine
 10
1634.7786999334
 20
-166.5179740266
 30
0.0
 11
1609.7786999334
 21
-166.5179740266
 31
0.0
  0
SOLID
  5
183
100
AcDbEntity
  8
L1_130
  6
CONTINUOUS
 62
         4
100
AcDbTrace
 10
1634.7786999334
 20
-166.5179740266
 30
0.0
 11
1631.2786999334
 21
-167.0429740266
 31
0.0
 12
1631.2786999334
 22
-165.9929740266
 32
0.0
 13
1634.7786999334
 23
-166.5179740266
 33
0.0
  0
SOLID
  5
184
100
AcDbEntity
  8
L1_130
  6
CONTINUOUS
 62
         4
100
AcDbTrace
 10
1609.7786999334
 20
-166.5179740266
 30
0.0
 11
1613.2786999334
 21
-165.9929740266
 31
0.0
 12
1613.2786999334
 22
-167.0429740266
 32
0.0
 13
1609.7786999334
 23
-166.5179740266
 33
0.0
  0
TEXT
  5
186
100
AcDbEntity
  8
L1_130
  6
CONTINUOUS
 62
         4
100
AcDbText
 10
1613.8726926489
 20
-162.4579740266
 30
0.0
 40
3.5
  1
25
  7
BOX
100
AcDbText
  0
ENDBLK
  5
187
100
AcDbEntity
  8
0
  6
CONTINUOUS
100
AcDbBlockEnd
  0
BLOCK
  5
18B
100
AcDbEntity
  8
0
100
AcDbBlockBegin
  2
*D16
 70
        65
 10
0.0
 20
0.0
 30
0.0
  3
*D16
  1

  0
POINT
  5
18D
100
AcDbEntity
  8
DEFPOINTS
  6
CONTINUOUS
 62
         0
100
AcDbPoint
 10
1634.7786999334
 20
-189.1363990537
 30
0.0
  0
POINT
  5
18E
100
AcDbEntity
  8
DEFPOINTS
  6
CONTINUOUS
 62
         0
100
AcDbPoint
 10
1634.7786999334
 20
-144.1245465594
 30
0.0
  0
POINT
  5
18F
100
AcDbEntity
  8
DEFPOINTS
  6
CONTINUOUS
 62
         0
100
AcDbPoint
 10
1568.7786999334
 20
-143.2400166132
 30
0.0
  0
LINE
  5
190
100
AcDbEntity
  8
L1_130
  6
CONTINUOUS
 62
         4
100
AcDbLine
 10
1634.7786999334
 20
-145.8745465594
 30
0.0
 11
1634.7786999334
 21
-190.0113990537
 31
0.0
  0
LINE
  5
191
100
AcDbEntity
  8
L1_130
  6
CONTINUOUS
 62
         4
100
AcDbLine
 10
1568.7786999334
 20
-144.9900166132
 30
0.0
 11
1568.7786999334
 21
-190.0113990537
 31
0.0
  0
LINE
  5
192
100
AcDbEntity
  8
L1_130
  6
CONTINUOUS
 62
         4
100
AcDbLine
 10
1634.7786999334
 20
-189.1363990537
 30
0.0
 11
1568.7786999334
 21
-189.1363990537
 31
0.0
  0
SOLID
  5
193
100
AcDbEntity
  8
L1_130
  6
CONTINUOUS
 62
         4
100
AcDbTrace
 10
1634.7786999334
 20
-189.1363990537
 30
0.0
 11
1631.2786999334
 21
-189.6613990537
 31
0.0
 12
1631.2786999334
 22
-188.6113990537
 32
0.0
 13
1634.7786999334
 23
-189.1363990537
 33
0.0
  0
SOLID
  5
194
100
AcDbEntity
  8
L1_130
  6
CONTINUOUS
 62
         4
100
AcDbTrace
 10
1568.7786999334
 20
-189.1363990537
 30
0.0
 11
1572.2786999334
 21
-188.6113990537
 31
0.0
 12
1572.2786999334
 22
-189.6613990537
 32
0.0
 13
1568.7786999334
 23
-189.1363990537
 33
0.0
  0
TEXT
  5
196
100
AcDbEntity
  8
L1_130
  6
CONTINUOUS
 62
         4
100
AcDbText
 10
1591.8866106871
 20
-185.0763990537
 30
0.0
 40
3.5
  1
66
  7
BOX
100
AcDbText
  0
ENDBLK
  5
197
100
AcDbEntity
  8
0
  6
CONTINUOUS
100
AcDbBlockEnd
  0
BLOCK
  5
262
100
AcDbEntity
  8
0
100
AcDbBlockBegin
  2
*D17
 70
        65
 10
0.0
 20
0.0
 30
0.0
  3
*D17
  1

  0
POINT
  5
264
100
AcDbEntity
  8
DEFPOINTS
  6
CONTINUOUS
 62
         0
100
AcDbPoint
 10
1553.777375068
 20
-199.5335783
 30
0.0
  0
POINT
  5
265
100
AcDbEntity
  8
DEFPOINTS
  6
CONTINUOUS
 62
         0
100
AcDbPoint
 10
1553.777375068
 20
-129.2400166132
 30
0.0
  0
POINT
  5
266
100
AcDbEntity
  8
DEFPOINTS
  6
CONTINUOUS
 62
         0
100
AcDbPoint
 10
1634.7786999334
 20
-144.4513414786
 30
0.0
  0
LINE
  5
267
100
AcDbEntity
  8
L1_130
  6
CONTINUOUS
 62
         4
100
AcDbLine
 10
1553.777375068
 20
-130.9900166132
 30
0.0
 11
1553.777375068
 21
-200.4085783
 31
0.0
  0
LINE
  5
268
100
AcDbEntity
  8
L1_130
  6
CONTINUOUS
 62
         4
100
AcDbLine
 10
1634.7786999334
 20
-146.2013414786
 30
0.0
 11
1634.7786999334
 21
-200.4085783
 31
0.0
  0
LINE
  5
269
100
AcDbEntity
  8
L1_130
  6
CONTINUOUS
 62
         4
100
AcDbLine
 10
1553.777375068
 20
-199.5335783
 30
0.0
 11
1634.7786999334
 21
-199.5335783
 31
0.0
  0
SOLID
  5
26A
100
AcDbEntity
  8
L1_130
  6
CONTINUOUS
 62
         4
100
AcDbTrace
 10
1553.777375068
 20
-199.5335783
 30
0.0
 11
1557.277375068
 21
-199.0085783
 31
0.0
 12
1557.277375068
 22
-200.0585783
 32
0.0
 13
1553.777375068
 23
-199.5335783
 33
0.0
  0
SOLID
  5
26B
100
AcDbEntity
  8
L1_130
  6
CONTINUOUS
 62
         4
100
AcDbTrace
 10
1634.7786999334
 20
-199.5335783
 30
0.0
 11
1631.2786999334
 21
-200.0585783
 31
0.0
 12
1631.2786999334
 22
-199.0085783
 32
0.0
 13
1634.7786999334
 23
-199.5335783
 33
0.0
  0
TEXT
  5
26D
100
AcDbEntity
  8
L1_130
  6
CONTINUOUS
 62
         4
100
AcDbText
 10
1591.3387319709
 20
-195.4735783
 30
0.0
 40
3.5
  1
81
  7
BOX
100
AcDbText
  0
ENDBLK
  5
26E
100
AcDbEntity
  8
0
  6
CONTINUOUS
100
AcDbBlockEnd
  0
BLOCK
  5
284
100
AcDbEntity
  8
0
100
AcDbBlockBegin
  2
*D18
 70
        65
 10
0.0
 20
0.0
 30
0.0
  3
*D18
  1

  0
POINT
  5
286
100
AcDbEntity
  8
DEFPOINTS
  6
CONTINUOUS
 62
         0
100
AcDbPoint
 10
1718.6100863613
 20
16.9838760458
 30
0.0
  0
POINT
  5
287
100
AcDbEntity
  8
DEFPOINTS
  6
CONTINUOUS
 62
         0
100
AcDbPoint
 10
1718.6100863613
 20
13.9102375849
 30
0.0
  0
POINT
  5
288
100
AcDbEntity
  8
DEFPOINTS
  6
CONTINUOUS
 62
         0
100
AcDbPoint
 10
1703.1100863613
 20
12.4102375849
 30
0.0
  0
LINE
  5
289
100
AcDbEntity
  8
L1_130
  6
CONTINUOUS
 62
         4
100
AcDbLine
 10
1718.6100863613
 20
15.2602375849
 30
0.0
 11
1718.6100863613
 21
17.6588760458
 31
0.0
  0
LINE
  5
28A
100
AcDbEntity
  8
L1_130
  6
CONTINUOUS
 62
         4
100
AcDbLine
 10
1703.1100863613
 20
13.7602375849
 30
0.0
 11
1703.1100863613
 21
17.6588760458
 31
0.0
  0
LINE
  5
28B
100
AcDbEntity
  8
L1_130
  6
CONTINUOUS
 62
         4
100
AcDbLine
 10
1718.6100863613
 20
16.9838760458
 30
0.0
 11
1703.1100863613
 21
16.9838760458
 31
0.0
  0
SOLID
  5
28C
100
AcDbEntity
  8
L1_130
  6
CONTINUOUS
 62
         4
100
AcDbTrace
 10
1718.6100863613
 20
16.9838760458
 30
0.0
 11
1715.9100863613
 21
16.5788760458
 31
0.0
 12
1715.9100863613
 22
17.3888760458
 32
0.0
 13
1718.6100863613
 23
16.9838760458
 33
0.0
  0
SOLID
  5
28D
100
AcDbEntity
  8
L1_130
  6
CONTINUOUS
 62
         4
100
AcDbTrace
 10
1703.1100863613
 20
16.9838760458
 30
0.0
 11
1705.8100863613
 21
17.3888760458
 31
0.0
 12
1705.8100863613
 22
16.5788760458
 32
0.0
 13
1703.1100863613
 23
16.9838760458
 33
0.0
  0
TEXT
  5
28F
100
AcDbEntity
  8
L1_130
  6
CONTINUOUS
 62
         4
100
AcDbText
 10
1705.6124426867
 20
19.0088760458
 30
0.0
 40
2.7
  1
15.5
  7
BOX
100
AcDbText
  0
ENDBLK
  5
290
100
AcDbEntity
  8
0
  6
CONTINUOUS
100
AcDbBlockEnd
  0
BLOCK
  5
292
100
AcDbEntity
  8
0
100
AcDbBlockBegin
  2
*D19
 70
        65
 10
0.0
 20
0.0
 30
0.0
  3
*D19
  1

  0
POINT
  5
294
100
AcDbEntity
  8
DEFPOINTS
  6
CONTINUOUS
 62
         0
100
AcDbPoint
 10
1725.3049901633
 20
14.4102375849
 30
0.0
  0
POINT
  5
295
100
AcDbEntity
  8
DEFPOINTS
  6
CONTINUOUS
 62
         0
100
AcDbPoint
 10
1718.1100863613
 20
14.4102375849
 30
0.0
  0
POINT
  5
296
100
AcDbEntity
  8
DEFPOINTS
  6
CONTINUOUS
 62
         0
100
AcDbPoint
 10
1718.1100863613
 20
-4.3897624151
 30
0.0
  0
LINE
  5
297
100
AcDbEntity
  8
L1_130
  6
CONTINUOUS
 62
         4
100
AcDbLine
 10
1719.4600863613
 20
14.4102375849
 30
0.0
 11
1725.9799901633
 21
14.4102375849
 31
0.0
  0
LINE
  5
298
100
AcDbEntity
  8
L1_130
  6
CONTINUOUS
 62
         4
100
AcDbLine
 10
1719.4600863613
 20
-4.3897624151
 30
0.0
 11
1725.9799901633
 21
-4.3897624151
 31
0.0
  0
LINE
  5
299
100
AcDbEntity
  8
L1_130
  6
CONTINUOUS
 62
         4
100
AcDbLine
 10
1725.3049901633
 20
14.4102375849
 30
0.0
 11
1725.3049901633
 21
-4.3897624151
 31
0.0
  0
SOLID
  5
29A
100
AcDbEntity
  8
L1_130
  6
CONTINUOUS
 62
         4
100
AcDbTrace
 10
1725.3049901633
 20
14.4102375849
 30
0.0
 11
1725.7099901633
 21
11.7102375849
 31
0.0
 12
1724.8999901633
 22
11.7102375849
 32
0.0
 13
1725.3049901633
 23
14.4102375849
 33
0.0
  0
SOLID
  5
29B
100
AcDbEntity
  8
L1_130
  6
CONTINUOUS
 62
         4
100
AcDbTrace
 10
1725.3049901633
 20
-4.3897624151
 30
0.0
 11
1724.8999901633
 21
-1.6897624151
 31
0.0
 12
1725.7099901633
 22
-1.6897624151
 32
0.0
 13
1725.3049901633
 23
-4.3897624151
 33
0.0
  0
TEXT
  5
29D
100
AcDbEntity
  8
L1_130
  6
CONTINUOUS
 62
         4
100
AcDbText
 10
1723.2799901633
 20
-3.1436105338
 30
0.0
 40
2.7
  1
崷18.8
 50
90.0
  7
BOX
100
AcDbText
  0
ENDBLK
  5
29E
100
AcDbEntity
  8
0
  6
CONTINUOUS
100
AcDbBlockEnd
  0
BLOCK
  5
2A0
100
AcDbEntity
  8
0
100
AcDbBlockBegin
  2
*D20
 70
        65
 10
0.0
 20
0.0
 30
0.0
  3
*D20
  1

  0
POINT
  5
2A2
100
AcDbEntity
  8
DEFPOINTS
  6
CONTINUOUS
 62
         0
100
AcDbPoint
 10
1701.3499830787
 20
12.5102375849
 30
0.0
  0
POINT
  5
2A3
100
AcDbEntity
  8
DEFPOINTS
  6
CONTINUOUS
 62
         0
100
AcDbPoint
 10
1703.2100863613
 20
12.5102375849
 30
0.0
  0
POINT
  5
2A4
100
AcDbEntity
  8
DEFPOINTS
  6
CONTINUOUS
 62
         0
100
AcDbPoint
 10
1703.2100863613
 20
-2.4897624151
 30
0.0
  0
LINE
  5
2A5
100
AcDbEntity
  8
L1_130
  6
CONTINUOUS
 62
         4
100
AcDbLine
 10
1701.8600863613
 20
12.5102375849
 30
0.0
 11
1700.6749830787
 21
12.5102375849
 31
0.0
  0
LINE
  5
2A6
100
AcDbEntity
  8
L1_130
  6
CONTINUOUS
 62
         4
100
AcDbLine
 10
1701.8600863613
 20
-2.4897624151
 30
0.0
 11
1700.6749830787
 21
-2.4897624151
 31
0.0
  0
LINE
  5
2A7
100
AcDbEntity
  8
L1_130
  6
CONTINUOUS
 62
         4
100
AcDbLine
 10
1701.3499830787
 20
12.5102375849
 30
0.0
 11
1701.3499830787
 21
-2.4897624151
 31
0.0
  0
SOLID
  5
2A8
100
AcDbEntity
  8
L1_130
  6
CONTINUOUS
 62
         4
100
AcDbTrace
 10
1701.3499830787
 20
12.5102375849
 30
0.0
 11
1701.7549830787
 21
9.8102375849
 31
0.0
 12
1700.9449830787
 22
9.8102375849
 32
0.0
 13
1701.3499830787
 23
12.5102375849
 33
0.0
  0
SOLID
  5
2A9
100
AcDbEntity
  8
L1_130
  6
CONTINUOUS
 62
         4
100
AcDbTrace
 10
1701.3499830787
 20
-2.4897624151
 30
0.0
 11
1700.9449830787
 21
0.2102375849
 31
0.0
 12
1701.7549830787
 22
0.2102375849
 32
0.0
 13
1701.3499830787
 23
-2.4897624151
 33
0.0
  0
TEXT
  5
2AB
100
AcDbEntity
  8
L1_130
  6
CONTINUOUS
 62
         4
100
AcDbText
 10
1699.3249830787
 20
-0.9404649396
 30
0.0
 40
2.7
  1
崷15
 50
90.0
  7
BOX
100
AcDbText
  0
ENDBLK
  5
2AC
100
AcDbEntity
  8
0
  6
CONTINUOUS
100
AcDbBlockEnd
  0
BLOCK
  5
2BC
100
AcDbEntity
  8
0
100
AcDbBlockBegin
  2
*D21
 70
        65
 10
0.0
 20
0.0
 30
0.0
  3
*D21
  1

  0
POINT
  5
2BE
100
AcDbEntity
  8
DEFPOINTS
  6
CONTINUOUS
 62
         0
100
AcDbPoint
 10
1647.2100863613
 20
30.5005489612
 30
0.0
  0
POINT
  5
2BF
100
AcDbEntity
  8
DEFPOINTS
  6
CONTINUOUS
 62
         0
100
AcDbPoint
 10
1647.2100863613
 20
27.0102375849
 30
0.0
  0
POINT
  5
2C0
100
AcDbEntity
  8
DEFPOINTS
  6
CONTINUOUS
 62
         0
100
AcDbPoint
 10
1679.2100863613
 20
26.2215624503
 30
0.0
  0
LINE
  5
2C1
100
AcDbEntity
  8
L1_130
  6
CONTINUOUS
 62
         4
100
AcDbLine
 10
1647.2100863613
 20
28.3602375849
 30
0.0
 11
1647.2100863613
 21
31.1755489612
 31
0.0
  0
LINE
  5
2C2
100
AcDbEntity
  8
L1_130
  6
CONTINUOUS
 62
         4
100
AcDbLine
 10
1679.2100863613
 20
27.5715624503
 30
0.0
 11
1679.2100863613
 21
31.1755489612
 31
0.0
  0
LINE
  5
2C3
100
AcDbEntity
  8
L1_130
  6
CONTINUOUS
 62
         4
100
AcDbLine
 10
1647.2100863613
 20
30.5005489612
 30
0.0
 11
1679.2100863613
 21
30.5005489612
 31
0.0
  0
SOLID
  5
2C4
100
AcDbEntity
  8
L1_130
  6
CONTINUOUS
 62
         4
100
AcDbTrace
 10
1647.2100863613
 20
30.5005489612
 30
0.0
 11
1649.9100863613
 21
30.9055489612
 31
0.0
 12
1649.9100863613
 22
30.0955489612
 32
0.0
 13
1647.2100863613
 23
30.5005489612
 33
0.0
  0
SOLID
  5
2C5
100
AcDbEntity
  8
L1_130
  6
CONTINUOUS
 62
         4
100
AcDbTrace
 10
1679.2100863613
 20
30.5005489612
 30
0.0
 11
1676.5100863613
 21
30.0955489612
 31
0.0
 12
1676.5100863613
 22
30.9055489612
 32
0.0
 13
1679.2100863613
 23
30.5005489612
 33
0.0
  0
TEXT
  5
2C7
100
AcDbEntity
  8
L1_130
  6
CONTINUOUS
 62
         4
100
AcDbText
 10
1661.2123108078
 20
32.5255489612
 30
0.0
 40
2.7
  1
32
  7
BOX
100
AcDbText
  0
ENDBLK
  5
2C8
100
AcDbEntity
  8
0
  6
CONTINUOUS
100
AcDbBlockEnd
  0
BLOCK
  5
2CA
100
AcDbEntity
  8
0
100
AcDbBlockBegin
  2
*D22
 70
        65
 10
0.0
 20
0.0
 30
0.0
  3
*D22
  1

  0
POINT
  5
2CC
100
AcDbEntity
  8
DEFPOINTS
  6
CONTINUOUS
 62
         0
100
AcDbPoint
 10
1686.1331000835
 20
27.5102375849
 30
0.0
  0
POINT
  5
2CD
100
AcDbEntity
  8
DEFPOINTS
  6
CONTINUOUS
 62
         0
100
AcDbPoint
 10
1676.076111765
 20
27.5102375849
 30
0.0
  0
POINT
  5
2CE
100
AcDbEntity
  8
DEFPOINTS
  6
CONTINUOUS
 62
         0
100
AcDbPoint
 10
1676.076111765
 20
-17.4897624151
 30
0.0
  0
LINE
  5
2CF
100
AcDbEntity
  8
L1_130
  6
CONTINUOUS
 62
         4
100
AcDbLine
 10
1677.426111765
 20
27.5102375849
 30
0.0
 11
1686.8081000835
 21
27.5102375849
 31
0.0
  0
LINE
  5
2D0
100
AcDbEntity
  8
L1_130
  6
CONTINUOUS
 62
         4
100
AcDbLine
 10
1677.426111765
 20
-17.4897624151
 30
0.0
 11
1686.8081000835
 21
-17.4897624151
 31
0.0
  0
LINE
  5
2D1
100
AcDbEntity
  8
L1_130
  6
CONTINUOUS
 62
         4
100
AcDbLine
 10
1686.1331000835
 20
27.5102375849
 30
0.0
 11
1686.1331000835
 21
-17.4897624151
 31
0.0
  0
SOLID
  5
2D2
100
AcDbEntity
  8
L1_130
  6
CONTINUOUS
 62
         4
100
AcDbTrace
 10
1686.1331000835
 20
27.5102375849
 30
0.0
 11
1686.5381000835
 21
24.8102375849
 31
0.0
 12
1685.7281000835
 22
24.8102375849
 32
0.0
 13
1686.1331000835
 23
27.5102375849
 33
0.0
  0
SOLID
  5
2D3
100
AcDbEntity
  8
L1_130
  6
CONTINUOUS
 62
         4
100
AcDbTrace
 10
1686.1331000835
 20
-17.4897624151
 30
0.0
 11
1685.7281000835
 21
-14.7897624151
 31
0.0
 12
1686.5381000835
 22
-14.7897624151
 32
0.0
 13
1686.1331000835
 23
-17.4897624151
 33
0.0
  0
TEXT
  5
2D5
100
AcDbEntity
  8
L1_130
  6
CONTINUOUS
 62
         4
100
AcDbText
 10
1684.1081000835
 20
-0.293465641
 30
0.0
 40
2.7
  1
崷45
 50
90.0
  7
BOX
100
AcDbText
  0
ENDBLK
  5
2D6
100
AcDbEntity
  8
0
  6
CONTINUOUS
100
AcDbBlockEnd
  0
BLOCK
  5
3FF
100
AcDbEntity
  8
0
100
AcDbBlockBegin
  2
*D23
 70
        65
 10
0.0
 20
0.0
 30
0.0
  3
*D23
  1

  0
POINT
  5
401
100
AcDbEntity
  8
DEFPOINTS
  6
CONTINUOUS
 62
         0
100
AcDbPoint
 10
1789.3100863613
 20
26.1407277142
 30
0.0
  0
POINT
  5
402
100
AcDbEntity
  8
DEFPOINTS
  6
CONTINUOUS
 62
         0
100
AcDbPoint
 10
1789.3100863613
 20
20.0102375849
 30
0.0
  0
POINT
  5
403
100
AcDbEntity
  8
DEFPOINTS
  6
CONTINUOUS
 62
         0
100
AcDbPoint
 10
1820.8100863613
 20
17.2102375849
 30
0.0
  0
LINE
  5
404
100
AcDbEntity
  8
L1_130
  6
CONTINUOUS
 62
         4
100
AcDbLine
 10
1789.3100863613
 20
21.3602375849
 30
0.0
 11
1789.3100863613
 21
26.8157277142
 31
0.0
  0
LINE
  5
405
100
AcDbEntity
  8
L1_130
  6
CONTINUOUS
 62
         4
100
AcDbLine
 10
1820.8100863613
 20
18.5602375849
 30
0.0
 11
1820.8100863613
 21
26.8157277142
 31
0.0
  0
LINE
  5
406
100
AcDbEntity
  8
L1_130
  6
CONTINUOUS
 62
         4
100
AcDbLine
 10
1789.3100863613
 20
26.1407277142
 30
0.0
 11
1820.8100863613
 21
26.1407277142
 31
0.0
  0
SOLID
  5
407
100
AcDbEntity
  8
L1_130
  6
CONTINUOUS
 62
         4
100
AcDbTrace
 10
1789.3100863613
 20
26.1407277142
 30
0.0
 11
1792.0100863613
 21
26.5457277142
 31
0.0
 12
1792.0100863613
 22
25.7357277142
 32
0.0
 13
1789.3100863613
 23
26.1407277142
 33
0.0
  0
SOLID
  5
408
100
AcDbEntity
  8
L1_130
  6
CONTINUOUS
 62
         4
100
AcDbTrace
 10
1820.8100863613
 20
26.1407277142
 30
0.0
 11
1818.1100863613
 21
25.7357277142
 31
0.0
 12
1818.1100863613
 22
26.5457277142
 32
0.0
 13
1820.8100863613
 23
26.1407277142
 33
0.0
  0
TEXT
  5
40A
100
AcDbEntity
  8
L1_130
  6
CONTINUOUS
 62
         4
100
AcDbText
 10
1798.9664007624
 20
28.1657277142
 30
0.0
 40
2.7
  1
31.5
  7
BOX
100
AcDbText
  0
ENDBLK
  5
40B
100
AcDbEntity
  8
0
  6
CONTINUOUS
100
AcDbBlockEnd
  0
BLOCK
  5
40D
100
AcDbEntity
  8
0
100
AcDbBlockBegin
  2
*D24
 70
        65
 10
0.0
 20
0.0
 30
0.0
  3
*D24
  1

  0
POINT
  5
40F
100
AcDbEntity
  8
DEFPOINTS
  6
CONTINUOUS
 62
         0
100
AcDbPoint
 10
1820.8100863613
 20
32.4082349494
 30
0.0
  0
POINT
  5
410
100
AcDbEntity
  8
DEFPOINTS
  6
CONTINUOUS
 62
         0
100
AcDbPoint
 10
1820.8100863613
 20
17.2102375849
 30
0.0
  0
POINT
  5
411
100
AcDbEntity
  8
DEFPOINTS
  6
CONTINUOUS
 62
         0
100
AcDbPoint
 10
1745.8100863613
 20
20.0102375849
 30
0.0
  0
LINE
  5
412
100
AcDbEntity
  8
L1_130
  6
CONTINUOUS
 62
         4
100
AcDbLine
 10
1820.8100863613
 20
18.5602375849
 30
0.0
 11
1820.8100863613
 21
33.0832349494
 31
0.0
  0
LINE
  5
413
100
AcDbEntity
  8
L1_130
  6
CONTINUOUS
 62
         4
100
AcDbLine
 10
1745.8100863613
 20
21.3602375849
 30
0.0
 11
1745.8100863613
 21
33.0832349494
 31
0.0
  0
LINE
  5
414
100
AcDbEntity
  8
L1_130
  6
CONTINUOUS
 62
         4
100
AcDbLine
 10
1820.8100863613
 20
32.4082349494
 30
0.0
 11
1745.8100863613
 21
32.4082349494
 31
0.0
  0
SOLID
  5
415
100
AcDbEntity
  8
L1_130
  6
CONTINUOUS
 62
         4
100
AcDbTrace
 10
1820.8100863613
 20
32.4082349494
 30
0.0
 11
1818.1100863613
 21
32.0032349494
 31
0.0
 12
1818.1100863613
 22
32.8132349494
 32
0.0
 13
1820.8100863613
 23
32.4082349494
 33
0.0
  0
SOLID
  5
416
100
AcDbEntity
  8
L1_130
  6
CONTINUOUS
 62
         4
100
AcDbTrace
 10
1745.8100863613
 20
32.4082349494
 30
0.0
 11
1748.5100863613
 21
32.8132349494
 31
0.0
 12
1748.5100863613
 22
32.0032349494
 32
0.0
 13
1745.8100863613
 23
32.4082349494
 33
0.0
  0
TEXT
  5
418
100
AcDbEntity
  8
L1_130
  6
CONTINUOUS
 62
         4
100
AcDbText
 10
1781.7775111362
 20
34.4332349494
 30
0.0
 40
2.7
  1
75
  7
BOX
100
AcDbText
  0
ENDBLK
  5
419
100
AcDbEntity
  8
0
  6
CONTINUOUS
100
AcDbBlockEnd
  0
BLOCK
  5
41B
100
AcDbEntity
  8
0
100
AcDbBlockBegin
  2
*D25
 70
        65
 10
0.0
 20
0.0
 30
0.0
  3
*D25
  1

  0
POINT
  5
41D
100
AcDbEntity
  8
DEFPOINTS
  6
CONTINUOUS
 62
         0
100
AcDbPoint
 10
1740.8879902541
 20
21.0102375849
 30
0.0
  0
POINT
  5
41E
100
AcDbEntity
  8
DEFPOINTS
  6
CONTINUOUS
 62
         0
100
AcDbPoint
 10
1746.8100863613
 20
21.0102375849
 30
0.0
  0
POINT
  5
41F
100
AcDbEntity
  8
DEFPOINTS
  6
CONTINUOUS
 62
         0
100
AcDbPoint
 10
1746.8100863613
 20
-10.9897624151
 30
0.0
  0
LINE
  5
420
100
AcDbEntity
  8
L1_130
  6
CONTINUOUS
 62
         4
100
AcDbLine
 10
1745.4600863613
 20
21.0102375849
 30
0.0
 11
1740.2129902541
 21
21.0102375849
 31
0.0
  0
LINE
  5
421
100
AcDbEntity
  8
L1_130
  6
CONTINUOUS
 62
         4
100
AcDbLine
 10
1745.4600863613
 20
-10.9897624151
 30
0.0
 11
1740.2129902541
 21
-10.9897624151
 31
0.0
  0
LINE
  5
422
100
AcDbEntity
  8
L1_130
  6
CONTINUOUS
 62
         4
100
AcDbLine
 10
1740.8879902541
 20
21.0102375849
 30
0.0
 11
1740.8879902541
 21
-10.9897624151
 31
0.0
  0
SOLID
  5
423
100
AcDbEntity
  8
L1_130
  6
CONTINUOUS
 62
         4
100
AcDbTrace
 10
1740.8879902541
 20
21.0102375849
 30
0.0
 11
1741.2929902541
 21
18.3102375849
 31
0.0
 12
1740.4829902541
 22
18.3102375849
 32
0.0
 13
1740.8879902541
 23
21.0102375849
 33
0.0
  0
SOLID
  5
424
100
AcDbEntity
  8
L1_130
  6
CONTINUOUS
 62
         4
100
AcDbTrace
 10
1740.8879902541
 20
-10.9897624151
 30
0.0
 11
1740.4829902541
 21
-8.2897624151
 31
0.0
 12
1741.2929902541
 22
-8.2897624151
 32
0.0
 13
1740.8879902541
 23
-10.9897624151
 33
0.0
  0
TEXT
  5
426
100
AcDbEntity
  8
L1_130
  6
CONTINUOUS
 62
         4
100
AcDbText
 10
1738.8629902541
 20
-2.0874244176
 30
0.0
 40
2.7
  1
崷32f7
 50
90.0
  7
BOX
100
AcDbText
  0
ENDBLK
  5
427
100
AcDbEntity
  8
0
  6
CONTINUOUS
100
AcDbBlockEnd
  0
BLOCK
  5
429
100
AcDbEntity
  8
0
100
AcDbBlockBegin
  2
*D26
 70
        65
 10
0.0
 20
0.0
 30
0.0
  3
*D26
  1

  0
POINT
  5
42B
100
AcDbEntity
  8
DEFPOINTS
  6
CONTINUOUS
 62
         0
100
AcDbPoint
 10
1827.6267096441
 20
10.2602375849
 30
0.0
  0
POINT
  5
42C
100
AcDbEntity
  8
DEFPOINTS
  6
CONTINUOUS
 62
         0
100
AcDbPoint
 10
1820.3100863613
 20
10.2602375849
 30
0.0
  0
POINT
  5
42D
100
AcDbEntity
  8
DEFPOINTS
  6
CONTINUOUS
 62
         0
100
AcDbPoint
 10
1820.3100863613
 20
-0.2397624151
 30
0.0
  0
LINE
  5
42E
100
AcDbEntity
  8
L1_130
  6
CONTINUOUS
 62
         4
100
AcDbLine
 10
1821.6600863613
 20
10.2602375849
 30
0.0
 11
1828.3017096441
 21
10.2602375849
 31
0.0
  0
LINE
  5
42F
100
AcDbEntity
  8
L1_130
  6
CONTINUOUS
 62
         4
100
AcDbLine
 10
1821.6600863613
 20
-0.2397624151
 30
0.0
 11
1828.3017096441
 21
-0.2397624151
 31
0.0
  0
LINE
  5
430
100
AcDbEntity
  8
L1_130
  6
CONTINUOUS
 62
         4
100
AcDbLine
 10
1827.6267096441
 20
10.2602375849
 30
0.0
 11
1827.6267096441
 21
-0.2397624151
 31
0.0
  0
SOLID
  5
431
100
AcDbEntity
  8
L1_130
  6
CONTINUOUS
 62
         4
100
AcDbTrace
 10
1827.6267096441
 20
10.2602375849
 30
0.0
 11
1828.0317096441
 21
7.5602375849
 31
0.0
 12
1827.2217096441
 22
7.5602375849
 32
0.0
 13
1827.6267096441
 23
10.2602375849
 33
0.0
  0
SOLID
  5
432
100
AcDbEntity
  8
L1_130
  6
CONTINUOUS
 62
         4
100
AcDbTrace
 10
1827.6267096441
 20
-0.2397624151
 30
0.0
 11
1827.2217096441
 21
2.4602375849
 31
0.0
 12
1828.0317096441
 22
2.4602375849
 32
0.0
 13
1827.6267096441
 23
-0.2397624151
 33
0.0
  0
TEXT
  5
434
100
AcDbEntity
  8
L1_130
  6
CONTINUOUS
 62
         4
100
AcDbText
 10
1825.6017096441
 20
-0.5173147975
 30
0.0
 40
2.7
  1
10.5
 50
90.0
  7
BOX
100
AcDbText
  0
ENDBLK
  5
435
100
AcDbEntity
  8
0
  6
CONTINUOUS
100
AcDbBlockEnd
  0
BLOCK
  5
437
100
AcDbEntity
  8
0
100
AcDbBlockBegin
  2
*D27
 70
        65
 10
0.0
 20
0.0
 30
0.0
  3
*D27
  1

  0
POINT
  5
439
100
AcDbEntity
  8
DEFPOINTS
  6
CONTINUOUS
 62
         0
100
AcDbPoint
 10
1834.347569642
 20
17.7102375849
 30
0.0
  0
POINT
  5
43A
100
AcDbEntity
  8
DEFPOINTS
  6
CONTINUOUS
 62
         0
100
AcDbPoint
 10
1819.6100863613
 20
17.7102375849
 30
0.0
  0
POINT
  5
43B
100
AcDbEntity
  8
DEFPOINTS
  6
CONTINUOUS
 62
         0
100
AcDbPoint
 10
1819.6100863613
 20
-7.6897624151
 30
0.0
  0
LINE
  5
43C
100
AcDbEntity
  8
L1_130
  6
CONTINUOUS
 62
         4
100
AcDbLine
 10
1820.9600863613
 20
17.7102375849
 30
0.0
 11
1835.022569642
 21
17.7102375849
 31
0.0
  0
LINE
  5
43D
100
AcDbEntity
  8
L1_130
  6
CONTINUOUS
 62
         4
100
AcDbLine
 10
1820.9600863613
 20
-7.6897624151
 30
0.0
 11
1835.022569642
 21
-7.6897624151
 31
0.0
  0
LINE
  5
43E
100
AcDbEntity
  8
L1_130
  6
CONTINUOUS
 62
         4
100
AcDbLine
 10
1834.347569642
 20
17.7102375849
 30
0.0
 11
1834.347569642
 21
-7.6897624151
 31
0.0
  0
SOLID
  5
43F
100
AcDbEntity
  8
L1_130
  6
CONTINUOUS
 62
         4
100
AcDbTrace
 10
1834.347569642
 20
17.7102375849
 30
0.0
 11
1834.752569642
 21
15.0102375849
 31
0.0
 12
1833.942569642
 22
15.0102375849
 32
0.0
 13
1834.347569642
 23
17.7102375849
 33
0.0
  0
SOLID
  5
440
100
AcDbEntity
  8
L1_130
  6
CONTINUOUS
 62
         4
100
AcDbTrace
 10
1834.347569642
 20
-7.6897624151
 30
0.0
 11
1833.942569642
 21
-4.9897624151
 31
0.0
 12
1834.752569642
 22
-4.9897624151
 32
0.0
 13
1834.347569642
 23
-7.6897624151
 33
0.0
  0
TEXT
  5
442
100
AcDbEntity
  8
L1_130
  6
CONTINUOUS
 62
         4
100
AcDbText
 10
1832.322569642
 20
-6.477386464
 30
0.0
 40
2.7
  1
崷25.4g6
 50
90.0
  7
BOX
100
AcDbText
  0
ENDBLK
  5
443
100
AcDbEntity
  8
0
  6
CONTINUOUS
100
AcDbBlockEnd
  0
BLOCK
  5
45B
100
AcDbEntity
  8
0
100
AcDbBlockBegin
  2
*D28
 70
        65
 10
0.0
 20
0.0
 30
0.0
  3
*D28
  1

  0
POINT
  5
45D
100
AcDbEntity
  8
DEFPOINTS
  6
CONTINUOUS
 62
         0
100
AcDbPoint
 10
1848.2459875758
 20
14.5102375849
 30
0.0
  0
POINT
  5
45E
100
AcDbEntity
  8
DEFPOINTS
  6
CONTINUOUS
 62
         0
100
AcDbPoint
 10
1852.0700863613
 20
14.5102375849
 30
0.0
  0
POINT
  5
45F
100
AcDbEntity
  8
DEFPOINTS
  6
CONTINUOUS
 62
         0
100
AcDbPoint
 10
1852.0700863613
 20
-4.4897624151
 30
0.0
  0
LINE
  5
460
100
AcDbEntity
  8
L1_130
  6
CONTINUOUS
 62
         4
100
AcDbLine
 10
1850.7200863613
 20
14.5102375849
 30
0.0
 11
1847.5709875758
 21
14.5102375849
 31
0.0
  0
LINE
  5
461
100
AcDbEntity
  8
L1_130
  6
CONTINUOUS
 62
         4
100
AcDbLine
 10
1850.7200863613
 20
-4.4897624151
 30
0.0
 11
1847.5709875758
 21
-4.4897624151
 31
0.0
  0
LINE
  5
462
100
AcDbEntity
  8
L1_130
  6
CONTINUOUS
 62
         4
100
AcDbLine
 10
1848.2459875758
 20
14.5102375849
 30
0.0
 11
1848.2459875758
 21
-4.4897624151
 31
0.0
  0
SOLID
  5
463
100
AcDbEntity
  8
L1_130
  6
CONTINUOUS
 62
         4
100
AcDbTrace
 10
1848.2459875758
 20
14.5102375849
 30
0.0
 11
1848.6509875758
 21
11.8102375849
 31
0.0
 12
1847.8409875758
 22
11.8102375849
 32
0.0
 13
1848.2459875758
 23
14.5102375849
 33
0.0
  0
SOLID
  5
464
100
AcDbEntity
  8
L1_130
  6
CONTINUOUS
 62
         4
100
AcDbTrace
 10
1848.2459875758
 20
-4.4897624151
 30
0.0
 11
1847.8409875758
 21
-1.7897624151
 31
0.0
 12
1848.6509875758
 22
-1.7897624151
 32
0.0
 13
1848.2459875758
 23
-4.4897624151
 33
0.0
  0
TEXT
  5
466
100
AcDbEntity
  8
L1_130
  6
CONTINUOUS
 62
         4
100
AcDbText
 10
1846.2209875758
 20
-0.19015755
 30
0.0
 40
2.7
  1
崷19
 50
90.0
  7
BOX
100
AcDbText
  0
ENDBLK
  5
467
100
AcDbEntity
  8
0
  6
CONTINUOUS
100
AcDbBlockEnd
  0
BLOCK
  5
469
100
AcDbEntity
  8
0
100
AcDbBlockBegin
  2
*D29
 70
        65
 10
0.0
 20
0.0
 30
0.0
  3
*D29
  1

  0
POINT
  5
46B
100
AcDbEntity
  8
DEFPOINTS
  6
CONTINUOUS
 62
         0
100
AcDbPoint
 10
1851.5700863613
 20
23.0637127319
 30
0.0
  0
POINT
  5
46C
100
AcDbEntity
  8
DEFPOINTS
  6
CONTINUOUS
 62
         0
100
AcDbPoint
 10
1851.5700863613
 20
14.0102375849
 30
0.0
  0
POINT
  5
46D
100
AcDbEntity
  8
DEFPOINTS
  6
CONTINUOUS
 62
         0
100
AcDbPoint
 10
1863.7200863613
 20
14.4102375849
 30
0.0
  0
LINE
  5
46E
100
AcDbEntity
  8
L1_130
  6
CONTINUOUS
 62
         4
100
AcDbLine
 10
1851.5700863613
 20
15.3602375849
 30
0.0
 11
1851.5700863613
 21
23.7387127319
 31
0.0
  0
LINE
  5
46F
100
AcDbEntity
  8
L1_130
  6
CONTINUOUS
 62
         4
100
AcDbLine
 10
1863.7200863613
 20
15.7602375849
 30
0.0
 11
1863.7200863613
 21
23.7387127319
 31
0.0
  0
LINE
  5
470
100
AcDbEntity
  8
L1_130
  6
CONTINUOUS
 62
         4
100
AcDbLine
 10
1851.5700863613
 20
23.0637127319
 30
0.0
 11
1863.7200863613
 21
23.0637127319
 31
0.0
  0
SOLID
  5
471
100
AcDbEntity
  8
L1_130
  6
CONTINUOUS
 62
         4
100
AcDbTrace
 10
1851.5700863613
 20
23.0637127319
 30
0.0
 11
1854.2700863613
 21
23.4687127319
 31
0.0
 12
1854.2700863613
 22
22.6587127319
 32
0.0
 13
1851.5700863613
 23
23.0637127319
 33
0.0
  0
SOLID
  5
472
100
AcDbEntity
  8
L1_130
  6
CONTINUOUS
 62
         4
100
AcDbTrace
 10
1863.7200863613
 20
23.0637127319
 30
0.0
 11
1861.0200863613
 21
22.6587127319
 31
0.0
 12
1861.0200863613
 22
23.4687127319
 32
0.0
 13
1863.7200863613
 23
23.0637127319
 33
0.0
  0
TEXT
  5
474
100
AcDbEntity
  8
L1_130
  6
CONTINUOUS
 62
         4
100
AcDbText
 10
1851.1203945633
 20
25.0887127319
 30
0.0
 40
2.7
  1
12.15
  7
BOX
100
AcDbText
  0
ENDBLK
  5
475
100
AcDbEntity
  8
0
  6
CONTINUOUS
100
AcDbBlockEnd
  0
BLOCK
  5
477
100
AcDbEntity
  8
0
100
AcDbBlockBegin
  2
*D30
 70
        65
 10
0.0
 20
0.0
 30
0.0
  3
*D30
  1

  0
POINT
  5
479
100
AcDbEntity
  8
DEFPOINTS
  6
CONTINUOUS
 62
         0
100
AcDbPoint
 10
1851.5700863613
 20
17.4616497409
 30
0.0
  0
POINT
  5
47A
100
AcDbEntity
  8
DEFPOINTS
  6
CONTINUOUS
 62
         0
100
AcDbPoint
 10
1851.5700863613
 20
14.2102375849
 30
0.0
  0
POINT
  5
47B
100
AcDbEntity
  8
DEFPOINTS
  6
CONTINUOUS
 62
         0
100
AcDbPoint
 10
1856.0700863613
 20
14.2102375849
 30
0.0
  0
LINE
  5
47C
100
AcDbEntity
  8
L1_130
  6
CONTINUOUS
 62
         4
100
AcDbLine
 10
1851.5700863613
 20
15.5602375849
 30
0.0
 11
1851.5700863613
 21
18.1366497409
 31
0.0
  0
LINE
  5
47D
100
AcDbEntity
  8
L1_130
  6
CONTINUOUS
 62
         4
100
AcDbLine
 10
1856.0700863613
 20
15.5602375849
 30
0.0
 11
1856.0700863613
 21
18.1366497409
 31
0.0
  0
LINE
  5
47E
100
AcDbEntity
  8
L1_130
  6
CONTINUOUS
 62
         4
100
AcDbLine
 10
1851.5700863613
 20
17.4616497409
 30
0.0
 11
1840.8338286309
 21
17.4616497409
 31
0.0
  0
SOLID
  5
47F
100
AcDbEntity
  8
L1_130
  6
CONTINUOUS
 62
         4
100
AcDbTrace
 10
1851.5700863613
 20
17.4616497409
 30
0.0
 11
1848.8700863613
 21
17.0566497409
 31
0.0
 12
1848.8700863613
 22
17.8666497409
 32
0.0
 13
1851.5700863613
 23
17.4616497409
 33
0.0
  0
LINE
  5
480
100
AcDbEntity
  8
L1_130
  6
CONTINUOUS
 62
         4
100
AcDbLine
 10
1856.0700863613
 20
17.4616497409
 30
0.0
 11
1861.4700863613
 21
17.4616497409
 31
0.0
  0
SOLID
  5
481
100
AcDbEntity
  8
L1_130
  6
CONTINUOUS
 62
         4
100
AcDbTrace
 10
1856.0700863613
 20
17.4616497409
 30
0.0
 11
1858.7700863613
 21
17.8666497409
 31
0.0
 12
1858.7700863613
 22
17.0566497409
 32
0.0
 13
1856.0700863613
 23
17.4616497409
 33
0.0
  0
LINE
  5
482
100
AcDbEntity
  8
L1_130
  6
CONTINUOUS
 62
         4
100
AcDbLine
 10
1851.5700863613
 20
17.4616497409
 30
0.0
 11
1856.0700863613
 21
17.4616497409
 31
0.0
  0
TEXT
  5
484
100
AcDbEntity
  8
L1_130
  6
CONTINUOUS
 62
         4
100
AcDbText
 10
1842.1838286309
 20
19.4866497409
 30
0.0
 40
2.7
  1
4.5
  7
BOX
100
AcDbText
  0
ENDBLK
  5
485
100
AcDbEntity
  8
0
  6
CONTINUOUS
100
AcDbBlockEnd
  0
BLOCK
  5
487
100
AcDbEntity
  8
0
100
AcDbBlockBegin
  2
*D31
 70
        65
 10
0.0
 20
0.0
 30
0.0
  3
*D31
  1

  0
POINT
  5
489
100
AcDbEntity
  8
DEFPOINTS
  6
CONTINUOUS
 62
         0
100
AcDbPoint
 10
1862.2200863613
 20
19.525567685
 30
0.0
  0
POINT
  5
48A
100
AcDbEntity
  8
DEFPOINTS
  6
CONTINUOUS
 62
         0
100
AcDbPoint
 10
1862.2200863613
 20
14.4102375849
 30
0.0
  0
POINT
  5
48B
100
AcDbEntity
  8
DEFPOINTS
  6
CONTINUOUS
 62
         0
100
AcDbPoint
 10
1863.7200863613
 20
14.4102375849
 30
0.0
  0
LINE
  5
48C
100
AcDbEntity
  8
L1_130
  6
CONTINUOUS
 62
         4
100
AcDbLine
 10
1862.2200863613
 20
15.7602375849
 30
0.0
 11
1862.2200863613
 21
20.200567685
 31
0.0
  0
LINE
  5
48D
100
AcDbEntity
  8
L1_130
  6
CONTINUOUS
 62
         4
100
AcDbLine
 10
1863.7200863613
 20
15.7602375849
 30
0.0
 11
1863.7200863613
 21
20.200567685
 31
0.0
  0
LINE
  5
48E
100
AcDbEntity
  8
L1_130
  6
CONTINUOUS
 62
         4
100
AcDbLine
 10
1862.2200863613
 20
19.525567685
 30
0.0
 11
1856.8200863613
 21
19.525567685
 31
0.0
  0
SOLID
  5
48F
100
AcDbEntity
  8
L1_130
  6
CONTINUOUS
 62
         4
100
AcDbTrace
 10
1862.2200863613
 20
19.525567685
 30
0.0
 11
1859.5200863613
 21
19.120567685
 31
0.0
 12
1859.5200863613
 22
19.930567685
 32
0.0
 13
1862.2200863613
 23
19.525567685
 33
0.0
  0
LINE
  5
490
100
AcDbEntity
  8
L1_130
  6
CONTINUOUS
 62
         4
100
AcDbLine
 10
1863.7200863613
 20
19.525567685
 30
0.0
 11
1874.5924587136
 21
19.525567685
 31
0.0
  0
SOLID
  5
491
100
AcDbEntity
  8
L1_130
  6
CONTINUOUS
 62
         4
100
AcDbTrace
 10
1863.7200863613
 20
19.525567685
 30
0.0
 11
1866.4200863613
 21
19.930567685
 31
0.0
 12
1866.4200863613
 22
19.120567685
 32
0.0
 13
1863.7200863613
 23
19.525567685
 33
0.0
  0
LINE
  5
492
100
AcDbEntity
  8
L1_130
  6
CONTINUOUS
 62
         4
100
AcDbLine
 10
1862.2200863613
 20
19.525567685
 30
0.0
 11
1863.7200863613
 21
19.525567685
 31
0.0
  0
TEXT
  5
494
100
AcDbEntity
  8
L1_130
  6
CONTINUOUS
 62
         4
100
AcDbText
 10
1865.1424587136
 20
21.550567685
 30
0.0
 40
2.7
  1
1.5
  7
BOX
100
AcDbText
  0
ENDBLK
  5
495
100
AcDbEntity
  8
0
  6
CONTINUOUS
100
AcDbBlockEnd
  0
BLOCK
  5
4B6
100
AcDbEntity
  8
0
100
AcDbBlockBegin
  2
*D32
 70
        65
 10
0.0
 20
0.0
 30
0.0
  3
*D32
  1

  0
POINT
  5
4B8
100
AcDbEntity
  8
DEFPOINTS
  6
CONTINUOUS
 62
         0
100
AcDbPoint
 10
1880.8624754977
 20
22.0102375849
 30
0.0
  0
POINT
  5
4B9
100
AcDbEntity
  8
DEFPOINTS
  6
CONTINUOUS
 62
         0
100
AcDbPoint
 10
1883.8100863613
 20
22.0102375849
 30
0.0
  0
POINT
  5
4BA
100
AcDbEntity
  8
DEFPOINTS
  6
CONTINUOUS
 62
         0
100
AcDbPoint
 10
1883.8100863613
 20
-11.9897624151
 30
0.0
  0
LINE
  5
4BB
100
AcDbEntity
  8
L1_130
  6
CONTINUOUS
 62
         4
100
AcDbLine
 10
1882.4600863613
 20
22.0102375849
 30
0.0
 11
1880.1874754977
 21
22.0102375849
 31
0.0
  0
LINE
  5
4BC
100
AcDbEntity
  8
L1_130
  6
CONTINUOUS
 62
         4
100
AcDbLine
 10
1882.4600863613
 20
-11.9897624151
 30
0.0
 11
1880.1874754977
 21
-11.9897624151
 31
0.0
  0
LINE
  5
4BD
100
AcDbEntity
  8
L1_130
  6
CONTINUOUS
 62
         4
100
AcDbLine
 10
1880.8624754977
 20
22.0102375849
 30
0.0
 11
1880.8624754977
 21
-11.9897624151
 31
0.0
  0
SOLID
  5
4BE
100
AcDbEntity
  8
L1_130
  6
CONTINUOUS
 62
         4
100
AcDbTrace
 10
1880.8624754977
 20
22.0102375849
 30
0.0
 11
1881.2674754977
 21
19.3102375849
 31
0.0
 12
1880.4574754977
 22
19.3102375849
 32
0.0
 13
1880.8624754977
 23
22.0102375849
 33
0.0
  0
SOLID
  5
4BF
100
AcDbEntity
  8
L1_130
  6
CONTINUOUS
 62
         4
100
AcDbTrace
 10
1880.8624754977
 20
-11.9897624151
 30
0.0
 11
1880.4574754977
 21
-9.2897624151
 31
0.0
 12
1881.2674754977
 22
-9.2897624151
 32
0.0
 13
1880.8624754977
 23
-11.9897624151
 33
0.0
  0
TEXT
  5
4C1
100
AcDbEntity
  8
L1_130
  6
CONTINUOUS
 62
         4
100
AcDbText
 10
1878.8374754977
 20
-6.1675468895
 30
0.0
 40
2.7
  1
崷33.99
 50
90.0
  7
BOX
100
AcDbText
  0
ENDBLK
  5
4C2
100
AcDbEntity
  8
0
  6
CONTINUOUS
100
AcDbBlockEnd
  0
BLOCK
  5
4C4
100
AcDbEntity
  8
0
100
AcDbBlockBegin
  2
*D33
 70
        65
 10
0.0
 20
0.0
 30
0.0
  3
*D33
  1

  0
POINT
  5
4C6
100
AcDbEntity
  8
DEFPOINTS
  6
CONTINUOUS
 62
         0
100
AcDbPoint
 10
1922.0524120326
 20
24.5102375849
 30
0.0
  0
POINT
  5
4C7
100
AcDbEntity
  8
DEFPOINTS
  6
CONTINUOUS
 62
         0
100
AcDbPoint
 10
1914.6100863613
 20
24.5102375849
 30
0.0
  0
POINT
  5
4C8
100
AcDbEntity
  8
DEFPOINTS
  6
CONTINUOUS
 62
         0
100
AcDbPoint
 10
1914.6100863613
 20
-14.4897624151
 30
0.0
  0
LINE
  5
4C9
100
AcDbEntity
  8
L1_130
  6
CONTINUOUS
 62
         4
100
AcDbLine
 10
1915.9600863613
 20
24.5102375849
 30
0.0
 11
1922.7274120326
 21
24.5102375849
 31
0.0
  0
LINE
  5
4CA
100
AcDbEntity
  8
L1_130
  6
CONTINUOUS
 62
         4
100
AcDbLine
 10
1915.9600863613
 20
-14.4897624151
 30
0.0
 11
1922.7274120326
 21
-14.4897624151
 31
0.0
  0
LINE
  5
4CB
100
AcDbEntity
  8
L1_130
  6
CONTINUOUS
 62
         4
100
AcDbLine
 10
1922.0524120326
 20
24.5102375849
 30
0.0
 11
1922.0524120326
 21
-14.4897624151
 31
0.0
  0
SOLID
  5
4CC
100
AcDbEntity
  8
L1_130
  6
CONTINUOUS
 62
         4
100
AcDbTrace
 10
1922.0524120326
 20
24.5102375849
 30
0.0
 11
1922.4574120326
 21
21.8102375849
 31
0.0
 12
1921.6474120326
 22
21.8102375849
 32
0.0
 13
1922.0524120326
 23
24.5102375849
 33
0.0
  0
SOLID
  5
4CD
100
AcDbEntity
  8
L1_130
  6
CONTINUOUS
 62
         4
100
AcDbTrace
 10
1922.0524120326
 20
-14.4897624151
 30
0.0
 11
1921.6474120326
 21
-11.7897624151
 31
0.0
 12
1922.4574120326
 22
-11.7897624151
 32
0.0
 13
1922.0524120326
 23
-14.4897624151
 33
0.0
  0
TEXT
  5
4CF
100
AcDbEntity
  8
L1_130
  6
CONTINUOUS
 62
         4
100
AcDbText
 10
1920.0274120326
 20
0.5412297516
 30
0.0
 40
2.7
  1
崷39
 50
90.0
  7
BOX
100
AcDbText
  0
ENDBLK
  5
4D0
100
AcDbEntity
  8
0
  6
CONTINUOUS
100
AcDbBlockEnd
  0
BLOCK
  5
4D2
100
AcDbEntity
  8
0
100
AcDbBlockBegin
  2
*D34
 70
        65
 10
0.0
 20
0.0
 30
0.0
  3
*D34
  1

  0
POINT
  5
4D4
100
AcDbEntity
  8
DEFPOINTS
  6
CONTINUOUS
 62
         0
100
AcDbPoint
 10
1915.1100863613
 20
27.7613036362
 30
0.0
  0
POINT
  5
4D5
100
AcDbEntity
  8
DEFPOINTS
  6
CONTINUOUS
 62
         0
100
AcDbPoint
 10
1915.1100863613
 20
24.0102375849
 30
0.0
  0
POINT
  5
4D6
100
AcDbEntity
  8
DEFPOINTS
  6
CONTINUOUS
 62
         0
100
AcDbPoint
 10
1908.1100863613
 20
24.0102375849
 30
0.0
  0
LINE
  5
4D7
100
AcDbEntity
  8
L1_130
  6
CONTINUOUS
 62
         4
100
AcDbLine
 10
1915.1100863613
 20
25.3602375849
 30
0.0
 11
1915.1100863613
 21
28.4363036362
 31
0.0
  0
LINE
  5
4D8
100
AcDbEntity
  8
L1_130
  6
CONTINUOUS
 62
         4
100
AcDbLine
 10
1908.1100863613
 20
25.3602375849
 30
0.0
 11
1908.1100863613
 21
28.4363036362
 31
0.0
  0
LINE
  5
4D9
100
AcDbEntity
  8
L1_130
  6
CONTINUOUS
 62
         4
100
AcDbLine
 10
1915.1100863613
 20
27.7613036362
 30
0.0
 11
1908.1100863613
 21
27.7613036362
 31
0.0
  0
SOLID
  5
4DA
100
AcDbEntity
  8
L1_130
  6
CONTINUOUS
 62
         4
100
AcDbTrace
 10
1915.1100863613
 20
27.7613036362
 30
0.0
 11
1912.4100863613
 21
27.3563036362
 31
0.0
 12
1912.4100863613
 22
28.1663036362
 32
0.0
 13
1915.1100863613
 23
27.7613036362
 33
0.0
  0
SOLID
  5
4DB
100
AcDbEntity
  8
L1_130
  6
CONTINUOUS
 62
         4
100
AcDbTrace
 10
1908.1100863613
 20
27.7613036362
 30
0.0
 11
1910.8100863613
 21
28.1663036362
 31
0.0
 12
1910.8100863613
 22
27.3563036362
 32
0.0
 13
1908.1100863613
 23
27.7613036362
 33
0.0
  0
TEXT
  5
4DD
100
AcDbEntity
  8
L1_130
  6
CONTINUOUS
 62
         4
100
AcDbText
 10
1910.3048654758
 20
29.7863036362
 30
0.0
 40
2.7
  1
7
  7
BOX
100
AcDbText
  0
ENDBLK
  5
4DE
100
AcDbEntity
  8
0
  6
CONTINUOUS
100
AcDbBlockEnd
  0
BLOCK
  5
4E0
100
AcDbEntity
  8
0
100
AcDbBlockBegin
  2
*D35
 70
        65
 10
0.0
 20
0.0
 30
0.0
  3
*D35
  1

  0
POINT
  5
4E2
100
AcDbEntity
  8
DEFPOINTS
  6
CONTINUOUS
 62
         0
100
AcDbPoint
 10
1915.1100863613
 20
34.4715494447
 30
0.0
  0
POINT
  5
4E3
100
AcDbEntity
  8
DEFPOINTS
  6
CONTINUOUS
 62
         0
100
AcDbPoint
 10
1915.1100863613
 20
24.0102375849
 30
0.0
  0
POINT
  5
4E4
100
AcDbEntity
  8
DEFPOINTS
  6
CONTINUOUS
 62
         0
100
AcDbPoint
 10
1883.6100863613
 20
21.8102375849
 30
0.0
  0
LINE
  5
4E5
100
AcDbEntity
  8
L1_130
  6
CONTINUOUS
 62
         4
100
AcDbLine
 10
1915.1100863613
 20
25.3602375849
 30
0.0
 11
1915.1100863613
 21
35.1465494447
 31
0.0
  0
LINE
  5
4E6
100
AcDbEntity
  8
L1_130
  6
CONTINUOUS
 62
         4
100
AcDbLine
 10
1883.6100863613
 20
23.1602375849
 30
0.0
 11
1883.6100863613
 21
35.1465494447
 31
0.0
  0
LINE
  5
4E7
100
AcDbEntity
  8
L1_130
  6
CONTINUOUS
 62
         4
100
AcDbLine
 10
1915.1100863613
 20
34.4715494447
 30
0.0
 11
1883.6100863613
 21
34.4715494447
 31
0.0
  0
SOLID
  5
4E8
100
AcDbEntity
  8
L1_130
  6
CONTINUOUS
 62
         4
100
AcDbTrace
 10
1915.1100863613
 20
34.4715494447
 30
0.0
 11
1912.4100863613
 21
34.0665494447
 31
0.0
 12
1912.4100863613
 22
34.8765494447
 32
0.0
 13
1915.1100863613
 23
34.4715494447
 33
0.0
  0
SOLID
  5
4E9
100
AcDbEntity
  8
L1_130
  6
CONTINUOUS
 62
         4
100
AcDbTrace
 10
1883.6100863613
 20
34.4715494447
 30
0.0
 11
1886.3100863613
 21
34.8765494447
 31
0.0
 12
1886.3100863613
 22
34.0665494447
 32
0.0
 13
1883.6100863613
 23
34.4715494447
 33
0.0
  0
TEXT
  5
4EB
100
AcDbEntity
  8
L1_130
  6
CONTINUOUS
 62
         4
100
AcDbText
 10
1892.8850172235
 20
36.4965494447
 30
0.0
 40
2.7
  1
31.5
  7
BOX
100
AcDbText
  0
ENDBLK
  5
4EC
100
AcDbEntity
  8
0
  6
CONTINUOUS
100
AcDbBlockEnd
  0
BLOCK
  5
507
100
AcDbEntity
  8
0
100
AcDbBlockBegin
  2
*D36
 70
        65
 10
0.0
 20
0.0
 30
0.0
  3
*D36
  1

  0
POINT
  5
509
100
AcDbEntity
  8
DEFPOINTS
  6
CONTINUOUS
 62
         0
100
AcDbPoint
 10
1644.291126319
 20
-56.8850995244
 30
0.0
  0
POINT
  5
50A
100
AcDbEntity
  8
DEFPOINTS
  6
CONTINUOUS
 62
         0
100
AcDbPoint
 10
1644.291126319
 20
-48.6721196152
 30
0.0
  0
POINT
  5
50B
100
AcDbEntity
  8
DEFPOINTS
  6
CONTINUOUS
 62
         0
100
AcDbPoint
 10
1655.541126319
 20
-49.1721196152
 30
0.0
  0
LINE
  5
50C
100
AcDbEntity
  8
L1_130
  6
CONTINUOUS
 62
         4
100
AcDbLine
 10
1644.291126319
 20
-50.0221196152
 30
0.0
 11
1644.291126319
 21
-57.5600995244
 31
0.0
  0
LINE
  5
50D
100
AcDbEntity
  8
L1_130
  6
CONTINUOUS
 62
         4
100
AcDbLine
 10
1655.541126319
 20
-50.5221196152
 30
0.0
 11
1655.541126319
 21
-57.5600995244
 31
0.0
  0
LINE
  5
50E
100
AcDbEntity
  8
L1_130
  6
CONTINUOUS
 62
         4
100
AcDbLine
 10
1644.291126319
 20
-56.8850995244
 30
0.0
 11
1655.541126319
 21
-56.8850995244
 31
0.0
  0
SOLID
  5
50F
100
AcDbEntity
  8
L1_130
  6
CONTINUOUS
 62
         4
100
AcDbTrace
 10
1644.291126319
 20
-56.8850995244
 30
0.0
 11
1646.991126319
 21
-56.4800995244
 31
0.0
 12
1646.991126319
 22
-57.2900995244
 32
0.0
 13
1644.291126319
 23
-56.8850995244
 33
0.0
  0
SOLID
  5
510
100
AcDbEntity
  8
L1_130
  6
CONTINUOUS
 62
         4
100
AcDbTrace
 10
1655.541126319
 20
-56.8850995244
 30
0.0
 11
1652.841126319
 21
-57.2900995244
 31
0.0
 12
1652.841126319
 22
-56.4800995244
 32
0.0
 13
1655.541126319
 23
-56.8850995244
 33
0.0
  0
TEXT
  5
512
100
AcDbEntity
  8
L1_130
  6
CONTINUOUS
 62
         4
100
AcDbText
 10
1643.166126319
 20
-54.8600995244
 30
0.0
 40
2.7
  1
11.25
  7
BOX
100
AcDbText
  0
ENDBLK
  5
513
100
AcDbEntity
  8
0
  6
CONTINUOUS
100
AcDbBlockEnd
  0
BLOCK
  5
515
100
AcDbEntity
  8
0
100
AcDbBlockBegin
  2
*D37
 70
        65
 10
0.0
 20
0.0
 30
0.0
  3
*D37
  1

  0
POINT
  5
517
100
AcDbEntity
  8
DEFPOINTS
  6
CONTINUOUS
 62
         0
100
AcDbPoint
 10
1668.546954719
 20
-42.1966196152
 30
0.0
  0
POINT
  5
518
100
AcDbEntity
  8
DEFPOINTS
  6
CONTINUOUS
 62
         0
100
AcDbPoint
 10
1656.516626319
 20
-42.1966196152
 30
0.0
  0
POINT
  5
519
100
AcDbEntity
  8
DEFPOINTS
  6
CONTINUOUS
 62
         0
100
AcDbPoint
 10
1656.516626319
 20
-50.1476196152
 30
0.0
  0
LINE
  5
51A
100
AcDbEntity
  8
L1_130
  6
CONTINUOUS
 62
         4
100
AcDbLine
 10
1657.866626319
 20
-42.1966196152
 30
0.0
 11
1669.221954719
 21
-42.1966196152
 31
0.0
  0
LINE
  5
51B
100
AcDbEntity
  8
L1_130
  6
CONTINUOUS
 62
         4
100
AcDbLine
 10
1657.866626319
 20
-50.1476196152
 30
0.0
 11
1669.221954719
 21
-50.1476196152
 31
0.0
  0
LINE
  5
51C
100
AcDbEntity
  8
L1_130
  6
CONTINUOUS
 62
         4
100
AcDbLine
 10
1668.546954719
 20
-42.1966196152
 30
0.0
 11
1668.546954719
 21
-50.1476196152
 31
0.0
  0
SOLID
  5
51D
100
AcDbEntity
  8
L1_130
  6
CONTINUOUS
 62
         4
100
AcDbTrace
 10
1668.546954719
 20
-42.1966196152
 30
0.0
 11
1668.951954719
 21
-44.8966196152
 31
0.0
 12
1668.141954719
 22
-44.8966196152
 32
0.0
 13
1668.546954719
 23
-42.1966196152
 33
0.0
  0
SOLID
  5
51E
100
AcDbEntity
  8
L1_130
  6
CONTINUOUS
 62
         4
100
AcDbTrace
 10
1668.546954719
 20
-50.1476196152
 30
0.0
 11
1668.141954719
 21
-47.4476196152
 31
0.0
 12
1668.951954719
 22
-47.4476196152
 32
0.0
 13
1668.546954719
 23
-50.1476196152
 33
0.0
  0
TEXT
  5
520
100
AcDbEntity
  8
L1_130
  6
CONTINUOUS
 62
         4
100
AcDbText
 10
1666.521954719
 20
-55.6221196152
 30
0.0
 40
2.7
  1
崷7.951
 50
90.0
  7
BOX
100
AcDbText
  0
ENDBLK
  5
521
100
AcDbEntity
  8
0
  6
CONTINUOUS
100
AcDbBlockEnd
  0
BLOCK
  5
52B
100
AcDbEntity
  8
0
100
AcDbBlockBegin
  2
*D38
 70
        65
 10
0.0
 20
0.0
 30
0.0
  3
*D38
  1

  0
POINT
  5
52D
100
AcDbEntity
  8
DEFPOINTS
  6
CONTINUOUS
 62
         0
100
AcDbPoint
 10
1829.2782396055
 20
-24.6721196152
 30
0.0
  0
POINT
  5
52E
100
AcDbEntity
  8
DEFPOINTS
  6
CONTINUOUS
 62
         0
100
AcDbPoint
 10
1838.5457706463
 20
-24.6721196152
 30
0.0
  0
POINT
  5
52F
100
AcDbEntity
  8
DEFPOINTS
  6
CONTINUOUS
 62
         0
100
AcDbPoint
 10
1838.5457706463
 20
-67.6721196152
 30
0.0
  0
LINE
  5
530
100
AcDbEntity
  8
L1_130
  6
CONTINUOUS
 62
         4
100
AcDbLine
 10
1837.1957706463
 20
-24.6721196152
 30
0.0
 11
1828.6032396055
 21
-24.6721196152
 31
0.0
  0
LINE
  5
531
100
AcDbEntity
  8
L1_130
  6
CONTINUOUS
 62
         4
100
AcDbLine
 10
1837.1957706463
 20
-67.6721196152
 30
0.0
 11
1828.6032396055
 21
-67.6721196152
 31
0.0
  0
LINE
  5
532
100
AcDbEntity
  8
L1_130
  6
CONTINUOUS
 62
         4
100
AcDbLine
 10
1829.2782396055
 20
-24.6721196152
 30
0.0
 11
1829.2782396055
 21
-67.6721196152
 31
0.0
  0
SOLID
  5
533
100
AcDbEntity
  8
L1_130
  6
CONTINUOUS
 62
         4
100
AcDbTrace
 10
1829.2782396055
 20
-24.6721196152
 30
0.0
 11
1829.6832396055
 21
-27.3721196152
 31
0.0
 12
1828.8732396055
 22
-27.3721196152
 32
0.0
 13
1829.2782396055
 23
-24.6721196152
 33
0.0
  0
SOLID
  5
534
100
AcDbEntity
  8
L1_130
  6
CONTINUOUS
 62
         4
100
AcDbTrace
 10
1829.2782396055
 20
-67.6721196152
 30
0.0
 11
1828.8732396055
 21
-64.9721196152
 31
0.0
 12
1829.6832396055
 22
-64.9721196152
 32
0.0
 13
1829.2782396055
 23
-67.6721196152
 33
0.0
  0
TEXT
  5
536
100
AcDbEntity
  8
L1_130
  6
CONTINUOUS
 62
         4
100
AcDbText
 10
1827.2532396055
 20
-51.5721196152
 30
0.0
 40
2.7
  1
崷42
 50
90.0
  7
BOX
100
AcDbText
  0
ENDBLK
  5
537
100
AcDbEntity
  8
0
  6
CONTINUOUS
100
AcDbBlockEnd
  0
BLOCK
  5
53B
100
AcDbEntity
  8
0
100
AcDbBlockBegin
  2
*D39
 70
        65
 10
0.0
 20
0.0
 30
0.0
  3
*D39
  1

  0
POINT
  5
53D
100
AcDbEntity
  8
DEFPOINTS
  6
CONTINUOUS
 62
         0
100
AcDbPoint
 10
1802.5364257879
 20
-35.9221196152
 30
0.0
  0
POINT
  5
53E
100
AcDbEntity
  8
DEFPOINTS
  6
CONTINUOUS
 62
         0
100
AcDbPoint
 10
1809.6108778809
 20
-35.9221196152
 30
0.0
  0
POINT
  5
53F
100
AcDbEntity
  8
DEFPOINTS
  6
CONTINUOUS
 62
         0
100
AcDbPoint
 10
1809.6108778809
 20
-56.4221196152
 30
0.0
  0
LINE
  5
540
100
AcDbEntity
  8
L1_130
  6
CONTINUOUS
 62
         4
100
AcDbLine
 10
1808.2608778809
 20
-35.9221196152
 30
0.0
 11
1801.8614257879
 21
-35.9221196152
 31
0.0
  0
LINE
  5
541
100
AcDbEntity
  8
L1_130
  6
CONTINUOUS
 62
         4
100
AcDbLine
 10
1808.2608778809
 20
-56.4221196152
 30
0.0
 11
1801.8614257879
 21
-56.4221196152
 31
0.0
  0
LINE
  5
542
100
AcDbEntity
  8
L1_130
  6
CONTINUOUS
 62
         4
100
AcDbLine
 10
1802.5364257879
 20
-35.9221196152
 30
0.0
 11
1802.5364257879
 21
-56.4221196152
 31
0.0
  0
SOLID
  5
543
100
AcDbEntity
  8
L1_130
  6
CONTINUOUS
 62
         4
100
AcDbTrace
 10
1802.5364257879
 20
-35.9221196152
 30
0.0
 11
1802.9414257879
 21
-38.6221196152
 31
0.0
 12
1802.1314257879
 22
-38.6221196152
 32
0.0
 13
1802.5364257879
 23
-35.9221196152
 33
0.0
  0
SOLID
  5
544
100
AcDbEntity
  8
L1_130
  6
CONTINUOUS
 62
         4
100
AcDbTrace
 10
1802.5364257879
 20
-56.4221196152
 30
0.0
 11
1802.1314257879
 21
-53.7221196152
 31
0.0
 12
1802.9414257879
 22
-53.7221196152
 32
0.0
 13
1802.5364257879
 23
-56.4221196152
 33
0.0
  0
TEXT
  5
546
100
AcDbEntity
  8
L1_130
  6
CONTINUOUS
 62
         4
100
AcDbText
 10
1800.5114257879
 20
-54.2721196152
 30
0.0
 40
2.7
  1
崷20.5
 50
90.0
  7
BOX
100
AcDbText
  0
ENDBLK
  5
547
100
AcDbEntity
  8
0
  6
CONTINUOUS
100
AcDbBlockEnd
  0
BLOCK
  5
54D
100
AcDbEntity
  8
0
100
AcDbBlockBegin
  2
*D40
 70
        65
 10
0.0
 20
0.0
 30
0.0
  3
*D40
  1

  0
POINT
  5
54F
100
AcDbEntity
  8
DEFPOINTS
  6
CONTINUOUS
 62
         0
100
AcDbPoint
 10
1766.6581835821
 20
-47.3413054221
 30
0.0
  0
POINT
  5
550
100
AcDbEntity
  8
DEFPOINTS
  6
CONTINUOUS
 62
         0
100
AcDbPoint
 10
1775.8916901314
 20
-45.0029338083
 30
0.0
  0
LINE
  5
551
100
AcDbEntity
  8
L1_130
  6
CONTINUOUS
 62
         4
100
AcDbLine
 10
1775.8916901314
 20
-45.0029338083
 30
0.0
 11
1771.2749368568
 21
-46.1721196152
 31
0.0
  0
SOLID
  5
552
100
AcDbEntity
  8
L1_130
  6
CONTINUOUS
 62
         4
100
AcDbTrace
 10
1775.8916901314
 20
-45.0029338083
 30
0.0
 11
1773.3737450207
 21
-46.0583850954
 31
0.0
 12
1773.1748913717
 22
-45.2731735149
 32
0.0
 13
1775.8916901314
 23
-45.0029338083
 33
0.0
  0
LINE
  5
553
100
AcDbEntity
  8
L1_130
  6
CONTINUOUS
 62
         4
100
AcDbLine
 10
1771.2749368568
 20
-46.1721196152
 30
0.0
 11
1766.6581835821
 21
-47.3413054221
 31
0.0
  0
SOLID
  5
554
100
AcDbEntity
  8
L1_130
  6
CONTINUOUS
 62
         4
100
AcDbTrace
 10
1766.6581835821
 20
-47.3413054221
 30
0.0
 11
1769.1761286928
 21
-46.285854135
 31
0.0
 12
1769.3749823419
 22
-47.0710657156
 32
0.0
 13
1766.6581835821
 23
-47.3413054221
 33
0.0
  0
LINE
  5
555
100
AcDbEntity
  8
L1_130
  6
CONTINUOUS
 62
         4
100
AcDbLine
 10
1775.8916901314
 20
-45.0029338083
 30
0.0
 11
1793.8703088069
 21
-40.4498757323
 31
0.0
  0
TEXT
  5
557
100
AcDbEntity
  8
L1_130
  6
CONTINUOUS
 62
         4
100
AcDbText
 10
1776.6055737813
 20
-43.0890222193
 30
0.0
 40
2.7
  1
崷9.53
 50
14.2112855131
  7
BOX
100
AcDbText
  0
ENDBLK
  5
558
100
AcDbEntity
  8
0
  6
CONTINUOUS
100
AcDbBlockEnd
  0
BLOCK
  5
55B
100
AcDbEntity
  8
0
100
AcDbBlockBegin
  2
*D41
 70
        65
 10
0.0
 20
0.0
 30
0.0
  3
*D41
  1

  0
POINT
  5
55D
100
AcDbEntity
  8
DEFPOINTS
  6
CONTINUOUS
 62
         0
100
AcDbPoint
 10
1655.541126319
 20
-36.7725129518
 30
0.0
  0
POINT
  5
55E
100
AcDbEntity
  8
DEFPOINTS
  6
CONTINUOUS
 62
         0
100
AcDbPoint
 10
1655.541126319
 20
-43.1721196152
 30
0.0
  0
POINT
  5
55F
100
AcDbEntity
  8
DEFPOINTS
  6
CONTINUOUS
 62
         0
100
AcDbPoint
 10
1690.541126319
 20
-40.1721196152
 30
0.0
  0
LINE
  5
560
100
AcDbEntity
  8
L1_130
  6
CONTINUOUS
 62
         4
100
AcDbLine
 10
1655.541126319
 20
-41.8221196152
 30
0.0
 11
1655.541126319
 21
-36.0975129518
 31
0.0
  0
LINE
  5
561
100
AcDbEntity
  8
L1_130
  6
CONTINUOUS
 62
         4
100
AcDbLine
 10
1690.541126319
 20
-38.8221196152
 30
0.0
 11
1690.541126319
 21
-36.0975129518
 31
0.0
  0
LINE
  5
562
100
AcDbEntity
  8
L1_130
  6
CONTINUOUS
 62
         4
100
AcDbLine
 10
1655.541126319
 20
-36.7725129518
 30
0.0
 11
1690.541126319
 21
-36.7725129518
 31
0.0
  0
SOLID
  5
563
100
AcDbEntity
  8
L1_130
  6
CONTINUOUS
 62
         4
100
AcDbTrace
 10
1655.541126319
 20
-36.7725129518
 30
0.0
 11
1658.241126319
 21
-36.3675129518
 31
0.0
 12
1658.241126319
 22
-37.1775129518
 32
0.0
 13
1655.541126319
 23
-36.7725129518
 33
0.0
  0
SOLID
  5
564
100
AcDbEntity
  8
L1_130
  6
CONTINUOUS
 62
         4
100
AcDbTrace
 10
1690.541126319
 20
-36.7725129518
 30
0.0
 11
1687.841126319
 21
-37.1775129518
 31
0.0
 12
1687.841126319
 22
-36.3675129518
 32
0.0
 13
1690.541126319
 23
-36.7725129518
 33
0.0
  0
TEXT
  5
566
100
AcDbEntity
  8
L1_130
  6
CONTINUOUS
 62
         4
100
AcDbText
 10
1669.1492316
 20
-34.7475129518
 30
0.0
 40
2.7
  1
35
  7
BOX
100
AcDbText
  0
ENDBLK
  5
567
100
AcDbEntity
  8
0
  6
CONTINUOUS
100
AcDbBlockEnd
  0
BLOCK
  5
569
100
AcDbEntity
  8
0
100
AcDbBlockBegin
  2
*D42
 70
        65
 10
0.0
 20
0.0
 30
0.0
  3
*D42
  1

  0
POINT
  5
56B
100
AcDbEntity
  8
DEFPOINTS
  6
CONTINUOUS
 62
         0
100
AcDbPoint
 10
1720.2941721244
 20
-44.1721196152
 30
0.0
  0
POINT
  5
56C
100
AcDbEntity
  8
DEFPOINTS
  6
CONTINUOUS
 62
         0
100
AcDbPoint
 10
1712.6046341425
 20
-44.1721196152
 30
0.0
  0
POINT
  5
56D
100
AcDbEntity
  8
DEFPOINTS
  6
CONTINUOUS
 62
         0
100
AcDbPoint
 10
1712.6046341425
 20
-48.1721196152
 30
0.0
  0
LINE
  5
56E
100
AcDbEntity
  8
L1_130
  6
CONTINUOUS
 62
         4
100
AcDbLine
 10
1713.9546341425
 20
-44.1721196152
 30
0.0
 11
1720.9691721244
 21
-44.1721196152
 31
0.0
  0
LINE
  5
56F
100
AcDbEntity
  8
L1_130
  6
CONTINUOUS
 62
         4
100
AcDbLine
 10
1713.9546341425
 20
-48.1721196152
 30
0.0
 11
1720.9691721244
 21
-48.1721196152
 31
0.0
  0
LINE
  5
570
100
AcDbEntity
  8
L1_130
  6
CONTINUOUS
 62
         4
100
AcDbLine
 10
1720.2941721244
 20
-44.1721196152
 30
0.0
 11
1720.2941721244
 21
-48.1721196152
 31
0.0
  0
SOLID
  5
571
100
AcDbEntity
  8
L1_130
  6
CONTINUOUS
 62
         4
100
AcDbTrace
 10
1720.2941721244
 20
-44.1721196152
 30
0.0
 11
1720.6991721244
 21
-46.8721196152
 31
0.0
 12
1719.8891721244
 22
-46.8721196152
 32
0.0
 13
1720.2941721244
 23
-44.1721196152
 33
0.0
  0
SOLID
  5
572
100
AcDbEntity
  8
L1_130
  6
CONTINUOUS
 62
         4
100
AcDbTrace
 10
1720.2941721244
 20
-48.1721196152
 30
0.0
 11
1719.8891721244
 21
-45.4721196152
 31
0.0
 12
1720.6991721244
 22
-45.4721196152
 32
0.0
 13
1720.2941721244
 23
-48.1721196152
 33
0.0
  0
TEXT
  5
574
100
AcDbEntity
  8
L1_130
  6
CONTINUOUS
 62
         4
100
AcDbText
 10
1718.2691721244
 20
-47.5221196152
 30
0.0
 40
2.7
  1
4
 50
90.0
  7
BOX
100
AcDbText
  0
ENDBLK
  5
575
100
AcDbEntity
  8
0
  6
CONTINUOUS
100
AcDbBlockEnd
  0
BLOCK
  5
57D
100
AcDbEntity
  8
0
100
AcDbBlockBegin
  2
*D43
 70
        65
 10
0.0
 20
0.0
 30
0.0
  3
*D43
  1

  0
POINT
  5
57F
100
AcDbEntity
  8
DEFPOINTS
  6
CONTINUOUS
 62
         0
100
AcDbPoint
 10
1709.1405325273
 20
-37.84906649
 30
0.0
  0
POINT
  5
580
100
AcDbEntity
  8
DEFPOINTS
  6
CONTINUOUS
 62
         0
100
AcDbPoint
 10
1709.1405325273
 20
-46.1721196152
 30
0.0
  0
POINT
  5
581
100
AcDbEntity
  8
DEFPOINTS
  6
CONTINUOUS
 62
         0
100
AcDbPoint
 10
1713.7593346808
 20
-46.1721196152
 30
0.0
  0
LINE
  5
582
100
AcDbEntity
  8
L1_130
  6
CONTINUOUS
 62
         4
100
AcDbLine
 10
1709.1405325273
 20
-44.8221196152
 30
0.0
 11
1709.1405325273
 21
-37.17406649
 31
0.0
  0
LINE
  5
583
100
AcDbEntity
  8
L1_130
  6
CONTINUOUS
 62
         4
100
AcDbLine
 10
1713.7593346808
 20
-44.8221196152
 30
0.0
 11
1713.7593346808
 21
-37.17406649
 31
0.0
  0
LINE
  5
584
100
AcDbEntity
  8
L1_130
  6
CONTINUOUS
 62
         4
100
AcDbLine
 10
1709.1405325273
 20
-37.84906649
 30
0.0
 11
1713.7593346808
 21
-37.84906649
 31
0.0
  0
SOLID
  5
585
100
AcDbEntity
  8
L1_130
  6
CONTINUOUS
 62
         4
100
AcDbTrace
 10
1709.1405325273
 20
-37.84906649
 30
0.0
 11
1711.8405325273
 21
-37.44406649
 31
0.0
 12
1711.8405325273
 22
-38.25406649
 32
0.0
 13
1709.1405325273
 23
-37.84906649
 33
0.0
  0
SOLID
  5
586
100
AcDbEntity
  8
L1_130
  6
CONTINUOUS
 62
         4
100
AcDbTrace
 10
1713.7593346808
 20
-37.84906649
 30
0.0
 11
1711.0593346808
 21
-38.25406649
 31
0.0
 12
1711.0593346808
 22
-37.44406649
 32
0.0
 13
1713.7593346808
 23
-37.84906649
 33
0.0
  0
TEXT
  5
588
100
AcDbEntity
  8
L1_130
  6
CONTINUOUS
 62
         4
100
AcDbText
 10
1699.2999336041
 20
-35.82406649
 30
0.0
 40
2.7
  1
4.53~4.44
  7
BOX
100
AcDbText
  0
ENDBLK
  5
589
100
AcDbEntity
  8
0
  6
CONTINUOUS
100
AcDbBlockEnd
  0
BLOCK
  5
58B
100
AcDbEntity
  8
0
100
AcDbBlockBegin
  2
*D44
 70
        65
 10
0.0
 20
0.0
 30
0.0
  3
*D44
  1

  0
POINT
  5
58D
100
AcDbEntity
  8
DEFPOINTS
  6
CONTINUOUS
 62
         0
100
AcDbPoint
 10
1703.0753561217
 20
-39.6721196152
 30
0.0
  0
POINT
  5
58E
100
AcDbEntity
  8
DEFPOINTS
  6
CONTINUOUS
 62
         0
100
AcDbPoint
 10
1695.541126319
 20
-39.6721196152
 30
0.0
  0
POINT
  5
58F
100
AcDbEntity
  8
DEFPOINTS
  6
CONTINUOUS
 62
         0
100
AcDbPoint
 10
1695.541126319
 20
-52.6721196152
 30
0.0
  0
LINE
  5
590
100
AcDbEntity
  8
L1_130
  6
CONTINUOUS
 62
         4
100
AcDbLine
 10
1696.891126319
 20
-39.6721196152
 30
0.0
 11
1703.7503561217
 21
-39.6721196152
 31
0.0
  0
LINE
  5
591
100
AcDbEntity
  8
L1_130
  6
CONTINUOUS
 62
         4
100
AcDbLine
 10
1696.891126319
 20
-52.6721196152
 30
0.0
 11
1703.7503561217
 21
-52.6721196152
 31
0.0
  0
LINE
  5
592
100
AcDbEntity
  8
L1_130
  6
CONTINUOUS
 62
         4
100
AcDbLine
 10
1703.0753561217
 20
-39.6721196152
 30
0.0
 11
1703.0753561217
 21
-52.6721196152
 31
0.0
  0
SOLID
  5
593
100
AcDbEntity
  8
L1_130
  6
CONTINUOUS
 62
         4
100
AcDbTrace
 10
1703.0753561217
 20
-39.6721196152
 30
0.0
 11
1703.4803561217
 21
-42.3721196152
 31
0.0
 12
1702.6703561217
 22
-42.3721196152
 32
0.0
 13
1703.0753561217
 23
-39.6721196152
 33
0.0
  0
SOLID
  5
594
100
AcDbEntity
  8
L1_130
  6
CONTINUOUS
 62
         4
100
AcDbTrace
 10
1703.0753561217
 20
-52.6721196152
 30
0.0
 11
1702.6703561217
 21
-49.9721196152
 31
0.0
 12
1703.4803561217
 22
-49.9721196152
 32
0.0
 13
1703.0753561217
 23
-52.6721196152
 33
0.0
  0
TEXT
  5
596
100
AcDbEntity
  8
L1_130
  6
CONTINUOUS
 62
         4
100
AcDbText
 10
1701.0503561217
 20
-51.7527020205
 30
0.0
 40
2.7
  1
崷13
 50
90.0
  7
BOX
100
AcDbText
  0
ENDBLK
  5
597
100
AcDbEntity
  8
0
  6
CONTINUOUS
100
AcDbBlockEnd
  0
BLOCK
  5
599
100
AcDbEntity
  8
0
100
AcDbBlockBegin
  2
*D45
 70
        65
 10
0.0
 20
0.0
 30
0.0
  3
*D45
  1

  0
POINT
  5
59B
100
AcDbEntity
  8
DEFPOINTS
  6
CONTINUOUS
 62
         0
100
AcDbPoint
 10
1855.912424284
 20
-35.7721196152
 30
0.0
  0
POINT
  5
59C
100
AcDbEntity
  8
DEFPOINTS
  6
CONTINUOUS
 62
         0
100
AcDbPoint
 10
1859.8457706463
 20
-35.7721196152
 30
0.0
  0
POINT
  5
59D
100
AcDbEntity
  8
DEFPOINTS
  6
CONTINUOUS
 62
         0
100
AcDbPoint
 10
1859.8457706463
 20
-56.5721196152
 30
0.0
  0
LINE
  5
59E
100
AcDbEntity
  8
L1_130
  6
CONTINUOUS
 62
         4
100
AcDbLine
 10
1858.4957706463
 20
-35.7721196152
 30
0.0
 11
1855.237424284
 21
-35.7721196152
 31
0.0
  0
LINE
  5
59F
100
AcDbEntity
  8
L1_130
  6
CONTINUOUS
 62
         4
100
AcDbLine
 10
1858.4957706463
 20
-56.5721196152
 30
0.0
 11
1855.237424284
 21
-56.5721196152
 31
0.0
  0
LINE
  5
5A0
100
AcDbEntity
  8
L1_130
  6
CONTINUOUS
 62
         4
100
AcDbLine
 10
1855.912424284
 20
-35.7721196152
 30
0.0
 11
1855.912424284
 21
-56.5721196152
 31
0.0
  0
SOLID
  5
5A1
100
AcDbEntity
  8
L1_130
  6
CONTINUOUS
 62
         4
100
AcDbTrace
 10
1855.912424284
 20
-35.7721196152
 30
0.0
 11
1856.317424284
 21
-38.4721196152
 31
0.0
 12
1855.507424284
 22
-38.4721196152
 32
0.0
 13
1855.912424284
 23
-35.7721196152
 33
0.0
  0
SOLID
  5
5A2
100
AcDbEntity
  8
L1_130
  6
CONTINUOUS
 62
         4
100
AcDbTrace
 10
1855.912424284
 20
-56.5721196152
 30
0.0
 11
1855.507424284
 21
-53.8721196152
 31
0.0
 12
1856.317424284
 22
-53.8721196152
 32
0.0
 13
1855.912424284
 23
-56.5721196152
 33
0.0
  0
TEXT
  5
5A4
100
AcDbEntity
  8
L1_130
  6
CONTINUOUS
 62
         4
100
AcDbText
 10
1853.887424284
 20
-51.5721196152
 30
0.0
 40
2.7
  1
崷21
 50
90.0
  7
BOX
100
AcDbText
  0
ENDBLK
  5
5A5
100
AcDbEntity
  8
0
  6
CONTINUOUS
100
AcDbBlockEnd
  0
BLOCK
  5
5AB
100
AcDbEntity
  8
0
100
AcDbBlockBegin
  2
*D46
 70
        65
 10
0.0
 20
0.0
 30
0.0
  3
*D46
  1

  0
POINT
  5
5AD
100
AcDbEntity
  8
DEFPOINTS
  6
CONTINUOUS
 62
         0
100
AcDbPoint
 10
1884.1907980902
 20
-32.4221196152
 30
0.0
  0
POINT
  5
5AE
100
AcDbEntity
  8
DEFPOINTS
  6
CONTINUOUS
 62
         0
100
AcDbPoint
 10
1888.2957706463
 20
-32.4221196152
 30
0.0
  0
POINT
  5
5AF
100
AcDbEntity
  8
DEFPOINTS
  6
CONTINUOUS
 62
         0
100
AcDbPoint
 10
1888.2957706463
 20
-59.9221196152
 30
0.0
  0
LINE
  5
5B0
100
AcDbEntity
  8
L1_130
  6
CONTINUOUS
 62
         4
100
AcDbLine
 10
1886.9457706463
 20
-32.4221196152
 30
0.0
 11
1883.5157980902
 21
-32.4221196152
 31
0.0
  0
LINE
  5
5B1
100
AcDbEntity
  8
L1_130
  6
CONTINUOUS
 62
         4
100
AcDbLine
 10
1886.9457706463
 20
-59.9221196152
 30
0.0
 11
1883.5157980902
 21
-59.9221196152
 31
0.0
  0
LINE
  5
5B2
100
AcDbEntity
  8
L1_130
  6
CONTINUOUS
 62
         4
100
AcDbLine
 10
1884.1907980902
 20
-32.4221196152
 30
0.0
 11
1884.1907980902
 21
-59.9221196152
 31
0.0
  0
SOLID
  5
5B3
100
AcDbEntity
  8
L1_130
  6
CONTINUOUS
 62
         4
100
AcDbTrace
 10
1884.1907980902
 20
-32.4221196152
 30
0.0
 11
1884.5957980902
 21
-35.1221196152
 31
0.0
 12
1883.7857980902
 22
-35.1221196152
 32
0.0
 13
1884.1907980902
 23
-32.4221196152
 33
0.0
  0
SOLID
  5
5B4
100
AcDbEntity
  8
L1_130
  6
CONTINUOUS
 62
         4
100
AcDbTrace
 10
1884.1907980902
 20
-59.9221196152
 30
0.0
 11
1883.7857980902
 21
-57.2221196152
 31
0.0
 12
1884.5957980902
 22
-57.2221196152
 32
0.0
 13
1884.1907980902
 23
-59.9221196152
 33
0.0
  0
TEXT
  5
5B6
100
AcDbEntity
  8
L1_130
  6
CONTINUOUS
 62
         4
100
AcDbText
 10
1882.1657980902
 20
-54.2721196152
 30
0.0
 40
2.7
  1
崷26.5
 50
90.0
  7
BOX
100
AcDbText
  0
ENDBLK
  5
5B7
100
AcDbEntity
  8
0
  6
CONTINUOUS
100
AcDbBlockEnd
  0
BLOCK
  5
5BE
100
AcDbEntity
  8
0
100
AcDbBlockBegin
  2
*D47
 70
        65
 10
0.0
 20
0.0
 30
0.0
  3
*D47
  1

  0
POINT
  5
5C0
100
AcDbEntity
  8
DEFPOINTS
  6
CONTINUOUS
 62
         0
100
AcDbPoint
 10
1838.1162293589
 20
-24.7690723947
 30
0.0
  0
POINT
  5
5C1
100
AcDbEntity
  8
DEFPOINTS
  6
CONTINUOUS
 62
         0
100
AcDbPoint
 10
1838.9753119338
 20
-26.5751668357
 30
0.0
  0
LINE
  5
5C2
100
AcDbEntity
  8
L1_130
  6
CONTINUOUS
 62
         4
100
AcDbLine
 10
1838.9753119338
 20
-26.5751668357
 30
0.0
 11
1844.1954515844
 21
-37.5497407352
 31
0.0
  0
SOLID
  5
5C3
100
AcDbEntity
  8
L1_130
  6
CONTINUOUS
 62
         4
100
AcDbTrace
 10
1838.9753119338
 20
-26.5751668357
 30
0.0
 11
1840.5008075341
 21
-28.8394301095
 31
0.0
 12
1839.7693392856
 22
-29.1873585523
 32
0.0
 13
1838.9753119338
 23
-26.5751668357
 33
0.0
  0
LINE
  5
5C4
100
AcDbEntity
  8
L1_130
  6
CONTINUOUS
 62
         4
100
AcDbLine
 10
1838.1162293589
 20
-24.7690723947
 30
0.0
 11
1835.7967064067
 21
-19.8926174043
 31
0.0
  0
SOLID
  5
5C5
100
AcDbEntity
  8
L1_130
  6
CONTINUOUS
 62
         4
100
AcDbTrace
 10
1838.1162293589
 20
-24.7690723947
 30
0.0
 11
1836.5907337585
 21
-22.5048091209
 31
0.0
 12
1837.3222020071
 22
-22.1568806781
 32
0.0
 13
1838.1162293589
 23
-24.7690723947
 33
0.0
  0
LINE
  5
5C6
100
AcDbEntity
  8
L1_130
  6
CONTINUOUS
 62
         4
100
AcDbLine
 10
1838.1162293589
 20
-24.7690723947
 30
0.0
 11
1838.9753119338
 21
-26.5751668357
 31
0.0
  0
TEXT
  5
5C8
100
AcDbEntity
  8
L1_130
  6
CONTINUOUS
 62
         4
100
AcDbText
 10
1841.2522494512
 20
-27.8101281867
 30
0.0
 40
2.7
  1
崷2
 50
295.4384526164
  7
BOX
100
AcDbText
  0
ENDBLK
  5
5C9
100
AcDbEntity
  8
0
  6
CONTINUOUS
100
AcDbBlockEnd
  0
BLOCK
  5
5CB
100
AcDbEntity
  8
0
100
AcDbBlockBegin
  2
*D48
 70
        65
 10
0.0
 20
0.0
 30
0.0
  3
*D48
  1

  0
POINT
  5
5CD
100
AcDbEntity
  8
DEFPOINTS
  6
CONTINUOUS
 62
         0
100
AcDbPoint
 10
1859.3428612263
 20
-35.9657185771
 30
0.0
  0
POINT
  5
5CE
100
AcDbEntity
  8
DEFPOINTS
  6
CONTINUOUS
 62
         0
100
AcDbPoint
 10
1860.3486800664
 20
-37.0785206533
 30
0.0
  0
LINE
  5
5CF
100
AcDbEntity
  8
L1_130
  6
CONTINUOUS
 62
         4
100
AcDbLine
 10
1860.3486800664
 20
-37.0785206533
 30
0.0
 11
1872.4997572571
 21
-50.5220388968
 31
0.0
  0
SOLID
  5
5D0
100
AcDbEntity
  8
L1_130
  6
CONTINUOUS
 62
         4
100
AcDbTrace
 10
1860.3486800664
 20
-37.0785206533
 30
0.0
 11
1862.4596105391
 21
-38.8099933038
 31
0.0
 12
1861.858697418
 22
-39.3531354774
 32
0.0
 13
1860.3486800664
 23
-37.0785206533
 33
0.0
  0
LINE
  5
5D1
100
AcDbEntity
  8
L1_130
  6
CONTINUOUS
 62
         4
100
AcDbLine
 10
1859.3428612263
 20
-35.9657185771
 30
0.0
 11
1855.7219134019
 21
-31.9596311026
 31
0.0
  0
SOLID
  5
5D2
100
AcDbEntity
  8
L1_130
  6
CONTINUOUS
 62
         4
100
AcDbTrace
 10
1859.3428612263
 20
-35.9657185771
 30
0.0
 11
1857.2319307535
 21
-34.2342459267
 31
0.0
 12
1857.8328438747
 22
-33.691103753
 32
0.0
 13
1859.3428612263
 23
-35.9657185771
 33
0.0
  0
LINE
  5
5D3
100
AcDbEntity
  8
L1_130
  6
CONTINUOUS
 62
         4
100
AcDbLine
 10
1859.3428612263
 20
-35.9657185771
 30
0.0
 11
1860.3486800664
 21
-37.0785206533
 31
0.0
  0
TEXT
  5
5D5
100
AcDbEntity
  8
L1_130
  6
CONTINUOUS
 62
         4
100
AcDbText
 10
1863.4136900538
 20
-38.0425475997
 30
0.0
 40
2.7
  1
崷1.5
 50
312.1092111065
  7
BOX
100
AcDbText
  0
ENDBLK
  5
5D6
100
AcDbEntity
  8
0
  6
CONTINUOUS
100
AcDbBlockEnd
  0
BLOCK
  5
5D8
100
AcDbEntity
  8
0
100
AcDbBlockBegin
  2
*D49
 70
        65
 10
0.0
 20
0.0
 30
0.0
  3
*D49
  1

  0
POINT
  5
5DA
100
AcDbEntity
  8
DEFPOINTS
  6
CONTINUOUS
 62
         0
100
AcDbPoint
 10
1887.931994506
 20
-32.5162485
 30
0.0
  0
POINT
  5
5DB
100
AcDbEntity
  8
DEFPOINTS
  6
CONTINUOUS
 62
         0
100
AcDbPoint
 10
1888.6595467867
 20
-33.8279907304
 30
0.0
  0
LINE
  5
5DC
100
AcDbEntity
  8
L1_130
  6
CONTINUOUS
 62
         4
100
AcDbLine
 10
1888.6595467867
 20
-33.8279907304
 30
0.0
 11
1897.0187357256
 21
-48.8992116366
 31
0.0
  0
SOLID
  5
5DD
100
AcDbEntity
  8
L1_130
  6
CONTINUOUS
 62
         4
100
AcDbTrace
 10
1888.6595467867
 20
-33.8279907304
 30
0.0
 11
1890.323311294
 21
-35.9926876293
 31
0.0
 12
1889.6149704897
 22
-36.3855658608
 32
0.0
 13
1888.6595467867
 23
-33.8279907304
 33
0.0
  0
LINE
  5
5DE
100
AcDbEntity
  8
L1_130
  6
CONTINUOUS
 62
         4
100
AcDbLine
 10
1887.931994506
 20
-32.5162485
 30
0.0
 11
1885.3128062956
 21
-27.7939764707
 31
0.0
  0
SOLID
  5
5DF
100
AcDbEntity
  8
L1_130
  6
CONTINUOUS
 62
         4
100
AcDbTrace
 10
1887.931994506
 20
-32.5162485
 30
0.0
 11
1886.2682299986
 21
-30.3515516012
 31
0.0
 12
1886.976570803
 22
-29.9586733696
 32
0.0
 13
1887.931994506
 23
-32.5162485
 33
0.0
  0
LINE
  5
5E0
100
AcDbEntity
  8
L1_130
  6
CONTINUOUS
 62
         4
100
AcDbLine
 10
1887.931994506
 20
-32.5162485
 30
0.0
 11
1888.6595467867
 21
-33.8279907304
 31
0.0
  0
TEXT
  5
5E2
100
AcDbEntity
  8
L1_130
  6
CONTINUOUS
 62
         4
100
AcDbText
 10
1890.9326375864
 20
-34.6186075739
 30
0.0
 40
2.7
  1
崷1.5
 50
299.0147559583
  7
BOX
100
AcDbText
  0
ENDBLK
  5
5E3
100
AcDbEntity
  8
0
  6
CONTINUOUS
100
AcDbBlockEnd
  0
BLOCK
  5
5E5
100
AcDbEntity
  8
0
100
AcDbBlockBegin
  2
*D50
 70
        65
 10
0.0
 20
0.0
 30
0.0
  3
*D50
  1

  0
POINT
  5
5E7
100
AcDbEntity
  8
DEFPOINTS
  6
CONTINUOUS
 62
         0
100
AcDbPoint
 10
1809.6108778809
 20
-25.0811477133
 30
0.0
  0
POINT
  5
5E8
100
AcDbEntity
  8
DEFPOINTS
  6
CONTINUOUS
 62
         0
100
AcDbPoint
 10
1809.6108778809
 20
-35.9221196152
 30
0.0
  0
POINT
  5
5E9
100
AcDbEntity
  8
DEFPOINTS
  6
CONTINUOUS
 62
         0
100
AcDbPoint
 10
1810.6108778809
 20
-35.9221196152
 30
0.0
  0
LINE
  5
5EA
100
AcDbEntity
  8
L1_130
  6
CONTINUOUS
 62
         4
100
AcDbLine
 10
1809.6108778809
 20
-34.5721196152
 30
0.0
 11
1809.6108778809
 21
-24.4061477133
 31
0.0
  0
LINE
  5
5EB
100
AcDbEntity
  8
L1_130
  6
CONTINUOUS
 62
         4
100
AcDbLine
 10
1810.6108778809
 20
-34.5721196152
 30
0.0
 11
1810.6108778809
 21
-24.4061477133
 31
0.0
  0
LINE
  5
5EC
100
AcDbEntity
  8
L1_130
  6
CONTINUOUS
 62
         4
100
AcDbLine
 10
1809.6108778809
 20
-25.0811477133
 30
0.0
 11
1804.2108778809
 21
-25.0811477133
 31
0.0
  0
SOLID
  5
5ED
100
AcDbEntity
  8
L1_130
  6
CONTINUOUS
 62
         4
100
AcDbTrace
 10
1809.6108778809
 20
-25.0811477133
 30
0.0
 11
1806.9108778809
 21
-25.4861477133
 31
0.0
 12
1806.9108778809
 22
-24.6761477133
 32
0.0
 13
1809.6108778809
 23
-25.0811477133
 33
0.0
  0
LINE
  5
5EE
100
AcDbEntity
  8
L1_130
  6
CONTINUOUS
 62
         4
100
AcDbLine
 10
1810.6108778809
 20
-25.0811477133
 30
0.0
 11
1816.0108778809
 21
-25.0811477133
 31
0.0
  0
SOLID
  5
5EF
100
AcDbEntity
  8
L1_130
  6
CONTINUOUS
 62
         4
100
AcDbTrace
 10
1810.6108778809
 20
-25.0811477133
 30
0.0
 11
1813.3108778809
 21
-24.6761477133
 31
0.0
 12
1813.3108778809
 22
-25.4861477133
 32
0.0
 13
1810.6108778809
 23
-25.0811477133
 33
0.0
  0
LINE
  5
5F0
100
AcDbEntity
  8
L1_130
  6
CONTINUOUS
 62
         4
100
AcDbLine
 10
1809.6108778809
 20
-25.0811477133
 30
0.0
 11
1810.6108778809
 21
-25.0811477133
 31
0.0
  0
TEXT
  5
5F2
100
AcDbEntity
  8
L1_130
  6
CONTINUOUS
 62
         4
100
AcDbText
 10
1808.7608778809
 20
-23.0561477133
 30
0.0
 40
2.7
  1
1
  7
BOX
100
AcDbText
  0
ENDBLK
  5
5F3
100
AcDbEntity
  8
0
  6
CONTINUOUS
100
AcDbBlockEnd
  0
BLOCK
  5
5F5
100
AcDbEntity
  8
0
100
AcDbBlockBegin
  2
*D51
 70
        65
 10
0.0
 20
0.0
 30
0.0
  3
*D51
  1

  0
POINT
  5
5F7
100
AcDbEntity
  8
DEFPOINTS
  6
CONTINUOUS
 62
         0
100
AcDbPoint
 10
1737.0433544263
 20
-46.8014577604
 30
0.0
  0
POINT
  5
5F8
100
AcDbEntity
  8
DEFPOINTS
  6
CONTINUOUS
 62
         0
100
AcDbPoint
 10
1741.6359983267
 20
-45.54278147
 30
0.0
  0
LINE
  5
5F9
100
AcDbEntity
  8
L1_130
  6
CONTINUOUS
 62
         4
100
AcDbLine
 10
1741.6359983267
 20
-45.54278147
 30
0.0
 11
1762.0840880431
 21
-39.9387054155
 31
0.0
  0
SOLID
  5
5FA
100
AcDbEntity
  8
L1_130
  6
CONTINUOUS
 62
         4
100
AcDbTrace
 10
1741.6359983267
 20
-45.54278147
 30
0.0
 11
1744.1329270612
 21
-44.4385297347
 31
0.0
 12
1744.3470236163
 22
-45.2197228383
 32
0.0
 13
1741.6359983267
 23
-45.54278147
 33
0.0
  0
LINE
  5
5FB
100
AcDbEntity
  8
L1_130
  6
CONTINUOUS
 62
         4
100
AcDbLine
 10
1737.0433544263
 20
-46.8014577604
 30
0.0
 11
1731.8354004023
 21
-48.2287681275
 31
0.0
  0
SOLID
  5
5FC
100
AcDbEntity
  8
L1_130
  6
CONTINUOUS
 62
         4
100
AcDbTrace
 10
1737.0433544263
 20
-46.8014577604
 30
0.0
 11
1734.5464256919
 21
-47.9057094957
 31
0.0
 12
1734.3323291368
 22
-47.1245163921
 32
0.0
 13
1737.0433544263
 23
-46.8014577604
 33
0.0
  0
LINE
  5
5FD
100
AcDbEntity
  8
L1_130
  6
CONTINUOUS
 62
         4
100
AcDbLine
 10
1737.0433544263
 20
-46.8014577604
 30
0.0
 11
1741.6359983267
 21
-45.54278147
 31
0.0
  0
TEXT
  5
5FF
100
AcDbEntity
  8
L1_130
  6
CONTINUOUS
 62
         4
100
AcDbText
 10
1744.8855509557
 20
-42.9074886381
 30
0.0
 40
2.7
  1
崷4.76
 50
15.3263570208
  7
BOX
100
AcDbText
  0
ENDBLK
  5
600
100
AcDbEntity
  8
0
  6
CONTINUOUS
100
AcDbBlockEnd
  0
BLOCK
  5
602
100
AcDbEntity
  8
0
100
AcDbBlockBegin
  2
*D52
 70
        65
 10
0.0
 20
0.0
 30
0.0
  3
*D52
  1

  0
POINT
  5
604
100
AcDbEntity
  8
DEFPOINTS
  6
CONTINUOUS
 62
         0
100
AcDbPoint
 10
1636.3588528157
 20
-43.1721196152
 30
0.0
  0
POINT
  5
605
100
AcDbEntity
  8
DEFPOINTS
  6
CONTINUOUS
 62
         0
100
AcDbPoint
 10
1644.791126319
 20
-43.1721196152
 30
0.0
  0
POINT
  5
606
100
AcDbEntity
  8
DEFPOINTS
  6
CONTINUOUS
 62
         0
100
AcDbPoint
 10
1644.791126319
 20
-49.1721196152
 30
0.0
  0
LINE
  5
607
100
AcDbEntity
  8
L1_130
  6
CONTINUOUS
 62
         4
100
AcDbLine
 10
1643.441126319
 20
-43.1721196152
 30
0.0
 11
1635.6838528157
 21
-43.1721196152
 31
0.0
  0
LINE
  5
608
100
AcDbEntity
  8
L1_130
  6
CONTINUOUS
 62
         4
100
AcDbLine
 10
1643.441126319
 20
-49.1721196152
 30
0.0
 11
1635.6838528157
 21
-49.1721196152
 31
0.0
  0
LINE
  5
609
100
AcDbEntity
  8
L1_130
  6
CONTINUOUS
 62
         4
100
AcDbLine
 10
1636.3588528157
 20
-43.1721196152
 30
0.0
 11
1636.3588528157
 21
-37.7721196152
 31
0.0
  0
SOLID
  5
60A
100
AcDbEntity
  8
L1_130
  6
CONTINUOUS
 62
         4
100
AcDbTrace
 10
1636.3588528157
 20
-43.1721196152
 30
0.0
 11
1635.9538528157
 21
-40.4721196152
 31
0.0
 12
1636.7638528157
 22
-40.4721196152
 32
0.0
 13
1636.3588528157
 23
-43.1721196152
 33
0.0
  0
LINE
  5
60B
100
AcDbEntity
  8
L1_130
  6
CONTINUOUS
 62
         4
100
AcDbLine
 10
1636.3588528157
 20
-49.1721196152
 30
0.0
 11
1636.3588528157
 21
-54.5721196152
 31
0.0
  0
SOLID
  5
60C
100
AcDbEntity
  8
L1_130
  6
CONTINUOUS
 62
         4
100
AcDbTrace
 10
1636.3588528157
 20
-49.1721196152
 30
0.0
 11
1636.7638528157
 21
-51.8721196152
 31
0.0
 12
1635.9538528157
 22
-51.8721196152
 32
0.0
 13
1636.3588528157
 23
-49.1721196152
 33
0.0
  0
LINE
  5
60D
100
AcDbEntity
  8
L1_130
  6
CONTINUOUS
 62
         4
100
AcDbLine
 10
1636.3588528157
 20
-43.1721196152
 30
0.0
 11
1636.3588528157
 21
-49.1721196152
 31
0.0
  0
TEXT
  5
60F
100
AcDbEntity
  8
L1_130
  6
CONTINUOUS
 62
         4
100
AcDbText
 10
1634.3338528157
 20
-52.9221196152
 30
0.0
 40
2.7
  1
M6xP1
 50
90.0
  7
BOX
100
AcDbText
  0
ENDBLK
  5
610
100
AcDbEntity
  8
0
  6
CONTINUOUS
100
AcDbBlockEnd
  0
BLOCK
  5
612
100
AcDbEntity
  8
0
100
AcDbBlockBegin
  2
*D53
 70
        65
 10
0.0
 20
0.0
 30
0.0
  3
*D53
  1

  0
POINT
  5
614
100
AcDbEntity
  8
DEFPOINTS
  6
CONTINUOUS
 62
         0
100
AcDbPoint
 10
1696.041126319
 20
-59.3166019411
 30
0.0
  0
POINT
  5
615
100
AcDbEntity
  8
DEFPOINTS
  6
CONTINUOUS
 62
         0
100
AcDbPoint
 10
1696.041126319
 20
-52.1721196152
 30
0.0
  0
POINT
  5
616
100
AcDbEntity
  8
DEFPOINTS
  6
CONTINUOUS
 62
         0
100
AcDbPoint
 10
1690.541126319
 20
-52.1721196152
 30
0.0
  0
LINE
  5
617
100
AcDbEntity
  8
L1_130
  6
CONTINUOUS
 62
         4
100
AcDbLine
 10
1696.041126319
 20
-53.5221196152
 30
0.0
 11
1696.041126319
 21
-59.9916019411
 31
0.0
  0
LINE
  5
618
100
AcDbEntity
  8
L1_130
  6
CONTINUOUS
 62
         4
100
AcDbLine
 10
1690.541126319
 20
-53.5221196152
 30
0.0
 11
1690.541126319
 21
-59.9916019411
 31
0.0
  0
LINE
  5
619
100
AcDbEntity
  8
L1_130
  6
CONTINUOUS
 62
         4
100
AcDbLine
 10
1696.041126319
 20
-59.3166019411
 30
0.0
 11
1701.441126319
 21
-59.3166019411
 31
0.0
  0
SOLID
  5
61A
100
AcDbEntity
  8
L1_130
  6
CONTINUOUS
 62
         4
100
AcDbTrace
 10
1696.041126319
 20
-59.3166019411
 30
0.0
 11
1698.741126319
 21
-58.9116019411
 31
0.0
 12
1698.741126319
 22
-59.7216019411
 32
0.0
 13
1696.041126319
 23
-59.3166019411
 33
0.0
  0
LINE
  5
61B
100
AcDbEntity
  8
L1_130
  6
CONTINUOUS
 62
         4
100
AcDbLine
 10
1690.541126319
 20
-59.3166019411
 30
0.0
 11
1685.141126319
 21
-59.3166019411
 31
0.0
  0
SOLID
  5
61C
100
AcDbEntity
  8
L1_130
  6
CONTINUOUS
 62
         4
100
AcDbTrace
 10
1690.541126319
 20
-59.3166019411
 30
0.0
 11
1687.841126319
 21
-59.7216019411
 31
0.0
 12
1687.841126319
 22
-58.9116019411
 32
0.0
 13
1690.541126319
 23
-59.3166019411
 33
0.0
  0
LINE
  5
61D
100
AcDbEntity
  8
L1_130
  6
CONTINUOUS
 62
         4
100
AcDbLine
 10
1696.041126319
 20
-59.3166019411
 30
0.0
 11
1690.541126319
 21
-59.3166019411
 31
0.0
  0
TEXT
  5
61F
100
AcDbEntity
  8
L1_130
  6
CONTINUOUS
 62
         4
100
AcDbText
 10
1689.241126319
 20
-57.2916019411
 30
0.0
 40
2.7
  1
5.5
  7
BOX
100
AcDbText
  0
ENDBLK
  5
620
100
AcDbEntity
  8
0
  6
CONTINUOUS
100
AcDbBlockEnd
  0
BLOCK
  5
622
100
AcDbEntity
  8
0
100
AcDbBlockBegin
  2
*D54
 70
        65
 10
0.0
 20
0.0
 30
0.0
  3
*D54
  1

  0
POINT
  5
624
100
AcDbEntity
  8
DEFPOINTS
  6
CONTINUOUS
 62
         0
100
AcDbPoint
 10
1713.6100863613
 20
-10.0450036294
 30
0.0
  0
POINT
  5
625
100
AcDbEntity
  8
DEFPOINTS
  6
CONTINUOUS
 62
         0
100
AcDbPoint
 10
1713.6100863613
 20
-4.2897624151
 30
0.0
  0
POINT
  5
626
100
AcDbEntity
  8
DEFPOINTS
  6
CONTINUOUS
 62
         0
100
AcDbPoint
 10
1718.6100863613
 20
-3.8897624151
 30
0.0
  0
LINE
  5
627
100
AcDbEntity
  8
L1_130
  6
CONTINUOUS
 62
         4
100
AcDbLine
 10
1713.6100863613
 20
-5.6397624151
 30
0.0
 11
1713.6100863613
 21
-10.7200036294
 31
0.0
  0
LINE
  5
628
100
AcDbEntity
  8
L1_130
  6
CONTINUOUS
 62
         4
100
AcDbLine
 10
1718.6100863613
 20
-5.2397624151
 30
0.0
 11
1718.6100863613
 21
-10.7200036294
 31
0.0
  0
LINE
  5
629
100
AcDbEntity
  8
L1_130
  6
CONTINUOUS
 62
         4
100
AcDbLine
 10
1713.6100863613
 20
-10.0450036294
 30
0.0
 11
1708.2100863613
 21
-10.0450036294
 31
0.0
  0
SOLID
  5
62A
100
AcDbEntity
  8
L1_130
  6
CONTINUOUS
 62
         4
100
AcDbTrace
 10
1713.6100863613
 20
-10.0450036294
 30
0.0
 11
1710.9100863613
 21
-10.4500036294
 31
0.0
 12
1710.9100863613
 22
-9.6400036294
 32
0.0
 13
1713.6100863613
 23
-10.0450036294
 33
0.0
  0
LINE
  5
62B
100
AcDbEntity
  8
L1_130
  6
CONTINUOUS
 62
         4
100
AcDbLine
 10
1718.6100863613
 20
-10.0450036294
 30
0.0
 11
1724.0100863613
 21
-10.0450036294
 31
0.0
  0
SOLID
  5
62C
100
AcDbEntity
  8
L1_130
  6
CONTINUOUS
 62
         4
100
AcDbTrace
 10
1718.6100863613
 20
-10.0450036294
 30
0.0
 11
1721.3100863613
 21
-9.6400036294
 31
0.0
 12
1721.3100863613
 22
-10.4500036294
 32
0.0
 13
1718.6100863613
 23
-10.0450036294
 33
0.0
  0
LINE
  5
62D
100
AcDbEntity
  8
L1_130
  6
CONTINUOUS
 62
         4
100
AcDbLine
 10
1713.6100863613
 20
-10.0450036294
 30
0.0
 11
1718.6100863613
 21
-10.0450036294
 31
0.0
  0
TEXT
  5
62F
100
AcDbEntity
  8
L1_130
  6
CONTINUOUS
 62
         4
100
AcDbText
 10
1714.8562274086
 20
-8.0200036294
 30
0.0
 40
2.7
  1
5
  7
BOX
100
AcDbText
  0
ENDBLK
  5
630
100
AcDbEntity
  8
0
  6
CONTINUOUS
100
AcDbBlockEnd
  0
BLOCK
  5
763
100
AcDbEntity
  8
0
100
AcDbBlockBegin
  2
*X55
 70
        65
 10
0.0
 20
0.0
 30
0.0
  3
*X55
  1

  0
LINE
  5
764
100
AcDbEntity
  8
L1_130
  6
CONTINUOUS
 62
         4
100
AcDbLine
 10
1632.5979450227
 20
-145.9990760479
 30
0.0
 11
1634.6112760501
 21
-143.9857450205
 31
0.0
  0
LINE
  5
765
100
AcDbEntity
  8
L1_130
  6
CONTINUOUS
 62
         4
100
AcDbLine
 10
1627.1143637703
 20
-147.2400166132
 30
0.0
 11
1630.6143637703
 21
-143.7400166132
 31
0.0
  0
LINE
  5
766
100
AcDbEntity
  8
L1_130
  6
CONTINUOUS
 62
         4
100
AcDbLine
 10
1622.8717230832
 20
-147.2400166132
 30
0.0
 11
1626.3717230832
 21
-143.7400166132
 31
0.0
  0
LINE
  5
767
100
AcDbEntity
  8
L1_130
  6
CONTINUOUS
 62
         4
100
AcDbLine
 10
1618.6290823961
 20
-147.2400166132
 30
0.0
 11
1622.1290823961
 21
-143.7400166132
 31
0.0
  0
LINE
  5
768
100
AcDbEntity
  8
L1_130
  6
CONTINUOUS
 62
         4
100
AcDbLine
 10
1614.3864417089
 20
-147.2400166132
 30
0.0
 11
1614.7786999334
 21
-146.8477583887
 31
0.0
  0
LINE
  5
769
100
AcDbEntity
  8
L1_130
  6
CONTINUOUS
 62
         4
100
AcDbLine
 10
1615.3864417089
 20
-146.2400166132
 30
0.0
 11
1617.8864417089
 21
-143.7400166132
 31
0.0
  0
LINE
  5
76A
100
AcDbEntity
  8
L1_130
  6
CONTINUOUS
 62
         4
100
AcDbLine
 10
1610.1438010218
 20
-147.2400166132
 30
0.0
 11
1613.1438010218
 21
-144.2400166132
 31
0.0
  0
LINE
  5
76B
100
AcDbEntity
  8
L1_130
  6
CONTINUOUS
 62
         4
100
AcDbLine
 10
1605.9011603347
 20
-147.2400166132
 30
0.0
 11
1609.7248598642
 21
-143.4163170837
 31
0.0
  0
LINE
  5
76C
100
AcDbEntity
  8
L1_130
  6
CONTINUOUS
 62
         4
100
AcDbLine
 10
1601.6585196476
 20
-147.2400166132
 30
0.0
 11
1606.1585196476
 21
-142.7400166132
 31
0.0
  0
LINE
  5
76D
100
AcDbEntity
  8
L1_130
  6
CONTINUOUS
 62
         4
100
AcDbLine
 10
1597.4158789605
 20
-147.2400166132
 30
0.0
 11
1601.9158789605
 21
-142.7400166132
 31
0.0
  0
LINE
  5
76E
100
AcDbEntity
  8
L1_130
  6
CONTINUOUS
 62
         4
100
AcDbLine
 10
1593.1732382733
 20
-147.2400166132
 30
0.0
 11
1597.6732382733
 21
-142.7400166132
 31
0.0
  0
LINE
  5
76F
100
AcDbEntity
  8
L1_130
  6
CONTINUOUS
 62
         4
100
AcDbLine
 10
1630.6732382733
 20
-109.7400166132
 30
0.0
 11
1632.8099161314
 21
-107.6033387551
 31
0.0
  0
LINE
  5
770
100
AcDbEntity
  8
L1_130
  6
CONTINUOUS
 62
         4
100
AcDbLine
 10
1588.9305975862
 20
-147.2400166132
 30
0.0
 11
1593.4305975862
 21
-142.7400166132
 31
0.0
  0
LINE
  5
771
100
AcDbEntity
  8
L1_130
  6
CONTINUOUS
 62
         4
100
AcDbLine
 10
1626.4305975862
 20
-109.7400166132
 30
0.0
 11
1629.9305179874
 21
-106.240096212
 31
0.0
  0
LINE
  5
772
100
AcDbEntity
  8
L1_130
  6
CONTINUOUS
 62
         4
100
AcDbLine
 10
1584.6879568991
 20
-147.2400166132
 30
0.0
 11
1589.1879568991
 21
-142.7400166132
 31
0.0
  0
LINE
  5
773
100
AcDbEntity
  8
L1_130
  6
CONTINUOUS
 62
         4
100
AcDbLine
 10
1622.1879568991
 20
-109.7400166132
 30
0.0
 11
1625.6879568991
 21
-106.2400166132
 31
0.0
  0
LINE
  5
774
100
AcDbEntity
  8
L1_130
  6
CONTINUOUS
 62
         4
100
AcDbLine
 10
1578.445316212
 20
-149.2400166132
 30
0.0
 11
1584.945316212
 21
-142.7400166132
 31
0.0
  0
LINE
  5
775
100
AcDbEntity
  8
L1_130
  6
CONTINUOUS
 62
         4
100
AcDbLine
 10
1617.945316212
 20
-109.7400166132
 30
0.0
 11
1621.445316212
 21
-106.2400166132
 31
0.0
  0
LINE
  5
776
100
AcDbEntity
  8
L1_130
  6
CONTINUOUS
 62
         4
100
AcDbLine
 10
1574.2026755249
 20
-149.2400166132
 30
0.0
 11
1580.7026755249
 21
-142.7400166132
 31
0.0
  0
LINE
  5
777
100
AcDbEntity
  8
L1_130
  6
CONTINUOUS
 62
         4
100
AcDbLine
 10
1614.2026755249
 20
-109.2400166132
 30
0.0
 11
1616.2026755249
 21
-107.2400166132
 31
0.0
  0
LINE
  5
778
100
AcDbEntity
  8
L1_130
  6
CONTINUOUS
 62
         4
100
AcDbLine
 10
1616.7786999334
 20
-106.6639922047
 30
0.0
 11
1617.2026755249
 21
-106.2400166132
 31
0.0
  0
LINE
  5
779
100
AcDbEntity
  8
L1_130
  6
CONTINUOUS
 62
         4
100
AcDbLine
 10
1557.5350348377
 20
-161.6650166132
 30
0.0
 11
1558.8306999334
 21
-160.3693515176
 31
0.0
  0
LINE
  5
77A
100
AcDbEntity
  8
L1_130
  6
CONTINUOUS
 62
         4
100
AcDbLine
 10
1569.9600348377
 20
-149.2400166132
 30
0.0
 11
1570.2786999334
 21
-148.9213515176
 31
0.0
  0
LINE
  5
77B
100
AcDbEntity
  8
L1_130
  6
CONTINUOUS
 62
         4
100
AcDbLine
 10
1572.2786999334
 20
-146.9213515176
 30
0.0
 11
1576.4600348377
 21
-142.7400166132
 31
0.0
  0
LINE
  5
77C
100
AcDbEntity
  8
L1_130
  6
CONTINUOUS
 62
         4
100
AcDbLine
 10
1609.983633753
 20
-109.2164176979
 30
0.0
 11
1612.9600348377
 21
-106.2400166132
 31
0.0
  0
LINE
  5
77D
100
AcDbEntity
  8
L1_130
  6
CONTINUOUS
 62
         4
100
AcDbLine
 10
1539.4673941506
 20
-175.4900166132
 30
0.0
 11
1542.8786999334
 21
-172.0787108304
 31
0.0
  0
LINE
  5
77E
100
AcDbEntity
  8
L1_130
  6
CONTINUOUS
 62
         4
100
AcDbLine
 10
1553.2923941506
 20
-161.6650166132
 30
0.0
 11
1558.8306999334
 21
-156.1267108304
 31
0.0
  0
LINE
  5
77F
100
AcDbEntity
  8
L1_130
  6
CONTINUOUS
 62
         4
100
AcDbLine
 10
1565.7173941506
 20
-149.2400166132
 30
0.0
 11
1570.2786999334
 21
-144.6787108304
 31
0.0
  0
LINE
  5
780
100
AcDbEntity
  8
L1_130
  6
CONTINUOUS
 62
         4
100
AcDbLine
 10
1537.2472699147
 20
-173.467500162
 30
0.0
 11
1542.8786999334
 21
-167.8360701433
 31
0.0
  0
LINE
  5
781
100
AcDbEntity
  8
L1_130
  6
CONTINUOUS
 62
         4
100
AcDbLine
 10
1549.0497534635
 20
-161.6650166132
 30
0.0
 11
1558.8306999334
 21
-151.8840701433
 31
0.0
  0
LINE
  5
782
100
AcDbEntity
  8
L1_130
  6
CONTINUOUS
 62
         4
100
AcDbLine
 10
1561.4747534635
 20
-149.2400166132
 30
0.0
 11
1568.7786999334
 21
-141.9360701433
 31
0.0
  0
LINE
  5
783
100
AcDbEntity
  8
L1_130
  6
CONTINUOUS
 62
         4
100
AcDbLine
 10
1530.9821127764
 20
-175.4900166132
 30
0.0
 11
1531.8346313797
 21
-174.6374980098
 31
0.0
  0
LINE
  5
784
100
AcDbEntity
  8
L1_130
  6
CONTINUOUS
 62
         4
100
AcDbLine
 10
1534.1071127764
 20
-172.3650166132
 30
0.0
 11
1542.8786999334
 21
-163.5934294562
 31
0.0
  0
LINE
  5
785
100
AcDbEntity
  8
L1_130
  6
CONTINUOUS
 62
         4
100
AcDbLine
 10
1544.8071127764
 20
-161.6650166132
 30
0.0
 11
1568.7786999334
 21
-137.6934294562
 31
0.0
  0
LINE
  5
786
100
AcDbEntity
  8
L1_130
  6
CONTINUOUS
 62
         4
100
AcDbLine
 10
1527.3051920368
 20
-174.9242966657
 30
0.0
 11
1568.7786999334
 21
-133.4507887691
 31
0.0
  0
LINE
  5
787
100
AcDbEntity
  8
L1_130
  6
CONTINUOUS
 62
         4
100
AcDbLine
 10
1526.9786999334
 20
-171.008148082
 30
0.0
 11
1568.7468314022
 21
-129.2400166132
 31
0.0
  0
LINE
  5
788
100
AcDbEntity
  8
L1_130
  6
CONTINUOUS
 62
         4
100
AcDbLine
 10
1526.9786999334
 20
-166.7655073948
 30
0.0
 11
1564.504190715
 21
-129.2400166132
 31
0.0
  0
LINE
  5
789
100
AcDbEntity
  8
L1_130
  6
CONTINUOUS
 62
         4
100
AcDbLine
 10
1583.004190715
 20
-110.7400166132
 30
0.0
 11
1585.3836999334
 21
-108.3605073948
 31
0.0
  0
LINE
  5
78A
100
AcDbEntity
  8
L1_130
  6
CONTINUOUS
 62
         4
100
AcDbLine
 10
1526.9786999334
 20
-162.5228667077
 30
0.0
 11
1560.2615500279
 21
-129.2400166132
 31
0.0
  0
LINE
  5
78B
100
AcDbEntity
  8
L1_130
  6
CONTINUOUS
 62
         4
100
AcDbLine
 10
1565.2615500279
 20
-124.2400166132
 30
0.0
 11
1568.7786999334
 21
-120.7228667077
 31
0.0
  0
LINE
  5
78C
100
AcDbEntity
  8
L1_130
  6
CONTINUOUS
 62
         4
100
AcDbLine
 10
1578.7615500279
 20
-110.7400166132
 30
0.0
 11
1583.0615500279
 21
-106.4400166132
 31
0.0
  0
LINE
  5
78D
100
AcDbEntity
  8
L1_130
  6
CONTINUOUS
 62
         4
100
AcDbLine
 10
1523.6174283367
 20
-161.6414976173
 30
0.0
 11
1556.0189093408
 21
-129.2400166132
 31
0.0
  0
LINE
  5
78E
100
AcDbEntity
  8
L1_130
  6
CONTINUOUS
 62
         4
100
AcDbLine
 10
1561.0189093408
 20
-124.2400166132
 30
0.0
 11
1568.7786999334
 21
-116.4802260206
 31
0.0
  0
LINE
  5
78F
100
AcDbEntity
  8
L1_130
  6
CONTINUOUS
 62
         4
100
AcDbLine
 10
1574.5189093408
 20
-110.7400166132
 30
0.0
 11
1581.0189093408
 21
-104.2400166132
 31
0.0
  0
LINE
  5
790
100
AcDbEntity
  8
L1_130
  6
CONTINUOUS
 62
         4
100
AcDbLine
 10
1519.9147645375
 20
-161.1015207294
 30
0.0
 11
1553.0449192847
 21
-127.9713659822
 31
0.0
  0
LINE
  5
791
100
AcDbEntity
  8
L1_130
  6
CONTINUOUS
 62
         4
100
AcDbLine
 10
1556.7762686537
 20
-124.2400166132
 30
0.0
 11
1568.7786999334
 21
-112.2375853335
 31
0.0
  0
LINE
  5
792
100
AcDbEntity
  8
L1_130
  6
CONTINUOUS
 62
         4
100
AcDbLine
 10
1570.7762686537
 20
-110.2400166132
 30
0.0
 11
1576.7762686537
 21
-104.2400166132
 31
0.0
  0
LINE
  5
793
100
AcDbEntity
  8
L1_130
  6
CONTINUOUS
 62
         4
100
AcDbLine
 10
1516.2121007383
 20
-160.5615438415
 30
0.0
 11
1572.5336279666
 21
-104.2400166132
 31
0.0
  0
LINE
  5
794
100
AcDbEntity
  8
L1_130
  6
CONTINUOUS
 62
         4
100
AcDbLine
 10
1512.5094369391
 20
-160.0215669536
 30
0.0
 11
1568.2909872794
 21
-104.2400166132
 31
0.0
  0
LINE
  5
795
100
AcDbEntity
  8
L1_130
  6
CONTINUOUS
 62
         4
100
AcDbLine
 10
1508.8067731398
 20
-159.4815900657
 30
0.0
 11
1564.0483465923
 21
-104.2400166132
 31
0.0
  0
LINE
  5
796
100
AcDbEntity
  8
L1_130
  6
CONTINUOUS
 62
         4
100
AcDbLine
 10
1505.1041093406
 20
-158.9416131778
 30
0.0
 11
1559.9906710595
 21
-104.0550514589
 31
0.0
  0
LINE
  5
797
100
AcDbEntity
  8
L1_130
  6
CONTINUOUS
 62
         4
100
AcDbLine
 10
1501.4014455414
 20
-158.4016362899
 30
0.0
 11
1558.8306999334
 21
-100.9723818979
 31
0.0
  0
LINE
  5
798
100
AcDbEntity
  8
L1_130
  6
CONTINUOUS
 62
         4
100
AcDbLine
 10
1497.6987817422
 20
-157.861659402
 30
0.0
 11
1558.8306999334
 21
-96.7297412108
 31
0.0
  0
LINE
  5
799
100
AcDbEntity
  8
L1_130
  6
CONTINUOUS
 62
         4
100
AcDbLine
 10
1493.9961179429
 20
-157.3216825141
 30
0.0
 11
1558.8217977141
 21
-92.4960027429
 31
0.0
  0
LINE
  5
79A
100
AcDbEntity
  8
L1_130
  6
CONTINUOUS
 62
         4
100
AcDbLine
 10
1490.2934541437
 20
-156.7817056262
 30
0.0
 11
1555.2601431567
 21
-91.8150166132
 31
0.0
  0
LINE
  5
79B
100
AcDbEntity
  8
L1_130
  6
CONTINUOUS
 62
         4
100
AcDbLine
 10
1486.5907903445
 20
-156.2417287383
 30
0.0
 11
1551.0175024696
 21
-91.8150166132
 31
0.0
  0
LINE
  5
79C
100
AcDbEntity
  8
L1_130
  6
CONTINUOUS
 62
         4
100
AcDbLine
 10
1482.8881265453
 20
-155.7017518504
 30
0.0
 11
1546.7748617825
 21
-91.8150166132
 31
0.0
  0
LINE
  5
79D
100
AcDbEntity
  8
L1_130
  6
CONTINUOUS
 62
         4
100
AcDbLine
 10
1479.185462746
 20
-155.1617749625
 30
0.0
 11
1542.8972591132
 21
-91.4499785954
 31
0.0
  0
LINE
  5
79E
100
AcDbEntity
  8
L1_130
  6
CONTINUOUS
 62
         4
100
AcDbLine
 10
1475.4827989468
 20
-154.6217980746
 30
0.0
 11
1542.8786999334
 21
-87.225897088
 31
0.0
  0
LINE
  5
79F
100
AcDbEntity
  8
L1_130
  6
CONTINUOUS
 62
         4
100
AcDbLine
 10
1471.7801351476
 20
-154.0818211867
 30
0.0
 11
1542.8786999334
 21
-82.9832564009
 31
0.0
  0
LINE
  5
7A0
100
AcDbEntity
  8
L1_130
  6
CONTINUOUS
 62
         4
100
AcDbLine
 10
1468.0774713484
 20
-153.5418442988
 30
0.0
 11
1542.7460429543
 21
-78.8732726929
 31
0.0
  0
LINE
  5
7A1
100
AcDbEntity
  8
L1_130
  6
CONTINUOUS
 62
         4
100
AcDbLine
 10
1464.3748075491
 20
-153.0018674109
 30
0.0
 11
1525.197255345
 21
-92.1794196151
 31
0.0
  0
LINE
  5
7A2
100
AcDbEntity
  8
L1_130
  6
CONTINUOUS
 62
         4
100
AcDbLine
 10
1526.9786999334
 20
-90.3979750267
 30
0.0
 11
1536.2616583469
 21
-81.1150166132
 31
0.0
  0
LINE
  5
7A3
100
AcDbEntity
  8
L1_130
  6
CONTINUOUS
 62
         4
100
AcDbLine
 10
1537.0876198195
 20
-80.2890551405
 30
0.0
 11
1539.3866583469
 21
-77.9900166132
 31
0.0
  0
LINE
  5
7A4
100
AcDbEntity
  8
L1_130
  6
CONTINUOUS
 62
         4
100
AcDbLine
 10
1460.6721437499
 20
-152.461890523
 30
0.0
 11
1475.9976761964
 21
-137.1363580766
 31
0.0
  0
LINE
  5
7A5
100
AcDbEntity
  8
L1_130
  6
CONTINUOUS
 62
         4
100
AcDbLine
 10
1477.135790578
 20
-135.9982436949
 30
0.0
 11
1520.8990672769
 21
-92.2349669961
 31
0.0
  0
LINE
  5
7A6
100
AcDbEntity
  8
L1_130
  6
CONTINUOUS
 62
         4
100
AcDbLine
 10
1526.9786999334
 20
-86.1553343396
 30
0.0
 11
1532.7339073631
 21
-80.4001269098
 31
0.0
  0
LINE
  5
7A7
100
AcDbEntity
  8
L1_130
  6
CONTINUOUS
 62
         4
100
AcDbLine
 10
1456.9694799507
 20
-151.9219136351
 30
0.0
 11
1471.7550355092
 21
-137.1363580766
 31
0.0
  0
LINE
  5
7A8
100
AcDbEntity
  8
L1_130
  6
CONTINUOUS
 62
         4
100
AcDbLine
 10
1482.3603689193
 20
-126.5310246666
 30
0.0
 11
1515.9320653176
 21
-92.9593282683
 31
0.0
  0
LINE
  5
7A9
100
AcDbEntity
  8
L1_130
  6
CONTINUOUS
 62
         4
100
AcDbLine
 10
1526.9786999334
 20
-81.9126936525
 30
0.0
 11
1530.9013769726
 21
-77.9900166132
 31
0.0
  0
LINE
  5
7AA
100
AcDbEntity
  8
L1_130
  6
CONTINUOUS
 62
         4
100
AcDbLine
 10
1453.2668161515
 20
-151.3819367473
 30
0.0
 11
1467.5123948221
 21
-137.1363580766
 31
0.0
  0
LINE
  5
7AB
100
AcDbEntity
  8
L1_130
  6
CONTINUOUS
 62
         4
100
AcDbLine
 10
1480.8074546486
 20
-123.8412982501
 30
0.0
 11
1510.9650633582
 21
-93.6836895405
 31
0.0
  0
LINE
  5
7AC
100
AcDbEntity
  8
L1_130
  6
CONTINUOUS
 62
         4
100
AcDbLine
 10
1449.5641523523
 20
-150.8419598594
 30
0.0
 11
1463.269754135
 21
-137.1363580766
 31
0.0
  0
LINE
  5
7AD
100
AcDbEntity
  8
L1_130
  6
CONTINUOUS
 62
         4
100
AcDbLine
 10
1479.254540378
 20
-121.1515718336
 30
0.0
 11
1505.9980613989
 21
-94.4080508127
 31
0.0
  0
LINE
  5
7AE
100
AcDbEntity
  8
L1_130
  6
CONTINUOUS
 62
         4
100
AcDbLine
 10
1445.861488553
 20
-150.3019829715
 30
0.0
 11
1459.0271134479
 21
-137.1363580766
 31
0.0
  0
LINE
  5
7AF
100
AcDbEntity
  8
L1_130
  6
CONTINUOUS
 62
         4
100
AcDbLine
 10
1477.7016261074
 20
-118.4618454171
 30
0.0
 11
1501.0310594396
 21
-95.1324120849
 31
0.0
  0
LINE
  5
7B0
100
AcDbEntity
  8
L1_130
  6
CONTINUOUS
 62
         4
100
AcDbLine
 10
1442.1588247538
 20
-149.7620060836
 30
0.0
 11
1454.7844727608
 21
-137.1363580766
 31
0.0
  0
LINE
  5
7B1
100
AcDbEntity
  8
L1_130
  6
CONTINUOUS
 62
         4
100
AcDbLine
 10
1475.5771556876
 20
-116.3436751498
 30
0.0
 11
1496.0640574803
 21
-95.8567733571
 31
0.0
  0
LINE
  5
7B2
100
AcDbEntity
  8
L1_130
  6
CONTINUOUS
 62
         4
100
AcDbLine
 10
1438.4561609546
 20
-149.2220291957
 30
0.0
 11
1450.5418320736
 21
-137.1363580766
 31
0.0
  0
LINE
  5
7B3
100
AcDbEntity
  8
L1_130
  6
CONTINUOUS
 62
         4
100
AcDbLine
 10
1471.3345150005
 20
-116.3436751498
 30
0.0
 11
1491.0970555209
 21
-96.5811346293
 31
0.0
  0
LINE
  5
7B4
100
AcDbEntity
  8
L1_130
  6
CONTINUOUS
 62
         4
100
AcDbLine
 10
1434.7534971554
 20
-148.6820523078
 30
0.0
 11
1446.2991913865
 21
-137.1363580766
 31
0.0
  0
LINE
  5
7B5
100
AcDbEntity
  8
L1_130
  6
CONTINUOUS
 62
         4
100
AcDbLine
 10
1467.0918743133
 20
-116.3436751498
 30
0.0
 11
1486.1300535616
 21
-97.3054959015
 31
0.0
  0
LINE
  5
7B6
100
AcDbEntity
  8
L1_130
  6
CONTINUOUS
 62
         4
100
AcDbLine
 10
1431.0508333561
 20
-148.1420754199
 30
0.0
 11
1442.0565506994
 21
-137.1363580766
 31
0.0
  0
LINE
  5
7B7
100
AcDbEntity
  8
L1_130
  6
CONTINUOUS
 62
         4
100
AcDbLine
 10
1462.8492336262
 20
-116.3436751498
 30
0.0
 11
1481.1630516023
 21
-98.0298571737
 31
0.0
  0
LINE
  5
7B8
100
AcDbEntity
  8
L1_130
  6
CONTINUOUS
 62
         4
100
AcDbLine
 10
1427.3481695569
 20
-147.602098532
 30
0.0
 11
1437.8139100123
 21
-137.1363580766
 31
0.0
  0
LINE
  5
7B9
100
AcDbEntity
  8
L1_130
  6
CONTINUOUS
 62
         4
100
AcDbLine
 10
1458.6065929391
 20
-116.3436751498
 30
0.0
 11
1476.1960496429
 21
-98.7542184459
 31
0.0
  0
LINE
  5
7BA
100
AcDbEntity
  8
L1_130
  6
CONTINUOUS
 62
         4
100
AcDbLine
 10
1423.7146364368
 20
-146.992990965
 30
0.0
 11
1433.5712693252
 21
-137.1363580766
 31
0.0
  0
LINE
  5
7BB
100
AcDbEntity
  8
L1_130
  6
CONTINUOUS
 62
         4
100
AcDbLine
 10
1454.363952252
 20
-116.3436751498
 30
0.0
 11
1471.2290476836
 21
-99.4785797182
 31
0.0
  0
LINE
  5
7BC
100
AcDbEntity
  8
L1_130
  6
CONTINUOUS
 62
         4
100
AcDbLine
 10
1422.1786999334
 20
-144.2862867813
 30
0.0
 11
1427.0461321721
 21
-139.4188545426
 31
0.0
  0
LINE
  5
7BD
100
AcDbEntity
  8
L1_130
  6
CONTINUOUS
 62
         4
100
AcDbLine
 10
1450.1213115649
 20
-116.3436751498
 30
0.0
 11
1466.2620457243
 21
-100.2029409904
 31
0.0
  0
LINE
  5
7BE
100
AcDbEntity
  8
L1_130
  6
CONTINUOUS
 62
         4
100
AcDbLine
 10
1422.2260653499
 20
-139.9962806776
 30
0.0
 11
1422.7849639978
 21
-139.4373820297
 31
0.0
  0
LINE
  5
7BF
100
AcDbEntity
  8
L1_130
  6
CONTINUOUS
 62
         4
100
AcDbLine
 10
1445.8786708777
 20
-116.3436751498
 30
0.0
 11
1461.295043765
 21
-100.9273022626
 31
0.0
  0
LINE
  5
7C0
100
AcDbEntity
  8
L1_130
  6
CONTINUOUS
 62
         4
100
AcDbLine
 10
1441.6360301906
 20
-116.3436751498
 30
0.0
 11
1456.3280418056
 21
-101.6516635348
 31
0.0
  0
LINE
  5
7C1
100
AcDbEntity
  8
L1_130
  6
CONTINUOUS
 62
         4
100
AcDbLine
 10
1437.3933895035
 20
-116.3436751498
 30
0.0
 11
1451.3610398463
 21
-102.376024807
 31
0.0
  0
LINE
  5
7C2
100
AcDbEntity
  8
L1_130
  6
CONTINUOUS
 62
         4
100
AcDbLine
 10
1433.1507488164
 20
-116.3436751498
 30
0.0
 11
1446.394037887
 21
-103.1003860792
 31
0.0
  0
LINE
  5
7C3
100
AcDbEntity
  8
L1_130
  6
CONTINUOUS
 62
         4
100
AcDbLine
 10
1429.6780760121
 20
-115.573707267
 30
0.0
 11
1441.4270359276
 21
-103.8247473514
 31
0.0
  0
LINE
  5
7C4
100
AcDbEntity
  8
L1_130
  6
CONTINUOUS
 62
         4
100
AcDbLine
 10
1426.9120318296
 20
-114.0971107623
 30
0.0
 11
1436.4600339683
 21
-104.5491086236
 31
0.0
  0
LINE
  5
7C5
100
AcDbEntity
  8
L1_130
  6
CONTINUOUS
 62
         4
100
AcDbLine
 10
1422.7465482709
 20
-114.0199536339
 30
0.0
 11
1431.493032009
 21
-105.2734698958
 31
0.0
  0
LINE
  5
7C6
100
AcDbEntity
  8
L1_130
  6
CONTINUOUS
 62
         4
100
AcDbLine
 10
1422.1786999334
 20
-110.3451612843
 30
0.0
 11
1426.5260300497
 21
-105.997831168
 31
0.0
  0
ENDBLK
  5
7C7
100
AcDbEntity
  8
0
  6
CONTINUOUS
100
AcDbBlockEnd
  0
BLOCK
  5
7CB
100
AcDbEntity
  8
0
100
AcDbBlockBegin
  2
*D56
 70
        65
 10
0.0
 20
0.0
 30
0.0
  3
*D56
  1

  0
POINT
  5
7CD
100
AcDbEntity
  8
DEFPOINTS
  6
CONTINUOUS
 62
         0
100
AcDbPoint
 10
1601.7097640732
 20
117.0524144385
 30
0.0
  0
POINT
  5
7CE
100
AcDbEntity
  8
DEFPOINTS
  6
CONTINUOUS
 62
         0
100
AcDbPoint
 10
1590.1836999334
 20
117.0524144385
 30
0.0
  0
POINT
  5
7CF
100
AcDbEntity
  8
DEFPOINTS
  6
CONTINUOUS
 62
         0
100
AcDbPoint
 10
1590.1836999334
 20
107.4524144385
 30
0.0
  0
LINE
  5
7D0
100
AcDbEntity
  8
L1_130
  6
CONTINUOUS
 62
         4
100
AcDbLine
 10
1591.9336999334
 20
117.0524144385
 30
0.0
 11
1602.5847640732
 21
117.0524144385
 31
0.0
  0
LINE
  5
7D1
100
AcDbEntity
  8
L1_130
  6
CONTINUOUS
 62
         4
100
AcDbLine
 10
1591.9336999334
 20
107.4524144385
 30
0.0
 11
1602.5847640732
 21
107.4524144385
 31
0.0
  0
LINE
  5
7D2
100
AcDbEntity
  8
L1_130
  6
CONTINUOUS
 62
         4
100
AcDbLine
 10
1601.7097640732
 20
117.0524144385
 30
0.0
 11
1601.7097640732
 21
107.4524144385
 31
0.0
  0
SOLID
  5
7D3
100
AcDbEntity
  8
L1_130
  6
CONTINUOUS
 62
         4
100
AcDbTrace
 10
1601.7097640732
 20
117.0524144385
 30
0.0
 11
1602.2347640732
 21
113.5524144385
 31
0.0
 12
1601.1847640732
 22
113.5524144385
 32
0.0
 13
1601.7097640732
 23
117.0524144385
 33
0.0
  0
LINE
  5
7D4
100
AcDbEntity
  8
L1_130
  6
CONTINUOUS
 62
         4
100
AcDbLine
 10
1601.7097640732
 20
107.4524144385
 30
0.0
 11
1601.7097640732
 21
60.6512925176
 31
0.0
  0
SOLID
  5
7D5
100
AcDbEntity
  8
L1_130
  6
CONTINUOUS
 62
         4
100
AcDbTrace
 10
1601.7097640732
 20
107.4524144385
 30
0.0
 11
1601.1847640732
 21
110.9524144385
 31
0.0
 12
1602.2347640732
 22
110.9524144385
 32
0.0
 13
1601.7097640732
 23
107.4524144385
 33
0.0
  0
TEXT
  5
7D7
100
AcDbEntity
  8
L1_130
  6
CONTINUOUS
 62
         4
100
AcDbText
 10
1597.6497640732
 20
62.4012925176
 30
0.0
 40
3.5
  1
9.55
 50
90.0
  7
BOX
100
AcDbText
  0
ENDBLK
  5
7D8
100
AcDbEntity
  8
0
  6
CONTINUOUS
100
AcDbBlockEnd
  0
ENDSEC
  0
SECTION
  2
ENTITIES
  0
TEXT
  5
25
100
AcDbEntity
  8
L1_130
  6
CONTINUOUS
 62
         2
100
AcDbText
 10
1830.4058372732
 20
186.4382511173
 30
0.0
 40
4.5
  1
531554
 41
0.98
  7
BOX
100
AcDbText
  0
LINE
  5
26
100
AcDbEntity
  8
L1_130
  6
CONTINUOUS
 62
         4
100
AcDbLine
 10
1634.0786999334
 20
-143.7400166132
 30
0.0
 11
1634.0786999334
 21
-109.7400166132
 31
0.0
  0
ARC
  5
27
100
AcDbEntity
  8
L1_130
  6
CONTINUOUS
 62
         7
100
AcDbCircle
 10
1634.0786999334
 20
-109.0400166132
 30
0.0
 40
0.7
100
AcDbArc
 50
270.0
 51
360.0
  0
ARC
  5
28
100
AcDbEntity
  8
L1_130
  6
CONTINUOUS
 62
         7
100
AcDbCircle
 10
1634.0786999334
 20
-144.4400166132
 30
0.0
 40
0.7
100
AcDbArc
 50
0.0
 51
90.0
  0
ARC
  5
29
100
AcDbEntity
  8
L1_130
  6
CONTINUOUS
 62
         7
100
AcDbCircle
 10
1560.8306999334
 20
-151.2400166132
 30
0.0
 40
2.0
100
AcDbArc
 50
90.0
 51
180.0
  0
ARC
  5
2A
100
AcDbEntity
  8
L1_130
  6
CONTINUOUS
 62
         7
100
AcDbCircle
 10
1560.8306999334
 20
-102.2400166132
 30
0.0
 40
2.0
100
AcDbArc
 50
180.0
 51
270.0
  0
LINE
  5
2B
100
AcDbEntity
  8
L1_130
  6
CONTINUOUS
 62
         7
100
AcDbLine
 10
1558.8306999334
 20
-102.2400166132
 30
0.0
 11
1558.8306999334
 21
-92.6150166132
 31
0.0
  0
LINE
  5
2C
100
AcDbEntity
  8
L1_130
  6
CONTINUOUS
 62
         7
100
AcDbLine
 10
1558.8306999334
 20
-160.8650166132
 30
0.0
 11
1558.8306999334
 21
-151.2400166132
 31
0.0
  0
ARC
  5
2D
100
AcDbEntity
  8
L1_130
  6
CONTINUOUS
 62
         7
100
AcDbCircle
 10
1560.8306999334
 20
87.7524144385
 30
0.0
 40
2.0
100
AcDbArc
 50
90.0
 51
180.0
  0
ARC
  5
2E
100
AcDbEntity
  8
L1_130
  6
CONTINUOUS
 62
         7
100
AcDbCircle
 10
1560.8306999334
 20
136.7524144385
 30
0.0
 40
2.0
100
AcDbArc
 50
180.0
 51
270.0
  0
LINE
  5
2F
100
AcDbEntity
  8
L1_130
  6
CONTINUOUS
 62
         7
100
AcDbLine
 10
1609.983633753
 20
-109.2400166132
 30
0.0
 11
1609.983633753
 21
-106.2400166132
 31
0.0
  0
LINE
  5
30
100
AcDbEntity
  8
L1_130
  6
CONTINUOUS
 62
         7
100
AcDbLine
 10
1585.3836999334
 20
-110.7400166132
 30
0.0
 11
1585.3836999334
 21
-106.2400166132
 31
0.0
  0
DIMENSION
  5
34
100
AcDbEntity
  8
L1_130
  6
CONTINUOUS
 62
         4
100
AcDbDimension
  2
*D0
 10
1585.3836999334
 20
-97.2148132542
 30
0.0
 11
1584.6585503408
 21
-93.1548132542
 31
0.0
  3
DIMSTYLE1
100
AcDbAlignedDimension
 13
1585.3836999334
 23
-106.2400166132
 33
0.0
 14
1609.983633753
 24
-106.2400166132
 34
0.0
100
AcDbRotatedDimension
  0
ARC
  5
41
100
AcDbEntity
  8
L1_130
  6
CONTINUOUS
 62
         7
100
AcDbCircle
 10
1590.1836999334
 20
112.2524144385
 30
0.0
 40
4.8
100
AcDbArc
 50
90.0
 51
270.0
  0
LINE
  5
42
100
AcDbEntity
  8
L1_130
  6
CONTINUOUS
 62
         7
100
AcDbLine
 10
1605.183633753
 20
117.0524144385
 30
0.0
 11
1590.1836999334
 21
117.0524144385
 31
0.0
  0
ARC
  5
43
100
AcDbEntity
  8
L1_130
  6
CONTINUOUS
 62
         7
100
AcDbCircle
 10
1605.183633753
 20
112.2524144385
 30
0.0
 40
4.8
100
AcDbArc
 50
270.0
 51
450.0
  0
LINE
  5
44
100
AcDbEntity
  8
L1_130
  6
CONTINUOUS
 62
         7
100
AcDbLine
 10
1605.183633753
 20
107.4524144385
 30
0.0
 11
1590.1836999334
 21
107.4524144385
 31
0.0
  0
LINE
  5
45
100
AcDbEntity
  8
L1_130
  6
DASHED
 62
         2
100
AcDbLine
 10
1858.6650808056
 20
124.8763952692
 30
0.0
 11
1859.9560454024
 21
127.1124115417
 31
0.0
  0
LINE
  5
46
100
AcDbEntity
  8
L1_130
  6
DASHED
 62
         2
100
AcDbLine
 10
1850.3512369293
 20
129.6763952692
 30
0.0
 11
1851.6422015261
 21
131.9124115417
 31
0.0
  0
LINE
  5
47
100
AcDbEntity
  8
L1_130
  6
DASHED
 62
         2
100
AcDbLine
 10
1850.3512369293
 20
94.8284336079
 30
0.0
 11
1851.6422015261
 21
92.5924173354
 31
0.0
  0
LINE
  5
48
100
AcDbEntity
  8
L1_130
  6
DASHED
 62
         2
100
AcDbLine
 10
1858.6650808056
 20
99.6284336079
 30
0.0
 11
1859.9560454024
 21
97.3924173354
 31
0.0
  0
LINE
  5
49
100
AcDbEntity
  8
L1_130
  6
DASHED
 62
         2
100
AcDbLine
 10
1828.4858607368
 20
117.0524144385
 30
0.0
 11
1825.9039315431
 21
117.0524144385
 31
0.0
  0
LINE
  5
4A
100
AcDbEntity
  8
L1_130
  6
DASHED
 62
         2
100
AcDbLine
 10
1828.4858607368
 20
107.4524144385
 30
0.0
 11
1825.9039315431
 21
107.4524144385
 31
0.0
  0
LINE
  5
4B
100
AcDbEntity
  8
L1_130
  6
CENTER
 62
         1
100
AcDbLine
 10
1845.8340594905
 20
112.2524144385
 30
0.0
 11
1871.9163709279
 21
157.428303027
 31
0.0
  0
LINE
  5
4C
100
AcDbEntity
  8
L1_130
  6
CENTER
 62
         1
100
AcDbLine
 10
1845.8340594905
 20
112.2524144385
 30
0.0
 11
1871.9163709279
 21
67.0765258501
 31
0.0
  0
CIRCLE
  5
4D
100
AcDbEntity
  8
L1_130
  6
DASHED
 62
         2
100
AcDbCircle
 10
1845.8340594905
 20
112.2524144385
 30
0.0
 40
17.5
  0
CIRCLE
  5
4E
100
AcDbEntity
  8
L1_130
  6
DASHED
 62
         2
100
AcDbCircle
 10
1845.8340594905
 20
112.2524144385
 30
0.0
 40
16.5
  0
CIRCLE
  5
4F
100
AcDbEntity
  8
L1_130
  6
CONTINUOUS
 62
         7
100
AcDbCircle
 10
1845.8340594905
 20
112.2524144385
 30
0.0
 40
16.0
  0
CIRCLE
  5
50
100
AcDbEntity
  8
L1_130
  6
CONTINUOUS
 62
         7
100
AcDbCircle
 10
1845.8340594905
 20
112.2524144385
 30
0.0
 40
17.0
  0
ARC
  5
51
100
AcDbEntity
  8
L1_130
  6
CONTINUOUS
 62
         4
100
AcDbCircle
 10
1845.8340594905
 20
112.2524144385
 30
0.0
 40
3.0
100
AcDbArc
 50
270.0
 51
540.0
  0
CIRCLE
  5
52
100
AcDbEntity
  8
L1_130
  6
CONTINUOUS
 62
         7
100
AcDbCircle
 10
1845.8340594905
 20
112.2524144385
 30
0.0
 40
2.0
  0
CIRCLE
  5
53
100
AcDbEntity
  8
L1_130
  6
DASHED
 62
         2
100
AcDbCircle
 10
1845.8340594905
 20
112.2524144385
 30
0.0
 40
19.5
  0
CIRCLE
  5
54
100
AcDbEntity
  8
L1_130
  6
CONTINUOUS
 62
         7
100
AcDbCircle
 10
1845.8340594905
 20
112.2524144385
 30
0.0
 40
20.5
  0
CIRCLE
  5
55
100
AcDbEntity
  8
L1_130
  6
CONTINUOUS
 62
         7
100
AcDbCircle
 10
1845.8340594905
 20
112.2524144385
 30
0.0
 40
22.5
  0
CIRCLE
  5
56
100
AcDbEntity
  8
L1_130
  6
CONTINUOUS
 62
         7
100
AcDbCircle
 10
1845.8340594905
 20
112.2524144385
 30
0.0
 40
18.0
  0
LINE
  5
57
100
AcDbEntity
  8
L1_130
  6
CONTINUOUS
 62
         7
100
AcDbLine
 10
1422.1786999334
 20
130.1987502026
 30
0.0
 11
1422.1786999334
 21
94.3060786745
 31
0.0
  0
LINE
  5
58
100
AcDbEntity
  8
L1_130
  6
CONTINUOUS
 62
         7
100
AcDbLine
 10
1526.9786999334
 20
159.5024144385
 30
0.0
 11
1526.9786999334
 21
65.0024144385
 31
0.0
  0
LINE
  5
59
100
AcDbEntity
  8
L1_130
  6
CENTER
 62
         1
100
AcDbLine
 10
1523.7786999334
 20
151.9774144385
 30
0.0
 11
1523.7786999334
 21
73.981360093
 31
0.0
  0
DIMENSION
  5
5C
100
AcDbEntity
  8
L1_130
  6
CONTINUOUS
 62
         4
100
AcDbDimension
  2
*D1
 10
1422.1786999334
 20
216.9467567226
 30
0.0
 11
1524.3160690117
 21
219.5717567226
 31
0.0
  3
DIMSTYLE1
100
AcDbAlignedDimension
 13
1422.1786999334
 23
130.1987502026
 33
0.0
 14
1634.7786999334
 24
112.2524144385
 34
0.0
100
AcDbRotatedDimension
  0
DIMENSION
  5
6A
100
AcDbEntity
  8
L1_130
  6
CONTINUOUS
 62
         4
100
AcDbDimension
  2
*D2
 10
1634.7786999334
 20
208.3902554906
 30
0.0
 11
1573.5490928382
 21
211.0152554906
 31
0.0
  3
DIMSTYLE1
100
AcDbAlignedDimension
 13
1634.7786999334
 23
112.2524144385
 33
0.0
 14
1523.7786999334
 24
151.9774144385
 34
0.0
100
AcDbRotatedDimension
  0
LINE
  5
76
100
AcDbEntity
  8
L1_130
  6
CONTINUOUS
 62
         7
100
AcDbLine
 10
1581.7786999334
 20
90.8524144385
 30
0.0
 11
1581.7786999334
 21
90.2524144385
 31
0.0
  0
ARC
  5
77
100
AcDbEntity
  8
L1_130
  6
CONTINUOUS
 62
         7
100
AcDbCircle
 10
1582.0786999334
 20
91.5524144385
 30
0.0
 40
0.4
100
AcDbArc
 50
90.0
 51
178.4890283439
  0
LINE
  5
78
100
AcDbEntity
  8
L1_130
  6
CONTINUOUS
 62
         7
100
AcDbLine
 10
1581.6788390158
 20
91.562961788
 30
0.0
 11
1581.7786999334
 21
90.8524144385
 31
0.0
  0
LINE
  5
79
100
AcDbEntity
  8
L1_130
  6
CONTINUOUS
 62
         7
100
AcDbLine
 10
1584.9151916065
 20
91.7524144385
 30
0.0
 11
1584.2786999334
 21
91.7524144385
 31
0.0
  0
ARC
  5
7A
100
AcDbEntity
  8
L1_130
  6
CONTINUOUS
 62
         7
100
AcDbCircle
 10
1583.4796287728
 20
91.5524144385
 30
0.0
 40
0.4
100
AcDbArc
 50
75.0
 51
90.0
  0
LINE
  5
7B
100
AcDbEntity
  8
L1_130
  6
CONTINUOUS
 62
         7
100
AcDbLine
 10
1583.5831563909
 20
91.9387847691
 30
0.0
 11
1584.2786999334
 21
91.7524144385
 31
0.0
  0
LINE
  5
7C
100
AcDbEntity
  8
L1_130
  6
CONTINUOUS
 62
         7
100
AcDbLine
 10
1583.4796287728
 20
91.9524144385
 30
0.0
 11
1582.0786999334
 21
91.9524144385
 31
0.0
  0
LINE
  5
7D
100
AcDbEntity
  8
L1_130
  6
CONTINUOUS
 62
         7
100
AcDbLine
 10
1581.7786999334
 20
133.6524144385
 30
0.0
 11
1581.7786999334
 21
134.2524144385
 31
0.0
  0
ARC
  5
7E
100
AcDbEntity
  8
L1_130
  6
CONTINUOUS
 62
         7
100
AcDbCircle
 10
1582.0786999334
 20
132.9524144385
 30
0.0
 40
0.4
100
AcDbArc
 50
181.5109716561
 51
270.0
  0
LINE
  5
7F
100
AcDbEntity
  8
L1_130
  6
CONTINUOUS
 62
         7
100
AcDbLine
 10
1581.6788390158
 20
132.9418670891
 30
0.0
 11
1581.7786999334
 21
133.6524144385
 31
0.0
  0
LINE
  5
80
100
AcDbEntity
  8
L1_130
  6
CONTINUOUS
 62
         7
100
AcDbLine
 10
1584.9151916065
 20
132.7524144385
 30
0.0
 11
1584.2786999334
 21
132.7524144385
 31
0.0
  0
ARC
  5
81
100
AcDbEntity
  8
L1_130
  6
CONTINUOUS
 62
         7
100
AcDbCircle
 10
1583.4796287728
 20
132.9524144385
 30
0.0
 40
0.4
100
AcDbArc
 50
270.0
 51
285.0
  0
LINE
  5
82
100
AcDbEntity
  8
L1_130
  6
CONTINUOUS
 62
         7
100
AcDbLine
 10
1583.5831563909
 20
132.566044108
 30
0.0
 11
1584.2786999334
 21
132.7524144385
 31
0.0
  0
LINE
  5
83
100
AcDbEntity
  8
L1_130
  6
CONTINUOUS
 62
         7
100
AcDbLine
 10
1583.4796287728
 20
132.5524144385
 30
0.0
 11
1582.0786999334
 21
132.5524144385
 31
0.0
  0
DIMENSION
  5
86
100
AcDbEntity
  8
L1_130
  6
CONTINUOUS
 62
         4
100
AcDbDimension
  2
*D3
 10
1654.5809183797
 20
130.2524144385
 30
0.0
 11
1650.5209183797
 21
103.7667303676
 31
0.0
  3
DIMSTYLE1
100
AcDbAlignedDimension
 13
1634.7786999334
 23
130.2524144385
 33
0.0
 14
1634.7786999334
 24
94.2524144385
 34
0.0
 50
90.0
100
AcDbRotatedDimension
  0
ARC
  5
92
100
AcDbEntity
  8
L1_130
  6
CONTINUOUS
 62
         7
100
AcDbCircle
 10
1633.7786999334
 20
129.6750641694
 30
0.0
 40
1.0
100
AcDbArc
 50
0.0
 51
60.0
  0
LINE
  5
93
100
AcDbEntity
  8
L1_130
  6
CONTINUOUS
 62
         7
100
AcDbLine
 10
1634.2786999334
 20
130.5410895731
 30
0.0
 11
1630.9126745296
 21
132.4844652461
 31
0.0
  0
ARC
  5
94
100
AcDbEntity
  8
L1_130
  6
CONTINUOUS
 62
         7
100
AcDbCircle
 10
1629.9126745296
 20
130.7524144385
 30
0.0
 40
2.0
100
AcDbArc
 50
60.0
 51
90.0000000001
  0
ARC
  5
95
100
AcDbEntity
  8
L1_130
  6
CONTINUOUS
 62
         7
100
AcDbCircle
 10
1633.7786999334
 20
94.8297647077
 30
0.0
 40
1.0
100
AcDbArc
 50
300.0
 51
360.0
  0
LINE
  5
96
100
AcDbEntity
  8
L1_130
  6
CONTINUOUS
 62
         7
100
AcDbLine
 10
1634.2786999334
 20
93.963739304
 30
0.0
 11
1630.9126745296
 21
92.020363631
 31
0.0
  0
ARC
  5
97
100
AcDbEntity
  8
L1_130
  6
CONTINUOUS
 62
         7
100
AcDbCircle
 10
1629.9126745296
 20
93.7524144385
 30
0.0
 40
2.0
100
AcDbArc
 50
269.9999999999
 51
300.0
  0
LINE
  5
98
100
AcDbEntity
  8
L1_130
  6
CONTINUOUS
 62
         7
100
AcDbLine
 10
1581.2786999334
 20
89.7524144385
 30
0.0
 11
1560.8306999334
 21
89.7524144385
 31
0.0
  0
LINE
  5
99
100
AcDbEntity
  8
L1_130
  6
CONTINUOUS
 62
         7
100
AcDbLine
 10
1581.2786999334
 20
134.7524144385
 30
0.0
 11
1560.8306999334
 21
134.7524144385
 31
0.0
  0
LINE
  5
9A
100
AcDbEntity
  8
L1_130
  6
CONTINUOUS
 62
         7
100
AcDbLine
 10
1581.7786999334
 20
91.8169895697
 30
0.0
 11
1581.7786999334
 21
132.6878393074
 31
0.0
  0
LINE
  5
9B
100
AcDbEntity
  8
L1_130
  6
CONTINUOUS
 62
         7
100
AcDbLine
 10
1615.7786999334
 20
131.7524144385
 30
0.0
 11
1613.7786999334
 21
131.7524144385
 31
0.0
  0
LINE
  5
9C
100
AcDbEntity
  8
L1_130
  6
CONTINUOUS
 62
         7
100
AcDbLine
 10
1615.7786999334
 20
92.7524144385
 30
0.0
 11
1613.7786999334
 21
92.7524144385
 31
0.0
  0
LINE
  5
9D
100
AcDbEntity
  8
L1_130
  6
CONTINUOUS
 62
         7
100
AcDbLine
 10
1634.7786999334
 20
94.8297647077
 30
0.0
 11
1634.7786999334
 21
129.6750641694
 31
0.0
  0
DIMENSION
  5
A0
100
AcDbEntity
  8
L1_130
  6
CONTINUOUS
 62
         4
100
AcDbDimension
  2
*D4
 10
1613.7786999334
 20
150.5256920453
 30
0.0
 11
1618.3553036053
 21
154.5856920453
 31
0.0
  3
DIMSTYLE1
100
AcDbAlignedDimension
 13
1613.7786999334
 23
132.7524144385
 33
0.0
 14
1615.7786999334
 24
132.7524144385
 34
0.0
100
AcDbRotatedDimension
  0
DIMENSION
  5
B0
100
AcDbEntity
  8
L1_130
  6
CONTINUOUS
 62
         4
100
AcDbDimension
  2
*D5
 10
1678.6655460542
 20
132.7524144385
 30
0.0
 11
1674.6055460542
 21
99.3267556247
 31
0.0
  3
DIMSTYLE1
100
AcDbAlignedDimension
 13
1629.0466491258
 23
132.7524144385
 33
0.0
 14
1629.0466491258
 24
91.7524144385
 34
0.0
 50
90.0
100
AcDbRotatedDimension
  0
DIMENSION
  5
BE
100
AcDbEntity
  8
L1_130
  6
CONTINUOUS
 62
         4
100
AcDbDimension
  2
*D6
 10
1691.6065400285
 20
134.7524144385
 30
0.0
 11
1687.5465400285
 21
105.7887606761
 31
0.0
  3
DIMSTYLE1
100
AcDbAlignedDimension
 13
1580.7786999334
 23
134.7524144385
 33
0.0
 14
1580.7786999334
 24
89.7524144385
 34
0.0
 50
90.0
100
AcDbRotatedDimension
  0
DIMENSION
  5
CC
100
AcDbEntity
  8
L1_130
  6
CONTINUOUS
 62
         4
100
AcDbDimension
  2
*D7
 10
1666.4434961895
 20
131.7524144385
 30
0.0
 11
1662.3834961895
 21
100.2147505733
 31
0.0
  3
DIMSTYLE1
100
AcDbAlignedDimension
 13
1615.7786999334
 23
131.7524144385
 33
0.0
 14
1615.7786999334
 24
92.7524144385
 34
0.0
 50
90.0
100
AcDbRotatedDimension
  0
LINE
  5
D8
100
AcDbEntity
  8
L1_130
  6
CENTER
 62
         1
100
AcDbLine
 10
1605.183633753
 20
107.2524144385
 30
0.0
 11
1605.183633753
 21
117.1024144385
 31
0.0
  0
LINE
  5
D9
100
AcDbEntity
  8
L1_130
  6
CENTER
 62
         1
100
AcDbLine
 10
1590.1836999334
 20
107.2524144385
 30
0.0
 11
1590.1836999334
 21
117.1024144385
 31
0.0
  0
DIMENSION
  5
DC
100
AcDbEntity
  8
L1_130
  6
CONTINUOUS
 62
         4
100
AcDbDimension
  2
*D8
 10
1605.183633753
 20
71.1792462953
 30
0.0
 11
1607.6767421079
 21
75.2392462953
 31
0.0
  3
DIMSTYLE1
100
AcDbAlignedDimension
 13
1605.183633753
 23
107.2824144385
 33
0.0
 14
1634.7786999334
 24
94.8297647077
 34
0.0
100
AcDbRotatedDimension
  0
DIMENSION
  5
EA
100
AcDbEntity
  8
L1_130
  6
CONTINUOUS
 62
         4
100
AcDbDimension
  2
*D9
 10
1590.1836999334
 20
60.0753705052
 30
0.0
 11
1604.4689557685
 21
64.1353705052
 31
0.0
  3
DIMSTYLE1
100
AcDbAlignedDimension
 13
1590.1836999334
 23
107.2824144385
 33
0.0
 14
1634.7786999334
 24
94.8297647077
 34
0.0
100
AcDbRotatedDimension
  0
DIMENSION
  5
F8
100
AcDbEntity
  8
L1_130
  6
CONTINUOUS
 62
         4
100
AcDbDimension
  2
*D10
 10
1634.7786999334
 20
162.3235600723
 30
0.0
 11
1615.1247868333
 21
166.3835600723
 31
0.0
  3
DIMSTYLE1
100
AcDbAlignedDimension
 13
1634.7786999334
 23
129.6750641694
 33
0.0
 14
1613.7786999334
 24
132.7524144385
 34
0.0
100
AcDbRotatedDimension
  0
DIMENSION
  5
106
100
AcDbEntity
  8
L1_130
  6
CONTINUOUS
 62
         4
100
AcDbDimension
  2
*D11
 10
1634.7786999334
 20
172.7334436255
 30
0.0
 11
1599.8261135225
 21
176.7934436255
 31
0.0
  3
DIMSTYLE1
100
AcDbAlignedDimension
 13
1634.7786999334
 23
129.6750641694
 33
0.0
 14
1581.7786999334
 24
133.7524144385
 34
0.0
100
AcDbRotatedDimension
  0
LINE
  5
116
100
AcDbEntity
  8
L1_130
  6
CONTINUOUS
 62
         4
100
AcDbLine
 10
1584.2786999334
 20
91.7524144385
 30
0.0
 11
1584.2786999334
 21
132.7524144385
 31
0.0
  0
ARC
  5
117
100
AcDbEntity
  8
L1_130
  6
CONTINUOUS
 62
         7
100
AcDbCircle
 10
1581.2786999334
 20
134.2524144385
 30
0.0
 40
0.5
100
AcDbArc
 50
0.0
 51
90.0
  0
ARC
  5
118
100
AcDbEntity
  8
L1_130
  6
CONTINUOUS
 62
         7
100
AcDbCircle
 10
1581.2786999334
 20
90.2524144385
 30
0.0
 40
0.5
100
AcDbArc
 50
270.0
 51
360.0
  0
LINE
  5
119
100
AcDbEntity
  8
L1_130
  6
CONTINUOUS
 62
         7
100
AcDbLine
 10
1613.6786999334
 20
132.7524144385
 30
0.0
 11
1584.2786999334
 21
132.7524144385
 31
0.0
  0
LINE
  5
11A
100
AcDbEntity
  8
L1_130
  6
CONTINUOUS
 62
         7
100
AcDbLine
 10
1613.6786999334
 20
132.7524144385
 30
0.0
 11
1613.7786999334
 21
132.6524144385
 31
0.0
  0
LINE
  5
11B
100
AcDbEntity
  8
L1_130
  6
CONTINUOUS
 62
         7
100
AcDbLine
 10
1629.9126745296
 20
132.7524144385
 30
0.0
 11
1615.8786999334
 21
132.7524144385
 31
0.0
  0
LINE
  5
11C
100
AcDbEntity
  8
L1_130
  6
CONTINUOUS
 62
         7
100
AcDbLine
 10
1615.7786999334
 20
132.6524144385
 30
0.0
 11
1615.8786999334
 21
132.7524144385
 31
0.0
  0
LINE
  5
11D
100
AcDbEntity
  8
L1_130
  6
CONTINUOUS
 62
         7
100
AcDbLine
 10
1613.7786999334
 20
132.6524144385
 30
0.0
 11
1613.7786999334
 21
91.8524144385
 31
0.0
  0
LINE
  5
11E
100
AcDbEntity
  8
L1_130
  6
CONTINUOUS
 62
         7
100
AcDbLine
 10
1613.6786999334
 20
91.7524144385
 30
0.0
 11
1584.2786999334
 21
91.7524144385
 31
0.0
  0
LINE
  5
11F
100
AcDbEntity
  8
L1_130
  6
CONTINUOUS
 62
         7
100
AcDbLine
 10
1613.7786999334
 20
91.8524144385
 30
0.0
 11
1613.6786999334
 21
91.7524144385
 31
0.0
  0
LINE
  5
120
100
AcDbEntity
  8
L1_130
  6
CONTINUOUS
 62
         7
100
AcDbLine
 10
1615.7786999334
 20
132.6524144385
 30
0.0
 11
1615.7786999334
 21
91.8524144385
 31
0.0
  0
LINE
  5
121
100
AcDbEntity
  8
L1_130
  6
CONTINUOUS
 62
         7
100
AcDbLine
 10
1629.9126745296
 20
91.7524144385
 30
0.0
 11
1615.8786999334
 21
91.7524144385
 31
0.0
  0
LINE
  5
122
100
AcDbEntity
  8
L1_130
  6
CONTINUOUS
 62
         7
100
AcDbLine
 10
1615.7786999334
 20
91.8524144385
 30
0.0
 11
1615.8786999334
 21
91.7524144385
 31
0.0
  0
LINE
  5
123
100
AcDbEntity
  8
L1_130
  6
CENTER
 62
         1
100
AcDbLine
 10
1634.7786999334
 20
112.2524144385
 30
0.0
 11
1542.8786999334
 21
112.2524144385
 31
0.0
  0
LINE
  5
124
100
AcDbEntity
  8
L1_130
  6
CONTINUOUS
 62
         4
100
AcDbLine
 10
1630.4485729145
 20
91.8255483505
 30
0.0
 11
1630.4485729145
 21
132.6792805266
 31
0.0
  0
LINE
  5
125
100
AcDbEntity
  8
L1_130
  6
CONTINUOUS
 62
         7
100
AcDbLine
 10
1568.7786999334
 20
-129.2400166132
 30
0.0
 11
1553.777375068
 21
-129.2400166132
 31
0.0
  0
LINE
  5
126
100
AcDbEntity
  8
L1_130
  6
CONTINUOUS
 62
         7
100
AcDbLine
 10
1568.7786999334
 20
-124.2400166132
 30
0.0
 11
1553.777375068
 21
-124.2400166132
 31
0.0
  0
LINE
  5
127
100
AcDbEntity
  8
L1_130
  6
CONTINUOUS
 62
         7
100
AcDbLine
 10
1581.7786999334
 20
-105.3400166132
 30
0.0
 11
1581.7786999334
 21
-104.7400166132
 31
0.0
  0
ARC
  5
128
100
AcDbEntity
  8
L1_130
  6
CONTINUOUS
 62
         7
100
AcDbCircle
 10
1582.0786999334
 20
-106.0400166132
 30
0.0
 40
0.4
100
AcDbArc
 50
181.5109716561
 51
270.0
  0
LINE
  5
129
100
AcDbEntity
  8
L1_130
  6
CONTINUOUS
 62
         7
100
AcDbLine
 10
1581.6788390158
 20
-106.0505639627
 30
0.0
 11
1581.7786999334
 21
-105.3400166132
 31
0.0
  0
LINE
  5
12A
100
AcDbEntity
  8
L1_130
  6
CONTINUOUS
 62
         7
100
AcDbLine
 10
1584.9651916065
 20
-106.2400166132
 30
0.0
 11
1584.2786999334
 21
-106.2400166132
 31
0.0
  0
ARC
  5
12B
100
AcDbEntity
  8
L1_130
  6
CONTINUOUS
 62
         7
100
AcDbCircle
 10
1583.4796287728
 20
-106.0400166132
 30
0.0
 40
0.4
100
AcDbArc
 50
270.0
 51
285.0
  0
LINE
  5
12C
100
AcDbEntity
  8
L1_130
  6
CONTINUOUS
 62
         7
100
AcDbLine
 10
1583.5831563909
 20
-106.4263869437
 30
0.0
 11
1584.2786999334
 21
-106.2400166132
 31
0.0
  0
LINE
  5
12D
100
AcDbEntity
  8
L1_130
  6
CONTINUOUS
 62
         7
100
AcDbLine
 10
1583.4796287728
 20
-106.4400166132
 30
0.0
 11
1582.0786999334
 21
-106.4400166132
 31
0.0
  0
LINE
  5
12E
100
AcDbEntity
  8
L1_130
  6
CONTINUOUS
 62
         7
100
AcDbLine
 10
1581.7786999334
 20
-148.1400166132
 30
0.0
 11
1581.7786999334
 21
-148.7400166132
 31
0.0
  0
ARC
  5
12F
100
AcDbEntity
  8
L1_130
  6
CONTINUOUS
 62
         7
100
AcDbCircle
 10
1582.0786999334
 20
-147.4400166132
 30
0.0
 40
0.4
100
AcDbArc
 50
90.0
 51
178.4890283439
  0
LINE
  5
130
100
AcDbEntity
  8
L1_130
  6
CONTINUOUS
 62
         7
100
AcDbLine
 10
1581.6788390158
 20
-147.4294692637
 30
0.0
 11
1581.7786999334
 21
-148.1400166132
 31
0.0
  0
LINE
  5
131
100
AcDbEntity
  8
L1_130
  6
CONTINUOUS
 62
         7
100
AcDbLine
 10
1584.9151916065
 20
-147.2400166132
 30
0.0
 11
1584.2786999334
 21
-147.2400166132
 31
0.0
  0
ARC
  5
132
100
AcDbEntity
  8
L1_130
  6
CONTINUOUS
 62
         7
100
AcDbCircle
 10
1583.4796287728
 20
-147.4400166132
 30
0.0
 40
0.4
100
AcDbArc
 50
75.0
 51
90.0
  0
LINE
  5
133
100
AcDbEntity
  8
L1_130
  6
CONTINUOUS
 62
         7
100
AcDbLine
 10
1583.5831563909
 20
-147.0536462827
 30
0.0
 11
1584.2786999334
 21
-147.2400166132
 31
0.0
  0
LINE
  5
134
100
AcDbEntity
  8
L1_130
  6
CONTINUOUS
 62
         7
100
AcDbLine
 10
1583.4796287728
 20
-147.0400166132
 30
0.0
 11
1582.0786999334
 21
-147.0400166132
 31
0.0
  0
DIMENSION
  5
137
100
AcDbEntity
  8
L1_130
  6
CONTINUOUS
 62
         4
100
AcDbDimension
  2
*D12
 10
1634.7786999334
 20
-175.6383066988
 30
0.0
 11
1595.6214158512
 21
-171.5783066988
 31
0.0
  3
DIMSTYLE1
100
AcDbAlignedDimension
 13
1634.7786999334
 23
-144.1245465594
 33
0.0
 14
1571.2786999334
 24
-150.6803185475
 34
0.0
100
AcDbRotatedDimension
  0
LINE
  5
143
100
AcDbEntity
  8
L1_130
  6
CONTINUOUS
 62
         7
100
AcDbLine
 10
1570.2786999334
 20
-149.2400166132
 30
0.0
 11
1570.2786999334
 21
-143.2400166132
 31
0.0
  0
LINE
  5
144
100
AcDbEntity
  8
L1_130
  6
CONTINUOUS
 62
         7
100
AcDbLine
 10
1572.2786999334
 20
-149.2400166132
 30
0.0
 11
1572.2786999334
 21
-143.2400166132
 31
0.0
  0
LINE
  5
145
100
AcDbEntity
  8
L1_130
  6
CENTER
 62
         1
100
AcDbLine
 10
1571.2786999334
 20
-150.6803185475
 30
0.0
 11
1571.2786999334
 21
-142.0450647534
 31
0.0
  0
LINE
  5
146
100
AcDbEntity
  8
L1_130
  6
CONTINUOUS
 62
         7
100
AcDbLine
 10
1634.5286999334
 20
-144.8843541805
 30
0.0
 11
1630.9126745296
 21
-146.9720674208
 31
0.0
  0
ARC
  5
147
100
AcDbEntity
  8
L1_130
  6
CONTINUOUS
 62
         7
100
AcDbCircle
 10
1629.9126745296
 20
-145.2400166132
 30
0.0
 40
2.0
100
AcDbArc
 50
269.9999999999
 51
300.0
  0
ARC
  5
148
100
AcDbEntity
  8
L1_130
  6
CONTINUOUS
 62
         7
100
AcDbCircle
 10
1629.9126745296
 20
-108.2400166132
 30
0.0
 40
2.0
100
AcDbArc
 50
60.0
 51
90.0000000001
  0
LINE
  5
149
100
AcDbEntity
  8
L1_130
  6
CONTINUOUS
 62
         7
100
AcDbLine
 10
1634.5286999334
 20
-108.5956790459
 30
0.0
 11
1630.9126745296
 21
-106.5079658056
 31
0.0
  0
LINE
  5
14A
100
AcDbEntity
  8
L1_130
  6
CONTINUOUS
 62
         7
100
AcDbLine
 10
1581.2786999334
 20
-149.2400166132
 30
0.0
 11
1560.8306999334
 21
-149.2400166132
 31
0.0
  0
LINE
  5
14B
100
AcDbEntity
  8
L1_130
  6
CONTINUOUS
 62
         7
100
AcDbLine
 10
1581.2786999334
 20
-104.2400166132
 30
0.0
 11
1560.8306999334
 21
-104.2400166132
 31
0.0
  0
LINE
  5
14C
100
AcDbEntity
  8
L1_130
  6
CONTINUOUS
 62
         7
100
AcDbLine
 10
1573.7786999334
 20
-143.2400166132
 30
0.0
 11
1568.7786999334
 21
-143.2400166132
 31
0.0
  0
LINE
  5
14D
100
AcDbEntity
  8
L1_130
  6
CONTINUOUS
 62
         7
100
AcDbLine
 10
1573.7786999334
 20
-110.2400166132
 30
0.0
 11
1568.7786999334
 21
-110.2400166132
 31
0.0
  0
LINE
  5
14E
100
AcDbEntity
  8
L1_130
  6
CONTINUOUS
 62
         7
100
AcDbLine
 10
1573.7786999334
 20
-143.2400166132
 30
0.0
 11
1573.7786999334
 21
-110.2400166132
 31
0.0
  0
LINE
  5
14F
100
AcDbEntity
  8
L1_130
  6
CONTINUOUS
 62
         7
100
AcDbLine
 10
1568.7786999334
 20
-143.2400166132
 30
0.0
 11
1568.7786999334
 21
-110.2400166132
 31
0.0
  0
LINE
  5
150
100
AcDbEntity
  8
L1_130
  6
CONTINUOUS
 62
         4
100
AcDbLine
 10
1568.7786999334
 20
-123.7400166132
 30
0.0
 11
1556.7786999334
 21
-123.7400166132
 31
0.0
  0
LINE
  5
151
100
AcDbEntity
  8
L1_130
  6
CONTINUOUS
 62
         4
100
AcDbLine
 10
1568.7786999334
 20
-129.7400166132
 30
0.0
 11
1556.7786999334
 21
-129.7400166132
 31
0.0
  0
LINE
  5
152
100
AcDbEntity
  8
L1_130
  6
CONTINUOUS
 62
         4
100
AcDbLine
 10
1556.7786999334
 20
-129.7400166132
 30
0.0
 11
1556.7786999334
 21
-123.7400166132
 31
0.0
  0
LINE
  5
153
100
AcDbEntity
  8
L1_130
  6
CONTINUOUS
 62
         7
100
AcDbLine
 10
1616.7786999334
 20
-107.2400166132
 30
0.0
 11
1614.7786999334
 21
-107.2400166132
 31
0.0
  0
LINE
  5
154
100
AcDbEntity
  8
L1_130
  6
CONTINUOUS
 62
         7
100
AcDbLine
 10
1616.7786999334
 20
-146.2400166132
 30
0.0
 11
1614.7786999334
 21
-146.2400166132
 31
0.0
  0
LINE
  5
155
100
AcDbEntity
  8
L1_130
  6
CONTINUOUS
 62
         7
100
AcDbLine
 10
1614.7786999334
 20
-144.2400166132
 30
0.0
 11
1609.7786999334
 21
-144.2400166132
 31
0.0
  0
LINE
  5
156
100
AcDbEntity
  8
L1_130
  6
CONTINUOUS
 62
         7
100
AcDbLine
 10
1614.7786999334
 20
-109.2400166132
 30
0.0
 11
1609.7786999334
 21
-109.2400166132
 31
0.0
  0
LINE
  5
157
100
AcDbEntity
  8
L1_130
  6
CONTINUOUS
 62
         7
100
AcDbLine
 10
1608.7786999334
 20
-142.7400166132
 30
0.0
 11
1573.7786999334
 21
-142.7400166132
 31
0.0
  0
LINE
  5
158
100
AcDbEntity
  8
L1_130
  6
CONTINUOUS
 62
         7
100
AcDbLine
 10
1608.7786999334
 20
-110.7400166132
 30
0.0
 11
1573.7786999334
 21
-110.7400166132
 31
0.0
  0
LINE
  5
159
100
AcDbEntity
  8
L1_130
  6
CONTINUOUS
 62
         7
100
AcDbLine
 10
1614.7786999334
 20
-144.2400166132
 30
0.0
 11
1614.7786999334
 21
-109.2400166132
 31
0.0
  0
LINE
  5
15A
100
AcDbEntity
  8
L1_130
  6
CONTINUOUS
 62
         7
100
AcDbLine
 10
1609.7786999334
 20
-144.2400166132
 30
0.0
 11
1609.7786999334
 21
-141.3055442841
 31
0.0
  0
LINE
  5
15B
100
AcDbEntity
  8
L1_130
  6
CONTINUOUS
 62
         7
100
AcDbLine
 10
1634.7786999334
 20
-144.4513414786
 30
0.0
 11
1634.7786999334
 21
-109.0286917478
 31
0.0
  0
LINE
  5
15C
100
AcDbEntity
  8
L1_130
  6
CONTINUOUS
 62
         7
100
AcDbLine
 10
1634.0786999334
 20
-143.7400166132
 30
0.0
 11
1614.7786999334
 21
-143.7400166132
 31
0.0
  0
LINE
  5
15D
100
AcDbEntity
  8
L1_130
  6
CONTINUOUS
 62
         7
100
AcDbLine
 10
1634.0786999334
 20
-109.7400166132
 30
0.0
 11
1614.7786999334
 21
-109.7400166132
 31
0.0
  0
DIMENSION
  5
160
100
AcDbEntity
  8
L1_130
  6
CONTINUOUS
 62
         4
100
AcDbDimension
  2
*D13
 10
1670.1788439311
 20
-109.7400166132
 30
0.0
 11
1667.5538439311
 21
-136.1892486102
 31
0.0
  3
DIMSTYLE1
100
AcDbAlignedDimension
 13
1634.5786999334
 23
-109.7400166132
 33
0.0
 14
1634.5786999334
 24
-143.7400166132
 34
0.0
 50
90.0
100
AcDbRotatedDimension
  0
DIMENSION
  5
16E
100
AcDbEntity
  8
L1_130
  6
CONTINUOUS
 62
         4
100
AcDbDimension
  2
*D14
 10
1656.8264894458
 20
-110.7400166132
 30
0.0
 11
1654.2014894458
 21
-134.5458819043
 31
0.0
  3
DIMSTYLE1
100
AcDbAlignedDimension
 13
1609.7786999334
 23
-110.7400166132
 33
0.0
 14
1609.7786999334
 24
-142.7400166132
 34
0.0
 50
90.0
100
AcDbRotatedDimension
  0
DIMENSION
  5
17C
100
AcDbEntity
  8
L1_130
  6
CONTINUOUS
 62
         4
100
AcDbDimension
  2
*D15
 10
1634.7786999334
 20
-166.5179740266
 30
0.0
 11
1613.8726926489
 21
-162.4579740266
 31
0.0
  3
DIMSTYLE1
100
AcDbAlignedDimension
 13
1634.7786999334
 23
-144.1245465594
 33
0.0
 14
1609.7786999334
 24
-144.2400166132
 34
0.0
100
AcDbRotatedDimension
  0
LINE
  5
188
100
AcDbEntity
  8
L1_130
  6
CONTINUOUS
 62
         7
100
AcDbLine
 10
1553.777375068
 20
-129.2400166132
 30
0.0
 11
1552.333999395
 21
-126.7400166132
 31
0.0
  0
LINE
  5
189
100
AcDbEntity
  8
L1_130
  6
CONTINUOUS
 62
         7
100
AcDbLine
 10
1553.777375068
 20
-124.2400166132
 30
0.0
 11
1552.333999395
 21
-126.7400166132
 31
0.0
  0
DIMENSION
  5
18C
100
AcDbEntity
  8
L1_130
  6
CONTINUOUS
 62
         4
100
AcDbDimension
  2
*D16
 10
1634.7786999334
 20
-189.1363990537
 30
0.0
 11
1591.8866106871
 21
-185.0763990537
 31
0.0
  3
DIMSTYLE1
100
AcDbAlignedDimension
 13
1634.7786999334
 23
-144.1245465594
 33
0.0
 14
1568.7786999334
 24
-143.2400166132
 34
0.0
100
AcDbRotatedDimension
  0
ARC
  5
198
100
AcDbEntity
  8
L1_130
  6
CONTINUOUS
 62
         7
100
AcDbCircle
 10
1581.2786999334
 20
-104.7400166132
 30
0.0
 40
0.5
100
AcDbArc
 50
0.0
 51
90.0
  0
ARC
  5
199
100
AcDbEntity
  8
L1_130
  6
CONTINUOUS
 62
         7
100
AcDbCircle
 10
1581.2786999334
 20
-148.7400166132
 30
0.0
 40
0.5
100
AcDbArc
 50
270.0
 51
360.0
  0
LINE
  5
19A
100
AcDbEntity
  8
L1_130
  6
CENTER
 62
         1
100
AcDbLine
 10
1605.183633753
 20
-114.1508219105
 30
0.0
 11
1605.183633753
 21
-101.0377531381
 31
0.0
  0
LINE
  5
19B
100
AcDbEntity
  8
L1_130
  6
CENTER
 62
         1
100
AcDbLine
 10
1590.1836999334
 20
-114.1508219105
 30
0.0
 11
1590.1836999334
 21
-101.0377531381
 31
0.0
  0
ARC
  5
19C
100
AcDbEntity
  8
L1_130
  6
CONTINUOUS
 62
         7
100
AcDbCircle
 10
1634.2786999334
 20
-109.0286917478
 30
0.0
 40
0.5
100
AcDbArc
 50
0.0
 51
60.0
  0
ARC
  5
19D
100
AcDbEntity
  8
L1_130
  6
CONTINUOUS
 62
         7
100
AcDbCircle
 10
1634.2786999334
 20
-144.4513414786
 30
0.0
 40
0.5
100
AcDbArc
 50
300.0
 51
360.0
  0
ARC
  5
19E
100
AcDbEntity
  8
L1_130
  6
CONTINUOUS
 62
         7
100
AcDbCircle
 10
1608.7786999334
 20
-143.7400166132
 30
0.0
 40
1.0
100
AcDbArc
 50
0.0
 51
90.0
  0
ARC
  5
19F
100
AcDbEntity
  8
L1_130
  6
CONTINUOUS
 62
         7
100
AcDbCircle
 10
1608.7786999334
 20
-109.7400166132
 30
0.0
 40
1.0
100
AcDbArc
 50
270.0
 51
360.0
  0
LINE
  5
1A0
100
AcDbEntity
  8
L1_130
  6
CONTINUOUS
 62
         4
100
AcDbLine
 10
1608.7786999334
 20
-142.7400166132
 30
0.0
 11
1608.7786999334
 21
-141.8426384728
 31
0.0
  0
LINE
  5
1A1
100
AcDbEntity
  8
L1_130
  6
CONTINUOUS
 62
         7
100
AcDbLine
 10
1614.6786999334
 20
-106.2400166132
 30
0.0
 11
1584.2786999334
 21
-106.2400166132
 31
0.0
  0
LINE
  5
1A2
100
AcDbEntity
  8
L1_130
  6
CONTINUOUS
 62
         7
100
AcDbLine
 10
1614.7786999334
 20
-107.2400166132
 30
0.0
 11
1614.7786999334
 21
-106.3400166132
 31
0.0
  0
LINE
  5
1A3
100
AcDbEntity
  8
L1_130
  6
CONTINUOUS
 62
         7
100
AcDbLine
 10
1614.6786999334
 20
-106.2400166132
 30
0.0
 11
1614.7786999334
 21
-106.3400166132
 31
0.0
  0
LINE
  5
1A4
100
AcDbEntity
  8
L1_130
  6
CONTINUOUS
 62
         7
100
AcDbLine
 10
1616.7786999334
 20
-107.2400166132
 30
0.0
 11
1616.7786999334
 21
-106.3400166132
 31
0.0
  0
LINE
  5
1A5
100
AcDbEntity
  8
L1_130
  6
CONTINUOUS
 62
         7
100
AcDbLine
 10
1629.9126745296
 20
-106.2400166132
 30
0.0
 11
1616.8786999334
 21
-106.2400166132
 31
0.0
  0
LINE
  5
1A6
100
AcDbEntity
  8
L1_130
  6
CONTINUOUS
 62
         7
100
AcDbLine
 10
1616.7786999334
 20
-106.3400166132
 30
0.0
 11
1616.8786999334
 21
-106.2400166132
 31
0.0
  0
LINE
  5
1A7
100
AcDbEntity
  8
L1_130
  6
CONTINUOUS
 62
         7
100
AcDbLine
 10
1614.7786999334
 20
-146.2400166132
 30
0.0
 11
1614.7786999334
 21
-147.1400166132
 31
0.0
  0
LINE
  5
1A8
100
AcDbEntity
  8
L1_130
  6
CONTINUOUS
 62
         7
100
AcDbLine
 10
1614.6786999334
 20
-147.2400166132
 30
0.0
 11
1584.2786999334
 21
-147.2400166132
 31
0.0
  0
LINE
  5
1A9
100
AcDbEntity
  8
L1_130
  6
CONTINUOUS
 62
         7
100
AcDbLine
 10
1614.7786999334
 20
-147.1400166132
 30
0.0
 11
1614.6786999334
 21
-147.2400166132
 31
0.0
  0
LINE
  5
1AA
100
AcDbEntity
  8
L1_130
  6
CONTINUOUS
 62
         7
100
AcDbLine
 10
1616.7786999334
 20
-146.2400166132
 30
0.0
 11
1616.7786999334
 21
-147.1400166132
 31
0.0
  0
LINE
  5
1AB
100
AcDbEntity
  8
L1_130
  6
CONTINUOUS
 62
         7
100
AcDbLine
 10
1629.9126745296
 20
-147.2400166132
 30
0.0
 11
1616.8786999334
 21
-147.2400166132
 31
0.0
  0
LINE
  5
1AC
100
AcDbEntity
  8
L1_130
  6
CONTINUOUS
 62
         7
100
AcDbLine
 10
1616.7786999334
 20
-147.1400166132
 30
0.0
 11
1616.8786999334
 21
-147.2400166132
 31
0.0
  0
LINE
  5
1AD
100
AcDbEntity
  8
L1_130
  6
CENTER
 62
         1
100
AcDbLine
 10
1634.7786999334
 20
-126.7400166132
 30
0.0
 11
1542.8786999334
 21
-126.7400166132
 31
0.0
  0
LINE
  5
1AE
100
AcDbEntity
  8
L1_130
  6
CONTINUOUS
 62
         4
100
AcDbLine
 10
1553.777375068
 20
-129.2400166132
 30
0.0
 11
1553.777375068
 21
-124.2400166132
 31
0.0
  0
POLYLINE
  5
1B0
100
AcDbEntity
  8
L1_130
  6
CONTINUOUS
 62
         7
100
AcDb2dPolyline
 66
         1
 10
0.0
 20
0.0
 30
0.0
 70
         2
  0
VERTEX
  5
1B2
100
AcDbEntity
  8
L1_130
  6
CONTINUOUS
 62
         7
100
AcDbVertex
100
AcDb2dVertex
 10
1589.9386999334
 20
-137.5774751442
 30
0.0
 70
         1
  0
VERTEX
  5
1B4
100
AcDbEntity
  8
L1_130
  6
CONTINUOUS
 62
         7
100
AcDbVertex
100
AcDb2dVertex
 10
1589.2023863837
 20
-137.6138898937
 30
0.0
 70
         1
  0
VERTEX
  5
1B6
100
AcDbEntity
  8
L1_130
  6
CONTINUOUS
 62
         7
100
AcDbVertex
100
AcDb2dVertex
 10
1588.8451858108
 20
-137.6583908497
 30
0.0
 70
         1
  0
VERTEX
  5
1B8
100
AcDbEntity
  8
L1_130
  6
CONTINUOUS
 62
         7
100
AcDbVertex
100
AcDb2dVertex
 10
1588.5005575324
 20
-137.7188653238
 30
0.0
 70
         1
  0
VERTEX
  5
1BA
100
AcDbEntity
  8
L1_130
  6
CONTINUOUS
 62
         7
100
AcDbVertex
100
AcDb2dVertex
 10
1588.1717938404
 20
-137.7936399486
 30
0.0
 70
         1
  0
VERTEX
  5
1BC
100
AcDbEntity
  8
L1_130
  6
CONTINUOUS
 62
         7
100
AcDbVertex
100
AcDb2dVertex
 10
1587.757251612
 20
-137.913920622
 30
0.0
 70
         1
  0
VERTEX
  5
1BE
100
AcDbEntity
  8
L1_130
  6
CONTINUOUS
 62
         7
100
AcDbVertex
100
AcDb2dVertex
 10
1587.3808450101
 20
-138.0514807153
 30
0.0
 70
         1
  0
VERTEX
  5
1C0
100
AcDbEntity
  8
L1_130
  6
CONTINUOUS
 62
         7
100
AcDbVertex
100
AcDb2dVertex
 10
1587.0447209648
 20
-138.2009986158
 30
0.0
 70
         1
  0
VERTEX
  5
1C2
100
AcDbEntity
  8
L1_130
  6
CONTINUOUS
 62
         7
100
AcDbVertex
100
AcDb2dVertex
 10
1586.7490112831
 20
-138.3574755479
 30
0.0
 70
         1
  0
VERTEX
  5
1C4
100
AcDbEntity
  8
L1_130
  6
CONTINUOUS
 62
         7
100
AcDbVertex
100
AcDb2dVertex
 10
1586.4922504787
 20
-138.5165076929
 30
0.0
 70
         1
  0
VERTEX
  5
1C6
100
AcDbEntity
  8
L1_130
  6
CONTINUOUS
 62
         7
100
AcDbVertex
100
AcDb2dVertex
 10
1586.2011043522
 20
-138.7301630942
 30
0.0
 70
         1
  0
VERTEX
  5
1C8
100
AcDbEntity
  8
L1_130
  6
CONTINUOUS
 62
         7
100
AcDbVertex
100
AcDb2dVertex
 10
1585.9685378324
 20
-138.9349938305
 30
0.0
 70
         1
  0
VERTEX
  5
1CA
100
AcDbEntity
  8
L1_130
  6
CONTINUOUS
 62
         7
100
AcDbVertex
100
AcDb2dVertex
 10
1585.7853669322
 20
-139.1265445786
 30
0.0
 70
         1
  0
VERTEX
  5
1CC
100
AcDbEntity
  8
L1_130
  6
CONTINUOUS
 62
         7
100
AcDbVertex
100
AcDb2dVertex
 10
1585.5987736817
 20
-139.3628429873
 30
0.0
 70
         1
  0
VERTEX
  5
1CE
100
AcDbEntity
  8
L1_130
  6
CONTINUOUS
 62
         7
100
AcDbVertex
100
AcDb2dVertex
 10
1585.4681999743
 20
-139.5678355409
 30
0.0
 70
         1
  0
VERTEX
  5
1D0
100
AcDbEntity
  8
L1_130
  6
CONTINUOUS
 62
         7
100
AcDbVertex
100
AcDb2dVertex
 10
1585.3512919798
 20
-139.8019827782
 30
0.0
 70
         1
  0
VERTEX
  5
1D2
100
AcDbEntity
  8
L1_130
  6
CONTINUOUS
 62
         7
100
AcDbVertex
100
AcDb2dVertex
 10
1585.2627579323
 20
-140.0482021301
 30
0.0
 70
         1
  0
VERTEX
  5
1D4
100
AcDbEntity
  8
L1_130
  6
CONTINUOUS
 62
         7
100
AcDbVertex
100
AcDb2dVertex
 10
1585.2102704295
 20
-140.2777188743
 30
0.0
 70
         1
  0
VERTEX
  5
1D6
100
AcDbEntity
  8
L1_130
  6
CONTINUOUS
 62
         7
100
AcDbVertex
100
AcDb2dVertex
 10
1585.1853649506
 20
-140.5165376899
 30
0.0
 70
         1
  0
VERTEX
  5
1D8
100
AcDbEntity
  8
L1_130
  6
CONTINUOUS
 62
         7
100
AcDbVertex
100
AcDb2dVertex
 10
1585.1836999334
 20
-140.5964229564
 30
0.0
 70
         1
  0
SEQEND
  5
1DA
100
AcDbEntity
  8
L1_130
  6
CONTINUOUS
 62
         7
  0
POLYLINE
  5
1DC
100
AcDbEntity
  8
L1_130
  6
CONTINUOUS
 62
         7
100
AcDb2dPolyline
 66
         1
 10
0.0
 20
0.0
 30
0.0
 70
         2
  0
VERTEX
  5
1DE
100
AcDbEntity
  8
L1_130
  6
CONTINUOUS
 62
         7
100
AcDbVertex
100
AcDb2dVertex
 10
1585.1836999334
 20
-140.5964229564
 30
0.0
 70
         1
  0
VERTEX
  5
1E0
100
AcDbEntity
  8
L1_130
  6
CONTINUOUS
 62
         7
100
AcDbVertex
100
AcDb2dVertex
 10
1585.24105506
 20
-140.8683483023
 30
0.0
 70
         1
  0
VERTEX
  5
1E2
100
AcDbEntity
  8
L1_130
  6
CONTINUOUS
 62
         7
100
AcDbVertex
100
AcDb2dVertex
 10
1585.3111463828
 20
-141.0002647792
 30
0.0
 70
         1
  0
VERTEX
  5
1E4
100
AcDbEntity
  8
L1_130
  6
CONTINUOUS
 62
         7
100
AcDbVertex
100
AcDb2dVertex
 10
1585.4063968285
 20
-141.1275382266
 30
0.0
 70
         1
  0
VERTEX
  5
1E6
100
AcDbEntity
  8
L1_130
  6
CONTINUOUS
 62
         7
100
AcDbVertex
100
AcDb2dVertex
 10
1585.524170756
 20
-141.2489527798
 30
0.0
 70
         1
  0
VERTEX
  5
1E8
100
AcDbEntity
  8
L1_130
  6
CONTINUOUS
 62
         7
100
AcDbVertex
100
AcDb2dVertex
 10
1585.6613903877
 20
-141.3635363845
 30
0.0
 70
         1
  0
VERTEX
  5
1EA
100
AcDbEntity
  8
L1_130
  6
CONTINUOUS
 62
         7
100
AcDbVertex
100
AcDb2dVertex
 10
1585.8147160619
 20
-141.4705785897
 30
0.0
 70
         1
  0
VERTEX
  5
1EC
100
AcDbEntity
  8
L1_130
  6
CONTINUOUS
 62
         7
100
AcDbVertex
100
AcDb2dVertex
 10
1585.9807203315
 20
-141.5696293739
 30
0.0
 70
         1
  0
VERTEX
  5
1EE
100
AcDbEntity
  8
L1_130
  6
CONTINUOUS
 62
         7
100
AcDbVertex
100
AcDb2dVertex
 10
1586.156041825
 20
-141.6604821181
 30
0.0
 70
         1
  0
VERTEX
  5
1F0
100
AcDbEntity
  8
L1_130
  6
CONTINUOUS
 62
         7
100
AcDbVertex
100
AcDb2dVertex
 10
1586.402201244
 20
-141.7702832584
 30
0.0
 70
         1
  0
VERTEX
  5
1F2
100
AcDbEntity
  8
L1_130
  6
CONTINUOUS
 62
         7
100
AcDbVertex
100
AcDb2dVertex
 10
1586.6526428065
 20
-141.8656693094
 30
0.0
 70
         1
  0
VERTEX
  5
1F4
100
AcDbEntity
  8
L1_130
  6
CONTINUOUS
 62
         7
100
AcDbVertex
100
AcDb2dVertex
 10
1586.9015490486
 20
-141.9475870068
 30
0.0
 70
         1
  0
VERTEX
  5
1F6
100
AcDbEntity
  8
L1_130
  6
CONTINUOUS
 62
         7
100
AcDbVertex
100
AcDb2dVertex
 10
1587.2291331482
 20
-142.0394745315
 30
0.0
 70
         1
  0
VERTEX
  5
1F8
100
AcDbEntity
  8
L1_130
  6
CONTINUOUS
 62
         7
100
AcDbVertex
100
AcDb2dVertex
 10
1587.5374995233
 20
-142.1121216835
 30
0.0
 70
         1
  0
VERTEX
  5
1FA
100
AcDbEntity
  8
L1_130
  6
CONTINUOUS
 62
         7
100
AcDbVertex
100
AcDb2dVertex
 10
1587.920063239
 20
-142.186377565
 30
0.0
 70
         1
  0
VERTEX
  5
1FC
100
AcDbEntity
  8
L1_130
  6
CONTINUOUS
 62
         7
100
AcDbVertex
100
AcDb2dVertex
 10
1588.3680234035
 20
-142.2539055495
 30
0.0
 70
         1
  0
VERTEX
  5
1FE
100
AcDbEntity
  8
L1_130
  6
CONTINUOUS
 62
         7
100
AcDbVertex
100
AcDb2dVertex
 10
1588.8486991349
 20
-142.3057144321
 30
0.0
 70
         1
  0
VERTEX
  5
200
100
AcDbEntity
  8
L1_130
  6
CONTINUOUS
 62
         7
100
AcDbVertex
100
AcDb2dVertex
 10
1589.4566347938
 20
-142.3434274464
 30
0.0
 70
         1
  0
VERTEX
  5
202
100
AcDbEntity
  8
L1_130
  6
CONTINUOUS
 62
         7
100
AcDbVertex
100
AcDb2dVertex
 10
1589.9386999334
 20
-142.3524751442
 30
0.0
 70
         1
  0
SEQEND
  5
204
100
AcDbEntity
  8
L1_130
  6
CONTINUOUS
 62
         7
  0
LINE
  5
205
100
AcDbEntity
  8
L1_130
  6
CONTINUOUS
 62
         7
100
AcDbLine
 10
1605.4286375763
 20
-142.3524752615
 30
0.0
 11
1589.9386999203
 21
-142.3524751442
 31
0.0
  0
LINE
  5
206
100
AcDbEntity
  8
L1_130
  6
CONTINUOUS
 62
         7
100
AcDbLine
 10
1605.428633753
 20
-137.5774752615
 30
0.0
 11
1589.9386999334
 21
-137.5774751442
 31
0.0
  0
POLYLINE
  5
208
100
AcDbEntity
  8
L1_130
  6
CONTINUOUS
 62
         7
100
AcDb2dPolyline
 66
         1
 10
0.0
 20
0.0
 30
0.0
 70
         2
  0
VERTEX
  5
20A
100
AcDbEntity
  8
L1_130
  6
CONTINUOUS
 62
         7
100
AcDbVertex
100
AcDb2dVertex
 10
1610.183633753
 20
-140.5964230738
 30
0.0
 70
         1
  0
VERTEX
  5
20C
100
AcDbEntity
  8
L1_130
  6
CONTINUOUS
 62
         7
100
AcDbVertex
100
AcDb2dVertex
 10
1610.1190549215
 20
-140.1005610606
 30
0.0
 70
         1
  0
VERTEX
  5
20E
100
AcDbEntity
  8
L1_130
  6
CONTINUOUS
 62
         7
100
AcDbVertex
100
AcDb2dVertex
 10
1610.045445623
 20
-139.8738991442
 30
0.0
 70
         1
  0
VERTEX
  5
210
100
AcDbEntity
  8
L1_130
  6
CONTINUOUS
 62
         7
100
AcDbVertex
100
AcDb2dVertex
 10
1609.9504731506
 20
-139.6626686171
 30
0.0
 70
         1
  0
VERTEX
  5
212
100
AcDbEntity
  8
L1_130
  6
CONTINUOUS
 62
         7
100
AcDbVertex
100
AcDb2dVertex
 10
1609.8384395536
 20
-139.4671513279
 30
0.0
 70
         1
  0
VERTEX
  5
214
100
AcDbEntity
  8
L1_130
  6
CONTINUOUS
 62
         7
100
AcDbVertex
100
AcDb2dVertex
 10
1609.6678943784
 20
-139.2289998142
 30
0.0
 70
         1
  0
VERTEX
  5
216
100
AcDbEntity
  8
L1_130
  6
CONTINUOUS
 62
         7
100
AcDbVertex
100
AcDb2dVertex
 10
1609.4817442118
 20
-139.0177912775
 30
0.0
 70
         1
  0
VERTEX
  5
218
100
AcDbEntity
  8
L1_130
  6
CONTINUOUS
 62
         7
100
AcDbVertex
100
AcDb2dVertex
 10
1609.2866822704
 20
-138.8317347704
 30
0.0
 70
         1
  0
VERTEX
  5
21A
100
AcDbEntity
  8
L1_130
  6
CONTINUOUS
 62
         7
100
AcDbVertex
100
AcDb2dVertex
 10
1609.0190562561
 20
-138.617114775
 30
0.0
 70
         1
  0
VERTEX
  5
21C
100
AcDbEntity
  8
L1_130
  6
CONTINUOUS
 62
         7
100
AcDbVertex
100
AcDb2dVertex
 10
1608.7541787599
 20
-138.4386257305
 30
0.0
 70
         1
  0
VERTEX
  5
21E
100
AcDbEntity
  8
L1_130
  6
CONTINUOUS
 62
         7
100
AcDbVertex
100
AcDb2dVertex
 10
1608.4112573936
 20
-138.2452377647
 30
0.0
 70
         1
  0
VERTEX
  5
220
100
AcDbEntity
  8
L1_130
  6
CONTINUOUS
 62
         7
100
AcDbVertex
100
AcDb2dVertex
 10
1608.0931831241
 20
-138.0959982241
 30
0.0
 70
         1
  0
VERTEX
  5
222
100
AcDbEntity
  8
L1_130
  6
CONTINUOUS
 62
         7
100
AcDbVertex
100
AcDb2dVertex
 10
1607.7068236633
 20
-137.9465345118
 30
0.0
 70
         1
  0
VERTEX
  5
224
100
AcDbEntity
  8
L1_130
  6
CONTINUOUS
 62
         7
100
AcDbVertex
100
AcDb2dVertex
 10
1607.3730954049
 20
-137.8414345459
 30
0.0
 70
         1
  0
VERTEX
  5
226
100
AcDbEntity
  8
L1_130
  6
CONTINUOUS
 62
         7
100
AcDbVertex
100
AcDb2dVertex
 10
1606.9939466403
 20
-137.745743424
 30
0.0
 70
         1
  0
VERTEX
  5
228
100
AcDbEntity
  8
L1_130
  6
CONTINUOUS
 62
         7
100
AcDbVertex
100
AcDb2dVertex
 10
1606.5913574939
 20
-137.6691226755
 30
0.0
 70
         1
  0
VERTEX
  5
22A
100
AcDbEntity
  8
L1_130
  6
CONTINUOUS
 62
         7
100
AcDbVertex
100
AcDb2dVertex
 10
1606.2000660558
 20
-137.6174703396
 30
0.0
 70
         1
  0
VERTEX
  5
22C
100
AcDbEntity
  8
L1_130
  6
CONTINUOUS
 62
         7
100
AcDbVertex
100
AcDb2dVertex
 10
1605.8617384483
 20
-137.5900244004
 30
0.0
 70
         1
  0
VERTEX
  5
22E
100
AcDbEntity
  8
L1_130
  6
CONTINUOUS
 62
         7
100
AcDbVertex
100
AcDb2dVertex
 10
1605.5335318182
 20
-137.5782099655
 30
0.0
 70
         1
  0
VERTEX
  5
230
100
AcDbEntity
  8
L1_130
  6
CONTINUOUS
 62
         7
100
AcDbVertex
100
AcDb2dVertex
 10
1605.428633753
 20
-137.5774752615
 30
0.0
 70
         1
  0
SEQEND
  5
232
100
AcDbEntity
  8
L1_130
  6
CONTINUOUS
 62
         7
  0
POLYLINE
  5
234
100
AcDbEntity
  8
L1_130
  6
CONTINUOUS
 62
         7
100
AcDb2dPolyline
 66
         1
 10
0.0
 20
0.0
 30
0.0
 70
         2
  0
VERTEX
  5
236
100
AcDbEntity
  8
L1_130
  6
CONTINUOUS
 62
         7
100
AcDbVertex
100
AcDb2dVertex
 10
1605.428633753
 20
-142.3524752615
 30
0.0
 70
         1
  0
VERTEX
  5
238
100
AcDbEntity
  8
L1_130
  6
CONTINUOUS
 62
         7
100
AcDbVertex
100
AcDb2dVertex
 10
1606.4572353378
 20
-142.3108963673
 30
0.0
 70
         1
  0
VERTEX
  5
23A
100
AcDbEntity
  8
L1_130
  6
CONTINUOUS
 62
         7
100
AcDbVertex
100
AcDb2dVertex
 10
1606.9087769289
 20
-142.2652306825
 30
0.0
 70
         1
  0
VERTEX
  5
23C
100
AcDbEntity
  8
L1_130
  6
CONTINUOUS
 62
         7
100
AcDbVertex
100
AcDb2dVertex
 10
1607.3157413045
 20
-142.2082606614
 30
0.0
 70
         1
  0
VERTEX
  5
23E
100
AcDbEntity
  8
L1_130
  6
CONTINUOUS
 62
         7
100
AcDbVertex
100
AcDb2dVertex
 10
1607.678835501
 20
-142.1433991472
 30
0.0
 70
         1
  0
VERTEX
  5
240
100
AcDbEntity
  8
L1_130
  6
CONTINUOUS
 62
         7
100
AcDbVertex
100
AcDb2dVertex
 10
1608.0001951837
 20
-142.0735148619
 30
0.0
 70
         1
  0
VERTEX
  5
242
100
AcDbEntity
  8
L1_130
  6
CONTINUOUS
 62
         7
100
AcDbVertex
100
AcDb2dVertex
 10
1608.2828378519
 20
-142.0009312029
 30
0.0
 70
         1
  0
VERTEX
  5
244
100
AcDbEntity
  8
L1_130
  6
CONTINUOUS
 62
         7
100
AcDbVertex
100
AcDb2dVertex
 10
1608.6084299646
 20
-141.9020622105
 30
0.0
 70
         1
  0
VERTEX
  5
246
100
AcDbEntity
  8
L1_130
  6
CONTINUOUS
 62
         7
100
AcDbVertex
100
AcDb2dVertex
 10
1608.878917773
 20
-141.8047701546
 30
0.0
 70
         1
  0
VERTEX
  5
248
100
AcDbEntity
  8
L1_130
  6
CONTINUOUS
 62
         7
100
AcDbVertex
100
AcDb2dVertex
 10
1609.102739231
 20
-141.7111520732
 30
0.0
 70
         1
  0
VERTEX
  5
24A
100
AcDbEntity
  8
L1_130
  6
CONTINUOUS
 62
         7
100
AcDbVertex
100
AcDb2dVertex
 10
1609.2875276159
 20
-141.6224680095
 30
0.0
 70
         1
  0
VERTEX
  5
24C
100
AcDbEntity
  8
L1_130
  6
CONTINUOUS
 62
         7
100
AcDbVertex
100
AcDb2dVertex
 10
1609.4868963637
 20
-141.5115678629
 30
0.0
 70
         1
  0
VERTEX
  5
24E
100
AcDbEntity
  8
L1_130
  6
CONTINUOUS
 62
         7
100
AcDbVertex
100
AcDb2dVertex
 10
1609.6405818388
 20
-141.4113710758
 30
0.0
 70
         1
  0
VERTEX
  5
250
100
AcDbEntity
  8
L1_130
  6
CONTINUOUS
 62
         7
100
AcDbVertex
100
AcDb2dVertex
 10
1609.7948322807
 20
-141.2918905131
 30
0.0
 70
         1
  0
VERTEX
  5
252
100
AcDbEntity
  8
L1_130
  6
CONTINUOUS
 62
         7
100
AcDbVertex
100
AcDb2dVertex
 10
1609.9038469071
 20
-141.1899035118
 30
0.0
 70
         1
  0
VERTEX
  5
254
100
AcDbEntity
  8
L1_130
  6
CONTINUOUS
 62
         7
100
AcDbVertex
100
AcDb2dVertex
 10
1610.0038430798
 20
-141.0747404633
 30
0.0
 70
         1
  0
VERTEX
  5
256
100
AcDbEntity
  8
L1_130
  6
CONTINUOUS
 62
         7
100
AcDbVertex
100
AcDb2dVertex
 10
1610.0847629287
 20
-140.9526623845
 30
0.0
 70
         1
  0
VERTEX
  5
258
100
AcDbEntity
  8
L1_130
  6
CONTINUOUS
 62
         7
100
AcDbVertex
100
AcDb2dVertex
 10
1610.1400338522
 20
-140.8336817351
 30
0.0
 70
         1
  0
VERTEX
  5
25A
100
AcDbEntity
  8
L1_130
  6
CONTINUOUS
 62
         7
100
AcDbVertex
100
AcDb2dVertex
 10
1610.1758615968
 20
-140.6967853212
 30
0.0
 70
         1
  0
VERTEX
  5
25C
100
AcDbEntity
  8
L1_130
  6
CONTINUOUS
 62
         7
100
AcDbVertex
100
AcDb2dVertex
 10
1610.183633753
 20
-140.5964230738
 30
0.0
 70
         1
  0
SEQEND
  5
25E
100
AcDbEntity
  8
L1_130
  6
CONTINUOUS
 62
         7
  0
LINE
  5
25F
100
AcDbEntity
  8
L1_130
  6
CONTINUOUS
 62
         4
100
AcDbLine
 10
1608.7786999334
 20
-138.4539700882
 30
0.0
 11
1608.7786999334
 21
-110.7400166132
 31
0.0
  0
LINE
  5
260
100
AcDbEntity
  8
L1_130
  6
CONTINUOUS
 62
         7
100
AcDbLine
 10
1609.7786999334
 20
-139.3773249504
 30
0.0
 11
1609.7786999334
 21
-109.2400166132
 31
0.0
  0
DIMENSION
  5
263
100
AcDbEntity
  8
L1_130
  6
CONTINUOUS
 62
         4
100
AcDbDimension
  2
*D17
 10
1553.777375068
 20
-199.5335783
 30
0.0
 11
1591.3387319709
 21
-195.4735783
 31
0.0
  3
DIMSTYLE1
100
AcDbAlignedDimension
 13
1553.777375068
 23
-129.2400166132
 33
0.0
 14
1634.7786999334
 24
-144.4513414786
 34
0.0
100
AcDbRotatedDimension
  0
LINE
  5
26F
100
AcDbEntity
  8
L1_130
  6
CONTINUOUS
 62
         4
100
AcDbLine
 10
1713.8100863613
 20
-4.3897624151
 30
0.0
 11
1713.8100863613
 21
14.4102375849
 31
0.0
  0
LINE
  5
270
100
AcDbEntity
  8
L1_130
  6
CONTINUOUS
 62
         4
100
AcDbLine
 10
1703.6100863613
 20
-2.4897624151
 30
0.0
 11
1703.6100863613
 21
12.5102375849
 31
0.0
  0
LINE
  5
271
100
AcDbEntity
  8
L1_130
  6
CONTINUOUS
 62
         7
100
AcDbLine
 10
1713.6100863613
 20
-4.1897624151
 30
0.0
 11
1713.8100863613
 21
-4.3897624151
 31
0.0
  0
LINE
  5
272
100
AcDbEntity
  8
L1_130
  6
CONTINUOUS
 62
         7
100
AcDbLine
 10
1713.6100863613
 20
14.2102375849
 30
0.0
 11
1713.8100863613
 21
14.4102375849
 31
0.0
  0
LINE
  5
273
100
AcDbEntity
  8
L1_130
  6
CONTINUOUS
 62
         7
100
AcDbLine
 10
1703.1100863613
 20
-1.9897624151
 30
0.0
 11
1703.6100863613
 21
-2.4897624151
 31
0.0
  0
LINE
  5
274
100
AcDbEntity
  8
L1_130
  6
CONTINUOUS
 62
         7
100
AcDbLine
 10
1703.1100863613
 20
12.0102375849
 30
0.0
 11
1703.6100863613
 21
12.5102375849
 31
0.0
  0
LINE
  5
275
100
AcDbEntity
  8
L1_130
  6
CONTINUOUS
 62
         4
100
AcDbLine
 10
1713.1100863613
 20
12.5102375849
 30
0.0
 11
1713.1100863613
 21
-2.4897624151
 31
0.0
  0
LINE
  5
276
100
AcDbEntity
  8
L1_130
  6
CONTINUOUS
 62
         4
100
AcDbLine
 10
1718.1100863613
 20
14.4102375849
 30
0.0
 11
1718.1100863613
 21
-4.3897624151
 31
0.0
  0
LINE
  5
277
100
AcDbEntity
  8
L1_130
  6
CONTINUOUS
 62
         7
100
AcDbLine
 10
1718.6100863613
 20
-3.8897624151
 30
0.0
 11
1718.1100863613
 21
-4.3897624151
 31
0.0
  0
LINE
  5
278
100
AcDbEntity
  8
L1_130
  6
CONTINUOUS
 62
         7
100
AcDbLine
 10
1718.1100863613
 20
-4.3897624151
 30
0.0
 11
1713.8100863613
 21
-4.3897624151
 31
0.0
  0
LINE
  5
279
100
AcDbEntity
  8
L1_130
  6
CONTINUOUS
 62
         7
100
AcDbLine
 10
1718.6100863613
 20
-3.8897624151
 30
0.0
 11
1718.6100863613
 21
13.9102375849
 31
0.0
  0
LINE
  5
27A
100
AcDbEntity
  8
L1_130
  6
CONTINUOUS
 62
         7
100
AcDbLine
 10
1718.1100863613
 20
14.4102375849
 30
0.0
 11
1718.6100863613
 21
13.9102375849
 31
0.0
  0
LINE
  5
27B
100
AcDbEntity
  8
L1_130
  6
CONTINUOUS
 62
         7
100
AcDbLine
 10
1718.1100863613
 20
14.4102375849
 30
0.0
 11
1713.8100863613
 21
14.4102375849
 31
0.0
  0
ARC
  5
27C
100
AcDbEntity
  8
L1_130
  6
CONTINUOUS
 62
         7
100
AcDbCircle
 10
1713.1100863613
 20
-2.9897624151
 30
0.0
 40
0.5
100
AcDbArc
 50
0.0
 51
90.0
  0
LINE
  5
27D
100
AcDbEntity
  8
L1_130
  6
CONTINUOUS
 62
         7
100
AcDbLine
 10
1713.1100863613
 20
-2.4897624151
 30
0.0
 11
1703.6100863613
 21
-2.4897624151
 31
0.0
  0
LINE
  5
27E
100
AcDbEntity
  8
L1_130
  6
CONTINUOUS
 62
         7
100
AcDbLine
 10
1713.1100863613
 20
12.5102375849
 30
0.0
 11
1703.6100863613
 21
12.5102375849
 31
0.0
  0
LINE
  5
27F
100
AcDbEntity
  8
L1_130
  6
CONTINUOUS
 62
         7
100
AcDbLine
 10
1713.6100863613
 20
-4.1897624151
 30
0.0
 11
1713.6100863613
 21
14.2102375849
 31
0.0
  0
ARC
  5
280
100
AcDbEntity
  8
L1_130
  6
CONTINUOUS
 62
         7
100
AcDbCircle
 10
1713.1100863613
 20
13.0102375849
 30
0.0
 40
0.5
100
AcDbArc
 50
270.0
 51
360.0
  0
LINE
  5
281
100
AcDbEntity
  8
L1_130
  6
CONTINUOUS
 62
         7
100
AcDbLine
 10
1703.1100863613
 20
-1.9897624151
 30
0.0
 11
1703.1100863613
 21
12.0102375849
 31
0.0
  0
DIMENSION
  5
285
100
AcDbEntity
  8
L1_130
  6
CONTINUOUS
 62
         4
100
AcDbDimension
  2
*D18
 10
1718.6100863613
 20
16.9838760458
 30
0.0
 11
1705.6124426867
 21
19.0088760458
 31
0.0
  3
DIMSTYLE2
100
AcDbAlignedDimension
 13
1718.6100863613
 23
13.9102375849
 33
0.0
 14
1703.1100863613
 24
12.4102375849
 34
0.0
100
AcDbRotatedDimension
  0
DIMENSION
  5
293
100
AcDbEntity
  8
L1_130
  6
CONTINUOUS
 62
         4
100
AcDbDimension
  2
*D19
 10
1725.3049901633
 20
14.4102375849
 30
0.0
 11
1723.2799901633
 21
-3.1436105338
 31
0.0
  3
DIMSTYLE2
100
AcDbAlignedDimension
 13
1718.1100863613
 23
14.4102375849
 33
0.0
 14
1718.1100863613
 24
-4.3897624151
 34
0.0
 50
90.0
100
AcDbRotatedDimension
  0
DIMENSION
  5
2A1
100
AcDbEntity
  8
L1_130
  6
CONTINUOUS
 62
         4
100
AcDbDimension
  2
*D20
 10
1701.3499830787
 20
12.5102375849
 30
0.0
 11
1699.3249830787
 21
-0.9404649396
 31
0.0
  3
DIMSTYLE2
100
AcDbAlignedDimension
 13
1703.2100863613
 23
12.5102375849
 33
0.0
 14
1703.2100863613
 24
-2.4897624151
 34
0.0
 50
90.0
100
AcDbRotatedDimension
  0
LINE
  5
2AD
100
AcDbEntity
  8
L1_130
  6
CONTINUOUS
 62
         4
100
AcDbLine
 10
1677.4780355537
 20
-17.4166285031
 30
0.0
 11
1677.4780355537
 21
27.4371036729
 31
0.0
  0
ARC
  5
2AE
100
AcDbEntity
  8
L1_130
  6
CONTINUOUS
 62
         7
100
AcDbCircle
 10
1676.9421371688
 20
-15.4897624151
 30
0.0
 40
2.0
100
AcDbArc
 50
270.0
 51
300.0
  0
LINE
  5
2AF
100
AcDbEntity
  8
L1_130
  6
CONTINUOUS
 62
         7
100
AcDbLine
 10
1677.9421371688
 20
-17.2218132227
 30
0.0
 11
1678.9600863613
 21
-16.6340999824
 31
0.0
  0
ARC
  5
2B0
100
AcDbEntity
  8
L1_130
  6
CONTINUOUS
 62
         7
100
AcDbCircle
 10
1678.7100863613
 20
-16.2010872805
 30
0.0
 40
0.5
100
AcDbArc
 50
300.0
 51
360.0
  0
ARC
  5
2B1
100
AcDbEntity
  8
L1_130
  6
CONTINUOUS
 62
         7
100
AcDbCircle
 10
1678.7100863613
 20
26.2215624503
 30
0.0
 40
0.5
100
AcDbArc
 50
0.0
 51
60.0
  0
LINE
  5
2B2
100
AcDbEntity
  8
L1_130
  6
CONTINUOUS
 62
         7
100
AcDbLine
 10
1677.9421371688
 20
27.2422883924
 30
0.0
 11
1678.9600863613
 21
26.6545751522
 31
0.0
  0
ARC
  5
2B3
100
AcDbEntity
  8
L1_130
  6
CONTINUOUS
 62
         7
100
AcDbCircle
 10
1676.9421371688
 20
25.5102375849
 30
0.0
 40
2.0
100
AcDbArc
 50
60.0
 51
90.0
  0
LINE
  5
2B4
100
AcDbEntity
  8
L1_130
  6
CONTINUOUS
 62
         4
100
AcDbLine
 10
1647.7100863613
 20
27.5102375849
 30
0.0
 11
1647.7100863613
 21
-17.4897624151
 31
0.0
  0
LINE
  5
2B5
100
AcDbEntity
  8
L1_130
  6
CONTINUOUS
 62
         7
100
AcDbLine
 10
1647.2100863613
 20
-16.9897624151
 30
0.0
 11
1647.7100863613
 21
-17.4897624151
 31
0.0
  0
LINE
  5
2B6
100
AcDbEntity
  8
L1_130
  6
CONTINUOUS
 62
         7
100
AcDbLine
 10
1676.9421371688
 20
-17.4897624151
 30
0.0
 11
1647.7100863613
 21
-17.4897624151
 31
0.0
  0
LINE
  5
2B7
100
AcDbEntity
  8
L1_130
  6
CONTINUOUS
 62
         7
100
AcDbLine
 10
1647.2100863613
 20
-16.9897624151
 30
0.0
 11
1647.2100863613
 21
27.0102375849
 31
0.0
  0
LINE
  5
2B8
100
AcDbEntity
  8
L1_130
  6
CONTINUOUS
 62
         7
100
AcDbLine
 10
1647.2100863613
 20
27.0102375849
 30
0.0
 11
1647.7100863613
 21
27.5102375849
 31
0.0
  0
LINE
  5
2B9
100
AcDbEntity
  8
L1_130
  6
CONTINUOUS
 62
         7
100
AcDbLine
 10
1676.9421371688
 20
27.5102375849
 30
0.0
 11
1647.7100863613
 21
27.5102375849
 31
0.0
  0
LINE
  5
2BA
100
AcDbEntity
  8
L1_130
  6
CONTINUOUS
 62
         7
100
AcDbLine
 10
1679.2100863613
 20
-16.2010872805
 30
0.0
 11
1679.2100863613
 21
26.2215624503
 31
0.0
  0
DIMENSION
  5
2BD
100
AcDbEntity
  8
L1_130
  6
CONTINUOUS
 62
         4
100
AcDbDimension
  2
*D21
 10
1647.2100863613
 20
30.5005489612
 30
0.0
 11
1661.2123108078
 21
32.5255489612
 31
0.0
  3
DIMSTYLE2
100
AcDbAlignedDimension
 13
1647.2100863613
 23
27.0102375849
 33
0.0
 14
1679.2100863613
 24
26.2215624503
 34
0.0
100
AcDbRotatedDimension
  0
DIMENSION
  5
2CB
100
AcDbEntity
  8
L1_130
  6
CONTINUOUS
 62
         4
100
AcDbDimension
  2
*D22
 10
1686.1331000835
 20
27.5102375849
 30
0.0
 11
1684.1081000835
 21
-0.293465641
 31
0.0
  3
DIMSTYLE2
100
AcDbAlignedDimension
 13
1676.076111765
 23
27.5102375849
 33
0.0
 14
1676.076111765
 24
-17.4897624151
 34
0.0
 50
90.0
100
AcDbRotatedDimension
  0
ARC
  5
2D7
100
AcDbEntity
  8
L1_130
  6
CONTINUOUS
 62
         7
100
AcDbCircle
 10
1748.4440609575
 20
-10.4897624151
 30
0.0
 40
0.5
100
AcDbArc
 50
240.0
 51
270.0
  0
ARC
  5
2D8
100
AcDbEntity
  8
L1_130
  6
CONTINUOUS
 62
         7
100
AcDbCircle
 10
1746.3100863613
 20
-9.2577116076
 30
0.0
 40
0.5
100
AcDbArc
 50
180.0
 51
240.0
  0
ARC
  5
2D9
100
AcDbEntity
  8
L1_130
  6
CONTINUOUS
 62
         7
100
AcDbCircle
 10
1746.3100863613
 20
19.2781867773
 30
0.0
 40
0.5
100
AcDbArc
 50
120.0
 51
180.0
  0
ARC
  5
2DA
100
AcDbEntity
  8
L1_130
  6
CONTINUOUS
 62
         7
100
AcDbCircle
 10
1748.4440609575
 20
20.5102375849
 30
0.0
 40
0.5
100
AcDbArc
 50
90.0
 51
120.0
  0
LINE
  5
2DB
100
AcDbEntity
  8
L1_130
  6
CONTINUOUS
 62
         7
100
AcDbLine
 10
1746.0600863613
 20
-9.6907243094
 30
0.0
 11
1748.1940609575
 21
-10.922775117
 31
0.0
  0
LINE
  5
2DC
100
AcDbEntity
  8
L1_130
  6
CONTINUOUS
 62
         7
100
AcDbLine
 10
1746.0600863613
 20
19.7111994792
 30
0.0
 11
1748.1940609575
 21
20.9432502868
 31
0.0
  0
LINE
  5
2DD
100
AcDbEntity
  8
L1_130
  6
CONTINUOUS
 62
         4
100
AcDbLine
 10
1748.3100863613
 20
-10.9897624151
 30
0.0
 11
1748.3100863613
 21
21.0102375849
 31
0.0
  0
LINE
  5
2DE
100
AcDbEntity
  8
L1_130
  6
CONTINUOUS
 62
         7
100
AcDbLine
 10
1771.9096994211
 20
2.0102375849
 30
0.0
 11
1759.0134757947
 21
2.0102375849
 31
0.0
  0
LINE
  5
2DF
100
AcDbEntity
  8
L1_130
  6
CONTINUOUS
 62
         7
100
AcDbLine
 10
1771.9096994211
 20
8.0102375849
 30
0.0
 11
1759.0134757947
 21
8.0102375849
 31
0.0
  0
LINE
  5
2E0
100
AcDbEntity
  8
L1_130
  6
CONTINUOUS
 62
         4
100
AcDbLine
 10
1791.8100863613
 20
-7.6897624151
 30
0.0
 11
1791.8100863613
 21
17.7102375849
 31
0.0
  0
ARC
  5
2E1
100
AcDbEntity
  8
L1_130
  6
CONTINUOUS
 62
         7
100
AcDbCircle
 10
1788.3100863613
 20
-9.9897624151
 30
0.0
 40
1.0
100
AcDbArc
 50
270.0
 51
360.0
  0
ARC
  5
2E2
100
AcDbEntity
  8
L1_130
  6
CONTINUOUS
 62
         7
100
AcDbCircle
 10
1788.3100863613
 20
20.0102375849
 30
0.0
 40
1.0
100
AcDbArc
 50
0.0
 51
90.0
  0
LINE
  5
2E3
100
AcDbEntity
  8
L1_130
  6
CENTER
 62
         1
100
AcDbLine
 10
1771.9096994211
 20
-0.8408242117
 30
0.0
 11
1771.9096994211
 21
11.6802251849
 31
0.0
  0
LINE
  5
2E4
100
AcDbEntity
  8
L1_130
  6
CENTER
 62
         1
100
AcDbLine
 10
1759.0134757947
 20
-0.8408242117
 30
0.0
 11
1759.0134757947
 21
11.6802251849
 31
0.0
  0
LINE
  5
2E5
100
AcDbEntity
  8
L1_130
  6
CENTER
 62
         1
100
AcDbLine
 10
1797.1100863613
 20
-12.6652220897
 30
0.0
 11
1797.1100863613
 21
21.0510854829
 31
0.0
  0
LINE
  5
2E6
100
AcDbEntity
  8
L1_130
  6
CENTER
 62
         1
100
AcDbLine
 10
1803.5100863613
 20
-2.4616026928
 30
0.0
 11
1803.5100863613
 21
11.2911017119
 31
0.0
  0
CIRCLE
  5
2E7
100
AcDbEntity
  8
L1_130
  6
CONTINUOUS
 62
         7
100
AcDbCircle
 10
1803.5100863613
 20
5.0102375849
 30
0.0
 40
2.5
  0
POLYLINE
  5
2E9
100
AcDbEntity
  8
L1_130
  6
CONTINUOUS
 62
         7
100
AcDb2dPolyline
 66
         1
 10
0.0
 20
0.0
 30
0.0
 70
         2
  0
VERTEX
  5
2EB
100
AcDbEntity
  8
L1_130
  6
CONTINUOUS
 62
         7
100
AcDbVertex
100
AcDb2dVertex
 10
1795.1100863613
 20
-6.1140601458
 30
0.0
 70
         1
  0
VERTEX
  5
2ED
100
AcDbEntity
  8
L1_130
  6
CONTINUOUS
 62
         7
100
AcDbVertex
100
AcDb2dVertex
 10
1795.1548658208
 20
-6.3244839077
 30
0.0
 70
         1
  0
VERTEX
  5
2EF
100
AcDbEntity
  8
L1_130
  6
CONTINUOUS
 62
         7
100
AcDbVertex
100
AcDb2dVertex
 10
1795.2041598081
 20
-6.4171459315
 30
0.0
 70
         1
  0
VERTEX
  5
2F1
100
AcDbEntity
  8
L1_130
  6
CONTINUOUS
 62
         7
100
AcDbVertex
100
AcDb2dVertex
 10
1795.2731236222
 20
-6.5095243967
 30
0.0
 70
         1
  0
VERTEX
  5
2F3
100
AcDbEntity
  8
L1_130
  6
CONTINUOUS
 62
         7
100
AcDbVertex
100
AcDb2dVertex
 10
1795.3621279657
 20
-6.6000234796
 30
0.0
 70
         1
  0
VERTEX
  5
2F5
100
AcDbEntity
  8
L1_130
  6
CONTINUOUS
 62
         7
100
AcDbVertex
100
AcDb2dVertex
 10
1795.4708559311
 20
-6.6869745366
 30
0.0
 70
         1
  0
VERTEX
  5
2F7
100
AcDbEntity
  8
L1_130
  6
CONTINUOUS
 62
         7
100
AcDbVertex
100
AcDb2dVertex
 10
1795.5982559253
 20
-6.7687296679
 30
0.0
 70
         1
  0
VERTEX
  5
2F9
100
AcDbEntity
  8
L1_130
  6
CONTINUOUS
 62
         7
100
AcDbVertex
100
AcDb2dVertex
 10
1795.7425565315
 20
-6.8437625105
 30
0.0
 70
         1
  0
VERTEX
  5
2FB
100
AcDbEntity
  8
L1_130
  6
CONTINUOUS
 62
         7
100
AcDbVertex
100
AcDb2dVertex
 10
1795.9013471301
 20
-6.9107642111
 30
0.0
 70
         1
  0
VERTEX
  5
2FD
100
AcDbEntity
  8
L1_130
  6
CONTINUOUS
 62
         7
100
AcDbVertex
100
AcDb2dVertex
 10
1796.1322745202
 20
-6.9863966639
 30
0.0
 70
         1
  0
VERTEX
  5
2FF
100
AcDbEntity
  8
L1_130
  6
CONTINUOUS
 62
         7
100
AcDbVertex
100
AcDb2dVertex
 10
1796.3761979159
 20
-7.0443030911
 30
0.0
 70
         1
  0
VERTEX
  5
301
100
AcDbEntity
  8
L1_130
  6
CONTINUOUS
 62
         7
100
AcDbVertex
100
AcDb2dVertex
 10
1796.625098736
 20
-7.0842130981
 30
0.0
 70
         1
  0
VERTEX
  5
303
100
AcDbEntity
  8
L1_130
  6
CONTINUOUS
 62
         7
100
AcDbVertex
100
AcDb2dVertex
 10
1796.9552894525
 20
-7.1110603861
 30
0.0
 70
         1
  0
VERTEX
  5
305
100
AcDbEntity
  8
L1_130
  6
CONTINUOUS
 62
         7
100
AcDbVertex
100
AcDb2dVertex
 10
1797.2667947443
 20
-7.1109857301
 30
0.0
 70
         1
  0
VERTEX
  5
307
100
AcDbEntity
  8
L1_130
  6
CONTINUOUS
 62
         7
100
AcDbVertex
100
AcDb2dVertex
 10
1797.5501316499
 20
-7.0895549105
 30
0.0
 70
         1
  0
VERTEX
  5
309
100
AcDbEntity
  8
L1_130
  6
CONTINUOUS
 62
         7
100
AcDbVertex
100
AcDb2dVertex
 10
1797.800576861
 20
-7.0525726483
 30
0.0
 70
         1
  0
VERTEX
  5
30B
100
AcDbEntity
  8
L1_130
  6
CONTINUOUS
 62
         7
100
AcDbVertex
100
AcDb2dVertex
 10
1798.0171624608
 20
-7.0052970601
 30
0.0
 70
         1
  0
VERTEX
  5
30D
100
AcDbEntity
  8
L1_130
  6
CONTINUOUS
 62
         7
100
AcDbVertex
100
AcDb2dVertex
 10
1798.2590749559
 20
-6.9325687299
 30
0.0
 70
         1
  0
VERTEX
  5
30F
100
AcDbEntity
  8
L1_130
  6
CONTINUOUS
 62
         7
100
AcDbVertex
100
AcDb2dVertex
 10
1798.4497374548
 20
-6.8565786552
 30
0.0
 70
         1
  0
VERTEX
  5
311
100
AcDbEntity
  8
L1_130
  6
CONTINUOUS
 62
         7
100
AcDbVertex
100
AcDb2dVertex
 10
1798.5981646299
 20
-6.7821961848
 30
0.0
 70
         1
  0
VERTEX
  5
313
100
AcDbEntity
  8
L1_130
  6
CONTINUOUS
 62
         7
100
AcDbVertex
100
AcDb2dVertex
 10
1798.747323074
 20
-6.6883980138
 30
0.0
 70
         1
  0
VERTEX
  5
315
100
AcDbEntity
  8
L1_130
  6
CONTINUOUS
 62
         7
100
AcDbVertex
100
AcDb2dVertex
 10
1798.8520730021
 20
-6.605355002
 30
0.0
 70
         1
  0
VERTEX
  5
317
100
AcDbEntity
  8
L1_130
  6
CONTINUOUS
 62
         7
100
AcDbVertex
100
AcDb2dVertex
 10
1798.946928806
 20
-6.5096640617
 30
0.0
 70
         1
  0
VERTEX
  5
319
100
AcDbEntity
  8
L1_130
  6
CONTINUOUS
 62
         7
100
AcDbVertex
100
AcDb2dVertex
 10
1799.0221350806
 20
-6.4073474175
 30
0.0
 70
         1
  0
VERTEX
  5
31B
100
AcDbEntity
  8
L1_130
  6
CONTINUOUS
 62
         7
100
AcDbVertex
100
AcDb2dVertex
 10
1799.0721465568
 20
-6.3079156262
 30
0.0
 70
         1
  0
VERTEX
  5
31D
100
AcDbEntity
  8
L1_130
  6
CONTINUOUS
 62
         7
100
AcDbVertex
100
AcDb2dVertex
 10
1799.1035107746
 20
-6.1950834576
 30
0.0
 70
         1
  0
VERTEX
  5
31F
100
AcDbEntity
  8
L1_130
  6
CONTINUOUS
 62
         7
100
AcDbVertex
100
AcDb2dVertex
 10
1799.1100863613
 20
-6.1140601458
 30
0.0
 70
         1
  0
VERTEX
  5
321
100
AcDbEntity
  8
L1_130
  6
CONTINUOUS
 62
         7
100
AcDbVertex
100
AcDb2dVertex
 10
1799.1100863613
 20
-6.1140601458
 30
0.0
 70
         1
  0
VERTEX
  5
323
100
AcDbEntity
  8
L1_130
  6
CONTINUOUS
 62
         7
100
AcDbVertex
100
AcDb2dVertex
 10
1799.0653069017
 20
-5.9036363839
 30
0.0
 70
         1
  0
VERTEX
  5
325
100
AcDbEntity
  8
L1_130
  6
CONTINUOUS
 62
         7
100
AcDbVertex
100
AcDb2dVertex
 10
1799.0160129144
 20
-5.8109743601
 30
0.0
 70
         1
  0
VERTEX
  5
327
100
AcDbEntity
  8
L1_130
  6
CONTINUOUS
 62
         7
100
AcDbVertex
100
AcDb2dVertex
 10
1798.9470491003
 20
-5.7185958948
 30
0.0
 70
         1
  0
VERTEX
  5
329
100
AcDbEntity
  8
L1_130
  6
CONTINUOUS
 62
         7
100
AcDbVertex
100
AcDb2dVertex
 10
1798.8580447568
 20
-5.6280968119
 30
0.0
 70
         1
  0
VERTEX
  5
32B
100
AcDbEntity
  8
L1_130
  6
CONTINUOUS
 62
         7
100
AcDbVertex
100
AcDb2dVertex
 10
1798.7493167914
 20
-5.541145755
 30
0.0
 70
         1
  0
VERTEX
  5
32D
100
AcDbEntity
  8
L1_130
  6
CONTINUOUS
 62
         7
100
AcDbVertex
100
AcDb2dVertex
 10
1798.6219167972
 20
-5.4593906236
 30
0.0
 70
         1
  0
VERTEX
  5
32F
100
AcDbEntity
  8
L1_130
  6
CONTINUOUS
 62
         7
100
AcDbVertex
100
AcDb2dVertex
 10
1798.477616191
 20
-5.384357781
 30
0.0
 70
         1
  0
VERTEX
  5
331
100
AcDbEntity
  8
L1_130
  6
CONTINUOUS
 62
         7
100
AcDbVertex
100
AcDb2dVertex
 10
1798.3188255924
 20
-5.3173560804
 30
0.0
 70
         1
  0
VERTEX
  5
333
100
AcDbEntity
  8
L1_130
  6
CONTINUOUS
 62
         7
100
AcDbVertex
100
AcDb2dVertex
 10
1798.0878982023
 20
-5.2417236276
 30
0.0
 70
         1
  0
VERTEX
  5
335
100
AcDbEntity
  8
L1_130
  6
CONTINUOUS
 62
         7
100
AcDbVertex
100
AcDb2dVertex
 10
1797.8439748066
 20
-5.1838172004
 30
0.0
 70
         1
  0
VERTEX
  5
337
100
AcDbEntity
  8
L1_130
  6
CONTINUOUS
 62
         7
100
AcDbVertex
100
AcDb2dVertex
 10
1797.5950739865
 20
-5.1439071935
 30
0.0
 70
         1
  0
VERTEX
  5
339
100
AcDbEntity
  8
L1_130
  6
CONTINUOUS
 62
         7
100
AcDbVertex
100
AcDb2dVertex
 10
1797.26488327
 20
-5.1170599054
 30
0.0
 70
         1
  0
VERTEX
  5
33B
100
AcDbEntity
  8
L1_130
  6
CONTINUOUS
 62
         7
100
AcDbVertex
100
AcDb2dVertex
 10
1796.9533779782
 20
-5.1171345614
 30
0.0
 70
         1
  0
VERTEX
  5
33D
100
AcDbEntity
  8
L1_130
  6
CONTINUOUS
 62
         7
100
AcDbVertex
100
AcDb2dVertex
 10
1796.6700410726
 20
-5.1385653811
 30
0.0
 70
         1
  0
VERTEX
  5
33F
100
AcDbEntity
  8
L1_130
  6
CONTINUOUS
 62
         7
100
AcDbVertex
100
AcDb2dVertex
 10
1796.4195958615
 20
-5.1755476432
 30
0.0
 70
         1
  0
VERTEX
  5
341
100
AcDbEntity
  8
L1_130
  6
CONTINUOUS
 62
         7
100
AcDbVertex
100
AcDb2dVertex
 10
1796.2030102617
 20
-5.2228232315
 30
0.0
 70
         1
  0
VERTEX
  5
343
100
AcDbEntity
  8
L1_130
  6
CONTINUOUS
 62
         7
100
AcDbVertex
100
AcDb2dVertex
 10
1795.9610977666
 20
-5.2955515616
 30
0.0
 70
         1
  0
VERTEX
  5
345
100
AcDbEntity
  8
L1_130
  6
CONTINUOUS
 62
         7
100
AcDbVertex
100
AcDb2dVertex
 10
1795.7704352677
 20
-5.3715416363
 30
0.0
 70
         1
  0
VERTEX
  5
347
100
AcDbEntity
  8
L1_130
  6
CONTINUOUS
 62
         7
100
AcDbVertex
100
AcDb2dVertex
 10
1795.6220080926
 20
-5.4459241068
 30
0.0
 70
         1
  0
VERTEX
  5
349
100
AcDbEntity
  8
L1_130
  6
CONTINUOUS
 62
         7
100
AcDbVertex
100
AcDb2dVertex
 10
1795.4728496486
 20
-5.5397222777
 30
0.0
 70
         1
  0
VERTEX
  5
34B
100
AcDbEntity
  8
L1_130
  6
CONTINUOUS
 62
         7
100
AcDbVertex
100
AcDb2dVertex
 10
1795.3680997204
 20
-5.6227652896
 30
0.0
 70
         1
  0
VERTEX
  5
34D
100
AcDbEntity
  8
L1_130
  6
CONTINUOUS
 62
         7
100
AcDbVertex
100
AcDb2dVertex
 10
1795.2732439165
 20
-5.7184562298
 30
0.0
 70
         1
  0
VERTEX
  5
34F
100
AcDbEntity
  8
L1_130
  6
CONTINUOUS
 62
         7
100
AcDbVertex
100
AcDb2dVertex
 10
1795.1980376419
 20
-5.8207728741
 30
0.0
 70
         1
  0
VERTEX
  5
351
100
AcDbEntity
  8
L1_130
  6
CONTINUOUS
 62
         7
100
AcDbVertex
100
AcDb2dVertex
 10
1795.1480261657
 20
-5.9202046653
 30
0.0
 70
         1
  0
VERTEX
  5
353
100
AcDbEntity
  8
L1_130
  6
CONTINUOUS
 62
         7
100
AcDbVertex
100
AcDb2dVertex
 10
1795.1166619479
 20
-6.0330368339
 30
0.0
 70
         1
  0
VERTEX
  5
355
100
AcDbEntity
  8
L1_130
  6
CONTINUOUS
 62
         7
100
AcDbVertex
100
AcDb2dVertex
 10
1795.1100863613
 20
-6.1140601458
 30
0.0
 70
         1
  0
SEQEND
  5
357
100
AcDbEntity
  8
L1_130
  6
CONTINUOUS
 62
         7
  0
POLYLINE
  5
359
100
AcDbEntity
  8
L1_130
  6
CONTINUOUS
 62
         7
100
AcDb2dPolyline
 66
         1
 10
0.0
 20
0.0
 30
0.0
 70
         2
  0
VERTEX
  5
35B
100
AcDbEntity
  8
L1_130
  6
CONTINUOUS
 62
         7
100
AcDbVertex
100
AcDb2dVertex
 10
1795.1100863613
 20
16.1345353155
 30
0.0
 70
         1
  0
VERTEX
  5
35D
100
AcDbEntity
  8
L1_130
  6
CONTINUOUS
 62
         7
100
AcDbVertex
100
AcDb2dVertex
 10
1795.1548658208
 20
15.9241115536
 30
0.0
 70
         1
  0
VERTEX
  5
35F
100
AcDbEntity
  8
L1_130
  6
CONTINUOUS
 62
         7
100
AcDbVertex
100
AcDb2dVertex
 10
1795.2041598081
 20
15.8314495298
 30
0.0
 70
         1
  0
VERTEX
  5
361
100
AcDbEntity
  8
L1_130
  6
CONTINUOUS
 62
         7
100
AcDbVertex
100
AcDb2dVertex
 10
1795.2731236222
 20
15.7390710645
 30
0.0
 70
         1
  0
VERTEX
  5
363
100
AcDbEntity
  8
L1_130
  6
CONTINUOUS
 62
         7
100
AcDbVertex
100
AcDb2dVertex
 10
1795.3621279657
 20
15.6485719816
 30
0.0
 70
         1
  0
VERTEX
  5
365
100
AcDbEntity
  8
L1_130
  6
CONTINUOUS
 62
         7
100
AcDbVertex
100
AcDb2dVertex
 10
1795.4708559311
 20
15.5616209247
 30
0.0
 70
         1
  0
VERTEX
  5
367
100
AcDbEntity
  8
L1_130
  6
CONTINUOUS
 62
         7
100
AcDbVertex
100
AcDb2dVertex
 10
1795.5982559253
 20
15.4798657934
 30
0.0
 70
         1
  0
VERTEX
  5
369
100
AcDbEntity
  8
L1_130
  6
CONTINUOUS
 62
         7
100
AcDbVertex
100
AcDb2dVertex
 10
1795.7425565315
 20
15.4048329507
 30
0.0
 70
         1
  0
VERTEX
  5
36B
100
AcDbEntity
  8
L1_130
  6
CONTINUOUS
 62
         7
100
AcDbVertex
100
AcDb2dVertex
 10
1795.9013471301
 20
15.3378312502
 30
0.0
 70
         1
  0
VERTEX
  5
36D
100
AcDbEntity
  8
L1_130
  6
CONTINUOUS
 62
         7
100
AcDbVertex
100
AcDb2dVertex
 10
1796.1322745202
 20
15.2621987974
 30
0.0
 70
         1
  0
VERTEX
  5
36F
100
AcDbEntity
  8
L1_130
  6
CONTINUOUS
 62
         7
100
AcDbVertex
100
AcDb2dVertex
 10
1796.3761979159
 20
15.2042923701
 30
0.0
 70
         1
  0
VERTEX
  5
371
100
AcDbEntity
  8
L1_130
  6
CONTINUOUS
 62
         7
100
AcDbVertex
100
AcDb2dVertex
 10
1796.625098736
 20
15.1643823632
 30
0.0
 70
         1
  0
VERTEX
  5
373
100
AcDbEntity
  8
L1_130
  6
CONTINUOUS
 62
         7
100
AcDbVertex
100
AcDb2dVertex
 10
1796.9552894525
 20
15.1375350752
 30
0.0
 70
         1
  0
VERTEX
  5
375
100
AcDbEntity
  8
L1_130
  6
CONTINUOUS
 62
         7
100
AcDbVertex
100
AcDb2dVertex
 10
1797.2667947443
 20
15.1376097312
 30
0.0
 70
         1
  0
VERTEX
  5
377
100
AcDbEntity
  8
L1_130
  6
CONTINUOUS
 62
         7
100
AcDbVertex
100
AcDb2dVertex
 10
1797.5501316499
 20
15.1590405508
 30
0.0
 70
         1
  0
VERTEX
  5
379
100
AcDbEntity
  8
L1_130
  6
CONTINUOUS
 62
         7
100
AcDbVertex
100
AcDb2dVertex
 10
1797.800576861
 20
15.196022813
 30
0.0
 70
         1
  0
VERTEX
  5
37B
100
AcDbEntity
  8
L1_130
  6
CONTINUOUS
 62
         7
100
AcDbVertex
100
AcDb2dVertex
 10
1798.0171624608
 20
15.2432984012
 30
0.0
 70
         1
  0
VERTEX
  5
37D
100
AcDbEntity
  8
L1_130
  6
CONTINUOUS
 62
         7
100
AcDbVertex
100
AcDb2dVertex
 10
1798.2590749559
 20
15.3160267313
 30
0.0
 70
         1
  0
VERTEX
  5
37F
100
AcDbEntity
  8
L1_130
  6
CONTINUOUS
 62
         7
100
AcDbVertex
100
AcDb2dVertex
 10
1798.4497374548
 20
15.3920168061
 30
0.0
 70
         1
  0
VERTEX
  5
381
100
AcDbEntity
  8
L1_130
  6
CONTINUOUS
 62
         7
100
AcDbVertex
100
AcDb2dVertex
 10
1798.5981646299
 20
15.4663992765
 30
0.0
 70
         1
  0
VERTEX
  5
383
100
AcDbEntity
  8
L1_130
  6
CONTINUOUS
 62
         7
100
AcDbVertex
100
AcDb2dVertex
 10
1798.747323074
 20
15.5601974475
 30
0.0
 70
         1
  0
VERTEX
  5
385
100
AcDbEntity
  8
L1_130
  6
CONTINUOUS
 62
         7
100
AcDbVertex
100
AcDb2dVertex
 10
1798.8520730021
 20
15.6432404593
 30
0.0
 70
         1
  0
VERTEX
  5
387
100
AcDbEntity
  8
L1_130
  6
CONTINUOUS
 62
         7
100
AcDbVertex
100
AcDb2dVertex
 10
1798.946928806
 20
15.7389313996
 30
0.0
 70
         1
  0
VERTEX
  5
389
100
AcDbEntity
  8
L1_130
  6
CONTINUOUS
 62
         7
100
AcDbVertex
100
AcDb2dVertex
 10
1799.0221350806
 20
15.8412480438
 30
0.0
 70
         1
  0
VERTEX
  5
38B
100
AcDbEntity
  8
L1_130
  6
CONTINUOUS
 62
         7
100
AcDbVertex
100
AcDb2dVertex
 10
1799.0721465568
 20
15.9406798351
 30
0.0
 70
         1
  0
VERTEX
  5
38D
100
AcDbEntity
  8
L1_130
  6
CONTINUOUS
 62
         7
100
AcDbVertex
100
AcDb2dVertex
 10
1799.1035107746
 20
16.0535120036
 30
0.0
 70
         1
  0
VERTEX
  5
38F
100
AcDbEntity
  8
L1_130
  6
CONTINUOUS
 62
         7
100
AcDbVertex
100
AcDb2dVertex
 10
1799.1100863613
 20
16.1345353155
 30
0.0
 70
         1
  0
VERTEX
  5
391
100
AcDbEntity
  8
L1_130
  6
CONTINUOUS
 62
         7
100
AcDbVertex
100
AcDb2dVertex
 10
1799.1100863613
 20
16.1345353155
 30
0.0
 70
         1
  0
VERTEX
  5
393
100
AcDbEntity
  8
L1_130
  6
CONTINUOUS
 62
         7
100
AcDbVertex
100
AcDb2dVertex
 10
1799.0653069017
 20
16.3449590774
 30
0.0
 70
         1
  0
VERTEX
  5
395
100
AcDbEntity
  8
L1_130
  6
CONTINUOUS
 62
         7
100
AcDbVertex
100
AcDb2dVertex
 10
1799.0160129144
 20
16.4376211012
 30
0.0
 70
         1
  0
VERTEX
  5
397
100
AcDbEntity
  8
L1_130
  6
CONTINUOUS
 62
         7
100
AcDbVertex
100
AcDb2dVertex
 10
1798.9470491003
 20
16.5299995665
 30
0.0
 70
         1
  0
VERTEX
  5
399
100
AcDbEntity
  8
L1_130
  6
CONTINUOUS
 62
         7
100
AcDbVertex
100
AcDb2dVertex
 10
1798.8580447568
 20
16.6204986494
 30
0.0
 70
         1
  0
VERTEX
  5
39B
100
AcDbEntity
  8
L1_130
  6
CONTINUOUS
 62
         7
100
AcDbVertex
100
AcDb2dVertex
 10
1798.7493167914
 20
16.7074497063
 30
0.0
 70
         1
  0
VERTEX
  5
39D
100
AcDbEntity
  8
L1_130
  6
CONTINUOUS
 62
         7
100
AcDbVertex
100
AcDb2dVertex
 10
1798.6219167972
 20
16.7892048377
 30
0.0
 70
         1
  0
VERTEX
  5
39F
100
AcDbEntity
  8
L1_130
  6
CONTINUOUS
 62
         7
100
AcDbVertex
100
AcDb2dVertex
 10
1798.477616191
 20
16.8642376803
 30
0.0
 70
         1
  0
VERTEX
  5
3A1
100
AcDbEntity
  8
L1_130
  6
CONTINUOUS
 62
         7
100
AcDbVertex
100
AcDb2dVertex
 10
1798.3188255924
 20
16.9312393809
 30
0.0
 70
         1
  0
VERTEX
  5
3A3
100
AcDbEntity
  8
L1_130
  6
CONTINUOUS
 62
         7
100
AcDbVertex
100
AcDb2dVertex
 10
1798.0878982023
 20
17.0068718337
 30
0.0
 70
         1
  0
VERTEX
  5
3A5
100
AcDbEntity
  8
L1_130
  6
CONTINUOUS
 62
         7
100
AcDbVertex
100
AcDb2dVertex
 10
1797.8439748066
 20
17.0647782609
 30
0.0
 70
         1
  0
VERTEX
  5
3A7
100
AcDbEntity
  8
L1_130
  6
CONTINUOUS
 62
         7
100
AcDbVertex
100
AcDb2dVertex
 10
1797.5950739865
 20
17.1046882678
 30
0.0
 70
         1
  0
VERTEX
  5
3A9
100
AcDbEntity
  8
L1_130
  6
CONTINUOUS
 62
         7
100
AcDbVertex
100
AcDb2dVertex
 10
1797.26488327
 20
17.1315355559
 30
0.0
 70
         1
  0
VERTEX
  5
3AB
100
AcDbEntity
  8
L1_130
  6
CONTINUOUS
 62
         7
100
AcDbVertex
100
AcDb2dVertex
 10
1796.9533779782
 20
17.1314608998
 30
0.0
 70
         1
  0
VERTEX
  5
3AD
100
AcDbEntity
  8
L1_130
  6
CONTINUOUS
 62
         7
100
AcDbVertex
100
AcDb2dVertex
 10
1796.6700410726
 20
17.1100300802
 30
0.0
 70
         1
  0
VERTEX
  5
3AF
100
AcDbEntity
  8
L1_130
  6
CONTINUOUS
 62
         7
100
AcDbVertex
100
AcDb2dVertex
 10
1796.4195958615
 20
17.0730478181
 30
0.0
 70
         1
  0
VERTEX
  5
3B1
100
AcDbEntity
  8
L1_130
  6
CONTINUOUS
 62
         7
100
AcDbVertex
100
AcDb2dVertex
 10
1796.2030102617
 20
17.0257722298
 30
0.0
 70
         1
  0
VERTEX
  5
3B3
100
AcDbEntity
  8
L1_130
  6
CONTINUOUS
 62
         7
100
AcDbVertex
100
AcDb2dVertex
 10
1795.9610977666
 20
16.9530438997
 30
0.0
 70
         1
  0
VERTEX
  5
3B5
100
AcDbEntity
  8
L1_130
  6
CONTINUOUS
 62
         7
100
AcDbVertex
100
AcDb2dVertex
 10
1795.7704352677
 20
16.877053825
 30
0.0
 70
         1
  0
VERTEX
  5
3B7
100
AcDbEntity
  8
L1_130
  6
CONTINUOUS
 62
         7
100
AcDbVertex
100
AcDb2dVertex
 10
1795.6220080926
 20
16.8026713545
 30
0.0
 70
         1
  0
VERTEX
  5
3B9
100
AcDbEntity
  8
L1_130
  6
CONTINUOUS
 62
         7
100
AcDbVertex
100
AcDb2dVertex
 10
1795.4728496486
 20
16.7088731835
 30
0.0
 70
         1
  0
VERTEX
  5
3BB
100
AcDbEntity
  8
L1_130
  6
CONTINUOUS
 62
         7
100
AcDbVertex
100
AcDb2dVertex
 10
1795.3680997204
 20
16.6258301717
 30
0.0
 70
         1
  0
VERTEX
  5
3BD
100
AcDbEntity
  8
L1_130
  6
CONTINUOUS
 62
         7
100
AcDbVertex
100
AcDb2dVertex
 10
1795.2732439165
 20
16.5301392314
 30
0.0
 70
         1
  0
VERTEX
  5
3BF
100
AcDbEntity
  8
L1_130
  6
CONTINUOUS
 62
         7
100
AcDbVertex
100
AcDb2dVertex
 10
1795.1980376419
 20
16.4278225872
 30
0.0
 70
         1
  0
VERTEX
  5
3C1
100
AcDbEntity
  8
L1_130
  6
CONTINUOUS
 62
         7
100
AcDbVertex
100
AcDb2dVertex
 10
1795.1480261657
 20
16.3283907959
 30
0.0
 70
         1
  0
VERTEX
  5
3C3
100
AcDbEntity
  8
L1_130
  6
CONTINUOUS
 62
         7
100
AcDbVertex
100
AcDb2dVertex
 10
1795.1166619479
 20
16.2155586274
 30
0.0
 70
         1
  0
VERTEX
  5
3C5
100
AcDbEntity
  8
L1_130
  6
CONTINUOUS
 62
         7
100
AcDbVertex
100
AcDb2dVertex
 10
1795.1100863613
 20
16.1345353155
 30
0.0
 70
         1
  0
SEQEND
  5
3C7
100
AcDbEntity
  8
L1_130
  6
CONTINUOUS
 62
         7
  0
LINE
  5
3C8
100
AcDbEntity
  8
L1_130
  6
CONTINUOUS
 62
         7
100
AcDbLine
 10
1820.8100863613
 20
10.7602375849
 30
0.0
 11
1820.8100863613
 21
17.2102375849
 31
0.0
  0
LINE
  5
3C9
100
AcDbEntity
  8
L1_130
  6
CONTINUOUS
 62
         7
100
AcDbLine
 10
1820.8100863613
 20
-7.1897624151
 30
0.0
 11
1820.8100863613
 21
-0.7397624151
 31
0.0
  0
LINE
  5
3CA
100
AcDbEntity
  8
L1_130
  6
CONTINUOUS
 62
         7
100
AcDbLine
 10
1820.8100863613
 20
10.7602375849
 30
0.0
 11
1820.3100863613
 21
10.2602375849
 31
0.0
  0
LINE
  5
3CB
100
AcDbEntity
  8
L1_130
  6
CONTINUOUS
 62
         4
100
AcDbLine
 10
1820.3100863613
 20
17.7102375849
 30
0.0
 11
1820.3100863613
 21
10.2602375849
 31
0.0
  0
LINE
  5
3CC
100
AcDbEntity
  8
L1_130
  6
CONTINUOUS
 62
         7
100
AcDbLine
 10
1820.3100863613
 20
-0.2397624151
 30
0.0
 11
1820.8100863613
 21
-0.7397624151
 31
0.0
  0
LINE
  5
3CD
100
AcDbEntity
  8
L1_130
  6
CONTINUOUS
 62
         4
100
AcDbLine
 10
1820.3100863613
 20
-0.2397624151
 30
0.0
 11
1820.3100863613
 21
-7.6897624151
 31
0.0
  0
LINE
  5
3CE
100
AcDbEntity
  8
L1_130
  6
CONTINUOUS
 62
         7
100
AcDbLine
 10
1820.3100863613
 20
-0.2397624151
 30
0.0
 11
1816.4600863613
 21
-0.2397624151
 31
0.0
  0
ARC
  5
3CF
100
AcDbEntity
  8
L1_130
  6
CONTINUOUS
 62
         7
100
AcDbCircle
 10
1816.4600863613
 20
0.2602375849
 30
0.0
 40
0.5
100
AcDbArc
 50
180.0
 51
270.0
  0
LINE
  5
3D0
100
AcDbEntity
  8
L1_130
  6
CONTINUOUS
 62
         7
100
AcDbLine
 10
1820.3100863613
 20
10.2602375849
 30
0.0
 11
1816.4600863613
 21
10.2602375849
 31
0.0
  0
ARC
  5
3D1
100
AcDbEntity
  8
L1_130
  6
CONTINUOUS
 62
         7
100
AcDbCircle
 10
1816.4600863613
 20
9.7602375849
 30
0.0
 40
0.5
100
AcDbArc
 50
90.0
 51
180.0
  0
LINE
  5
3D2
100
AcDbEntity
  8
L1_130
  6
CONTINUOUS
 62
         7
100
AcDbLine
 10
1815.9600863613
 20
0.2602375849
 30
0.0
 11
1815.9600863613
 21
9.7602375849
 31
0.0
  0
LINE
  5
3D3
100
AcDbEntity
  8
L1_130
  6
CONTINUOUS
 62
         7
100
AcDbLine
 10
1815.9600863613
 20
-7.5897624151
 30
0.0
 11
1815.9600863613
 21
17.6102375849
 31
0.0
  0
LINE
  5
3D4
100
AcDbEntity
  8
L1_130
  6
CONTINUOUS
 62
         7
100
AcDbLine
 10
1814.4600863613
 20
-7.5897624151
 30
0.0
 11
1814.4600863613
 21
17.6102375849
 31
0.0
  0
LINE
  5
3D5
100
AcDbEntity
  8
L1_130
  6
CONTINUOUS
 62
         7
100
AcDbLine
 10
1789.3100863613
 20
-7.625187284
 30
0.0
 11
1789.3100863613
 21
17.6456624538
 31
0.0
  0
LINE
  5
3D6
100
AcDbEntity
  8
L1_130
  6
CONTINUOUS
 62
         4
100
AcDbLine
 10
1788.3100863613
 20
21.0102375849
 30
0.0
 11
1788.3100863613
 21
-10.9897624151
 31
0.0
  0
LINE
  5
3D7
100
AcDbEntity
  8
L1_130
  6
CONTINUOUS
 62
         7
100
AcDbLine
 10
1745.8100863613
 20
-9.2577116076
 30
0.0
 11
1745.8100863613
 21
19.2781867773
 31
0.0
  0
LINE
  5
3D8
100
AcDbEntity
  8
L1_130
  6
CONTINUOUS
 62
         7
100
AcDbLine
 10
1788.3100863613
 20
-10.9897624151
 30
0.0
 11
1748.4440609575
 21
-10.9897624151
 31
0.0
  0
LINE
  5
3D9
100
AcDbEntity
  8
L1_130
  6
CONTINUOUS
 62
         7
100
AcDbLine
 10
1788.3100863613
 20
21.0102375849
 30
0.0
 11
1748.4440609575
 21
21.0102375849
 31
0.0
  0
LINE
  5
3DA
100
AcDbEntity
  8
L1_130
  6
CONTINUOUS
 62
         7
100
AcDbLine
 10
1820.3100863613
 20
17.7102375849
 30
0.0
 11
1820.8100863613
 21
17.2102375849
 31
0.0
  0
LINE
  5
3DB
100
AcDbEntity
  8
L1_130
  6
CONTINUOUS
 62
         7
100
AcDbLine
 10
1820.8100863613
 20
-7.1897624151
 30
0.0
 11
1820.3100863613
 21
-7.6897624151
 31
0.0
  0
LINE
  5
3DC
100
AcDbEntity
  8
L1_130
  6
CONTINUOUS
 62
         7
100
AcDbLine
 10
1820.3100863613
 20
17.7102375849
 30
0.0
 11
1816.0600863613
 21
17.7102375849
 31
0.0
  0
LINE
  5
3DD
100
AcDbEntity
  8
L1_130
  6
CONTINUOUS
 62
         7
100
AcDbLine
 10
1820.3100863613
 20
-7.6897624151
 30
0.0
 11
1816.0600863613
 21
-7.6897624151
 31
0.0
  0
LINE
  5
3DE
100
AcDbEntity
  8
L1_130
  6
CONTINUOUS
 62
         7
100
AcDbLine
 10
1791.8100863613
 20
17.7102375849
 30
0.0
 11
1814.3600863613
 21
17.7102375849
 31
0.0
  0
LINE
  5
3DF
100
AcDbEntity
  8
L1_130
  6
CONTINUOUS
 62
         7
100
AcDbLine
 10
1814.3600863613
 20
-7.6897624151
 30
0.0
 11
1791.8100863613
 21
-7.6897624151
 31
0.0
  0
LINE
  5
3E0
100
AcDbEntity
  8
L1_130
  6
CONTINUOUS
 62
         7
100
AcDbLine
 10
1815.9600863613
 20
16.8102375849
 30
0.0
 11
1814.4600863613
 21
16.8102375849
 31
0.0
  0
LINE
  5
3E1
100
AcDbEntity
  8
L1_130
  6
CONTINUOUS
 62
         7
100
AcDbLine
 10
1815.9600863613
 20
-6.7897624151
 30
0.0
 11
1814.4600863613
 21
-6.7897624151
 31
0.0
  0
LINE
  5
3E2
100
AcDbEntity
  8
L1_130
  6
CONTINUOUS
 62
         7
100
AcDbLine
 10
1791.0110152007
 20
17.5102375849
 30
0.0
 11
1789.6100863613
 21
17.5102375849
 31
0.0
  0
LINE
  5
3E3
100
AcDbEntity
  8
L1_130
  6
CONTINUOUS
 62
         7
100
AcDbLine
 10
1791.1145428187
 20
17.5238672544
 30
0.0
 11
1791.8100863613
 21
17.7102375849
 31
0.0
  0
ARC
  5
3E4
100
AcDbEntity
  8
L1_130
  6
CONTINUOUS
 62
         7
100
AcDbCircle
 10
1791.0110152007
 20
17.9102375849
 30
0.0
 40
0.4
100
AcDbArc
 50
270.0
 51
285.0
  0
LINE
  5
3E5
100
AcDbEntity
  8
L1_130
  6
CONTINUOUS
 62
         7
100
AcDbLine
 10
1792.4465780344
 20
17.7102375849
 30
0.0
 11
1791.8100863613
 21
17.7102375849
 31
0.0
  0
LINE
  5
3E6
100
AcDbEntity
  8
L1_130
  6
CONTINUOUS
 62
         7
100
AcDbLine
 10
1789.2102254437
 20
17.8996902354
 30
0.0
 11
1789.3100863613
 21
18.6102375849
 31
0.0
  0
ARC
  5
3E7
100
AcDbEntity
  8
L1_130
  6
CONTINUOUS
 62
         7
100
AcDbCircle
 10
1789.6100863613
 20
17.9102375849
 30
0.0
 40
0.4
100
AcDbArc
 50
181.5109716561
 51
270.0
  0
LINE
  5
3E8
100
AcDbEntity
  8
L1_130
  6
CONTINUOUS
 62
         7
100
AcDbLine
 10
1789.3100863613
 20
18.6102375849
 30
0.0
 11
1789.3100863613
 21
20.0102375849
 31
0.0
  0
LINE
  5
3E9
100
AcDbEntity
  8
L1_130
  6
CONTINUOUS
 62
         7
100
AcDbLine
 10
1791.0110152007
 20
-7.4897624151
 30
0.0
 11
1789.6100863613
 21
-7.4897624151
 31
0.0
  0
LINE
  5
3EA
100
AcDbEntity
  8
L1_130
  6
CONTINUOUS
 62
         7
100
AcDbLine
 10
1791.1145428187
 20
-7.5033920846
 30
0.0
 11
1791.8100863613
 21
-7.6897624151
 31
0.0
  0
ARC
  5
3EB
100
AcDbEntity
  8
L1_130
  6
CONTINUOUS
 62
         7
100
AcDbCircle
 10
1791.0110152007
 20
-7.8897624151
 30
0.0
 40
0.4
100
AcDbArc
 50
75.0
 51
90.0
  0
LINE
  5
3EC
100
AcDbEntity
  8
L1_130
  6
CONTINUOUS
 62
         7
100
AcDbLine
 10
1792.4465780344
 20
-7.6897624151
 30
0.0
 11
1791.8100863613
 21
-7.6897624151
 31
0.0
  0
LINE
  5
3ED
100
AcDbEntity
  8
L1_130
  6
CONTINUOUS
 62
         7
100
AcDbLine
 10
1789.2102254437
 20
-7.8792150656
 30
0.0
 11
1789.3100863613
 21
-8.5897624151
 31
0.0
  0
ARC
  5
3EE
100
AcDbEntity
  8
L1_130
  6
CONTINUOUS
 62
         7
100
AcDbCircle
 10
1789.6100863613
 20
-7.8897624151
 30
0.0
 40
0.4
100
AcDbArc
 50
90.0
 51
178.4890283439
  0
LINE
  5
3EF
100
AcDbEntity
  8
L1_130
  6
CONTINUOUS
 62
         7
100
AcDbLine
 10
1789.3100863613
 20
-8.5897624151
 30
0.0
 11
1789.3100863613
 21
-9.9897624151
 31
0.0
  0
ARC
  5
3F0
100
AcDbEntity
  8
L1_130
  6
CONTINUOUS
 62
         7
100
AcDbCircle
 10
1771.9096994211
 20
5.0102375849
 30
0.0
 40
3.0
100
AcDbArc
 50
270.0
 51
450.0
  0
ARC
  5
3F1
100
AcDbEntity
  8
L1_130
  6
CONTINUOUS
 62
         7
100
AcDbCircle
 10
1759.0134757947
 20
5.0102375849
 30
0.0
 40
3.0
100
AcDbArc
 50
90.0
 51
270.0
  0
LINE
  5
3F2
100
AcDbEntity
  8
L1_130
  6
CONTINUOUS
 62
         7
100
AcDbLine
 10
1771.8565322432
 20
9.8502375849
 30
0.0
 11
1759.0666429727
 21
9.8502375849
 31
0.0
  0
LINE
  5
3F3
100
AcDbEntity
  8
L1_130
  6
CONTINUOUS
 62
         7
100
AcDbLine
 10
1771.8565322432
 20
0.1702375849
 30
0.0
 11
1759.0666429727
 21
0.1702375849
 31
0.0
  0
ARC
  5
3F4
100
AcDbEntity
  8
L1_130
  6
CONTINUOUS
 62
         7
100
AcDbCircle
 10
1759.0666429727
 20
5.0102375849
 30
0.0
 40
4.84
100
AcDbArc
 50
90.0
 51
270.0
  0
ARC
  5
3F5
100
AcDbEntity
  8
L1_130
  6
CONTINUOUS
 62
         7
100
AcDbCircle
 10
1771.8565322432
 20
5.0102375849
 30
0.0
 40
4.84
100
AcDbArc
 50
270.0
 51
450.0
  0
LINE
  5
3F6
100
AcDbEntity
  8
L1_130
  6
CONTINUOUS
 62
         4
100
AcDbLine
 10
1773.4459490526
 20
10.3502375849
 30
0.0
 11
1757.477226159
 21
10.3502375849
 31
0.0
  0
LINE
  5
3F7
100
AcDbEntity
  8
L1_130
  6
CONTINUOUS
 62
         4
100
AcDbLine
 10
1773.4459490526
 20
-0.3297624151
 30
0.0
 11
1757.477226159
 21
-0.3297624151
 31
0.0
  0
ARC
  5
3F8
100
AcDbEntity
  8
L1_130
  6
CONTINUOUS
 62
         4
100
AcDbCircle
 10
1773.4459490526
 20
5.0102375849
 30
0.0
 40
5.34
100
AcDbArc
 50
270.0
 51
450.0
  0
ARC
  5
3F9
100
AcDbEntity
  8
L1_130
  6
CONTINUOUS
 62
         4
100
AcDbCircle
 10
1757.477226159
 20
5.0102375849
 30
0.0
 40
5.34
100
AcDbArc
 50
90.0
 51
270.0
  0
LINE
  5
3FA
100
AcDbEntity
  8
L1_130
  6
CONTINUOUS
 62
         7
100
AcDbLine
 10
1814.3600863613
 20
17.7102375849
 30
0.0
 11
1814.4600863613
 21
17.6102375849
 31
0.0
  0
LINE
  5
3FB
100
AcDbEntity
  8
L1_130
  6
CONTINUOUS
 62
         7
100
AcDbLine
 10
1815.9600863613
 20
17.6102375849
 30
0.0
 11
1816.0600863613
 21
17.7102375849
 31
0.0
  0
LINE
  5
3FC
100
AcDbEntity
  8
L1_130
  6
CONTINUOUS
 62
         7
100
AcDbLine
 10
1814.4600863613
 20
-7.5897624151
 30
0.0
 11
1814.3600863613
 21
-7.6897624151
 31
0.0
  0
LINE
  5
3FD
100
AcDbEntity
  8
L1_130
  6
CONTINUOUS
 62
         7
100
AcDbLine
 10
1815.9600863613
 20
-7.5897624151
 30
0.0
 11
1816.0600863613
 21
-7.6897624151
 31
0.0
  0
DIMENSION
  5
400
100
AcDbEntity
  8
L1_130
  6
CONTINUOUS
 62
         4
100
AcDbDimension
  2
*D23
 10
1789.3100863613
 20
26.1407277142
 30
0.0
 11
1798.9664007624
 21
28.1657277142
 31
0.0
  3
DIMSTYLE2
100
AcDbAlignedDimension
 13
1789.3100863613
 23
20.0102375849
 33
0.0
 14
1820.8100863613
 24
17.2102375849
 34
0.0
100
AcDbRotatedDimension
  0
DIMENSION
  5
40E
100
AcDbEntity
  8
L1_130
  6
CONTINUOUS
 62
         4
100
AcDbDimension
  2
*D24
 10
1820.8100863613
 20
32.4082349494
 30
0.0
 11
1781.7775111362
 21
34.4332349494
 31
0.0
  3
DIMSTYLE2
100
AcDbAlignedDimension
 13
1820.8100863613
 23
17.2102375849
 33
0.0
 14
1745.8100863613
 24
20.0102375849
 34
0.0
100
AcDbRotatedDimension
  0
DIMENSION
  5
41C
100
AcDbEntity
  8
L1_130
  6
CONTINUOUS
 62
         4
100
AcDbDimension
  2
*D25
 10
1740.8879902541
 20
21.0102375849
 30
0.0
 11
1738.8629902541
 21
-2.0874244176
 31
0.0
  3
DIMSTYLE2
100
AcDbAlignedDimension
 13
1746.8100863613
 23
21.0102375849
 33
0.0
 14
1746.8100863613
 24
-10.9897624151
 34
0.0
 50
90.0
100
AcDbRotatedDimension
  0
DIMENSION
  5
42A
100
AcDbEntity
  8
L1_130
  6
CONTINUOUS
 62
         4
100
AcDbDimension
  2
*D26
 10
1827.6267096441
 20
10.2602375849
 30
0.0
 11
1825.6017096441
 21
-0.5173147975
 31
0.0
  3
DIMSTYLE2
100
AcDbAlignedDimension
 13
1820.3100863613
 23
10.2602375849
 33
0.0
 14
1820.3100863613
 24
-0.2397624151
 34
0.0
 50
90.0
100
AcDbRotatedDimension
  0
DIMENSION
  5
438
100
AcDbEntity
  8
L1_130
  6
CONTINUOUS
 62
         4
100
AcDbDimension
  2
*D27
 10
1834.347569642
 20
17.7102375849
 30
0.0
 11
1832.322569642
 21
-6.477386464
 31
0.0
  3
DIMSTYLE2
100
AcDbAlignedDimension
 13
1819.6100863613
 23
17.7102375849
 33
0.0
 14
1819.6100863613
 24
-7.6897624151
 34
0.0
 50
90.0
100
AcDbRotatedDimension
  0
LINE
  5
444
100
AcDbEntity
  8
L1_130
  6
CONTINUOUS
 62
         7
100
AcDbLine
 10
1851.5700863613
 20
-3.9897624151
 30
0.0
 11
1851.5700863613
 21
14.0102375849
 31
0.0
  0
LINE
  5
445
100
AcDbEntity
  8
L1_130
  6
CONTINUOUS
 62
         7
100
AcDbLine
 10
1855.5700863613
 20
14.5102375849
 30
0.0
 11
1852.0700863613
 21
14.5102375849
 31
0.0
  0
LINE
  5
446
100
AcDbEntity
  8
L1_130
  6
CONTINUOUS
 62
         7
100
AcDbLine
 10
1856.0700863613
 20
-3.9897624151
 30
0.0
 11
1856.0700863613
 21
14.0102375849
 31
0.0
  0
LINE
  5
447
100
AcDbEntity
  8
L1_130
  6
CONTINUOUS
 62
         7
100
AcDbLine
 10
1855.5700863613
 20
-4.4897624151
 30
0.0
 11
1852.0700863613
 21
-4.4897624151
 31
0.0
  0
LINE
  5
448
100
AcDbEntity
  8
L1_130
  6
CONTINUOUS
 62
         7
100
AcDbLine
 10
1863.6200863613
 20
-4.4897624151
 30
0.0
 11
1862.3200863613
 21
-4.4897624151
 31
0.0
  0
LINE
  5
449
100
AcDbEntity
  8
L1_130
  6
CONTINUOUS
 62
         7
100
AcDbLine
 10
1863.6200863613
 20
14.5102375849
 30
0.0
 11
1862.3200863613
 21
14.5102375849
 31
0.0
  0
LINE
  5
44A
100
AcDbEntity
  8
L1_130
  6
CONTINUOUS
 62
         7
100
AcDbLine
 10
1863.7200863613
 20
-4.3897624151
 30
0.0
 11
1863.7200863613
 21
14.4102375849
 31
0.0
  0
LINE
  5
44B
100
AcDbEntity
  8
L1_130
  6
CONTINUOUS
 62
         7
100
AcDbLine
 10
1862.2200863613
 20
-4.3897624151
 30
0.0
 11
1862.2200863613
 21
14.4102375849
 31
0.0
  0
LINE
  5
44C
100
AcDbEntity
  8
L1_130
  6
CONTINUOUS
 62
         7
100
AcDbLine
 10
1862.2200863613
 20
12.5102375849
 30
0.0
 11
1856.0700863613
 21
12.5102375849
 31
0.0
  0
LINE
  5
44D
100
AcDbEntity
  8
L1_130
  6
CONTINUOUS
 62
         7
100
AcDbLine
 10
1862.2200863613
 20
-2.4897624151
 30
0.0
 11
1856.0700863613
 21
-2.4897624151
 31
0.0
  0
LINE
  5
44E
100
AcDbEntity
  8
L1_130
  6
CONTINUOUS
 62
         7
100
AcDbLine
 10
1862.2200863613
 20
14.4102375849
 30
0.0
 11
1862.3200863613
 21
14.5102375849
 31
0.0
  0
LINE
  5
44F
100
AcDbEntity
  8
L1_130
  6
CONTINUOUS
 62
         7
100
AcDbLine
 10
1863.6200863613
 20
14.5102375849
 30
0.0
 11
1863.7200863613
 21
14.4102375849
 31
0.0
  0
LINE
  5
450
100
AcDbEntity
  8
L1_130
  6
CONTINUOUS
 62
         7
100
AcDbLine
 10
1862.2200863613
 20
-4.3897624151
 30
0.0
 11
1862.3200863613
 21
-4.4897624151
 31
0.0
  0
LINE
  5
451
100
AcDbEntity
  8
L1_130
  6
CONTINUOUS
 62
         7
100
AcDbLine
 10
1863.7200863613
 20
-4.3897624151
 30
0.0
 11
1863.6200863613
 21
-4.4897624151
 31
0.0
  0
LINE
  5
452
100
AcDbEntity
  8
L1_130
  6
CONTINUOUS
 62
         7
100
AcDbLine
 10
1851.5700863613
 20
-3.9897624151
 30
0.0
 11
1852.0700863613
 21
-4.4897624151
 31
0.0
  0
LINE
  5
453
100
AcDbEntity
  8
L1_130
  6
CONTINUOUS
 62
         7
100
AcDbLine
 10
1856.0700863613
 20
-3.9897624151
 30
0.0
 11
1855.5700863613
 21
-4.4897624151
 31
0.0
  0
LINE
  5
454
100
AcDbEntity
  8
L1_130
  6
CONTINUOUS
 62
         7
100
AcDbLine
 10
1856.0700863613
 20
14.0102375849
 30
0.0
 11
1855.5700863613
 21
14.5102375849
 31
0.0
  0
LINE
  5
455
100
AcDbEntity
  8
L1_130
  6
CONTINUOUS
 62
         7
100
AcDbLine
 10
1851.5700863613
 20
14.0102375849
 30
0.0
 11
1852.0700863613
 21
14.5102375849
 31
0.0
  0
LINE
  5
456
100
AcDbEntity
  8
L1_130
  6
CONTINUOUS
 62
         4
100
AcDbLine
 10
1852.0700863613
 20
-4.4897624151
 30
0.0
 11
1852.0700863613
 21
14.5102375849
 31
0.0
  0
LINE
  5
457
100
AcDbEntity
  8
L1_130
  6
CONTINUOUS
 62
         4
100
AcDbLine
 10
1855.5700863613
 20
-4.4897624151
 30
0.0
 11
1855.5700863613
 21
14.5102375849
 31
0.0
  0
LINE
  5
458
100
AcDbEntity
  8
L1_130
  6
CONTINUOUS
 62
         4
100
AcDbLine
 10
1862.3200863613
 20
-4.4897624151
 30
0.0
 11
1862.3200863613
 21
14.5102375849
 31
0.0
  0
LINE
  5
459
100
AcDbEntity
  8
L1_130
  6
CONTINUOUS
 62
         4
100
AcDbLine
 10
1863.6200863613
 20
-4.4897624151
 30
0.0
 11
1863.6200863613
 21
14.5102375849
 31
0.0
  0
DIMENSION
  5
45C
100
AcDbEntity
  8
L1_130
  6
CONTINUOUS
 62
         4
100
AcDbDimension
  2
*D28
 10
1848.2459875758
 20
14.5102375849
 30
0.0
 11
1846.2209875758
 21
-0.19015755
 31
0.0
  3
DIMSTYLE2
100
AcDbAlignedDimension
 13
1852.0700863613
 23
14.5102375849
 33
0.0
 14
1852.0700863613
 24
-4.4897624151
 34
0.0
 50
90.0
100
AcDbRotatedDimension
  0
DIMENSION
  5
46A
100
AcDbEntity
  8
L1_130
  6
CONTINUOUS
 62
         4
100
AcDbDimension
  2
*D29
 10
1851.5700863613
 20
23.0637127319
 30
0.0
 11
1851.1203945633
 21
25.0887127319
 31
0.0
  3
DIMSTYLE2
100
AcDbAlignedDimension
 13
1851.5700863613
 23
14.0102375849
 33
0.0
 14
1863.7200863613
 24
14.4102375849
 34
0.0
100
AcDbRotatedDimension
  0
DIMENSION
  5
478
100
AcDbEntity
  8
L1_130
  6
CONTINUOUS
 62
         4
100
AcDbDimension
  2
*D30
 10
1851.5700863613
 20
17.4616497409
 30
0.0
 11
1842.1838286309
 21
19.4866497409
 31
0.0
  3
DIMSTYLE2
100
AcDbAlignedDimension
 13
1851.5700863613
 23
14.2102375849
 33
0.0
 14
1856.0700863613
 24
14.2102375849
 34
0.0
100
AcDbRotatedDimension
  0
DIMENSION
  5
488
100
AcDbEntity
  8
L1_130
  6
CONTINUOUS
 62
         4
100
AcDbDimension
  2
*D31
 10
1862.2200863613
 20
19.525567685
 30
0.0
 11
1865.1424587136
 21
21.550567685
 31
0.0
  3
DIMSTYLE2
100
AcDbAlignedDimension
 13
1862.2200863613
 23
14.4102375849
 33
0.0
 14
1863.7200863613
 24
14.4102375849
 34
0.0
100
AcDbRotatedDimension
  0
LINE
  5
496
100
AcDbEntity
  8
L1_130
  6
CONTINUOUS
 62
         4
100
AcDbLine
 10
1884.1100863613
 20
-11.9897624151
 30
0.0
 11
1884.1100863613
 21
22.0102375849
 31
0.0
  0
LINE
  5
497
100
AcDbEntity
  8
L1_130
  6
CONTINUOUS
 62
         7
100
AcDbLine
 10
1883.6100863613
 20
21.7215624503
 30
0.0
 11
1884.1100863613
 21
22.0102375849
 31
0.0
  0
LINE
  5
498
100
AcDbEntity
  8
L1_130
  6
CONTINUOUS
 62
         7
100
AcDbLine
 10
1883.6100863613
 20
-11.7010872805
 30
0.0
 11
1884.1100863613
 21
-11.9897624151
 31
0.0
  0
LINE
  5
499
100
AcDbEntity
  8
L1_130
  6
CONTINUOUS
 62
         4
100
AcDbLine
 10
1905.6100863613
 20
-11.9897624151
 30
0.0
 11
1905.6100863613
 21
22.0102375849
 31
0.0
  0
LINE
  5
49A
100
AcDbEntity
  8
L1_130
  6
CONTINUOUS
 62
         4
100
AcDbLine
 10
1908.6100863613
 20
-14.4897624151
 30
0.0
 11
1908.6100863613
 21
24.5102375849
 31
0.0
  0
LINE
  5
49B
100
AcDbEntity
  8
L1_130
  6
CONTINUOUS
 62
         4
100
AcDbLine
 10
1914.6100863613
 20
24.5102375849
 30
0.0
 11
1914.6100863613
 21
-14.4897624151
 31
0.0
  0
LINE
  5
49C
100
AcDbEntity
  8
L1_130
  6
CONTINUOUS
 62
         7
100
AcDbLine
 10
1905.6100863613
 20
-11.9897624151
 30
0.0
 11
1884.1100863613
 21
-11.9897624151
 31
0.0
  0
LINE
  5
49D
100
AcDbEntity
  8
L1_130
  6
CONTINUOUS
 62
         7
100
AcDbLine
 10
1883.6100863613
 20
21.7215624503
 30
0.0
 11
1883.6100863613
 21
-11.7010872805
 31
0.0
  0
LINE
  5
49E
100
AcDbEntity
  8
L1_130
  6
CONTINUOUS
 62
         7
100
AcDbLine
 10
1905.6100863613
 20
22.0102375849
 30
0.0
 11
1884.1100863613
 21
22.0102375849
 31
0.0
  0
LINE
  5
49F
100
AcDbEntity
  8
L1_130
  6
CONTINUOUS
 62
         7
100
AcDbLine
 10
1915.1100863613
 20
-13.9897624151
 30
0.0
 11
1914.6100863613
 21
-14.4897624151
 31
0.0
  0
LINE
  5
4A0
100
AcDbEntity
  8
L1_130
  6
CONTINUOUS
 62
         7
100
AcDbLine
 10
1914.6100863613
 20
-14.4897624151
 30
0.0
 11
1908.6100863613
 21
-14.4897624151
 31
0.0
  0
LINE
  5
4A1
100
AcDbEntity
  8
L1_130
  6
CONTINUOUS
 62
         7
100
AcDbLine
 10
1915.1100863613
 20
-13.9897624151
 30
0.0
 11
1915.1100863613
 21
24.0102375849
 31
0.0
  0
LINE
  5
4A2
100
AcDbEntity
  8
L1_130
  6
CONTINUOUS
 62
         7
100
AcDbLine
 10
1908.1100863613
 20
-13.9897624151
 30
0.0
 11
1908.6100863613
 21
-14.4897624151
 31
0.0
  0
LINE
  5
4A3
100
AcDbEntity
  8
L1_130
  6
CONTINUOUS
 62
         7
100
AcDbLine
 10
1908.1100863613
 20
-11.925187284
 30
0.0
 11
1908.1100863613
 21
21.9456624538
 31
0.0
  0
LINE
  5
4A4
100
AcDbEntity
  8
L1_130
  6
CONTINUOUS
 62
         7
100
AcDbLine
 10
1914.6100863613
 20
24.5102375849
 30
0.0
 11
1915.1100863613
 21
24.0102375849
 31
0.0
  0
LINE
  5
4A5
100
AcDbEntity
  8
L1_130
  6
CONTINUOUS
 62
         7
100
AcDbLine
 10
1914.6100863613
 20
24.5102375849
 30
0.0
 11
1908.6100863613
 21
24.5102375849
 31
0.0
  0
LINE
  5
4A6
100
AcDbEntity
  8
L1_130
  6
CONTINUOUS
 62
         7
100
AcDbLine
 10
1908.6100863613
 20
24.5102375849
 30
0.0
 11
1908.1100863613
 21
24.0102375849
 31
0.0
  0
LINE
  5
4A7
100
AcDbEntity
  8
L1_130
  6
CONTINUOUS
 62
         7
100
AcDbLine
 10
1906.4091575218
 20
21.8102375849
 30
0.0
 11
1907.8100863613
 21
21.8102375849
 31
0.0
  0
LINE
  5
4A8
100
AcDbEntity
  8
L1_130
  6
CONTINUOUS
 62
         7
100
AcDbLine
 10
1906.3056299038
 20
21.8238672544
 30
0.0
 11
1905.6100863613
 21
22.0102375849
 31
0.0
  0
ARC
  5
4A9
100
AcDbEntity
  8
L1_130
  6
CONTINUOUS
 62
         7
100
AcDbCircle
 10
1906.4091575218
 20
22.2102375849
 30
0.0
 40
0.4
100
AcDbArc
 50
255.0
 51
270.0
  0
LINE
  5
4AA
100
AcDbEntity
  8
L1_130
  6
CONTINUOUS
 62
         7
100
AcDbLine
 10
1904.9735946882
 20
22.0102375849
 30
0.0
 11
1905.6100863613
 21
22.0102375849
 31
0.0
  0
LINE
  5
4AB
100
AcDbEntity
  8
L1_130
  6
CONTINUOUS
 62
         7
100
AcDbLine
 10
1908.2099472788
 20
22.1996902354
 30
0.0
 11
1908.1100863613
 21
22.9102375849
 31
0.0
  0
ARC
  5
4AC
100
AcDbEntity
  8
L1_130
  6
CONTINUOUS
 62
         7
100
AcDbCircle
 10
1907.8100863613
 20
22.2102375849
 30
0.0
 40
0.4
100
AcDbArc
 50
270.0
 51
358.4890283439
  0
LINE
  5
4AD
100
AcDbEntity
  8
L1_130
  6
CONTINUOUS
 62
         7
100
AcDbLine
 10
1908.1100863613
 20
22.9102375849
 30
0.0
 11
1908.1100863613
 21
24.0102375849
 31
0.0
  0
LINE
  5
4AE
100
AcDbEntity
  8
L1_130
  6
CONTINUOUS
 62
         7
100
AcDbLine
 10
1906.4091575218
 20
-11.7897624151
 30
0.0
 11
1907.8100863613
 21
-11.7897624151
 31
0.0
  0
LINE
  5
4AF
100
AcDbEntity
  8
L1_130
  6
CONTINUOUS
 62
         7
100
AcDbLine
 10
1906.3056299038
 20
-11.8033920846
 30
0.0
 11
1905.6100863613
 21
-11.9897624151
 31
0.0
  0
ARC
  5
4B0
100
AcDbEntity
  8
L1_130
  6
CONTINUOUS
 62
         7
100
AcDbCircle
 10
1906.4091575218
 20
-12.1897624151
 30
0.0
 40
0.4
100
AcDbArc
 50
90.0
 51
105.0
  0
LINE
  5
4B1
100
AcDbEntity
  8
L1_130
  6
CONTINUOUS
 62
         7
100
AcDbLine
 10
1904.9735946882
 20
-11.9897624151
 30
0.0
 11
1905.6100863613
 21
-11.9897624151
 31
0.0
  0
LINE
  5
4B2
100
AcDbEntity
  8
L1_130
  6
CONTINUOUS
 62
         7
100
AcDbLine
 10
1908.2099472788
 20
-12.1792150656
 30
0.0
 11
1908.1100863613
 21
-12.8897624151
 31
0.0
  0
ARC
  5
4B3
100
AcDbEntity
  8
L1_130
  6
CONTINUOUS
 62
         7
100
AcDbCircle
 10
1907.8100863613
 20
-12.1897624151
 30
0.0
 40
0.4
100
AcDbArc
 50
1.5109716561
 51
90.0
  0
LINE
  5
4B4
100
AcDbEntity
  8
L1_130
  6
CONTINUOUS
 62
         7
100
AcDbLine
 10
1908.1100863613
 20
-12.8897624151
 30
0.0
 11
1908.1100863613
 21
-13.9897624151
 31
0.0
  0
DIMENSION
  5
4B7
100
AcDbEntity
  8
L1_130
  6
CONTINUOUS
 62
         4
100
AcDbDimension
  2
*D32
 10
1880.8624754977
 20
22.0102375849
 30
0.0
 11
1878.8374754977
 21
-6.1675468895
 31
0.0
  3
DIMSTYLE2
100
AcDbAlignedDimension
 13
1883.8100863613
 23
22.0102375849
 33
0.0
 14
1883.8100863613
 24
-11.9897624151
 34
0.0
 50
90.0
100
AcDbRotatedDimension
  0
DIMENSION
  5
4C5
100
AcDbEntity
  8
L1_130
  6
CONTINUOUS
 62
         4
100
AcDbDimension
  2
*D33
 10
1922.0524120326
 20
24.5102375849
 30
0.0
 11
1920.0274120326
 21
0.5412297516
 31
0.0
  3
DIMSTYLE2
100
AcDbAlignedDimension
 13
1914.6100863613
 23
24.5102375849
 33
0.0
 14
1914.6100863613
 24
-14.4897624151
 34
0.0
 50
90.0
100
AcDbRotatedDimension
  0
DIMENSION
  5
4D3
100
AcDbEntity
  8
L1_130
  6
CONTINUOUS
 62
         4
100
AcDbDimension
  2
*D34
 10
1915.1100863613
 20
27.7613036362
 30
0.0
 11
1910.3048654758
 21
29.7863036362
 31
0.0
  3
DIMSTYLE2
100
AcDbAlignedDimension
 13
1915.1100863613
 23
24.0102375849
 33
0.0
 14
1908.1100863613
 24
24.0102375849
 34
0.0
100
AcDbRotatedDimension
  0
DIMENSION
  5
4E1
100
AcDbEntity
  8
L1_130
  6
CONTINUOUS
 62
         4
100
AcDbDimension
  2
*D35
 10
1915.1100863613
 20
34.4715494447
 30
0.0
 11
1892.8850172235
 21
36.4965494447
 31
0.0
  3
DIMSTYLE2
100
AcDbAlignedDimension
 13
1915.1100863613
 23
24.0102375849
 33
0.0
 14
1883.6100863613
 24
21.8102375849
 34
0.0
100
AcDbRotatedDimension
  0
LINE
  5
4ED
100
AcDbEntity
  8
L1_130
  6
CENTER
 62
         1
100
AcDbLine
 10
1929.3665295881
 20
5.0102375849
 30
0.0
 11
1631.4674258941
 21
5.0102375849
 31
0.0
  0
CIRCLE
  5
4EE
100
AcDbEntity
  8
L1_130
  6
CONTINUOUS
 62
         7
100
AcDbCircle
 10
1771.2749368568
 20
-46.1721196152
 30
0.0
 40
4.7625
  0
LINE
  5
4EF
100
AcDbEntity
  8
L1_130
  6
CONTINUOUS
 62
         7
100
AcDbLine
 10
1656.516626319
 20
-42.1966196152
 30
0.0
 11
1655.541126319
 21
-43.1721196152
 31
0.0
  0
LINE
  5
4F0
100
AcDbEntity
  8
L1_130
  6
CONTINUOUS
 62
         7
100
AcDbLine
 10
1656.516626319
 20
-50.1476196152
 30
0.0
 11
1655.541126319
 21
-49.1721196152
 31
0.0
  0
LINE
  5
4F1
100
AcDbEntity
  8
L1_130
  6
CONTINUOUS
 62
         7
100
AcDbLine
 10
1655.541126319
 20
-49.1721196152
 30
0.0
 11
1655.541126319
 21
-43.1721196152
 31
0.0
  0
LINE
  5
4F2
100
AcDbEntity
  8
L1_130
  6
CONTINUOUS
 62
         4
100
AcDbLine
 10
1656.516626319
 20
-42.1966196152
 30
0.0
 11
1656.516626319
 21
-50.1476196152
 31
0.0
  0
LINE
  5
4F3
100
AcDbEntity
  8
L1_130
  6
CONTINUOUS
 62
         7
100
AcDbLine
 10
1655.541126319
 20
-43.1721196152
 30
0.0
 11
1644.791126319
 21
-43.1721196152
 31
0.0
  0
LINE
  5
4F4
100
AcDbEntity
  8
L1_130
  6
CONTINUOUS
 62
         7
100
AcDbLine
 10
1644.791126319
 20
-43.1721196152
 30
0.0
 11
1644.291126319
 21
-43.6721196152
 31
0.0
  0
LINE
  5
4F5
100
AcDbEntity
  8
L1_130
  6
CONTINUOUS
 62
         7
100
AcDbLine
 10
1644.291126319
 20
-48.6721196152
 30
0.0
 11
1644.291126319
 21
-43.6721196152
 31
0.0
  0
LINE
  5
4F6
100
AcDbEntity
  8
L1_130
  6
CONTINUOUS
 62
         7
100
AcDbLine
 10
1644.791126319
 20
-49.1721196152
 30
0.0
 11
1644.291126319
 21
-48.6721196152
 31
0.0
  0
LINE
  5
4F7
100
AcDbEntity
  8
L1_130
  6
CONTINUOUS
 62
         7
100
AcDbLine
 10
1655.541126319
 20
-49.1721196152
 30
0.0
 11
1644.791126319
 21
-49.1721196152
 31
0.0
  0
LINE
  5
4F8
100
AcDbEntity
  8
L1_130
  6
CONTINUOUS
 62
         4
100
AcDbLine
 10
1655.541126319
 20
-43.6721196152
 30
0.0
 11
1644.291126319
 21
-43.6721196152
 31
0.0
  0
LINE
  5
4F9
100
AcDbEntity
  8
L1_130
  6
CONTINUOUS
 62
         4
100
AcDbLine
 10
1655.541126319
 20
-48.6721196152
 30
0.0
 11
1644.291126319
 21
-48.6721196152
 31
0.0
  0
LINE
  5
4FA
100
AcDbEntity
  8
L1_130
  6
CONTINUOUS
 62
         7
100
AcDbLine
 10
1691.041126319
 20
-39.6721196152
 30
0.0
 11
1690.541126319
 21
-40.1721196152
 31
0.0
  0
LINE
  5
4FB
100
AcDbEntity
  8
L1_130
  6
CONTINUOUS
 62
         7
100
AcDbLine
 10
1690.541126319
 20
-52.1721196152
 30
0.0
 11
1690.541126319
 21
-40.1721196152
 31
0.0
  0
LINE
  5
4FC
100
AcDbEntity
  8
L1_130
  6
CONTINUOUS
 62
         7
100
AcDbLine
 10
1690.541126319
 20
-52.1721196152
 30
0.0
 11
1691.041126319
 21
-52.6721196152
 31
0.0
  0
LINE
  5
4FD
100
AcDbEntity
  8
L1_130
  6
CONTINUOUS
 62
         7
100
AcDbLine
 10
1695.541126319
 20
-52.6721196152
 30
0.0
 11
1691.041126319
 21
-52.6721196152
 31
0.0
  0
LINE
  5
4FE
100
AcDbEntity
  8
L1_130
  6
CONTINUOUS
 62
         7
100
AcDbLine
 10
1696.041126319
 20
-52.1721196152
 30
0.0
 11
1695.541126319
 21
-52.6721196152
 31
0.0
  0
LINE
  5
4FF
100
AcDbEntity
  8
L1_130
  6
CONTINUOUS
 62
         7
100
AcDbLine
 10
1696.041126319
 20
-52.1721196152
 30
0.0
 11
1696.041126319
 21
-40.1721196152
 31
0.0
  0
LINE
  5
500
100
AcDbEntity
  8
L1_130
  6
CONTINUOUS
 62
         7
100
AcDbLine
 10
1695.541126319
 20
-39.6721196152
 30
0.0
 11
1691.041126319
 21
-39.6721196152
 31
0.0
  0
LINE
  5
501
100
AcDbEntity
  8
L1_130
  6
CONTINUOUS
 62
         7
100
AcDbLine
 10
1696.041126319
 20
-40.1721196152
 30
0.0
 11
1695.541126319
 21
-39.6721196152
 31
0.0
  0
LINE
  5
502
100
AcDbEntity
  8
L1_130
  6
CONTINUOUS
 62
         7
100
AcDbLine
 10
1690.541126319
 20
-42.1966196152
 30
0.0
 11
1656.516626319
 21
-42.1966196152
 31
0.0
  0
LINE
  5
503
100
AcDbEntity
  8
L1_130
  6
CONTINUOUS
 62
         7
100
AcDbLine
 10
1690.541126319
 20
-50.1476196152
 30
0.0
 11
1656.516626319
 21
-50.1476196152
 31
0.0
  0
LINE
  5
504
100
AcDbEntity
  8
L1_130
  6
CONTINUOUS
 62
         4
100
AcDbLine
 10
1695.541126319
 20
-39.6721196152
 30
0.0
 11
1695.541126319
 21
-52.6721196152
 31
0.0
  0
LINE
  5
505
100
AcDbEntity
  8
L1_130
  6
CONTINUOUS
 62
         4
100
AcDbLine
 10
1691.041126319
 20
-39.6721196152
 30
0.0
 11
1691.041126319
 21
-52.6721196152
 31
0.0
  0
DIMENSION
  5
508
100
AcDbEntity
  8
L1_130
  6
CONTINUOUS
 62
         4
100
AcDbDimension
  2
*D36
 10
1644.291126319
 20
-56.8850995244
 30
0.0
 11
1643.166126319
 21
-54.8600995244
 31
0.0
  3
DIMSTYLE2
100
AcDbAlignedDimension
 13
1644.291126319
 23
-48.6721196152
 33
0.0
 14
1655.541126319
 24
-49.1721196152
 34
0.0
100
AcDbRotatedDimension
  0
DIMENSION
  5
516
100
AcDbEntity
  8
L1_130
  6
CONTINUOUS
 62
         4
100
AcDbDimension
  2
*D37
 10
1668.546954719
 20
-42.1966196152
 30
0.0
 11
1666.521954719
 21
-55.6221196152
 31
0.0
  3
DIMSTYLE2
100
AcDbAlignedDimension
 13
1656.516626319
 23
-42.1966196152
 33
0.0
 14
1656.516626319
 24
-50.1476196152
 34
0.0
 50
90.0
100
AcDbRotatedDimension
  0
LINE
  5
522
100
AcDbEntity
  8
L1_130
  6
CONTINUOUS
 62
         7
100
AcDbLine
 10
1810.6108778809
 20
-38.4221196152
 30
0.0
 11
1809.6108778809
 21
-38.4221196152
 31
0.0
  0
LINE
  5
523
100
AcDbEntity
  8
L1_130
  6
CONTINUOUS
 62
         7
100
AcDbLine
 10
1810.6108778809
 20
-53.9221196152
 30
0.0
 11
1809.6108778809
 21
-53.9221196152
 31
0.0
  0
LINE
  5
524
100
AcDbEntity
  8
L1_130
  6
CONTINUOUS
 62
         7
100
AcDbLine
 10
1810.6108778809
 20
-35.9221196152
 30
0.0
 11
1809.6108778809
 21
-35.9221196152
 31
0.0
  0
LINE
  5
525
100
AcDbEntity
  8
L1_130
  6
CONTINUOUS
 62
         7
100
AcDbLine
 10
1810.6108778809
 20
-56.4221196152
 30
0.0
 11
1809.6108778809
 21
-56.4221196152
 31
0.0
  0
LINE
  5
526
100
AcDbEntity
  8
L1_130
  6
CONTINUOUS
 62
         7
100
AcDbLine
 10
1810.6108778809
 20
-56.4221196152
 30
0.0
 11
1810.6108778809
 21
-35.9221196152
 31
0.0
  0
LINE
  5
527
100
AcDbEntity
  8
L1_130
  6
CONTINUOUS
 62
         7
100
AcDbLine
 10
1809.6108778809
 20
-56.4221196152
 30
0.0
 11
1809.6108778809
 21
-35.9221196152
 31
0.0
  0
TEXT
  5
529
100
AcDbEntity
  8
L1_130
  6
CONTINUOUS
 62
         4
100
AcDbText
 10
1812.6529465333
 20
-22.6438608854
 30
0.0
 40
1.7
  1
%%p 0.05
  7
BOX
100
AcDbText
  0
DIMENSION
  5
52C
100
AcDbEntity
  8
L1_130
  6
CONTINUOUS
 62
         4
100
AcDbDimension
  2
*D38
 10
1829.2782396055
 20
-24.6721196152
 30
0.0
 11
1827.2532396055
 21
-51.5721196152
 31
0.0
  3
DIMSTYLE2
100
AcDbAlignedDimension
 13
1838.5457706463
 23
-24.6721196152
 33
0.0
 14
1838.5457706463
 24
-67.6721196152
 34
0.0
 50
90.0
100
AcDbRotatedDimension
  0
TEXT
  5
539
100
AcDbEntity
  8
L1_130
  6
CONTINUOUS
 62
         4
100
AcDbText
 10
1800.1387324115
 20
-37.1304524445
 30
0.0
 40
1.7
  1
%%p 0.2
 50
90.0
  7
BOX
100
AcDbText
  0
DIMENSION
  5
53C
100
AcDbEntity
  8
L1_130
  6
CONTINUOUS
 62
         4
100
AcDbDimension
  2
*D39
 10
1802.5364257879
 20
-35.9221196152
 30
0.0
 11
1800.5114257879
 21
-54.2721196152
 31
0.0
  3
DIMSTYLE2
100
AcDbAlignedDimension
 13
1809.6108778809
 23
-35.9221196152
 33
0.0
 14
1809.6108778809
 24
-56.4221196152
 34
0.0
 50
90.0
100
AcDbRotatedDimension
  0
CIRCLE
  5
548
100
AcDbEntity
  8
L1_130
  6
CONTINUOUS
 62
         7
100
AcDbCircle
 10
1838.5457706463
 20
-25.6721196152
 30
0.0
 40
1.0
  0
CIRCLE
  5
549
100
AcDbEntity
  8
L1_130
  6
CONTINUOUS
 62
         7
100
AcDbCircle
 10
1838.5457706463
 20
-66.6721196152
 30
0.0
 40
1.0
  0
LINE
  5
54A
100
AcDbEntity
  8
L1_130
  6
CONTINUOUS
 62
         7
100
AcDbLine
 10
1839.5457706463
 20
-66.6721196152
 30
0.0
 11
1839.5457706463
 21
-25.6721196152
 31
0.0
  0
LINE
  5
54B
100
AcDbEntity
  8
L1_130
  6
CONTINUOUS
 62
         7
100
AcDbLine
 10
1837.5457706463
 20
-66.6721196152
 30
0.0
 11
1837.5457706463
 21
-25.6721196152
 31
0.0
  0
DIMENSION
  5
54E
100
AcDbEntity
  8
L1_130
  6
CONTINUOUS
 62
         4
100
AcDbDimension
  2
*D40
 10
1766.6581835821
 20
-47.3413054221
 30
0.0
 11
1776.6055737813
 21
-43.0890222193
 31
0.0
 70
         3
  3
DIMSTYLE2
100
AcDbDiametricDimension
 15
1775.8916901314
 25
-45.0029338083
 35
0.0
 40
0.0
  0
LINE
  5
559
100
AcDbEntity
  8
L1_130
  6
CENTER
 62
         1
100
AcDbLine
 10
1921.3420507326
 20
-46.1721196152
 30
0.0
 11
1620.1150964068
 21
-46.1721196152
 31
0.0
  0
DIMENSION
  5
55C
100
AcDbEntity
  8
L1_130
  6
CONTINUOUS
 62
         4
100
AcDbDimension
  2
*D41
 10
1655.541126319
 20
-36.7725129518
 30
0.0
 11
1669.1492316
 21
-34.7475129518
 31
0.0
  3
DIMSTYLE2
100
AcDbAlignedDimension
 13
1655.541126319
 23
-43.1721196152
 33
0.0
 14
1690.541126319
 24
-40.1721196152
 34
0.0
100
AcDbRotatedDimension
  0
DIMENSION
  5
56A
100
AcDbEntity
  8
L1_130
  6
CONTINUOUS
 62
         4
100
AcDbDimension
  2
*D42
 10
1720.2941721244
 20
-44.1721196152
 30
0.0
 11
1718.2691721244
 21
-47.5221196152
 31
0.0
  3
DIMSTYLE2
100
AcDbAlignedDimension
 13
1712.6046341425
 23
-44.1721196152
 33
0.0
 14
1712.6046341425
 24
-48.1721196152
 34
0.0
 50
90.0
100
AcDbRotatedDimension
  0
LINE
  5
576
100
AcDbEntity
  8
L1_130
  6
CONTINUOUS
 62
         7
100
AcDbLine
 10
1712.6046341425
 20
-48.1721196152
 30
0.0
 11
1713.7593346808
 21
-46.1721196152
 31
0.0
  0
LINE
  5
577
100
AcDbEntity
  8
L1_130
  6
CONTINUOUS
 62
         7
100
AcDbLine
 10
1713.7593346808
 20
-46.1721196152
 30
0.0
 11
1712.6046341425
 21
-44.1721196152
 31
0.0
  0
LINE
  5
578
100
AcDbEntity
  8
L1_130
  6
CONTINUOUS
 62
         7
100
AcDbLine
 10
1712.6046341425
 20
-44.1721196152
 30
0.0
 11
1710.2952330657
 21
-44.1721196152
 31
0.0
  0
LINE
  5
579
100
AcDbEntity
  8
L1_130
  6
CONTINUOUS
 62
         7
100
AcDbLine
 10
1710.2952330657
 20
-44.1721196152
 30
0.0
 11
1709.1405325273
 21
-46.1721196152
 31
0.0
  0
LINE
  5
57A
100
AcDbEntity
  8
L1_130
  6
CONTINUOUS
 62
         7
100
AcDbLine
 10
1709.1405325273
 20
-46.1721196152
 30
0.0
 11
1710.2952330657
 21
-48.1721196152
 31
0.0
  0
LINE
  5
57B
100
AcDbEntity
  8
L1_130
  6
CONTINUOUS
 62
         7
100
AcDbLine
 10
1710.2952330657
 20
-48.1721196152
 30
0.0
 11
1712.6046341425
 21
-48.1721196152
 31
0.0
  0
DIMENSION
  5
57E
100
AcDbEntity
  8
L1_130
  6
CONTINUOUS
 62
         4
100
AcDbDimension
  2
*D43
 10
1709.1405325273
 20
-37.84906649
 30
0.0
 11
1699.2999336041
 21
-35.82406649
 31
0.0
  3
DIMSTYLE2
100
AcDbAlignedDimension
 13
1709.1405325273
 23
-46.1721196152
 33
0.0
 14
1713.7593346808
 24
-46.1721196152
 34
0.0
100
AcDbRotatedDimension
  0
DIMENSION
  5
58C
100
AcDbEntity
  8
L1_130
  6
CONTINUOUS
 62
         4
100
AcDbDimension
  2
*D44
 10
1703.0753561217
 20
-39.6721196152
 30
0.0
 11
1701.0503561217
 21
-51.7527020205
 31
0.0
  3
DIMSTYLE2
100
AcDbAlignedDimension
 13
1695.541126319
 23
-39.6721196152
 33
0.0
 14
1695.541126319
 24
-52.6721196152
 34
0.0
 50
90.0
100
AcDbRotatedDimension
  0
DIMENSION
  5
59A
100
AcDbEntity
  8
L1_130
  6
CONTINUOUS
 62
         4
100
AcDbDimension
  2
*D45
 10
1855.912424284
 20
-35.7721196152
 30
0.0
 11
1853.887424284
 21
-51.5721196152
 31
0.0
  3
DIMSTYLE2
100
AcDbAlignedDimension
 13
1859.8457706463
 23
-35.7721196152
 33
0.0
 14
1859.8457706463
 24
-56.5721196152
 34
0.0
 50
90.0
100
AcDbRotatedDimension
  0
LINE
  5
5A6
100
AcDbEntity
  8
L1_130
  6
CONTINUOUS
 62
         7
100
AcDbLine
 10
1860.5957706463
 20
-55.8221196152
 30
0.0
 11
1860.5957706463
 21
-36.5221196152
 31
0.0
  0
LINE
  5
5A7
100
AcDbEntity
  8
L1_130
  6
CONTINUOUS
 62
         7
100
AcDbLine
 10
1859.0957706463
 20
-55.8221196152
 30
0.0
 11
1859.0957706463
 21
-36.5221196152
 31
0.0
  0
CIRCLE
  5
5A8
100
AcDbEntity
  8
L1_130
  6
CONTINUOUS
 62
         7
100
AcDbCircle
 10
1859.8457706463
 20
-55.8221196152
 30
0.0
 40
0.75
  0
CIRCLE
  5
5A9
100
AcDbEntity
  8
L1_130
  6
CONTINUOUS
 62
         7
100
AcDbCircle
 10
1859.8457706463
 20
-36.5221196152
 30
0.0
 40
0.75
  0
DIMENSION
  5
5AC
100
AcDbEntity
  8
L1_130
  6
CONTINUOUS
 62
         4
100
AcDbDimension
  2
*D46
 10
1884.1907980902
 20
-32.4221196152
 30
0.0
 11
1882.1657980902
 21
-54.2721196152
 31
0.0
  3
DIMSTYLE2
100
AcDbAlignedDimension
 13
1888.2957706463
 23
-32.4221196152
 33
0.0
 14
1888.2957706463
 24
-59.9221196152
 34
0.0
 50
90.0
100
AcDbRotatedDimension
  0
LINE
  5
5B8
100
AcDbEntity
  8
L1_130
  6
CONTINUOUS
 62
         7
100
AcDbLine
 10
1887.5457706463
 20
-59.1721196152
 30
0.0
 11
1887.5457706463
 21
-33.1721196152
 31
0.0
  0
CIRCLE
  5
5B9
100
AcDbEntity
  8
L1_130
  6
CONTINUOUS
 62
         7
100
AcDbCircle
 10
1888.2957706463
 20
-33.1721196152
 30
0.0
 40
0.75
  0
LINE
  5
5BA
100
AcDbEntity
  8
L1_130
  6
CONTINUOUS
 62
         7
100
AcDbLine
 10
1889.0457706463
 20
-59.1721196152
 30
0.0
 11
1889.0457706463
 21
-33.1721196152
 31
0.0
  0
CIRCLE
  5
5BB
100
AcDbEntity
  8
L1_130
  6
CONTINUOUS
 62
         7
100
AcDbCircle
 10
1888.2957706463
 20
-59.1721196152
 30
0.0
 40
0.75
  0
CIRCLE
  5
5BC
100
AcDbEntity
  8
L1_130
  6
CONTINUOUS
 62
         7
100
AcDbCircle
 10
1739.3396763765
 20
-46.1721196152
 30
0.0
 40
2.381
  0
DIMENSION
  5
5BF
100
AcDbEntity
  8
L1_130
  6
CONTINUOUS
 62
         4
100
AcDbDimension
  2
*D47
 10
1838.1162293589
 20
-24.7690723947
 30
0.0
 11
1841.2522494512
 21
-27.8101281867
 31
0.0
 70
         3
  3
DIMSTYLE2
100
AcDbDiametricDimension
 15
1838.9753119338
 25
-26.5751668357
 35
0.0
 40
0.0
  0
DIMENSION
  5
5CC
100
AcDbEntity
  8
L1_130
  6
CONTINUOUS
 62
         4
100
AcDbDimension
  2
*D48
 10
1859.3428612263
 20
-35.9657185771
 30
0.0
 11
1863.4136900538
 21
-38.0425475997
 31
0.0
 70
         3
  3
DIMSTYLE2
100
AcDbDiametricDimension
 15
1860.3486800664
 25
-37.0785206533
 35
0.0
 40
0.0
  0
DIMENSION
  5
5D9
100
AcDbEntity
  8
L1_130
  6
CONTINUOUS
 62
         4
100
AcDbDimension
  2
*D49
 10
1887.931994506
 20
-32.5162485
 30
0.0
 11
1890.9326375864
 21
-34.6186075739
 31
0.0
 70
         3
  3
DIMSTYLE2
100
AcDbDiametricDimension
 15
1888.6595467867
 25
-33.8279907304
 35
0.0
 40
0.0
  0
DIMENSION
  5
5E6
100
AcDbEntity
  8
L1_130
  6
CONTINUOUS
 62
         4
100
AcDbDimension
  2
*D50
 10
1809.6108778809
 20
-25.0811477133
 30
0.0
 11
1808.7608778809
 21
-23.0561477133
 31
0.0
  3
DIMSTYLE2
100
AcDbAlignedDimension
 13
1809.6108778809
 23
-35.9221196152
 33
0.0
 14
1810.6108778809
 24
-35.9221196152
 34
0.0
100
AcDbRotatedDimension
  0
DIMENSION
  5
5F6
100
AcDbEntity
  8
L1_130
  6
CONTINUOUS
 62
         4
100
AcDbDimension
  2
*D51
 10
1737.0433544263
 20
-46.8014577604
 30
0.0
 11
1744.8855509557
 21
-42.9074886381
 31
0.0
 70
         3
  3
DIMSTYLE2
100
AcDbDiametricDimension
 15
1741.6359983267
 25
-45.54278147
 35
0.0
 40
0.0
  0
DIMENSION
  5
603
100
AcDbEntity
  8
L1_130
  6
CONTINUOUS
 62
         4
100
AcDbDimension
  2
*D52
 10
1636.3588528157
 20
-43.1721196152
 30
0.0
 11
1634.3338528157
 21
-52.9221196152
 31
0.0
  3
DIMSTYLE2
100
AcDbAlignedDimension
 13
1644.791126319
 23
-43.1721196152
 33
0.0
 14
1644.791126319
 24
-49.1721196152
 34
0.0
 50
90.0
100
AcDbRotatedDimension
  0
DIMENSION
  5
613
100
AcDbEntity
  8
L1_130
  6
CONTINUOUS
 62
         4
100
AcDbDimension
  2
*D53
 10
1696.041126319
 20
-59.3166019411
 30
0.0
 11
1689.241126319
 21
-57.2916019411
 31
0.0
  3
DIMSTYLE2
100
AcDbAlignedDimension
 13
1696.041126319
 23
-52.1721196152
 33
0.0
 14
1690.541126319
 24
-52.1721196152
 34
0.0
100
AcDbRotatedDimension
  0
DIMENSION
  5
623
100
AcDbEntity
  8
L1_130
  6
CONTINUOUS
 62
         4
100
AcDbDimension
  2
*D54
 10
1713.6100863613
 20
-10.0450036294
 30
0.0
 11
1714.8562274086
 21
-8.0200036294
 31
0.0
  3
DIMSTYLE2
100
AcDbAlignedDimension
 13
1713.6100863613
 23
-4.2897624151
 33
0.0
 14
1718.6100863613
 24
-3.8897624151
 34
0.0
100
AcDbRotatedDimension
  0
LINE
  5
631
100
AcDbEntity
  8
L1_130
  6
CONTINUOUS
 62
         7
100
AcDbLine
 10
1816.0017626462
 20
-100.1145435759
 30
0.0
 11
1816.7517626462
 21
-89.8145435759
 31
0.0
  0
LINE
  5
632
100
AcDbEntity
  8
L1_130
  6
CONTINUOUS
 62
         7
100
AcDbLine
 10
1818.2517626462
 20
-89.8145435759
 30
0.0
 11
1817.5017626462
 21
-100.1145435759
 31
0.0
  0
LINE
  5
633
100
AcDbEntity
  8
L1_130
  6
CONTINUOUS
 62
         7
100
AcDbLine
 10
1819.0017626462
 20
-100.1145435759
 30
0.0
 11
1819.7517626462
 21
-89.8145435759
 31
0.0
  0
LINE
  5
634
100
AcDbEntity
  8
L1_130
  6
CONTINUOUS
 62
         7
100
AcDbLine
 10
1821.2517626462
 20
-89.8145435759
 30
0.0
 11
1820.5017626462
 21
-100.1145435759
 31
0.0
  0
LINE
  5
635
100
AcDbEntity
  8
L1_130
  6
CONTINUOUS
 62
         7
100
AcDbLine
 10
1822.0017626462
 20
-100.1145435759
 30
0.0
 11
1822.7517626462
 21
-89.8145435759
 31
0.0
  0
LINE
  5
636
100
AcDbEntity
  8
L1_130
  6
CONTINUOUS
 62
         7
100
AcDbLine
 10
1824.2517626462
 20
-89.8145435759
 30
0.0
 11
1823.5017626462
 21
-100.1145435759
 31
0.0
  0
LINE
  5
637
100
AcDbEntity
  8
L1_130
  6
CONTINUOUS
 62
         7
100
AcDbLine
 10
1825.0017626462
 20
-100.1145435759
 30
0.0
 11
1825.7517626462
 21
-89.8145435759
 31
0.0
  0
LINE
  5
638
100
AcDbEntity
  8
L1_130
  6
CONTINUOUS
 62
         7
100
AcDbLine
 10
1827.2517626462
 20
-89.8145435759
 30
0.0
 11
1826.5017626462
 21
-100.1145435759
 31
0.0
  0
LINE
  5
639
100
AcDbEntity
  8
L1_130
  6
CONTINUOUS
 62
         7
100
AcDbLine
 10
1828.0017626462
 20
-100.1145435759
 30
0.0
 11
1828.7517626462
 21
-89.8145435759
 31
0.0
  0
LINE
  5
63A
100
AcDbEntity
  8
L1_130
  6
CONTINUOUS
 62
         7
100
AcDbLine
 10
1830.2517626462
 20
-89.8145435759
 30
0.0
 11
1829.5017626462
 21
-100.1145435759
 31
0.0
  0
LINE
  5
63B
100
AcDbEntity
  8
L1_130
  6
CONTINUOUS
 62
         7
100
AcDbLine
 10
1831.7517626462
 20
-89.8145435759
 30
0.0
 11
1831.0017626462
 21
-100.1145435759
 31
0.0
  0
LINE
  5
63C
100
AcDbEntity
  8
L1_130
  6
CONTINUOUS
 62
         7
100
AcDbLine
 10
1833.2517626462
 20
-89.8145435759
 30
0.0
 11
1832.5017626462
 21
-100.1145435759
 31
0.0
  0
CIRCLE
  5
63D
100
AcDbEntity
  8
L1_130
  6
CONTINUOUS
 62
         7
100
AcDbCircle
 10
1825.7517626462
 20
-100.1145435759
 30
0.0
 40
0.75
  0
CIRCLE
  5
63E
100
AcDbEntity
  8
L1_130
  6
CONTINUOUS
 62
         7
100
AcDbCircle
 10
1827.2517626462
 20
-100.1145435759
 30
0.0
 40
0.75
  0
CIRCLE
  5
63F
100
AcDbEntity
  8
L1_130
  6
CONTINUOUS
 62
         7
100
AcDbCircle
 10
1828.7517626462
 20
-100.1145435759
 30
0.0
 40
0.75
  0
CIRCLE
  5
640
100
AcDbEntity
  8
L1_130
  6
CONTINUOUS
 62
         7
100
AcDbCircle
 10
1830.2517626462
 20
-100.1145435759
 30
0.0
 40
0.75
  0
CIRCLE
  5
641
100
AcDbEntity
  8
L1_130
  6
CONTINUOUS
 62
         7
100
AcDbCircle
 10
1831.7517626462
 20
-100.1145435759
 30
0.0
 40
0.75
  0
CIRCLE
  5
642
100
AcDbEntity
  8
L1_130
  6
CONTINUOUS
 62
         7
100
AcDbCircle
 10
1818.2517626462
 20
-100.1145435759
 30
0.0
 40
0.75
  0
CIRCLE
  5
643
100
AcDbEntity
  8
L1_130
  6
CONTINUOUS
 62
         7
100
AcDbCircle
 10
1819.7517626462
 20
-100.1145435759
 30
0.0
 40
0.75
  0
CIRCLE
  5
644
100
AcDbEntity
  8
L1_130
  6
CONTINUOUS
 62
         7
100
AcDbCircle
 10
1821.2517626462
 20
-100.1145435759
 30
0.0
 40
0.75
  0
CIRCLE
  5
645
100
AcDbEntity
  8
L1_130
  6
CONTINUOUS
 62
         7
100
AcDbCircle
 10
1822.7517626462
 20
-100.1145435759
 30
0.0
 40
0.75
  0
CIRCLE
  5
646
100
AcDbEntity
  8
L1_130
  6
CONTINUOUS
 62
         7
100
AcDbCircle
 10
1824.2517626462
 20
-100.1145435759
 30
0.0
 40
0.75
  0
CIRCLE
  5
647
100
AcDbEntity
  8
L1_130
  6
CONTINUOUS
 62
         7
100
AcDbCircle
 10
1816.7517626462
 20
-100.1145435759
 30
0.0
 40
0.75
  0
CIRCLE
  5
648
100
AcDbEntity
  8
L1_130
  6
CONTINUOUS
 62
         7
100
AcDbCircle
 10
1826.5017626462
 20
-89.8145435759
 30
0.0
 40
0.75
  0
CIRCLE
  5
649
100
AcDbEntity
  8
L1_130
  6
CONTINUOUS
 62
         7
100
AcDbCircle
 10
1828.0017626462
 20
-89.8145435759
 30
0.0
 40
0.75
  0
CIRCLE
  5
64A
100
AcDbEntity
  8
L1_130
  6
CONTINUOUS
 62
         7
100
AcDbCircle
 10
1829.5017626462
 20
-89.8145435759
 30
0.0
 40
0.75
  0
CIRCLE
  5
64B
100
AcDbEntity
  8
L1_130
  6
CONTINUOUS
 62
         7
100
AcDbCircle
 10
1831.0017626462
 20
-89.8145435759
 30
0.0
 40
0.75
  0
CIRCLE
  5
64C
100
AcDbEntity
  8
L1_130
  6
CONTINUOUS
 62
         7
100
AcDbCircle
 10
1832.5017626462
 20
-89.8145435759
 30
0.0
 40
0.75
  0
CIRCLE
  5
64D
100
AcDbEntity
  8
L1_130
  6
CONTINUOUS
 62
         7
100
AcDbCircle
 10
1819.0017626462
 20
-89.8145435759
 30
0.0
 40
0.75
  0
CIRCLE
  5
64E
100
AcDbEntity
  8
L1_130
  6
CONTINUOUS
 62
         7
100
AcDbCircle
 10
1820.5017626462
 20
-89.8145435759
 30
0.0
 40
0.75
  0
CIRCLE
  5
64F
100
AcDbEntity
  8
L1_130
  6
CONTINUOUS
 62
         7
100
AcDbCircle
 10
1822.0017626462
 20
-89.8145435759
 30
0.0
 40
0.75
  0
CIRCLE
  5
650
100
AcDbEntity
  8
L1_130
  6
CONTINUOUS
 62
         7
100
AcDbCircle
 10
1823.5017626462
 20
-89.8145435759
 30
0.0
 40
0.75
  0
CIRCLE
  5
651
100
AcDbEntity
  8
L1_130
  6
CONTINUOUS
 62
         7
100
AcDbCircle
 10
1825.0017626462
 20
-89.8145435759
 30
0.0
 40
0.75
  0
CIRCLE
  5
652
100
AcDbEntity
  8
L1_130
  6
CONTINUOUS
 62
         7
100
AcDbCircle
 10
1817.5017626462
 20
-89.8145435759
 30
0.0
 40
0.75
  0
LINE
  5
653
100
AcDbEntity
  8
L1_130
  6
CONTINUOUS
 62
         7
100
AcDbLine
 10
1850.3345332113
 20
-86.3645435758
 30
0.0
 11
1847.3345332113
 21
-103.5645435758
 31
0.0
  0
LINE
  5
654
100
AcDbEntity
  8
L1_130
  6
CONTINUOUS
 62
         7
100
AcDbLine
 10
1848.8345332113
 20
-103.5645435758
 30
0.0
 11
1850.3345332113
 21
-86.3645435758
 31
0.0
  0
LINE
  5
655
100
AcDbEntity
  8
L1_130
  6
CONTINUOUS
 62
         7
100
AcDbLine
 10
1851.8345332113
 20
-86.3645435758
 30
0.0
 11
1850.3345332113
 21
-103.5645435758
 31
0.0
  0
LINE
  5
656
100
AcDbEntity
  8
L1_130
  6
CONTINUOUS
 62
         7
100
AcDbLine
 10
1851.8345332113
 20
-103.5645435758
 30
0.0
 11
1853.3345332113
 21
-86.3645435758
 31
0.0
  0
LINE
  5
657
100
AcDbEntity
  8
L1_130
  6
CONTINUOUS
 62
         7
100
AcDbLine
 10
1854.8345332113
 20
-86.3645435758
 30
0.0
 11
1853.3345332113
 21
-103.5645435758
 31
0.0
  0
LINE
  5
658
100
AcDbEntity
  8
L1_130
  6
CONTINUOUS
 62
         7
100
AcDbLine
 10
1854.8345332113
 20
-103.5645435759
 30
0.0
 11
1856.3345332113
 21
-86.3645435758
 31
0.0
  0
LINE
  5
659
100
AcDbEntity
  8
L1_130
  6
CONTINUOUS
 62
         7
100
AcDbLine
 10
1857.8345332113
 20
-86.3645435759
 30
0.0
 11
1856.3345332113
 21
-103.5645435759
 31
0.0
  0
LINE
  5
65A
100
AcDbEntity
  8
L1_130
  6
CONTINUOUS
 62
         7
100
AcDbLine
 10
1857.8345332113
 20
-103.5645435759
 30
0.0
 11
1859.3345332113
 21
-86.3645435758
 31
0.0
  0
LINE
  5
65B
100
AcDbEntity
  8
L1_130
  6
CONTINUOUS
 62
         7
100
AcDbLine
 10
1860.8345332113
 20
-86.3645435759
 30
0.0
 11
1859.3345332113
 21
-103.5645435759
 31
0.0
  0
CIRCLE
  5
65C
100
AcDbEntity
  8
L1_130
  6
CONTINUOUS
 62
         7
100
AcDbCircle
 10
1848.0845332113
 20
-103.5645435758
 30
0.0
 40
0.75
  0
CIRCLE
  5
65D
100
AcDbEntity
  8
L1_130
  6
CONTINUOUS
 62
         7
100
AcDbCircle
 10
1849.5845332113
 20
-103.5645435758
 30
0.0
 40
0.75
  0
CIRCLE
  5
65E
100
AcDbEntity
  8
L1_130
  6
CONTINUOUS
 62
         7
100
AcDbCircle
 10
1851.0845332113
 20
-103.5645435758
 30
0.0
 40
0.75
  0
CIRCLE
  5
65F
100
AcDbEntity
  8
L1_130
  6
CONTINUOUS
 62
         7
100
AcDbCircle
 10
1852.5845332113
 20
-103.5645435758
 30
0.0
 40
0.75
  0
CIRCLE
  5
660
100
AcDbEntity
  8
L1_130
  6
CONTINUOUS
 62
         7
100
AcDbCircle
 10
1854.0845332113
 20
-103.5645435759
 30
0.0
 40
0.75
  0
CIRCLE
  5
661
100
AcDbEntity
  8
L1_130
  6
CONTINUOUS
 62
         7
100
AcDbCircle
 10
1855.5845332113
 20
-103.5645435759
 30
0.0
 40
0.75
  0
CIRCLE
  5
662
100
AcDbEntity
  8
L1_130
  6
CONTINUOUS
 62
         7
100
AcDbCircle
 10
1857.0845332113
 20
-103.5645435759
 30
0.0
 40
0.75
  0
CIRCLE
  5
663
100
AcDbEntity
  8
L1_130
  6
CONTINUOUS
 62
         7
100
AcDbCircle
 10
1858.5845332113
 20
-103.5645435759
 30
0.0
 40
0.75
  0
CIRCLE
  5
664
100
AcDbEntity
  8
L1_130
  6
CONTINUOUS
 62
         7
100
AcDbCircle
 10
1851.0845332113
 20
-86.3645435758
 30
0.0
 40
0.75
  0
CIRCLE
  5
665
100
AcDbEntity
  8
L1_130
  6
CONTINUOUS
 62
         7
100
AcDbCircle
 10
1852.5845332113
 20
-86.3645435758
 30
0.0
 40
0.75
  0
CIRCLE
  5
666
100
AcDbEntity
  8
L1_130
  6
CONTINUOUS
 62
         7
100
AcDbCircle
 10
1854.0845332113
 20
-86.3645435758
 30
0.0
 40
0.75
  0
CIRCLE
  5
667
100
AcDbEntity
  8
L1_130
  6
CONTINUOUS
 62
         7
100
AcDbCircle
 10
1855.5845332113
 20
-86.3645435758
 30
0.0
 40
0.75
  0
CIRCLE
  5
668
100
AcDbEntity
  8
L1_130
  6
CONTINUOUS
 62
         7
100
AcDbCircle
 10
1857.0845332113
 20
-86.3645435759
 30
0.0
 40
0.75
  0
CIRCLE
  5
669
100
AcDbEntity
  8
L1_130
  6
CONTINUOUS
 62
         7
100
AcDbCircle
 10
1858.5845332113
 20
-86.3645435758
 30
0.0
 40
0.75
  0
CIRCLE
  5
66A
100
AcDbEntity
  8
L1_130
  6
CONTINUOUS
 62
         7
100
AcDbCircle
 10
1860.0845332113
 20
-86.3645435759
 30
0.0
 40
0.75
  0
LINE
  5
66B
100
AcDbEntity
  8
L1_130
  6
CONTINUOUS
 62
         7
100
AcDbLine
 10
1878.0434280979
 20
-81.1645435759
 30
0.0
 11
1876.5434280979
 21
-108.7645435759
 31
0.0
  0
LINE
  5
66C
100
AcDbEntity
  8
L1_130
  6
CONTINUOUS
 62
         7
100
AcDbLine
 10
1875.0434280979
 20
-108.7645435759
 30
0.0
 11
1876.5434280979
 21
-81.1645435759
 31
0.0
  0
LINE
  5
66D
100
AcDbEntity
  8
L1_130
  6
CONTINUOUS
 62
         7
100
AcDbLine
 10
1875.0434280979
 20
-81.1645435759
 30
0.0
 11
1873.5434280979
 21
-108.7645435759
 31
0.0
  0
LINE
  5
66E
100
AcDbEntity
  8
L1_130
  6
CONTINUOUS
 62
         7
100
AcDbLine
 10
1872.0434280979
 20
-108.7645435759
 30
0.0
 11
1873.5434280979
 21
-81.1645435759
 31
0.0
  0
LINE
  5
66F
100
AcDbEntity
  8
L1_130
  6
CONTINUOUS
 62
         7
100
AcDbLine
 10
1879.5434280979
 20
-81.1645435759
 30
0.0
 11
1878.0434280979
 21
-108.7645435759
 31
0.0
  0
CIRCLE
  5
670
100
AcDbEntity
  8
L1_130
  6
CONTINUOUS
 62
         7
100
AcDbCircle
 10
1872.7934280979
 20
-108.7645435759
 30
0.0
 40
0.75
  0
CIRCLE
  5
671
100
AcDbEntity
  8
L1_130
  6
CONTINUOUS
 62
         7
100
AcDbCircle
 10
1874.2934280979
 20
-108.7645435759
 30
0.0
 40
0.75
  0
CIRCLE
  5
672
100
AcDbEntity
  8
L1_130
  6
CONTINUOUS
 62
         7
100
AcDbCircle
 10
1875.7934280979
 20
-108.7645435759
 30
0.0
 40
0.75
  0
CIRCLE
  5
673
100
AcDbEntity
  8
L1_130
  6
CONTINUOUS
 62
         7
100
AcDbCircle
 10
1877.2934280979
 20
-108.7645435759
 30
0.0
 40
0.75
  0
CIRCLE
  5
674
100
AcDbEntity
  8
L1_130
  6
CONTINUOUS
 62
         7
100
AcDbCircle
 10
1874.2934280979
 20
-81.1645435759
 30
0.0
 40
0.75
  0
CIRCLE
  5
675
100
AcDbEntity
  8
L1_130
  6
CONTINUOUS
 62
         7
100
AcDbCircle
 10
1875.7934280979
 20
-81.1645435759
 30
0.0
 40
0.75
  0
CIRCLE
  5
676
100
AcDbEntity
  8
L1_130
  6
CONTINUOUS
 62
         7
100
AcDbCircle
 10
1877.2934280979
 20
-81.1645435759
 30
0.0
 40
0.75
  0
CIRCLE
  5
677
100
AcDbEntity
  8
L1_130
  6
CONTINUOUS
 62
         7
100
AcDbCircle
 10
1878.7934280979
 20
-81.1645435759
 30
0.0
 40
0.75
  0
LINE
  5
678
100
AcDbEntity
  8
L1_130
  6
CONTINUOUS
 62
         7
100
AcDbLine
 10
1893.8186512807
 20
-100.7645435759
 30
0.0
 11
1895.0186512807
 21
-89.1645435759
 31
0.0
  0
LINE
  5
679
100
AcDbEntity
  8
L1_130
  6
CONTINUOUS
 62
         7
100
AcDbLine
 10
1893.8186512807
 20
-89.1645435759
 30
0.0
 11
1892.6186512807
 21
-100.7645435759
 31
0.0
  0
LINE
  5
67A
100
AcDbEntity
  8
L1_130
  6
CONTINUOUS
 62
         7
100
AcDbLine
 10
1891.4186512807
 20
-100.7645435759
 30
0.0
 11
1892.6186512807
 21
-89.1645435759
 31
0.0
  0
LINE
  5
67B
100
AcDbEntity
  8
L1_130
  6
CONTINUOUS
 62
         7
100
AcDbLine
 10
1891.4186512807
 20
-89.1645435758
 30
0.0
 11
1890.2186512807
 21
-100.7645435758
 31
0.0
  0
LINE
  5
67C
100
AcDbEntity
  8
L1_130
  6
CONTINUOUS
 62
         7
100
AcDbLine
 10
1890.2186512807
 20
-89.1645435758
 30
0.0
 11
1889.0186512807
 21
-100.7645435758
 31
0.0
  0
LINE
  5
67D
100
AcDbEntity
  8
L1_130
  6
CONTINUOUS
 62
         7
100
AcDbLine
 10
1889.0186512807
 20
-89.1645435758
 30
0.0
 11
1887.8186512807
 21
-100.7645435759
 31
0.0
  0
LINE
  5
67E
100
AcDbEntity
  8
L1_130
  6
CONTINUOUS
 62
         7
100
AcDbLine
 10
1896.2186512807
 20
-89.1645435759
 30
0.0
 11
1895.0186512807
 21
-100.7645435759
 31
0.0
  0
CIRCLE
  5
67F
100
AcDbEntity
  8
L1_130
  6
CONTINUOUS
 62
         7
100
AcDbCircle
 10
1888.4186512807
 20
-100.7645435758
 30
0.0
 40
0.6
  0
CIRCLE
  5
680
100
AcDbEntity
  8
L1_130
  6
CONTINUOUS
 62
         7
100
AcDbCircle
 10
1889.6186512807
 20
-100.7645435758
 30
0.0
 40
0.6
  0
CIRCLE
  5
681
100
AcDbEntity
  8
L1_130
  6
CONTINUOUS
 62
         7
100
AcDbCircle
 10
1890.8186512807
 20
-100.7645435759
 30
0.0
 40
0.6
  0
CIRCLE
  5
682
100
AcDbEntity
  8
L1_130
  6
CONTINUOUS
 62
         7
100
AcDbCircle
 10
1892.0186512807
 20
-100.7645435759
 30
0.0
 40
0.6
  0
CIRCLE
  5
683
100
AcDbEntity
  8
L1_130
  6
CONTINUOUS
 62
         7
100
AcDbCircle
 10
1893.2186512807
 20
-100.7645435759
 30
0.0
 40
0.6
  0
CIRCLE
  5
684
100
AcDbEntity
  8
L1_130
  6
CONTINUOUS
 62
         7
100
AcDbCircle
 10
1894.4186512807
 20
-100.7645435759
 30
0.0
 40
0.6
  0
CIRCLE
  5
685
100
AcDbEntity
  8
L1_130
  6
CONTINUOUS
 62
         7
100
AcDbCircle
 10
1889.6186512807
 20
-89.1645435758
 30
0.0
 40
0.6
  0
CIRCLE
  5
686
100
AcDbEntity
  8
L1_130
  6
CONTINUOUS
 62
         7
100
AcDbCircle
 10
1890.8186512807
 20
-89.1645435758
 30
0.0
 40
0.6
  0
CIRCLE
  5
687
100
AcDbEntity
  8
L1_130
  6
CONTINUOUS
 62
         7
100
AcDbCircle
 10
1892.0186512807
 20
-89.1645435759
 30
0.0
 40
0.6
  0
CIRCLE
  5
688
100
AcDbEntity
  8
L1_130
  6
CONTINUOUS
 62
         7
100
AcDbCircle
 10
1893.2186512807
 20
-89.1645435759
 30
0.0
 40
0.6
  0
CIRCLE
  5
689
100
AcDbEntity
  8
L1_130
  6
CONTINUOUS
 62
         7
100
AcDbCircle
 10
1894.4186512807
 20
-89.1645435759
 30
0.0
 40
0.6
  0
CIRCLE
  5
68A
100
AcDbEntity
  8
L1_130
  6
CONTINUOUS
 62
         7
100
AcDbCircle
 10
1895.6186512807
 20
-89.1645435759
 30
0.0
 40
0.6
  0
LINE
  5
68B
100
AcDbEntity
  8
L1_130
  6
CENTER
 62
         1
100
AcDbLine
 10
1912.3043050999
 20
-94.9645435759
 30
0.0
 11
1796.737896888
 21
-94.9645435759
 31
0.0
  0
LINE
  5
68C
100
AcDbEntity
  8
_Y__________
  6
CONTINUOUS
 62
         7
100
AcDbLine
 10
1523.7786999334
 20
147.1774144385
 30
0.0
 11
1525.7251100949
 21
146.6774144385
 31
0.0
  0
LINE
  5
68D
100
AcDbEntity
  8
_Y__________
  6
CONTINUOUS
 62
         7
100
AcDbLine
 10
1523.7786999334
 20
77.3274144385
 30
0.0
 11
1525.7251100949
 21
77.8274144385
 31
0.0
  0
LINE
  5
68E
100
AcDbEntity
  8
_Y__________
  6
CENTER
 62
         1
100
AcDbLine
 10
1513.0227673053
 20
112.2524144385
 30
0.0
 11
1542.8786999334
 21
112.2524144385
 31
0.0
  0
LINE
  5
68F
100
AcDbEntity
  8
_Y__________
  6
CENTER
 62
         1
100
AcDbLine
 10
1417.2325573653
 20
112.2524144385
 30
0.0
 11
1491.1537903612
 21
112.2524144385
 31
0.0
  0
LINE
  5
690
100
AcDbEntity
  8
_Y__________
  6
CONTINUOUS
 62
         7
100
AcDbLine
 10
1523.7786999334
 20
147.1774144385
 30
0.0
 11
1424.3179293748
 21
132.6725821702
 31
0.0
  0
LINE
  5
691
100
AcDbEntity
  8
_Y__________
  6
CONTINUOUS
 62
         7
100
AcDbLine
 10
1523.7786999334
 20
77.3274144385
 30
0.0
 11
1424.3179293748
 21
91.8322467069
 31
0.0
  0
LINE
  5
692
100
AcDbEntity
  8
_Y__________
  6
CONTINUOUS
 62
         7
100
AcDbLine
 10
1524.9786999334
 20
146.8691546422
 30
0.0
 11
1524.9786999334
 21
77.6356742349
 31
0.0
  0
LINE
  5
693
100
AcDbEntity
  8
_Y__________
  6
CENTER
 62
         1
100
AcDbLine
 10
1523.7786999334
 20
151.9774144385
 30
0.0
 11
1523.7786999334
 21
73.981360093
 31
0.0
  0
LINE
  5
694
100
AcDbEntity
  8
_Y__________
  6
CONTINUOUS
 62
         7
100
AcDbLine
 10
1525.7251100949
 20
146.6774144385
 30
0.0
 11
1525.7251100949
 21
77.8274144385
 31
0.0
  0
LINE
  5
695
100
AcDbEntity
  8
_Y__________
  6
CONTINUOUS
 62
         7
100
AcDbLine
 10
1526.9786999334
 20
159.5024144385
 30
0.0
 11
1526.9786999334
 21
65.0024144385
 31
0.0
  0
LINE
  5
696
100
AcDbEntity
  8
_Y__________
  6
CENTER
 62
         1
100
AcDbLine
 10
1534.8786999334
 20
167.2576777393
 30
0.0
 11
1534.8786999334
 21
57.2548581875
 31
0.0
  0
LINE
  5
697
100
AcDbEntity
  8
_Y__________
  6
CONTINUOUS
 62
         7
100
AcDbLine
 10
1538.4149703322
 20
63.5024144385
 30
0.0
 11
1541.3786999334
 21
63.5024144385
 31
0.0
  0
ARC
  5
698
100
AcDbEntity
  8
_Y__________
  6
CONTINUOUS
 62
         7
100
AcDbCircle
 10
1526.3786999334
 20
77.2274144385
 30
0.0
 40
0.6
100
AcDbArc
 50
0.0
 51
90.0
  0
LINE
  5
699
100
AcDbEntity
  8
_Y__________
  6
CONTINUOUS
 62
         7
100
AcDbLine
 10
1525.7251100949
 20
77.8274144385
 30
0.0
 11
1526.3786999334
 21
77.8274144385
 31
0.0
  0
ARC
  5
69A
100
AcDbEntity
  8
_Y__________
  6
CONTINUOUS
 62
         7
100
AcDbCircle
 10
1526.3786999334
 20
77.2274144385
 30
0.0
 40
0.6
100
AcDbArc
 50
0.0
 51
90.0
  0
ARC
  5
69B
100
AcDbEntity
  8
_Y__________
  6
CONTINUOUS
 62
         7
100
AcDbCircle
 10
1536.3220756064
 20
66.1274144385
 30
0.0
 40
0.5
100
AcDbArc
 50
30.0
 51
90.0
  0
LINE
  5
69C
100
AcDbEntity
  8
_Y__________
  6
CONTINUOUS
 62
         7
100
AcDbLine
 10
1533.0023115585
 20
66.3774144385
 30
0.0
 11
1531.3424295346
 21
63.5024144385
 31
0.0
  0
LINE
  5
69D
100
AcDbEntity
  8
_Y__________
  6
CONTINUOUS
 62
         7
100
AcDbLine
 10
1528.4786999334
 20
63.5024144385
 30
0.0
 11
1531.3424295346
 21
63.5024144385
 31
0.0
  0
ARC
  5
69E
100
AcDbEntity
  8
_Y__________
  6
CONTINUOUS
 62
         7
100
AcDbCircle
 10
1533.4353242604
 20
66.1274144385
 30
0.0
 40
0.5
100
AcDbArc
 50
90.0
 51
150.0
  0
LINE
  5
69F
100
AcDbEntity
  8
_Y__________
  6
CONTINUOUS
 62
         7
100
AcDbLine
 10
1533.4353242604
 20
66.6274144385
 30
0.0
 11
1536.3220756064
 21
66.6274144385
 31
0.0
  0
LINE
  5
6A0
100
AcDbEntity
  8
_Y__________
  6
CONTINUOUS
 62
         7
100
AcDbLine
 10
1536.7550883083
 20
66.3774144385
 30
0.0
 11
1538.4149703322
 21
63.5024144385
 31
0.0
  0
LINE
  5
6A1
100
AcDbEntity
  8
_Y__________
  6
CONTINUOUS
 62
         7
100
AcDbLine
 10
1538.4149703322
 20
161.0024144385
 30
0.0
 11
1541.3786999334
 21
161.0024144385
 31
0.0
  0
ARC
  5
6A2
100
AcDbEntity
  8
_Y__________
  6
CONTINUOUS
 62
         7
100
AcDbCircle
 10
1536.3220756064
 20
158.3774144385
 30
0.0
 40
0.5
100
AcDbArc
 50
270.0
 51
330.0
  0
LINE
  5
6A3
100
AcDbEntity
  8
_Y__________
  6
CONTINUOUS
 62
         7
100
AcDbLine
 10
1533.0023115585
 20
158.1274144385
 30
0.0
 11
1531.3424295346
 21
161.0024144385
 31
0.0
  0
ARC
  5
6A4
100
AcDbEntity
  8
_Y__________
  6
CONTINUOUS
 62
         7
100
AcDbCircle
 10
1526.3786999334
 20
147.2774144385
 30
0.0
 40
0.6
100
AcDbArc
 50
270.0
 51
360.0
  0
LINE
  5
6A5
100
AcDbEntity
  8
_Y__________
  6
CONTINUOUS
 62
         7
100
AcDbLine
 10
1525.7251100949
 20
146.6774144385
 30
0.0
 11
1526.3786999334
 21
146.6774144385
 31
0.0
  0
ARC
  5
6A6
100
AcDbEntity
  8
_Y__________
  6
CONTINUOUS
 62
         7
100
AcDbCircle
 10
1533.4353242604
 20
158.3774144385
 30
0.0
 40
0.5
100
AcDbArc
 50
210.0
 51
270.0
  0
LINE
  5
6A7
100
AcDbEntity
  8
_Y__________
  6
CONTINUOUS
 62
         7
100
AcDbLine
 10
1528.4786999334
 20
161.0024144385
 30
0.0
 11
1531.3424295346
 21
161.0024144385
 31
0.0
  0
LINE
  5
6A8
100
AcDbEntity
  8
_Y__________
  6
CONTINUOUS
 62
         7
100
AcDbLine
 10
1533.4353242604
 20
157.8774144385
 30
0.0
 11
1536.3220756064
 21
157.8774144385
 31
0.0
  0
LINE
  5
6A9
100
AcDbEntity
  8
_Y__________
  6
CONTINUOUS
 62
         7
100
AcDbLine
 10
1536.7550883083
 20
158.1274144385
 30
0.0
 11
1538.4149703322
 21
161.0024144385
 31
0.0
  0
LINE
  5
6AA
100
AcDbEntity
  8
_Y__________
  6
CONTINUOUS
 62
         7
100
AcDbLine
 10
1542.8786999334
 20
159.5024144385
 30
0.0
 11
1542.8786999334
 21
65.0024144385
 31
0.0
  0
LINE
  5
6AB
100
AcDbEntity
  8
_Y__________
  6
CONTINUOUS
 62
         4
100
AcDbLine
 10
1423.5286999334
 20
-139.2400166132
 30
0.0
 11
1423.5286999334
 21
-114.2400166132
 31
0.0
  0
LINE
  5
6AC
100
AcDbEntity
  8
_Y__________
  6
CONTINUOUS
 62
         7
100
AcDbLine
 10
1430.4480438949
 20
-137.1363580766
 30
0.0
 11
1430.4480438949
 21
-116.3436751498
 31
0.0
  0
LINE
  5
6AD
100
AcDbEntity
  8
_Y__________
  6
CONTINUOUS
 62
         7
100
AcDbLine
 10
1428.2615426459
 20
-139.3228593257
 30
0.0
 11
1430.4480438949
 21
-137.1363580766
 31
0.0
  0
ARC
  5
6AE
100
AcDbEntity
  8
_Y__________
  6
CONTINUOUS
 62
         7
100
AcDbCircle
 10
1427.9786999334
 20
-139.0400166132
 30
0.0
 40
0.4
100
AcDbArc
 50
270.0
 51
315.0
  0
ARC
  5
6AF
100
AcDbEntity
  8
_Y__________
  6
CONTINUOUS
 62
         7
100
AcDbCircle
 10
1423.5286999334
 20
-140.7400166132
 30
0.0
 40
1.5
100
AcDbArc
 50
90.0
 51
154.1580672375
  0
LINE
  5
6B0
100
AcDbEntity
  8
_Y__________
  6
CONTINUOUS
 62
         7
100
AcDbLine
 10
1427.1251100949
 20
-139.4400166132
 30
0.0
 11
1426.3786999334
 21
-139.2400166132
 31
0.0
  0
LINE
  5
6B1
100
AcDbEntity
  8
_Y__________
  6
CONTINUOUS
 62
         7
100
AcDbLine
 10
1427.1251100949
 20
-139.4400166132
 30
0.0
 11
1427.9786999334
 21
-139.4400166132
 31
0.0
  0
LINE
  5
6B2
100
AcDbEntity
  8
_Y__________
  6
CONTINUOUS
 62
         7
100
AcDbLine
 10
1423.5286999334
 20
-139.2400166132
 30
0.0
 11
1426.3786999334
 21
-139.2400166132
 31
0.0
  0
LINE
  5
6B3
100
AcDbEntity
  8
_Y__________
  6
CONTINUOUS
 62
         7
100
AcDbLine
 10
1428.2615426459
 20
-114.1571739007
 30
0.0
 11
1430.4480438949
 21
-116.3436751498
 31
0.0
  0
ARC
  5
6B4
100
AcDbEntity
  8
_Y__________
  6
CONTINUOUS
 62
         7
100
AcDbCircle
 10
1423.5286999334
 20
-112.7400166132
 30
0.0
 40
1.5
100
AcDbArc
 50
205.8419327625
 51
270.0
  0
LINE
  5
6B5
100
AcDbEntity
  8
_Y__________
  6
CONTINUOUS
 62
         7
100
AcDbLine
 10
1427.1251100949
 20
-114.0400166132
 30
0.0
 11
1426.3786999334
 21
-114.2400166132
 31
0.0
  0
ARC
  5
6B6
100
AcDbEntity
  8
_Y__________
  6
CONTINUOUS
 62
         7
100
AcDbCircle
 10
1427.9786999334
 20
-114.4400166132
 30
0.0
 40
0.4
100
AcDbArc
 50
45.0
 51
90.0
  0
LINE
  5
6B7
100
AcDbEntity
  8
_Y__________
  6
CONTINUOUS
 62
         7
100
AcDbLine
 10
1426.3786999334
 20
-139.2400166132
 30
0.0
 11
1426.3786999334
 21
-114.2400166132
 31
0.0
  0
LINE
  5
6B8
100
AcDbEntity
  8
_Y__________
  6
CONTINUOUS
 62
         7
100
AcDbLine
 10
1427.1251100949
 20
-114.0400166132
 30
0.0
 11
1427.9786999334
 21
-114.0400166132
 31
0.0
  0
LINE
  5
6B9
100
AcDbEntity
  8
_Y__________
  6
CONTINUOUS
 62
         7
100
AcDbLine
 10
1428.3786999334
 20
-139.2057020382
 30
0.0
 11
1428.3786999334
 21
-114.2743311882
 31
0.0
  0
ARC
  5
6BA
100
AcDbEntity
  8
_Y__________
  6
CONTINUOUS
 62
         7
100
AcDbCircle
 10
1536.0334004718
 20
-173.3650166132
 30
0.0
 40
1.0
100
AcDbArc
 50
30.0
 51
90.0
  0
LINE
  5
6BB
100
AcDbEntity
  8
_Y__________
  6
CENTER
 62
         1
100
AcDbLine
 10
1422.0286999334
 20
-126.7400166132
 30
0.0
 11
1542.8786999334
 21
-126.7400166132
 31
0.0
  0
LINE
  5
6BC
100
AcDbEntity
  8
_Y__________
  6
CONTINUOUS
 62
         7
100
AcDbLine
 10
1523.7786999334
 20
-91.8150166132
 30
0.0
 11
1525.7251100949
 21
-92.3150166132
 31
0.0
  0
LINE
  5
6BD
100
AcDbEntity
  8
_Y__________
  6
CONTINUOUS
 62
         7
100
AcDbLine
 10
1523.7786999334
 20
-161.6650166132
 30
0.0
 11
1525.7251100949
 21
-161.1650166132
 31
0.0
  0
LINE
  5
6BE
100
AcDbEntity
  8
_Y__________
  6
CONTINUOUS
 62
         5
100
AcDbLine
 10
1428.8443853584
 20
-114.7400166132
 30
0.0
 11
1466.6786999334
 21
-114.7400166132
 31
0.0
  0
LINE
  5
6BF
100
AcDbEntity
  8
_Y__________
  6
CONTINUOUS
 62
         7
100
AcDbLine
 10
1430.4480438949
 20
-116.3436751498
 30
0.0
 11
1466.6786999334
 21
-116.3436751498
 31
0.0
  0
LINE
  5
6C0
100
AcDbEntity
  8
_Y__________
  6
CONTINUOUS
 62
         7
100
AcDbLine
 10
1523.7786999334
 20
-91.8150166132
 30
0.0
 11
1424.1679293748
 21
-106.3417240875
 31
0.0
  0
LINE
  5
6C1
100
AcDbEntity
  8
_Y__________
  6
CONTINUOUS
 62
         5
100
AcDbLine
 10
1428.8443853584
 20
-138.7400166132
 30
0.0
 11
1466.6786999334
 21
-138.7400166132
 31
0.0
  0
LINE
  5
6C2
100
AcDbEntity
  8
_Y__________
  6
CONTINUOUS
 62
         7
100
AcDbLine
 10
1430.4480438949
 20
-137.1363580766
 30
0.0
 11
1466.6786999334
 21
-137.1363580766
 31
0.0
  0
LINE
  5
6C3
100
AcDbEntity
  8
_Y__________
  6
CONTINUOUS
 62
         7
100
AcDbLine
 10
1523.7786999334
 20
-161.6650166132
 30
0.0
 11
1424.1679293748
 21
-147.1383091389
 31
0.0
  0
LINE
  5
6C4
100
AcDbEntity
  8
_Y__________
  6
CONTINUOUS
 62
         7
100
AcDbLine
 10
1423.5286999334
 20
-114.2400166132
 30
0.0
 11
1426.3786999334
 21
-114.2400166132
 31
0.0
  0
LINE
  5
6C5
100
AcDbEntity
  8
_Y__________
  6
CONTINUOUS
 62
         7
100
AcDbLine
 10
1466.6786999334
 20
-114.7400166132
 30
0.0
 11
1466.6786999334
 21
-138.7400166132
 31
0.0
  0
LINE
  5
6C6
100
AcDbEntity
  8
_Y__________
  6
CONTINUOUS
 62
         7
100
AcDbLine
 10
1538.4149703322
 20
-175.4900166132
 30
0.0
 11
1541.3786999334
 21
-175.4900166132
 31
0.0
  0
ARC
  5
6C7
100
AcDbEntity
  8
_Y__________
  6
CONTINUOUS
 62
         7
100
AcDbCircle
 10
1526.3786999334
 20
-161.7650166132
 30
0.0
 40
0.6
100
AcDbArc
 50
0.0
 51
90.0
  0
LINE
  5
6C8
100
AcDbEntity
  8
_Y__________
  6
CONTINUOUS
 62
         7
100
AcDbLine
 10
1525.7251100949
 20
-161.1650166132
 30
0.0
 11
1526.3786999334
 21
-161.1650166132
 31
0.0
  0
ARC
  5
6C9
100
AcDbEntity
  8
_Y__________
  6
CONTINUOUS
 62
         7
100
AcDbCircle
 10
1533.4353242604
 20
-172.8650166132
 30
0.0
 40
0.5
100
AcDbArc
 50
90.0
 51
150.0
  0
LINE
  5
6CA
100
AcDbEntity
  8
_Y__________
  6
CONTINUOUS
 62
         7
100
AcDbLine
 10
1533.0023115585
 20
-172.6150166132
 30
0.0
 11
1531.3424295346
 21
-175.4900166132
 31
0.0
  0
LINE
  5
6CB
100
AcDbEntity
  8
_Y__________
  6
CONTINUOUS
 62
         7
100
AcDbLine
 10
1528.4786999334
 20
-175.4900166132
 30
0.0
 11
1531.3424295346
 21
-175.4900166132
 31
0.0
  0
LINE
  5
6CC
100
AcDbEntity
  8
_Y__________
  6
CONTINUOUS
 62
         7
100
AcDbLine
 10
1533.4353242604
 20
-172.3650166132
 30
0.0
 11
1536.0334004718
 21
-172.3650166132
 31
0.0
  0
LINE
  5
6CD
100
AcDbEntity
  8
_Y__________
  6
CONTINUOUS
 62
         7
100
AcDbLine
 10
1526.9786999334
 20
-161.7650166132
 30
0.0
 11
1526.9786999334
 21
-173.9900166132
 31
0.0
  0
LINE
  5
6CE
100
AcDbEntity
  8
_Y__________
  6
CONTINUOUS
 62
         7
100
AcDbLine
 10
1536.8994258756
 20
-172.8650166132
 30
0.0
 11
1538.4149703322
 21
-175.4900166132
 31
0.0
  0
LINE
  5
6CF
100
AcDbEntity
  8
_Y__________
  6
CONTINUOUS
 62
         7
100
AcDbLine
 10
1538.4149703322
 20
-77.9900166132
 30
0.0
 11
1541.3786999334
 21
-77.9900166132
 31
0.0
  0
LINE
  5
6D0
100
AcDbEntity
  8
_Y__________
  6
CONTINUOUS
 62
         7
100
AcDbLine
 10
1533.0023115585
 20
-80.8650166132
 30
0.0
 11
1531.3424295346
 21
-77.9900166132
 31
0.0
  0
ARC
  5
6D1
100
AcDbEntity
  8
_Y__________
  6
CONTINUOUS
 62
         7
100
AcDbCircle
 10
1536.3220756064
 20
-80.6150166132
 30
0.0
 40
0.5
100
AcDbArc
 50
270.0
 51
330.0
  0
ARC
  5
6D2
100
AcDbEntity
  8
_Y__________
  6
CONTINUOUS
 62
         7
100
AcDbCircle
 10
1533.4353242604
 20
-80.6150166132
 30
0.0
 40
0.5
100
AcDbArc
 50
210.0
 51
270.0
  0
ARC
  5
6D3
100
AcDbEntity
  8
_Y__________
  6
CONTINUOUS
 62
         7
100
AcDbCircle
 10
1526.3786999334
 20
-91.7150166132
 30
0.0
 40
0.6
100
AcDbArc
 50
270.0
 51
360.0
  0
LINE
  5
6D4
100
AcDbEntity
  8
_Y__________
  6
CONTINUOUS
 62
         7
100
AcDbLine
 10
1525.7251100949
 20
-92.3150166132
 30
0.0
 11
1526.3786999334
 21
-92.3150166132
 31
0.0
  0
LINE
  5
6D5
100
AcDbEntity
  8
_Y__________
  6
CONTINUOUS
 62
         7
100
AcDbLine
 10
1526.9786999334
 20
-79.4900166132
 30
0.0
 11
1526.9786999334
 21
-91.7150166132
 31
0.0
  0
LINE
  5
6D6
100
AcDbEntity
  8
_Y__________
  6
CONTINUOUS
 62
         7
100
AcDbLine
 10
1533.4353242604
 20
-81.1150166132
 30
0.0
 11
1536.3220756064
 21
-81.1150166132
 31
0.0
  0
LINE
  5
6D7
100
AcDbEntity
  8
_Y__________
  6
CONTINUOUS
 62
         7
100
AcDbLine
 10
1528.4786999334
 20
-77.9900166132
 30
0.0
 11
1531.3424295346
 21
-77.9900166132
 31
0.0
  0
LINE
  5
6D8
100
AcDbEntity
  8
_Y__________
  6
CONTINUOUS
 62
         7
100
AcDbLine
 10
1536.7550883083
 20
-80.8650166132
 30
0.0
 11
1538.4149703322
 21
-77.9900166132
 31
0.0
  0
LINE
  5
6D9
100
AcDbEntity
  8
_Y__________
  6
CONTINUOUS
 62
         7
100
AcDbLine
 10
1533.4353242604
 20
-81.1150166132
 30
0.0
 11
1536.3220756064
 21
-81.1150166132
 31
0.0
  0
LINE
  5
6DA
100
AcDbEntity
  8
_Y__________
  6
CONTINUOUS
 62
         7
100
AcDbLine
 10
1526.9786999334
 20
-79.4900166132
 30
0.0
 11
1526.9786999334
 21
-91.7150166132
 31
0.0
  0
LINE
  5
6DB
100
AcDbEntity
  8
_Y__________
  6
CONTINUOUS
 62
         7
100
AcDbLine
 10
1525.7251100949
 20
-92.3150166132
 30
0.0
 11
1526.3786999334
 21
-92.3150166132
 31
0.0
  0
ARC
  5
6DC
100
AcDbEntity
  8
_Y__________
  6
CONTINUOUS
 62
         7
100
AcDbCircle
 10
1526.3786999334
 20
-91.7150166132
 30
0.0
 40
0.6
100
AcDbArc
 50
270.0
 51
360.0
  0
ARC
  5
6DD
100
AcDbEntity
  8
_Y__________
  6
CONTINUOUS
 62
         7
100
AcDbCircle
 10
1533.4353242604
 20
-80.6150166132
 30
0.0
 40
0.5
100
AcDbArc
 50
210.0
 51
270.0
  0
ARC
  5
6DE
100
AcDbEntity
  8
_Y__________
  6
CONTINUOUS
 62
         7
100
AcDbCircle
 10
1536.3220756064
 20
-80.6150166132
 30
0.0
 40
0.5
100
AcDbArc
 50
270.0
 51
330.0
  0
LINE
  5
6DF
100
AcDbEntity
  8
_Y__________
  6
CONTINUOUS
 62
         7
100
AcDbLine
 10
1523.7786999334
 20
-91.8150166132
 30
0.0
 11
1525.7251100949
 21
-92.3150166132
 31
0.0
  0
LINE
  5
6E0
100
AcDbEntity
  8
_Y__________
  6
CONTINUOUS
 62
         7
100
AcDbLine
 10
1422.1786999334
 20
130.1987502026
 30
0.0
 11
1422.1786999334
 21
94.3060786745
 31
0.0
  0
ARC
  5
6E1
100
AcDbEntity
  8
_Y__________
  6
CONTINUOUS
 62
         7
100
AcDbCircle
 10
1424.6786999334
 20
130.1987502026
 30
0.0
 40
2.5
100
AcDbArc
 50
98.297222
 51
180.0
  0
ARC
  5
6E2
100
AcDbEntity
  8
_Y__________
  6
CONTINUOUS
 62
         7
100
AcDbCircle
 10
1424.6786999334
 20
94.3060786745
 30
0.0
 40
2.5
100
AcDbArc
 50
180.0
 51
261.702778
  0
ARC
  5
6E3
100
AcDbEntity
  8
_Y__________
  6
CONTINUOUS
 62
         7
100
AcDbCircle
 10
1424.6786999334
 20
-108.7936808492
 30
0.0
 40
2.5
100
AcDbArc
 50
98.297222
 51
180.0
  0
LINE
  5
6E4
100
AcDbEntity
  8
_Y__________
  6
CONTINUOUS
 62
         7
100
AcDbLine
 10
1422.1786999334
 20
-108.7936808492
 30
0.0
 11
1422.1786999334
 21
-144.6863523772
 31
0.0
  0
ARC
  5
6E5
100
AcDbEntity
  8
_Y__________
  6
CONTINUOUS
 62
         7
100
AcDbCircle
 10
1424.6786999334
 20
-144.6863523772
 30
0.0
 40
2.5
100
AcDbArc
 50
180.0
 51
261.702778
  0
LINE
  5
6E6
100
AcDbEntity
  8
_Y__________
  6
CONTINUOUS
 62
         7
100
AcDbLine
 10
1543.3786999334
 20
-161.6650166132
 30
0.0
 11
1558.0306999334
 21
-161.6650166132
 31
0.0
  0
LINE
  5
6E7
100
AcDbEntity
  8
_Y__________
  6
CONTINUOUS
 62
         7
100
AcDbLine
 10
1543.3786999334
 20
-91.8150166132
 30
0.0
 11
1558.0306999334
 21
-91.8150166132
 31
0.0
  0
LINE
  5
6E8
100
AcDbEntity
  8
_Y__________
  6
CONTINUOUS
 62
         7
100
AcDbLine
 10
1526.9786999334
 20
-172.9900166132
 30
0.0
 11
1526.9786999334
 21
-173.9900166132
 31
0.0
  0
LINE
  5
6E9
100
AcDbEntity
  8
_Y__________
  6
CONTINUOUS
 62
         7
100
AcDbLine
 10
1542.8786999334
 20
-162.1650166132
 30
0.0
 11
1542.8786999334
 21
-173.9900166132
 31
0.0
  0
ARC
  5
6EA
100
AcDbEntity
  8
_Y__________
  6
CONTINUOUS
 62
         7
100
AcDbCircle
 10
1528.4786999334
 20
-173.9900166132
 30
0.0
 40
1.5
100
AcDbArc
 50
180.0
 51
270.0
  0
ARC
  5
6EB
100
AcDbEntity
  8
_Y__________
  6
CONTINUOUS
 62
         7
100
AcDbCircle
 10
1541.3786999334
 20
-173.9900166132
 30
0.0
 40
1.5
100
AcDbArc
 50
270.0
 51
360.0
  0
ARC
  5
6EC
100
AcDbEntity
  8
_Y__________
  6
CONTINUOUS
 62
         7
100
AcDbCircle
 10
1528.4786999334
 20
-79.4900166132
 30
0.0
 40
1.5
100
AcDbArc
 50
90.0
 51
180.0
  0
ARC
  5
6ED
100
AcDbEntity
  8
_Y__________
  6
CONTINUOUS
 62
         7
100
AcDbCircle
 10
1541.3786999334
 20
-79.4900166132
 30
0.0
 40
1.5
100
AcDbArc
 50
0.0
 51
90.0
  0
LINE
  5
6EE
100
AcDbEntity
  8
_Y__________
  6
CONTINUOUS
 62
         7
100
AcDbLine
 10
1540.3786999334
 20
-175.4900166132
 30
0.0
 11
1541.3786999334
 21
-175.4900166132
 31
0.0
  0
LINE
  5
6EF
100
AcDbEntity
  8
_Y__________
  6
CONTINUOUS
 62
         7
100
AcDbLine
 10
1528.4786999334
 20
-175.4900166132
 30
0.0
 11
1529.4786999334
 21
-175.4900166132
 31
0.0
  0
LINE
  5
6F0
100
AcDbEntity
  8
_Y__________
  6
CONTINUOUS
 62
         7
100
AcDbLine
 10
1542.8786999334
 20
-79.4900166132
 30
0.0
 11
1542.8786999334
 21
-91.3150166132
 31
0.0
  0
LINE
  5
6F1
100
AcDbEntity
  8
_Y__________
  6
CONTINUOUS
 62
         7
100
AcDbLine
 10
1540.3786999334
 20
-77.9900166132
 30
0.0
 11
1541.3786999334
 21
-77.9900166132
 31
0.0
  0
LINE
  5
6F2
100
AcDbEntity
  8
_Y__________
  6
CONTINUOUS
 62
         7
100
AcDbLine
 10
1528.4786999334
 20
-77.9900166132
 30
0.0
 11
1529.4786999334
 21
-77.9900166132
 31
0.0
  0
LINE
  5
6F3
100
AcDbEntity
  8
_Y__________
  6
CONTINUOUS
 62
         7
100
AcDbLine
 10
1526.9786999334
 20
-79.4900166132
 30
0.0
 11
1526.9786999334
 21
-80.4900166132
 31
0.0
  0
ARC
  5
6F4
100
AcDbEntity
  8
_Y__________
  6
CONTINUOUS
 62
         7
100
AcDbCircle
 10
1543.3786999334
 20
-91.3150166132
 30
0.0
 40
0.5
100
AcDbArc
 50
180.0
 51
270.0
  0
ARC
  5
6F5
100
AcDbEntity
  8
_Y__________
  6
CONTINUOUS
 62
         7
100
AcDbCircle
 10
1543.3786999334
 20
-162.1650166132
 30
0.0
 40
0.5
100
AcDbArc
 50
90.0
 51
180.0
  0
ARC
  5
6F6
100
AcDbEntity
  8
_Y__________
  6
CONTINUOUS
 62
         7
100
AcDbCircle
 10
1543.3786999334
 20
76.8274144385
 30
0.0
 40
0.5
100
AcDbArc
 50
90.0
 51
180.0
  0
LINE
  5
6F7
100
AcDbEntity
  8
_Y__________
  6
CONTINUOUS
 62
         7
100
AcDbLine
 10
1543.3786999334
 20
77.3274144385
 30
0.0
 11
1558.0306999334
 21
77.3274144385
 31
0.0
  0
LINE
  5
6F8
100
AcDbEntity
  8
_Y__________
  6
CONTINUOUS
 62
         7
100
AcDbLine
 10
1543.3786999334
 20
147.1774144385
 30
0.0
 11
1558.0306999334
 21
147.1774144385
 31
0.0
  0
ARC
  5
6F9
100
AcDbEntity
  8
_Y__________
  6
CONTINUOUS
 62
         7
100
AcDbCircle
 10
1543.3786999334
 20
147.6774144385
 30
0.0
 40
0.5
100
AcDbArc
 50
180.0
 51
270.0
  0
LINE
  5
6FA
100
AcDbEntity
  8
_Y__________
  6
CONTINUOUS
 62
         7
100
AcDbLine
 10
1526.9786999334
 20
159.5024144385
 30
0.0
 11
1526.9786999334
 21
158.5024144385
 31
0.0
  0
LINE
  5
6FB
100
AcDbEntity
  8
_Y__________
  6
CONTINUOUS
 62
         7
100
AcDbLine
 10
1528.4786999334
 20
161.0024144385
 30
0.0
 11
1529.4786999334
 21
161.0024144385
 31
0.0
  0
LINE
  5
6FC
100
AcDbEntity
  8
_Y__________
  6
CONTINUOUS
 62
         7
100
AcDbLine
 10
1540.3786999334
 20
161.0024144385
 30
0.0
 11
1541.3786999334
 21
161.0024144385
 31
0.0
  0
LINE
  5
6FD
100
AcDbEntity
  8
_Y__________
  6
CONTINUOUS
 62
         7
100
AcDbLine
 10
1542.8786999334
 20
159.5024144385
 30
0.0
 11
1542.8786999334
 21
147.6774144385
 31
0.0
  0
LINE
  5
6FE
100
AcDbEntity
  8
_Y__________
  6
CONTINUOUS
 62
         7
100
AcDbLine
 10
1528.4786999334
 20
63.5024144385
 30
0.0
 11
1529.4786999334
 21
63.5024144385
 31
0.0
  0
LINE
  5
6FF
100
AcDbEntity
  8
_Y__________
  6
CONTINUOUS
 62
         7
100
AcDbLine
 10
1540.3786999334
 20
63.5024144385
 30
0.0
 11
1541.3786999334
 21
63.5024144385
 31
0.0
  0
ARC
  5
700
100
AcDbEntity
  8
_Y__________
  6
CONTINUOUS
 62
         7
100
AcDbCircle
 10
1541.3786999334
 20
159.5024144385
 30
0.0
 40
1.5
100
AcDbArc
 50
0.0
 51
90.0
  0
ARC
  5
701
100
AcDbEntity
  8
_Y__________
  6
CONTINUOUS
 62
         7
100
AcDbCircle
 10
1528.4786999334
 20
159.5024144385
 30
0.0
 40
1.5
100
AcDbArc
 50
90.0
 51
180.0
  0
ARC
  5
702
100
AcDbEntity
  8
_Y__________
  6
CONTINUOUS
 62
         7
100
AcDbCircle
 10
1541.3786999334
 20
65.0024144385
 30
0.0
 40
1.5
100
AcDbArc
 50
270.0
 51
360.0
  0
ARC
  5
703
100
AcDbEntity
  8
_Y__________
  6
CONTINUOUS
 62
         7
100
AcDbCircle
 10
1528.4786999334
 20
65.0024144385
 30
0.0
 40
1.5
100
AcDbArc
 50
180.0
 51
270.0
  0
LINE
  5
704
100
AcDbEntity
  8
_Y__________
  6
CONTINUOUS
 62
         7
100
AcDbLine
 10
1542.8786999334
 20
76.8274144385
 30
0.0
 11
1542.8786999334
 21
65.0024144385
 31
0.0
  0
LINE
  5
705
100
AcDbEntity
  8
_Y__________
  6
CONTINUOUS
 62
         7
100
AcDbLine
 10
1526.9786999334
 20
66.0024144385
 30
0.0
 11
1526.9786999334
 21
65.0024144385
 31
0.0
  0
LINE
  5
706
100
AcDbEntity
  8
_Y__________
  6
CONTINUOUS
 62
         7
100
AcDbLine
 10
1558.8306999334
 20
146.3774144385
 30
0.0
 11
1558.8306999334
 21
78.1274144385
 31
0.0
  0
ARC
  5
707
100
AcDbEntity
  8
_Y__________
  6
CONTINUOUS
 62
         7
100
AcDbCircle
 10
1558.0306999334
 20
146.3774144385
 30
0.0
 40
0.8
100
AcDbArc
 50
0.0
 51
90.0000000003
  0
ARC
  5
708
100
AcDbEntity
  8
_Y__________
  6
CONTINUOUS
 62
         7
100
AcDbCircle
 10
1558.0306999334
 20
78.1274144385
 30
0.0
 40
0.8
100
AcDbArc
 50
269.9999999999
 51
360.0
  0
LINE
  5
709
100
AcDbEntity
  8
_Y__________
  6
CONTINUOUS
 62
         7
100
AcDbLine
 10
1558.0306999334
 20
147.1774144385
 30
0.0
 11
1557.0306999334
 21
147.1774144385
 31
0.0
  0
LINE
  5
70A
100
AcDbEntity
  8
_Y__________
  6
CONTINUOUS
 62
         7
100
AcDbLine
 10
1558.0306999334
 20
77.3274144385
 30
0.0
 11
1557.0306999334
 21
77.3274144385
 31
0.0
  0
LINE
  5
70B
100
AcDbEntity
  8
_Y__________
  6
CONTINUOUS
 62
         7
100
AcDbLine
 10
1558.8306999334
 20
-159.8650166132
 30
0.0
 11
1558.8306999334
 21
-160.8650166132
 31
0.0
  0
ARC
  5
70C
100
AcDbEntity
  8
_Y__________
  6
CONTINUOUS
 62
         7
100
AcDbCircle
 10
1558.0306999334
 20
-160.8650166132
 30
0.0
 40
0.8
100
AcDbArc
 50
269.9999999999
 51
360.0
  0
ARC
  5
70D
100
AcDbEntity
  8
_Y__________
  6
CONTINUOUS
 62
         7
100
AcDbCircle
 10
1558.0306999334
 20
-92.6150166132
 30
0.0
 40
0.8
100
AcDbArc
 50
0.0
 51
90.0000000003
  0
LINE
  5
70E
100
AcDbEntity
  8
_Y__________
  6
CONTINUOUS
 62
         7
100
AcDbLine
 10
1558.8306999334
 20
-92.6150166132
 30
0.0
 11
1558.8306999334
 21
-93.6150166132
 31
0.0
  0
LINE
  5
70F
100
AcDbEntity
  8
_Y__________
  6
CONTINUOUS
 62
         7
100
AcDbLine
 10
1558.0306999334
 20
-91.8150166132
 30
0.0
 11
1557.0306999334
 21
-91.8150166132
 31
0.0
  0
LINE
  5
710
100
AcDbEntity
  8
_Y__________
  6
CONTINUOUS
 62
         7
100
AcDbLine
 10
1558.0306999334
 20
-161.6650166132
 30
0.0
 11
1557.0306999334
 21
-161.6650166132
 31
0.0
  0
CIRCLE
  5
711
100
AcDbEntity
  8
_Y__________
  6
CONTINUOUS
 62
         7
100
AcDbCircle
 10
1534.8786999334
 20
112.2562679634
 30
0.0
 40
4.76
  0
LINE
  5
712
100
AcDbEntity
  8
_Y__________
  6
DASHED
 62
         2
100
AcDbLine
 10
1808.6340594905
 20
117.2524144385
 30
0.0
 11
1821.8480594905
 21
117.2524144385
 31
0.0
  0
LINE
  5
713
100
AcDbEntity
  8
_Y__________
  6
DASHED
 62
         2
100
AcDbLine
 10
1808.6340594905
 20
107.2524144385
 30
0.0
 11
1821.8480594905
 21
107.2524144385
 31
0.0
  0
LINE
  5
714
100
AcDbEntity
  8
_Y__________
  6
DASHED
 62
         2
100
AcDbLine
 10
1821.8480594905
 20
117.2524144385
 30
0.0
 11
1821.8480594905
 21
107.2524144385
 31
0.0
  0
LINE
  5
715
100
AcDbEntity
  8
_Y__________
  6
DASHED
 62
         2
100
AcDbLine
 10
1824.7348108365
 20
112.2524144385
 30
0.0
 11
1821.8480594905
 21
107.2524144385
 31
0.0
  0
LINE
  5
716
100
AcDbEntity
  8
_Y__________
  6
DASHED
 62
         2
100
AcDbLine
 10
1821.8480594905
 20
117.2524144385
 30
0.0
 11
1824.7348108365
 21
112.2524144385
 31
0.0
  0
LINE
  5
717
100
AcDbEntity
  8
_Y__________
  6
DASHED
 62
         2
100
AcDbLine
 10
1808.6340594905
 20
107.2524144385
 30
0.0
 11
1808.1340594905
 21
106.7524144385
 31
0.0
  0
LINE
  5
718
100
AcDbEntity
  8
_Y__________
  6
DASHED
 62
         2
100
AcDbLine
 10
1808.6340594905
 20
117.2524144385
 30
0.0
 11
1808.1340594905
 21
117.7524144385
 31
0.0
  0
LINE
  5
719
100
AcDbEntity
  8
_Y__________
  6
DASHED
 62
         2
100
AcDbLine
 10
1808.6340594905
 20
117.2524144385
 30
0.0
 11
1808.6340594905
 21
107.2524144385
 31
0.0
  0
CIRCLE
  5
71A
100
AcDbEntity
  8
_Y__________
  6
CONTINUOUS
 62
         7
100
AcDbCircle
 10
1845.8340594905
 20
112.2524144385
 30
0.0
 40
34.925
  0
LINE
  5
71B
100
AcDbEntity
  8
_Y__________
  6
CONTINUOUS
 62
         7
100
AcDbLine
 10
1277.6233403763
 20
99.9024144385
 30
0.0
 11
1278.1233403763
 21
99.4024144385
 31
0.0
  0
LINE
  5
71C
100
AcDbEntity
  8
_Y__________
  6
CONTINUOUS
 62
         7
100
AcDbLine
 10
1278.1233403763
 20
125.1024144385
 30
0.0
 11
1277.6233403763
 21
124.6024144385
 31
0.0
  0
LINE
  5
71D
100
AcDbEntity
  8
_Y__________
  6
CONTINUOUS
 62
         7
100
AcDbLine
 10
1203.9233403763
 20
124.6024144385
 30
0.0
 11
1203.4233403763
 21
125.1024144385
 31
0.0
  0
LINE
  5
71E
100
AcDbEntity
  8
_Y__________
  6
CONTINUOUS
 62
         7
100
AcDbLine
 10
1203.4233403763
 20
99.4024144385
 30
0.0
 11
1203.9233403763
 21
99.9024144385
 31
0.0
  0
LINE
  5
71F
100
AcDbEntity
  8
_Y__________
  6
CONTINUOUS
 62
         7
100
AcDbLine
 10
1286.664542757
 20
98.4024144385
 30
0.0
 11
1285.664542757
 21
99.4024144385
 31
0.0
  0
LINE
  5
720
100
AcDbEntity
  8
_Y__________
  6
CONTINUOUS
 62
         7
100
AcDbLine
 10
1285.664542757
 20
99.4024144385
 30
0.0
 11
1278.1233403763
 21
99.4024144385
 31
0.0
  0
LINE
  5
721
100
AcDbEntity
  8
_Y__________
  6
CONTINUOUS
 62
         7
100
AcDbLine
 10
1286.664542757
 20
126.1024144385
 30
0.0
 11
1285.664542757
 21
125.1024144385
 31
0.0
  0
LINE
  5
722
100
AcDbEntity
  8
_Y__________
  6
CONTINUOUS
 62
         7
100
AcDbLine
 10
1285.664542757
 20
125.1024144385
 30
0.0
 11
1278.1233403763
 21
125.1024144385
 31
0.0
  0
LINE
  5
723
100
AcDbEntity
  8
_Y__________
  6
CONTINUOUS
 62
         7
100
AcDbLine
 10
1277.6233403763
 20
99.9024144385
 30
0.0
 11
1277.6233403763
 21
124.6024144385
 31
0.0
  0
LINE
  5
724
100
AcDbEntity
  8
_Y__________
  6
CONTINUOUS
 62
         7
100
AcDbLine
 10
1194.1821379955
 20
125.1024144385
 30
0.0
 11
1203.4233403763
 21
125.1024144385
 31
0.0
  0
LINE
  5
725
100
AcDbEntity
  8
_Y__________
  6
CONTINUOUS
 62
         7
100
AcDbLine
 10
1193.1821379955
 20
126.1024144385
 30
0.0
 11
1194.1821379955
 21
125.1024144385
 31
0.0
  0
LINE
  5
726
100
AcDbEntity
  8
_Y__________
  6
CONTINUOUS
 62
         7
100
AcDbLine
 10
1193.1821379955
 20
98.4024144385
 30
0.0
 11
1194.1821379955
 21
99.4024144385
 31
0.0
  0
LINE
  5
727
100
AcDbEntity
  8
_Y__________
  6
CONTINUOUS
 62
         7
100
AcDbLine
 10
1194.1821379955
 20
99.4024144385
 30
0.0
 11
1203.4233403763
 21
99.4024144385
 31
0.0
  0
LINE
  5
728
100
AcDbEntity
  8
_Y__________
  6
CONTINUOUS
 62
         7
100
AcDbLine
 10
1203.9233403763
 20
99.9024144385
 30
0.0
 11
1203.9233403763
 21
124.6024144385
 31
0.0
  0
CIRCLE
  5
729
100
AcDbEntity
  8
_Y__________
  6
CONTINUOUS
 62
         7
100
AcDbCircle
 10
1239.9233403763
 20
112.2524144385
 30
0.0
 40
12.6589889012
  0
CIRCLE
  5
72A
100
AcDbEntity
  8
_Y__________
  6
CONTINUOUS
 62
         7
100
AcDbCircle
 10
1239.9233403763
 20
112.2524144385
 30
0.0
 40
10.3963414634
  0
CIRCLE
  5
72B
100
AcDbEntity
  8
_Y__________
  6
CONTINUOUS
 62
         7
100
AcDbCircle
 10
1239.9233403763
 20
112.2524144385
 30
0.0
 40
20.3982925257
  0
CIRCLE
  5
72C
100
AcDbEntity
  8
_Y__________
  6
CONTINUOUS
 62
         7
100
AcDbCircle
 10
1239.9233403763
 20
112.2524144385
 30
0.0
 40
34.925
  0
ARC
  5
72D
100
AcDbEntity
  8
_Y__________
  6
CONTINUOUS
 62
         7
100
AcDbCircle
 10
1239.9233403763
 20
112.2524144385
 30
0.0
 40
48.75
100
AcDbArc
 50
196.5052120024
 51
343.4947879976
  0
LINE
  5
72E
100
AcDbEntity
  8
_Y__________
  6
CENTER
 62
         1
100
AcDbLine
 10
1283.2887501132
 20
112.2524144385
 30
0.0
 11
1193.3587947809
 21
112.2524144385
 31
0.0
  0
ARC
  5
72F
100
AcDbEntity
  8
_Y__________
  6
CONTINUOUS
 62
         7
100
AcDbCircle
 10
1239.9233403763
 20
112.2524144385
 30
0.0
 40
48.75
100
AcDbArc
 50
16.5052120024
 51
163.4947879976
  0
LINE
  5
730
100
AcDbEntity
  8
_Y__________
  6
CENTER
 62
         1
100
AcDbLine
 10
1239.9233403763
 20
165.6922817905
 30
0.0
 11
1239.9233403763
 21
50.6023837096
 31
0.0
  0
LINE
  5
731
100
AcDbEntity
  8
_Y__________
  6
CONTINUOUS
 62
         7
100
AcDbLine
 10
1800.0928571098
 20
99.4024144385
 30
0.0
 11
1807.6340594905
 21
99.4024144385
 31
0.0
  0
LINE
  5
732
100
AcDbEntity
  8
_Y__________
  6
CONTINUOUS
 62
         7
100
AcDbLine
 10
1799.0928571098
 20
98.4024144385
 30
0.0
 11
1800.0928571098
 21
99.4024144385
 31
0.0
  0
LINE
  5
733
100
AcDbEntity
  8
_Y__________
  6
CONTINUOUS
 62
         7
100
AcDbLine
 10
1800.0928571098
 20
125.1024144385
 30
0.0
 11
1807.6340594905
 21
125.1024144385
 31
0.0
  0
LINE
  5
734
100
AcDbEntity
  8
_Y__________
  6
CONTINUOUS
 62
         7
100
AcDbLine
 10
1799.0928571098
 20
126.1024144385
 30
0.0
 11
1800.0928571098
 21
125.1024144385
 31
0.0
  0
LINE
  5
735
100
AcDbEntity
  8
_Y__________
  6
CONTINUOUS
 62
         7
100
AcDbLine
 10
1808.1340594905
 20
124.6024144385
 30
0.0
 11
1808.1340594905
 21
99.9024144385
 31
0.0
  0
LINE
  5
736
100
AcDbEntity
  8
_Y__________
  6
CONTINUOUS
 62
         7
100
AcDbLine
 10
1807.6340594905
 20
125.1024144385
 30
0.0
 11
1808.1340594905
 21
124.6024144385
 31
0.0
  0
LINE
  5
737
100
AcDbEntity
  8
_Y__________
  6
CONTINUOUS
 62
         7
100
AcDbLine
 10
1808.1340594905
 20
99.9024144385
 30
0.0
 11
1807.6340594905
 21
99.4024144385
 31
0.0
  0
LINE
  5
738
100
AcDbEntity
  8
_Y__________
  6
CONTINUOUS
 62
         7
100
AcDbLine
 10
1881.3340594905
 20
99.9024144385
 30
0.0
 11
1881.8340594905
 21
99.4024144385
 31
0.0
  0
LINE
  5
739
100
AcDbEntity
  8
_Y__________
  6
CONTINUOUS
 62
         7
100
AcDbLine
 10
1881.3340594905
 20
124.6024144385
 30
0.0
 11
1881.8340594905
 21
125.1024144385
 31
0.0
  0
LINE
  5
73A
100
AcDbEntity
  8
_Y__________
  6
CONTINUOUS
 62
         7
100
AcDbLine
 10
1891.5752618713
 20
99.4024144385
 30
0.0
 11
1881.8340594905
 21
99.4024144385
 31
0.0
  0
LINE
  5
73B
100
AcDbEntity
  8
_Y__________
  6
CONTINUOUS
 62
         7
100
AcDbLine
 10
1892.5752618713
 20
98.4024144385
 30
0.0
 11
1891.5752618713
 21
99.4024144385
 31
0.0
  0
LINE
  5
73C
100
AcDbEntity
  8
_Y__________
  6
CONTINUOUS
 62
         7
100
AcDbLine
 10
1892.5752618713
 20
126.1024144385
 30
0.0
 11
1891.5752618713
 21
125.1024144385
 31
0.0
  0
LINE
  5
73D
100
AcDbEntity
  8
_Y__________
  6
CONTINUOUS
 62
         7
100
AcDbLine
 10
1891.5752618713
 20
125.1024144385
 30
0.0
 11
1881.8340594905
 21
125.1024144385
 31
0.0
  0
LINE
  5
73E
100
AcDbEntity
  8
_Y__________
  6
CONTINUOUS
 62
         7
100
AcDbLine
 10
1881.3340594905
 20
124.6024144385
 30
0.0
 11
1881.3340594905
 21
99.9024144385
 31
0.0
  0
LINE
  5
73F
100
AcDbEntity
  8
_Y__________
  6
CENTER
 62
         1
100
AcDbLine
 10
1845.8340594905
 20
60.0877915637
 30
0.0
 11
1845.8340594905
 21
168.3762179807
 31
0.0
  0
LINE
  5
740
100
AcDbEntity
  8
_Y__________
  6
CENTER
 62
         1
100
AcDbLine
 10
1791.0840594905
 20
112.2524144385
 30
0.0
 11
1900.5840594905
 21
112.2524144385
 31
0.0
  0
ARC
  5
741
100
AcDbEntity
  8
_Y__________
  6
CONTINUOUS
 62
         7
100
AcDbCircle
 10
1845.8340594905
 20
112.2524144385
 30
0.0
 40
48.75
100
AcDbArc
 50
196.5052120024
 51
343.4947879976
  0
ARC
  5
742
100
AcDbEntity
  8
_Y__________
  6
DASHED
 62
         2
100
AcDbCircle
 10
1845.8340594905
 20
112.2524144385
 30
0.0
 40
45.625
100
AcDbArc
 50
16.3583384794
 51
163.6416615206
  0
ARC
  5
743
100
AcDbEntity
  8
_Y__________
  6
CONTINUOUS
 62
         7
100
AcDbCircle
 10
1845.8340594905
 20
112.2524144385
 30
0.0
 40
48.75
100
AcDbArc
 50
16.5052120024
 51
163.4947879976
  0
ARC
  5
744
100
AcDbEntity
  8
_Y__________
  6
DASHED
 62
         2
100
AcDbCircle
 10
1845.8340594905
 20
112.2524144385
 30
0.0
 40
45.625
100
AcDbArc
 50
197.6716498685
 51
343.6416615206
  0
LINE
  5
745
100
AcDbEntity
  8
_Y__________
  6
CONTINUOUS
 62
         7
100
AcDbLine
 10
1531.3424295346
 20
161.0024144385
 30
0.0
 11
1531.3424295346
 21
126.1024144385
 31
0.0
  0
LINE
  5
746
100
AcDbEntity
  8
_Y__________
  6
CONTINUOUS
 62
         7
100
AcDbLine
 10
1533.0036999334
 20
158.125024977
 30
0.0
 11
1533.0036999334
 21
125.0823202736
 31
0.0
  0
LINE
  5
747
100
AcDbEntity
  8
_Y__________
  6
CONTINUOUS
 62
         7
100
AcDbLine
 10
1536.7536999334
 20
158.125024977
 30
0.0
 11
1536.7536999334
 21
125.0823202736
 31
0.0
  0
LINE
  5
748
100
AcDbEntity
  8
_Y__________
  6
CONTINUOUS
 62
         7
100
AcDbLine
 10
1538.4149703322
 20
161.0024144385
 30
0.0
 11
1538.4149703322
 21
126.1024144385
 31
0.0
  0
LINE
  5
749
100
AcDbEntity
  8
_Y__________
  6
CONTINUOUS
 62
         7
100
AcDbLine
 10
1542.7786999334
 20
126.1024144385
 30
0.0
 11
1541.7586057685
 21
125.0823202736
 31
0.0
  0
LINE
  5
74A
100
AcDbEntity
  8
_Y__________
  6
CONTINUOUS
 62
         7
100
AcDbLine
 10
1536.7536999334
 20
125.0823202736
 30
0.0
 11
1538.4149703322
 21
126.1024144385
 31
0.0
  0
LINE
  5
74B
100
AcDbEntity
  8
_Y__________
  6
CONTINUOUS
 62
         7
100
AcDbLine
 10
1541.7586057685
 20
125.0823202736
 30
0.0
 11
1527.9987940983
 21
125.0823202736
 31
0.0
  0
LINE
  5
74C
100
AcDbEntity
  8
_Y__________
  6
CONTINUOUS
 62
         7
100
AcDbLine
 10
1541.7586057685
 20
125.0823202736
 30
0.0
 11
1527.9987940983
 21
125.0823202736
 31
0.0
  0
LINE
  5
74D
100
AcDbEntity
  8
_Y__________
  6
CONTINUOUS
 62
         7
100
AcDbLine
 10
1531.3424295346
 20
126.1024144385
 30
0.0
 11
1526.9786999334
 21
126.1024144385
 31
0.0
  0
LINE
  5
74E
100
AcDbEntity
  8
_Y__________
  6
CONTINUOUS
 62
         7
100
AcDbLine
 10
1526.9786999334
 20
126.1024144385
 30
0.0
 11
1527.9987940983
 21
125.0823202736
 31
0.0
  0
LINE
  5
74F
100
AcDbEntity
  8
_Y__________
  6
CONTINUOUS
 62
         7
100
AcDbLine
 10
1531.3424295346
 20
126.1024144385
 30
0.0
 11
1533.0036999334
 21
125.0823202736
 31
0.0
  0
LINE
  5
750
100
AcDbEntity
  8
_Y__________
  6
CONTINUOUS
 62
         7
100
AcDbLine
 10
1542.8786999334
 20
126.1024144385
 30
0.0
 11
1538.4149703322
 21
126.1024144385
 31
0.0
  0
LINE
  5
751
100
AcDbEntity
  8
_Y__________
  6
CONTINUOUS
 62
         7
100
AcDbLine
 10
1531.3424295346
 20
98.4024144385
 30
0.0
 11
1531.3424295346
 21
63.5024144385
 31
0.0
  0
LINE
  5
752
100
AcDbEntity
  8
_Y__________
  6
CONTINUOUS
 62
         7
100
AcDbLine
 10
1533.0036999334
 20
99.4225086035
 30
0.0
 11
1533.0036999334
 21
66.3798039001
 31
0.0
  0
LINE
  5
753
100
AcDbEntity
  8
_Y__________
  6
CONTINUOUS
 62
         7
100
AcDbLine
 10
1536.7536999334
 20
99.4225086035
 30
0.0
 11
1536.7536999334
 21
66.3798039001
 31
0.0
  0
LINE
  5
754
100
AcDbEntity
  8
_Y__________
  6
CONTINUOUS
 62
         7
100
AcDbLine
 10
1538.4149703322
 20
98.4024144385
 30
0.0
 11
1538.4149703322
 21
63.5024144385
 31
0.0
  0
LINE
  5
755
100
AcDbEntity
  8
_Y__________
  6
CONTINUOUS
 62
         7
100
AcDbLine
 10
1542.7786999334
 20
98.4024144385
 30
0.0
 11
1541.7586057685
 21
99.4225086035
 31
0.0
  0
LINE
  5
756
100
AcDbEntity
  8
_Y__________
  6
CONTINUOUS
 62
         7
100
AcDbLine
 10
1536.7536999334
 20
99.4225086035
 30
0.0
 11
1538.4149703322
 21
98.4024144385
 31
0.0
  0
LINE
  5
757
100
AcDbEntity
  8
_Y__________
  6
CONTINUOUS
 62
         7
100
AcDbLine
 10
1541.7586057685
 20
99.4225086035
 30
0.0
 11
1527.9987940983
 21
99.4225086035
 31
0.0
  0
LINE
  5
758
100
AcDbEntity
  8
_Y__________
  6
CONTINUOUS
 62
         7
100
AcDbLine
 10
1541.7586057685
 20
99.4225086035
 30
0.0
 11
1527.9987940983
 21
99.4225086035
 31
0.0
  0
LINE
  5
759
100
AcDbEntity
  8
_Y__________
  6
CONTINUOUS
 62
         7
100
AcDbLine
 10
1531.3424295346
 20
98.4024144385
 30
0.0
 11
1533.0036999334
 21
99.4225086035
 31
0.0
  0
LINE
  5
75A
100
AcDbEntity
  8
_Y__________
  6
CONTINUOUS
 62
         7
100
AcDbLine
 10
1526.9786999334
 20
98.4024144385
 30
0.0
 11
1527.9987940983
 21
99.4225086035
 31
0.0
  0
LINE
  5
75B
100
AcDbEntity
  8
_Y__________
  6
CONTINUOUS
 62
         7
100
AcDbLine
 10
1531.3424295346
 20
98.4024144385
 30
0.0
 11
1526.9786999334
 21
98.4024144385
 31
0.0
  0
LINE
  5
75C
100
AcDbEntity
  8
_Y__________
  6
CONTINUOUS
 62
         7
100
AcDbLine
 10
1542.8786999334
 20
98.4024144385
 30
0.0
 11
1538.4149703322
 21
98.4024144385
 31
0.0
  0
LINE
  5
75D
100
AcDbEntity
  8
_Y__________
  6
CONTINUOUS
 62
         7
100
AcDbLine
 10
1476.4786999334
 20
-116.3436751498
 30
0.0
 11
1476.4786999334
 21
-137.1363580766
 31
0.0
  0
LINE
  5
75E
100
AcDbEntity
  8
_Y__________
  6
CONTINUOUS
 62
         7
100
AcDbLine
 10
1476.4786999334
 20
-116.3436751498
 30
0.0
 11
1430.4480438949
 21
-116.3436751498
 31
0.0
  0
LINE
  5
75F
100
AcDbEntity
  8
_Y__________
  6
CONTINUOUS
 62
         7
100
AcDbLine
 10
1476.4786999334
 20
-137.1363580766
 30
0.0
 11
1430.4480438949
 21
-137.1363580766
 31
0.0
  0
LINE
  5
760
100
AcDbEntity
  8
_Y__________
  6
CONTINUOUS
 62
         7
100
AcDbLine
 10
1476.4786999334
 20
-116.3436751498
 30
0.0
 11
1482.4810304759
 21
-126.7400166132
 31
0.0
  0
LINE
  5
761
100
AcDbEntity
  8
_Y__________
  6
CONTINUOUS
 62
         7
100
AcDbLine
 10
1476.4786999334
 20
-137.1363580766
 30
0.0
 11
1482.4810304759
 21
-126.7400166132
 31
0.0
  0
INSERT
  5
7C9
100
AcDbEntity
  8
0
  6
CONTINUOUS
100
AcDbBlockReference
  2
*X55
 10
0.0
 20
0.0
 30
0.0
  0
DIMENSION
  5
7CC
100
AcDbEntity
  8
L1_130
  6
CONTINUOUS
 62
         4
100
AcDbDimension
  2
*D56
 10
1601.7097640732
 20
117.0524144385
 30
0.0
 11
1597.6497640732
 21
62.4012925176
 31
0.0
  3
DIMSTYLE2
100
AcDbAlignedDimension
 13
1590.1836999334
 23
117.0524144385
 33
0.0
 14
1590.1836999334
 24
107.4524144385
 34
0.0
 50
90.0
100
AcDbRotatedDimension
  0
ENDSEC
  0
SECTION
  2
OBJECTS
  0
DICTIONARY
  5
19
100
AcDbDictionary
  3
ACAD_GROUP
350
1A
  3
ACAD_MLINESTYLE
350
1B
  0
DICTIONARY
  5
1A
102
{ACAD_REACTORS
330
19
102
}
100
AcDbDictionary
  0
DICTIONARY
  5
1B
102
{ACAD_REACTORS
330
19
102
}
100
AcDbDictionary
  3
STANDARD
350
1C
  0
MLINESTYLE
  5
1C
102
{ACAD_REACTORS
330
1B
102
}
100
AcDbMlineStyle
  2
STANDARD
 70
         0
  3

 62
         0
 51
90.0
 52
90.0
 71
         2
 49
0.5
 62
       256
  6
BYLAYER
 49
-0.5
 62
       256
  6
BYLAYER
  0
ENDSEC
  0
EOF
