  0
SECTION
  2
HEADER
  9
$ACADVER
  1
AC1014
  9
$ACADMAINTVER
 70
         0
  9
$DWGCODEPAGE
  3
BIG5
  9
$INSBASE
 10
0.0
 20
0.0
 30
0.0
  9
$EXTMIN
 10
1116.1687201814
 20
-195.2311829862
 30
0.0
  9
$EXTMAX
 10
1977.5974773046
 20
239.0744772198
 30
0.0
  9
$LIMMIN
 10
0.0
 20
0.0
  9
$LIMMAX
 10
0.0
 20
0.0
  9
$ORTHOMODE
 70
         0
  9
$REGENMODE
 70
         1
  9
$FILLMODE
 70
         1
  9
$QTEXTMODE
 70
         0
  9
$MIRRTEXT
 70
         1
  9
$DRAGMODE
 70
         2
  9
$LTSCALE
 40
1.0
  9
$OSMODE
 70
         0
  9
$ATTMODE
 70
         1
  9
$TEXTSIZE
 40
6.0
  9
$TRACEWID
 40
0.05
  9
$TEXTSTYLE
  7
STANDARD
  9
$CLAYER
  8
0
  9
$CELTYPE
  6
CONTINUOUS
  9
$CECOLOR
 62
        16
  9
$CELTSCALE
 40
1.0
  9
$DELOBJ
 70
         1
  9
$DISPSILH
 70
         0
  9
$DIMSCALE
 40
1.0
  9
$DIMASZ
 40
0.18
  9
$DIMEXO
 40
0.0625
  9
$DIMDLI
 40
0.38
  9
$DIMRND
 40
0.0
  9
$DIMDLE
 40
0.0
  9
$DIMEXE
 40
0.25
  9
$DIMTP
 40
0.01
  9
$DIMTM
 40
-0.01
  9
$DIMTXT
 40
3.5
  9
$DIMCEN
 40
0.09
  9
$DIMTSZ
 40
0.0
  9
$DIMTOL
 70
         0
  9
$DIMLIM
 70
         0
  9
$DIMTIH
 70
         1
  9
$DIMTOH
 70
         1
  9
$DIMSE1
 70
         0
  9
$DIMSE2
 70
         0
  9
$DIMTAD
 70
         0
  9
$DIMZIN
 70
         0
  9
$DIMBLK
  1

  9
$DIMASO
 70
         1
  9
$DIMSHO
 70
         1
  9
$DIMPOST
  1

  9
$DIMAPOST
  1

  9
$DIMALT
 70
         0
  9
$DIMALTD
 70
         2
  9
$DIMALTF
 40
25.4
  9
$DIMLFAC
 40
1.0
  9
$DIMTOFL
 70
         0
  9
$DIMTVP
 40
0.0
  9
$DIMTIX
 70
         0
  9
$DIMSOXD
 70
         0
  9
$DIMSAH
 70
         0
  9
$DIMBLK1
  1

  9
$DIMBLK2
  1

  9
$DIMSTYLE
  2
STANDARD
  9
$DIMCLRD
 70
         0
  9
$DIMCLRE
 70
         0
  9
$DIMCLRT
 70
        16
  9
$DIMTFAC
 40
0.7
  9
$DIMGAP
 40
0.09
  9
$DIMJUST
 70
         0
  9
$DIMSD1
 70
         0
  9
$DIMSD2
 70
         0
  9
$DIMTOLJ
 70
         1
  9
$DIMTZIN
 70
         0
  9
$DIMALTZ
 70
         0
  9
$DIMALTTZ
 70
         0
  9
$DIMFIT
 70
         3
  9
$DIMUPT
 70
         0
  9
$DIMUNIT
 70
         2
  9
$DIMDEC
 70
         4
  9
$DIMTDEC
 70
         4
  9
$DIMALTU
 70
         2
  9
$DIMALTTD
 70
         2
  9
$DIMTXSTY
  7
STANDARD
  9
$DIMAUNIT
 70
         0
  9
$LUNITS
 70
         2
  9
$LUPREC
 70
        10
  9
$SKETCHINC
 40
0.1
  9
$FILLETRAD
 40
0.0
  9
$AUNITS
 70
         0
  9
$AUPREC
 70
         0
  9
$MENU
  1
acad
  9
$ELEVATION
 40
0.0
  9
$PELEVATION
 40
0.0
  9
$THICKNESS
 40
0.0
  9
$LIMCHECK
 70
         0
  9
$BLIPMODE
 70
         1
  9
$CHAMFERA
 40
0.0
  9
$CHAMFERB
 40
0.0
  9
$CHAMFERC
 40
0.0
  9
$CHAMFERD
 40
0.0
  9
$SKPOLY
 70
         0
  9
$TDCREATE
 40
0.000000000
  9
$TDUPDATE
 40
0.000000000
  9
$TDINDWG
 40
0.0000000000
  9
$TDUSRTIMER
 40
0.0000000000
  9
$USRTIMER
 70
         1
  9
$ANGBASE
 50
0.0
  9
$ANGDIR
 70
         0
  9
$PDMODE
 70
         2
  9
$PDSIZE
 40
0.0
  9
$PLINEWID
 40
0.0
  9
$COORDS
 70
         1
  9
$SPLFRAME
 70
         0
  9
$SPLINETYPE
 70
         6
  9
$SPLINESEGS
 70
         8
  9
$ATTDIA
 70
         0
  9
$ATTREQ
 70
         1
  9
$HANDLING
 70
         1
  9
$HANDSEED
  5
46E
  9
$SURFTAB1
 70
         6
  9
$SURFTAB2
 70
         6
  9
$SURFTYPE
 70
         6
  9
$SURFU
 70
         6
  9
$SURFV
 70
         6
  9
$UCSNAME
  2

  9
$UCSORG
 10
0.0
 20
0.0
 30
0.0
  9
$UCSXDIR
 10
1.0
 20
0.0
 30
0.0
  9
$UCSYDIR
 10
0.0
 20
1.0
 30
0.0
  9
$PUCSNAME
  2

  9
$PUCSORG
 10
0.0
 20
0.0
 30
0.0
  9
$PUCSXDIR
 10
1.0
 20
0.0
 30
0.0
  9
$PUCSYDIR
 10
0.0
 20
1.0
 30
0.0
  9
$USERI1
 70
         0
  9
$USERI2
 70
         0
  9
$USERI3
 70
         0
  9
$USERI4
 70
         0
  9
$USERI5
 70
         0
  9
$USERR1
 40
0.0
  9
$USERR2
 40
0.0
  9
$USERR3
 40
0.0
  9
$USERR4
 40
0.0
  9
$USERR5
 40
0.0
  9
$WORLDVIEW
 70
         1
  9
$SHADEDGE
 70
         3
  9
$SHADEDIF
 70
        70
  9
$TILEMODE
 70
         1
  9
$MAXACTVP
 70
        16
  9
$PINSBASE
 10
0.0
 20
0.0
 30
0.0
  9
$PLIMCHECK
 70
         0
  9
$PEXTMIN
 10
1.0000000000E+20
 20
1.0000000000E+20
 30
1.0000000000E+20
  9
$PEXTMAX
 10
-1.0000000000E+20
 20
-1.0000000000E+20
 30
-1.0000000000E+20
  9
$PLIMMIN
 10
0.0
 20
0.0
  9
$PLIMMAX
 10
12.0
 20
9.0
  9
$UNITMODE
 70
         0
  9
$VISRETAIN
 70
         0
  9
$PLINEGEN
 70
         1
  9
$PSLTSCALE
 70
         0
  9
$TREEDEPTH
 70
      3020
  9
$PICKSTYLE
 70
         1
  9
$CMLSTYLE
  2
STANDARD
  9
$CMLJUST
 70
         0
  9
$CMLSCALE
 40
1.0
  9
$PROXYGRAPHICS
 70
         0
  9
$MEASUREMENT
 70
         0
  0
ENDSEC
  0
SECTION
  2
CLASSES
  0
CLASS
  1
LWPOLYLINE
  2
AcDbPolyline
  3
"AutoCAD"
 90
        0
280
         0
281
         1
  0
CLASS
  1
IMAGE
  2
AcDbRasterImage
  3
ISM
 90
      127
280
         0
281
         1
  0
CLASS
  1
OLE2FRAME
  2
AcDbOle2Frame
  3
""
 90
        0
280
         0
281
         1
  0
CLASS
  1
HATCH
  2
AcDbHatch
  3
"ACAD_SEDONA"
 90
        0
280
         0
281
         1
  0
CLASS
  1
DICTIONARYVAR
  2
AcDbDictionaryVar
  3
"AutoCAD"
 90
        0
280
         0
281
         0
  0
CLASS
  1
RASTERVARIABLES
  2
AcDbRasterVariables
  3
ISM
 90
        0
280
         0
281
         0
  0
CLASS
  1
IMAGEDEF
  2
AcDbRasterImageDef
  3
ISM
 90
        0
280
         0
281
         0
  0
CLASS
  1
IMAGEDEF_REACTOR
  2
AcDbRasterImageDefReactor
  3
ISM
 90
        1
280
         0
281
         0
  0
CLASS
  1
IDBUFFER
  2
AcDbIdBuffer
  3
"Acad"
 90
        0
280
         0
281
         0
  0
CLASS
  1
SPATIAL_FILTER
  2
AcDbSpatialFilter
  3
"Acad"
 90
        0
280
         0
281
         0
  0
CLASS
  1
XRECORD
  2
AcDbXrecord
  3
"<Built In>"
 90
        0
280
         0
281
         0
  0
CLASS
  1
SORTENTSTABLE
  2
AcDbSortentsTable
  3
"AutoCAD"
 90
        0
280
         0
281
         0
  0
CLASS
  1
LAYER_INDEX
  2
AcDbLayerIndex
  3
"Acad"
 90
        0
280
         0
281
         0
  0
CLASS
  1
SPATIAL_INDEX
  2
AcDbSpatialIndex
  3
"Acad"
 90
        0
280
         0
281
         0
  0
CLASS
  1
OBJECT_PTR
  2
CAseDLPNTableRecord
  3
"ASE-LPNTableRecord"
 90
        1
280
         0
281
         0
  0
CLASS
  1
LAYOUT
  2
AcDbLayout
  3
"AutoCAD 2000"
 90
        1
280
         0
281
         0
  0
CLASS
  1
PLOTSETTINGS
  2
AcDbPlotSettings
  3
"AutoCAD 2000"
 90
        1
280
         0
281
         0
  0
CLASS
  1
ACDBDICTIONARYWDFLT
  2
AcDbDictionaryWithDefault
  3
"AutoCAD 2000"
 90
        1
280
         0
281
         0
  0
CLASS
  1
ACDBPLACEHOLDER
  2
AcDbPlaceHolder
  3
"AutoCAD 2000"
 90
        1
280
         0
281
         0
  0
CLASS
  1
VBA_PROJECT
  2
AcDbVbaProject
  3
"acadvba"
 90
        1
280
         0
281
         0
  0
CLASS
  1
WIPEOUT
  2
AcDbWipeout
  3
WipeOut|AutoCAD Express Tool|expresstools@autodesk.com
 90
      127
280
         0
281
         1
  0
CLASS
  1
WIPEOUTVARIABLES
  2
AcDbWipeoutVariables
  3
WipeOut|AutoCAD Express Tool|expresstools@autodesk.com
 90
        0
280
         0
281
         0
  0
CLASS
  1
RTEXT
  2
RText
  3
RText|AutoCAD Express Tool|expresstools@autodesk.com
 90
        0
280
         0
281
         1
  0
CLASS
  1
ARCALIGNEDTEXT
  2
AcDbArcAlignedText
  3
ATEXT|AutoCAD Express Tool|expresstools@autodesk.com
 90
        0
280
         0
281
         1
  0
ENDSEC
  0
SECTION
  2
TABLES
  0
TABLE
  2
VPORT
  5
7
100
AcDbSymbolTable
 70
         1
  0
VPORT
  5
15
100
AcDbSymbolTableRecord
100
AcDbViewportTableRecord
  2
*ACTIVE
 70
         0
 10
0.0
 20
0.0
 11
1.0
 21
1.0
 12
1546.883098743
 22
21.9216471168
 13
0.0
 23
0.0
 14
1.0
 24
1.0
 15
0.0
 25
0.0
 16
0.0
 26
0.0
 36
1.0
 17
0.0
 27
0.0
 37
0.0
 40
434.305660206
 41
1.9834619625
 42
50.0
 43
0.0
 44
0.0
 50
0.0
 51
0.0
 71
         0
 72
       100
 73
         1
 74
         1
 75
         0
 76
         0
 77
         0
 78
         0
  0
ENDTAB
  0
TABLE
  2
LTYPE
  5
4
100
AcDbSymbolTable
 70
         6
  0
LTYPE
  5
11
100
AcDbSymbolTableRecord
100
AcDbLinetypeTableRecord
  2
BYBLOCK
 70
        64
  3

 72
        65
 73
         0
 40
0.0
  0
LTYPE
  5
12
100
AcDbSymbolTableRecord
100
AcDbLinetypeTableRecord
  2
BYLAYER
 70
        64
  3

 72
        65
 73
         0
 40
0.0
  0
LTYPE
  5
13
100
AcDbSymbolTableRecord
100
AcDbLinetypeTableRecord
  2
CONTINUOUS
 70
        64
  3
Solid line
 72
        65
 73
         0
 40
0.0
  0
LTYPE
  5
1D
100
AcDbSymbolTableRecord
100
AcDbLinetypeTableRecord
  2
DASHED
 70
        64
  3
_ _ _ _ _ _ _ _ _ _ _ _ _ _ _ _
 72
        65
 73
         2
 40
0.2
 49
0.1
 74
         0
 49
-0.1
 74
         0
  0
LTYPE
  5
1E
100
AcDbSymbolTableRecord
100
AcDbLinetypeTableRecord
  2
CENTER
 70
        64
  3
___ _ ___ _ ___ _ ___ _ ___ _ ___ _ ___ _ ___ _
 72
        65
 73
         4
 40
0.95
 49
0.625
 74
         0
 49
-0.125
 74
         0
 49
0.075
 74
         0
 49
-0.125
 74
         0
  0
LTYPE
  5
1F
100
AcDbSymbolTableRecord
100
AcDbLinetypeTableRecord
  2
PHANTOM
 70
        64
  3
______  __  __  ______  __  __  ______  __  __  
 72
        65
 73
         6
 40
1.025
 49
0.625
 74
         0
 49
-0.125
 74
         0
 49
0.075
 74
         0
 49
-0.125
 74
         0
 49
0.075
 74
         0
 49
-0.125
 74
         0
  0
ENDTAB
  0
TABLE
  2
LAYER
  5
2
100
AcDbSymbolTable
 70
         5
  0
LAYER
  5
14
100
AcDbSymbolTableRecord
100
AcDbLayerTableRecord
  2
0
 70
         0
 62
         7
  6
CONTINUOUS
  0
LAYER
  5
21
100
AcDbSymbolTableRecord
100
AcDbLayerTableRecord
  2
_____U
 70
         1
 62
         7
  6
CONTINUOUS
  0
LAYER
  5
22
100
AcDbSymbolTableRecord
100
AcDbLayerTableRecord
  2
_Y__________
 70
         0
 62
         7
  6
CONTINUOUS
  0
LAYER
  5
23
100
AcDbSymbolTableRecord
100
AcDbLayerTableRecord
  2
L1_75
 70
         0
 62
         7
  6
CONTINUOUS
  0
LAYER
  5
136
100
AcDbSymbolTableRecord
100
AcDbLayerTableRecord
  2
DEFPOINTS
 70
         0
 62
        -7
  6
CONTINUOUS
  0
ENDTAB
  0
TABLE
  2
STYLE
  5
3
100
AcDbSymbolTable
 70
         9
  0
STYLE
  5
17
100
AcDbSymbolTableRecord
100
AcDbTextStyleTableRecord
  2
STANDARD
 70
         0
 40
0.0
 41
1.0
 50
0.0
 71
         0
 42
0.0
  3
txt
  4

  0
STYLE
  5
24
100
AcDbSymbolTableRecord
100
AcDbTextStyleTableRecord
  2
BOX
 70
         0
 40
1.0
 41
1.0
 50
0.0
 71
         0
 42
0.2
  3
txt.shx
  4

  0
STYLE
  5
13F
100
AcDbSymbolTableRecord
100
AcDbTextStyleTableRecord
  2
BOX
 70
         0
 40
1.0
 41
1.0
 50
0.0
 71
         0
 42
0.2
  3
txt.shx
  4

  0
STYLE
  5
14D
100
AcDbSymbolTableRecord
100
AcDbTextStyleTableRecord
  2
BOX
 70
         0
 40
1.0
 41
1.0
 50
0.0
 71
         0
 42
0.2
  3
txt.shx
  4

  0
STYLE
  5
221
100
AcDbSymbolTableRecord
100
AcDbTextStyleTableRecord
  2
BOX
 70
         0
 40
1.0
 41
1.0
 50
0.0
 71
         0
 42
0.2
  3
txt.shx
  4

  0
STYLE
  5
36E
100
AcDbSymbolTableRecord
100
AcDbTextStyleTableRecord
  2
BOX
 70
         0
 40
1.0
 41
1.0
 50
0.0
 71
         0
 42
0.2
  3
txt.shx
  4

  0
STYLE
  5
37C
100
AcDbSymbolTableRecord
100
AcDbTextStyleTableRecord
  2
BOX
 70
         0
 40
1.0
 41
1.0
 50
0.0
 71
         0
 42
0.2
  3
txt.shx
  4

  0
STYLE
  5
40E
100
AcDbSymbolTableRecord
100
AcDbTextStyleTableRecord
  2
BOX
 70
         0
 40
1.0
 41
1.0
 50
0.0
 71
         0
 42
0.2
  3
txt.shx
  4

  0
STYLE
  5
410
100
AcDbSymbolTableRecord
100
AcDbTextStyleTableRecord
  2
BOX
 70
         0
 40
1.0
 41
1.0
 50
0.0
 71
         0
 42
0.2
  3
txt.shx
  4

  0
ENDTAB
  0
TABLE
  2
VIEW
  5
5
100
AcDbSymbolTable
 70
         0
  0
ENDTAB
  0
TABLE
  2
UCS
  5
6
100
AcDbSymbolTable
 70
         1
  0
UCS
  5
20
100
AcDbSymbolTableRecord
100
AcDbUCSTableRecord
  2
CK_VIEW_1
 70
         0
 10
0.0
 20
0.0
 30
1.0
 11
1.0
 21
0.0
 31
0.0
 12
0.0
 22
1.0
 32
0.0
  0
ENDTAB
  0
TABLE
  2
APPID
  5
8
100
AcDbSymbolTable
 70
         1
  0
APPID
  5
16
100
AcDbSymbolTableRecord
100
AcDbRegAppTableRecord
  2
ACAD
 70
         0
  0
ENDTAB
  0
TABLE
  2
DIMSTYLE
  5
9
100
AcDbSymbolTable
 70
         2
  0
DIMSTYLE
105
18
100
AcDbSymbolTableRecord
100
AcDbDimStyleTableRecord
  2
STANDARD
 70
         0
  3

  4

  5

  6

  7

 40
1.0
 41
0.18
 42
0.0625
 43
0.38
 44
0.18
 45
0.0
 46
0.0
 47
0.0
 48
0.0
 71
         0
 72
         0
 73
         1
 74
         1
 75
         0
 76
         0
 77
         0
 78
         0
140
0.18
141
0.09
142
0.0
143
25.4
144
1.0
145
0.0
146
1.0
147
0.09
170
         0
171
         2
172
         0
173
         0
174
         0
175
         0
176
         0
177
         0
178
         0
270
         2
271
         4
272
         4
273
         2
274
         2
275
         0
280
         0
281
         0
282
         0
283
         1
284
         0
285
         0
286
         0
287
         0
288
         0
340
17
  0
DIMSTYLE
105
132
100
AcDbSymbolTableRecord
100
AcDbDimStyleTableRecord
  2
DIMSTYLE1
 70
         0
  3

  4

  5

  6

  7

 40
1.0
 41
3.5
 42
0.0625
 43
0.38
 44
3.5
 45
0.0
 46
0.0
 47
0.0
 48
0.0
 71
         0
 72
         0
 73
         1
 74
         1
 75
         0
 76
         0
 77
         0
 78
         0
140
3.5
141
0.09
142
0.0
143
25.4
144
1.0
145
0.0
146
1.0
147
0.09
170
         0
171
         2
172
         0
173
         0
174
         0
175
         0
176
         0
177
         0
178
         0
270
         2
271
         4
272
         4
273
         2
274
         2
275
         0
280
         0
281
         0
282
         0
283
         1
284
         0
285
         0
286
         0
287
         0
288
         0
340
17
  0
ENDTAB
  0
TABLE
  2
BLOCK_RECORD
  5
1
100
AcDbSymbolTable
 70
         7
  0
BLOCK_RECORD
  5
A
100
AcDbSymbolTableRecord
100
AcDbBlockTableRecord
  2
*MODEL_SPACE
  0
BLOCK_RECORD
  5
B
100
AcDbSymbolTableRecord
100
AcDbBlockTableRecord
  2
*PAPER_SPACE
  0
BLOCK_RECORD
  5
133
100
AcDbSymbolTableRecord
100
AcDbBlockTableRecord
  2
*D0
  0
BLOCK_RECORD
  5
142
100
AcDbSymbolTableRecord
100
AcDbBlockTableRecord
  2
*D1
  0
BLOCK_RECORD
  5
216
100
AcDbSymbolTableRecord
100
AcDbBlockTableRecord
  2
*D2
  0
BLOCK_RECORD
  5
363
100
AcDbSymbolTableRecord
100
AcDbBlockTableRecord
  2
*D3
  0
BLOCK_RECORD
  5
371
100
AcDbSymbolTableRecord
100
AcDbBlockTableRecord
  2
*D4
  0
BLOCK_RECORD
  5
403
100
AcDbSymbolTableRecord
100
AcDbBlockTableRecord
  2
*D5
  0
BLOCK_RECORD
  5
41A
100
AcDbSymbolTableRecord
100
AcDbBlockTableRecord
  2
*X6
  0
ENDTAB
  0
ENDSEC
  0
SECTION
  2
BLOCKS
  0
BLOCK
  5
D
100
AcDbEntity
  8
0
100
AcDbBlockBegin
  2
*MODEL_SPACE
 70
         0
 10
0.0
 20
0.0
 30
0.0
  3
*MODEL_SPACE
  1

  0
ENDBLK
  5
E
100
AcDbEntity
  8
0
100
AcDbBlockEnd
  0
BLOCK
  5
F
100
AcDbEntity
 67
         1
  8
0
100
AcDbBlockBegin
  2
*PAPER_SPACE
 70
         0
 10
0.0
 20
0.0
 30
0.0
  3
*PAPER_SPACE
  1

  0
ENDBLK
  5
10
100
AcDbEntity
 67
         1
  8
0
100
AcDbBlockEnd
  0
BLOCK
  5
134
100
AcDbEntity
  8
0
100
AcDbBlockBegin
  2
*D0
 70
        65
 10
0.0
 20
0.0
 30
0.0
  3
*D0
  1

  0
POINT
  5
137
100
AcDbEntity
  8
DEFPOINTS
  6
CONTINUOUS
 62
         0
100
AcDbPoint
 10
1523.7786999334
 20
200.1830771768
 30
0.0
  0
POINT
  5
138
100
AcDbEntity
  8
DEFPOINTS
  6
CONTINUOUS
 62
         0
100
AcDbPoint
 10
1523.7786999334
 20
151.9774144385
 30
0.0
  0
POINT
  5
139
100
AcDbEntity
  8
DEFPOINTS
  6
CONTINUOUS
 62
         0
100
AcDbPoint
 10
1598.7786999334
 20
124.7524144385
 30
0.0
  0
LINE
  5
13A
100
AcDbEntity
  8
L1_75
  6
CONTINUOUS
 62
         4
100
AcDbLine
 10
1523.7786999334
 20
153.7274144385
 30
0.0
 11
1523.7786999334
 21
201.0580771768
 31
0.0
  0
LINE
  5
13B
100
AcDbEntity
  8
L1_75
  6
CONTINUOUS
 62
         4
100
AcDbLine
 10
1598.7786999334
 20
126.5024144385
 30
0.0
 11
1598.7786999334
 21
201.0580771768
 31
0.0
  0
LINE
  5
13C
100
AcDbEntity
  8
L1_75
  6
CONTINUOUS
 62
         4
100
AcDbLine
 10
1523.7786999334
 20
200.1830771768
 30
0.0
 11
1598.7786999334
 21
200.1830771768
 31
0.0
  0
SOLID
  5
13D
100
AcDbEntity
  8
L1_75
  6
CONTINUOUS
 62
         4
100
AcDbTrace
 10
1523.7786999334
 20
200.1830771768
 30
0.0
 11
1527.2786999334
 21
200.7080771768
 31
0.0
 12
1527.2786999334
 22
199.6580771768
 32
0.0
 13
1523.7786999334
 23
200.1830771768
 33
0.0
  0
SOLID
  5
13E
100
AcDbEntity
  8
L1_75
  6
CONTINUOUS
 62
         4
100
AcDbTrace
 10
1598.7786999334
 20
200.1830771768
 30
0.0
 11
1595.2786999334
 21
199.6580771768
 31
0.0
 12
1595.2786999334
 22
200.7080771768
 32
0.0
 13
1598.7786999334
 23
200.1830771768
 33
0.0
  0
TEXT
  5
140
100
AcDbEntity
  8
L1_75
  6
CONTINUOUS
 62
         4
100
AcDbText
 10
1557.7786999334
 20
202.8080771768
 30
0.0
 40
3.5
  1
75
  7
BOX
100
AcDbText
  0
ENDBLK
  5
141
100
AcDbEntity
  8
0
  6
CONTINUOUS
100
AcDbBlockEnd
  0
BLOCK
  5
143
100
AcDbEntity
  8
0
100
AcDbBlockBegin
  2
*D1
 70
        65
 10
0.0
 20
0.0
 30
0.0
  3
*D1
  1

  0
POINT
  5
145
100
AcDbEntity
  8
DEFPOINTS
  6
CONTINUOUS
 62
         0
100
AcDbPoint
 10
1422.1786999334
 20
213.2083108468
 30
0.0
  0
POINT
  5
146
100
AcDbEntity
  8
DEFPOINTS
  6
CONTINUOUS
 62
         0
100
AcDbPoint
 10
1422.1786999334
 20
130.1987502026
 30
0.0
  0
POINT
  5
147
100
AcDbEntity
  8
DEFPOINTS
  6
CONTINUOUS
 62
         0
100
AcDbPoint
 10
1598.7786999334
 20
124.7524144385
 30
0.0
  0
LINE
  5
148
100
AcDbEntity
  8
L1_75
  6
CONTINUOUS
 62
         4
100
AcDbLine
 10
1422.1786999334
 20
131.9487502026
 30
0.0
 11
1422.1786999334
 21
214.0833108468
 31
0.0
  0
LINE
  5
149
100
AcDbEntity
  8
L1_75
  6
CONTINUOUS
 62
         4
100
AcDbLine
 10
1598.7786999334
 20
126.5024144385
 30
0.0
 11
1598.7786999334
 21
214.0833108468
 31
0.0
  0
LINE
  5
14A
100
AcDbEntity
  8
L1_75
  6
CONTINUOUS
 62
         4
100
AcDbLine
 10
1422.1786999334
 20
213.2083108468
 30
0.0
 11
1598.7786999334
 21
213.2083108468
 31
0.0
  0
SOLID
  5
14B
100
AcDbEntity
  8
L1_75
  6
CONTINUOUS
 62
         4
100
AcDbTrace
 10
1422.1786999334
 20
213.2083108468
 30
0.0
 11
1425.6786999334
 21
213.7333108468
 31
0.0
 12
1425.6786999334
 22
212.6833108468
 32
0.0
 13
1422.1786999334
 23
213.2083108468
 33
0.0
  0
SOLID
  5
14C
100
AcDbEntity
  8
L1_75
  6
CONTINUOUS
 62
         4
100
AcDbTrace
 10
1598.7786999334
 20
213.2083108468
 30
0.0
 11
1595.2786999334
 21
212.6833108468
 31
0.0
 12
1595.2786999334
 22
213.7333108468
 32
0.0
 13
1598.7786999334
 23
213.2083108468
 33
0.0
  0
TEXT
  5
14E
100
AcDbEntity
  8
L1_75
  6
CONTINUOUS
 62
         4
100
AcDbText
 10
1501.7286999334
 20
215.8333108468
 30
0.0
 40
3.5
  1
176.6
  7
BOX
100
AcDbText
  0
ENDBLK
  5
14F
100
AcDbEntity
  8
0
  6
CONTINUOUS
100
AcDbBlockEnd
  0
BLOCK
  5
217
100
AcDbEntity
  8
0
100
AcDbBlockBegin
  2
*D2
 70
        65
 10
0.0
 20
0.0
 30
0.0
  3
*D2
  1

  0
POINT
  5
219
100
AcDbEntity
  8
DEFPOINTS
  6
CONTINUOUS
 62
         0
100
AcDbPoint
 10
1643.6358142477
 20
125.2524144385
 30
0.0
  0
POINT
  5
21A
100
AcDbEntity
  8
DEFPOINTS
  6
CONTINUOUS
 62
         0
100
AcDbPoint
 10
1598.2786999334
 20
125.2524144385
 30
0.0
  0
POINT
  5
21B
100
AcDbEntity
  8
DEFPOINTS
  6
CONTINUOUS
 62
         0
100
AcDbPoint
 10
1598.2786999334
 20
99.2524144385
 30
0.0
  0
LINE
  5
21C
100
AcDbEntity
  8
L1_75
  6
CONTINUOUS
 62
         4
100
AcDbLine
 10
1600.0286999334
 20
125.2524144385
 30
0.0
 11
1644.5108142477
 21
125.2524144385
 31
0.0
  0
LINE
  5
21D
100
AcDbEntity
  8
L1_75
  6
CONTINUOUS
 62
         4
100
AcDbLine
 10
1600.0286999334
 20
99.2524144385
 30
0.0
 11
1644.5108142477
 21
99.2524144385
 31
0.0
  0
LINE
  5
21E
100
AcDbEntity
  8
L1_75
  6
CONTINUOUS
 62
         4
100
AcDbLine
 10
1643.6358142477
 20
125.2524144385
 30
0.0
 11
1643.6358142477
 21
99.2524144385
 31
0.0
  0
SOLID
  5
21F
100
AcDbEntity
  8
L1_75
  6
CONTINUOUS
 62
         4
100
AcDbTrace
 10
1643.6358142477
 20
125.2524144385
 30
0.0
 11
1644.1608142477
 21
121.7524144385
 31
0.0
 12
1643.1108142477
 22
121.7524144385
 32
0.0
 13
1643.6358142477
 23
125.2524144385
 33
0.0
  0
SOLID
  5
220
100
AcDbEntity
  8
L1_75
  6
CONTINUOUS
 62
         4
100
AcDbTrace
 10
1643.6358142477
 20
99.2524144385
 30
0.0
 11
1643.1108142477
 21
102.7524144385
 31
0.0
 12
1644.1608142477
 22
102.7524144385
 32
0.0
 13
1643.6358142477
 23
99.2524144385
 33
0.0
  0
TEXT
  5
222
100
AcDbEntity
  8
L1_75
  6
CONTINUOUS
 62
         4
100
AcDbText
 10
1639.5758142477
 20
101.9948495066
 30
0.0
 40
3.5
  1
崷26
 50
90.0
  7
BOX
100
AcDbText
  0
ENDBLK
  5
223
100
AcDbEntity
  8
0
  6
CONTINUOUS
100
AcDbBlockEnd
  0
BLOCK
  5
364
100
AcDbEntity
  8
0
100
AcDbBlockBegin
  2
*D3
 70
        65
 10
0.0
 20
0.0
 30
0.0
  3
*D3
  1

  0
POINT
  5
366
100
AcDbEntity
  8
DEFPOINTS
  6
CONTINUOUS
 62
         0
100
AcDbPoint
 10
1637.4274582139
 20
-117.2400166132
 30
0.0
  0
POINT
  5
367
100
AcDbEntity
  8
DEFPOINTS
  6
CONTINUOUS
 62
         0
100
AcDbPoint
 10
1596.7786999334
 20
-117.2400166132
 30
0.0
  0
POINT
  5
368
100
AcDbEntity
  8
DEFPOINTS
  6
CONTINUOUS
 62
         0
100
AcDbPoint
 10
1596.7786999334
 20
-136.2400166132
 30
0.0
  0
LINE
  5
369
100
AcDbEntity
  8
L1_75
  6
CONTINUOUS
 62
         4
100
AcDbLine
 10
1598.5286999334
 20
-117.2400166132
 30
0.0
 11
1638.3024582139
 21
-117.2400166132
 31
0.0
  0
LINE
  5
36A
100
AcDbEntity
  8
L1_75
  6
CONTINUOUS
 62
         4
100
AcDbLine
 10
1598.5286999334
 20
-136.2400166132
 30
0.0
 11
1638.3024582139
 21
-136.2400166132
 31
0.0
  0
LINE
  5
36B
100
AcDbEntity
  8
L1_75
  6
CONTINUOUS
 62
         4
100
AcDbLine
 10
1637.4274582139
 20
-117.2400166132
 30
0.0
 11
1637.4274582139
 21
-136.2400166132
 31
0.0
  0
SOLID
  5
36C
100
AcDbEntity
  8
L1_75
  6
CONTINUOUS
 62
         4
100
AcDbTrace
 10
1637.4274582139
 20
-117.2400166132
 30
0.0
 11
1637.9524582139
 21
-120.7400166132
 31
0.0
 12
1636.9024582139
 22
-120.7400166132
 32
0.0
 13
1637.4274582139
 23
-117.2400166132
 33
0.0
  0
SOLID
  5
36D
100
AcDbEntity
  8
L1_75
  6
CONTINUOUS
 62
         4
100
AcDbTrace
 10
1637.4274582139
 20
-136.2400166132
 30
0.0
 11
1636.9024582139
 21
-132.7400166132
 31
0.0
 12
1637.9524582139
 22
-132.7400166132
 32
0.0
 13
1637.4274582139
 23
-136.2400166132
 33
0.0
  0
TEXT
  5
36F
100
AcDbEntity
  8
L1_75
  6
CONTINUOUS
 62
         4
100
AcDbText
 10
1633.3674582139
 20
-140.2463701508
 30
0.0
 40
3.5
  1
崷19
 50
90.0
  7
BOX
100
AcDbText
  0
ENDBLK
  5
370
100
AcDbEntity
  8
0
  6
CONTINUOUS
100
AcDbBlockEnd
  0
BLOCK
  5
372
100
AcDbEntity
  8
0
100
AcDbBlockBegin
  2
*D4
 70
        65
 10
0.0
 20
0.0
 30
0.0
  3
*D4
  1

  0
POINT
  5
374
100
AcDbEntity
  8
DEFPOINTS
  6
CONTINUOUS
 62
         0
100
AcDbPoint
 10
1598.7786999334
 20
-161.4719976464
 30
0.0
  0
POINT
  5
375
100
AcDbEntity
  8
DEFPOINTS
  6
CONTINUOUS
 62
         0
100
AcDbPoint
 10
1598.7786999334
 20
-132.4900166132
 30
0.0
  0
POINT
  5
376
100
AcDbEntity
  8
DEFPOINTS
  6
CONTINUOUS
 62
         0
100
AcDbPoint
 10
1571.7786999334
 20
-136.7400166132
 30
0.0
  0
LINE
  5
377
100
AcDbEntity
  8
L1_75
  6
CONTINUOUS
 62
         4
100
AcDbLine
 10
1598.7786999334
 20
-134.2400166132
 30
0.0
 11
1598.7786999334
 21
-162.3469976464
 31
0.0
  0
LINE
  5
378
100
AcDbEntity
  8
L1_75
  6
CONTINUOUS
 62
         4
100
AcDbLine
 10
1571.7786999334
 20
-138.4900166132
 30
0.0
 11
1571.7786999334
 21
-162.3469976464
 31
0.0
  0
LINE
  5
379
100
AcDbEntity
  8
L1_75
  6
CONTINUOUS
 62
         4
100
AcDbLine
 10
1598.7786999334
 20
-161.4719976464
 30
0.0
 11
1571.7786999334
 21
-161.4719976464
 31
0.0
  0
SOLID
  5
37A
100
AcDbEntity
  8
L1_75
  6
CONTINUOUS
 62
         4
100
AcDbTrace
 10
1598.7786999334
 20
-161.4719976464
 30
0.0
 11
1595.2786999334
 21
-161.9969976464
 31
0.0
 12
1595.2786999334
 22
-160.9469976464
 32
0.0
 13
1598.7786999334
 23
-161.4719976464
 33
0.0
  0
SOLID
  5
37B
100
AcDbEntity
  8
L1_75
  6
CONTINUOUS
 62
         4
100
AcDbTrace
 10
1571.7786999334
 20
-161.4719976464
 30
0.0
 11
1575.2786999334
 21
-160.9469976464
 31
0.0
 12
1575.2786999334
 22
-161.9969976464
 32
0.0
 13
1571.7786999334
 23
-161.4719976464
 33
0.0
  0
TEXT
  5
37D
100
AcDbEntity
  8
L1_75
  6
CONTINUOUS
 62
         4
100
AcDbText
 10
1575.8547776649
 20
-157.4119976464
 30
0.0
 40
3.5
  1
27
  7
BOX
100
AcDbText
  0
ENDBLK
  5
37E
100
AcDbEntity
  8
0
  6
CONTINUOUS
100
AcDbBlockEnd
  0
BLOCK
  5
404
100
AcDbEntity
  8
0
100
AcDbBlockBegin
  2
*D5
 70
        65
 10
0.0
 20
0.0
 30
0.0
  3
*D5
  1

  0
POINT
  5
406
100
AcDbEntity
  8
DEFPOINTS
  6
CONTINUOUS
 62
         0
100
AcDbPoint
 10
1669.0997665144
 20
128.7524144385
 30
0.0
  0
POINT
  5
407
100
AcDbEntity
  8
DEFPOINTS
  6
CONTINUOUS
 62
         0
100
AcDbPoint
 10
1555.2786999334
 20
128.7524144385
 30
0.0
  0
POINT
  5
408
100
AcDbEntity
  8
DEFPOINTS
  6
CONTINUOUS
 62
         0
100
AcDbPoint
 10
1555.2786999334
 20
95.7524144385
 30
0.0
  0
LINE
  5
409
100
AcDbEntity
  8
L1_75
  6
CONTINUOUS
 62
         4
100
AcDbLine
 10
1557.0286999334
 20
128.7524144385
 30
0.0
 11
1669.9747665144
 21
128.7524144385
 31
0.0
  0
LINE
  5
40A
100
AcDbEntity
  8
L1_75
  6
CONTINUOUS
 62
         4
100
AcDbLine
 10
1557.0286999334
 20
95.7524144385
 30
0.0
 11
1669.9747665144
 21
95.7524144385
 31
0.0
  0
LINE
  5
40B
100
AcDbEntity
  8
L1_75
  6
CONTINUOUS
 62
         4
100
AcDbLine
 10
1669.0997665144
 20
128.7524144385
 30
0.0
 11
1669.0997665144
 21
95.7524144385
 31
0.0
  0
SOLID
  5
40C
100
AcDbEntity
  8
L1_75
  6
CONTINUOUS
 62
         4
100
AcDbTrace
 10
1669.0997665144
 20
128.7524144385
 30
0.0
 11
1669.6247665144
 21
125.2524144385
 31
0.0
 12
1668.5747665144
 22
125.2524144385
 32
0.0
 13
1669.0997665144
 23
128.7524144385
 33
0.0
  0
SOLID
  5
40D
100
AcDbEntity
  8
L1_75
  6
CONTINUOUS
 62
         4
100
AcDbTrace
 10
1669.0997665144
 20
95.7524144385
 30
0.0
 11
1668.5747665144
 21
99.2524144385
 31
0.0
 12
1669.6247665144
 22
99.2524144385
 32
0.0
 13
1669.0997665144
 23
95.7524144385
 33
0.0
  0
TEXT
  5
40F
100
AcDbEntity
  8
L1_75
  6
CONTINUOUS
 62
         4
100
AcDbText
 10
1665.0397665144
 20
100.103933687
 30
0.0
 40
3.5
  1
崷33
 50
90.0
  7
BOX
100
AcDbText
  0
TEXT
  5
411
100
AcDbEntity
  8
L1_75
  6
CONTINUOUS
 62
         4
100
AcDbText
 10
1670.6397665144
 20
100.103933687
 30
0.0
 40
3.5
  1
 
 50
90.0
  7
BOX
100
AcDbText
  0
ENDBLK
  5
412
100
AcDbEntity
  8
0
  6
CONTINUOUS
100
AcDbBlockEnd
  0
BLOCK
  5
41B
100
AcDbEntity
  8
0
100
AcDbBlockBegin
  2
*X6
 70
        65
 10
0.0
 20
0.0
 30
0.0
  3
*X6
  1

  0
LINE
  5
41C
100
AcDbEntity
  8
L1_75
  6
CONTINUOUS
 62
         4
100
AcDbLine
 10
1596.7921520345
 20
-139.7400166132
 30
0.0
 11
1598.7301500878
 21
-137.8020185599
 31
0.0
  0
LINE
  5
41D
100
AcDbEntity
  8
L1_75
  6
CONTINUOUS
 62
         4
100
AcDbLine
 10
1593.0995113474
 20
-139.1900166132
 30
0.0
 11
1596.0495113474
 21
-136.2400166132
 31
0.0
  0
LINE
  5
41E
100
AcDbEntity
  8
L1_75
  6
CONTINUOUS
 62
         4
100
AcDbLine
 10
1588.3068706603
 20
-139.7400166132
 30
0.0
 11
1591.8068706603
 21
-136.2400166132
 31
0.0
  0
LINE
  5
41F
100
AcDbEntity
  8
L1_75
  6
CONTINUOUS
 62
         4
100
AcDbLine
 10
1584.0642299731
 20
-139.7400166132
 30
0.0
 11
1587.5642299731
 21
-136.2400166132
 31
0.0
  0
LINE
  5
420
100
AcDbEntity
  8
L1_75
  6
CONTINUOUS
 62
         4
100
AcDbLine
 10
1583.1189555488
 20
-136.4426503504
 30
0.0
 11
1583.321589286
 21
-136.2400166132
 31
0.0
  0
LINE
  5
421
100
AcDbEntity
  8
L1_75
  6
CONTINUOUS
 62
         4
100
AcDbLine
 10
1539.8289485989
 20
-175.4900166132
 30
0.0
 11
1542.8786999334
 21
-172.4402652787
 31
0.0
  0
LINE
  5
422
100
AcDbEntity
  8
L1_75
  6
CONTINUOUS
 62
         4
100
AcDbLine
 10
1575.5789485989
 20
-139.7400166132
 30
0.0
 11
1578.2786999336
 21
-137.0402652785
 31
0.0
  0
LINE
  5
423
100
AcDbEntity
  8
L1_75
  6
CONTINUOUS
 62
         4
100
AcDbLine
 10
1537.3796080276
 20
-173.6967164974
 30
0.0
 11
1542.8786999334
 21
-168.1976245916
 31
0.0
  0
LINE
  5
424
100
AcDbEntity
  8
L1_75
  6
CONTINUOUS
 62
         4
100
AcDbLine
 10
1570.8363079118
 20
-140.2400166132
 30
0.0
 11
1574.3363079118
 21
-136.7400166132
 31
0.0
  0
LINE
  5
425
100
AcDbEntity
  8
L1_75
  6
CONTINUOUS
 62
         4
100
AcDbLine
 10
1593.8363079118
 20
-117.2400166132
 30
0.0
 11
1597.3363079118
 21
-113.7400166132
 31
0.0
  0
LINE
  5
426
100
AcDbEntity
  8
L1_75
  6
CONTINUOUS
 62
         4
100
AcDbLine
 10
1534.4686672247
 20
-172.3650166132
 30
0.0
 11
1542.8786999334
 21
-163.9549839045
 31
0.0
  0
LINE
  5
427
100
AcDbEntity
  8
L1_75
  6
CONTINUOUS
 62
         4
100
AcDbLine
 10
1566.5936672247
 20
-140.2400166132
 30
0.0
 11
1571.3449478577
 21
-135.4887359802
 31
0.0
  0
LINE
  5
428
100
AcDbEntity
  8
L1_75
  6
CONTINUOUS
 62
         4
100
AcDbLine
 10
1589.5936672247
 20
-117.2400166132
 30
0.0
 11
1592.5436672247
 21
-114.2900166132
 31
0.0
  0
LINE
  5
429
100
AcDbEntity
  8
L1_75
  6
CONTINUOUS
 62
         4
100
AcDbLine
 10
1527.4809680327
 20
-175.1100751181
 30
0.0
 11
1542.8786999334
 21
-159.7123432173
 31
0.0
  0
LINE
  5
42A
100
AcDbEntity
  8
L1_75
  6
CONTINUOUS
 62
         4
100
AcDbLine
 10
1562.3510265375
 20
-140.2400166132
 30
0.0
 11
1569.7920335871
 21
-132.7990095637
 31
0.0
  0
LINE
  5
42B
100
AcDbEntity
  8
L1_75
  6
CONTINUOUS
 62
         4
100
AcDbLine
 10
1585.3510265375
 20
-117.2400166132
 30
0.0
 11
1588.8510265375
 21
-113.7400166132
 31
0.0
  0
LINE
  5
42C
100
AcDbEntity
  8
L1_75
  6
CONTINUOUS
 62
         4
100
AcDbLine
 10
1526.9786999334
 20
-171.3697025302
 30
0.0
 11
1542.8786999334
 21
-155.4697025302
 31
0.0
  0
LINE
  5
42D
100
AcDbEntity
  8
L1_75
  6
CONTINUOUS
 62
         4
100
AcDbLine
 10
1555.1083858504
 20
-143.2400166132
 30
0.0
 11
1555.7786999334
 21
-142.5697025302
 31
0.0
  0
LINE
  5
42E
100
AcDbEntity
  8
L1_75
  6
CONTINUOUS
 62
         4
100
AcDbLine
 10
1558.1083858504
 20
-140.2400166132
 30
0.0
 11
1568.2391193165
 21
-130.1092831472
 31
0.0
  0
LINE
  5
42F
100
AcDbEntity
  8
L1_75
  6
CONTINUOUS
 62
         4
100
AcDbLine
 10
1583.2786999331
 20
-115.0697025305
 30
0.0
 11
1584.6083858504
 21
-113.7400166132
 31
0.0
  0
LINE
  5
430
100
AcDbEntity
  8
L1_75
  6
CONTINUOUS
 62
         4
100
AcDbLine
 10
1526.9786999334
 20
-167.1270618431
 30
0.0
 11
1542.8786999334
 21
-151.2270618431
 31
0.0
  0
LINE
  5
431
100
AcDbEntity
  8
L1_75
  6
CONTINUOUS
 62
         4
100
AcDbLine
 10
1550.8657451633
 20
-143.2400166132
 30
0.0
 11
1566.6862050458
 21
-127.4195567307
 31
0.0
  0
LINE
  5
432
100
AcDbEntity
  8
L1_75
  6
CONTINUOUS
 62
         4
100
AcDbLine
 10
1576.8657451633
 20
-117.2400166132
 30
0.0
 11
1578.2786999336
 21
-115.8270618429
 31
0.0
  0
LINE
  5
433
100
AcDbEntity
  8
L1_75
  6
CONTINUOUS
 62
         4
100
AcDbLine
 10
1526.9786999334
 20
-162.884421156
 30
0.0
 11
1542.8786999334
 21
-146.984421156
 31
0.0
  0
LINE
  5
434
100
AcDbEntity
  8
L1_75
  6
CONTINUOUS
 62
         4
100
AcDbLine
 10
1546.6231044762
 20
-143.2400166132
 30
0.0
 11
1570.6252218769
 21
-119.2378992125
 31
0.0
  0
LINE
  5
435
100
AcDbEntity
  8
L1_75
  6
CONTINUOUS
 62
         4
100
AcDbLine
 10
1573.1231044762
 20
-116.7400166132
 30
0.0
 11
1576.1231044762
 21
-113.7400166132
 31
0.0
  0
LINE
  5
436
100
AcDbEntity
  8
L1_75
  6
CONTINUOUS
 62
         4
100
AcDbLine
 10
1524.0165681218
 20
-161.6039122804
 30
0.0
 11
1572.3804637891
 21
-113.2400166132
 31
0.0
  0
LINE
  5
437
100
AcDbEntity
  8
L1_75
  6
CONTINUOUS
 62
         4
100
AcDbLine
 10
1520.230302587
 20
-161.1475371282
 30
0.0
 11
1568.1378231019
 21
-113.2400166132
 31
0.0
  0
LINE
  5
438
100
AcDbEntity
  8
L1_75
  6
CONTINUOUS
 62
         4
100
AcDbLine
 10
1516.5276387878
 20
-160.6075602403
 30
0.0
 11
1563.8951824148
 21
-113.2400166132
 31
0.0
  0
LINE
  5
439
100
AcDbEntity
  8
L1_75
  6
CONTINUOUS
 62
         4
100
AcDbLine
 10
1512.8249749885
 20
-160.0675833524
 30
0.0
 11
1559.6525417277
 21
-113.2400166132
 31
0.0
  0
LINE
  5
43A
100
AcDbEntity
  8
L1_75
  6
CONTINUOUS
 62
         4
100
AcDbLine
 10
1509.1223111893
 20
-159.5276064645
 30
0.0
 11
1555.7926436552
 21
-112.8572739986
 31
0.0
  0
LINE
  5
43B
100
AcDbEntity
  8
L1_75
  6
CONTINUOUS
 62
         4
100
AcDbLine
 10
1505.4196473901
 20
-158.9876295766
 30
0.0
 11
1554.1672603535
 21
-110.2400166132
 31
0.0
  0
LINE
  5
43C
100
AcDbEntity
  8
L1_75
  6
CONTINUOUS
 62
         4
100
AcDbLine
 10
1501.7169835909
 20
-158.4476526887
 30
0.0
 11
1549.9246196664
 21
-110.2400166132
 31
0.0
  0
LINE
  5
43D
100
AcDbEntity
  8
L1_75
  6
CONTINUOUS
 62
         4
100
AcDbLine
 10
1498.0143197917
 20
-157.9076758008
 30
0.0
 11
1545.6819789792
 21
-110.2400166132
 31
0.0
  0
LINE
  5
43E
100
AcDbEntity
  8
L1_75
  6
CONTINUOUS
 62
         4
100
AcDbLine
 10
1494.3116559924
 20
-157.3676989129
 30
0.0
 11
1542.8786999334
 21
-108.8006549719
 31
0.0
  0
LINE
  5
43F
100
AcDbEntity
  8
L1_75
  6
CONTINUOUS
 62
         4
100
AcDbLine
 10
1490.6089921932
 20
-156.827722025
 30
0.0
 11
1542.8786999334
 21
-104.5580142848
 31
0.0
  0
LINE
  5
440
100
AcDbEntity
  8
L1_75
  6
CONTINUOUS
 62
         4
100
AcDbLine
 10
1486.906328394
 20
-156.2877451371
 30
0.0
 11
1542.8786999334
 21
-100.3153735977
 31
0.0
  0
LINE
  5
441
100
AcDbEntity
  8
L1_75
  6
CONTINUOUS
 62
         4
100
AcDbLine
 10
1483.2036645948
 20
-155.7477682492
 30
0.0
 11
1542.8786999334
 21
-96.0727329106
 31
0.0
  0
LINE
  5
442
100
AcDbEntity
  8
L1_75
  6
CONTINUOUS
 62
         4
100
AcDbLine
 10
1479.5010007955
 20
-155.2077913613
 30
0.0
 11
1542.8786999334
 21
-91.8300922234
 31
0.0
  0
LINE
  5
443
100
AcDbEntity
  8
L1_75
  6
CONTINUOUS
 62
         4
100
AcDbLine
 10
1475.7983369963
 20
-154.6678144734
 30
0.0
 11
1542.8786999334
 21
-87.5874515363
 31
0.0
  0
LINE
  5
444
100
AcDbEntity
  8
L1_75
  6
CONTINUOUS
 62
         4
100
AcDbLine
 10
1472.0956731971
 20
-154.1278375855
 30
0.0
 11
1542.8786999334
 21
-83.3448108492
 31
0.0
  0
LINE
  5
445
100
AcDbEntity
  8
L1_75
  6
CONTINUOUS
 62
         4
100
AcDbLine
 10
1468.3930093979
 20
-153.5878606976
 30
0.0
 11
1542.8379813474
 21
-79.1428887481
 31
0.0
  0
LINE
  5
446
100
AcDbEntity
  8
L1_75
  6
CONTINUOUS
 62
         4
100
AcDbLine
 10
1464.6903455986
 20
-153.0478838097
 30
0.0
 11
1525.4849148974
 21
-92.253314511
 31
0.0
  0
LINE
  5
447
100
AcDbEntity
  8
L1_75
  6
CONTINUOUS
 62
         4
100
AcDbLine
 10
1526.9786999334
 20
-90.759529475
 30
0.0
 11
1539.7482127952
 21
-77.9900166132
 31
0.0
  0
LINE
  5
448
100
AcDbEntity
  8
L1_75
  6
CONTINUOUS
 62
         4
100
AcDbLine
 10
1460.9876817994
 20
-152.5079069218
 30
0.0
 11
1476.3592306446
 21
-137.1363580766
 31
0.0
  0
LINE
  5
449
100
AcDbEntity
  8
L1_75
  6
CONTINUOUS
 62
         4
100
AcDbLine
 10
1476.6418980168
 20
-136.8536907044
 30
0.0
 11
1521.3223512138
 21
-92.1732375074
 31
0.0
  0
LINE
  5
44A
100
AcDbEntity
  8
L1_75
  6
CONTINUOUS
 62
         4
100
AcDbLine
 10
1526.9786999334
 20
-86.5168887878
 30
0.0
 11
1532.8662454761
 21
-80.6293432452
 31
0.0
  0
LINE
  5
44B
100
AcDbEntity
  8
L1_75
  6
CONTINUOUS
 62
         4
100
AcDbLine
 10
1457.2850180002
 20
-151.9679300339
 30
0.0
 11
1472.1165899575
 21
-137.1363580766
 31
0.0
  0
LINE
  5
44C
100
AcDbEntity
  8
L1_75
  6
CONTINUOUS
 62
         4
100
AcDbLine
 10
1482.4374529746
 20
-126.8154950596
 30
0.0
 11
1516.3553492545
 21
-92.8975987796
 31
0.0
  0
LINE
  5
44D
100
AcDbEntity
  8
L1_75
  6
CONTINUOUS
 62
         4
100
AcDbLine
 10
1526.9786999334
 20
-82.2742481007
 30
0.0
 11
1531.2629314209
 21
-77.9900166132
 31
0.0
  0
LINE
  5
44E
100
AcDbEntity
  8
L1_75
  6
CONTINUOUS
 62
         4
100
AcDbLine
 10
1453.582354201
 20
-151.427953146
 30
0.0
 11
1467.8739492704
 21
-137.1363580766
 31
0.0
  0
LINE
  5
44F
100
AcDbEntity
  8
L1_75
  6
CONTINUOUS
 62
         4
100
AcDbLine
 10
1480.9397927616
 20
-124.0705145854
 30
0.0
 11
1511.3883472952
 21
-93.6219600518
 31
0.0
  0
LINE
  5
450
100
AcDbEntity
  8
L1_75
  6
CONTINUOUS
 62
         4
100
AcDbLine
 10
1449.8796904017
 20
-150.8879762581
 30
0.0
 11
1463.6313085833
 21
-137.1363580766
 31
0.0
  0
LINE
  5
451
100
AcDbEntity
  8
L1_75
  6
CONTINUOUS
 62
         4
100
AcDbLine
 10
1479.3868784909
 20
-121.3807881689
 30
0.0
 11
1506.4213453358
 21
-94.3463213241
 31
0.0
  0
LINE
  5
452
100
AcDbEntity
  8
L1_75
  6
CONTINUOUS
 62
         4
100
AcDbLine
 10
1446.1770266025
 20
-150.3479993703
 30
0.0
 11
1459.3886678961
 21
-137.1363580766
 31
0.0
  0
LINE
  5
453
100
AcDbEntity
  8
L1_75
  6
CONTINUOUS
 62
         4
100
AcDbLine
 10
1477.8339642203
 20
-118.6910617524
 30
0.0
 11
1501.4543433765
 21
-95.0706825963
 31
0.0
  0
LINE
  5
454
100
AcDbEntity
  8
L1_75
  6
CONTINUOUS
 62
         4
100
AcDbLine
 10
1442.4743628033
 20
-149.8080224824
 30
0.0
 11
1455.146027209
 21
-137.1363580766
 31
0.0
  0
LINE
  5
455
100
AcDbEntity
  8
L1_75
  6
CONTINUOUS
 62
         4
100
AcDbLine
 10
1475.9387101359
 20
-116.3436751498
 30
0.0
 11
1496.4873414172
 21
-95.7950438685
 31
0.0
  0
LINE
  5
456
100
AcDbEntity
  8
L1_75
  6
CONTINUOUS
 62
         4
100
AcDbLine
 10
1438.7716990041
 20
-149.2680455945
 30
0.0
 11
1450.9033865219
 21
-137.1363580766
 31
0.0
  0
LINE
  5
457
100
AcDbEntity
  8
L1_75
  6
CONTINUOUS
 62
         4
100
AcDbLine
 10
1471.6960694487
 20
-116.3436751498
 30
0.0
 11
1491.5203394578
 21
-96.5194051407
 31
0.0
  0
LINE
  5
458
100
AcDbEntity
  8
L1_75
  6
CONTINUOUS
 62
         4
100
AcDbLine
 10
1435.0690352048
 20
-148.7280687066
 30
0.0
 11
1446.6607458348
 21
-137.1363580766
 31
0.0
  0
LINE
  5
459
100
AcDbEntity
  8
L1_75
  6
CONTINUOUS
 62
         4
100
AcDbLine
 10
1467.4534287616
 20
-116.3436751498
 30
0.0
 11
1486.5533374985
 21
-97.2437664129
 31
0.0
  0
LINE
  5
45A
100
AcDbEntity
  8
L1_75
  6
CONTINUOUS
 62
         4
100
AcDbLine
 10
1431.3663714056
 20
-148.1880918187
 30
0.0
 11
1442.4181051477
 21
-137.1363580766
 31
0.0
  0
LINE
  5
45B
100
AcDbEntity
  8
L1_75
  6
CONTINUOUS
 62
         4
100
AcDbLine
 10
1463.2107880745
 20
-116.3436751498
 30
0.0
 11
1481.5863355392
 21
-97.9681276851
 31
0.0
  0
LINE
  5
45C
100
AcDbEntity
  8
L1_75
  6
CONTINUOUS
 62
         4
100
AcDbLine
 10
1427.6637076064
 20
-147.6481149308
 30
0.0
 11
1438.1754644606
 21
-137.1363580766
 31
0.0
  0
LINE
  5
45D
100
AcDbEntity
  8
L1_75
  6
CONTINUOUS
 62
         4
100
AcDbLine
 10
1458.9681473874
 20
-116.3436751498
 30
0.0
 11
1476.6193335799
 21
-98.6924889573
 31
0.0
  0
LINE
  5
45E
100
AcDbEntity
  8
L1_75
  6
CONTINUOUS
 62
         4
100
AcDbLine
 10
1423.9818987863
 20
-147.0872830637
 30
0.0
 11
1433.9328237734
 21
-137.1363580766
 31
0.0
  0
LINE
  5
45F
100
AcDbEntity
  8
L1_75
  6
CONTINUOUS
 62
         4
100
AcDbLine
 10
1454.7255067003
 20
-116.3436751498
 30
0.0
 11
1471.6523316205
 21
-99.4168502295
 31
0.0
  0
LINE
  5
460
100
AcDbEntity
  8
L1_75
  6
CONTINUOUS
 62
         4
100
AcDbLine
 10
1422.1786999334
 20
-144.6478412295
 30
0.0
 11
1427.3865245497
 21
-139.4400166132
 31
0.0
  0
LINE
  5
461
100
AcDbEntity
  8
L1_75
  6
CONTINUOUS
 62
         4
100
AcDbLine
 10
1450.4828660131
 20
-116.3436751498
 30
0.0
 11
1466.6853296612
 21
-100.1412115017
 31
0.0
  0
LINE
  5
462
100
AcDbEntity
  8
L1_75
  6
CONTINUOUS
 62
         4
100
AcDbLine
 10
1422.1786999334
 20
-140.4052005424
 30
0.0
 11
1423.3307674227
 21
-139.2531330531
 31
0.0
  0
LINE
  5
463
100
AcDbEntity
  8
L1_75
  6
CONTINUOUS
 62
         4
100
AcDbLine
 10
1446.240225326
 20
-116.3436751498
 30
0.0
 11
1461.7183277019
 21
-100.8655727739
 31
0.0
  0
LINE
  5
464
100
AcDbEntity
  8
L1_75
  6
CONTINUOUS
 62
         4
100
AcDbLine
 10
1441.9975846389
 20
-116.3436751498
 30
0.0
 11
1456.7513257426
 21
-101.5899340461
 31
0.0
  0
LINE
  5
465
100
AcDbEntity
  8
L1_75
  6
CONTINUOUS
 62
         4
100
AcDbLine
 10
1437.7549439518
 20
-116.3436751498
 30
0.0
 11
1451.7843237832
 21
-102.3142953183
 31
0.0
  0
LINE
  5
466
100
AcDbEntity
  8
L1_75
  6
CONTINUOUS
 62
         4
100
AcDbLine
 10
1433.5123032647
 20
-116.3436751498
 30
0.0
 11
1446.8173218239
 21
-103.0386565906
 31
0.0
  0
LINE
  5
467
100
AcDbEntity
  8
L1_75
  6
CONTINUOUS
 62
         4
100
AcDbLine
 10
1429.8588532362
 20
-115.7544844911
 30
0.0
 11
1441.8503198646
 21
-103.7630178628
 31
0.0
  0
LINE
  5
468
100
AcDbEntity
  8
L1_75
  6
CONTINUOUS
 62
         4
100
AcDbLine
 10
1427.330680427
 20
-114.0400166132
 30
0.0
 11
1436.8833179052
 21
-104.487379135
 31
0.0
  0
LINE
  5
469
100
AcDbEntity
  8
L1_75
  6
CONTINUOUS
 62
         4
100
AcDbLine
 10
1422.9886359689
 20
-114.1394203842
 30
0.0
 11
1431.9163159459
 21
-105.2117404072
 31
0.0
  0
LINE
  5
46A
100
AcDbEntity
  8
L1_75
  6
CONTINUOUS
 62
         4
100
AcDbLine
 10
1422.1786999334
 20
-110.7067157326
 30
0.0
 11
1426.9493139866
 21
-105.9361016794
 31
0.0
  0
ENDBLK
  5
46B
100
AcDbEntity
  8
0
  6
CONTINUOUS
100
AcDbBlockEnd
  0
ENDSEC
  0
SECTION
  2
ENTITIES
  0
TEXT
  5
25
100
AcDbEntity
  8
L1_75
  6
CONTINUOUS
 62
         2
100
AcDbText
 10
1830.4058372732
 20
186.4382511173
 30
0.0
 40
4.5
  1
531570
 41
0.98
  7
BOX
100
AcDbText
  0
ARC
  5
26
100
AcDbEntity
  8
L1_75
  6
CONTINUOUS
 62
         7
100
AcDbCircle
 10
1594.7786999334
 20
-122.4900166132
 30
0.0
 40
1.0
100
AcDbArc
 50
90.0
 51
180.0
  0
ARC
  5
27
100
AcDbEntity
  8
L1_75
  6
CONTINUOUS
 62
         7
100
AcDbCircle
 10
1594.7786999334
 20
-130.9900166132
 30
0.0
 40
1.0
100
AcDbArc
 50
180.0
 51
270.0
  0
POLYLINE
  5
29
100
AcDbEntity
  8
L1_75
  6
CONTINUOUS
 62
         7
100
AcDb2dPolyline
 66
         1
 10
0.0
 20
0.0
 30
0.0
 70
         2
  0
VERTEX
  5
2B
100
AcDbEntity
  8
L1_75
  6
CONTINUOUS
 62
         7
100
AcDbVertex
100
AcDb2dVertex
 10
1578.2786999334
 20
-133.2400166132
 30
0.0
 70
         1
  0
VERTEX
  5
2D
100
AcDbEntity
  8
L1_75
  6
CONTINUOUS
 62
         7
100
AcDbVertex
100
AcDb2dVertex
 10
1578.3189984251
 20
-133.6054915273
 30
0.0
 70
         1
  0
VERTEX
  5
2F
100
AcDbEntity
  8
L1_75
  6
CONTINUOUS
 62
         7
100
AcDbVertex
100
AcDb2dVertex
 10
1578.3724228606
 20
-133.794367012
 30
0.0
 70
         1
  0
VERTEX
  5
31
100
AcDbEntity
  8
L1_75
  6
CONTINUOUS
 62
         7
100
AcDbVertex
100
AcDb2dVertex
 10
1578.4500977752
 20
-133.9837183463
 30
0.0
 70
         1
  0
VERTEX
  5
33
100
AcDbEntity
  8
L1_75
  6
CONTINUOUS
 62
         7
100
AcDbVertex
100
AcDb2dVertex
 10
1578.5527562148
 20
-134.1703734638
 30
0.0
 70
         1
  0
VERTEX
  5
35
100
AcDbEntity
  8
L1_75
  6
CONTINUOUS
 62
         7
100
AcDbVertex
100
AcDb2dVertex
 10
1578.6803071519
 20
-134.3509530073
 30
0.0
 70
         1
  0
VERTEX
  5
37
100
AcDbEntity
  8
L1_75
  6
CONTINUOUS
 62
         7
100
AcDbVertex
100
AcDb2dVertex
 10
1578.8317532736
 20
-134.5220515987
 30
0.0
 70
         1
  0
VERTEX
  5
39
100
AcDbEntity
  8
L1_75
  6
CONTINUOUS
 62
         7
100
AcDbVertex
100
AcDb2dVertex
 10
1579.005181821
 20
-134.6804413697
 30
0.0
 70
         1
  0
VERTEX
  5
3B
100
AcDbEntity
  8
L1_75
  6
CONTINUOUS
 62
         7
100
AcDbVertex
100
AcDb2dVertex
 10
1579.1978374336
 20
-134.8232743924
 30
0.0
 70
         1
  0
VERTEX
  5
3D
100
AcDbEntity
  8
L1_75
  6
CONTINUOUS
 62
         7
100
AcDbVertex
100
AcDb2dVertex
 10
1579.4062731122
 20
-134.9482585722
 30
0.0
 70
         1
  0
VERTEX
  5
3F
100
AcDbEntity
  8
L1_75
  6
CONTINUOUS
 62
         7
100
AcDbVertex
100
AcDb2dVertex
 10
1579.6265623683
 20
-135.0537846974
 30
0.0
 70
         1
  0
VERTEX
  5
41
100
AcDbEntity
  8
L1_75
  6
CONTINUOUS
 62
         7
100
AcDbVertex
100
AcDb2dVertex
 10
1579.8545457216
 20
-135.1389901923
 30
0.0
 70
         1
  0
VERTEX
  5
43
100
AcDbEntity
  8
L1_75
  6
CONTINUOUS
 62
         7
100
AcDbVertex
100
AcDb2dVertex
 10
1580.0860804783
 20
-135.2037557084
 30
0.0
 70
         1
  0
VERTEX
  5
45
100
AcDbEntity
  8
L1_75
  6
CONTINUOUS
 62
         7
100
AcDbVertex
100
AcDb2dVertex
 10
1580.395874898
 20
-135.2596517805
 30
0.0
 70
         1
  0
VERTEX
  5
47
100
AcDbEntity
  8
L1_75
  6
CONTINUOUS
 62
         7
100
AcDbVertex
100
AcDb2dVertex
 10
1580.696879598
 20
-135.2826606845
 30
0.0
 70
         1
  0
VERTEX
  5
49
100
AcDbEntity
  8
L1_75
  6
CONTINUOUS
 62
         7
100
AcDbVertex
100
AcDb2dVertex
 10
1580.9826933859
 20
-135.2769404283
 30
0.0
 70
         1
  0
VERTEX
  5
4B
100
AcDbEntity
  8
L1_75
  6
CONTINUOUS
 62
         7
100
AcDbVertex
100
AcDb2dVertex
 10
1581.2488624612
 20
-135.2472882457
 30
0.0
 70
         1
  0
VERTEX
  5
4D
100
AcDbEntity
  8
L1_75
  6
CONTINUOUS
 62
         7
100
AcDbVertex
100
AcDb2dVertex
 10
1581.4927580949
 20
-135.1986174168
 30
0.0
 70
         1
  0
VERTEX
  5
4F
100
AcDbEntity
  8
L1_75
  6
CONTINUOUS
 62
         7
100
AcDbVertex
100
AcDb2dVertex
 10
1581.7842768725
 20
-135.1111378972
 30
0.0
 70
         1
  0
VERTEX
  5
51
100
AcDbEntity
  8
L1_75
  6
CONTINUOUS
 62
         7
100
AcDbVertex
100
AcDb2dVertex
 10
1582.0341567862
 20
-135.007363398
 30
0.0
 70
         1
  0
VERTEX
  5
53
100
AcDbEntity
  8
L1_75
  6
CONTINUOUS
 62
         7
100
AcDbVertex
100
AcDb2dVertex
 10
1582.2454019943
 20
-134.8950737046
 30
0.0
 70
         1
  0
VERTEX
  5
55
100
AcDbEntity
  8
L1_75
  6
CONTINUOUS
 62
         7
100
AcDbVertex
100
AcDb2dVertex
 10
1582.4222396514
 20
-134.7800309848
 30
0.0
 70
         1
  0
VERTEX
  5
57
100
AcDbEntity
  8
L1_75
  6
CONTINUOUS
 62
         7
100
AcDbVertex
100
AcDb2dVertex
 10
1582.6147368986
 20
-134.6271040734
 30
0.0
 70
         1
  0
VERTEX
  5
59
100
AcDbEntity
  8
L1_75
  6
CONTINUOUS
 62
         7
100
AcDbVertex
100
AcDb2dVertex
 10
1582.7636953527
 20
-134.4824466857
 30
0.0
 70
         1
  0
VERTEX
  5
5B
100
AcDbEntity
  8
L1_75
  6
CONTINUOUS
 62
         7
100
AcDbVertex
100
AcDb2dVertex
 10
1582.9129722211
 20
-134.3042946877
 30
0.0
 70
         1
  0
VERTEX
  5
5D
100
AcDbEntity
  8
L1_75
  6
CONTINUOUS
 62
         7
100
AcDbVertex
100
AcDb2dVertex
 10
1583.0178134721
 20
-134.1490079301
 30
0.0
 70
         1
  0
VERTEX
  5
5F
100
AcDbEntity
  8
L1_75
  6
CONTINUOUS
 62
         7
100
AcDbVertex
100
AcDb2dVertex
 10
1583.1130007609
 20
-133.9716818359
 30
0.0
 70
         1
  0
VERTEX
  5
61
100
AcDbEntity
  8
L1_75
  6
CONTINUOUS
 62
         7
100
AcDbVertex
100
AcDb2dVertex
 10
1583.1888662856
 20
-133.7829580995
 30
0.0
 70
         1
  0
VERTEX
  5
63
100
AcDbEntity
  8
L1_75
  6
CONTINUOUS
 62
         7
100
AcDbVertex
100
AcDb2dVertex
 10
1583.2396960295
 20
-133.5996200952
 30
0.0
 70
         1
  0
VERTEX
  5
65
100
AcDbEntity
  8
L1_75
  6
CONTINUOUS
 62
         7
100
AcDbVertex
100
AcDb2dVertex
 10
1583.2718828796
 20
-133.390841326
 30
0.0
 70
         1
  0
VERTEX
  5
67
100
AcDbEntity
  8
L1_75
  6
CONTINUOUS
 62
         7
100
AcDbVertex
100
AcDb2dVertex
 10
1583.2786999334
 20
-133.2400166132
 30
0.0
 70
         1
  0
SEQEND
  5
69
100
AcDbEntity
  8
L1_75
  6
CONTINUOUS
 62
         7
  0
POLYLINE
  5
6B
100
AcDbEntity
  8
L1_75
  6
CONTINUOUS
 62
         7
100
AcDb2dPolyline
 66
         1
 10
0.0
 20
0.0
 30
0.0
 70
         2
  0
VERTEX
  5
6D
100
AcDbEntity
  8
L1_75
  6
CONTINUOUS
 62
         7
100
AcDbVertex
100
AcDb2dVertex
 10
1583.2786999334
 20
-133.2400166132
 30
0.0
 70
         1
  0
VERTEX
  5
6F
100
AcDbEntity
  8
L1_75
  6
CONTINUOUS
 62
         7
100
AcDbVertex
100
AcDb2dVertex
 10
1583.2384014417
 20
-132.831149568
 30
0.0
 70
         1
  0
VERTEX
  5
71
100
AcDbEntity
  8
L1_75
  6
CONTINUOUS
 62
         7
100
AcDbVertex
100
AcDb2dVertex
 10
1583.1849770062
 20
-132.6198492616
 30
0.0
 70
         1
  0
VERTEX
  5
73
100
AcDbEntity
  8
L1_75
  6
CONTINUOUS
 62
         7
100
AcDbVertex
100
AcDb2dVertex
 10
1583.1073020917
 20
-132.4080166089
 30
0.0
 70
         1
  0
VERTEX
  5
75
100
AcDbEntity
  8
L1_75
  6
CONTINUOUS
 62
         7
100
AcDbVertex
100
AcDb2dVertex
 10
1583.0046436521
 20
-132.1992002895
 30
0.0
 70
         1
  0
VERTEX
  5
77
100
AcDbEntity
  8
L1_75
  6
CONTINUOUS
 62
         7
100
AcDbVertex
100
AcDb2dVertex
 10
1582.8770927151
 20
-131.9971808854
 30
0.0
 70
         1
  0
VERTEX
  5
79
100
AcDbEntity
  8
L1_75
  6
CONTINUOUS
 62
         7
100
AcDbVertex
100
AcDb2dVertex
 10
1582.7256465935
 20
-131.8057680884
 30
0.0
 70
         1
  0
VERTEX
  5
7B
100
AcDbEntity
  8
L1_75
  6
CONTINUOUS
 62
         7
100
AcDbVertex
100
AcDb2dVertex
 10
1582.5522180462
 20
-131.6285730057
 30
0.0
 70
         1
  0
VERTEX
  5
7D
100
AcDbEntity
  8
L1_75
  6
CONTINUOUS
 62
         7
100
AcDbVertex
100
AcDb2dVertex
 10
1582.3595624337
 20
-131.4687816938
 30
0.0
 70
         1
  0
VERTEX
  5
7F
100
AcDbEntity
  8
L1_75
  6
CONTINUOUS
 62
         7
100
AcDbVertex
100
AcDb2dVertex
 10
1582.1511267552
 20
-131.3289583835
 30
0.0
 70
         1
  0
VERTEX
  5
81
100
AcDbEntity
  8
L1_75
  6
CONTINUOUS
 62
         7
100
AcDbVertex
100
AcDb2dVertex
 10
1581.9308374992
 20
-131.2109033451
 30
0.0
 70
         1
  0
VERTEX
  5
83
100
AcDbEntity
  8
L1_75
  6
CONTINUOUS
 62
         7
100
AcDbVertex
100
AcDb2dVertex
 10
1581.702854146
 20
-131.1155815662
 30
0.0
 70
         1
  0
VERTEX
  5
85
100
AcDbEntity
  8
L1_75
  6
CONTINUOUS
 62
         7
100
AcDbVertex
100
AcDb2dVertex
 10
1581.4713193894
 20
-131.0431265653
 30
0.0
 70
         1
  0
VERTEX
  5
87
100
AcDbEntity
  8
L1_75
  6
CONTINUOUS
 62
         7
100
AcDbVertex
100
AcDb2dVertex
 10
1581.2401349826
 20
-130.9929118278
 30
0.0
 70
         1
  0
VERTEX
  5
89
100
AcDbEntity
  8
L1_75
  6
CONTINUOUS
 62
         7
100
AcDbVertex
100
AcDb2dVertex
 10
1580.9361990239
 20
-130.9581703109
 30
0.0
 70
         1
  0
VERTEX
  5
8B
100
AcDbEntity
  8
L1_75
  6
CONTINUOUS
 62
         7
100
AcDbVertex
100
AcDb2dVertex
 10
1580.6460034872
 20
-130.9568515479
 30
0.0
 70
         1
  0
VERTEX
  5
8D
100
AcDbEntity
  8
L1_75
  6
CONTINUOUS
 62
         7
100
AcDbVertex
100
AcDb2dVertex
 10
1580.3744968442
 20
-130.9837104406
 30
0.0
 70
         1
  0
VERTEX
  5
8F
100
AcDbEntity
  8
L1_75
  6
CONTINUOUS
 62
         7
100
AcDbVertex
100
AcDb2dVertex
 10
1580.1247517399
 20
-131.0332359895
 30
0.0
 70
         1
  0
VERTEX
  5
91
100
AcDbEntity
  8
L1_75
  6
CONTINUOUS
 62
         7
100
AcDbVertex
100
AcDb2dVertex
 10
1579.8982174329
 20
-131.1001233542
 30
0.0
 70
         1
  0
VERTEX
  5
93
100
AcDbEntity
  8
L1_75
  6
CONTINUOUS
 62
         7
100
AcDbVertex
100
AcDb2dVertex
 10
1579.6299780293
 20
-131.209284239
 30
0.0
 70
         1
  0
VERTEX
  5
95
100
AcDbEntity
  8
L1_75
  6
CONTINUOUS
 62
         7
100
AcDbVertex
100
AcDb2dVertex
 10
1579.401930999
 20
-131.3315724693
 30
0.0
 70
         1
  0
VERTEX
  5
97
100
AcDbEntity
  8
L1_75
  6
CONTINUOUS
 62
         7
100
AcDbVertex
100
AcDb2dVertex
 10
1579.2102710202
 20
-131.4595603549
 30
0.0
 70
         1
  0
VERTEX
  5
99
100
AcDbEntity
  8
L1_75
  6
CONTINUOUS
 62
         7
100
AcDbVertex
100
AcDb2dVertex
 10
1579.0010196183
 20
-131.6324135319
 30
0.0
 70
         1
  0
VERTEX
  5
9B
100
AcDbEntity
  8
L1_75
  6
CONTINUOUS
 62
         7
100
AcDbVertex
100
AcDb2dVertex
 10
1578.8387857228
 20
-131.7978198774
 30
0.0
 70
         1
  0
VERTEX
  5
9D
100
AcDbEntity
  8
L1_75
  6
CONTINUOUS
 62
         7
100
AcDbVertex
100
AcDb2dVertex
 10
1578.67607913
 20
-132.0031721086
 30
0.0
 70
         1
  0
VERTEX
  5
9F
100
AcDbEntity
  8
L1_75
  6
CONTINUOUS
 62
         7
100
AcDbVertex
100
AcDb2dVertex
 10
1578.5618327879
 20
-132.1831214805
 30
0.0
 70
         1
  0
VERTEX
  5
A1
100
AcDbEntity
  8
L1_75
  6
CONTINUOUS
 62
         7
100
AcDbVertex
100
AcDb2dVertex
 10
1578.4582231762
 20
-132.3892405137
 30
0.0
 70
         1
  0
VERTEX
  5
A3
100
AcDbEntity
  8
L1_75
  6
CONTINUOUS
 62
         7
100
AcDbVertex
100
AcDb2dVertex
 10
1578.3758159862
 20
-132.6089412005
 30
0.0
 70
         1
  0
VERTEX
  5
A5
100
AcDbEntity
  8
L1_75
  6
CONTINUOUS
 62
         7
100
AcDbVertex
100
AcDb2dVertex
 10
1578.3207623065
 20
-132.8223715454
 30
0.0
 70
         1
  0
VERTEX
  5
A7
100
AcDbEntity
  8
L1_75
  6
CONTINUOUS
 62
         7
100
AcDbVertex
100
AcDb2dVertex
 10
1578.2918024374
 20
-133.0062393268
 30
0.0
 70
         1
  0
VERTEX
  5
A9
100
AcDbEntity
  8
L1_75
  6
CONTINUOUS
 62
         7
100
AcDbVertex
100
AcDb2dVertex
 10
1578.2786999334
 20
-133.2400166122
 30
0.0
 70
         1
  0
SEQEND
  5
AB
100
AcDbEntity
  8
L1_75
  6
CONTINUOUS
 62
         7
  0
LINE
  5
AC
100
AcDbEntity
  8
L1_75
  6
CENTER
 62
         1
100
AcDbLine
 10
1583.2786999334
 20
-133.2400166132
 30
0.0
 11
1578.2786999334
 21
-133.2400166132
 31
0.0
  0
LINE
  5
AD
100
AcDbEntity
  8
L1_75
  6
CENTER
 62
         1
100
AcDbLine
 10
1583.2786999334
 20
-120.2400166132
 30
0.0
 11
1578.2786999334
 21
-120.2400166132
 31
0.0
  0
POLYLINE
  5
AF
100
AcDbEntity
  8
L1_75
  6
CONTINUOUS
 62
         7
100
AcDb2dPolyline
 66
         1
 10
0.0
 20
0.0
 30
0.0
 70
         2
  0
VERTEX
  5
B1
100
AcDbEntity
  8
L1_75
  6
CONTINUOUS
 62
         7
100
AcDbVertex
100
AcDb2dVertex
 10
1583.2786999334
 20
-120.2400166132
 30
0.0
 70
         1
  0
VERTEX
  5
B3
100
AcDbEntity
  8
L1_75
  6
CONTINUOUS
 62
         7
100
AcDbVertex
100
AcDb2dVertex
 10
1583.2384014417
 20
-119.8745416991
 30
0.0
 70
         1
  0
VERTEX
  5
B5
100
AcDbEntity
  8
L1_75
  6
CONTINUOUS
 62
         7
100
AcDbVertex
100
AcDb2dVertex
 10
1583.1849770062
 20
-119.6856662144
 30
0.0
 70
         1
  0
VERTEX
  5
B7
100
AcDbEntity
  8
L1_75
  6
CONTINUOUS
 62
         7
100
AcDbVertex
100
AcDb2dVertex
 10
1583.1073020916
 20
-119.4963148801
 30
0.0
 70
         1
  0
VERTEX
  5
B9
100
AcDbEntity
  8
L1_75
  6
CONTINUOUS
 62
         7
100
AcDbVertex
100
AcDb2dVertex
 10
1583.004643652
 20
-119.3096597626
 30
0.0
 70
         1
  0
VERTEX
  5
BB
100
AcDbEntity
  8
L1_75
  6
CONTINUOUS
 62
         7
100
AcDbVertex
100
AcDb2dVertex
 10
1582.8770927148
 20
-119.1290802191
 30
0.0
 70
         1
  0
VERTEX
  5
BD
100
AcDbEntity
  8
L1_75
  6
CONTINUOUS
 62
         7
100
AcDbVertex
100
AcDb2dVertex
 10
1582.7256465932
 20
-118.9579816277
 30
0.0
 70
         1
  0
VERTEX
  5
BF
100
AcDbEntity
  8
L1_75
  6
CONTINUOUS
 62
         7
100
AcDbVertex
100
AcDb2dVertex
 10
1582.5522180458
 20
-118.7995918567
 30
0.0
 70
         1
  0
VERTEX
  5
C1
100
AcDbEntity
  8
L1_75
  6
CONTINUOUS
 62
         7
100
AcDbVertex
100
AcDb2dVertex
 10
1582.3595624332
 20
-118.656758834
 30
0.0
 70
         1
  0
VERTEX
  5
C3
100
AcDbEntity
  8
L1_75
  6
CONTINUOUS
 62
         7
100
AcDbVertex
100
AcDb2dVertex
 10
1582.1511267546
 20
-118.5317746542
 30
0.0
 70
         1
  0
VERTEX
  5
C5
100
AcDbEntity
  8
L1_75
  6
CONTINUOUS
 62
         7
100
AcDbVertex
100
AcDb2dVertex
 10
1581.9308374985
 20
-118.426248529
 30
0.0
 70
         1
  0
VERTEX
  5
C7
100
AcDbEntity
  8
L1_75
  6
CONTINUOUS
 62
         7
100
AcDbVertex
100
AcDb2dVertex
 10
1581.7028541452
 20
-118.3410430341
 30
0.0
 70
         1
  0
VERTEX
  5
C9
100
AcDbEntity
  8
L1_75
  6
CONTINUOUS
 62
         7
100
AcDbVertex
100
AcDb2dVertex
 10
1581.4713193885
 20
-118.276277518
 30
0.0
 70
         1
  0
VERTEX
  5
CB
100
AcDbEntity
  8
L1_75
  6
CONTINUOUS
 62
         7
100
AcDbVertex
100
AcDb2dVertex
 10
1581.1615249688
 20
-118.2203814459
 30
0.0
 70
         1
  0
VERTEX
  5
CD
100
AcDbEntity
  8
L1_75
  6
CONTINUOUS
 62
         7
100
AcDbVertex
100
AcDb2dVertex
 10
1580.8605202688
 20
-118.1973725419
 30
0.0
 70
         1
  0
VERTEX
  5
CF
100
AcDbEntity
  8
L1_75
  6
CONTINUOUS
 62
         7
100
AcDbVertex
100
AcDb2dVertex
 10
1580.5747064808
 20
-118.2030927981
 30
0.0
 70
         1
  0
VERTEX
  5
D1
100
AcDbEntity
  8
L1_75
  6
CONTINUOUS
 62
         7
100
AcDbVertex
100
AcDb2dVertex
 10
1580.3085374056
 20
-118.2327449806
 30
0.0
 70
         1
  0
VERTEX
  5
D3
100
AcDbEntity
  8
L1_75
  6
CONTINUOUS
 62
         7
100
AcDbVertex
100
AcDb2dVertex
 10
1580.0646417719
 20
-118.2814158096
 30
0.0
 70
         1
  0
VERTEX
  5
D5
100
AcDbEntity
  8
L1_75
  6
CONTINUOUS
 62
         7
100
AcDbVertex
100
AcDb2dVertex
 10
1579.7731229943
 20
-118.3688953292
 30
0.0
 70
         1
  0
VERTEX
  5
D7
100
AcDbEntity
  8
L1_75
  6
CONTINUOUS
 62
         7
100
AcDbVertex
100
AcDb2dVertex
 10
1579.5232430806
 20
-118.4726698284
 30
0.0
 70
         1
  0
VERTEX
  5
D9
100
AcDbEntity
  8
L1_75
  6
CONTINUOUS
 62
         7
100
AcDbVertex
100
AcDb2dVertex
 10
1579.3119978724
 20
-118.5849595218
 30
0.0
 70
         1
  0
VERTEX
  5
DB
100
AcDbEntity
  8
L1_75
  6
CONTINUOUS
 62
         7
100
AcDbVertex
100
AcDb2dVertex
 10
1579.1351602154
 20
-118.7000022416
 30
0.0
 70
         1
  0
VERTEX
  5
DD
100
AcDbEntity
  8
L1_75
  6
CONTINUOUS
 62
         7
100
AcDbVertex
100
AcDb2dVertex
 10
1578.9426629682
 20
-118.852929153
 30
0.0
 70
         1
  0
VERTEX
  5
DF
100
AcDbEntity
  8
L1_75
  6
CONTINUOUS
 62
         7
100
AcDbVertex
100
AcDb2dVertex
 10
1578.793704514
 20
-118.9975865407
 30
0.0
 70
         1
  0
VERTEX
  5
E1
100
AcDbEntity
  8
L1_75
  6
CONTINUOUS
 62
         7
100
AcDbVertex
100
AcDb2dVertex
 10
1578.6444276456
 20
-119.1757385387
 30
0.0
 70
         1
  0
VERTEX
  5
E3
100
AcDbEntity
  8
L1_75
  6
CONTINUOUS
 62
         7
100
AcDbVertex
100
AcDb2dVertex
 10
1578.5395863947
 20
-119.3310252963
 30
0.0
 70
         1
  0
VERTEX
  5
E5
100
AcDbEntity
  8
L1_75
  6
CONTINUOUS
 62
         7
100
AcDbVertex
100
AcDb2dVertex
 10
1578.4443991059
 20
-119.5083513905
 30
0.0
 70
         1
  0
VERTEX
  5
E7
100
AcDbEntity
  8
L1_75
  6
CONTINUOUS
 62
         7
100
AcDbVertex
100
AcDb2dVertex
 10
1578.3685335812
 20
-119.6970751269
 30
0.0
 70
         1
  0
VERTEX
  5
E9
100
AcDbEntity
  8
L1_75
  6
CONTINUOUS
 62
         7
100
AcDbVertex
100
AcDb2dVertex
 10
1578.3177038373
 20
-119.8804131312
 30
0.0
 70
         1
  0
VERTEX
  5
EB
100
AcDbEntity
  8
L1_75
  6
CONTINUOUS
 62
         7
100
AcDbVertex
100
AcDb2dVertex
 10
1578.2855169872
 20
-120.0891919004
 30
0.0
 70
         1
  0
VERTEX
  5
ED
100
AcDbEntity
  8
L1_75
  6
CONTINUOUS
 62
         7
100
AcDbVertex
100
AcDb2dVertex
 10
1578.2786999334
 20
-120.2400166132
 30
0.0
 70
         1
  0
SEQEND
  5
EF
100
AcDbEntity
  8
L1_75
  6
CONTINUOUS
 62
         7
  0
POLYLINE
  5
F1
100
AcDbEntity
  8
L1_75
  6
CONTINUOUS
 62
         7
100
AcDb2dPolyline
 66
         1
 10
0.0
 20
0.0
 30
0.0
 70
         2
  0
VERTEX
  5
F3
100
AcDbEntity
  8
L1_75
  6
CONTINUOUS
 62
         7
100
AcDbVertex
100
AcDb2dVertex
 10
1578.2786999334
 20
-120.2400166142
 30
0.0
 70
         1
  0
VERTEX
  5
F5
100
AcDbEntity
  8
L1_75
  6
CONTINUOUS
 62
         7
100
AcDbVertex
100
AcDb2dVertex
 10
1578.3189984253
 20
-120.6488836596
 30
0.0
 70
         1
  0
VERTEX
  5
F7
100
AcDbEntity
  8
L1_75
  6
CONTINUOUS
 62
         7
100
AcDbVertex
100
AcDb2dVertex
 10
1578.3724228609
 20
-120.8601839661
 30
0.0
 70
         1
  0
VERTEX
  5
F9
100
AcDbEntity
  8
L1_75
  6
CONTINUOUS
 62
         7
100
AcDbVertex
100
AcDb2dVertex
 10
1578.4500977757
 20
-121.0720166189
 30
0.0
 70
         1
  0
VERTEX
  5
FB
100
AcDbEntity
  8
L1_75
  6
CONTINUOUS
 62
         7
100
AcDbVertex
100
AcDb2dVertex
 10
1578.5527562154
 20
-121.2808329383
 30
0.0
 70
         1
  0
VERTEX
  5
FD
100
AcDbEntity
  8
L1_75
  6
CONTINUOUS
 62
         7
100
AcDbVertex
100
AcDb2dVertex
 10
1578.6803071527
 20
-121.4828523424
 30
0.0
 70
         1
  0
VERTEX
  5
FF
100
AcDbEntity
  8
L1_75
  6
CONTINUOUS
 62
         7
100
AcDbVertex
100
AcDb2dVertex
 10
1578.8317532744
 20
-121.6742651393
 30
0.0
 70
         1
  0
VERTEX
  5
101
100
AcDbEntity
  8
L1_75
  6
CONTINUOUS
 62
         7
100
AcDbVertex
100
AcDb2dVertex
 10
1579.005181822
 20
-121.851460222
 30
0.0
 70
         1
  0
VERTEX
  5
103
100
AcDbEntity
  8
L1_75
  6
CONTINUOUS
 62
         7
100
AcDbVertex
100
AcDb2dVertex
 10
1579.1978374346
 20
-122.0112515338
 30
0.0
 70
         1
  0
VERTEX
  5
105
100
AcDbEntity
  8
L1_75
  6
CONTINUOUS
 62
         7
100
AcDbVertex
100
AcDb2dVertex
 10
1579.4062731133
 20
-122.151074844
 30
0.0
 70
         1
  0
VERTEX
  5
107
100
AcDbEntity
  8
L1_75
  6
CONTINUOUS
 62
         7
100
AcDbVertex
100
AcDb2dVertex
 10
1579.6265623695
 20
-122.2691298822
 30
0.0
 70
         1
  0
VERTEX
  5
109
100
AcDbEntity
  8
L1_75
  6
CONTINUOUS
 62
         7
100
AcDbVertex
100
AcDb2dVertex
 10
1579.8545457228
 20
-122.364451661
 30
0.0
 70
         1
  0
VERTEX
  5
10B
100
AcDbEntity
  8
L1_75
  6
CONTINUOUS
 62
         7
100
AcDbVertex
100
AcDb2dVertex
 10
1580.0860804795
 20
-122.4369066616
 30
0.0
 70
         1
  0
VERTEX
  5
10D
100
AcDbEntity
  8
L1_75
  6
CONTINUOUS
 62
         7
100
AcDbVertex
100
AcDb2dVertex
 10
1580.3172648864
 20
-122.487121399
 30
0.0
 70
         1
  0
VERTEX
  5
10F
100
AcDbEntity
  8
L1_75
  6
CONTINUOUS
 62
         7
100
AcDbVertex
100
AcDb2dVertex
 10
1580.6212008452
 20
-122.5218629157
 30
0.0
 70
         1
  0
VERTEX
  5
111
100
AcDbEntity
  8
L1_75
  6
CONTINUOUS
 62
         7
100
AcDbVertex
100
AcDb2dVertex
 10
1580.9113963819
 20
-122.5231816784
 30
0.0
 70
         1
  0
VERTEX
  5
113
100
AcDbEntity
  8
L1_75
  6
CONTINUOUS
 62
         7
100
AcDbVertex
100
AcDb2dVertex
 10
1581.1829030248
 20
-122.4963227855
 30
0.0
 70
         1
  0
VERTEX
  5
115
100
AcDbEntity
  8
L1_75
  6
CONTINUOUS
 62
         7
100
AcDbVertex
100
AcDb2dVertex
 10
1581.4326481291
 20
-122.4467972364
 30
0.0
 70
         1
  0
VERTEX
  5
117
100
AcDbEntity
  8
L1_75
  6
CONTINUOUS
 62
         7
100
AcDbVertex
100
AcDb2dVertex
 10
1581.659182436
 20
-122.3799098715
 30
0.0
 70
         1
  0
VERTEX
  5
119
100
AcDbEntity
  8
L1_75
  6
CONTINUOUS
 62
         7
100
AcDbVertex
100
AcDb2dVertex
 10
1581.9274218394
 20
-122.2707489865
 30
0.0
 70
         1
  0
VERTEX
  5
11B
100
AcDbEntity
  8
L1_75
  6
CONTINUOUS
 62
         7
100
AcDbVertex
100
AcDb2dVertex
 10
1582.1554688695
 20
-122.148460756
 30
0.0
 70
         1
  0
VERTEX
  5
11D
100
AcDbEntity
  8
L1_75
  6
CONTINUOUS
 62
         7
100
AcDbVertex
100
AcDb2dVertex
 10
1582.3471288481
 20
-122.0204728703
 30
0.0
 70
         1
  0
VERTEX
  5
11F
100
AcDbEntity
  8
L1_75
  6
CONTINUOUS
 62
         7
100
AcDbVertex
100
AcDb2dVertex
 10
1582.5563802499
 20
-121.8476196932
 30
0.0
 70
         1
  0
VERTEX
  5
121
100
AcDbEntity
  8
L1_75
  6
CONTINUOUS
 62
         7
100
AcDbVertex
100
AcDb2dVertex
 10
1582.7186141452
 20
-121.6822133477
 30
0.0
 70
         1
  0
VERTEX
  5
123
100
AcDbEntity
  8
L1_75
  6
CONTINUOUS
 62
         7
100
AcDbVertex
100
AcDb2dVertex
 10
1582.8813207378
 20
-121.4768611164
 30
0.0
 70
         1
  0
VERTEX
  5
125
100
AcDbEntity
  8
L1_75
  6
CONTINUOUS
 62
         7
100
AcDbVertex
100
AcDb2dVertex
 10
1582.9955670796
 20
-121.2969117446
 30
0.0
 70
         1
  0
VERTEX
  5
127
100
AcDbEntity
  8
L1_75
  6
CONTINUOUS
 62
         7
100
AcDbVertex
100
AcDb2dVertex
 10
1583.0991766911
 20
-121.0907927113
 30
0.0
 70
         1
  0
VERTEX
  5
129
100
AcDbEntity
  8
L1_75
  6
CONTINUOUS
 62
         7
100
AcDbVertex
100
AcDb2dVertex
 10
1583.181583881
 20
-120.8710920246
 30
0.0
 70
         1
  0
VERTEX
  5
12B
100
AcDbEntity
  8
L1_75
  6
CONTINUOUS
 62
         7
100
AcDbVertex
100
AcDb2dVertex
 10
1583.2366375606
 20
-120.6576616798
 30
0.0
 70
         1
  0
VERTEX
  5
12D
100
AcDbEntity
  8
L1_75
  6
CONTINUOUS
 62
         7
100
AcDbVertex
100
AcDb2dVertex
 10
1583.2655974295
 20
-120.4737938985
 30
0.0
 70
         1
  0
VERTEX
  5
12F
100
AcDbEntity
  8
L1_75
  6
CONTINUOUS
 62
         7
100
AcDbVertex
100
AcDb2dVertex
 10
1583.2786999334
 20
-120.2400166132
 30
0.0
 70
         1
  0
SEQEND
  5
131
100
AcDbEntity
  8
L1_75
  6
CONTINUOUS
 62
         7
  0
DIMENSION
  5
135
100
AcDbEntity
  8
L1_75
  6
CONTINUOUS
 62
         4
100
AcDbDimension
  2
*D0
 10
1523.7786999334
 20
200.1830771768
 30
0.0
 11
1557.7786999334
 21
202.8080771768
 31
0.0
  3
DIMSTYLE1
100
AcDbAlignedDimension
 13
1523.7786999334
 23
151.9774144385
 33
0.0
 14
1598.7786999334
 24
124.7524144385
 34
0.0
100
AcDbRotatedDimension
  0
DIMENSION
  5
144
100
AcDbEntity
  8
L1_75
  6
CONTINUOUS
 62
         4
100
AcDbDimension
  2
*D1
 10
1422.1786999334
 20
213.2083108468
 30
0.0
 11
1501.7286999334
 21
215.8333108468
 31
0.0
  3
DIMSTYLE1
100
AcDbAlignedDimension
 13
1422.1786999334
 23
130.1987502026
 33
0.0
 14
1598.7786999334
 24
124.7524144385
 34
0.0
100
AcDbRotatedDimension
  0
LINE
  5
150
100
AcDbEntity
  8
_Y__________
  6
CONTINUOUS
 62
         7
100
AcDbLine
 10
1476.4786999334
 20
-137.1363580766
 30
0.0
 11
1482.4810304759
 21
-126.7400166132
 31
0.0
  0
LINE
  5
151
100
AcDbEntity
  8
_Y__________
  6
CONTINUOUS
 62
         7
100
AcDbLine
 10
1476.4786999334
 20
-116.3436751498
 30
0.0
 11
1482.4810304759
 21
-126.7400166132
 31
0.0
  0
LINE
  5
152
100
AcDbEntity
  8
_Y__________
  6
CONTINUOUS
 62
         7
100
AcDbLine
 10
1476.4786999334
 20
-137.1363580766
 30
0.0
 11
1430.4480438949
 21
-137.1363580766
 31
0.0
  0
LINE
  5
153
100
AcDbEntity
  8
_Y__________
  6
CONTINUOUS
 62
         7
100
AcDbLine
 10
1476.4786999334
 20
-116.3436751498
 30
0.0
 11
1430.4480438949
 21
-116.3436751498
 31
0.0
  0
LINE
  5
154
100
AcDbEntity
  8
_Y__________
  6
CONTINUOUS
 62
         7
100
AcDbLine
 10
1476.4786999334
 20
-116.3436751498
 30
0.0
 11
1476.4786999334
 21
-137.1363580766
 31
0.0
  0
LINE
  5
155
100
AcDbEntity
  8
_Y__________
  6
CONTINUOUS
 62
         7
100
AcDbLine
 10
1523.7786999334
 20
147.1774144385
 30
0.0
 11
1525.7251100949
 21
146.6774144385
 31
0.0
  0
LINE
  5
156
100
AcDbEntity
  8
_Y__________
  6
CONTINUOUS
 62
         7
100
AcDbLine
 10
1523.7786999334
 20
77.3274144385
 30
0.0
 11
1525.7251100949
 21
77.8274144385
 31
0.0
  0
LINE
  5
157
100
AcDbEntity
  8
_Y__________
  6
CENTER
 62
         1
100
AcDbLine
 10
1513.0227673053
 20
112.2524144385
 30
0.0
 11
1542.8786999334
 21
112.2524144385
 31
0.0
  0
LINE
  5
158
100
AcDbEntity
  8
_Y__________
  6
CENTER
 62
         1
100
AcDbLine
 10
1417.2325573653
 20
112.2524144385
 30
0.0
 11
1491.1537903612
 21
112.2524144385
 31
0.0
  0
LINE
  5
159
100
AcDbEntity
  8
_Y__________
  6
CONTINUOUS
 62
         7
100
AcDbLine
 10
1523.7786999334
 20
147.1774144385
 30
0.0
 11
1424.3179293748
 21
132.6725821702
 31
0.0
  0
LINE
  5
15A
100
AcDbEntity
  8
_Y__________
  6
CONTINUOUS
 62
         7
100
AcDbLine
 10
1523.7786999334
 20
77.3274144385
 30
0.0
 11
1424.3179293748
 21
91.8322467069
 31
0.0
  0
LINE
  5
15B
100
AcDbEntity
  8
_Y__________
  6
CONTINUOUS
 62
         7
100
AcDbLine
 10
1524.9786999334
 20
146.8691546422
 30
0.0
 11
1524.9786999334
 21
77.6356742349
 31
0.0
  0
LINE
  5
15C
100
AcDbEntity
  8
_Y__________
  6
CENTER
 62
         1
100
AcDbLine
 10
1523.7786999334
 20
151.9774144385
 30
0.0
 11
1523.7786999334
 21
73.981360093
 31
0.0
  0
LINE
  5
15D
100
AcDbEntity
  8
_Y__________
  6
CONTINUOUS
 62
         7
100
AcDbLine
 10
1525.7251100949
 20
146.6774144385
 30
0.0
 11
1525.7251100949
 21
77.8274144385
 31
0.0
  0
LINE
  5
15E
100
AcDbEntity
  8
_Y__________
  6
CONTINUOUS
 62
         7
100
AcDbLine
 10
1526.9786999334
 20
159.5024144385
 30
0.0
 11
1526.9786999334
 21
65.0024144385
 31
0.0
  0
LINE
  5
15F
100
AcDbEntity
  8
_Y__________
  6
CENTER
 62
         1
100
AcDbLine
 10
1534.8786999334
 20
167.2576777393
 30
0.0
 11
1534.8786999334
 21
57.2548581875
 31
0.0
  0
LINE
  5
160
100
AcDbEntity
  8
_Y__________
  6
CONTINUOUS
 62
         7
100
AcDbLine
 10
1538.4149703322
 20
63.5024144385
 30
0.0
 11
1541.3786999334
 21
63.5024144385
 31
0.0
  0
ARC
  5
161
100
AcDbEntity
  8
_Y__________
  6
CONTINUOUS
 62
         7
100
AcDbCircle
 10
1526.3786999334
 20
77.2274144385
 30
0.0
 40
0.6
100
AcDbArc
 50
0.0
 51
90.0
  0
LINE
  5
162
100
AcDbEntity
  8
_Y__________
  6
CONTINUOUS
 62
         7
100
AcDbLine
 10
1525.7251100949
 20
77.8274144385
 30
0.0
 11
1526.3786999334
 21
77.8274144385
 31
0.0
  0
ARC
  5
163
100
AcDbEntity
  8
_Y__________
  6
CONTINUOUS
 62
         7
100
AcDbCircle
 10
1526.3786999334
 20
77.2274144385
 30
0.0
 40
0.6
100
AcDbArc
 50
0.0
 51
90.0
  0
ARC
  5
164
100
AcDbEntity
  8
_Y__________
  6
CONTINUOUS
 62
         7
100
AcDbCircle
 10
1536.3220756064
 20
66.1274144385
 30
0.0
 40
0.5
100
AcDbArc
 50
30.0
 51
90.0
  0
LINE
  5
165
100
AcDbEntity
  8
_Y__________
  6
CONTINUOUS
 62
         7
100
AcDbLine
 10
1533.0023115585
 20
66.3774144385
 30
0.0
 11
1531.3424295346
 21
63.5024144385
 31
0.0
  0
LINE
  5
166
100
AcDbEntity
  8
_Y__________
  6
CONTINUOUS
 62
         7
100
AcDbLine
 10
1528.4786999334
 20
63.5024144385
 30
0.0
 11
1531.3424295346
 21
63.5024144385
 31
0.0
  0
ARC
  5
167
100
AcDbEntity
  8
_Y__________
  6
CONTINUOUS
 62
         7
100
AcDbCircle
 10
1533.4353242604
 20
66.1274144385
 30
0.0
 40
0.5
100
AcDbArc
 50
90.0
 51
150.0
  0
LINE
  5
168
100
AcDbEntity
  8
_Y__________
  6
CONTINUOUS
 62
         7
100
AcDbLine
 10
1533.4353242604
 20
66.6274144385
 30
0.0
 11
1536.3220756064
 21
66.6274144385
 31
0.0
  0
LINE
  5
169
100
AcDbEntity
  8
_Y__________
  6
CONTINUOUS
 62
         7
100
AcDbLine
 10
1536.7550883083
 20
66.3774144385
 30
0.0
 11
1538.4149703322
 21
63.5024144385
 31
0.0
  0
LINE
  5
16A
100
AcDbEntity
  8
_Y__________
  6
CONTINUOUS
 62
         7
100
AcDbLine
 10
1538.4149703322
 20
161.0024144385
 30
0.0
 11
1541.3786999334
 21
161.0024144385
 31
0.0
  0
ARC
  5
16B
100
AcDbEntity
  8
_Y__________
  6
CONTINUOUS
 62
         7
100
AcDbCircle
 10
1536.3220756064
 20
158.3774144385
 30
0.0
 40
0.5
100
AcDbArc
 50
270.0
 51
330.0
  0
LINE
  5
16C
100
AcDbEntity
  8
_Y__________
  6
CONTINUOUS
 62
         7
100
AcDbLine
 10
1533.0023115585
 20
158.1274144385
 30
0.0
 11
1531.3424295346
 21
161.0024144385
 31
0.0
  0
ARC
  5
16D
100
AcDbEntity
  8
_Y__________
  6
CONTINUOUS
 62
         7
100
AcDbCircle
 10
1526.3786999334
 20
147.2774144385
 30
0.0
 40
0.6
100
AcDbArc
 50
270.0
 51
360.0
  0
LINE
  5
16E
100
AcDbEntity
  8
_Y__________
  6
CONTINUOUS
 62
         7
100
AcDbLine
 10
1525.7251100949
 20
146.6774144385
 30
0.0
 11
1526.3786999334
 21
146.6774144385
 31
0.0
  0
ARC
  5
16F
100
AcDbEntity
  8
_Y__________
  6
CONTINUOUS
 62
         7
100
AcDbCircle
 10
1533.4353242604
 20
158.3774144385
 30
0.0
 40
0.5
100
AcDbArc
 50
210.0
 51
270.0
  0
LINE
  5
170
100
AcDbEntity
  8
_Y__________
  6
CONTINUOUS
 62
         7
100
AcDbLine
 10
1528.4786999334
 20
161.0024144385
 30
0.0
 11
1531.3424295346
 21
161.0024144385
 31
0.0
  0
LINE
  5
171
100
AcDbEntity
  8
_Y__________
  6
CONTINUOUS
 62
         7
100
AcDbLine
 10
1533.4353242604
 20
157.8774144385
 30
0.0
 11
1536.3220756064
 21
157.8774144385
 31
0.0
  0
LINE
  5
172
100
AcDbEntity
  8
_Y__________
  6
CONTINUOUS
 62
         7
100
AcDbLine
 10
1536.7550883083
 20
158.1274144385
 30
0.0
 11
1538.4149703322
 21
161.0024144385
 31
0.0
  0
LINE
  5
173
100
AcDbEntity
  8
_Y__________
  6
CONTINUOUS
 62
         7
100
AcDbLine
 10
1542.8786999334
 20
159.5024144385
 30
0.0
 11
1542.8786999334
 21
65.0024144385
 31
0.0
  0
LINE
  5
174
100
AcDbEntity
  8
_Y__________
  6
CONTINUOUS
 62
         4
100
AcDbLine
 10
1423.5286999334
 20
-139.2400166132
 30
0.0
 11
1423.5286999334
 21
-114.2400166132
 31
0.0
  0
LINE
  5
175
100
AcDbEntity
  8
_Y__________
  6
CONTINUOUS
 62
         7
100
AcDbLine
 10
1430.4480438949
 20
-137.1363580766
 30
0.0
 11
1430.4480438949
 21
-116.3436751498
 31
0.0
  0
LINE
  5
176
100
AcDbEntity
  8
_Y__________
  6
CONTINUOUS
 62
         7
100
AcDbLine
 10
1428.2615426459
 20
-139.3228593257
 30
0.0
 11
1430.4480438949
 21
-137.1363580766
 31
0.0
  0
ARC
  5
177
100
AcDbEntity
  8
_Y__________
  6
CONTINUOUS
 62
         7
100
AcDbCircle
 10
1427.9786999334
 20
-139.0400166132
 30
0.0
 40
0.4
100
AcDbArc
 50
270.0
 51
315.0
  0
ARC
  5
178
100
AcDbEntity
  8
_Y__________
  6
CONTINUOUS
 62
         7
100
AcDbCircle
 10
1423.5286999334
 20
-140.7400166132
 30
0.0
 40
1.5
100
AcDbArc
 50
90.0
 51
154.1580672375
  0
LINE
  5
179
100
AcDbEntity
  8
_Y__________
  6
CONTINUOUS
 62
         7
100
AcDbLine
 10
1427.1251100949
 20
-139.4400166132
 30
0.0
 11
1426.3786999334
 21
-139.2400166132
 31
0.0
  0
LINE
  5
17A
100
AcDbEntity
  8
_Y__________
  6
CONTINUOUS
 62
         7
100
AcDbLine
 10
1427.1251100949
 20
-139.4400166132
 30
0.0
 11
1427.9786999334
 21
-139.4400166132
 31
0.0
  0
LINE
  5
17B
100
AcDbEntity
  8
_Y__________
  6
CONTINUOUS
 62
         7
100
AcDbLine
 10
1423.5286999334
 20
-139.2400166132
 30
0.0
 11
1426.3786999334
 21
-139.2400166132
 31
0.0
  0
LINE
  5
17C
100
AcDbEntity
  8
_Y__________
  6
CONTINUOUS
 62
         7
100
AcDbLine
 10
1428.2615426459
 20
-114.1571739007
 30
0.0
 11
1430.4480438949
 21
-116.3436751498
 31
0.0
  0
ARC
  5
17D
100
AcDbEntity
  8
_Y__________
  6
CONTINUOUS
 62
         7
100
AcDbCircle
 10
1423.5286999334
 20
-112.7400166132
 30
0.0
 40
1.5
100
AcDbArc
 50
205.8419327625
 51
270.0
  0
LINE
  5
17E
100
AcDbEntity
  8
_Y__________
  6
CONTINUOUS
 62
         7
100
AcDbLine
 10
1427.1251100949
 20
-114.0400166132
 30
0.0
 11
1426.3786999334
 21
-114.2400166132
 31
0.0
  0
ARC
  5
17F
100
AcDbEntity
  8
_Y__________
  6
CONTINUOUS
 62
         7
100
AcDbCircle
 10
1427.9786999334
 20
-114.4400166132
 30
0.0
 40
0.4
100
AcDbArc
 50
45.0
 51
90.0
  0
LINE
  5
180
100
AcDbEntity
  8
_Y__________
  6
CONTINUOUS
 62
         7
100
AcDbLine
 10
1426.3786999334
 20
-139.2400166132
 30
0.0
 11
1426.3786999334
 21
-114.2400166132
 31
0.0
  0
LINE
  5
181
100
AcDbEntity
  8
_Y__________
  6
CONTINUOUS
 62
         7
100
AcDbLine
 10
1427.1251100949
 20
-114.0400166132
 30
0.0
 11
1427.9786999334
 21
-114.0400166132
 31
0.0
  0
LINE
  5
182
100
AcDbEntity
  8
_Y__________
  6
CONTINUOUS
 62
         7
100
AcDbLine
 10
1428.3786999334
 20
-139.2057020382
 30
0.0
 11
1428.3786999334
 21
-114.2743311882
 31
0.0
  0
ARC
  5
183
100
AcDbEntity
  8
_Y__________
  6
CONTINUOUS
 62
         7
100
AcDbCircle
 10
1536.0334004718
 20
-173.3650166132
 30
0.0
 40
1.0
100
AcDbArc
 50
30.0
 51
90.0
  0
LINE
  5
184
100
AcDbEntity
  8
_Y__________
  6
CENTER
 62
         1
100
AcDbLine
 10
1422.0286999334
 20
-126.7400166132
 30
0.0
 11
1542.8786999334
 21
-126.7400166132
 31
0.0
  0
LINE
  5
185
100
AcDbEntity
  8
_Y__________
  6
CONTINUOUS
 62
         7
100
AcDbLine
 10
1523.7786999334
 20
-91.8150166132
 30
0.0
 11
1525.7251100949
 21
-92.3150166132
 31
0.0
  0
LINE
  5
186
100
AcDbEntity
  8
_Y__________
  6
CONTINUOUS
 62
         7
100
AcDbLine
 10
1523.7786999334
 20
-161.6650166132
 30
0.0
 11
1525.7251100949
 21
-161.1650166132
 31
0.0
  0
LINE
  5
187
100
AcDbEntity
  8
_Y__________
  6
CONTINUOUS
 62
         5
100
AcDbLine
 10
1428.8443853584
 20
-114.7400166132
 30
0.0
 11
1466.6786999334
 21
-114.7400166132
 31
0.0
  0
LINE
  5
188
100
AcDbEntity
  8
_Y__________
  6
CONTINUOUS
 62
         7
100
AcDbLine
 10
1430.4480438949
 20
-116.3436751498
 30
0.0
 11
1466.6786999334
 21
-116.3436751498
 31
0.0
  0
LINE
  5
189
100
AcDbEntity
  8
_Y__________
  6
CONTINUOUS
 62
         7
100
AcDbLine
 10
1523.7786999334
 20
-91.8150166132
 30
0.0
 11
1424.1679293748
 21
-106.3417240875
 31
0.0
  0
LINE
  5
18A
100
AcDbEntity
  8
_Y__________
  6
CONTINUOUS
 62
         5
100
AcDbLine
 10
1428.8443853584
 20
-138.7400166132
 30
0.0
 11
1466.6786999334
 21
-138.7400166132
 31
0.0
  0
LINE
  5
18B
100
AcDbEntity
  8
_Y__________
  6
CONTINUOUS
 62
         7
100
AcDbLine
 10
1430.4480438949
 20
-137.1363580766
 30
0.0
 11
1466.6786999334
 21
-137.1363580766
 31
0.0
  0
LINE
  5
18C
100
AcDbEntity
  8
_Y__________
  6
CONTINUOUS
 62
         7
100
AcDbLine
 10
1523.7786999334
 20
-161.6650166132
 30
0.0
 11
1424.1679293748
 21
-147.1383091389
 31
0.0
  0
LINE
  5
18D
100
AcDbEntity
  8
_Y__________
  6
CONTINUOUS
 62
         7
100
AcDbLine
 10
1423.5286999334
 20
-114.2400166132
 30
0.0
 11
1426.3786999334
 21
-114.2400166132
 31
0.0
  0
LINE
  5
18E
100
AcDbEntity
  8
_Y__________
  6
CONTINUOUS
 62
         7
100
AcDbLine
 10
1466.6786999334
 20
-114.7400166132
 30
0.0
 11
1466.6786999334
 21
-138.7400166132
 31
0.0
  0
LINE
  5
18F
100
AcDbEntity
  8
_Y__________
  6
CONTINUOUS
 62
         7
100
AcDbLine
 10
1538.4149703322
 20
-175.4900166132
 30
0.0
 11
1541.3786999334
 21
-175.4900166132
 31
0.0
  0
ARC
  5
190
100
AcDbEntity
  8
_Y__________
  6
CONTINUOUS
 62
         7
100
AcDbCircle
 10
1526.3786999334
 20
-161.7650166132
 30
0.0
 40
0.6
100
AcDbArc
 50
0.0
 51
90.0
  0
LINE
  5
191
100
AcDbEntity
  8
_Y__________
  6
CONTINUOUS
 62
         7
100
AcDbLine
 10
1525.7251100949
 20
-161.1650166132
 30
0.0
 11
1526.3786999334
 21
-161.1650166132
 31
0.0
  0
ARC
  5
192
100
AcDbEntity
  8
_Y__________
  6
CONTINUOUS
 62
         7
100
AcDbCircle
 10
1533.4353242604
 20
-172.8650166132
 30
0.0
 40
0.5
100
AcDbArc
 50
90.0
 51
150.0
  0
LINE
  5
193
100
AcDbEntity
  8
_Y__________
  6
CONTINUOUS
 62
         7
100
AcDbLine
 10
1533.0023115585
 20
-172.6150166132
 30
0.0
 11
1531.3424295346
 21
-175.4900166132
 31
0.0
  0
LINE
  5
194
100
AcDbEntity
  8
_Y__________
  6
CONTINUOUS
 62
         7
100
AcDbLine
 10
1528.4786999334
 20
-175.4900166132
 30
0.0
 11
1531.3424295346
 21
-175.4900166132
 31
0.0
  0
LINE
  5
195
100
AcDbEntity
  8
_Y__________
  6
CONTINUOUS
 62
         7
100
AcDbLine
 10
1533.4353242604
 20
-172.3650166132
 30
0.0
 11
1536.0334004718
 21
-172.3650166132
 31
0.0
  0
LINE
  5
196
100
AcDbEntity
  8
_Y__________
  6
CONTINUOUS
 62
         7
100
AcDbLine
 10
1526.9786999334
 20
-161.7650166132
 30
0.0
 11
1526.9786999334
 21
-173.9900166132
 31
0.0
  0
LINE
  5
197
100
AcDbEntity
  8
_Y__________
  6
CONTINUOUS
 62
         7
100
AcDbLine
 10
1536.8994258756
 20
-172.8650166132
 30
0.0
 11
1538.4149703322
 21
-175.4900166132
 31
0.0
  0
LINE
  5
198
100
AcDbEntity
  8
_Y__________
  6
CONTINUOUS
 62
         7
100
AcDbLine
 10
1538.4149703322
 20
-77.9900166132
 30
0.0
 11
1541.3786999334
 21
-77.9900166132
 31
0.0
  0
LINE
  5
199
100
AcDbEntity
  8
_Y__________
  6
CONTINUOUS
 62
         7
100
AcDbLine
 10
1533.0023115585
 20
-80.8650166132
 30
0.0
 11
1531.3424295346
 21
-77.9900166132
 31
0.0
  0
ARC
  5
19A
100
AcDbEntity
  8
_Y__________
  6
CONTINUOUS
 62
         7
100
AcDbCircle
 10
1536.3220756064
 20
-80.6150166132
 30
0.0
 40
0.5
100
AcDbArc
 50
270.0
 51
330.0
  0
ARC
  5
19B
100
AcDbEntity
  8
_Y__________
  6
CONTINUOUS
 62
         7
100
AcDbCircle
 10
1533.4353242604
 20
-80.6150166132
 30
0.0
 40
0.5
100
AcDbArc
 50
210.0
 51
270.0
  0
ARC
  5
19C
100
AcDbEntity
  8
_Y__________
  6
CONTINUOUS
 62
         7
100
AcDbCircle
 10
1526.3786999334
 20
-91.7150166132
 30
0.0
 40
0.6
100
AcDbArc
 50
270.0
 51
360.0
  0
LINE
  5
19D
100
AcDbEntity
  8
_Y__________
  6
CONTINUOUS
 62
         7
100
AcDbLine
 10
1525.7251100949
 20
-92.3150166132
 30
0.0
 11
1526.3786999334
 21
-92.3150166132
 31
0.0
  0
LINE
  5
19E
100
AcDbEntity
  8
_Y__________
  6
CONTINUOUS
 62
         7
100
AcDbLine
 10
1526.9786999334
 20
-79.4900166132
 30
0.0
 11
1526.9786999334
 21
-91.7150166132
 31
0.0
  0
LINE
  5
19F
100
AcDbEntity
  8
_Y__________
  6
CONTINUOUS
 62
         7
100
AcDbLine
 10
1533.4353242604
 20
-81.1150166132
 30
0.0
 11
1536.3220756064
 21
-81.1150166132
 31
0.0
  0
LINE
  5
1A0
100
AcDbEntity
  8
_Y__________
  6
CONTINUOUS
 62
         7
100
AcDbLine
 10
1528.4786999334
 20
-77.9900166132
 30
0.0
 11
1531.3424295346
 21
-77.9900166132
 31
0.0
  0
LINE
  5
1A1
100
AcDbEntity
  8
_Y__________
  6
CONTINUOUS
 62
         7
100
AcDbLine
 10
1536.7550883083
 20
-80.8650166132
 30
0.0
 11
1538.4149703322
 21
-77.9900166132
 31
0.0
  0
LINE
  5
1A2
100
AcDbEntity
  8
_Y__________
  6
CONTINUOUS
 62
         7
100
AcDbLine
 10
1533.4353242604
 20
-81.1150166132
 30
0.0
 11
1536.3220756064
 21
-81.1150166132
 31
0.0
  0
LINE
  5
1A3
100
AcDbEntity
  8
_Y__________
  6
CONTINUOUS
 62
         7
100
AcDbLine
 10
1526.9786999334
 20
-79.4900166132
 30
0.0
 11
1526.9786999334
 21
-91.7150166132
 31
0.0
  0
LINE
  5
1A4
100
AcDbEntity
  8
_Y__________
  6
CONTINUOUS
 62
         7
100
AcDbLine
 10
1525.7251100949
 20
-92.3150166132
 30
0.0
 11
1526.3786999334
 21
-92.3150166132
 31
0.0
  0
ARC
  5
1A5
100
AcDbEntity
  8
_Y__________
  6
CONTINUOUS
 62
         7
100
AcDbCircle
 10
1526.3786999334
 20
-91.7150166132
 30
0.0
 40
0.6
100
AcDbArc
 50
270.0
 51
360.0
  0
ARC
  5
1A6
100
AcDbEntity
  8
_Y__________
  6
CONTINUOUS
 62
         7
100
AcDbCircle
 10
1533.4353242604
 20
-80.6150166132
 30
0.0
 40
0.5
100
AcDbArc
 50
210.0
 51
270.0
  0
ARC
  5
1A7
100
AcDbEntity
  8
_Y__________
  6
CONTINUOUS
 62
         7
100
AcDbCircle
 10
1536.3220756064
 20
-80.6150166132
 30
0.0
 40
0.5
100
AcDbArc
 50
270.0
 51
330.0
  0
LINE
  5
1A8
100
AcDbEntity
  8
_Y__________
  6
CONTINUOUS
 62
         7
100
AcDbLine
 10
1523.7786999334
 20
-91.8150166132
 30
0.0
 11
1525.7251100949
 21
-92.3150166132
 31
0.0
  0
LINE
  5
1A9
100
AcDbEntity
  8
_Y__________
  6
CONTINUOUS
 62
         7
100
AcDbLine
 10
1277.6233403763
 20
99.9024144385
 30
0.0
 11
1278.1233403763
 21
99.4024144385
 31
0.0
  0
LINE
  5
1AA
100
AcDbEntity
  8
_Y__________
  6
CONTINUOUS
 62
         7
100
AcDbLine
 10
1278.1233403763
 20
125.1024144385
 30
0.0
 11
1277.6233403763
 21
124.6024144385
 31
0.0
  0
LINE
  5
1AB
100
AcDbEntity
  8
_Y__________
  6
CONTINUOUS
 62
         7
100
AcDbLine
 10
1203.9233403763
 20
124.6024144385
 30
0.0
 11
1203.4233403763
 21
125.1024144385
 31
0.0
  0
LINE
  5
1AC
100
AcDbEntity
  8
_Y__________
  6
CONTINUOUS
 62
         7
100
AcDbLine
 10
1203.4233403763
 20
99.4024144385
 30
0.0
 11
1203.9233403763
 21
99.9024144385
 31
0.0
  0
LINE
  5
1AD
100
AcDbEntity
  8
_Y__________
  6
CONTINUOUS
 62
         7
100
AcDbLine
 10
1286.664542757
 20
98.4024144385
 30
0.0
 11
1285.664542757
 21
99.4024144385
 31
0.0
  0
LINE
  5
1AE
100
AcDbEntity
  8
_Y__________
  6
CONTINUOUS
 62
         7
100
AcDbLine
 10
1285.664542757
 20
99.4024144385
 30
0.0
 11
1278.1233403763
 21
99.4024144385
 31
0.0
  0
LINE
  5
1AF
100
AcDbEntity
  8
_Y__________
  6
CONTINUOUS
 62
         7
100
AcDbLine
 10
1286.664542757
 20
126.1024144385
 30
0.0
 11
1285.664542757
 21
125.1024144385
 31
0.0
  0
LINE
  5
1B0
100
AcDbEntity
  8
_Y__________
  6
CONTINUOUS
 62
         7
100
AcDbLine
 10
1285.664542757
 20
125.1024144385
 30
0.0
 11
1278.1233403763
 21
125.1024144385
 31
0.0
  0
LINE
  5
1B1
100
AcDbEntity
  8
_Y__________
  6
CONTINUOUS
 62
         7
100
AcDbLine
 10
1277.6233403763
 20
99.9024144385
 30
0.0
 11
1277.6233403763
 21
124.6024144385
 31
0.0
  0
LINE
  5
1B2
100
AcDbEntity
  8
_Y__________
  6
CONTINUOUS
 62
         7
100
AcDbLine
 10
1194.1821379955
 20
125.1024144385
 30
0.0
 11
1203.4233403763
 21
125.1024144385
 31
0.0
  0
LINE
  5
1B3
100
AcDbEntity
  8
_Y__________
  6
CONTINUOUS
 62
         7
100
AcDbLine
 10
1193.1821379955
 20
126.1024144385
 30
0.0
 11
1194.1821379955
 21
125.1024144385
 31
0.0
  0
LINE
  5
1B4
100
AcDbEntity
  8
_Y__________
  6
CONTINUOUS
 62
         7
100
AcDbLine
 10
1193.1821379955
 20
98.4024144385
 30
0.0
 11
1194.1821379955
 21
99.4024144385
 31
0.0
  0
LINE
  5
1B5
100
AcDbEntity
  8
_Y__________
  6
CONTINUOUS
 62
         7
100
AcDbLine
 10
1194.1821379955
 20
99.4024144385
 30
0.0
 11
1203.4233403763
 21
99.4024144385
 31
0.0
  0
LINE
  5
1B6
100
AcDbEntity
  8
_Y__________
  6
CONTINUOUS
 62
         7
100
AcDbLine
 10
1203.9233403763
 20
99.9024144385
 30
0.0
 11
1203.9233403763
 21
124.6024144385
 31
0.0
  0
CIRCLE
  5
1B7
100
AcDbEntity
  8
_Y__________
  6
CONTINUOUS
 62
         7
100
AcDbCircle
 10
1239.9233403763
 20
112.2524144385
 30
0.0
 40
12.6589889012
  0
ARC
  5
1B8
100
AcDbEntity
  8
_Y__________
  6
CONTINUOUS
 62
         4
100
AcDbCircle
 10
1239.9233403763
 20
112.2524144385
 30
0.0
 40
12.0
100
AcDbArc
 50
278.1340859252
 51
549.6704111119
  0
CIRCLE
  5
1B9
100
AcDbEntity
  8
_Y__________
  6
CONTINUOUS
 62
         7
100
AcDbCircle
 10
1239.9233403763
 20
112.2524144385
 30
0.0
 40
10.3963414634
  0
CIRCLE
  5
1BA
100
AcDbEntity
  8
_Y__________
  6
CONTINUOUS
 62
         7
100
AcDbCircle
 10
1239.9233403763
 20
112.2524144385
 30
0.0
 40
20.3982925257
  0
CIRCLE
  5
1BB
100
AcDbEntity
  8
_Y__________
  6
CONTINUOUS
 62
         7
100
AcDbCircle
 10
1239.9233403763
 20
112.2524144385
 30
0.0
 40
34.925
  0
ARC
  5
1BC
100
AcDbEntity
  8
_Y__________
  6
CONTINUOUS
 62
         7
100
AcDbCircle
 10
1239.9233403763
 20
112.2524144385
 30
0.0
 40
48.75
100
AcDbArc
 50
196.5052120024
 51
343.4947879976
  0
LINE
  5
1BD
100
AcDbEntity
  8
_Y__________
  6
CENTER
 62
         1
100
AcDbLine
 10
1283.2887501132
 20
112.2524144385
 30
0.0
 11
1193.3587947809
 21
112.2524144385
 31
0.0
  0
ARC
  5
1BE
100
AcDbEntity
  8
_Y__________
  6
CONTINUOUS
 62
         7
100
AcDbCircle
 10
1239.9233403763
 20
112.2524144385
 30
0.0
 40
48.75
100
AcDbArc
 50
16.5052120024
 51
163.4947879976
  0
LINE
  5
1BF
100
AcDbEntity
  8
_Y__________
  6
CENTER
 62
         1
100
AcDbLine
 10
1239.9233403763
 20
165.6922817905
 30
0.0
 11
1239.9233403763
 21
50.6023837096
 31
0.0
  0
LINE
  5
1C0
100
AcDbEntity
  8
_Y__________
  6
CONTINUOUS
 62
         7
100
AcDbLine
 10
1800.0928571098
 20
99.4024144385
 30
0.0
 11
1807.6340594905
 21
99.4024144385
 31
0.0
  0
LINE
  5
1C1
100
AcDbEntity
  8
_Y__________
  6
CONTINUOUS
 62
         7
100
AcDbLine
 10
1799.0928571098
 20
98.4024144385
 30
0.0
 11
1800.0928571098
 21
99.4024144385
 31
0.0
  0
LINE
  5
1C2
100
AcDbEntity
  8
_Y__________
  6
CONTINUOUS
 62
         7
100
AcDbLine
 10
1800.0928571098
 20
125.1024144385
 30
0.0
 11
1807.6340594905
 21
125.1024144385
 31
0.0
  0
LINE
  5
1C3
100
AcDbEntity
  8
_Y__________
  6
CONTINUOUS
 62
         7
100
AcDbLine
 10
1799.0928571098
 20
126.1024144385
 30
0.0
 11
1800.0928571098
 21
125.1024144385
 31
0.0
  0
LINE
  5
1C4
100
AcDbEntity
  8
_Y__________
  6
CONTINUOUS
 62
         7
100
AcDbLine
 10
1808.1340594905
 20
124.6024144385
 30
0.0
 11
1808.1340594905
 21
99.9024144385
 31
0.0
  0
LINE
  5
1C5
100
AcDbEntity
  8
_Y__________
  6
CONTINUOUS
 62
         7
100
AcDbLine
 10
1807.6340594905
 20
125.1024144385
 30
0.0
 11
1808.1340594905
 21
124.6024144385
 31
0.0
  0
LINE
  5
1C6
100
AcDbEntity
  8
_Y__________
  6
CONTINUOUS
 62
         7
100
AcDbLine
 10
1808.1340594905
 20
99.9024144385
 30
0.0
 11
1807.6340594905
 21
99.4024144385
 31
0.0
  0
LINE
  5
1C7
100
AcDbEntity
  8
_Y__________
  6
CONTINUOUS
 62
         7
100
AcDbLine
 10
1881.3340594905
 20
99.9024144385
 30
0.0
 11
1881.8340594905
 21
99.4024144385
 31
0.0
  0
LINE
  5
1C8
100
AcDbEntity
  8
_Y__________
  6
CONTINUOUS
 62
         7
100
AcDbLine
 10
1881.3340594905
 20
124.6024144385
 30
0.0
 11
1881.8340594905
 21
125.1024144385
 31
0.0
  0
LINE
  5
1C9
100
AcDbEntity
  8
_Y__________
  6
CONTINUOUS
 62
         7
100
AcDbLine
 10
1891.5752618713
 20
99.4024144385
 30
0.0
 11
1881.8340594905
 21
99.4024144385
 31
0.0
  0
LINE
  5
1CA
100
AcDbEntity
  8
_Y__________
  6
CONTINUOUS
 62
         7
100
AcDbLine
 10
1892.5752618713
 20
98.4024144385
 30
0.0
 11
1891.5752618713
 21
99.4024144385
 31
0.0
  0
LINE
  5
1CB
100
AcDbEntity
  8
_Y__________
  6
CONTINUOUS
 62
         7
100
AcDbLine
 10
1892.5752618713
 20
126.1024144385
 30
0.0
 11
1891.5752618713
 21
125.1024144385
 31
0.0
  0
LINE
  5
1CC
100
AcDbEntity
  8
_Y__________
  6
CONTINUOUS
 62
         7
100
AcDbLine
 10
1891.5752618713
 20
125.1024144385
 30
0.0
 11
1881.8340594905
 21
125.1024144385
 31
0.0
  0
LINE
  5
1CD
100
AcDbEntity
  8
_Y__________
  6
CONTINUOUS
 62
         7
100
AcDbLine
 10
1881.3340594905
 20
124.6024144385
 30
0.0
 11
1881.3340594905
 21
99.9024144385
 31
0.0
  0
LINE
  5
1CE
100
AcDbEntity
  8
_Y__________
  6
CENTER
 62
         1
100
AcDbLine
 10
1845.8340594905
 20
57.5024144385
 30
0.0
 11
1845.8340594905
 21
164.4170373134
 31
0.0
  0
LINE
  5
1CF
100
AcDbEntity
  8
_Y__________
  6
CENTER
 62
         1
100
AcDbLine
 10
1791.0840594905
 20
112.2524144385
 30
0.0
 11
1900.5840594905
 21
112.2524144385
 31
0.0
  0
ARC
  5
1D0
100
AcDbEntity
  8
_Y__________
  6
CONTINUOUS
 62
         7
100
AcDbCircle
 10
1845.8340594905
 20
112.2524144385
 30
0.0
 40
48.75
100
AcDbArc
 50
196.5052120024
 51
343.4947879976
  0
ARC
  5
1D1
100
AcDbEntity
  8
_Y__________
  6
DASHED
 62
         2
100
AcDbCircle
 10
1845.8340594905
 20
112.2524144385
 30
0.0
 40
45.625
100
AcDbArc
 50
16.3583384794
 51
163.6416615206
  0
ARC
  5
1D2
100
AcDbEntity
  8
_Y__________
  6
CONTINUOUS
 62
         7
100
AcDbCircle
 10
1845.8340594905
 20
112.2524144385
 30
0.0
 40
48.75
100
AcDbArc
 50
16.5052120024
 51
163.4947879976
  0
ARC
  5
1D3
100
AcDbEntity
  8
_Y__________
  6
DASHED
 62
         2
100
AcDbCircle
 10
1845.8340594905
 20
112.2524144385
 30
0.0
 40
45.625
100
AcDbArc
 50
197.6716498685
 51
343.6416615206
  0
LINE
  5
1D4
100
AcDbEntity
  8
_Y__________
  6
CONTINUOUS
 62
         7
100
AcDbLine
 10
1531.3424295346
 20
161.0024144385
 30
0.0
 11
1531.3424295346
 21
126.1024144385
 31
0.0
  0
LINE
  5
1D5
100
AcDbEntity
  8
_Y__________
  6
CONTINUOUS
 62
         7
100
AcDbLine
 10
1533.0036999334
 20
158.125024977
 30
0.0
 11
1533.0036999334
 21
125.0823202736
 31
0.0
  0
LINE
  5
1D6
100
AcDbEntity
  8
_Y__________
  6
CONTINUOUS
 62
         7
100
AcDbLine
 10
1536.7536999334
 20
158.125024977
 30
0.0
 11
1536.7536999334
 21
125.0823202736
 31
0.0
  0
LINE
  5
1D7
100
AcDbEntity
  8
_Y__________
  6
CONTINUOUS
 62
         7
100
AcDbLine
 10
1538.4149703322
 20
161.0024144385
 30
0.0
 11
1538.4149703322
 21
126.1024144385
 31
0.0
  0
LINE
  5
1D8
100
AcDbEntity
  8
_Y__________
  6
CONTINUOUS
 62
         7
100
AcDbLine
 10
1542.7786999334
 20
126.1024144385
 30
0.0
 11
1541.7586057685
 21
125.0823202736
 31
0.0
  0
LINE
  5
1D9
100
AcDbEntity
  8
_Y__________
  6
CONTINUOUS
 62
         7
100
AcDbLine
 10
1536.7536999334
 20
125.0823202736
 30
0.0
 11
1538.4149703322
 21
126.1024144385
 31
0.0
  0
LINE
  5
1DA
100
AcDbEntity
  8
_Y__________
  6
CONTINUOUS
 62
         7
100
AcDbLine
 10
1541.7586057685
 20
125.0823202736
 30
0.0
 11
1527.9987940983
 21
125.0823202736
 31
0.0
  0
LINE
  5
1DB
100
AcDbEntity
  8
_Y__________
  6
CONTINUOUS
 62
         7
100
AcDbLine
 10
1541.7586057685
 20
125.0823202736
 30
0.0
 11
1527.9987940983
 21
125.0823202736
 31
0.0
  0
LINE
  5
1DC
100
AcDbEntity
  8
_Y__________
  6
CONTINUOUS
 62
         7
100
AcDbLine
 10
1531.3424295346
 20
126.1024144385
 30
0.0
 11
1526.9786999334
 21
126.1024144385
 31
0.0
  0
LINE
  5
1DD
100
AcDbEntity
  8
_Y__________
  6
CONTINUOUS
 62
         7
100
AcDbLine
 10
1526.9786999334
 20
126.1024144385
 30
0.0
 11
1527.9987940983
 21
125.0823202736
 31
0.0
  0
LINE
  5
1DE
100
AcDbEntity
  8
_Y__________
  6
CONTINUOUS
 62
         7
100
AcDbLine
 10
1531.3424295346
 20
126.1024144385
 30
0.0
 11
1533.0036999334
 21
125.0823202736
 31
0.0
  0
LINE
  5
1DF
100
AcDbEntity
  8
_Y__________
  6
CONTINUOUS
 62
         7
100
AcDbLine
 10
1542.8786999334
 20
126.1024144385
 30
0.0
 11
1538.4149703322
 21
126.1024144385
 31
0.0
  0
LINE
  5
1E0
100
AcDbEntity
  8
_Y__________
  6
CONTINUOUS
 62
         7
100
AcDbLine
 10
1531.3424295346
 20
98.4024144385
 30
0.0
 11
1531.3424295346
 21
63.5024144385
 31
0.0
  0
LINE
  5
1E1
100
AcDbEntity
  8
_Y__________
  6
CONTINUOUS
 62
         7
100
AcDbLine
 10
1533.0036999334
 20
99.4225086035
 30
0.0
 11
1533.0036999334
 21
66.3798039001
 31
0.0
  0
LINE
  5
1E2
100
AcDbEntity
  8
_Y__________
  6
CONTINUOUS
 62
         7
100
AcDbLine
 10
1536.7536999334
 20
99.4225086035
 30
0.0
 11
1536.7536999334
 21
66.3798039001
 31
0.0
  0
LINE
  5
1E3
100
AcDbEntity
  8
_Y__________
  6
CONTINUOUS
 62
         7
100
AcDbLine
 10
1538.4149703322
 20
98.4024144385
 30
0.0
 11
1538.4149703322
 21
63.5024144385
 31
0.0
  0
LINE
  5
1E4
100
AcDbEntity
  8
_Y__________
  6
CONTINUOUS
 62
         7
100
AcDbLine
 10
1542.7786999334
 20
98.4024144385
 30
0.0
 11
1541.7586057685
 21
99.4225086035
 31
0.0
  0
LINE
  5
1E5
100
AcDbEntity
  8
_Y__________
  6
CONTINUOUS
 62
         7
100
AcDbLine
 10
1536.7536999334
 20
99.4225086035
 30
0.0
 11
1538.4149703322
 21
98.4024144385
 31
0.0
  0
LINE
  5
1E6
100
AcDbEntity
  8
_Y__________
  6
CONTINUOUS
 62
         7
100
AcDbLine
 10
1541.7586057685
 20
99.4225086035
 30
0.0
 11
1527.9987940983
 21
99.4225086035
 31
0.0
  0
LINE
  5
1E7
100
AcDbEntity
  8
_Y__________
  6
CONTINUOUS
 62
         7
100
AcDbLine
 10
1541.7586057685
 20
99.4225086035
 30
0.0
 11
1527.9987940983
 21
99.4225086035
 31
0.0
  0
LINE
  5
1E8
100
AcDbEntity
  8
_Y__________
  6
CONTINUOUS
 62
         7
100
AcDbLine
 10
1531.3424295346
 20
98.4024144385
 30
0.0
 11
1533.0036999334
 21
99.4225086035
 31
0.0
  0
LINE
  5
1E9
100
AcDbEntity
  8
_Y__________
  6
CONTINUOUS
 62
         7
100
AcDbLine
 10
1526.9786999334
 20
98.4024144385
 30
0.0
 11
1527.9987940983
 21
99.4225086035
 31
0.0
  0
LINE
  5
1EA
100
AcDbEntity
  8
_Y__________
  6
CONTINUOUS
 62
         7
100
AcDbLine
 10
1531.3424295346
 20
98.4024144385
 30
0.0
 11
1526.9786999334
 21
98.4024144385
 31
0.0
  0
LINE
  5
1EB
100
AcDbEntity
  8
_Y__________
  6
CONTINUOUS
 62
         7
100
AcDbLine
 10
1542.8786999334
 20
98.4024144385
 30
0.0
 11
1538.4149703322
 21
98.4024144385
 31
0.0
  0
LINE
  5
1EC
100
AcDbEntity
  8
_Y__________
  6
DASHED
 62
         2
100
AcDbLine
 10
1808.6340594905
 20
117.2524144385
 30
0.0
 11
1808.6340594905
 21
107.2524144385
 31
0.0
  0
LINE
  5
1ED
100
AcDbEntity
  8
_Y__________
  6
DASHED
 62
         2
100
AcDbLine
 10
1808.6340594905
 20
117.2524144385
 30
0.0
 11
1808.1340594905
 21
117.7524144385
 31
0.0
  0
LINE
  5
1EE
100
AcDbEntity
  8
_Y__________
  6
DASHED
 62
         2
100
AcDbLine
 10
1808.6340594905
 20
107.2524144385
 30
0.0
 11
1808.1340594905
 21
106.7524144385
 31
0.0
  0
LINE
  5
1EF
100
AcDbEntity
  8
_Y__________
  6
DASHED
 62
         2
100
AcDbLine
 10
1821.8480594905
 20
117.2524144385
 30
0.0
 11
1824.7348108365
 21
112.2524144385
 31
0.0
  0
LINE
  5
1F0
100
AcDbEntity
  8
_Y__________
  6
DASHED
 62
         2
100
AcDbLine
 10
1824.7348108365
 20
112.2524144385
 30
0.0
 11
1821.8480594905
 21
107.2524144385
 31
0.0
  0
LINE
  5
1F1
100
AcDbEntity
  8
_Y__________
  6
DASHED
 62
         2
100
AcDbLine
 10
1821.8480594905
 20
117.2524144385
 30
0.0
 11
1821.8480594905
 21
107.2524144385
 31
0.0
  0
LINE
  5
1F2
100
AcDbEntity
  8
_Y__________
  6
DASHED
 62
         2
100
AcDbLine
 10
1808.6340594905
 20
107.2524144385
 30
0.0
 11
1821.8480594905
 21
107.2524144385
 31
0.0
  0
LINE
  5
1F3
100
AcDbEntity
  8
_Y__________
  6
DASHED
 62
         2
100
AcDbLine
 10
1808.6340594905
 20
117.2524144385
 30
0.0
 11
1821.8480594905
 21
117.2524144385
 31
0.0
  0
CIRCLE
  5
1F4
100
AcDbEntity
  8
_Y__________
  6
CONTINUOUS
 62
         7
100
AcDbCircle
 10
1534.8786999334
 20
112.2562679634
 30
0.0
 40
4.76
  0
LINE
  5
1F5
100
AcDbEntity
  8
_Y__________
  6
CONTINUOUS
 62
         7
100
AcDbLine
 10
1526.9786999334
 20
159.5024144385
 30
0.0
 11
1526.9786999334
 21
158.5024144385
 31
0.0
  0
LINE
  5
1F6
100
AcDbEntity
  8
_Y__________
  6
CONTINUOUS
 62
         7
100
AcDbLine
 10
1528.4786999334
 20
161.0024144385
 30
0.0
 11
1529.4786999334
 21
161.0024144385
 31
0.0
  0
LINE
  5
1F7
100
AcDbEntity
  8
_Y__________
  6
CONTINUOUS
 62
         7
100
AcDbLine
 10
1540.3786999334
 20
161.0024144385
 30
0.0
 11
1541.3786999334
 21
161.0024144385
 31
0.0
  0
LINE
  5
1F8
100
AcDbEntity
  8
_Y__________
  6
CONTINUOUS
 62
         7
100
AcDbLine
 10
1542.8786999334
 20
159.5024144385
 30
0.0
 11
1542.8786999334
 21
158.5024144385
 31
0.0
  0
LINE
  5
1F9
100
AcDbEntity
  8
_Y__________
  6
CONTINUOUS
 62
         7
100
AcDbLine
 10
1528.4786999334
 20
63.5024144385
 30
0.0
 11
1529.4786999334
 21
63.5024144385
 31
0.0
  0
LINE
  5
1FA
100
AcDbEntity
  8
_Y__________
  6
CONTINUOUS
 62
         7
100
AcDbLine
 10
1540.3786999334
 20
63.5024144385
 30
0.0
 11
1541.3786999334
 21
63.5024144385
 31
0.0
  0
ARC
  5
1FB
100
AcDbEntity
  8
_Y__________
  6
CONTINUOUS
 62
         7
100
AcDbCircle
 10
1541.3786999334
 20
159.5024144385
 30
0.0
 40
1.5
100
AcDbArc
 50
0.0
 51
90.0
  0
ARC
  5
1FC
100
AcDbEntity
  8
_Y__________
  6
CONTINUOUS
 62
         7
100
AcDbCircle
 10
1528.4786999334
 20
159.5024144385
 30
0.0
 40
1.5
100
AcDbArc
 50
90.0
 51
180.0
  0
ARC
  5
1FD
100
AcDbEntity
  8
_Y__________
  6
CONTINUOUS
 62
         7
100
AcDbCircle
 10
1541.3786999334
 20
65.0024144385
 30
0.0
 40
1.5
100
AcDbArc
 50
270.0
 51
360.0
  0
ARC
  5
1FE
100
AcDbEntity
  8
_Y__________
  6
CONTINUOUS
 62
         7
100
AcDbCircle
 10
1528.4786999334
 20
65.0024144385
 30
0.0
 40
1.5
100
AcDbArc
 50
180.0
 51
270.0
  0
LINE
  5
1FF
100
AcDbEntity
  8
_Y__________
  6
CONTINUOUS
 62
         7
100
AcDbLine
 10
1542.8786999334
 20
66.0024144385
 30
0.0
 11
1542.8786999334
 21
65.0024144385
 31
0.0
  0
LINE
  5
200
100
AcDbEntity
  8
_Y__________
  6
CONTINUOUS
 62
         7
100
AcDbLine
 10
1526.9786999334
 20
66.0024144385
 30
0.0
 11
1526.9786999334
 21
65.0024144385
 31
0.0
  0
LINE
  5
201
100
AcDbEntity
  8
_Y__________
  6
CONTINUOUS
 62
         7
100
AcDbLine
 10
1526.9786999334
 20
-172.9900166132
 30
0.0
 11
1526.9786999334
 21
-173.9900166132
 31
0.0
  0
LINE
  5
202
100
AcDbEntity
  8
_Y__________
  6
CONTINUOUS
 62
         7
100
AcDbLine
 10
1542.8786999334
 20
-172.9900166132
 30
0.0
 11
1542.8786999334
 21
-173.9900166132
 31
0.0
  0
ARC
  5
203
100
AcDbEntity
  8
_Y__________
  6
CONTINUOUS
 62
         7
100
AcDbCircle
 10
1528.4786999334
 20
-173.9900166132
 30
0.0
 40
1.5
100
AcDbArc
 50
180.0
 51
270.0
  0
ARC
  5
204
100
AcDbEntity
  8
_Y__________
  6
CONTINUOUS
 62
         7
100
AcDbCircle
 10
1541.3786999334
 20
-173.9900166132
 30
0.0
 40
1.5
100
AcDbArc
 50
270.0
 51
360.0
  0
ARC
  5
205
100
AcDbEntity
  8
_Y__________
  6
CONTINUOUS
 62
         7
100
AcDbCircle
 10
1528.4786999334
 20
-79.4900166132
 30
0.0
 40
1.5
100
AcDbArc
 50
90.0
 51
180.0
  0
ARC
  5
206
100
AcDbEntity
  8
_Y__________
  6
CONTINUOUS
 62
         7
100
AcDbCircle
 10
1541.3786999334
 20
-79.4900166132
 30
0.0
 40
1.5
100
AcDbArc
 50
0.0
 51
90.0
  0
LINE
  5
207
100
AcDbEntity
  8
_Y__________
  6
CONTINUOUS
 62
         7
100
AcDbLine
 10
1540.3786999334
 20
-175.4900166132
 30
0.0
 11
1541.3786999334
 21
-175.4900166132
 31
0.0
  0
LINE
  5
208
100
AcDbEntity
  8
_Y__________
  6
CONTINUOUS
 62
         7
100
AcDbLine
 10
1528.4786999334
 20
-175.4900166132
 30
0.0
 11
1529.4786999334
 21
-175.4900166132
 31
0.0
  0
LINE
  5
209
100
AcDbEntity
  8
_Y__________
  6
CONTINUOUS
 62
         7
100
AcDbLine
 10
1542.8786999334
 20
-79.4900166132
 30
0.0
 11
1542.8786999334
 21
-80.4900166132
 31
0.0
  0
LINE
  5
20A
100
AcDbEntity
  8
_Y__________
  6
CONTINUOUS
 62
         7
100
AcDbLine
 10
1540.3786999334
 20
-77.9900166132
 30
0.0
 11
1541.3786999334
 21
-77.9900166132
 31
0.0
  0
LINE
  5
20B
100
AcDbEntity
  8
_Y__________
  6
CONTINUOUS
 62
         7
100
AcDbLine
 10
1528.4786999334
 20
-77.9900166132
 30
0.0
 11
1529.4786999334
 21
-77.9900166132
 31
0.0
  0
LINE
  5
20C
100
AcDbEntity
  8
_Y__________
  6
CONTINUOUS
 62
         7
100
AcDbLine
 10
1526.9786999334
 20
-79.4900166132
 30
0.0
 11
1526.9786999334
 21
-80.4900166132
 31
0.0
  0
LINE
  5
20D
100
AcDbEntity
  8
_Y__________
  6
CONTINUOUS
 62
         7
100
AcDbLine
 10
1422.1786999334
 20
130.1987502026
 30
0.0
 11
1422.1786999334
 21
94.3060786745
 31
0.0
  0
ARC
  5
20E
100
AcDbEntity
  8
_Y__________
  6
CONTINUOUS
 62
         7
100
AcDbCircle
 10
1424.6786999334
 20
130.1987502026
 30
0.0
 40
2.5
100
AcDbArc
 50
98.297222
 51
180.0
  0
ARC
  5
20F
100
AcDbEntity
  8
_Y__________
  6
CONTINUOUS
 62
         7
100
AcDbCircle
 10
1424.6786999334
 20
94.3060786745
 30
0.0
 40
2.5
100
AcDbArc
 50
180.0
 51
261.702778
  0
ARC
  5
210
100
AcDbEntity
  8
_Y__________
  6
CONTINUOUS
 62
         7
100
AcDbCircle
 10
1424.6786999334
 20
-108.7936808492
 30
0.0
 40
2.5
100
AcDbArc
 50
98.297222
 51
180.0
  0
LINE
  5
211
100
AcDbEntity
  8
_Y__________
  6
CONTINUOUS
 62
         7
100
AcDbLine
 10
1422.1786999334
 20
-108.7936808492
 30
0.0
 11
1422.1786999334
 21
-144.6863523772
 31
0.0
  0
ARC
  5
212
100
AcDbEntity
  8
_Y__________
  6
CONTINUOUS
 62
         7
100
AcDbCircle
 10
1424.6786999334
 20
-144.6863523772
 30
0.0
 40
2.5
100
AcDbArc
 50
180.0
 51
261.702778
  0
LINE
  5
213
100
AcDbEntity
  8
L1_75
  6
CONTINUOUS
 62
         7
100
AcDbLine
 10
1422.1786999334
 20
130.1987502026
 30
0.0
 11
1422.1786999334
 21
94.3060786745
 31
0.0
  0
LINE
  5
214
100
AcDbEntity
  8
L1_75
  6
CONTINUOUS
 62
         7
100
AcDbLine
 10
1526.9786999334
 20
159.5024144385
 30
0.0
 11
1526.9786999334
 21
65.0024144385
 31
0.0
  0
LINE
  5
215
100
AcDbEntity
  8
L1_75
  6
CENTER
 62
         1
100
AcDbLine
 10
1523.7786999334
 20
151.9774144385
 30
0.0
 11
1523.7786999334
 21
73.981360093
 31
0.0
  0
DIMENSION
  5
218
100
AcDbEntity
  8
L1_75
  6
CONTINUOUS
 62
         4
100
AcDbDimension
  2
*D2
 10
1643.6358142477
 20
125.2524144385
 30
0.0
 11
1639.5758142477
 21
101.9948495066
 31
0.0
  3
DIMSTYLE1
100
AcDbAlignedDimension
 13
1598.2786999334
 23
125.2524144385
 33
0.0
 14
1598.2786999334
 24
99.2524144385
 34
0.0
 50
90.0
100
AcDbRotatedDimension
  0
POLYLINE
  5
225
100
AcDbEntity
  8
L1_75
  6
CONTINUOUS
 62
         7
100
AcDb2dPolyline
 66
         1
 10
0.0
 20
0.0
 30
0.0
 70
         2
  0
VERTEX
  5
227
100
AcDbEntity
  8
L1_75
  6
CONTINUOUS
 62
         7
100
AcDbVertex
100
AcDb2dVertex
 10
1583.2786999334
 20
105.7524144385
 30
0.0
 70
         1
  0
VERTEX
  5
229
100
AcDbEntity
  8
L1_75
  6
CONTINUOUS
 62
         7
100
AcDbVertex
100
AcDb2dVertex
 10
1583.2384014417
 20
106.1612814838
 30
0.0
 70
         1
  0
VERTEX
  5
22B
100
AcDbEntity
  8
L1_75
  6
CONTINUOUS
 62
         7
100
AcDbVertex
100
AcDb2dVertex
 10
1583.1849770062
 20
106.3725817902
 30
0.0
 70
         1
  0
VERTEX
  5
22D
100
AcDbEntity
  8
L1_75
  6
CONTINUOUS
 62
         7
100
AcDbVertex
100
AcDb2dVertex
 10
1583.1073020917
 20
106.5844144429
 30
0.0
 70
         1
  0
VERTEX
  5
22F
100
AcDbEntity
  8
L1_75
  6
CONTINUOUS
 62
         7
100
AcDbVertex
100
AcDb2dVertex
 10
1583.0046436521
 20
106.7932307623
 30
0.0
 70
         1
  0
VERTEX
  5
231
100
AcDbEntity
  8
L1_75
  6
CONTINUOUS
 62
         7
100
AcDbVertex
100
AcDb2dVertex
 10
1582.8770927151
 20
106.9952501664
 30
0.0
 70
         1
  0
VERTEX
  5
233
100
AcDbEntity
  8
L1_75
  6
CONTINUOUS
 62
         7
100
AcDbVertex
100
AcDb2dVertex
 10
1582.7256465935
 20
107.1866629633
 30
0.0
 70
         1
  0
VERTEX
  5
235
100
AcDbEntity
  8
L1_75
  6
CONTINUOUS
 62
         7
100
AcDbVertex
100
AcDb2dVertex
 10
1582.5522180462
 20
107.3638580461
 30
0.0
 70
         1
  0
VERTEX
  5
237
100
AcDbEntity
  8
L1_75
  6
CONTINUOUS
 62
         7
100
AcDbVertex
100
AcDb2dVertex
 10
1582.3595624337
 20
107.523649358
 30
0.0
 70
         1
  0
VERTEX
  5
239
100
AcDbEntity
  8
L1_75
  6
CONTINUOUS
 62
         7
100
AcDbVertex
100
AcDb2dVertex
 10
1582.1511267552
 20
107.6634726683
 30
0.0
 70
         1
  0
VERTEX
  5
23B
100
AcDbEntity
  8
L1_75
  6
CONTINUOUS
 62
         7
100
AcDbVertex
100
AcDb2dVertex
 10
1581.9308374992
 20
107.7815277066
 30
0.0
 70
         1
  0
VERTEX
  5
23D
100
AcDbEntity
  8
L1_75
  6
CONTINUOUS
 62
         7
100
AcDbVertex
100
AcDb2dVertex
 10
1581.702854146
 20
107.8768494856
 30
0.0
 70
         1
  0
VERTEX
  5
23F
100
AcDbEntity
  8
L1_75
  6
CONTINUOUS
 62
         7
100
AcDbVertex
100
AcDb2dVertex
 10
1581.4713193894
 20
107.9493044864
 30
0.0
 70
         1
  0
VERTEX
  5
241
100
AcDbEntity
  8
L1_75
  6
CONTINUOUS
 62
         7
100
AcDbVertex
100
AcDb2dVertex
 10
1581.2401349826
 20
107.999519224
 30
0.0
 70
         1
  0
VERTEX
  5
243
100
AcDbEntity
  8
L1_75
  6
CONTINUOUS
 62
         7
100
AcDbVertex
100
AcDb2dVertex
 10
1580.9361990239
 20
108.0342607409
 30
0.0
 70
         1
  0
VERTEX
  5
245
100
AcDbEntity
  8
L1_75
  6
CONTINUOUS
 62
         7
100
AcDbVertex
100
AcDb2dVertex
 10
1580.6460034872
 20
108.0355795038
 30
0.0
 70
         1
  0
VERTEX
  5
247
100
AcDbEntity
  8
L1_75
  6
CONTINUOUS
 62
         7
100
AcDbVertex
100
AcDb2dVertex
 10
1580.3744968442
 20
108.0087206112
 30
0.0
 70
         1
  0
VERTEX
  5
249
100
AcDbEntity
  8
L1_75
  6
CONTINUOUS
 62
         7
100
AcDbVertex
100
AcDb2dVertex
 10
1580.1247517399
 20
107.9591950623
 30
0.0
 70
         1
  0
VERTEX
  5
24B
100
AcDbEntity
  8
L1_75
  6
CONTINUOUS
 62
         7
100
AcDbVertex
100
AcDb2dVertex
 10
1579.8982174329
 20
107.8923076975
 30
0.0
 70
         1
  0
VERTEX
  5
24D
100
AcDbEntity
  8
L1_75
  6
CONTINUOUS
 62
         7
100
AcDbVertex
100
AcDb2dVertex
 10
1579.6299780293
 20
107.7831468127
 30
0.0
 70
         1
  0
VERTEX
  5
24F
100
AcDbEntity
  8
L1_75
  6
CONTINUOUS
 62
         7
100
AcDbVertex
100
AcDb2dVertex
 10
1579.401930999
 20
107.6608585824
 30
0.0
 70
         1
  0
VERTEX
  5
251
100
AcDbEntity
  8
L1_75
  6
CONTINUOUS
 62
         7
100
AcDbVertex
100
AcDb2dVertex
 10
1579.2102710202
 20
107.5328706968
 30
0.0
 70
         1
  0
VERTEX
  5
253
100
AcDbEntity
  8
L1_75
  6
CONTINUOUS
 62
         7
100
AcDbVertex
100
AcDb2dVertex
 10
1579.0010196183
 20
107.3600175199
 30
0.0
 70
         1
  0
VERTEX
  5
255
100
AcDbEntity
  8
L1_75
  6
CONTINUOUS
 62
         7
100
AcDbVertex
100
AcDb2dVertex
 10
1578.8387857228
 20
107.1946111744
 30
0.0
 70
         1
  0
VERTEX
  5
257
100
AcDbEntity
  8
L1_75
  6
CONTINUOUS
 62
         7
100
AcDbVertex
100
AcDb2dVertex
 10
1578.67607913
 20
106.9892589431
 30
0.0
 70
         1
  0
VERTEX
  5
259
100
AcDbEntity
  8
L1_75
  6
CONTINUOUS
 62
         7
100
AcDbVertex
100
AcDb2dVertex
 10
1578.5618327879
 20
106.8093095713
 30
0.0
 70
         1
  0
VERTEX
  5
25B
100
AcDbEntity
  8
L1_75
  6
CONTINUOUS
 62
         7
100
AcDbVertex
100
AcDb2dVertex
 10
1578.4582231762
 20
106.603190538
 30
0.0
 70
         1
  0
VERTEX
  5
25D
100
AcDbEntity
  8
L1_75
  6
CONTINUOUS
 62
         7
100
AcDbVertex
100
AcDb2dVertex
 10
1578.3758159862
 20
106.3834898512
 30
0.0
 70
         1
  0
VERTEX
  5
25F
100
AcDbEntity
  8
L1_75
  6
CONTINUOUS
 62
         7
100
AcDbVertex
100
AcDb2dVertex
 10
1578.3207623065
 20
106.1700595064
 30
0.0
 70
         1
  0
VERTEX
  5
261
100
AcDbEntity
  8
L1_75
  6
CONTINUOUS
 62
         7
100
AcDbVertex
100
AcDb2dVertex
 10
1578.2918024374
 20
105.986191725
 30
0.0
 70
         1
  0
VERTEX
  5
263
100
AcDbEntity
  8
L1_75
  6
CONTINUOUS
 62
         7
100
AcDbVertex
100
AcDb2dVertex
 10
1578.2786999334
 20
105.7524144396
 30
0.0
 70
         1
  0
SEQEND
  5
265
100
AcDbEntity
  8
L1_75
  6
CONTINUOUS
 62
         7
  0
POLYLINE
  5
267
100
AcDbEntity
  8
L1_75
  6
CONTINUOUS
 62
         7
100
AcDb2dPolyline
 66
         1
 10
0.0
 20
0.0
 30
0.0
 70
         2
  0
VERTEX
  5
269
100
AcDbEntity
  8
L1_75
  6
CONTINUOUS
 62
         7
100
AcDbVertex
100
AcDb2dVertex
 10
1578.2786999334
 20
105.7524144385
 30
0.0
 70
         1
  0
VERTEX
  5
26B
100
AcDbEntity
  8
L1_75
  6
CONTINUOUS
 62
         7
100
AcDbVertex
100
AcDb2dVertex
 10
1578.3189984251
 20
105.3869395244
 30
0.0
 70
         1
  0
VERTEX
  5
26D
100
AcDbEntity
  8
L1_75
  6
CONTINUOUS
 62
         7
100
AcDbVertex
100
AcDb2dVertex
 10
1578.3724228606
 20
105.1980640398
 30
0.0
 70
         1
  0
VERTEX
  5
26F
100
AcDbEntity
  8
L1_75
  6
CONTINUOUS
 62
         7
100
AcDbVertex
100
AcDb2dVertex
 10
1578.4500977752
 20
105.0087127055
 30
0.0
 70
         1
  0
VERTEX
  5
271
100
AcDbEntity
  8
L1_75
  6
CONTINUOUS
 62
         7
100
AcDbVertex
100
AcDb2dVertex
 10
1578.5527562148
 20
104.8220575879
 30
0.0
 70
         1
  0
VERTEX
  5
273
100
AcDbEntity
  8
L1_75
  6
CONTINUOUS
 62
         7
100
AcDbVertex
100
AcDb2dVertex
 10
1578.6803071519
 20
104.6414780445
 30
0.0
 70
         1
  0
VERTEX
  5
275
100
AcDbEntity
  8
L1_75
  6
CONTINUOUS
 62
         7
100
AcDbVertex
100
AcDb2dVertex
 10
1578.8317532736
 20
104.4703794531
 30
0.0
 70
         1
  0
VERTEX
  5
277
100
AcDbEntity
  8
L1_75
  6
CONTINUOUS
 62
         7
100
AcDbVertex
100
AcDb2dVertex
 10
1579.005181821
 20
104.3119896821
 30
0.0
 70
         1
  0
VERTEX
  5
279
100
AcDbEntity
  8
L1_75
  6
CONTINUOUS
 62
         7
100
AcDbVertex
100
AcDb2dVertex
 10
1579.1978374336
 20
104.1691566593
 30
0.0
 70
         1
  0
VERTEX
  5
27B
100
AcDbEntity
  8
L1_75
  6
CONTINUOUS
 62
         7
100
AcDbVertex
100
AcDb2dVertex
 10
1579.4062731122
 20
104.0441724795
 30
0.0
 70
         1
  0
VERTEX
  5
27D
100
AcDbEntity
  8
L1_75
  6
CONTINUOUS
 62
         7
100
AcDbVertex
100
AcDb2dVertex
 10
1579.6265623683
 20
103.9386463544
 30
0.0
 70
         1
  0
VERTEX
  5
27F
100
AcDbEntity
  8
L1_75
  6
CONTINUOUS
 62
         7
100
AcDbVertex
100
AcDb2dVertex
 10
1579.8545457216
 20
103.8534408594
 30
0.0
 70
         1
  0
VERTEX
  5
281
100
AcDbEntity
  8
L1_75
  6
CONTINUOUS
 62
         7
100
AcDbVertex
100
AcDb2dVertex
 10
1580.0860804783
 20
103.7886753434
 30
0.0
 70
         1
  0
VERTEX
  5
283
100
AcDbEntity
  8
L1_75
  6
CONTINUOUS
 62
         7
100
AcDbVertex
100
AcDb2dVertex
 10
1580.395874898
 20
103.7327792713
 30
0.0
 70
         1
  0
VERTEX
  5
285
100
AcDbEntity
  8
L1_75
  6
CONTINUOUS
 62
         7
100
AcDbVertex
100
AcDb2dVertex
 10
1580.696879598
 20
103.7097703673
 30
0.0
 70
         1
  0
VERTEX
  5
287
100
AcDbEntity
  8
L1_75
  6
CONTINUOUS
 62
         7
100
AcDbVertex
100
AcDb2dVertex
 10
1580.9826933859
 20
103.7154906235
 30
0.0
 70
         1
  0
VERTEX
  5
289
100
AcDbEntity
  8
L1_75
  6
CONTINUOUS
 62
         7
100
AcDbVertex
100
AcDb2dVertex
 10
1581.2488624612
 20
103.745142806
 30
0.0
 70
         1
  0
VERTEX
  5
28B
100
AcDbEntity
  8
L1_75
  6
CONTINUOUS
 62
         7
100
AcDbVertex
100
AcDb2dVertex
 10
1581.4927580949
 20
103.7938136349
 30
0.0
 70
         1
  0
VERTEX
  5
28D
100
AcDbEntity
  8
L1_75
  6
CONTINUOUS
 62
         7
100
AcDbVertex
100
AcDb2dVertex
 10
1581.7842768725
 20
103.8812931546
 30
0.0
 70
         1
  0
VERTEX
  5
28F
100
AcDbEntity
  8
L1_75
  6
CONTINUOUS
 62
         7
100
AcDbVertex
100
AcDb2dVertex
 10
1582.0341567862
 20
103.9850676538
 30
0.0
 70
         1
  0
VERTEX
  5
291
100
AcDbEntity
  8
L1_75
  6
CONTINUOUS
 62
         7
100
AcDbVertex
100
AcDb2dVertex
 10
1582.2454019943
 20
104.0973573471
 30
0.0
 70
         1
  0
VERTEX
  5
293
100
AcDbEntity
  8
L1_75
  6
CONTINUOUS
 62
         7
100
AcDbVertex
100
AcDb2dVertex
 10
1582.4222396514
 20
104.2124000669
 30
0.0
 70
         1
  0
VERTEX
  5
295
100
AcDbEntity
  8
L1_75
  6
CONTINUOUS
 62
         7
100
AcDbVertex
100
AcDb2dVertex
 10
1582.6147368986
 20
104.3653269784
 30
0.0
 70
         1
  0
VERTEX
  5
297
100
AcDbEntity
  8
L1_75
  6
CONTINUOUS
 62
         7
100
AcDbVertex
100
AcDb2dVertex
 10
1582.7636953527
 20
104.5099843661
 30
0.0
 70
         1
  0
VERTEX
  5
299
100
AcDbEntity
  8
L1_75
  6
CONTINUOUS
 62
         7
100
AcDbVertex
100
AcDb2dVertex
 10
1582.9129722211
 20
104.688136364
 30
0.0
 70
         1
  0
VERTEX
  5
29B
100
AcDbEntity
  8
L1_75
  6
CONTINUOUS
 62
         7
100
AcDbVertex
100
AcDb2dVertex
 10
1583.0178134721
 20
104.8434231216
 30
0.0
 70
         1
  0
VERTEX
  5
29D
100
AcDbEntity
  8
L1_75
  6
CONTINUOUS
 62
         7
100
AcDbVertex
100
AcDb2dVertex
 10
1583.1130007609
 20
105.0207492159
 30
0.0
 70
         1
  0
VERTEX
  5
29F
100
AcDbEntity
  8
L1_75
  6
CONTINUOUS
 62
         7
100
AcDbVertex
100
AcDb2dVertex
 10
1583.1888662856
 20
105.2094729522
 30
0.0
 70
         1
  0
VERTEX
  5
2A1
100
AcDbEntity
  8
L1_75
  6
CONTINUOUS
 62
         7
100
AcDbVertex
100
AcDb2dVertex
 10
1583.2396960295
 20
105.3928109566
 30
0.0
 70
         1
  0
VERTEX
  5
2A3
100
AcDbEntity
  8
L1_75
  6
CONTINUOUS
 62
         7
100
AcDbVertex
100
AcDb2dVertex
 10
1583.2718828796
 20
105.6015897258
 30
0.0
 70
         1
  0
VERTEX
  5
2A5
100
AcDbEntity
  8
L1_75
  6
CONTINUOUS
 62
         7
100
AcDbVertex
100
AcDb2dVertex
 10
1583.2786999334
 20
105.7524144385
 30
0.0
 70
         1
  0
SEQEND
  5
2A7
100
AcDbEntity
  8
L1_75
  6
CONTINUOUS
 62
         7
  0
POLYLINE
  5
2A9
100
AcDbEntity
  8
L1_75
  6
CONTINUOUS
 62
         7
100
AcDb2dPolyline
 66
         1
 10
0.0
 20
0.0
 30
0.0
 70
         2
  0
VERTEX
  5
2AB
100
AcDbEntity
  8
L1_75
  6
CONTINUOUS
 62
         7
100
AcDbVertex
100
AcDb2dVertex
 10
1578.2786999334
 20
118.7524144375
 30
0.0
 70
         1
  0
VERTEX
  5
2AD
100
AcDbEntity
  8
L1_75
  6
CONTINUOUS
 62
         7
100
AcDbVertex
100
AcDb2dVertex
 10
1578.3189984253
 20
118.3435473921
 30
0.0
 70
         1
  0
VERTEX
  5
2AF
100
AcDbEntity
  8
L1_75
  6
CONTINUOUS
 62
         7
100
AcDbVertex
100
AcDb2dVertex
 10
1578.3724228609
 20
118.1322470856
 30
0.0
 70
         1
  0
VERTEX
  5
2B1
100
AcDbEntity
  8
L1_75
  6
CONTINUOUS
 62
         7
100
AcDbVertex
100
AcDb2dVertex
 10
1578.4500977757
 20
117.9204144329
 30
0.0
 70
         1
  0
VERTEX
  5
2B3
100
AcDbEntity
  8
L1_75
  6
CONTINUOUS
 62
         7
100
AcDbVertex
100
AcDb2dVertex
 10
1578.5527562154
 20
117.7115981135
 30
0.0
 70
         1
  0
VERTEX
  5
2B5
100
AcDbEntity
  8
L1_75
  6
CONTINUOUS
 62
         7
100
AcDbVertex
100
AcDb2dVertex
 10
1578.6803071527
 20
117.5095787094
 30
0.0
 70
         1
  0
VERTEX
  5
2B7
100
AcDbEntity
  8
L1_75
  6
CONTINUOUS
 62
         7
100
AcDbVertex
100
AcDb2dVertex
 10
1578.8317532744
 20
117.3181659125
 30
0.0
 70
         1
  0
VERTEX
  5
2B9
100
AcDbEntity
  8
L1_75
  6
CONTINUOUS
 62
         7
100
AcDbVertex
100
AcDb2dVertex
 10
1579.005181822
 20
117.1409708297
 30
0.0
 70
         1
  0
VERTEX
  5
2BB
100
AcDbEntity
  8
L1_75
  6
CONTINUOUS
 62
         7
100
AcDbVertex
100
AcDb2dVertex
 10
1579.1978374346
 20
116.981179518
 30
0.0
 70
         1
  0
VERTEX
  5
2BD
100
AcDbEntity
  8
L1_75
  6
CONTINUOUS
 62
         7
100
AcDbVertex
100
AcDb2dVertex
 10
1579.4062731133
 20
116.8413562078
 30
0.0
 70
         1
  0
VERTEX
  5
2BF
100
AcDbEntity
  8
L1_75
  6
CONTINUOUS
 62
         7
100
AcDbVertex
100
AcDb2dVertex
 10
1579.6265623695
 20
116.7233011696
 30
0.0
 70
         1
  0
VERTEX
  5
2C1
100
AcDbEntity
  8
L1_75
  6
CONTINUOUS
 62
         7
100
AcDbVertex
100
AcDb2dVertex
 10
1579.8545457228
 20
116.6279793908
 30
0.0
 70
         1
  0
VERTEX
  5
2C3
100
AcDbEntity
  8
L1_75
  6
CONTINUOUS
 62
         7
100
AcDbVertex
100
AcDb2dVertex
 10
1580.0860804795
 20
116.5555243901
 30
0.0
 70
         1
  0
VERTEX
  5
2C5
100
AcDbEntity
  8
L1_75
  6
CONTINUOUS
 62
         7
100
AcDbVertex
100
AcDb2dVertex
 10
1580.3172648864
 20
116.5053096527
 30
0.0
 70
         1
  0
VERTEX
  5
2C7
100
AcDbEntity
  8
L1_75
  6
CONTINUOUS
 62
         7
100
AcDbVertex
100
AcDb2dVertex
 10
1580.6212008452
 20
116.4705681361
 30
0.0
 70
         1
  0
VERTEX
  5
2C9
100
AcDbEntity
  8
L1_75
  6
CONTINUOUS
 62
         7
100
AcDbVertex
100
AcDb2dVertex
 10
1580.9113963819
 20
116.4692493734
 30
0.0
 70
         1
  0
VERTEX
  5
2CB
100
AcDbEntity
  8
L1_75
  6
CONTINUOUS
 62
         7
100
AcDbVertex
100
AcDb2dVertex
 10
1581.1829030248
 20
116.4961082663
 30
0.0
 70
         1
  0
VERTEX
  5
2CD
100
AcDbEntity
  8
L1_75
  6
CONTINUOUS
 62
         7
100
AcDbVertex
100
AcDb2dVertex
 10
1581.4326481291
 20
116.5456338154
 30
0.0
 70
         1
  0
VERTEX
  5
2CF
100
AcDbEntity
  8
L1_75
  6
CONTINUOUS
 62
         7
100
AcDbVertex
100
AcDb2dVertex
 10
1581.659182436
 20
116.6125211803
 30
0.0
 70
         1
  0
VERTEX
  5
2D1
100
AcDbEntity
  8
L1_75
  6
CONTINUOUS
 62
         7
100
AcDbVertex
100
AcDb2dVertex
 10
1581.9274218394
 20
116.7216820653
 30
0.0
 70
         1
  0
VERTEX
  5
2D3
100
AcDbEntity
  8
L1_75
  6
CONTINUOUS
 62
         7
100
AcDbVertex
100
AcDb2dVertex
 10
1582.1554688695
 20
116.8439702957
 30
0.0
 70
         1
  0
VERTEX
  5
2D5
100
AcDbEntity
  8
L1_75
  6
CONTINUOUS
 62
         7
100
AcDbVertex
100
AcDb2dVertex
 10
1582.3471288481
 20
116.9719581815
 30
0.0
 70
         1
  0
VERTEX
  5
2D7
100
AcDbEntity
  8
L1_75
  6
CONTINUOUS
 62
         7
100
AcDbVertex
100
AcDb2dVertex
 10
1582.5563802499
 20
117.1448113585
 30
0.0
 70
         1
  0
VERTEX
  5
2D9
100
AcDbEntity
  8
L1_75
  6
CONTINUOUS
 62
         7
100
AcDbVertex
100
AcDb2dVertex
 10
1582.7186141452
 20
117.3102177041
 30
0.0
 70
         1
  0
VERTEX
  5
2DB
100
AcDbEntity
  8
L1_75
  6
CONTINUOUS
 62
         7
100
AcDbVertex
100
AcDb2dVertex
 10
1582.8813207378
 20
117.5155699353
 30
0.0
 70
         1
  0
VERTEX
  5
2DD
100
AcDbEntity
  8
L1_75
  6
CONTINUOUS
 62
         7
100
AcDbVertex
100
AcDb2dVertex
 10
1582.9955670796
 20
117.6955193072
 30
0.0
 70
         1
  0
VERTEX
  5
2DF
100
AcDbEntity
  8
L1_75
  6
CONTINUOUS
 62
         7
100
AcDbVertex
100
AcDb2dVertex
 10
1583.0991766911
 20
117.9016383404
 30
0.0
 70
         1
  0
VERTEX
  5
2E1
100
AcDbEntity
  8
L1_75
  6
CONTINUOUS
 62
         7
100
AcDbVertex
100
AcDb2dVertex
 10
1583.181583881
 20
118.1213390271
 30
0.0
 70
         1
  0
VERTEX
  5
2E3
100
AcDbEntity
  8
L1_75
  6
CONTINUOUS
 62
         7
100
AcDbVertex
100
AcDb2dVertex
 10
1583.2366375606
 20
118.334769372
 30
0.0
 70
         1
  0
VERTEX
  5
2E5
100
AcDbEntity
  8
L1_75
  6
CONTINUOUS
 62
         7
100
AcDbVertex
100
AcDb2dVertex
 10
1583.2655974295
 20
118.5186371533
 30
0.0
 70
         1
  0
VERTEX
  5
2E7
100
AcDbEntity
  8
L1_75
  6
CONTINUOUS
 62
         7
100
AcDbVertex
100
AcDb2dVertex
 10
1583.2786999334
 20
118.7524144385
 30
0.0
 70
         1
  0
SEQEND
  5
2E9
100
AcDbEntity
  8
L1_75
  6
CONTINUOUS
 62
         7
  0
POLYLINE
  5
2EB
100
AcDbEntity
  8
L1_75
  6
CONTINUOUS
 62
         7
100
AcDb2dPolyline
 66
         1
 10
0.0
 20
0.0
 30
0.0
 70
         2
  0
VERTEX
  5
2ED
100
AcDbEntity
  8
L1_75
  6
CONTINUOUS
 62
         7
100
AcDbVertex
100
AcDb2dVertex
 10
1583.2786999334
 20
118.7524144385
 30
0.0
 70
         1
  0
VERTEX
  5
2EF
100
AcDbEntity
  8
L1_75
  6
CONTINUOUS
 62
         7
100
AcDbVertex
100
AcDb2dVertex
 10
1583.2384014417
 20
119.1178893527
 30
0.0
 70
         1
  0
VERTEX
  5
2F1
100
AcDbEntity
  8
L1_75
  6
CONTINUOUS
 62
         7
100
AcDbVertex
100
AcDb2dVertex
 10
1583.1849770062
 20
119.3067648373
 30
0.0
 70
         1
  0
VERTEX
  5
2F3
100
AcDbEntity
  8
L1_75
  6
CONTINUOUS
 62
         7
100
AcDbVertex
100
AcDb2dVertex
 10
1583.1073020916
 20
119.4961161716
 30
0.0
 70
         1
  0
VERTEX
  5
2F5
100
AcDbEntity
  8
L1_75
  6
CONTINUOUS
 62
         7
100
AcDbVertex
100
AcDb2dVertex
 10
1583.004643652
 20
119.6827712892
 30
0.0
 70
         1
  0
VERTEX
  5
2F7
100
AcDbEntity
  8
L1_75
  6
CONTINUOUS
 62
         7
100
AcDbVertex
100
AcDb2dVertex
 10
1582.8770927148
 20
119.8633508326
 30
0.0
 70
         1
  0
VERTEX
  5
2F9
100
AcDbEntity
  8
L1_75
  6
CONTINUOUS
 62
         7
100
AcDbVertex
100
AcDb2dVertex
 10
1582.7256465932
 20
120.034449424
 30
0.0
 70
         1
  0
VERTEX
  5
2FB
100
AcDbEntity
  8
L1_75
  6
CONTINUOUS
 62
         7
100
AcDbVertex
100
AcDb2dVertex
 10
1582.5522180458
 20
120.192839195
 30
0.0
 70
         1
  0
VERTEX
  5
2FD
100
AcDbEntity
  8
L1_75
  6
CONTINUOUS
 62
         7
100
AcDbVertex
100
AcDb2dVertex
 10
1582.3595624332
 20
120.3356722178
 30
0.0
 70
         1
  0
VERTEX
  5
2FF
100
AcDbEntity
  8
L1_75
  6
CONTINUOUS
 62
         7
100
AcDbVertex
100
AcDb2dVertex
 10
1582.1511267546
 20
120.4606563976
 30
0.0
 70
         1
  0
VERTEX
  5
301
100
AcDbEntity
  8
L1_75
  6
CONTINUOUS
 62
         7
100
AcDbVertex
100
AcDb2dVertex
 10
1581.9308374985
 20
120.5661825227
 30
0.0
 70
         1
  0
VERTEX
  5
303
100
AcDbEntity
  8
L1_75
  6
CONTINUOUS
 62
         7
100
AcDbVertex
100
AcDb2dVertex
 10
1581.7028541452
 20
120.6513880177
 30
0.0
 70
         1
  0
VERTEX
  5
305
100
AcDbEntity
  8
L1_75
  6
CONTINUOUS
 62
         7
100
AcDbVertex
100
AcDb2dVertex
 10
1581.4713193885
 20
120.7161535337
 30
0.0
 70
         1
  0
VERTEX
  5
307
100
AcDbEntity
  8
L1_75
  6
CONTINUOUS
 62
         7
100
AcDbVertex
100
AcDb2dVertex
 10
1581.1615249688
 20
120.7720496058
 30
0.0
 70
         1
  0
VERTEX
  5
309
100
AcDbEntity
  8
L1_75
  6
CONTINUOUS
 62
         7
100
AcDbVertex
100
AcDb2dVertex
 10
1580.8605202688
 20
120.7950585098
 30
0.0
 70
         1
  0
VERTEX
  5
30B
100
AcDbEntity
  8
L1_75
  6
CONTINUOUS
 62
         7
100
AcDbVertex
100
AcDb2dVertex
 10
1580.5747064808
 20
120.7893382536
 30
0.0
 70
         1
  0
VERTEX
  5
30D
100
AcDbEntity
  8
L1_75
  6
CONTINUOUS
 62
         7
100
AcDbVertex
100
AcDb2dVertex
 10
1580.3085374056
 20
120.7596860711
 30
0.0
 70
         1
  0
VERTEX
  5
30F
100
AcDbEntity
  8
L1_75
  6
CONTINUOUS
 62
         7
100
AcDbVertex
100
AcDb2dVertex
 10
1580.0646417719
 20
120.7110152422
 30
0.0
 70
         1
  0
VERTEX
  5
311
100
AcDbEntity
  8
L1_75
  6
CONTINUOUS
 62
         7
100
AcDbVertex
100
AcDb2dVertex
 10
1579.7731229943
 20
120.6235357225
 30
0.0
 70
         1
  0
VERTEX
  5
313
100
AcDbEntity
  8
L1_75
  6
CONTINUOUS
 62
         7
100
AcDbVertex
100
AcDb2dVertex
 10
1579.5232430806
 20
120.5197612233
 30
0.0
 70
         1
  0
VERTEX
  5
315
100
AcDbEntity
  8
L1_75
  6
CONTINUOUS
 62
         7
100
AcDbVertex
100
AcDb2dVertex
 10
1579.3119978724
 20
120.40747153
 30
0.0
 70
         1
  0
VERTEX
  5
317
100
AcDbEntity
  8
L1_75
  6
CONTINUOUS
 62
         7
100
AcDbVertex
100
AcDb2dVertex
 10
1579.1351602154
 20
120.2924288102
 30
0.0
 70
         1
  0
VERTEX
  5
319
100
AcDbEntity
  8
L1_75
  6
CONTINUOUS
 62
         7
100
AcDbVertex
100
AcDb2dVertex
 10
1578.9426629682
 20
120.1395018987
 30
0.0
 70
         1
  0
VERTEX
  5
31B
100
AcDbEntity
  8
L1_75
  6
CONTINUOUS
 62
         7
100
AcDbVertex
100
AcDb2dVertex
 10
1578.793704514
 20
119.994844511
 30
0.0
 70
         1
  0
VERTEX
  5
31D
100
AcDbEntity
  8
L1_75
  6
CONTINUOUS
 62
         7
100
AcDbVertex
100
AcDb2dVertex
 10
1578.6444276456
 20
119.8166925131
 30
0.0
 70
         1
  0
VERTEX
  5
31F
100
AcDbEntity
  8
L1_75
  6
CONTINUOUS
 62
         7
100
AcDbVertex
100
AcDb2dVertex
 10
1578.5395863947
 20
119.6614057555
 30
0.0
 70
         1
  0
VERTEX
  5
321
100
AcDbEntity
  8
L1_75
  6
CONTINUOUS
 62
         7
100
AcDbVertex
100
AcDb2dVertex
 10
1578.4443991059
 20
119.4840796612
 30
0.0
 70
         1
  0
VERTEX
  5
323
100
AcDbEntity
  8
L1_75
  6
CONTINUOUS
 62
         7
100
AcDbVertex
100
AcDb2dVertex
 10
1578.3685335812
 20
119.2953559249
 30
0.0
 70
         1
  0
VERTEX
  5
325
100
AcDbEntity
  8
L1_75
  6
CONTINUOUS
 62
         7
100
AcDbVertex
100
AcDb2dVertex
 10
1578.3177038373
 20
119.1120179205
 30
0.0
 70
         1
  0
VERTEX
  5
327
100
AcDbEntity
  8
L1_75
  6
CONTINUOUS
 62
         7
100
AcDbVertex
100
AcDb2dVertex
 10
1578.2855169872
 20
118.9032391513
 30
0.0
 70
         1
  0
VERTEX
  5
329
100
AcDbEntity
  8
L1_75
  6
CONTINUOUS
 62
         7
100
AcDbVertex
100
AcDb2dVertex
 10
1578.2786999334
 20
118.7524144385
 30
0.0
 70
         1
  0
SEQEND
  5
32B
100
AcDbEntity
  8
L1_75
  6
CONTINUOUS
 62
         7
  0
LINE
  5
32C
100
AcDbEntity
  8
L1_75
  6
CENTER
 62
         1
100
AcDbLine
 10
1583.2786999334
 20
105.7524144385
 30
0.0
 11
1578.2786999334
 21
105.7524144385
 31
0.0
  0
LINE
  5
32D
100
AcDbEntity
  8
L1_75
  6
CENTER
 62
         1
100
AcDbLine
 10
1583.2786999334
 20
118.7524144385
 30
0.0
 11
1578.2786999334
 21
118.7524144385
 31
0.0
  0
LINE
  5
32E
100
AcDbEntity
  8
L1_75
  6
CONTINUOUS
 62
         4
100
AcDbLine
 10
1555.2786999334
 20
95.7524144385
 30
0.0
 11
1555.2786999334
 21
128.7524144385
 31
0.0
  0
LINE
  5
32F
100
AcDbEntity
  8
L1_75
  6
CONTINUOUS
 62
         4
100
AcDbLine
 10
1556.2786999334
 20
98.7524144385
 30
0.0
 11
1556.2786999334
 21
125.7524144385
 31
0.0
  0
LINE
  5
330
100
AcDbEntity
  8
L1_75
  6
CONTINUOUS
 62
         4
100
AcDbLine
 10
1574.1786999334
 20
99.4524144385
 30
0.0
 11
1574.1786999334
 21
125.0524144385
 31
0.0
  0
LINE
  5
331
100
AcDbEntity
  8
L1_75
  6
CONTINUOUS
 62
         4
100
AcDbLine
 10
1573.5786999334
 20
98.7524144385
 30
0.0
 11
1573.5786999334
 21
125.7524144385
 31
0.0
  0
LINE
  5
332
100
AcDbEntity
  8
L1_75
  6
CONTINUOUS
 62
         4
100
AcDbLine
 10
1593.8786999334
 20
99.2524144385
 30
0.0
 11
1593.8786999334
 21
125.2524144385
 31
0.0
  0
LINE
  5
333
100
AcDbEntity
  8
L1_75
  6
CONTINUOUS
 62
         4
100
AcDbLine
 10
1592.3286999334
 20
99.2524144385
 30
0.0
 11
1592.3286999334
 21
125.2524144385
 31
0.0
  0
LINE
  5
334
100
AcDbEntity
  8
L1_75
  6
CONTINUOUS
 62
         4
100
AcDbLine
 10
1598.2786999334
 20
99.2524144385
 30
0.0
 11
1598.2786999334
 21
107.0024144385
 31
0.0
  0
LINE
  5
335
100
AcDbEntity
  8
L1_75
  6
CONTINUOUS
 62
         4
100
AcDbLine
 10
1598.2786999334
 20
117.5024144385
 30
0.0
 11
1598.2786999334
 21
125.2524144385
 31
0.0
  0
LINE
  5
336
100
AcDbEntity
  8
L1_75
  6
CONTINUOUS
 62
         7
100
AcDbLine
 10
1574.9786999334
 20
99.2524144385
 30
0.0
 11
1574.9786999334
 21
125.2524144385
 31
0.0
  0
LINE
  5
337
100
AcDbEntity
  8
L1_75
  6
CONTINUOUS
 62
         4
100
AcDbLine
 10
1574.7786999334
 20
99.4524144385
 30
0.0
 11
1574.7786999334
 21
125.0524144385
 31
0.0
  0
LINE
  5
338
100
AcDbEntity
  8
L1_75
  6
CONTINUOUS
 62
         7
100
AcDbLine
 10
1593.7786999334
 20
99.3524144385
 30
0.0
 11
1593.8786999334
 21
99.2524144385
 31
0.0
  0
LINE
  5
339
100
AcDbEntity
  8
L1_75
  6
CONTINUOUS
 62
         7
100
AcDbLine
 10
1592.4286999334
 20
99.3524144385
 30
0.0
 11
1592.3286999334
 21
99.2524144385
 31
0.0
  0
LINE
  5
33A
100
AcDbEntity
  8
L1_75
  6
CONTINUOUS
 62
         7
100
AcDbLine
 10
1593.7786999334
 20
125.1524144385
 30
0.0
 11
1593.8786999334
 21
125.2524144385
 31
0.0
  0
LINE
  5
33B
100
AcDbEntity
  8
L1_75
  6
CONTINUOUS
 62
         7
100
AcDbLine
 10
1592.3286999334
 20
125.2524144385
 30
0.0
 11
1592.4286999334
 21
125.1524144385
 31
0.0
  0
ARC
  5
33C
100
AcDbEntity
  8
L1_75
  6
CONTINUOUS
 62
         7
100
AcDbCircle
 10
1574.1786999334
 20
125.4524144385
 30
0.0
 40
0.4
100
AcDbArc
 50
180.0
 51
270.0
  0
ARC
  5
33D
100
AcDbEntity
  8
L1_75
  6
CONTINUOUS
 62
         7
100
AcDbCircle
 10
1574.1786999334
 20
99.0524144385
 30
0.0
 40
0.4
100
AcDbArc
 50
90.0
 51
180.0
  0
LINE
  5
33E
100
AcDbEntity
  8
L1_75
  6
CONTINUOUS
 62
         7
100
AcDbLine
 10
1574.7786999334
 20
99.4524144385
 30
0.0
 11
1574.9786999334
 21
99.2524144385
 31
0.0
  0
LINE
  5
33F
100
AcDbEntity
  8
L1_75
  6
CONTINUOUS
 62
         7
100
AcDbLine
 10
1574.7786999334
 20
99.4524144385
 30
0.0
 11
1574.1786999334
 21
99.4524144385
 31
0.0
  0
LINE
  5
340
100
AcDbEntity
  8
L1_75
  6
CONTINUOUS
 62
         7
100
AcDbLine
 10
1574.7786999334
 20
125.0524144385
 30
0.0
 11
1574.9786999334
 21
125.2524144385
 31
0.0
  0
ARC
  5
341
100
AcDbEntity
  8
L1_75
  6
CONTINUOUS
 62
         7
100
AcDbCircle
 10
1573.5786999334
 20
125.5524144385
 30
0.0
 40
0.2
100
AcDbArc
 50
0.0
 51
90.0000000001
  0
LINE
  5
342
100
AcDbEntity
  8
L1_75
  6
CONTINUOUS
 62
         7
100
AcDbLine
 10
1573.7786999334
 20
98.9524144385
 30
0.0
 11
1573.7786999334
 21
125.5524144385
 31
0.0
  0
ARC
  5
343
100
AcDbEntity
  8
L1_75
  6
CONTINUOUS
 62
         7
100
AcDbCircle
 10
1573.5786999334
 20
98.9524144385
 30
0.0
 40
0.2
100
AcDbArc
 50
269.9999999999
 51
360.0
  0
ARC
  5
344
100
AcDbEntity
  8
L1_75
  6
CONTINUOUS
 62
         7
100
AcDbCircle
 10
1555.2786999334
 20
96.2524144385
 30
0.0
 40
0.5
100
AcDbArc
 50
270.0
 51
360.0
  0
ARC
  5
345
100
AcDbEntity
  8
L1_75
  6
CONTINUOUS
 62
         7
100
AcDbCircle
 10
1555.2786999334
 20
128.2524144385
 30
0.0
 40
0.5
100
AcDbArc
 50
0.0
 51
90.0
  0
LINE
  5
346
100
AcDbEntity
  8
L1_75
  6
CONTINUOUS
 62
         7
100
AcDbLine
 10
1574.7786999334
 20
125.0524144385
 30
0.0
 11
1574.1786999334
 21
125.0524144385
 31
0.0
  0
LINE
  5
347
100
AcDbEntity
  8
L1_75
  6
CENTER
 62
         1
100
AcDbLine
 10
1542.8786999334
 20
112.2524144385
 30
0.0
 11
1599.9428189495
 21
112.2524144385
 31
0.0
  0
LINE
  5
348
100
AcDbEntity
  8
L1_75
  6
CONTINUOUS
 62
         7
100
AcDbLine
 10
1592.3286999334
 20
125.2524144385
 30
0.0
 11
1574.9786999334
 21
125.2524144385
 31
0.0
  0
ARC
  5
349
100
AcDbEntity
  8
L1_75
  6
CONTINUOUS
 62
         7
100
AcDbCircle
 10
1556.2786999334
 20
98.2524144385
 30
0.0
 40
0.5
100
AcDbArc
 50
90.0
 51
180.0
  0
ARC
  5
34A
100
AcDbEntity
  8
L1_75
  6
CONTINUOUS
 62
         7
100
AcDbCircle
 10
1556.2786999334
 20
126.2524144385
 30
0.0
 40
0.5
100
AcDbArc
 50
180.0
 51
270.0
  0
LINE
  5
34B
100
AcDbEntity
  8
L1_75
  6
CONTINUOUS
 62
         7
100
AcDbLine
 10
1555.7786999334
 20
96.2524144385
 30
0.0
 11
1555.7786999334
 21
128.2524144385
 31
0.0
  0
LINE
  5
34C
100
AcDbEntity
  8
L1_75
  6
CONTINUOUS
 62
         7
100
AcDbLine
 10
1573.5786999334
 20
98.7524144385
 30
0.0
 11
1556.2786999334
 21
98.7524144385
 31
0.0
  0
LINE
  5
34D
100
AcDbEntity
  8
L1_75
  6
CONTINUOUS
 62
         7
100
AcDbLine
 10
1573.5786999334
 20
125.7524144385
 30
0.0
 11
1556.2786999334
 21
125.7524144385
 31
0.0
  0
LINE
  5
34E
100
AcDbEntity
  8
L1_75
  6
CONTINUOUS
 62
         7
100
AcDbLine
 10
1543.8786999334
 20
95.7524144385
 30
0.0
 11
1555.2786999334
 21
95.7524144385
 31
0.0
  0
LINE
  5
34F
100
AcDbEntity
  8
L1_75
  6
CONTINUOUS
 62
         7
100
AcDbLine
 10
1543.8786999334
 20
128.7524144385
 30
0.0
 11
1555.2786999334
 21
128.7524144385
 31
0.0
  0
LINE
  5
350
100
AcDbEntity
  8
L1_75
  6
CONTINUOUS
 62
         7
100
AcDbLine
 10
1592.3286999334
 20
99.2524144385
 30
0.0
 11
1574.9786999334
 21
99.2524144385
 31
0.0
  0
LINE
  5
351
100
AcDbEntity
  8
L1_75
  6
CENTER
 62
         1
100
AcDbLine
 10
1580.7786999334
 20
99.2524144385
 30
0.0
 11
1580.7786999334
 21
125.5341148771
 31
0.0
  0
ARC
  5
352
100
AcDbEntity
  8
L1_75
  6
CONTINUOUS
 62
         7
100
AcDbCircle
 10
1594.9786999334
 20
107.5024144385
 30
0.0
 40
0.5
100
AcDbArc
 50
180.0
 51
270.0
  0
LINE
  5
353
100
AcDbEntity
  8
L1_75
  6
CONTINUOUS
 62
         7
100
AcDbLine
 10
1598.2786999334
 20
107.0024144385
 30
0.0
 11
1594.9786999334
 21
107.0024144385
 31
0.0
  0
LINE
  5
354
100
AcDbEntity
  8
L1_75
  6
CONTINUOUS
 62
         7
100
AcDbLine
 10
1598.2786999334
 20
117.5024144385
 30
0.0
 11
1594.9786999334
 21
117.5024144385
 31
0.0
  0
ARC
  5
355
100
AcDbEntity
  8
L1_75
  6
CONTINUOUS
 62
         7
100
AcDbCircle
 10
1594.9786999334
 20
117.0024144385
 30
0.0
 40
0.5
100
AcDbArc
 50
90.0
 51
180.0
  0
LINE
  5
356
100
AcDbEntity
  8
L1_75
  6
CONTINUOUS
 62
         7
100
AcDbLine
 10
1594.4786999334
 20
107.5024144385
 30
0.0
 11
1594.4786999334
 21
117.0024144385
 31
0.0
  0
LINE
  5
357
100
AcDbEntity
  8
L1_75
  6
CONTINUOUS
 62
         7
100
AcDbLine
 10
1598.7786999334
 20
99.7524144385
 30
0.0
 11
1598.2786999334
 21
99.2524144385
 31
0.0
  0
LINE
  5
358
100
AcDbEntity
  8
L1_75
  6
CONTINUOUS
 62
         7
100
AcDbLine
 10
1598.2786999334
 20
125.2524144385
 30
0.0
 11
1598.7786999334
 21
124.7524144385
 31
0.0
  0
LINE
  5
359
100
AcDbEntity
  8
L1_75
  6
CONTINUOUS
 62
         7
100
AcDbLine
 10
1598.7786999334
 20
118.0024144385
 30
0.0
 11
1598.7786999334
 21
124.7524144385
 31
0.0
  0
LINE
  5
35A
100
AcDbEntity
  8
L1_75
  6
CONTINUOUS
 62
         7
100
AcDbLine
 10
1593.7786999334
 20
99.8024144385
 30
0.0
 11
1592.4286999334
 21
99.8024144385
 31
0.0
  0
LINE
  5
35B
100
AcDbEntity
  8
L1_75
  6
CONTINUOUS
 62
         7
100
AcDbLine
 10
1593.7786999334
 20
124.7024144385
 30
0.0
 11
1592.4286999334
 21
124.7024144385
 31
0.0
  0
LINE
  5
35C
100
AcDbEntity
  8
L1_75
  6
CONTINUOUS
 62
         7
100
AcDbLine
 10
1598.7786999334
 20
99.7524144385
 30
0.0
 11
1598.7786999334
 21
106.5024144385
 31
0.0
  0
LINE
  5
35D
100
AcDbEntity
  8
L1_75
  6
CONTINUOUS
 62
         7
100
AcDbLine
 10
1598.2786999334
 20
99.2524144385
 30
0.0
 11
1593.8786999334
 21
99.2524144385
 31
0.0
  0
LINE
  5
35E
100
AcDbEntity
  8
L1_75
  6
CONTINUOUS
 62
         7
100
AcDbLine
 10
1598.2786999334
 20
125.2524144385
 30
0.0
 11
1593.8786999334
 21
125.2524144385
 31
0.0
  0
LINE
  5
35F
100
AcDbEntity
  8
L1_75
  6
CONTINUOUS
 62
         7
100
AcDbLine
 10
1598.7786999334
 20
118.0024144385
 30
0.0
 11
1598.2786999334
 21
117.5024144385
 31
0.0
  0
LINE
  5
360
100
AcDbEntity
  8
L1_75
  6
CONTINUOUS
 62
         7
100
AcDbLine
 10
1598.2786999334
 20
107.0024144385
 30
0.0
 11
1598.7786999334
 21
106.5024144385
 31
0.0
  0
LINE
  5
361
100
AcDbEntity
  8
L1_75
  6
CONTINUOUS
 62
         7
100
AcDbLine
 10
1592.4286999334
 20
99.3524144385
 30
0.0
 11
1592.4286999334
 21
125.1524144385
 31
0.0
  0
LINE
  5
362
100
AcDbEntity
  8
L1_75
  6
CONTINUOUS
 62
         7
100
AcDbLine
 10
1593.7786999334
 20
99.3524144385
 30
0.0
 11
1593.7786999334
 21
125.1524144385
 31
0.0
  0
DIMENSION
  5
365
100
AcDbEntity
  8
L1_75
  6
CONTINUOUS
 62
         4
100
AcDbDimension
  2
*D3
 10
1637.4274582139
 20
-117.2400166132
 30
0.0
 11
1633.3674582139
 21
-140.2463701508
 31
0.0
  3
DIMSTYLE1
100
AcDbAlignedDimension
 13
1596.7786999334
 23
-117.2400166132
 33
0.0
 14
1596.7786999334
 24
-136.2400166132
 34
0.0
 50
90.0
100
AcDbRotatedDimension
  0
DIMENSION
  5
373
100
AcDbEntity
  8
L1_75
  6
CONTINUOUS
 62
         4
100
AcDbDimension
  2
*D4
 10
1598.7786999334
 20
-161.4719976464
 30
0.0
 11
1575.8547776649
 21
-157.4119976464
 31
0.0
  3
DIMSTYLE1
100
AcDbAlignedDimension
 13
1598.7786999334
 23
-132.4900166132
 33
0.0
 14
1571.7786999334
 24
-136.7400166132
 34
0.0
100
AcDbRotatedDimension
  0
LINE
  5
37F
100
AcDbEntity
  8
L1_75
  6
CONTINUOUS
 62
         7
100
AcDbLine
 10
1593.7786999334
 20
-139.6400166132
 30
0.0
 11
1593.8786999334
 21
-139.7400166132
 31
0.0
  0
LINE
  5
380
100
AcDbEntity
  8
L1_75
  6
CONTINUOUS
 62
         7
100
AcDbLine
 10
1592.4286999334
 20
-139.6400166132
 30
0.0
 11
1592.3286999334
 21
-139.7400166132
 31
0.0
  0
LINE
  5
381
100
AcDbEntity
  8
L1_75
  6
CONTINUOUS
 62
         7
100
AcDbLine
 10
1593.7786999334
 20
-113.8400166132
 30
0.0
 11
1593.8786999334
 21
-113.7400166132
 31
0.0
  0
LINE
  5
382
100
AcDbEntity
  8
L1_75
  6
CONTINUOUS
 62
         7
100
AcDbLine
 10
1592.4286999334
 20
-113.8400166132
 30
0.0
 11
1592.3286999334
 21
-113.7400166132
 31
0.0
  0
ARC
  5
383
100
AcDbEntity
  8
L1_75
  6
CONTINUOUS
 62
         7
100
AcDbCircle
 10
1574.1786999334
 20
-113.5400166132
 30
0.0
 40
0.4
100
AcDbArc
 50
180.0
 51
270.0
  0
ARC
  5
384
100
AcDbEntity
  8
L1_75
  6
CONTINUOUS
 62
         7
100
AcDbCircle
 10
1574.1786999334
 20
-139.9400166132
 30
0.0
 40
0.4
100
AcDbArc
 50
90.0
 51
180.0
  0
LINE
  5
385
100
AcDbEntity
  8
L1_75
  6
CONTINUOUS
 62
         7
100
AcDbLine
 10
1574.7786999334
 20
-139.5400166132
 30
0.0
 11
1574.9786999334
 21
-139.7400166132
 31
0.0
  0
LINE
  5
386
100
AcDbEntity
  8
L1_75
  6
CONTINUOUS
 62
         7
100
AcDbLine
 10
1574.7786999334
 20
-139.5400166132
 30
0.0
 11
1574.1786999334
 21
-139.5400166132
 31
0.0
  0
LINE
  5
387
100
AcDbEntity
  8
L1_75
  6
CONTINUOUS
 62
         7
100
AcDbLine
 10
1574.7786999334
 20
-113.9400166132
 30
0.0
 11
1574.9786999334
 21
-113.7400166132
 31
0.0
  0
ARC
  5
388
100
AcDbEntity
  8
L1_75
  6
CONTINUOUS
 62
         7
100
AcDbCircle
 10
1573.5786999334
 20
-113.4400166132
 30
0.0
 40
0.2
100
AcDbArc
 50
0.0
 51
90.0000000001
  0
LINE
  5
389
100
AcDbEntity
  8
L1_75
  6
CONTINUOUS
 62
         7
100
AcDbLine
 10
1573.7786999334
 20
-113.5400166132
 30
0.0
 11
1573.7786999334
 21
-113.4400166132
 31
0.0
  0
ARC
  5
38A
100
AcDbEntity
  8
L1_75
  6
CONTINUOUS
 62
         7
100
AcDbCircle
 10
1573.5786999334
 20
-140.0400166132
 30
0.0
 40
0.2
100
AcDbArc
 50
269.9999999999
 51
360.0
  0
LINE
  5
38B
100
AcDbEntity
  8
L1_75
  6
CONTINUOUS
 62
         7
100
AcDbLine
 10
1573.7786999334
 20
-140.0400166132
 30
0.0
 11
1573.7786999334
 21
-139.9400166132
 31
0.0
  0
ARC
  5
38C
100
AcDbEntity
  8
L1_75
  6
CONTINUOUS
 62
         7
100
AcDbCircle
 10
1555.2786999334
 20
-142.7400166132
 30
0.0
 40
0.5
100
AcDbArc
 50
270.0
 51
360.0
  0
ARC
  5
38D
100
AcDbEntity
  8
L1_75
  6
CONTINUOUS
 62
         7
100
AcDbCircle
 10
1555.2786999334
 20
-110.7400166132
 30
0.0
 40
0.5
100
AcDbArc
 50
0.0
 51
90.0
  0
LINE
  5
38E
100
AcDbEntity
  8
L1_75
  6
CONTINUOUS
 62
         7
100
AcDbLine
 10
1583.2786999331
 20
-136.7193357404
 30
0.0
 11
1583.2786999331
 21
-139.6400166132
 31
0.0
  0
LINE
  5
38F
100
AcDbEntity
  8
L1_75
  6
CONTINUOUS
 62
         7
100
AcDbLine
 10
1583.2786999331
 20
-139.6400166132
 30
0.0
 11
1583.3786999331
 21
-139.7400166132
 31
0.0
  0
LINE
  5
390
100
AcDbEntity
  8
L1_75
  6
CONTINUOUS
 62
         7
100
AcDbLine
 10
1583.0596999332
 20
-136.2400166136
 30
0.0
 11
1583.0596999332
 21
-136.3400166135
 31
0.0
  0
LINE
  5
391
100
AcDbEntity
  8
L1_75
  6
CONTINUOUS
 62
         7
100
AcDbLine
 10
1583.0596999332
 20
-136.3400166135
 30
0.0
 11
1583.2786999331
 21
-136.7193357404
 31
0.0
  0
LINE
  5
392
100
AcDbEntity
  8
L1_75
  6
CONTINUOUS
 62
         7
100
AcDbLine
 10
1578.2786999336
 20
-136.7193357404
 30
0.0
 11
1578.2786999336
 21
-139.6400166132
 31
0.0
  0
LINE
  5
393
100
AcDbEntity
  8
L1_75
  6
CONTINUOUS
 62
         7
100
AcDbLine
 10
1578.1786999337
 20
-139.7400166132
 30
0.0
 11
1578.2786999336
 21
-139.6400166132
 31
0.0
  0
LINE
  5
394
100
AcDbEntity
  8
L1_75
  6
CONTINUOUS
 62
         7
100
AcDbLine
 10
1578.4976999336
 20
-136.2400166136
 30
0.0
 11
1578.4976999336
 21
-136.3400166135
 31
0.0
  0
LINE
  5
395
100
AcDbEntity
  8
L1_75
  6
CONTINUOUS
 62
         7
100
AcDbLine
 10
1578.4976999336
 20
-136.3400166135
 30
0.0
 11
1578.2786999336
 21
-136.7193357404
 31
0.0
  0
LINE
  5
396
100
AcDbEntity
  8
L1_75
  6
CONTINUOUS
 62
         7
100
AcDbLine
 10
1583.2786999331
 20
-116.760697486
 30
0.0
 11
1583.2786999331
 21
-113.8400166132
 31
0.0
  0
LINE
  5
397
100
AcDbEntity
  8
L1_75
  6
CONTINUOUS
 62
         7
100
AcDbLine
 10
1583.2786999331
 20
-113.8400166132
 30
0.0
 11
1583.3786999331
 21
-113.7400166132
 31
0.0
  0
LINE
  5
398
100
AcDbEntity
  8
L1_75
  6
CONTINUOUS
 62
         7
100
AcDbLine
 10
1583.0596999332
 20
-117.2400166128
 30
0.0
 11
1583.0596999332
 21
-117.1400166129
 31
0.0
  0
LINE
  5
399
100
AcDbEntity
  8
L1_75
  6
CONTINUOUS
 62
         7
100
AcDbLine
 10
1583.0596999332
 20
-117.1400166129
 30
0.0
 11
1583.2786999331
 21
-116.760697486
 31
0.0
  0
LINE
  5
39A
100
AcDbEntity
  8
L1_75
  6
CONTINUOUS
 62
         7
100
AcDbLine
 10
1578.2786999336
 20
-116.760697486
 30
0.0
 11
1578.2786999336
 21
-113.8400166132
 31
0.0
  0
LINE
  5
39B
100
AcDbEntity
  8
L1_75
  6
CONTINUOUS
 62
         7
100
AcDbLine
 10
1578.1786999337
 20
-113.7400166132
 30
0.0
 11
1578.2786999336
 21
-113.8400166132
 31
0.0
  0
LINE
  5
39C
100
AcDbEntity
  8
L1_75
  6
CONTINUOUS
 62
         7
100
AcDbLine
 10
1578.4976999336
 20
-117.2400166128
 30
0.0
 11
1578.4976999336
 21
-117.1400166129
 31
0.0
  0
LINE
  5
39D
100
AcDbEntity
  8
L1_75
  6
CONTINUOUS
 62
         7
100
AcDbLine
 10
1578.4976999336
 20
-117.1400166129
 30
0.0
 11
1578.2786999336
 21
-116.760697486
 31
0.0
  0
LINE
  5
39E
100
AcDbEntity
  8
L1_75
  6
CONTINUOUS
 62
         7
100
AcDbLine
 10
1574.7786999334
 20
-113.9400166132
 30
0.0
 11
1574.1786999334
 21
-113.9400166132
 31
0.0
  0
LINE
  5
39F
100
AcDbEntity
  8
L1_75
  6
CENTER
 62
         1
100
AcDbLine
 10
1542.8786999334
 20
-126.7400166132
 30
0.0
 11
1599.9428189495
 21
-126.7400166132
 31
0.0
  0
ARC
  5
3A0
100
AcDbEntity
  8
L1_75
  6
CONTINUOUS
 62
         7
100
AcDbCircle
 10
1596.7786999334
 20
-138.2400166132
 30
0.0
 40
2.0
100
AcDbArc
 50
0.0
 51
90.0
  0
ARC
  5
3A1
100
AcDbEntity
  8
L1_75
  6
CONTINUOUS
 62
         7
100
AcDbCircle
 10
1596.7786999334
 20
-115.2400166132
 30
0.0
 40
2.0
100
AcDbArc
 50
270.0
 51
360.0
  0
LINE
  5
3A2
100
AcDbEntity
  8
L1_75
  6
CONTINUOUS
 62
         7
100
AcDbLine
 10
1592.3286999334
 20
-113.7400166132
 30
0.0
 11
1574.9786999334
 21
-113.7400166132
 31
0.0
  0
LINE
  5
3A3
100
AcDbEntity
  8
L1_75
  6
CONTINUOUS
 62
         7
100
AcDbLine
 10
1596.7786999334
 20
-136.2400166132
 30
0.0
 11
1576.7786999334
 21
-136.2400166132
 31
0.0
  0
ARC
  5
3A4
100
AcDbEntity
  8
L1_75
  6
CONTINUOUS
 62
         7
100
AcDbCircle
 10
1556.2786999334
 20
-140.7400166132
 30
0.0
 40
0.5
100
AcDbArc
 50
90.0
 51
180.0
  0
ARC
  5
3A5
100
AcDbEntity
  8
L1_75
  6
CONTINUOUS
 62
         7
100
AcDbCircle
 10
1556.2786999334
 20
-112.7400166132
 30
0.0
 40
0.5
100
AcDbArc
 50
180.0
 51
270.0
  0
LINE
  5
3A6
100
AcDbEntity
  8
L1_75
  6
CONTINUOUS
 62
         7
100
AcDbLine
 10
1571.7786999334
 20
-136.2400166132
 30
0.0
 11
1566.2938723761
 21
-126.7400166132
 31
0.0
  0
LINE
  5
3A7
100
AcDbEntity
  8
L1_75
  6
CONTINUOUS
 62
         7
100
AcDbLine
 10
1571.7786999334
 20
-117.2400166132
 30
0.0
 11
1566.2938723761
 21
-126.7400166132
 31
0.0
  0
LINE
  5
3A8
100
AcDbEntity
  8
L1_75
  6
CONTINUOUS
 62
         7
100
AcDbLine
 10
1576.7786999334
 20
-136.7400166132
 30
0.0
 11
1571.7786999334
 21
-136.7400166132
 31
0.0
  0
LINE
  5
3A9
100
AcDbEntity
  8
L1_75
  6
CONTINUOUS
 62
         7
100
AcDbLine
 10
1576.7786999334
 20
-116.7400166132
 30
0.0
 11
1571.7786999334
 21
-116.7400166132
 31
0.0
  0
LINE
  5
3AA
100
AcDbEntity
  8
L1_75
  6
CONTINUOUS
 62
         7
100
AcDbLine
 10
1571.7786999334
 20
-136.7400166132
 30
0.0
 11
1571.7786999334
 21
-116.7400166132
 31
0.0
  0
LINE
  5
3AB
100
AcDbEntity
  8
L1_75
  6
CONTINUOUS
 62
         7
100
AcDbLine
 10
1576.7786999334
 20
-136.7400166132
 30
0.0
 11
1576.7786999334
 21
-116.7400166132
 31
0.0
  0
LINE
  5
3AC
100
AcDbEntity
  8
L1_75
  6
CONTINUOUS
 62
         7
100
AcDbLine
 10
1596.7786999334
 20
-117.2400166132
 30
0.0
 11
1576.7786999334
 21
-117.2400166132
 31
0.0
  0
LINE
  5
3AD
100
AcDbEntity
  8
L1_75
  6
CONTINUOUS
 62
         7
100
AcDbLine
 10
1555.7786999334
 20
-112.7400166132
 30
0.0
 11
1555.7786999334
 21
-110.7400166132
 31
0.0
  0
LINE
  5
3AE
100
AcDbEntity
  8
L1_75
  6
CONTINUOUS
 62
         7
100
AcDbLine
 10
1555.7786999334
 20
-142.7400166132
 30
0.0
 11
1555.7786999334
 21
-140.7400166132
 31
0.0
  0
LINE
  5
3AF
100
AcDbEntity
  8
L1_75
  6
CONTINUOUS
 62
         7
100
AcDbLine
 10
1573.5786999334
 20
-140.2400166132
 30
0.0
 11
1556.2786999334
 21
-140.2400166132
 31
0.0
  0
LINE
  5
3B0
100
AcDbEntity
  8
L1_75
  6
CONTINUOUS
 62
         7
100
AcDbLine
 10
1573.5786999334
 20
-113.2400166132
 30
0.0
 11
1556.2786999334
 21
-113.2400166132
 31
0.0
  0
LINE
  5
3B1
100
AcDbEntity
  8
L1_75
  6
CONTINUOUS
 62
         7
100
AcDbLine
 10
1543.8786999334
 20
-143.2400166132
 30
0.0
 11
1555.2786999334
 21
-143.2400166132
 31
0.0
  0
LINE
  5
3B2
100
AcDbEntity
  8
L1_75
  6
CONTINUOUS
 62
         7
100
AcDbLine
 10
1543.8786999334
 20
-110.2400166132
 30
0.0
 11
1555.2786999334
 21
-110.2400166132
 31
0.0
  0
LINE
  5
3B3
100
AcDbEntity
  8
L1_75
  6
CONTINUOUS
 62
         7
100
AcDbLine
 10
1592.3286999334
 20
-139.7400166132
 30
0.0
 11
1574.9786999334
 21
-139.7400166132
 31
0.0
  0
LINE
  5
3B4
100
AcDbEntity
  8
L1_75
  6
CENTER
 62
         1
100
AcDbLine
 10
1580.7786999334
 20
-118.4900166132
 30
0.0
 11
1580.7786999334
 21
-113.4583161747
 31
0.0
  0
LINE
  5
3B5
100
AcDbEntity
  8
L1_75
  6
CENTER
 62
         1
100
AcDbLine
 10
1580.7786999334
 20
-134.9900166132
 30
0.0
 11
1580.7786999334
 21
-140.0217170517
 31
0.0
  0
LINE
  5
3B6
100
AcDbEntity
  8
L1_75
  6
CONTINUOUS
 62
         7
100
AcDbLine
 10
1598.2786999334
 20
-131.9900166132
 30
0.0
 11
1594.7786999334
 21
-131.9900166132
 31
0.0
  0
LINE
  5
3B7
100
AcDbEntity
  8
L1_75
  6
CONTINUOUS
 62
         7
100
AcDbLine
 10
1598.2786999334
 20
-121.4900166132
 30
0.0
 11
1594.7786999334
 21
-121.4900166132
 31
0.0
  0
LINE
  5
3B8
100
AcDbEntity
  8
L1_75
  6
CONTINUOUS
 62
         7
100
AcDbLine
 10
1593.7786999334
 20
-130.9900166132
 30
0.0
 11
1593.7786999334
 21
-122.4900166132
 31
0.0
  0
LINE
  5
3B9
100
AcDbEntity
  8
L1_75
  6
CONTINUOUS
 62
         7
100
AcDbLine
 10
1598.7786999334
 20
-139.2400166132
 30
0.0
 11
1598.2786999334
 21
-139.7400166132
 31
0.0
  0
LINE
  5
3BA
100
AcDbEntity
  8
L1_75
  6
CONTINUOUS
 62
         7
100
AcDbLine
 10
1598.2786999334
 20
-113.7400166132
 30
0.0
 11
1598.7786999334
 21
-114.2400166132
 31
0.0
  0
LINE
  5
3BB
100
AcDbEntity
  8
L1_75
  6
CONTINUOUS
 62
         7
100
AcDbLine
 10
1598.7786999334
 20
-120.9900166132
 30
0.0
 11
1598.7786999334
 21
-114.2400166132
 31
0.0
  0
LINE
  5
3BC
100
AcDbEntity
  8
L1_75
  6
CONTINUOUS
 62
         7
100
AcDbLine
 10
1593.7786999334
 20
-139.6400166132
 30
0.0
 11
1593.7786999334
 21
-139.1900166132
 31
0.0
  0
LINE
  5
3BD
100
AcDbEntity
  8
L1_75
  6
CONTINUOUS
 62
         7
100
AcDbLine
 10
1592.4286999334
 20
-139.6400166132
 30
0.0
 11
1592.4286999334
 21
-139.1900166132
 31
0.0
  0
LINE
  5
3BE
100
AcDbEntity
  8
L1_75
  6
CONTINUOUS
 62
         7
100
AcDbLine
 10
1593.7786999334
 20
-139.1900166132
 30
0.0
 11
1592.4286999334
 21
-139.1900166132
 31
0.0
  0
LINE
  5
3BF
100
AcDbEntity
  8
L1_75
  6
CONTINUOUS
 62
         7
100
AcDbLine
 10
1593.7786999334
 20
-114.2900166132
 30
0.0
 11
1592.4286999334
 21
-114.2900166132
 31
0.0
  0
LINE
  5
3C0
100
AcDbEntity
  8
L1_75
  6
CONTINUOUS
 62
         7
100
AcDbLine
 10
1598.7786999334
 20
-139.2400166132
 30
0.0
 11
1598.7786999334
 21
-132.4900166132
 31
0.0
  0
LINE
  5
3C1
100
AcDbEntity
  8
L1_75
  6
CONTINUOUS
 62
         7
100
AcDbLine
 10
1598.2786999334
 20
-139.7400166132
 30
0.0
 11
1593.8786999334
 21
-139.7400166132
 31
0.0
  0
LINE
  5
3C2
100
AcDbEntity
  8
L1_75
  6
CONTINUOUS
 62
         7
100
AcDbLine
 10
1598.2786999334
 20
-113.7400166132
 30
0.0
 11
1593.8786999334
 21
-113.7400166132
 31
0.0
  0
LINE
  5
3C3
100
AcDbEntity
  8
L1_75
  6
CONTINUOUS
 62
         7
100
AcDbLine
 10
1598.7786999334
 20
-120.9900166132
 30
0.0
 11
1598.2786999334
 21
-121.4900166132
 31
0.0
  0
LINE
  5
3C4
100
AcDbEntity
  8
L1_75
  6
CONTINUOUS
 62
         7
100
AcDbLine
 10
1598.2786999334
 20
-131.9900166132
 30
0.0
 11
1598.7786999334
 21
-132.4900166132
 31
0.0
  0
LINE
  5
3C5
100
AcDbEntity
  8
L1_75
  6
CONTINUOUS
 62
         7
100
AcDbLine
 10
1592.4286999334
 20
-114.2900166132
 30
0.0
 11
1592.4286999334
 21
-113.8400166132
 31
0.0
  0
LINE
  5
3C6
100
AcDbEntity
  8
L1_75
  6
CONTINUOUS
 62
         7
100
AcDbLine
 10
1593.7786999334
 20
-114.2900166132
 30
0.0
 11
1593.7786999334
 21
-113.8400166132
 31
0.0
  0
LINE
  5
3C7
100
AcDbEntity
  8
L1_75
  6
CONTINUOUS
 62
         4
100
AcDbLine
 10
1596.7786999334
 20
-136.2400166132
 30
0.0
 11
1596.7786999334
 21
-131.9900166132
 31
0.0
  0
LINE
  5
3C8
100
AcDbEntity
  8
L1_75
  6
CONTINUOUS
 62
         4
100
AcDbLine
 10
1596.7786999334
 20
-121.4900166132
 30
0.0
 11
1596.7786999334
 21
-117.2400166132
 31
0.0
  0
LINE
  5
3C9
100
AcDbEntity
  8
L1_75
  6
DASHED
 62
         2
100
AcDbLine
 10
1853.2272693927
 20
119.4076375114
 30
0.0
 11
1855.6322493877
 21
120.7961533589
 31
0.0
  0
LINE
  5
3CA
100
AcDbEntity
  8
L1_75
  6
DASHED
 62
         2
100
AcDbLine
 10
1855.7272693924
 20
115.0775104929
 30
0.0
 11
1858.1322493874
 21
116.4660263404
 31
0.0
  0
LINE
  5
3CB
100
AcDbEntity
  8
L1_75
  6
DASHED
 62
         2
100
AcDbLine
 10
1854.9611281686
 20
114.8880580689
 30
0.0
 11
1855.2892693924
 21
115.0775104929
 31
0.0
  0
LINE
  5
3CC
100
AcDbEntity
  8
L1_75
  6
DASHED
 62
         2
100
AcDbLine
 10
1852.6801281688
 20
118.8388659606
 30
0.0
 11
1853.0082693927
 21
119.0283183845
 31
0.0
  0
LINE
  5
3CD
100
AcDbEntity
  8
L1_75
  6
DASHED
 62
         2
100
AcDbLine
 10
1855.2892693924
 20
115.0775104929
 30
0.0
 11
1853.0082693927
 21
119.0283183845
 31
0.0
  0
LINE
  5
3CE
100
AcDbEntity
  8
L1_75
  6
DASHED
 62
         2
100
AcDbLine
 10
1855.7272693924
 20
115.0775104929
 30
0.0
 11
1853.2272693927
 21
119.4076375114
 31
0.0
  0
LINE
  5
3CF
100
AcDbEntity
  8
L1_75
  6
DASHED
 62
         2
100
AcDbLine
 10
1855.2892693924
 20
115.0775104929
 30
0.0
 11
1855.7272693924
 21
115.0775104929
 31
0.0
  0
LINE
  5
3D0
100
AcDbEntity
  8
L1_75
  6
DASHED
 62
         2
100
AcDbLine
 10
1853.0082693927
 20
119.0283183845
 30
0.0
 11
1853.2272693927
 21
119.4076375114
 31
0.0
  0
LINE
  5
3D1
100
AcDbEntity
  8
L1_75
  6
DASHED
 62
         2
100
AcDbLine
 10
1855.7272693924
 20
109.4273183842
 30
0.0
 11
1858.1322493874
 21
108.0388025367
 31
0.0
  0
LINE
  5
3D2
100
AcDbEntity
  8
L1_75
  6
DASHED
 62
         2
100
AcDbLine
 10
1853.2272693927
 20
105.0971913657
 30
0.0
 11
1855.6322493877
 21
103.7086755182
 31
0.0
  0
LINE
  5
3D3
100
AcDbEntity
  8
L1_75
  6
DASHED
 62
         2
100
AcDbLine
 10
1852.6801281688
 20
105.6659629165
 30
0.0
 11
1853.0082693927
 21
105.4765104925
 31
0.0
  0
LINE
  5
3D4
100
AcDbEntity
  8
L1_75
  6
DASHED
 62
         2
100
AcDbLine
 10
1854.9611281686
 20
109.6167708082
 30
0.0
 11
1855.2892693924
 21
109.4273183842
 31
0.0
  0
LINE
  5
3D5
100
AcDbEntity
  8
L1_75
  6
DASHED
 62
         2
100
AcDbLine
 10
1853.0082693927
 20
105.4765104925
 30
0.0
 11
1855.2892693924
 21
109.4273183842
 31
0.0
  0
LINE
  5
3D6
100
AcDbEntity
  8
L1_75
  6
DASHED
 62
         2
100
AcDbLine
 10
1853.2272693927
 20
105.0971913657
 30
0.0
 11
1855.7272693924
 21
109.4273183842
 31
0.0
  0
LINE
  5
3D7
100
AcDbEntity
  8
L1_75
  6
DASHED
 62
         2
100
AcDbLine
 10
1853.0082693927
 20
105.4765104925
 30
0.0
 11
1853.2272693927
 21
105.0971913657
 31
0.0
  0
LINE
  5
3D8
100
AcDbEntity
  8
L1_75
  6
DASHED
 62
         2
100
AcDbLine
 10
1855.2892693924
 20
109.4273183842
 30
0.0
 11
1855.7272693924
 21
109.4273183842
 31
0.0
  0
LINE
  5
3D9
100
AcDbEntity
  8
L1_75
  6
DASHED
 62
         2
100
AcDbLine
 10
1848.3340594903
 20
102.2720953114
 30
0.0
 11
1848.3340594903
 21
99.4950636163
 31
0.0
  0
LINE
  5
3DA
100
AcDbEntity
  8
L1_75
  6
DASHED
 62
         2
100
AcDbLine
 10
1843.3340594908
 20
102.2720953114
 30
0.0
 11
1843.3340594908
 21
99.4950636163
 31
0.0
  0
LINE
  5
3DB
100
AcDbEntity
  8
L1_75
  6
DASHED
 62
         2
100
AcDbLine
 10
1843.5530594908
 20
103.0303192861
 30
0.0
 11
1843.5530594908
 21
102.6514144382
 31
0.0
  0
LINE
  5
3DC
100
AcDbEntity
  8
L1_75
  6
DASHED
 62
         2
100
AcDbLine
 10
1848.1150594903
 20
103.0303192861
 30
0.0
 11
1848.1150594903
 21
102.6514144382
 31
0.0
  0
LINE
  5
3DD
100
AcDbEntity
  8
L1_75
  6
DASHED
 62
         2
100
AcDbLine
 10
1843.5530594908
 20
102.6514144382
 30
0.0
 11
1848.1150594903
 21
102.6514144382
 31
0.0
  0
LINE
  5
3DE
100
AcDbEntity
  8
L1_75
  6
DASHED
 62
         2
100
AcDbLine
 10
1843.3340594908
 20
102.2720953114
 30
0.0
 11
1848.3340594903
 21
102.2720953114
 31
0.0
  0
LINE
  5
3DF
100
AcDbEntity
  8
L1_75
  6
DASHED
 62
         2
100
AcDbLine
 10
1843.5530594908
 20
102.6514144382
 30
0.0
 11
1843.3340594908
 21
102.2720953114
 31
0.0
  0
LINE
  5
3E0
100
AcDbEntity
  8
L1_75
  6
DASHED
 62
         2
100
AcDbLine
 10
1848.1150594903
 20
102.6514144382
 30
0.0
 11
1848.3340594903
 21
102.2720953114
 31
0.0
  0
LINE
  5
3E1
100
AcDbEntity
  8
L1_75
  6
DASHED
 62
         2
100
AcDbLine
 10
1838.4408495884
 20
105.0971913657
 30
0.0
 11
1836.0358695934
 21
103.7086755182
 31
0.0
  0
LINE
  5
3E2
100
AcDbEntity
  8
L1_75
  6
DASHED
 62
         2
100
AcDbLine
 10
1835.9408495887
 20
109.4273183842
 30
0.0
 11
1833.5358695936
 21
108.0388025367
 31
0.0
  0
LINE
  5
3E3
100
AcDbEntity
  8
L1_75
  6
DASHED
 62
         2
100
AcDbLine
 10
1836.7069908125
 20
109.6167708082
 30
0.0
 11
1836.3788495886
 21
109.4273183842
 31
0.0
  0
LINE
  5
3E4
100
AcDbEntity
  8
L1_75
  6
DASHED
 62
         2
100
AcDbLine
 10
1838.9879908123
 20
105.6659629165
 30
0.0
 11
1838.6598495884
 21
105.4765104925
 31
0.0
  0
LINE
  5
3E5
100
AcDbEntity
  8
L1_75
  6
DASHED
 62
         2
100
AcDbLine
 10
1836.3788495886
 20
109.4273183842
 30
0.0
 11
1838.6598495884
 21
105.4765104925
 31
0.0
  0
LINE
  5
3E6
100
AcDbEntity
  8
L1_75
  6
DASHED
 62
         2
100
AcDbLine
 10
1835.9408495887
 20
109.4273183842
 30
0.0
 11
1838.4408495884
 21
105.0971913657
 31
0.0
  0
LINE
  5
3E7
100
AcDbEntity
  8
L1_75
  6
DASHED
 62
         2
100
AcDbLine
 10
1836.3788495886
 20
109.4273183842
 30
0.0
 11
1835.9408495887
 21
109.4273183842
 31
0.0
  0
LINE
  5
3E8
100
AcDbEntity
  8
L1_75
  6
DASHED
 62
         2
100
AcDbLine
 10
1838.6598495884
 20
105.4765104925
 30
0.0
 11
1838.4408495884
 21
105.0971913657
 31
0.0
  0
LINE
  5
3E9
100
AcDbEntity
  8
L1_75
  6
DASHED
 62
         2
100
AcDbLine
 10
1835.9408495887
 20
115.0775104929
 30
0.0
 11
1833.5358695936
 21
116.4660263404
 31
0.0
  0
LINE
  5
3EA
100
AcDbEntity
  8
L1_75
  6
DASHED
 62
         2
100
AcDbLine
 10
1838.4408495884
 20
119.4076375114
 30
0.0
 11
1836.0358695934
 21
120.7961533589
 31
0.0
  0
LINE
  5
3EB
100
AcDbEntity
  8
L1_75
  6
DASHED
 62
         2
100
AcDbLine
 10
1838.9879908123
 20
118.8388659606
 30
0.0
 11
1838.6598495884
 21
119.0283183846
 31
0.0
  0
LINE
  5
3EC
100
AcDbEntity
  8
L1_75
  6
DASHED
 62
         2
100
AcDbLine
 10
1836.7069908125
 20
114.8880580689
 30
0.0
 11
1836.3788495886
 21
115.0775104929
 31
0.0
  0
LINE
  5
3ED
100
AcDbEntity
  8
L1_75
  6
DASHED
 62
         2
100
AcDbLine
 10
1838.6598495884
 20
119.0283183846
 30
0.0
 11
1836.3788495886
 21
115.0775104929
 31
0.0
  0
LINE
  5
3EE
100
AcDbEntity
  8
L1_75
  6
DASHED
 62
         2
100
AcDbLine
 10
1838.4408495884
 20
119.4076375114
 30
0.0
 11
1835.9408495887
 21
115.0775104929
 31
0.0
  0
LINE
  5
3EF
100
AcDbEntity
  8
L1_75
  6
DASHED
 62
         2
100
AcDbLine
 10
1838.6598495884
 20
119.0283183846
 30
0.0
 11
1838.4408495884
 21
119.4076375114
 31
0.0
  0
LINE
  5
3F0
100
AcDbEntity
  8
L1_75
  6
DASHED
 62
         2
100
AcDbLine
 10
1836.3788495886
 20
115.0775104929
 30
0.0
 11
1835.9408495887
 21
115.0775104929
 31
0.0
  0
LINE
  5
3F1
100
AcDbEntity
  8
L1_75
  6
DASHED
 62
         2
100
AcDbLine
 10
1848.1150594903
 20
121.8534144389
 30
0.0
 11
1843.5530594908
 21
121.8534144389
 31
0.0
  0
LINE
  5
3F2
100
AcDbEntity
  8
L1_75
  6
DASHED
 62
         2
100
AcDbLine
 10
1848.3340594903
 20
122.2327335657
 30
0.0
 11
1843.3340594908
 21
122.2327335657
 31
0.0
  0
LINE
  5
3F3
100
AcDbEntity
  8
L1_75
  6
DASHED
 62
         2
100
AcDbLine
 10
1843.5530594908
 20
121.8534144389
 30
0.0
 11
1843.3340594908
 21
122.2327335657
 31
0.0
  0
LINE
  5
3F4
100
AcDbEntity
  8
L1_75
  6
DASHED
 62
         2
100
AcDbLine
 10
1843.5530594908
 20
121.474509591
 30
0.0
 11
1843.5530594908
 21
121.8534144389
 31
0.0
  0
LINE
  5
3F5
100
AcDbEntity
  8
L1_75
  6
DASHED
 62
         2
100
AcDbLine
 10
1843.3340594908
 20
122.2327335657
 30
0.0
 11
1843.3340594908
 21
125.0097652608
 31
0.0
  0
LINE
  5
3F6
100
AcDbEntity
  8
L1_75
  6
DASHED
 62
         2
100
AcDbLine
 10
1848.1150594903
 20
121.8534144389
 30
0.0
 11
1848.3340594903
 21
122.2327335657
 31
0.0
  0
LINE
  5
3F7
100
AcDbEntity
  8
L1_75
  6
DASHED
 62
         2
100
AcDbLine
 10
1848.1150594903
 20
121.474509591
 30
0.0
 11
1848.1150594903
 21
121.8534144389
 31
0.0
  0
LINE
  5
3F8
100
AcDbEntity
  8
L1_75
  6
DASHED
 62
         2
100
AcDbLine
 10
1848.3340594903
 20
122.2327335657
 30
0.0
 11
1848.3340594903
 21
125.0097652608
 31
0.0
  0
LINE
  5
3F9
100
AcDbEntity
  8
L1_75
  6
CENTER
 62
         1
100
AcDbLine
 10
1860.123478653
 20
120.5024144385
 30
0.0
 11
1831.5446403281
 21
104.0024144385
 31
0.0
  0
LINE
  5
3FA
100
AcDbEntity
  8
L1_75
  6
CENTER
 62
         1
100
AcDbLine
 10
1860.123478653
 20
104.0024144385
 30
0.0
 11
1831.5446403281
 21
120.5024144385
 31
0.0
  0
LINE
  5
3FB
100
AcDbEntity
  8
L1_75
  6
CONTINUOUS
 62
         7
100
AcDbLine
 10
1837.9165156795
 20
107.1774144385
 30
0.0
 11
1833.9413095983
 21
107.1774144385
 31
0.0
  0
LINE
  5
3FC
100
AcDbEntity
  8
L1_75
  6
CONTINUOUS
 62
         7
100
AcDbLine
 10
1837.9165156795
 20
117.3274144385
 30
0.0
 11
1833.9413095983
 21
117.3274144385
 31
0.0
  0
CIRCLE
  5
3FD
100
AcDbEntity
  8
L1_75
  6
CONTINUOUS
 62
         7
100
AcDbCircle
 10
1845.8340594905
 20
112.2524144385
 30
0.0
 40
9.5
  0
LINE
  5
3FE
100
AcDbEntity
  8
L1_75
  6
CONTINUOUS
 62
         7
100
AcDbLine
 10
1857.7268093828
 20
107.1774144385
 30
0.0
 11
1853.7516033016
 21
107.1774144385
 31
0.0
  0
LINE
  5
3FF
100
AcDbEntity
  8
L1_75
  6
CONTINUOUS
 62
         7
100
AcDbLine
 10
1857.7268093828
 20
117.3274144385
 30
0.0
 11
1853.7516033016
 21
117.3274144385
 31
0.0
  0
CIRCLE
  5
400
100
AcDbEntity
  8
L1_75
  6
CONTINUOUS
 62
         7
100
AcDbCircle
 10
1845.8340594905
 20
112.2524144385
 30
0.0
 40
13.0
  0
CIRCLE
  5
401
100
AcDbEntity
  8
L1_75
  6
CONTINUOUS
 62
         7
100
AcDbCircle
 10
1845.8340594905
 20
112.2524144385
 30
0.0
 40
16.5
  0
CIRCLE
  5
402
100
AcDbEntity
  8
L1_75
  6
CONTINUOUS
 62
         7
100
AcDbCircle
 10
1845.8340594905
 20
112.2524144385
 30
0.0
 40
13.5
  0
DIMENSION
  5
405
100
AcDbEntity
  8
L1_75
  6
CONTINUOUS
 62
         4
100
AcDbDimension
  2
*D5
 10
1669.0997665144
 20
128.7524144385
 30
0.0
 11
1665.0397665144
 21
100.103933687
 31
0.0
  3
DIMSTYLE1
100
AcDbAlignedDimension
 13
1555.2786999334
 23
128.7524144385
 33
0.0
 14
1555.2786999334
 24
95.7524144385
 34
0.0
 50
90.0
100
AcDbRotatedDimension
  0
ARC
  5
413
100
AcDbEntity
  8
L1_75
  6
CONTINUOUS
 62
         7
100
AcDbCircle
 10
1543.8786999334
 20
129.7524144385
 30
0.0
 40
1.0
100
AcDbArc
 50
180.0
 51
270.0
  0
ARC
  5
414
100
AcDbEntity
  8
L1_75
  6
CONTINUOUS
 62
         7
100
AcDbCircle
 10
1543.8786999334
 20
94.7524144385
 30
0.0
 40
1.0
100
AcDbArc
 50
90.0
 51
180.0
  0
LINE
  5
415
100
AcDbEntity
  8
L1_75
  6
CONTINUOUS
 62
         7
100
AcDbLine
 10
1542.8786999334
 20
-79.4900166132
 30
0.0
 11
1542.8786999334
 21
-109.2400166132
 31
0.0
  0
LINE
  5
416
100
AcDbEntity
  8
L1_75
  6
CONTINUOUS
 62
         7
100
AcDbLine
 10
1542.8786999334
 20
-144.2400166132
 30
0.0
 11
1542.8786999334
 21
-173.9900166132
 31
0.0
  0
ARC
  5
417
100
AcDbEntity
  8
L1_75
  6
CONTINUOUS
 62
         7
100
AcDbCircle
 10
1543.8786999334
 20
-109.2400166132
 30
0.0
 40
1.0
100
AcDbArc
 50
180.0
 51
270.0
  0
ARC
  5
418
100
AcDbEntity
  8
L1_75
  6
CONTINUOUS
 62
         7
100
AcDbCircle
 10
1543.8786999334
 20
-144.2400166132
 30
0.0
 40
1.0
100
AcDbArc
 50
90.0
 51
180.0
  0
LINE
  5
419
100
AcDbEntity
  8
L1_75
  6
DASHED
 62
         2
100
AcDbLine
 10
1547.2786999334
 20
95.7524144385
 30
0.0
 11
1547.2786999334
 21
128.7524144385
 31
0.0
  0
INSERT
  5
46D
100
AcDbEntity
  8
0
  6
CONTINUOUS
100
AcDbBlockReference
  2
*X6
 10
0.0
 20
0.0
 30
0.0
  0
ENDSEC
  0
SECTION
  2
OBJECTS
  0
DICTIONARY
  5
19
100
AcDbDictionary
  3
ACAD_GROUP
350
1A
  3
ACAD_MLINESTYLE
350
1B
  0
DICTIONARY
  5
1A
102
{ACAD_REACTORS
330
19
102
}
100
AcDbDictionary
  0
DICTIONARY
  5
1B
102
{ACAD_REACTORS
330
19
102
}
100
AcDbDictionary
  3
STANDARD
350
1C
  0
MLINESTYLE
  5
1C
102
{ACAD_REACTORS
330
1B
102
}
100
AcDbMlineStyle
  2
STANDARD
 70
         0
  3

 62
         0
 51
90.0
 52
90.0
 71
         2
 49
0.5
 62
       256
  6
BYLAYER
 49
-0.5
 62
       256
  6
BYLAYER
  0
ENDSEC
  0
EOF
