  0
SECTION
  2
HEADER
  9
$ACADVER
  1
AC1014
  9
$ACADMAINTVER
 70
         0
  9
$DWGCODEPAGE
  3
BIG5
  9
$INSBASE
 10
0.0
 20
0.0
 30
0.0
  9
$EXTMIN
 10
1115.6764280214
 20
-195.1466958251
 30
0.0
  9
$EXTMAX
 10
1970.0809718454
 20
237.3002468359
 30
0.0
  9
$LIMMIN
 10
0.0
 20
0.0
  9
$LIMMAX
 10
0.0
 20
0.0
  9
$ORTHOMODE
 70
         0
  9
$REGENMODE
 70
         1
  9
$FILLMODE
 70
         1
  9
$QTEXTMODE
 70
         0
  9
$MIRRTEXT
 70
         1
  9
$DRAGMODE
 70
         2
  9
$LTSCALE
 40
1.0
  9
$OSMODE
 70
         0
  9
$ATTMODE
 70
         1
  9
$TEXTSIZE
 40
3.5
  9
$TRACEWID
 40
0.05
  9
$TEXTSTYLE
  7
STANDARD
  9
$CLAYER
  8
0
  9
$CELTYPE
  6
CONTINUOUS
  9
$CECOLOR
 62
        16
  9
$CELTSCALE
 40
1.0
  9
$DELOBJ
 70
         1
  9
$DISPSILH
 70
         0
  9
$DIMSCALE
 40
1.0
  9
$DIMASZ
 40
0.18
  9
$DIMEXO
 40
0.0625
  9
$DIMDLI
 40
0.38
  9
$DIMRND
 40
0.0
  9
$DIMDLE
 40
0.0
  9
$DIMEXE
 40
0.25
  9
$DIMTP
 40
0.01
  9
$DIMTM
 40
-0.01
  9
$DIMTXT
 40
3.5
  9
$DIMCEN
 40
0.09
  9
$DIMTSZ
 40
0.0
  9
$DIMTOL
 70
         0
  9
$DIMLIM
 70
         0
  9
$DIMTIH
 70
         1
  9
$DIMTOH
 70
         1
  9
$DIMSE1
 70
         0
  9
$DIMSE2
 70
         0
  9
$DIMTAD
 70
         0
  9
$DIMZIN
 70
         0
  9
$DIMBLK
  1

  9
$DIMASO
 70
         1
  9
$DIMSHO
 70
         1
  9
$DIMPOST
  1

  9
$DIMAPOST
  1

  9
$DIMALT
 70
         0
  9
$DIMALTD
 70
         2
  9
$DIMALTF
 40
25.4
  9
$DIMLFAC
 40
1.0
  9
$DIMTOFL
 70
         0
  9
$DIMTVP
 40
0.0
  9
$DIMTIX
 70
         0
  9
$DIMSOXD
 70
         0
  9
$DIMSAH
 70
         0
  9
$DIMBLK1
  1

  9
$DIMBLK2
  1

  9
$DIMSTYLE
  2
STANDARD
  9
$DIMCLRD
 70
         0
  9
$DIMCLRE
 70
         0
  9
$DIMCLRT
 70
        16
  9
$DIMTFAC
 40
0.7
  9
$DIMGAP
 40
0.09
  9
$DIMJUST
 70
         0
  9
$DIMSD1
 70
         0
  9
$DIMSD2
 70
         0
  9
$DIMTOLJ
 70
         1
  9
$DIMTZIN
 70
         0
  9
$DIMALTZ
 70
         0
  9
$DIMALTTZ
 70
         0
  9
$DIMFIT
 70
         3
  9
$DIMUPT
 70
         0
  9
$DIMUNIT
 70
         2
  9
$DIMDEC
 70
         4
  9
$DIMTDEC
 70
         4
  9
$DIMALTU
 70
         2
  9
$DIMALTTD
 70
         2
  9
$DIMTXSTY
  7
STANDARD
  9
$DIMAUNIT
 70
         0
  9
$LUNITS
 70
         2
  9
$LUPREC
 70
        10
  9
$SKETCHINC
 40
0.1
  9
$FILLETRAD
 40
0.0
  9
$AUNITS
 70
         0
  9
$AUPREC
 70
         0
  9
$MENU
  1
acad
  9
$ELEVATION
 40
0.0
  9
$PELEVATION
 40
0.0
  9
$THICKNESS
 40
0.0
  9
$LIMCHECK
 70
         0
  9
$BLIPMODE
 70
         1
  9
$CHAMFERA
 40
0.0
  9
$CHAMFERB
 40
0.0
  9
$CHAMFERC
 40
0.0
  9
$CHAMFERD
 40
0.0
  9
$SKPOLY
 70
         0
  9
$TDCREATE
 40
0.000000000
  9
$TDUPDATE
 40
0.000000000
  9
$TDINDWG
 40
0.0000000000
  9
$TDUSRTIMER
 40
0.0000000000
  9
$USRTIMER
 70
         1
  9
$ANGBASE
 50
0.0
  9
$ANGDIR
 70
         0
  9
$PDMODE
 70
         2
  9
$PDSIZE
 40
0.0
  9
$PLINEWID
 40
0.0
  9
$COORDS
 70
         1
  9
$SPLFRAME
 70
         0
  9
$SPLINETYPE
 70
         6
  9
$SPLINESEGS
 70
         8
  9
$ATTDIA
 70
         0
  9
$ATTREQ
 70
         1
  9
$HANDLING
 70
         1
  9
$HANDSEED
  5
4C6
  9
$SURFTAB1
 70
         6
  9
$SURFTAB2
 70
         6
  9
$SURFTYPE
 70
         6
  9
$SURFU
 70
         6
  9
$SURFV
 70
         6
  9
$UCSNAME
  2

  9
$UCSORG
 10
0.0
 20
0.0
 30
0.0
  9
$UCSXDIR
 10
1.0
 20
0.0
 30
0.0
  9
$UCSYDIR
 10
0.0
 20
1.0
 30
0.0
  9
$PUCSNAME
  2

  9
$PUCSORG
 10
0.0
 20
0.0
 30
0.0
  9
$PUCSXDIR
 10
1.0
 20
0.0
 30
0.0
  9
$PUCSYDIR
 10
0.0
 20
1.0
 30
0.0
  9
$USERI1
 70
         0
  9
$USERI2
 70
         0
  9
$USERI3
 70
         0
  9
$USERI4
 70
         0
  9
$USERI5
 70
         0
  9
$USERR1
 40
0.0
  9
$USERR2
 40
0.0
  9
$USERR3
 40
0.0
  9
$USERR4
 40
0.0
  9
$USERR5
 40
0.0
  9
$WORLDVIEW
 70
         1
  9
$SHADEDGE
 70
         3
  9
$SHADEDIF
 70
        70
  9
$TILEMODE
 70
         1
  9
$MAXACTVP
 70
        16
  9
$PINSBASE
 10
0.0
 20
0.0
 30
0.0
  9
$PLIMCHECK
 70
         0
  9
$PEXTMIN
 10
1.0000000000E+20
 20
1.0000000000E+20
 30
1.0000000000E+20
  9
$PEXTMAX
 10
-1.0000000000E+20
 20
-1.0000000000E+20
 30
-1.0000000000E+20
  9
$PLIMMIN
 10
0.0
 20
0.0
  9
$PLIMMAX
 10
12.0
 20
9.0
  9
$UNITMODE
 70
         0
  9
$VISRETAIN
 70
         0
  9
$PLINEGEN
 70
         1
  9
$PSLTSCALE
 70
         0
  9
$TREEDEPTH
 70
      3020
  9
$PICKSTYLE
 70
         1
  9
$CMLSTYLE
  2
STANDARD
  9
$CMLJUST
 70
         0
  9
$CMLSCALE
 40
1.0
  9
$PROXYGRAPHICS
 70
         0
  9
$MEASUREMENT
 70
         0
  0
ENDSEC
  0
SECTION
  2
CLASSES
  0
CLASS
  1
LWPOLYLINE
  2
AcDbPolyline
  3
"AutoCAD"
 90
        0
280
         0
281
         1
  0
CLASS
  1
IMAGE
  2
AcDbRasterImage
  3
ISM
 90
      127
280
         0
281
         1
  0
CLASS
  1
OLE2FRAME
  2
AcDbOle2Frame
  3
""
 90
        0
280
         0
281
         1
  0
CLASS
  1
HATCH
  2
AcDbHatch
  3
"ACAD_SEDONA"
 90
        0
280
         0
281
         1
  0
CLASS
  1
DICTIONARYVAR
  2
AcDbDictionaryVar
  3
"AutoCAD"
 90
        0
280
         0
281
         0
  0
CLASS
  1
RASTERVARIABLES
  2
AcDbRasterVariables
  3
ISM
 90
        0
280
         0
281
         0
  0
CLASS
  1
IMAGEDEF
  2
AcDbRasterImageDef
  3
ISM
 90
        0
280
         0
281
         0
  0
CLASS
  1
IMAGEDEF_REACTOR
  2
AcDbRasterImageDefReactor
  3
ISM
 90
        1
280
         0
281
         0
  0
CLASS
  1
IDBUFFER
  2
AcDbIdBuffer
  3
"Acad"
 90
        0
280
         0
281
         0
  0
CLASS
  1
SPATIAL_FILTER
  2
AcDbSpatialFilter
  3
"Acad"
 90
        0
280
         0
281
         0
  0
CLASS
  1
XRECORD
  2
AcDbXrecord
  3
"<Built In>"
 90
        0
280
         0
281
         0
  0
CLASS
  1
SORTENTSTABLE
  2
AcDbSortentsTable
  3
"AutoCAD"
 90
        0
280
         0
281
         0
  0
CLASS
  1
LAYER_INDEX
  2
AcDbLayerIndex
  3
"Acad"
 90
        0
280
         0
281
         0
  0
CLASS
  1
SPATIAL_INDEX
  2
AcDbSpatialIndex
  3
"Acad"
 90
        0
280
         0
281
         0
  0
CLASS
  1
OBJECT_PTR
  2
CAseDLPNTableRecord
  3
"ASE-LPNTableRecord"
 90
        1
280
         0
281
         0
  0
CLASS
  1
LAYOUT
  2
AcDbLayout
  3
"AutoCAD 2000"
 90
        1
280
         0
281
         0
  0
CLASS
  1
PLOTSETTINGS
  2
AcDbPlotSettings
  3
"AutoCAD 2000"
 90
        1
280
         0
281
         0
  0
CLASS
  1
ACDBDICTIONARYWDFLT
  2
AcDbDictionaryWithDefault
  3
"AutoCAD 2000"
 90
        1
280
         0
281
         0
  0
CLASS
  1
ACDBPLACEHOLDER
  2
AcDbPlaceHolder
  3
"AutoCAD 2000"
 90
        1
280
         0
281
         0
  0
CLASS
  1
VBA_PROJECT
  2
AcDbVbaProject
  3
"acadvba"
 90
        1
280
         0
281
         0
  0
CLASS
  1
WIPEOUT
  2
AcDbWipeout
  3
WipeOut|AutoCAD Express Tool|expresstools@autodesk.com
 90
      127
280
         0
281
         1
  0
CLASS
  1
WIPEOUTVARIABLES
  2
AcDbWipeoutVariables
  3
WipeOut|AutoCAD Express Tool|expresstools@autodesk.com
 90
        0
280
         0
281
         0
  0
CLASS
  1
RTEXT
  2
RText
  3
RText|AutoCAD Express Tool|expresstools@autodesk.com
 90
        0
280
         0
281
         1
  0
CLASS
  1
ARCALIGNEDTEXT
  2
AcDbArcAlignedText
  3
ATEXT|AutoCAD Express Tool|expresstools@autodesk.com
 90
        0
280
         0
281
         1
  0
ENDSEC
  0
SECTION
  2
TABLES
  0
TABLE
  2
VPORT
  5
7
100
AcDbSymbolTable
 70
         1
  0
VPORT
  5
15
100
AcDbSymbolTableRecord
100
AcDbViewportTableRecord
  2
*ACTIVE
 70
         0
 10
0.0
 20
0.0
 11
1.0
 21
1.0
 12
1542.8786999334
 22
21.0767755054
 13
0.0
 23
0.0
 14
1.0
 24
1.0
 15
0.0
 25
0.0
 16
0.0
 26
0.0
 36
1.0
 17
0.0
 27
0.0
 37
0.0
 40
432.4469426609
 41
1.9757442117
 42
50.0
 43
0.0
 44
0.0
 50
0.0
 51
0.0
 71
         0
 72
       100
 73
         1
 74
         1
 75
         0
 76
         0
 77
         0
 78
         0
  0
ENDTAB
  0
TABLE
  2
LTYPE
  5
4
100
AcDbSymbolTable
 70
         6
  0
LTYPE
  5
11
100
AcDbSymbolTableRecord
100
AcDbLinetypeTableRecord
  2
BYBLOCK
 70
        64
  3

 72
        65
 73
         0
 40
0.0
  0
LTYPE
  5
12
100
AcDbSymbolTableRecord
100
AcDbLinetypeTableRecord
  2
BYLAYER
 70
        64
  3

 72
        65
 73
         0
 40
0.0
  0
LTYPE
  5
13
100
AcDbSymbolTableRecord
100
AcDbLinetypeTableRecord
  2
CONTINUOUS
 70
        64
  3
Solid line
 72
        65
 73
         0
 40
0.0
  0
LTYPE
  5
1D
100
AcDbSymbolTableRecord
100
AcDbLinetypeTableRecord
  2
DASHED
 70
        64
  3
_ _ _ _ _ _ _ _ _ _ _ _ _ _ _ _
 72
        65
 73
         2
 40
0.2
 49
0.1
 74
         0
 49
-0.1
 74
         0
  0
LTYPE
  5
1E
100
AcDbSymbolTableRecord
100
AcDbLinetypeTableRecord
  2
CENTER
 70
        64
  3
___ _ ___ _ ___ _ ___ _ ___ _ ___ _ ___ _ ___ _
 72
        65
 73
         4
 40
0.95
 49
0.625
 74
         0
 49
-0.125
 74
         0
 49
0.075
 74
         0
 49
-0.125
 74
         0
  0
LTYPE
  5
1F
100
AcDbSymbolTableRecord
100
AcDbLinetypeTableRecord
  2
PHANTOM
 70
        64
  3
______  __  __  ______  __  __  ______  __  __  
 72
        65
 73
         6
 40
1.025
 49
0.625
 74
         0
 49
-0.125
 74
         0
 49
0.075
 74
         0
 49
-0.125
 74
         0
 49
0.075
 74
         0
 49
-0.125
 74
         0
  0
ENDTAB
  0
TABLE
  2
LAYER
  5
2
100
AcDbSymbolTable
 70
         5
  0
LAYER
  5
14
100
AcDbSymbolTableRecord
100
AcDbLayerTableRecord
  2
0
 70
         0
 62
         7
  6
CONTINUOUS
  0
LAYER
  5
21
100
AcDbSymbolTableRecord
100
AcDbLayerTableRecord
  2
_____U
 70
         1
 62
         7
  6
CONTINUOUS
  0
LAYER
  5
22
100
AcDbSymbolTableRecord
100
AcDbLayerTableRecord
  2
_Y__________
 70
         0
 62
         7
  6
CONTINUOUS
  0
LAYER
  5
23
100
AcDbSymbolTableRecord
100
AcDbLayerTableRecord
  2
L1_100
 70
         0
 62
         7
  6
CONTINUOUS
  0
LAYER
  5
166
100
AcDbSymbolTableRecord
100
AcDbLayerTableRecord
  2
DEFPOINTS
 70
         0
 62
        -7
  6
CONTINUOUS
  0
ENDTAB
  0
TABLE
  2
STYLE
  5
3
100
AcDbSymbolTable
 70
         8
  0
STYLE
  5
17
100
AcDbSymbolTableRecord
100
AcDbTextStyleTableRecord
  2
STANDARD
 70
         0
 40
0.0
 41
1.0
 50
0.0
 71
         0
 42
0.0
  3
txt
  4

  0
STYLE
  5
16F
100
AcDbSymbolTableRecord
100
AcDbTextStyleTableRecord
  2
BOX
 70
         0
 40
1.0
 41
1.0
 50
0.0
 71
         0
 42
0.2
  3
txt.shx
  4

  0
STYLE
  5
17D
100
AcDbSymbolTableRecord
100
AcDbTextStyleTableRecord
  2
BOX
 70
         0
 40
1.0
 41
1.0
 50
0.0
 71
         0
 42
0.2
  3
txt.shx
  4

  0
STYLE
  5
2F2
100
AcDbSymbolTableRecord
100
AcDbTextStyleTableRecord
  2
BOX
 70
         0
 40
1.0
 41
1.0
 50
0.0
 71
         0
 42
0.2
  3
txt.shx
  4

  0
STYLE
  5
30D
100
AcDbSymbolTableRecord
100
AcDbTextStyleTableRecord
  2
BOX
 70
         0
 40
1.0
 41
1.0
 50
0.0
 71
         0
 42
0.2
  3
txt.shx
  4

  0
STYLE
  5
457
100
AcDbSymbolTableRecord
100
AcDbTextStyleTableRecord
  2
BOX
 70
         0
 40
1.0
 41
1.0
 50
0.0
 71
         0
 42
0.2
  3
txt.shx
  4

  0
STYLE
  5
465
100
AcDbSymbolTableRecord
100
AcDbTextStyleTableRecord
  2
BOX
 70
         0
 40
1.0
 41
1.0
 50
0.0
 71
         0
 42
0.2
  3
txt.shx
  4

  0
STYLE
  5
4C4
100
AcDbSymbolTableRecord
100
AcDbTextStyleTableRecord
  2
BOX
 70
         0
 40
1.0
 41
1.0
 50
0.0
 71
         0
 42
0.2
  3
txt.shx
  4

  0
ENDTAB
  0
TABLE
  2
VIEW
  5
5
100
AcDbSymbolTable
 70
         0
  0
ENDTAB
  0
TABLE
  2
UCS
  5
6
100
AcDbSymbolTable
 70
         1
  0
UCS
  5
20
100
AcDbSymbolTableRecord
100
AcDbUCSTableRecord
  2
CK_VIEW_1
 70
         0
 10
0.0
 20
0.0
 30
1.0
 11
1.0
 21
0.0
 31
0.0
 12
0.0
 22
1.0
 32
0.0
  0
ENDTAB
  0
TABLE
  2
APPID
  5
8
100
AcDbSymbolTable
 70
         1
  0
APPID
  5
16
100
AcDbSymbolTableRecord
100
AcDbRegAppTableRecord
  2
ACAD
 70
         0
  0
ENDTAB
  0
TABLE
  2
DIMSTYLE
  5
9
100
AcDbSymbolTable
 70
         2
  0
DIMSTYLE
105
18
100
AcDbSymbolTableRecord
100
AcDbDimStyleTableRecord
  2
STANDARD
 70
         0
  3

  4

  5

  6

  7

 40
1.0
 41
0.18
 42
0.0625
 43
0.38
 44
0.18
 45
0.0
 46
0.0
 47
0.0
 48
0.0
 71
         0
 72
         0
 73
         1
 74
         1
 75
         0
 76
         0
 77
         0
 78
         0
140
0.18
141
0.09
142
0.0
143
25.4
144
1.0
145
0.0
146
1.0
147
0.09
170
         0
171
         2
172
         0
173
         0
174
         0
175
         0
176
         0
177
         0
178
         0
270
         2
271
         4
272
         4
273
         2
274
         2
275
         0
280
         0
281
         0
282
         0
283
         1
284
         0
285
         0
286
         0
287
         0
288
         0
340
17
  0
DIMSTYLE
105
162
100
AcDbSymbolTableRecord
100
AcDbDimStyleTableRecord
  2
DIMSTYLE1
 70
         0
  3

  4

  5

  6

  7

 40
1.0
 41
3.5
 42
0.0625
 43
0.38
 44
3.5
 45
0.0
 46
0.0
 47
0.0
 48
0.0
 71
         0
 72
         0
 73
         1
 74
         1
 75
         0
 76
         0
 77
         0
 78
         0
140
3.5
141
0.09
142
0.0
143
25.4
144
1.0
145
0.0
146
1.0
147
0.09
170
         0
171
         2
172
         0
173
         0
174
         0
175
         0
176
         0
177
         0
178
         0
270
         2
271
         4
272
         4
273
         2
274
         2
275
         0
280
         0
281
         0
282
         0
283
         1
284
         0
285
         0
286
         0
287
         0
288
         0
340
17
  0
ENDTAB
  0
TABLE
  2
BLOCK_RECORD
  5
1
100
AcDbSymbolTable
 70
         7
  0
BLOCK_RECORD
  5
A
100
AcDbSymbolTableRecord
100
AcDbBlockTableRecord
  2
*MODEL_SPACE
  0
BLOCK_RECORD
  5
B
100
AcDbSymbolTableRecord
100
AcDbBlockTableRecord
  2
*PAPER_SPACE
  0
BLOCK_RECORD
  5
163
100
AcDbSymbolTableRecord
100
AcDbBlockTableRecord
  2
*D0
  0
BLOCK_RECORD
  5
172
100
AcDbSymbolTableRecord
100
AcDbBlockTableRecord
  2
*D1
  0
BLOCK_RECORD
  5
2E7
100
AcDbSymbolTableRecord
100
AcDbBlockTableRecord
  2
*D2
  0
BLOCK_RECORD
  5
302
100
AcDbSymbolTableRecord
100
AcDbBlockTableRecord
  2
*D3
  0
BLOCK_RECORD
  5
44C
100
AcDbSymbolTableRecord
100
AcDbBlockTableRecord
  2
*D4
  0
BLOCK_RECORD
  5
45A
100
AcDbSymbolTableRecord
100
AcDbBlockTableRecord
  2
*D5
  0
BLOCK_RECORD
  5
468
100
AcDbSymbolTableRecord
100
AcDbBlockTableRecord
  2
*X6
  0
ENDTAB
  0
ENDSEC
  0
SECTION
  2
BLOCKS
  0
BLOCK
  5
D
100
AcDbEntity
  8
0
100
AcDbBlockBegin
  2
*MODEL_SPACE
 70
         0
 10
0.0
 20
0.0
 30
0.0
  3
*MODEL_SPACE
  1

  0
ENDBLK
  5
E
100
AcDbEntity
  8
0
100
AcDbBlockEnd
  0
BLOCK
  5
F
100
AcDbEntity
 67
         1
  8
0
100
AcDbBlockBegin
  2
*PAPER_SPACE
 70
         0
 10
0.0
 20
0.0
 30
0.0
  3
*PAPER_SPACE
  1

  0
ENDBLK
  5
10
100
AcDbEntity
 67
         1
  8
0
100
AcDbBlockEnd
  0
BLOCK
  5
164
100
AcDbEntity
  8
0
100
AcDbBlockBegin
  2
*D0
 70
        65
 10
0.0
 20
0.0
 30
0.0
  3
*D0
  1

  0
POINT
  5
167
100
AcDbEntity
  8
DEFPOINTS
  6
CONTINUOUS
 62
         0
100
AcDbPoint
 10
1684.0780484605
 20
135.2524144385
 30
0.0
  0
POINT
  5
168
100
AcDbEntity
  8
DEFPOINTS
  6
CONTINUOUS
 62
         0
100
AcDbPoint
 10
1576.2786999334
 20
135.2524144385
 30
0.0
  0
POINT
  5
169
100
AcDbEntity
  8
DEFPOINTS
  6
CONTINUOUS
 62
         0
100
AcDbPoint
 10
1576.2786999334
 20
89.2524144385
 30
0.0
  0
LINE
  5
16A
100
AcDbEntity
  8
L1_100
  6
CONTINUOUS
 62
         4
100
AcDbLine
 10
1578.0286999334
 20
135.2524144385
 30
0.0
 11
1684.9530484605
 21
135.2524144385
 31
0.0
  0
LINE
  5
16B
100
AcDbEntity
  8
L1_100
  6
CONTINUOUS
 62
         4
100
AcDbLine
 10
1578.0286999334
 20
89.2524144385
 30
0.0
 11
1684.9530484605
 21
89.2524144385
 31
0.0
  0
LINE
  5
16C
100
AcDbEntity
  8
L1_100
  6
CONTINUOUS
 62
         4
100
AcDbLine
 10
1684.0780484605
 20
135.2524144385
 30
0.0
 11
1684.0780484605
 21
89.2524144385
 31
0.0
  0
SOLID
  5
16D
100
AcDbEntity
  8
L1_100
  6
CONTINUOUS
 62
         4
100
AcDbTrace
 10
1684.0780484605
 20
135.2524144385
 30
0.0
 11
1684.6030484605
 21
131.7524144385
 31
0.0
 12
1683.5530484605
 22
131.7524144385
 32
0.0
 13
1684.0780484605
 23
135.2524144385
 33
0.0
  0
SOLID
  5
16E
100
AcDbEntity
  8
L1_100
  6
CONTINUOUS
 62
         4
100
AcDbTrace
 10
1684.0780484605
 20
89.2524144385
 30
0.0
 11
1683.5530484605
 21
92.7524144385
 31
0.0
 12
1684.6030484605
 22
92.7524144385
 32
0.0
 13
1684.0780484605
 23
89.2524144385
 33
0.0
  0
TEXT
  5
170
100
AcDbEntity
  8
L1_100
  6
CONTINUOUS
 62
         4
100
AcDbText
 10
1680.0180484605
 20
99.3516873381
 30
0.0
 40
3.5
  1
崷46
 50
90.0
  7
BOX
100
AcDbText
  0
ENDBLK
  5
171
100
AcDbEntity
  8
0
  6
CONTINUOUS
100
AcDbBlockEnd
  0
BLOCK
  5
173
100
AcDbEntity
  8
0
100
AcDbBlockBegin
  2
*D1
 70
        65
 10
0.0
 20
0.0
 30
0.0
  3
*D1
  1

  0
POINT
  5
175
100
AcDbEntity
  8
DEFPOINTS
  6
CONTINUOUS
 62
         0
100
AcDbPoint
 10
1662.5453752826
 20
132.2524144385
 30
0.0
  0
POINT
  5
176
100
AcDbEntity
  8
DEFPOINTS
  6
CONTINUOUS
 62
         0
100
AcDbPoint
 10
1623.2786999334
 20
132.2524144385
 30
0.0
  0
POINT
  5
177
100
AcDbEntity
  8
DEFPOINTS
  6
CONTINUOUS
 62
         0
100
AcDbPoint
 10
1623.2786999334
 20
92.2524144385
 30
0.0
  0
LINE
  5
178
100
AcDbEntity
  8
L1_100
  6
CONTINUOUS
 62
         4
100
AcDbLine
 10
1625.0286999334
 20
132.2524144385
 30
0.0
 11
1663.4203752826
 21
132.2524144385
 31
0.0
  0
LINE
  5
179
100
AcDbEntity
  8
L1_100
  6
CONTINUOUS
 62
         4
100
AcDbLine
 10
1625.0286999334
 20
92.2524144385
 30
0.0
 11
1663.4203752826
 21
92.2524144385
 31
0.0
  0
LINE
  5
17A
100
AcDbEntity
  8
L1_100
  6
CONTINUOUS
 62
         4
100
AcDbLine
 10
1662.5453752826
 20
132.2524144385
 30
0.0
 11
1662.5453752826
 21
92.2524144385
 31
0.0
  0
SOLID
  5
17B
100
AcDbEntity
  8
L1_100
  6
CONTINUOUS
 62
         4
100
AcDbTrace
 10
1662.5453752826
 20
132.2524144385
 30
0.0
 11
1663.0703752826
 21
128.7524144385
 31
0.0
 12
1662.0203752826
 22
128.7524144385
 32
0.0
 13
1662.5453752826
 23
132.2524144385
 33
0.0
  0
SOLID
  5
17C
100
AcDbEntity
  8
L1_100
  6
CONTINUOUS
 62
         4
100
AcDbTrace
 10
1662.5453752826
 20
92.2524144385
 30
0.0
 11
1662.0203752826
 21
95.7524144385
 31
0.0
 12
1663.0703752826
 22
95.7524144385
 32
0.0
 13
1662.5453752826
 23
92.2524144385
 33
0.0
  0
TEXT
  5
17E
100
AcDbEntity
  8
L1_100
  6
CONTINUOUS
 62
         4
100
AcDbText
 10
1658.4853752826
 20
100.2060959569
 30
0.0
 40
3.5
  1
崷40
 50
90.0
  7
BOX
100
AcDbText
  0
ENDBLK
  5
17F
100
AcDbEntity
  8
0
  6
CONTINUOUS
100
AcDbBlockEnd
  0
BLOCK
  5
2E8
100
AcDbEntity
  8
0
100
AcDbBlockBegin
  2
*D2
 70
        65
 10
0.0
 20
0.0
 30
0.0
  3
*D2
  1

  0
POINT
  5
2EA
100
AcDbEntity
  8
DEFPOINTS
  6
CONTINUOUS
 62
         0
100
AcDbPoint
 10
1660.7834125432
 20
-111.2400166132
 30
0.0
  0
POINT
  5
2EB
100
AcDbEntity
  8
DEFPOINTS
  6
CONTINUOUS
 62
         0
100
AcDbPoint
 10
1621.7786999334
 20
-111.2400166132
 30
0.0
  0
POINT
  5
2EC
100
AcDbEntity
  8
DEFPOINTS
  6
CONTINUOUS
 62
         0
100
AcDbPoint
 10
1621.7786999334
 20
-142.2400166132
 30
0.0
  0
LINE
  5
2ED
100
AcDbEntity
  8
L1_100
  6
CONTINUOUS
 62
         4
100
AcDbLine
 10
1623.5286999334
 20
-111.2400166132
 30
0.0
 11
1661.6584125432
 21
-111.2400166132
 31
0.0
  0
LINE
  5
2EE
100
AcDbEntity
  8
L1_100
  6
CONTINUOUS
 62
         4
100
AcDbLine
 10
1623.5286999334
 20
-142.2400166132
 30
0.0
 11
1661.6584125432
 21
-142.2400166132
 31
0.0
  0
LINE
  5
2EF
100
AcDbEntity
  8
L1_100
  6
CONTINUOUS
 62
         4
100
AcDbLine
 10
1660.7834125432
 20
-111.2400166132
 30
0.0
 11
1660.7834125432
 21
-142.2400166132
 31
0.0
  0
SOLID
  5
2F0
100
AcDbEntity
  8
L1_100
  6
CONTINUOUS
 62
         4
100
AcDbTrace
 10
1660.7834125432
 20
-111.2400166132
 30
0.0
 11
1661.3084125432
 21
-114.7400166132
 31
0.0
 12
1660.2584125432
 22
-114.7400166132
 32
0.0
 13
1660.7834125432
 23
-111.2400166132
 33
0.0
  0
SOLID
  5
2F1
100
AcDbEntity
  8
L1_100
  6
CONTINUOUS
 62
         4
100
AcDbTrace
 10
1660.7834125432
 20
-142.2400166132
 30
0.0
 11
1660.2584125432
 21
-138.7400166132
 31
0.0
 12
1661.3084125432
 22
-138.7400166132
 32
0.0
 13
1660.7834125432
 23
-142.2400166132
 33
0.0
  0
TEXT
  5
2F3
100
AcDbEntity
  8
L1_100
  6
CONTINUOUS
 62
         4
100
AcDbText
 10
1656.7234125432
 20
-137.391230499
 30
0.0
 40
3.5
  1
崷31
 50
90.0
  7
BOX
100
AcDbText
  0
ENDBLK
  5
2F4
100
AcDbEntity
  8
0
  6
CONTINUOUS
100
AcDbBlockEnd
  0
BLOCK
  5
303
100
AcDbEntity
  8
0
100
AcDbBlockBegin
  2
*D3
 70
        65
 10
0.0
 20
0.0
 30
0.0
  3
*D3
  1

  0
POINT
  5
305
100
AcDbEntity
  8
DEFPOINTS
  6
CONTINUOUS
 62
         0
100
AcDbPoint
 10
1623.7786999334
 20
-166.7650741172
 30
0.0
  0
POINT
  5
306
100
AcDbEntity
  8
DEFPOINTS
  6
CONTINUOUS
 62
         0
100
AcDbPoint
 10
1623.7786999334
 20
-135.4900166132
 30
0.0
  0
POINT
  5
307
100
AcDbEntity
  8
DEFPOINTS
  6
CONTINUOUS
 62
         0
100
AcDbPoint
 10
1582.7786999334
 20
-142.7400166132
 30
0.0
  0
LINE
  5
308
100
AcDbEntity
  8
L1_100
  6
CONTINUOUS
 62
         4
100
AcDbLine
 10
1623.7786999334
 20
-137.2400166132
 30
0.0
 11
1623.7786999334
 21
-167.6400741172
 31
0.0
  0
LINE
  5
309
100
AcDbEntity
  8
L1_100
  6
CONTINUOUS
 62
         4
100
AcDbLine
 10
1582.7786999334
 20
-144.4900166132
 30
0.0
 11
1582.7786999334
 21
-167.6400741172
 31
0.0
  0
LINE
  5
30A
100
AcDbEntity
  8
L1_100
  6
CONTINUOUS
 62
         4
100
AcDbLine
 10
1623.7786999334
 20
-166.7650741172
 30
0.0
 11
1582.7786999334
 21
-166.7650741172
 31
0.0
  0
SOLID
  5
30B
100
AcDbEntity
  8
L1_100
  6
CONTINUOUS
 62
         4
100
AcDbTrace
 10
1623.7786999334
 20
-166.7650741172
 30
0.0
 11
1620.2786999334
 21
-167.2900741172
 31
0.0
 12
1620.2786999334
 22
-166.2400741172
 32
0.0
 13
1623.7786999334
 23
-166.7650741172
 33
0.0
  0
SOLID
  5
30C
100
AcDbEntity
  8
L1_100
  6
CONTINUOUS
 62
         4
100
AcDbTrace
 10
1582.7786999334
 20
-166.7650741172
 30
0.0
 11
1586.2786999334
 21
-166.2400741172
 31
0.0
 12
1586.2786999334
 22
-167.2900741172
 32
0.0
 13
1582.7786999334
 23
-166.7650741172
 33
0.0
  0
TEXT
  5
30E
100
AcDbEntity
  8
L1_100
  6
CONTINUOUS
 62
         4
100
AcDbText
 10
1594.7753986257
 20
-162.7050741172
 30
0.0
 40
3.5
  1
41
  7
BOX
100
AcDbText
  0
ENDBLK
  5
30F
100
AcDbEntity
  8
0
  6
CONTINUOUS
100
AcDbBlockEnd
  0
BLOCK
  5
44D
100
AcDbEntity
  8
0
100
AcDbBlockBegin
  2
*D4
 70
        65
 10
0.0
 20
0.0
 30
0.0
  3
*D4
  1

  0
POINT
  5
44F
100
AcDbEntity
  8
DEFPOINTS
  6
CONTINUOUS
 62
         0
100
AcDbPoint
 10
1422.1786999334
 20
211.518567624
 30
0.0
  0
POINT
  5
450
100
AcDbEntity
  8
DEFPOINTS
  6
CONTINUOUS
 62
         0
100
AcDbPoint
 10
1422.1786999334
 20
130.1987502026
 30
0.0
  0
POINT
  5
451
100
AcDbEntity
  8
DEFPOINTS
  6
CONTINUOUS
 62
         0
100
AcDbPoint
 10
1623.7786999334
 20
131.7524144385
 30
0.0
  0
LINE
  5
452
100
AcDbEntity
  8
L1_100
  6
CONTINUOUS
 62
         4
100
AcDbLine
 10
1422.1786999334
 20
131.9487502026
 30
0.0
 11
1422.1786999334
 21
212.393567624
 31
0.0
  0
LINE
  5
453
100
AcDbEntity
  8
L1_100
  6
CONTINUOUS
 62
         4
100
AcDbLine
 10
1623.7786999334
 20
133.5024144385
 30
0.0
 11
1623.7786999334
 21
212.393567624
 31
0.0
  0
LINE
  5
454
100
AcDbEntity
  8
L1_100
  6
CONTINUOUS
 62
         4
100
AcDbLine
 10
1422.1786999334
 20
211.518567624
 30
0.0
 11
1623.7786999334
 21
211.518567624
 31
0.0
  0
SOLID
  5
455
100
AcDbEntity
  8
L1_100
  6
CONTINUOUS
 62
         4
100
AcDbTrace
 10
1422.1786999334
 20
211.518567624
 30
0.0
 11
1425.6786999334
 21
212.043567624
 31
0.0
 12
1425.6786999334
 22
210.993567624
 32
0.0
 13
1422.1786999334
 23
211.518567624
 33
0.0
  0
SOLID
  5
456
100
AcDbEntity
  8
L1_100
  6
CONTINUOUS
 62
         4
100
AcDbTrace
 10
1623.7786999334
 20
211.518567624
 30
0.0
 11
1620.2786999334
 21
210.993567624
 31
0.0
 12
1620.2786999334
 22
212.043567624
 32
0.0
 13
1623.7786999334
 23
211.518567624
 33
0.0
  0
TEXT
  5
458
100
AcDbEntity
  8
L1_100
  6
CONTINUOUS
 62
         4
100
AcDbText
 10
1516.0534065142
 20
214.143567624
 30
0.0
 40
3.5
  1
201.6
  7
BOX
100
AcDbText
  0
ENDBLK
  5
459
100
AcDbEntity
  8
0
  6
CONTINUOUS
100
AcDbBlockEnd
  0
BLOCK
  5
45B
100
AcDbEntity
  8
0
100
AcDbBlockBegin
  2
*D5
 70
        65
 10
0.0
 20
0.0
 30
0.0
  3
*D5
  1

  0
POINT
  5
45D
100
AcDbEntity
  8
DEFPOINTS
  6
CONTINUOUS
 62
         0
100
AcDbPoint
 10
1523.7786999334
 20
201.2530685635
 30
0.0
  0
POINT
  5
45E
100
AcDbEntity
  8
DEFPOINTS
  6
CONTINUOUS
 62
         0
100
AcDbPoint
 10
1523.7786999334
 20
151.9774144385
 30
0.0
  0
POINT
  5
45F
100
AcDbEntity
  8
DEFPOINTS
  6
CONTINUOUS
 62
         0
100
AcDbPoint
 10
1623.7786999334
 20
131.7524144385
 30
0.0
  0
LINE
  5
460
100
AcDbEntity
  8
L1_100
  6
CONTINUOUS
 62
         4
100
AcDbLine
 10
1523.7786999334
 20
153.7274144385
 30
0.0
 11
1523.7786999334
 21
202.1280685635
 31
0.0
  0
LINE
  5
461
100
AcDbEntity
  8
L1_100
  6
CONTINUOUS
 62
         4
100
AcDbLine
 10
1623.7786999334
 20
133.5024144385
 30
0.0
 11
1623.7786999334
 21
202.1280685635
 31
0.0
  0
LINE
  5
462
100
AcDbEntity
  8
L1_100
  6
CONTINUOUS
 62
         4
100
AcDbLine
 10
1523.7786999334
 20
201.2530685635
 30
0.0
 11
1623.7786999334
 21
201.2530685635
 31
0.0
  0
SOLID
  5
463
100
AcDbEntity
  8
L1_100
  6
CONTINUOUS
 62
         4
100
AcDbTrace
 10
1523.7786999334
 20
201.2530685635
 30
0.0
 11
1527.2786999334
 21
201.7780685635
 31
0.0
 12
1527.2786999334
 22
200.7280685635
 32
0.0
 13
1523.7786999334
 23
201.2530685635
 33
0.0
  0
SOLID
  5
464
100
AcDbEntity
  8
L1_100
  6
CONTINUOUS
 62
         4
100
AcDbTrace
 10
1623.7786999334
 20
201.2530685635
 30
0.0
 11
1620.2786999334
 21
200.7280685635
 31
0.0
 12
1620.2786999334
 22
201.7780685635
 32
0.0
 13
1623.7786999334
 23
201.2530685635
 33
0.0
  0
TEXT
  5
466
100
AcDbEntity
  8
L1_100
  6
CONTINUOUS
 62
         4
100
AcDbText
 10
1568.4495994074
 20
203.8780685635
 30
0.0
 40
3.5
  1
100
  7
BOX
100
AcDbText
  0
ENDBLK
  5
467
100
AcDbEntity
  8
0
  6
CONTINUOUS
100
AcDbBlockEnd
  0
BLOCK
  5
469
100
AcDbEntity
  8
0
100
AcDbBlockBegin
  2
*X6
 70
        65
 10
0.0
 20
0.0
 30
0.0
  3
*X6
  1

  0
LINE
  5
46A
100
AcDbEntity
  8
L1_100
  6
CONTINUOUS
 62
         4
100
AcDbLine
 10
1620.7705534721
 20
-146.7400166132
 30
0.0
 11
1623.7261229594
 21
-143.7844471259
 31
0.0
  0
LINE
  5
46B
100
AcDbEntity
  8
L1_100
  6
CONTINUOUS
 62
         4
100
AcDbLine
 10
1617.2786999334
 20
-145.9892294648
 30
0.0
 11
1621.027912785
 21
-142.2400166132
 31
0.0
  0
LINE
  5
46C
100
AcDbEntity
  8
L1_100
  6
CONTINUOUS
 62
         4
100
AcDbLine
 10
1612.2852720979
 20
-146.7400166132
 30
0.0
 11
1616.7852720979
 21
-142.2400166132
 31
0.0
  0
LINE
  5
46D
100
AcDbEntity
  8
L1_100
  6
CONTINUOUS
 62
         4
100
AcDbLine
 10
1608.0426314108
 20
-146.7400166132
 30
0.0
 11
1612.5426314108
 21
-142.2400166132
 31
0.0
  0
LINE
  5
46E
100
AcDbEntity
  8
L1_100
  6
CONTINUOUS
 62
         4
100
AcDbLine
 10
1603.7999907236
 20
-146.7400166132
 30
0.0
 11
1608.2999907236
 21
-142.2400166132
 31
0.0
  0
LINE
  5
46F
100
AcDbEntity
  8
L1_100
  6
CONTINUOUS
 62
         4
100
AcDbLine
 10
1599.5573500365
 20
-146.7400166132
 30
0.0
 11
1604.0573500365
 21
-142.2400166132
 31
0.0
  0
LINE
  5
470
100
AcDbEntity
  8
L1_100
  6
CONTINUOUS
 62
         4
100
AcDbLine
 10
1597.8286999331
 20
-144.2260260295
 30
0.0
 11
1599.8147093494
 21
-142.2400166132
 31
0.0
  0
LINE
  5
471
100
AcDbEntity
  8
L1_100
  6
CONTINUOUS
 62
         4
100
AcDbLine
 10
1591.0720686623
 20
-146.7400166132
 30
0.0
 11
1591.3286999337
 21
-146.4833853418
 31
0.0
  0
LINE
  5
472
100
AcDbEntity
  8
L1_100
  6
CONTINUOUS
 62
         4
100
AcDbLine
 10
1586.8294279752
 20
-146.7400166132
 30
0.0
 11
1591.3294279752
 21
-142.2400166132
 31
0.0
  0
LINE
  5
473
100
AcDbEntity
  8
L1_100
  6
CONTINUOUS
 62
         4
100
AcDbLine
 10
1622.4429611689
 20
-111.1264834194
 30
0.0
 11
1623.6651667396
 21
-109.9042778487
 31
0.0
  0
LINE
  5
474
100
AcDbEntity
  8
L1_100
  6
CONTINUOUS
 62
         4
100
AcDbLine
 10
1582.086787288
 20
-147.2400166132
 30
0.0
 11
1586.586787288
 21
-142.7400166132
 31
0.0
  0
LINE
  5
475
100
AcDbEntity
  8
L1_100
  6
CONTINUOUS
 62
         4
100
AcDbLine
 10
1618.086787288
 20
-111.2400166132
 30
0.0
 11
1622.586787288
 21
-106.7400166132
 31
0.0
  0
LINE
  5
476
100
AcDbEntity
  8
L1_100
  6
CONTINUOUS
 62
         4
100
AcDbLine
 10
1575.3441466009
 20
-149.7400166132
 30
0.0
 11
1576.7786999334
 21
-148.3054632807
 31
0.0
  0
LINE
  5
477
100
AcDbEntity
  8
L1_100
  6
CONTINUOUS
 62
         4
100
AcDbLine
 10
1577.8441466009
 20
-147.2400166132
 30
0.0
 11
1582.7786999334
 21
-142.3054632807
 31
0.0
  0
LINE
  5
478
100
AcDbEntity
  8
L1_100
  6
CONTINUOUS
 62
         4
100
AcDbLine
 10
1613.8441466009
 20
-111.2400166132
 30
0.0
 11
1618.3441466009
 21
-106.7400166132
 31
0.0
  0
LINE
  5
479
100
AcDbEntity
  8
L1_100
  6
CONTINUOUS
 62
         4
100
AcDbLine
 10
1571.1015059138
 20
-149.7400166132
 30
0.0
 11
1581.2497408057
 21
-139.5917817213
 31
0.0
  0
LINE
  5
47A
100
AcDbEntity
  8
L1_100
  6
CONTINUOUS
 62
         4
100
AcDbLine
 10
1609.6015059138
 20
-111.2400166132
 30
0.0
 11
1614.1015059138
 21
-106.7400166132
 31
0.0
  0
LINE
  5
47B
100
AcDbEntity
  8
L1_100
  6
CONTINUOUS
 62
         4
100
AcDbLine
 10
1541.1088652267
 20
-175.4900166132
 30
0.0
 11
1542.8786999334
 21
-173.7201819065
 31
0.0
  0
LINE
  5
47C
100
AcDbEntity
  8
L1_100
  6
CONTINUOUS
 62
         4
100
AcDbLine
 10
1566.8588652267
 20
-149.7400166132
 30
0.0
 11
1579.6968265351
 21
-136.9020553048
 31
0.0
  0
LINE
  5
47D
100
AcDbEntity
  8
L1_100
  6
CONTINUOUS
 62
         4
100
AcDbLine
 10
1605.3588652267
 20
-111.2400166132
 30
0.0
 11
1609.8588652267
 21
-106.7400166132
 31
0.0
  0
LINE
  5
47E
100
AcDbEntity
  8
L1_100
  6
CONTINUOUS
 62
         4
100
AcDbLine
 10
1537.8480900281
 20
-174.5081511247
 30
0.0
 11
1542.8786999334
 21
-169.4775412194
 31
0.0
  0
LINE
  5
47F
100
AcDbEntity
  8
L1_100
  6
CONTINUOUS
 62
         4
100
AcDbLine
 10
1562.6162245396
 20
-149.7400166132
 30
0.0
 11
1578.1439122645
 21
-134.2123288883
 31
0.0
  0
LINE
  5
480
100
AcDbEntity
  8
L1_100
  6
CONTINUOUS
 62
         4
100
AcDbLine
 10
1601.1162245396
 20
-111.2400166132
 30
0.0
 11
1605.6162245396
 21
-106.7400166132
 31
0.0
  0
LINE
  5
481
100
AcDbEntity
  8
L1_100
  6
CONTINUOUS
 62
         4
100
AcDbLine
 10
1535.7485838524
 20
-172.3650166132
 30
0.0
 11
1542.8786999334
 21
-165.2349005322
 31
0.0
  0
LINE
  5
482
100
AcDbEntity
  8
L1_100
  6
CONTINUOUS
 62
         4
100
AcDbLine
 10
1558.3735838524
 20
-149.7400166132
 30
0.0
 11
1576.5909979938
 21
-131.5226024718
 31
0.0
  0
LINE
  5
483
100
AcDbEntity
  8
L1_100
  6
CONTINUOUS
 62
         4
100
AcDbLine
 10
1597.8286999331
 20
-110.2849005326
 30
0.0
 11
1601.3735838524
 21
-106.7400166132
 31
0.0
  0
LINE
  5
484
100
AcDbEntity
  8
L1_100
  6
CONTINUOUS
 62
         4
100
AcDbLine
 10
1528.3839393473
 20
-175.4870204313
 30
0.0
 11
1542.8786999334
 21
-160.9922598451
 31
0.0
  0
LINE
  5
485
100
AcDbEntity
  8
L1_100
  6
CONTINUOUS
 62
         4
100
AcDbLine
 10
1554.1309431653
 20
-149.7400166132
 30
0.0
 11
1575.0380837232
 21
-128.8328760553
 31
0.0
  0
LINE
  5
486
100
AcDbEntity
  8
L1_100
  6
CONTINUOUS
 62
         4
100
AcDbLine
 10
1526.9786999334
 20
-172.649619158
 30
0.0
 11
1542.8786999334
 21
-156.749619158
 31
0.0
  0
LINE
  5
487
100
AcDbEntity
  8
L1_100
  6
CONTINUOUS
 62
         4
100
AcDbLine
 10
1549.8883024782
 20
-149.7400166132
 30
0.0
 11
1575.1158403521
 21
-124.5124787393
 31
0.0
  0
LINE
  5
488
100
AcDbEntity
  8
L1_100
  6
CONTINUOUS
 62
         4
100
AcDbLine
 10
1588.3883024782
 20
-111.2400166132
 30
0.0
 11
1591.3286999337
 21
-108.2996191577
 31
0.0
  0
LINE
  5
489
100
AcDbEntity
  8
L1_100
  6
CONTINUOUS
 62
         4
100
AcDbLine
 10
1526.9786999334
 20
-168.4069784709
 30
0.0
 11
1542.8885484177
 21
-152.4971299865
 31
0.0
  0
LINE
  5
48A
100
AcDbEntity
  8
L1_100
  6
CONTINUOUS
 62
         4
100
AcDbLine
 10
1545.6358133067
 20
-149.7498650975
 30
0.0
 11
1580.9113953098
 21
-114.4742830945
 31
0.0
  0
LINE
  5
48B
100
AcDbEntity
  8
L1_100
  6
CONTINUOUS
 62
         4
100
AcDbLine
 10
1584.6456617911
 20
-110.7400166132
 30
0.0
 11
1588.6456617911
 21
-106.7400166132
 31
0.0
  0
LINE
  5
48C
100
AcDbEntity
  8
L1_100
  6
CONTINUOUS
 62
         4
100
AcDbLine
 10
1526.9786999334
 20
-164.1643377838
 30
0.0
 11
1584.8925538806
 21
-106.2504838365
 31
0.0
  0
LINE
  5
48D
100
AcDbEntity
  8
L1_100
  6
CONTINUOUS
 62
         4
100
AcDbLine
 10
1525.7353804169
 20
-161.1650166132
 30
0.0
 11
1580.6603804168
 21
-106.2400166132
 31
0.0
  0
LINE
  5
48E
100
AcDbEntity
  8
L1_100
  6
CONTINUOUS
 62
         4
100
AcDbLine
 10
1521.3473193964
 20
-161.3104369465
 30
0.0
 11
1576.7942018504
 21
-105.8635544925
 31
0.0
  0
LINE
  5
48F
100
AcDbEntity
  8
L1_100
  6
CONTINUOUS
 62
         4
100
AcDbLine
 10
1517.6446555972
 20
-160.7704600586
 30
0.0
 11
1574.6750990426
 21
-103.7400166132
 31
0.0
  0
LINE
  5
490
100
AcDbEntity
  8
L1_100
  6
CONTINUOUS
 62
         4
100
AcDbLine
 10
1513.9419917979
 20
-160.2304831708
 30
0.0
 11
1570.4324583555
 21
-103.7400166132
 31
0.0
  0
LINE
  5
491
100
AcDbEntity
  8
L1_100
  6
CONTINUOUS
 62
         4
100
AcDbLine
 10
1510.2393279987
 20
-159.6905062829
 30
0.0
 11
1566.1898176684
 21
-103.7400166132
 31
0.0
  0
LINE
  5
492
100
AcDbEntity
  8
L1_100
  6
CONTINUOUS
 62
         4
100
AcDbLine
 10
1506.5366641995
 20
-159.150529395
 30
0.0
 11
1561.9471769813
 21
-103.7400166132
 31
0.0
  0
LINE
  5
493
100
AcDbEntity
  8
L1_100
  6
CONTINUOUS
 62
         4
100
AcDbLine
 10
1502.8340004003
 20
-158.6105525071
 30
0.0
 11
1557.7045362941
 21
-103.7400166132
 31
0.0
  0
LINE
  5
494
100
AcDbEntity
  8
L1_100
  6
CONTINUOUS
 62
         4
100
AcDbLine
 10
1499.131336601
 20
-158.0705756192
 30
0.0
 11
1553.461895607
 21
-103.7400166132
 31
0.0
  0
LINE
  5
495
100
AcDbEntity
  8
L1_100
  6
CONTINUOUS
 62
         4
100
AcDbLine
 10
1495.4286728018
 20
-157.5305987313
 30
0.0
 11
1549.2192549199
 21
-103.7400166132
 31
0.0
  0
LINE
  5
496
100
AcDbEntity
  8
L1_100
  6
CONTINUOUS
 62
         4
100
AcDbLine
 10
1491.7260090026
 20
-156.9906218434
 30
0.0
 11
1545.0838325529
 21
-103.6327982931
 31
0.0
  0
LINE
  5
497
100
AcDbEntity
  8
L1_100
  6
CONTINUOUS
 62
         4
100
AcDbLine
 10
1488.0233452034
 20
-156.4506449555
 30
0.0
 11
1542.9760260609
 21
-101.497964098
 31
0.0
  0
LINE
  5
498
100
AcDbEntity
  8
L1_100
  6
CONTINUOUS
 62
         4
100
AcDbLine
 10
1484.3206814041
 20
-155.9106680676
 30
0.0
 11
1542.8786999334
 21
-97.3526495383
 31
0.0
  0
LINE
  5
499
100
AcDbEntity
  8
L1_100
  6
CONTINUOUS
 62
         4
100
AcDbLine
 10
1480.6180176049
 20
-155.3706911797
 30
0.0
 11
1542.8786999334
 21
-93.1100088512
 31
0.0
  0
LINE
  5
49A
100
AcDbEntity
  8
L1_100
  6
CONTINUOUS
 62
         4
100
AcDbLine
 10
1476.9153538057
 20
-154.8307142918
 30
0.0
 11
1542.8786999334
 21
-88.8673681641
 31
0.0
  0
LINE
  5
49B
100
AcDbEntity
  8
L1_100
  6
CONTINUOUS
 62
         4
100
AcDbLine
 10
1473.2126900065
 20
-154.2907374039
 30
0.0
 11
1542.8786999334
 21
-84.624727477
 31
0.0
  0
LINE
  5
49C
100
AcDbEntity
  8
L1_100
  6
CONTINUOUS
 62
         4
100
AcDbLine
 10
1469.5100262072
 20
-153.750760516
 30
0.0
 11
1542.8786999334
 21
-80.3820867899
 31
0.0
  0
LINE
  5
49D
100
AcDbEntity
  8
L1_100
  6
CONTINUOUS
 62
         4
100
AcDbLine
 10
1465.807362408
 20
-153.2107836281
 30
0.0
 11
1541.0281294229
 21
-77.9900166132
 31
0.0
  0
LINE
  5
49E
100
AcDbEntity
  8
L1_100
  6
CONTINUOUS
 62
         4
100
AcDbLine
 10
1462.1046986088
 20
-152.6708067402
 30
0.0
 11
1522.8207926013
 21
-91.9547127477
 31
0.0
  0
LINE
  5
49F
100
AcDbEntity
  8
L1_100
  6
CONTINUOUS
 62
         4
100
AcDbLine
 10
1526.9786999334
 20
-87.7968054156
 30
0.0
 11
1533.6604887358
 21
-81.1150166132
 31
0.0
  0
LINE
  5
4A0
100
AcDbEntity
  8
L1_100
  6
CONTINUOUS
 62
         4
100
AcDbLine
 10
1458.4020348096
 20
-152.1308298523
 30
0.0
 11
1473.3965065853
 21
-137.1363580766
 31
0.0
  0
LINE
  5
4A1
100
AcDbEntity
  8
L1_100
  6
CONTINUOUS
 62
         4
100
AcDbLine
 10
1480.6890543463
 20
-129.8438103156
 30
0.0
 11
1517.853790642
 21
-92.6790740199
 31
0.0
  0
LINE
  5
4A2
100
AcDbEntity
  8
L1_100
  6
CONTINUOUS
 62
         4
100
AcDbLine
 10
1526.9786999334
 20
-83.5541647285
 30
0.0
 11
1531.7818132059
 21
-78.751051456
 31
0.0
  0
LINE
  5
4A3
100
AcDbEntity
  8
L1_100
  6
CONTINUOUS
 62
         4
100
AcDbLine
 10
1454.6993710104
 20
-151.5908529644
 30
0.0
 11
1469.1538658982
 21
-137.1363580766
 31
0.0
  0
LINE
  5
4A4
100
AcDbEntity
  8
L1_100
  6
CONTINUOUS
 62
         4
100
AcDbLine
 10
1481.4082747621
 20
-124.8819492127
 30
0.0
 11
1512.8867886827
 21
-93.4034352921
 31
0.0
  0
LINE
  5
4A5
100
AcDbEntity
  8
L1_100
  6
CONTINUOUS
 62
         4
100
AcDbLine
 10
1526.9908662042
 20
-79.2993577706
 30
0.0
 11
1528.2880410908
 21
-78.002182884
 31
0.0
  0
LINE
  5
4A6
100
AcDbEntity
  8
L1_100
  6
CONTINUOUS
 62
         4
100
AcDbLine
 10
1450.9967072111
 20
-151.0508760765
 30
0.0
 11
1464.9112252111
 21
-137.1363580766
 31
0.0
  0
LINE
  5
4A7
100
AcDbEntity
  8
L1_100
  6
CONTINUOUS
 62
         4
100
AcDbLine
 10
1479.8553604914
 20
-122.1922227962
 30
0.0
 11
1507.9197867234
 21
-94.1277965643
 31
0.0
  0
LINE
  5
4A8
100
AcDbEntity
  8
L1_100
  6
CONTINUOUS
 62
         4
100
AcDbLine
 10
1447.2940434119
 20
-150.5108991886
 30
0.0
 11
1460.6685845239
 21
-137.1363580766
 31
0.0
  0
LINE
  5
4A9
100
AcDbEntity
  8
L1_100
  6
CONTINUOUS
 62
         4
100
AcDbLine
 10
1478.3024462208
 20
-119.5024963797
 30
0.0
 11
1502.952784764
 21
-94.8521578365
 31
0.0
  0
LINE
  5
4AA
100
AcDbEntity
  8
L1_100
  6
CONTINUOUS
 62
         4
100
AcDbLine
 10
1443.5913796127
 20
-149.9709223007
 30
0.0
 11
1456.4259438368
 21
-137.1363580766
 31
0.0
  0
LINE
  5
4AB
100
AcDbEntity
  8
L1_100
  6
CONTINUOUS
 62
         4
100
AcDbLine
 10
1476.7495319502
 20
-116.8127699632
 30
0.0
 11
1497.9857828047
 21
-95.5765191087
 31
0.0
  0
LINE
  5
4AC
100
AcDbEntity
  8
L1_100
  6
CONTINUOUS
 62
         4
100
AcDbLine
 10
1439.8887158135
 20
-149.4309454129
 30
0.0
 11
1452.1833031497
 21
-137.1363580766
 31
0.0
  0
LINE
  5
4AD
100
AcDbEntity
  8
L1_100
  6
CONTINUOUS
 62
         4
100
AcDbLine
 10
1472.9759860765
 20
-116.3436751498
 30
0.0
 11
1493.0187808454
 21
-96.3008803809
 31
0.0
  0
LINE
  5
4AE
100
AcDbEntity
  8
L1_100
  6
CONTINUOUS
 62
         4
100
AcDbLine
 10
1436.1860520142
 20
-148.890968525
 30
0.0
 11
1447.9406624626
 21
-137.1363580766
 31
0.0
  0
LINE
  5
4AF
100
AcDbEntity
  8
L1_100
  6
CONTINUOUS
 62
         4
100
AcDbLine
 10
1468.7333453894
 20
-116.3436751498
 30
0.0
 11
1488.051778886
 21
-97.0252416531
 31
0.0
  0
LINE
  5
4B0
100
AcDbEntity
  8
L1_100
  6
CONTINUOUS
 62
         4
100
AcDbLine
 10
1432.483388215
 20
-148.3509916371
 30
0.0
 11
1443.6980217755
 21
-137.1363580766
 31
0.0
  0
LINE
  5
4B1
100
AcDbEntity
  8
L1_100
  6
CONTINUOUS
 62
         4
100
AcDbLine
 10
1464.4907047023
 20
-116.3436751498
 30
0.0
 11
1483.0847769267
 21
-97.7496029254
 31
0.0
  0
LINE
  5
4B2
100
AcDbEntity
  8
L1_100
  6
CONTINUOUS
 62
         4
100
AcDbLine
 10
1428.7807244158
 20
-147.8110147492
 30
0.0
 11
1439.4553810883
 21
-137.1363580766
 31
0.0
  0
LINE
  5
4B3
100
AcDbEntity
  8
L1_100
  6
CONTINUOUS
 62
         4
100
AcDbLine
 10
1460.2480640152
 20
-116.3436751498
 30
0.0
 11
1478.1177749674
 21
-98.4739641976
 31
0.0
  0
LINE
  5
4B4
100
AcDbEntity
  8
L1_100
  6
CONTINUOUS
 62
         4
100
AcDbLine
 10
1425.0780606166
 20
-147.2710378613
 30
0.0
 11
1435.2127404012
 21
-137.1363580766
 31
0.0
  0
LINE
  5
4B5
100
AcDbEntity
  8
L1_100
  6
CONTINUOUS
 62
         4
100
AcDbLine
 10
1456.005423328
 20
-116.3436751498
 30
0.0
 11
1473.1507730081
 21
-99.1983254698
 31
0.0
  0
LINE
  5
4B6
100
AcDbEntity
  8
L1_100
  6
CONTINUOUS
 62
         4
100
AcDbLine
 10
1422.3974387033
 20
-145.7090190874
 30
0.0
 11
1430.9700997141
 21
-137.1363580766
 31
0.0
  0
LINE
  5
4B7
100
AcDbEntity
  8
L1_100
  6
CONTINUOUS
 62
         4
100
AcDbLine
 10
1451.7627826409
 20
-116.3436751498
 30
0.0
 11
1468.1837710487
 21
-99.922686742
 31
0.0
  0
LINE
  5
4B8
100
AcDbEntity
  8
L1_100
  6
CONTINUOUS
 62
         4
100
AcDbLine
 10
1422.1786999334
 20
-141.6851171702
 30
0.0
 11
1424.6238004904
 21
-139.2400166132
 31
0.0
  0
LINE
  5
4B9
100
AcDbEntity
  8
L1_100
  6
CONTINUOUS
 62
         4
100
AcDbLine
 10
1447.5201419538
 20
-116.3436751498
 30
0.0
 11
1463.2167690894
 21
-100.6470480142
 31
0.0
  0
LINE
  5
4BA
100
AcDbEntity
  8
L1_100
  6
CONTINUOUS
 62
         4
100
AcDbLine
 10
1443.2775012667
 20
-116.3436751498
 30
0.0
 11
1458.2497671301
 21
-101.3714092864
 31
0.0
  0
LINE
  5
4BB
100
AcDbEntity
  8
L1_100
  6
CONTINUOUS
 62
         4
100
AcDbLine
 10
1439.0348605796
 20
-116.3436751498
 30
0.0
 11
1453.2827651707
 21
-102.0957705586
 31
0.0
  0
LINE
  5
4BC
100
AcDbEntity
  8
L1_100
  6
CONTINUOUS
 62
         4
100
AcDbLine
 10
1434.7922198924
 20
-116.3436751498
 30
0.0
 11
1448.3157632114
 21
-102.8201318308
 31
0.0
  0
LINE
  5
4BD
100
AcDbEntity
  8
L1_100
  6
CONTINUOUS
 62
         4
100
AcDbLine
 10
1430.5495792053
 20
-116.3436751498
 30
0.0
 11
1443.3487612521
 21
-103.544493103
 31
0.0
  0
LINE
  5
4BE
100
AcDbEntity
  8
L1_100
  6
CONTINUOUS
 62
         4
100
AcDbLine
 10
1428.3774912066
 20
-114.2731224614
 30
0.0
 11
1438.3817592928
 21
-104.2688543752
 31
0.0
  0
LINE
  5
4BF
100
AcDbEntity
  8
L1_100
  6
CONTINUOUS
 62
         4
100
AcDbLine
 10
1424.1679563677
 20
-114.2400166132
 30
0.0
 11
1433.4147573334
 21
-104.9932156474
 31
0.0
  0
LINE
  5
4C0
100
AcDbEntity
  8
L1_100
  6
CONTINUOUS
 62
         4
100
AcDbLine
 10
1422.1786999334
 20
-111.9866323604
 30
0.0
 11
1428.4477553741
 21
-105.7175769196
 31
0.0
  0
ENDBLK
  5
4C1
100
AcDbEntity
  8
0
  6
CONTINUOUS
100
AcDbBlockEnd
  0
ENDSEC
  0
SECTION
  2
ENTITIES
  0
ARC
  5
24
100
AcDbEntity
  8
L1_100
  6
CONTINUOUS
 62
         7
100
AcDbCircle
 10
1619.4786999334
 20
-119.9900166132
 30
0.0
 40
1.5
100
AcDbArc
 50
90.0
 51
180.0
  0
ARC
  5
25
100
AcDbEntity
  8
L1_100
  6
CONTINUOUS
 62
         7
100
AcDbCircle
 10
1619.4786999334
 20
-133.4900166132
 30
0.0
 40
1.5
100
AcDbArc
 50
180.0
 51
270.0
  0
LINE
  5
26
100
AcDbEntity
  8
L1_100
  6
CENTER
 62
         1
100
AcDbLine
 10
1594.5786999334
 20
-146.7400166132
 30
0.0
 11
1594.5786999334
 21
-106.7400166132
 31
0.0
  0
POLYLINE
  5
28
100
AcDbEntity
  8
L1_100
  6
CONTINUOUS
 62
         7
100
AcDb2dPolyline
 66
         1
 10
0.0
 20
0.0
 30
0.0
 70
         2
  0
VERTEX
  5
2A
100
AcDbEntity
  8
L1_100
  6
CONTINUOUS
 62
         7
100
AcDbVertex
100
AcDb2dVertex
 10
1591.3286999334
 20
-136.7400166238
 30
0.0
 70
         1
  0
VERTEX
  5
2C
100
AcDbEntity
  8
L1_100
  6
CONTINUOUS
 62
         7
100
AcDbVertex
100
AcDb2dVertex
 10
1591.3810879751
 20
-137.2195702365
 30
0.0
 70
         1
  0
VERTEX
  5
2E
100
AcDbEntity
  8
L1_100
  6
CONTINUOUS
 62
         7
100
AcDbVertex
100
AcDb2dVertex
 10
1591.4299657374
 20
-137.4042184785
 30
0.0
 70
         1
  0
VERTEX
  5
30
100
AcDbEntity
  8
L1_100
  6
CONTINUOUS
 62
         7
100
AcDbVertex
100
AcDb2dVertex
 10
1591.496183388
 20
-137.5897756074
 30
0.0
 70
         1
  0
VERTEX
  5
32
100
AcDbEntity
  8
L1_100
  6
CONTINUOUS
 62
         7
100
AcDbVertex
100
AcDb2dVertex
 10
1591.5802923023
 20
-137.7745751235
 30
0.0
 70
         1
  0
VERTEX
  5
34
100
AcDbEntity
  8
L1_100
  6
CONTINUOUS
 62
         7
100
AcDbVertex
100
AcDb2dVertex
 10
1591.682536698
 20
-137.9568333405
 30
0.0
 70
         1
  0
VERTEX
  5
36
100
AcDbEntity
  8
L1_100
  6
CONTINUOUS
 62
         7
100
AcDbVertex
100
AcDb2dVertex
 10
1591.8028171587
 20
-138.1346975179
 30
0.0
 70
         1
  0
VERTEX
  5
38
100
AcDbEntity
  8
L1_100
  6
CONTINUOUS
 62
         7
100
AcDbVertex
100
AcDb2dVertex
 10
1591.9406676363
 20
-138.3063023438
 30
0.0
 70
         1
  0
VERTEX
  5
3A
100
AcDbEntity
  8
L1_100
  6
CONTINUOUS
 62
         7
100
AcDbVertex
100
AcDb2dVertex
 10
1592.0952490032
 20
-138.469831693
 30
0.0
 70
         1
  0
VERTEX
  5
3C
100
AcDbEntity
  8
L1_100
  6
CONTINUOUS
 62
         7
100
AcDbVertex
100
AcDb2dVertex
 10
1592.2653610019
 20
-138.6235817464
 30
0.0
 70
         1
  0
VERTEX
  5
3E
100
AcDbEntity
  8
L1_100
  6
CONTINUOUS
 62
         7
100
AcDbVertex
100
AcDb2dVertex
 10
1592.4494728705
 20
-138.766021108
 30
0.0
 70
         1
  0
VERTEX
  5
40
100
AcDbEntity
  8
L1_100
  6
CONTINUOUS
 62
         7
100
AcDbVertex
100
AcDb2dVertex
 10
1592.715058811
 20
-138.9369890339
 30
0.0
 70
         1
  0
VERTEX
  5
42
100
AcDbEntity
  8
L1_100
  6
CONTINUOUS
 62
         7
100
AcDbVertex
100
AcDb2dVertex
 10
1592.9975631501
 20
-139.082932442
 30
0.0
 70
         1
  0
VERTEX
  5
44
100
AcDbEntity
  8
L1_100
  6
CONTINUOUS
 62
         7
100
AcDbVertex
100
AcDb2dVertex
 10
1593.2916316187
 20
-139.2024353114
 30
0.0
 70
         1
  0
VERTEX
  5
46
100
AcDbEntity
  8
L1_100
  6
CONTINUOUS
 62
         7
100
AcDbVertex
100
AcDb2dVertex
 10
1593.5918405756
 20
-139.2950668539
 30
0.0
 70
         1
  0
VERTEX
  5
48
100
AcDbEntity
  8
L1_100
  6
CONTINUOUS
 62
         7
100
AcDbVertex
100
AcDb2dVertex
 10
1593.893001336
 20
-139.3613188573
 30
0.0
 70
         1
  0
VERTEX
  5
4A
100
AcDbEntity
  8
L1_100
  6
CONTINUOUS
 62
         7
100
AcDbVertex
100
AcDb2dVertex
 10
1594.1904099823
 20
-139.4024767621
 30
0.0
 70
         1
  0
VERTEX
  5
4C
100
AcDbEntity
  8
L1_100
  6
CONTINUOUS
 62
         7
100
AcDbVertex
100
AcDb2dVertex
 10
1594.4800239492
 20
-139.4204482899
 30
0.0
 70
         1
  0
VERTEX
  5
4E
100
AcDbEntity
  8
L1_100
  6
CONTINUOUS
 62
         7
100
AcDbVertex
100
AcDb2dVertex
 10
1594.8511169344
 20
-139.4122474461
 30
0.0
 70
         1
  0
VERTEX
  5
50
100
AcDbEntity
  8
L1_100
  6
CONTINUOUS
 62
         7
100
AcDbVertex
100
AcDb2dVertex
 10
1595.1965806692
 20
-139.3727747726
 30
0.0
 70
         1
  0
VERTEX
  5
52
100
AcDbEntity
  8
L1_100
  6
CONTINUOUS
 62
         7
100
AcDbVertex
100
AcDb2dVertex
 10
1595.5130422122
 20
-139.3084744027
 30
0.0
 70
         1
  0
VERTEX
  5
54
100
AcDbEntity
  8
L1_100
  6
CONTINUOUS
 62
         7
100
AcDbVertex
100
AcDb2dVertex
 10
1595.7991232468
 20
-139.2254304155
 30
0.0
 70
         1
  0
VERTEX
  5
56
100
AcDbEntity
  8
L1_100
  6
CONTINUOUS
 62
         7
100
AcDbVertex
100
AcDb2dVertex
 10
1596.054982971
 20
-139.1290579874
 30
0.0
 70
         1
  0
VERTEX
  5
58
100
AcDbEntity
  8
L1_100
  6
CONTINUOUS
 62
         7
100
AcDbVertex
100
AcDb2dVertex
 10
1596.3540902327
 20
-138.9861993761
 30
0.0
 70
         1
  0
VERTEX
  5
5A
100
AcDbEntity
  8
L1_100
  6
CONTINUOUS
 62
         7
100
AcDbVertex
100
AcDb2dVertex
 10
1596.6056007413
 20
-138.8362611961
 30
0.0
 70
         1
  0
VERTEX
  5
5C
100
AcDbEntity
  8
L1_100
  6
CONTINUOUS
 62
         7
100
AcDbVertex
100
AcDb2dVertex
 10
1596.8153690444
 20
-138.685608174
 30
0.0
 70
         1
  0
VERTEX
  5
5E
100
AcDbEntity
  8
L1_100
  6
CONTINUOUS
 62
         7
100
AcDbVertex
100
AcDb2dVertex
 10
1597.0431014269
 20
-138.4882819556
 30
0.0
 70
         1
  0
VERTEX
  5
60
100
AcDbEntity
  8
L1_100
  6
CONTINUOUS
 62
         7
100
AcDbVertex
100
AcDb2dVertex
 10
1597.219038931
 20
-138.3036538388
 30
0.0
 70
         1
  0
VERTEX
  5
62
100
AcDbEntity
  8
L1_100
  6
CONTINUOUS
 62
         7
100
AcDbVertex
100
AcDb2dVertex
 10
1597.3546589702
 20
-138.1345941703
 30
0.0
 70
         1
  0
VERTEX
  5
64
100
AcDbEntity
  8
L1_100
  6
CONTINUOUS
 62
         7
100
AcDbVertex
100
AcDb2dVertex
 10
1597.4905354571
 20
-137.9310959514
 30
0.0
 70
         1
  0
VERTEX
  5
66
100
AcDbEntity
  8
L1_100
  6
CONTINUOUS
 62
         7
100
AcDbVertex
100
AcDb2dVertex
 10
1597.6139054421
 20
-137.6987391999
 30
0.0
 70
         1
  0
VERTEX
  5
68
100
AcDbEntity
  8
L1_100
  6
CONTINUOUS
 62
         7
100
AcDbVertex
100
AcDb2dVertex
 10
1597.6909899572
 20
-137.5123611541
 30
0.0
 70
         1
  0
VERTEX
  5
6A
100
AcDbEntity
  8
L1_100
  6
CONTINUOUS
 62
         7
100
AcDbVertex
100
AcDb2dVertex
 10
1597.7531760249
 20
-137.3147715834
 30
0.0
 70
         1
  0
VERTEX
  5
6C
100
AcDbEntity
  8
L1_100
  6
CONTINUOUS
 62
         7
100
AcDbVertex
100
AcDb2dVertex
 10
1597.7954926104
 20
-137.1223859436
 30
0.0
 70
         1
  0
VERTEX
  5
6E
100
AcDbEntity
  8
L1_100
  6
CONTINUOUS
 62
         7
100
AcDbVertex
100
AcDb2dVertex
 10
1597.8228020526
 20
-136.9015005024
 30
0.0
 70
         1
  0
VERTEX
  5
70
100
AcDbEntity
  8
L1_100
  6
CONTINUOUS
 62
         7
100
AcDbVertex
100
AcDb2dVertex
 10
1597.8286999334
 20
-136.7400166132
 30
0.0
 70
         1
  0
SEQEND
  5
72
100
AcDbEntity
  8
L1_100
  6
CONTINUOUS
 62
         7
  0
POLYLINE
  5
74
100
AcDbEntity
  8
L1_100
  6
CONTINUOUS
 62
         7
100
AcDb2dPolyline
 66
         1
 10
0.0
 20
0.0
 30
0.0
 70
         2
  0
VERTEX
  5
76
100
AcDbEntity
  8
L1_100
  6
CONTINUOUS
 62
         7
100
AcDbVertex
100
AcDb2dVertex
 10
1597.8286999334
 20
-136.7400139146
 30
0.0
 70
         1
  0
VERTEX
  5
78
100
AcDbEntity
  8
L1_100
  6
CONTINUOUS
 62
         7
100
AcDbVertex
100
AcDb2dVertex
 10
1597.7763113188
 20
-136.2129228068
 30
0.0
 70
         1
  0
VERTEX
  5
7A
100
AcDbEntity
  8
L1_100
  6
CONTINUOUS
 62
         7
100
AcDbVertex
100
AcDb2dVertex
 10
1597.7274333161
 20
-136.0099706763
 30
0.0
 70
         1
  0
VERTEX
  5
7C
100
AcDbEntity
  8
L1_100
  6
CONTINUOUS
 62
         7
100
AcDbVertex
100
AcDb2dVertex
 10
1597.6612154154
 20
-135.8060195874
 30
0.0
 70
         1
  0
VERTEX
  5
7E
100
AcDbEntity
  8
L1_100
  6
CONTINUOUS
 62
         7
100
AcDbVertex
100
AcDb2dVertex
 10
1597.5771062453
 20
-135.6029012392
 30
0.0
 70
         1
  0
VERTEX
  5
80
100
AcDbEntity
  8
L1_100
  6
CONTINUOUS
 62
         7
100
AcDbVertex
100
AcDb2dVertex
 10
1597.4748615926
 20
-135.402576133
 30
0.0
 70
         1
  0
VERTEX
  5
82
100
AcDbEntity
  8
L1_100
  6
CONTINUOUS
 62
         7
100
AcDbVertex
100
AcDb2dVertex
 10
1597.354580879
 20
-135.2070806691
 30
0.0
 70
         1
  0
VERTEX
  5
84
100
AcDbEntity
  8
L1_100
  6
CONTINUOUS
 62
         7
100
AcDbVertex
100
AcDb2dVertex
 10
1597.2167301576
 20
-135.0184650643
 30
0.0
 70
         1
  0
VERTEX
  5
86
100
AcDbEntity
  8
L1_100
  6
CONTINUOUS
 62
         7
100
AcDbVertex
100
AcDb2dVertex
 10
1597.0621485615
 20
-134.8387254717
 30
0.0
 70
         1
  0
VERTEX
  5
88
100
AcDbEntity
  8
L1_100
  6
CONTINUOUS
 62
         7
100
AcDbVertex
100
AcDb2dVertex
 10
1596.892036353
 20
-134.6697346051
 30
0.0
 70
         1
  0
VERTEX
  5
8A
100
AcDbEntity
  8
L1_100
  6
CONTINUOUS
 62
         7
100
AcDbVertex
100
AcDb2dVertex
 10
1596.7079242984
 20
-134.5131756619
 30
0.0
 70
         1
  0
VERTEX
  5
8C
100
AcDbEntity
  8
L1_100
  6
CONTINUOUS
 62
         7
100
AcDbVertex
100
AcDb2dVertex
 10
1596.442338152
 20
-134.3252602585
 30
0.0
 70
         1
  0
VERTEX
  5
8E
100
AcDbEntity
  8
L1_100
  6
CONTINUOUS
 62
         7
100
AcDbVertex
100
AcDb2dVertex
 10
1596.1598336621
 20
-134.1648500326
 30
0.0
 70
         1
  0
VERTEX
  5
90
100
AcDbEntity
  8
L1_100
  6
CONTINUOUS
 62
         7
100
AcDbVertex
100
AcDb2dVertex
 10
1595.8657651001
 20
-134.033501361
 30
0.0
 70
         1
  0
VERTEX
  5
92
100
AcDbEntity
  8
L1_100
  6
CONTINUOUS
 62
         7
100
AcDbVertex
100
AcDb2dVertex
 10
1595.5655561065
 20
-133.931687724
 30
0.0
 70
         1
  0
VERTEX
  5
94
100
AcDbEntity
  8
L1_100
  6
CONTINUOUS
 62
         7
100
AcDbVertex
100
AcDb2dVertex
 10
1595.2643953619
 20
-133.8588685739
 30
0.0
 70
         1
  0
VERTEX
  5
96
100
AcDbEntity
  8
L1_100
  6
CONTINUOUS
 62
         7
100
AcDbVertex
100
AcDb2dVertex
 10
1594.9669867778
 20
-133.8136310382
 30
0.0
 70
         1
  0
VERTEX
  5
98
100
AcDbEntity
  8
L1_100
  6
CONTINUOUS
 62
         7
100
AcDbVertex
100
AcDb2dVertex
 10
1594.677372912
 20
-133.79387828
 30
0.0
 70
         1
  0
VERTEX
  5
9A
100
AcDbEntity
  8
L1_100
  6
CONTINUOUS
 62
         7
100
AcDbVertex
100
AcDb2dVertex
 10
1594.3988367818
 20
-133.7970367357
 30
0.0
 70
         1
  0
VERTEX
  5
9C
100
AcDbEntity
  8
L1_100
  6
CONTINUOUS
 62
         7
100
AcDbVertex
100
AcDb2dVertex
 10
1594.0464156628
 20
-133.8323197588
 30
0.0
 70
         1
  0
VERTEX
  5
9E
100
AcDbEntity
  8
L1_100
  6
CONTINUOUS
 62
         7
100
AcDbVertex
100
AcDb2dVertex
 10
1593.7223418743
 20
-133.8966816196
 30
0.0
 70
         1
  0
VERTEX
  5
A0
100
AcDbEntity
  8
L1_100
  6
CONTINUOUS
 62
         7
100
AcDbVertex
100
AcDb2dVertex
 10
1593.428461359
 20
-133.9832936883
 30
0.0
 70
         1
  0
VERTEX
  5
A2
100
AcDbEntity
  8
L1_100
  6
CONTINUOUS
 62
         7
100
AcDbVertex
100
AcDb2dVertex
 10
1593.1649633413
 20
-134.0859945674
 30
0.0
 70
         1
  0
VERTEX
  5
A4
100
AcDbEntity
  8
L1_100
  6
CONTINUOUS
 62
         7
100
AcDbVertex
100
AcDb2dVertex
 10
1592.9308399389
 20
-134.199491776
 30
0.0
 70
         1
  0
VERTEX
  5
A6
100
AcDbEntity
  8
L1_100
  6
CONTINUOUS
 62
         7
100
AcDbVertex
100
AcDb2dVertex
 10
1592.6587371923
 20
-134.3618315912
 30
0.0
 70
         1
  0
VERTEX
  5
A8
100
AcDbEntity
  8
L1_100
  6
CONTINUOUS
 62
         7
100
AcDbVertex
100
AcDb2dVertex
 10
1592.4310515618
 20
-134.5277758122
 30
0.0
 70
         1
  0
VERTEX
  5
AA
100
AcDbEntity
  8
L1_100
  6
CONTINUOUS
 62
         7
100
AcDbVertex
100
AcDb2dVertex
 10
1592.241778466
 20
-134.6916373113
 30
0.0
 70
         1
  0
VERTEX
  5
AC
100
AcDbEntity
  8
L1_100
  6
CONTINUOUS
 62
         7
100
AcDbVertex
100
AcDb2dVertex
 10
1592.0367665452
 20
-134.9033984851
 30
0.0
 70
         1
  0
VERTEX
  5
AE
100
AcDbEntity
  8
L1_100
  6
CONTINUOUS
 62
         7
100
AcDbVertex
100
AcDb2dVertex
 10
1591.8785805065
 20
-135.0995512732
 30
0.0
 70
         1
  0
VERTEX
  5
B0
100
AcDbEntity
  8
L1_100
  6
CONTINUOUS
 62
         7
100
AcDbVertex
100
AcDb2dVertex
 10
1591.720156533
 20
-135.3375883005
 30
0.0
 70
         1
  0
VERTEX
  5
B2
100
AcDbEntity
  8
L1_100
  6
CONTINUOUS
 62
         7
100
AcDbVertex
100
AcDb2dVertex
 10
1591.6087406859
 20
-135.5430710012
 30
0.0
 70
         1
  0
VERTEX
  5
B4
100
AcDbEntity
  8
L1_100
  6
CONTINUOUS
 62
         7
100
AcDbVertex
100
AcDb2dVertex
 10
1591.5072736113
 20
-135.77643991
 30
0.0
 70
         1
  0
VERTEX
  5
B6
100
AcDbEntity
  8
L1_100
  6
CONTINUOUS
 62
         7
100
AcDbVertex
100
AcDb2dVertex
 10
1591.4259964828
 20
-136.0242021944
 30
0.0
 70
         1
  0
VERTEX
  5
B8
100
AcDbEntity
  8
L1_100
  6
CONTINUOUS
 62
         7
100
AcDbVertex
100
AcDb2dVertex
 10
1591.37117768
 20
-136.2650274295
 30
0.0
 70
         1
  0
VERTEX
  5
BA
100
AcDbEntity
  8
L1_100
  6
CONTINUOUS
 62
         7
100
AcDbVertex
100
AcDb2dVertex
 10
1591.3420332436
 20
-136.4733001571
 30
0.0
 70
         1
  0
VERTEX
  5
BC
100
AcDbEntity
  8
L1_100
  6
CONTINUOUS
 62
         7
100
AcDbVertex
100
AcDb2dVertex
 10
1591.3286999334
 20
-136.7400166132
 30
0.0
 70
         1
  0
SEQEND
  5
BE
100
AcDbEntity
  8
L1_100
  6
CONTINUOUS
 62
         7
  0
LINE
  5
BF
100
AcDbEntity
  8
L1_100
  6
CENTER
 62
         1
100
AcDbLine
 10
1597.8286999334
 20
-136.7400166132
 30
0.0
 11
1591.3286999334
 21
-136.7400166132
 31
0.0
  0
POLYLINE
  5
C1
100
AcDbEntity
  8
L1_100
  6
CONTINUOUS
 62
         7
100
AcDb2dPolyline
 66
         1
 10
0.0
 20
0.0
 30
0.0
 70
         2
  0
VERTEX
  5
C3
100
AcDbEntity
  8
L1_100
  6
CONTINUOUS
 62
         7
100
AcDbVertex
100
AcDb2dVertex
 10
1597.8286999334
 20
-116.7400166132
 30
0.0
 70
         1
  0
VERTEX
  5
C5
100
AcDbEntity
  8
L1_100
  6
CONTINUOUS
 62
         7
100
AcDbVertex
100
AcDb2dVertex
 10
1597.7763118944
 20
-116.2604630022
 30
0.0
 70
         1
  0
VERTEX
  5
C7
100
AcDbEntity
  8
L1_100
  6
CONTINUOUS
 62
         7
100
AcDbVertex
100
AcDb2dVertex
 10
1597.7274341333
 20
-116.0758147607
 30
0.0
 70
         1
  0
VERTEX
  5
C9
100
AcDbEntity
  8
L1_100
  6
CONTINUOUS
 62
         7
100
AcDbVertex
100
AcDb2dVertex
 10
1597.6612164842
 20
-115.8902576322
 30
0.0
 70
         1
  0
VERTEX
  5
CB
100
AcDbEntity
  8
L1_100
  6
CONTINUOUS
 62
         7
100
AcDbVertex
100
AcDb2dVertex
 10
1597.5771075713
 20
-115.7054581165
 30
0.0
 70
         1
  0
VERTEX
  5
CD
100
AcDbEntity
  8
L1_100
  6
CONTINUOUS
 62
         7
100
AcDbVertex
100
AcDb2dVertex
 10
1597.4748631772
 20
-115.5231998996
 30
0.0
 70
         1
  0
VERTEX
  5
CF
100
AcDbEntity
  8
L1_100
  6
CONTINUOUS
 62
         7
100
AcDbVertex
100
AcDb2dVertex
 10
1597.3545827183
 20
-115.3453357223
 30
0.0
 70
         1
  0
VERTEX
  5
D1
100
AcDbEntity
  8
L1_100
  6
CONTINUOUS
 62
         7
100
AcDbVertex
100
AcDb2dVertex
 10
1597.2167322423
 20
-115.1737308962
 30
0.0
 70
         1
  0
VERTEX
  5
D3
100
AcDbEntity
  8
L1_100
  6
CONTINUOUS
 62
         7
100
AcDbVertex
100
AcDb2dVertex
 10
1597.0621508772
 20
-115.0102015467
 30
0.0
 70
         1
  0
VERTEX
  5
D5
100
AcDbEntity
  8
L1_100
  6
CONTINUOUS
 62
         7
100
AcDbVertex
100
AcDb2dVertex
 10
1596.8920388803
 20
-114.8564514928
 30
0.0
 70
         1
  0
VERTEX
  5
D7
100
AcDbEntity
  8
L1_100
  6
CONTINUOUS
 62
         7
100
AcDbVertex
100
AcDb2dVertex
 10
1596.7079270133
 20
-114.7140121306
 30
0.0
 70
         1
  0
VERTEX
  5
D9
100
AcDbEntity
  8
L1_100
  6
CONTINUOUS
 62
         7
100
AcDbVertex
100
AcDb2dVertex
 10
1596.4423410749
 20
-114.5430442035
 30
0.0
 70
         1
  0
VERTEX
  5
DB
100
AcDbEntity
  8
L1_100
  6
CONTINUOUS
 62
         7
100
AcDbVertex
100
AcDb2dVertex
 10
1596.1598367377
 20
-114.3971007941
 30
0.0
 70
         1
  0
VERTEX
  5
DD
100
AcDbEntity
  8
L1_100
  6
CONTINUOUS
 62
         7
100
AcDbVertex
100
AcDb2dVertex
 10
1595.8657682707
 20
-114.2775979231
 30
0.0
 70
         1
  0
VERTEX
  5
DF
100
AcDbEntity
  8
L1_100
  6
CONTINUOUS
 62
         7
100
AcDbVertex
100
AcDb2dVertex
 10
1595.5655593151
 20
-114.1849663787
 30
0.0
 70
         1
  0
VERTEX
  5
E1
100
AcDbEntity
  8
L1_100
  6
CONTINUOUS
 62
         7
100
AcDbVertex
100
AcDb2dVertex
 10
1595.2643985556
 20
-114.1187143735
 30
0.0
 70
         1
  0
VERTEX
  5
E3
100
AcDbEntity
  8
L1_100
  6
CONTINUOUS
 62
         7
100
AcDbVertex
100
AcDb2dVertex
 10
1594.9669899099
 20
-114.0775564669
 30
0.0
 70
         1
  0
VERTEX
  5
E5
100
AcDbEntity
  8
L1_100
  6
CONTINUOUS
 62
         7
100
AcDbVertex
100
AcDb2dVertex
 10
1594.6773759432
 20
-114.0595849372
 30
0.0
 70
         1
  0
VERTEX
  5
E7
100
AcDbEntity
  8
L1_100
  6
CONTINUOUS
 62
         7
100
AcDbVertex
100
AcDb2dVertex
 10
1594.3062829579
 20
-114.0677857785
 30
0.0
 70
         1
  0
VERTEX
  5
E9
100
AcDbEntity
  8
L1_100
  6
CONTINUOUS
 62
         7
100
AcDbVertex
100
AcDb2dVertex
 10
1593.9608192225
 20
-114.1072584499
 30
0.0
 70
         1
  0
VERTEX
  5
EB
100
AcDbEntity
  8
L1_100
  6
CONTINUOUS
 62
         7
100
AcDbVertex
100
AcDb2dVertex
 10
1593.6443576786
 20
-114.1715588177
 30
0.0
 70
         1
  0
VERTEX
  5
ED
100
AcDbEntity
  8
L1_100
  6
CONTINUOUS
 62
         7
100
AcDbVertex
100
AcDb2dVertex
 10
1593.3582766429
 20
-114.2546028033
 30
0.0
 70
         1
  0
VERTEX
  5
EF
100
AcDbEntity
  8
L1_100
  6
CONTINUOUS
 62
         7
100
AcDbVertex
100
AcDb2dVertex
 10
1593.1024169174
 20
-114.3509752299
 30
0.0
 70
         1
  0
VERTEX
  5
F1
100
AcDbEntity
  8
L1_100
  6
CONTINUOUS
 62
         7
100
AcDbVertex
100
AcDb2dVertex
 10
1592.8033096538
 20
-114.4938338396
 30
0.0
 70
         1
  0
VERTEX
  5
F3
100
AcDbEntity
  8
L1_100
  6
CONTINUOUS
 62
         7
100
AcDbVertex
100
AcDb2dVertex
 10
1592.5517991434
 20
-114.6437720185
 30
0.0
 70
         1
  0
VERTEX
  5
F5
100
AcDbEntity
  8
L1_100
  6
CONTINUOUS
 62
         7
100
AcDbVertex
100
AcDb2dVertex
 10
1592.3420308384
 20
-114.7944250398
 30
0.0
 70
         1
  0
VERTEX
  5
F7
100
AcDbEntity
  8
L1_100
  6
CONTINUOUS
 62
         7
100
AcDbVertex
100
AcDb2dVertex
 10
1592.1142984537
 20
-114.9917512575
 30
0.0
 70
         1
  0
VERTEX
  5
F9
100
AcDbEntity
  8
L1_100
  6
CONTINUOUS
 62
         7
100
AcDbVertex
100
AcDb2dVertex
 10
1591.9383609477
 20
-115.176379374
 30
0.0
 70
         1
  0
VERTEX
  5
FB
100
AcDbEntity
  8
L1_100
  6
CONTINUOUS
 62
         7
100
AcDbVertex
100
AcDb2dVertex
 10
1591.8027409067
 20
-115.3454390424
 30
0.0
 70
         1
  0
VERTEX
  5
FD
100
AcDbEntity
  8
L1_100
  6
CONTINUOUS
 62
         7
100
AcDbVertex
100
AcDb2dVertex
 10
1591.6668644179
 20
-115.5489372613
 30
0.0
 70
         1
  0
VERTEX
  5
FF
100
AcDbEntity
  8
L1_100
  6
CONTINUOUS
 62
         7
100
AcDbVertex
100
AcDb2dVertex
 10
1591.5434944309
 20
-115.7812940131
 30
0.0
 70
         1
  0
VERTEX
  5
101
100
AcDbEntity
  8
L1_100
  6
CONTINUOUS
 62
         7
100
AcDbVertex
100
AcDb2dVertex
 10
1591.4664099143
 20
-115.9676720593
 30
0.0
 70
         1
  0
VERTEX
  5
103
100
AcDbEntity
  8
L1_100
  6
CONTINUOUS
 62
         7
100
AcDbVertex
100
AcDb2dVertex
 10
1591.4042238452
 20
-116.1652616304
 30
0.0
 70
         1
  0
VERTEX
  5
105
100
AcDbEntity
  8
L1_100
  6
CONTINUOUS
 62
         7
100
AcDbVertex
100
AcDb2dVertex
 10
1591.3619072585
 20
-116.3576472708
 30
0.0
 70
         1
  0
VERTEX
  5
107
100
AcDbEntity
  8
L1_100
  6
CONTINUOUS
 62
         7
100
AcDbVertex
100
AcDb2dVertex
 10
1591.334597815
 20
-116.5785327128
 30
0.0
 70
         1
  0
VERTEX
  5
109
100
AcDbEntity
  8
L1_100
  6
CONTINUOUS
 62
         7
100
AcDbVertex
100
AcDb2dVertex
 10
1591.3286999334
 20
-116.7400166026
 30
0.0
 70
         1
  0
SEQEND
  5
10B
100
AcDbEntity
  8
L1_100
  6
CONTINUOUS
 62
         7
  0
POLYLINE
  5
10D
100
AcDbEntity
  8
L1_100
  6
CONTINUOUS
 62
         7
100
AcDb2dPolyline
 66
         1
 10
0.0
 20
0.0
 30
0.0
 70
         2
  0
VERTEX
  5
10F
100
AcDbEntity
  8
L1_100
  6
CONTINUOUS
 62
         7
100
AcDbVertex
100
AcDb2dVertex
 10
1591.3286999334
 20
-116.7400166132
 30
0.0
 70
         1
  0
VERTEX
  5
111
100
AcDbEntity
  8
L1_100
  6
CONTINUOUS
 62
         7
100
AcDbVertex
100
AcDb2dVertex
 10
1591.3810879207
 20
-117.2671072897
 30
0.0
 70
         1
  0
VERTEX
  5
113
100
AcDbEntity
  8
L1_100
  6
CONTINUOUS
 62
         7
100
AcDbVertex
100
AcDb2dVertex
 10
1591.4299656312
 20
-117.470059288
 30
0.0
 70
         1
  0
VERTEX
  5
115
100
AcDbEntity
  8
L1_100
  6
CONTINUOUS
 62
         7
100
AcDbVertex
100
AcDb2dVertex
 10
1591.4961832097
 20
-117.6740102684
 30
0.0
 70
         1
  0
VERTEX
  5
117
100
AcDbEntity
  8
L1_100
  6
CONTINUOUS
 62
         7
100
AcDbVertex
100
AcDb2dVertex
 10
1591.5802920307
 20
-117.877128537
 30
0.0
 70
         1
  0
VERTEX
  5
119
100
AcDbEntity
  8
L1_100
  6
CONTINUOUS
 62
         7
100
AcDbVertex
100
AcDb2dVertex
 10
1591.6825363114
 20
-118.0774535975
 30
0.0
 70
         1
  0
VERTEX
  5
11B
100
AcDbEntity
  8
L1_100
  6
CONTINUOUS
 62
         7
100
AcDbVertex
100
AcDb2dVertex
 10
1591.8028166355
 20
-118.2729490536
 30
0.0
 70
         1
  0
VERTEX
  5
11D
100
AcDbEntity
  8
L1_100
  6
CONTINUOUS
 62
         7
100
AcDbVertex
100
AcDb2dVertex
 10
1591.9406669562
 20
-118.4615646923
 30
0.0
 70
         1
  0
VERTEX
  5
11F
100
AcDbEntity
  8
L1_100
  6
CONTINUOUS
 62
         7
100
AcDbVertex
100
AcDb2dVertex
 10
1592.0952481478
 20
-118.6413043624
 30
0.0
 70
         1
  0
VERTEX
  5
121
100
AcDbEntity
  8
L1_100
  6
CONTINUOUS
 62
         7
100
AcDbVertex
100
AcDb2dVertex
 10
1592.2653599558
 20
-118.8102953513
 30
0.0
 70
         1
  0
VERTEX
  5
123
100
AcDbEntity
  8
L1_100
  6
CONTINUOUS
 62
         7
100
AcDbVertex
100
AcDb2dVertex
 10
1592.449471622
 20
-118.9668544608
 30
0.0
 70
         1
  0
VERTEX
  5
125
100
AcDbEntity
  8
L1_100
  6
CONTINUOUS
 62
         7
100
AcDbVertex
100
AcDb2dVertex
 10
1592.7150572799
 20
-119.1547701527
 30
0.0
 70
         1
  0
VERTEX
  5
127
100
AcDbEntity
  8
L1_100
  6
CONTINUOUS
 62
         7
100
AcDbVertex
100
AcDb2dVertex
 10
1592.9975613338
 20
-119.3151807339
 30
0.0
 70
         1
  0
VERTEX
  5
129
100
AcDbEntity
  8
L1_100
  6
CONTINUOUS
 62
         7
100
AcDbVertex
100
AcDb2dVertex
 10
1593.2916295255
 20
-119.4465298154
 30
0.0
 70
         1
  0
VERTEX
  5
12B
100
AcDbEntity
  8
L1_100
  6
CONTINUOUS
 62
         7
100
AcDbVertex
100
AcDb2dVertex
 10
1593.5918382241
 20
-119.5483439023
 30
0.0
 70
         1
  0
VERTEX
  5
12D
100
AcDbEntity
  8
L1_100
  6
CONTINUOUS
 62
         7
100
AcDbVertex
100
AcDb2dVertex
 10
1593.8929987533
 20
-119.6211635266
 30
0.0
 70
         1
  0
VERTEX
  5
12F
100
AcDbEntity
  8
L1_100
  6
CONTINUOUS
 62
         7
100
AcDbVertex
100
AcDb2dVertex
 10
1594.1904072017
 20
-119.6664015457
 30
0.0
 70
         1
  0
VERTEX
  5
131
100
AcDbEntity
  8
L1_100
  6
CONTINUOUS
 62
         7
100
AcDbVertex
100
AcDb2dVertex
 10
1594.4800210079
 20
-119.6861547825
 30
0.0
 70
         1
  0
VERTEX
  5
133
100
AcDbEntity
  8
L1_100
  6
CONTINUOUS
 62
         7
100
AcDbVertex
100
AcDb2dVertex
 10
1594.7585571476
 20
-119.6829967891
 30
0.0
 70
         1
  0
VERTEX
  5
135
100
AcDbEntity
  8
L1_100
  6
CONTINUOUS
 62
         7
100
AcDbVertex
100
AcDb2dVertex
 10
1595.110978373
 20
-119.6477143456
 30
0.0
 70
         1
  0
VERTEX
  5
137
100
AcDbEntity
  8
L1_100
  6
CONTINUOUS
 62
         7
100
AcDbVertex
100
AcDb2dVertex
 10
1595.4350523532
 20
-119.5833530038
 30
0.0
 70
         1
  0
VERTEX
  5
139
100
AcDbEntity
  8
L1_100
  6
CONTINUOUS
 62
         7
100
AcDbVertex
100
AcDb2dVertex
 10
1595.728933122
 20
-119.4967413864
 30
0.0
 70
         1
  0
VERTEX
  5
13B
100
AcDbEntity
  8
L1_100
  6
CONTINUOUS
 62
         7
100
AcDbVertex
100
AcDb2dVertex
 10
1595.9924314337
 20
-119.3940408898
 30
0.0
 70
         1
  0
VERTEX
  5
13D
100
AcDbEntity
  8
L1_100
  6
CONTINUOUS
 62
         7
100
AcDbVertex
100
AcDb2dVertex
 10
1596.2265551526
 20
-119.280543998
 30
0.0
 70
         1
  0
VERTEX
  5
13F
100
AcDbEntity
  8
L1_100
  6
CONTINUOUS
 62
         7
100
AcDbVertex
100
AcDb2dVertex
 10
1596.4986583366
 20
-119.1182045157
 30
0.0
 70
         1
  0
VERTEX
  5
141
100
AcDbEntity
  8
L1_100
  6
CONTINUOUS
 62
         7
100
AcDbVertex
100
AcDb2dVertex
 10
1596.7263443955
 20
-118.9522605359
 30
0.0
 70
         1
  0
VERTEX
  5
143
100
AcDbEntity
  8
L1_100
  6
CONTINUOUS
 62
         7
100
AcDbVertex
100
AcDb2dVertex
 10
1596.9156178958
 20
-118.788399204
 30
0.0
 70
         1
  0
VERTEX
  5
145
100
AcDbEntity
  8
L1_100
  6
CONTINUOUS
 62
         7
100
AcDbVertex
100
AcDb2dVertex
 10
1597.1206303122
 20
-118.5766381671
 30
0.0
 70
         1
  0
VERTEX
  5
147
100
AcDbEntity
  8
L1_100
  6
CONTINUOUS
 62
         7
100
AcDbVertex
100
AcDb2dVertex
 10
1597.2788167825
 20
-118.380485443
 30
0.0
 70
         1
  0
VERTEX
  5
149
100
AcDbEntity
  8
L1_100
  6
CONTINUOUS
 62
         7
100
AcDbVertex
100
AcDb2dVertex
 10
1597.4372412444
 20
-118.1424484288
 30
0.0
 70
         1
  0
VERTEX
  5
14B
100
AcDbEntity
  8
L1_100
  6
CONTINUOUS
 62
         7
100
AcDbVertex
100
AcDb2dVertex
 10
1597.5486574818
 20
-117.9369656927
 30
0.0
 70
         1
  0
VERTEX
  5
14D
100
AcDbEntity
  8
L1_100
  6
CONTINUOUS
 62
         7
100
AcDbVertex
100
AcDb2dVertex
 10
1597.6501249647
 20
-117.7035967004
 30
0.0
 70
         1
  0
VERTEX
  5
14F
100
AcDbEntity
  8
L1_100
  6
CONTINUOUS
 62
         7
100
AcDbVertex
100
AcDb2dVertex
 10
1597.7314024859
 20
-117.4558342855
 30
0.0
 70
         1
  0
VERTEX
  5
151
100
AcDbEntity
  8
L1_100
  6
CONTINUOUS
 62
         7
100
AcDbVertex
100
AcDb2dVertex
 10
1597.78622163
 20
-117.2150088894
 30
0.0
 70
         1
  0
VERTEX
  5
153
100
AcDbEntity
  8
L1_100
  6
CONTINUOUS
 62
         7
100
AcDbVertex
100
AcDb2dVertex
 10
1597.8153663296
 20
-117.006736
 30
0.0
 70
         1
  0
VERTEX
  5
155
100
AcDbEntity
  8
L1_100
  6
CONTINUOUS
 62
         7
100
AcDbVertex
100
AcDb2dVertex
 10
1597.8286999334
 20
-116.7400193118
 30
0.0
 70
         1
  0
SEQEND
  5
157
100
AcDbEntity
  8
L1_100
  6
CONTINUOUS
 62
         7
  0
LINE
  5
158
100
AcDbEntity
  8
L1_100
  6
CENTER
 62
         1
100
AcDbLine
 10
1597.8286999334
 20
-116.7400166132
 30
0.0
 11
1591.3286999334
 21
-116.7400166132
 31
0.0
  0
ARC
  5
159
100
AcDbEntity
  8
L1_100
  6
CONTINUOUS
 62
         7
100
AcDbCircle
 10
1545.8786999334
 20
-152.7400166132
 30
0.0
 40
3.0
100
AcDbArc
 50
90.0
 51
180.0
  0
ARC
  5
15A
100
AcDbEntity
  8
L1_100
  6
CONTINUOUS
 62
         7
100
AcDbCircle
 10
1545.8786999334
 20
-100.7400166132
 30
0.0
 40
3.0
100
AcDbArc
 50
180.0
 51
270.0
  0
LINE
  5
15B
100
AcDbEntity
  8
L1_100
  6
CONTINUOUS
 62
         7
100
AcDbLine
 10
1542.8786999334
 20
-100.7400166132
 30
0.0
 11
1542.8786999334
 21
-79.4900166132
 31
0.0
  0
LINE
  5
15C
100
AcDbEntity
  8
L1_100
  6
CONTINUOUS
 62
         7
100
AcDbLine
 10
1542.8786999334
 20
-173.9900166132
 30
0.0
 11
1542.8786999334
 21
-152.7400166132
 31
0.0
  0
ARC
  5
15D
100
AcDbEntity
  8
L1_100
  6
CONTINUOUS
 62
         7
100
AcDbCircle
 10
1545.8786999334
 20
86.2524144385
 30
0.0
 40
3.0
100
AcDbArc
 50
90.0
 51
180.0
  0
ARC
  5
15E
100
AcDbEntity
  8
L1_100
  6
CONTINUOUS
 62
         7
100
AcDbCircle
 10
1545.8786999334
 20
138.2524144385
 30
0.0
 40
3.0
100
AcDbArc
 50
180.0
 51
270.0
  0
LINE
  5
15F
100
AcDbEntity
  8
L1_100
  6
CENTER
 62
         1
100
AcDbLine
 10
1523.7786999334
 20
151.9774144385
 30
0.0
 11
1523.7786999334
 21
73.981360093
 31
0.0
  0
LINE
  5
160
100
AcDbEntity
  8
L1_100
  6
CONTINUOUS
 62
         7
100
AcDbLine
 10
1526.9786999334
 20
159.5024144385
 30
0.0
 11
1526.9786999334
 21
65.0024144385
 31
0.0
  0
LINE
  5
161
100
AcDbEntity
  8
L1_100
  6
CONTINUOUS
 62
         7
100
AcDbLine
 10
1422.1786999334
 20
130.1987502026
 30
0.0
 11
1422.1786999334
 21
94.3060786745
 31
0.0
  0
DIMENSION
  5
165
100
AcDbEntity
  8
L1_100
  6
CONTINUOUS
 62
         4
100
AcDbDimension
  2
*D0
 10
1684.0780484605
 20
135.2524144385
 30
0.0
 11
1680.0180484605
 21
99.3516873381
 31
0.0
  3
DIMSTYLE1
100
AcDbAlignedDimension
 13
1576.2786999334
 23
135.2524144385
 33
0.0
 14
1576.2786999334
 24
89.2524144385
 34
0.0
 50
90.0
100
AcDbRotatedDimension
  0
DIMENSION
  5
174
100
AcDbEntity
  8
L1_100
  6
CONTINUOUS
 62
         4
100
AcDbDimension
  2
*D1
 10
1662.5453752826
 20
132.2524144385
 30
0.0
 11
1658.4853752826
 21
100.2060959569
 31
0.0
  3
DIMSTYLE1
100
AcDbAlignedDimension
 13
1623.2786999334
 23
132.2524144385
 33
0.0
 14
1623.2786999334
 24
92.2524144385
 34
0.0
 50
90.0
100
AcDbRotatedDimension
  0
LINE
  5
180
100
AcDbEntity
  8
L1_100
  6
CENTER
 62
         1
100
AcDbLine
 10
1597.8286999334
 20
102.2524144385
 30
0.0
 11
1591.3286999334
 21
102.2524144385
 31
0.0
  0
POLYLINE
  5
182
100
AcDbEntity
  8
L1_100
  6
CONTINUOUS
 62
         7
100
AcDb2dPolyline
 66
         1
 10
0.0
 20
0.0
 30
0.0
 70
         2
  0
VERTEX
  5
184
100
AcDbEntity
  8
L1_100
  6
CONTINUOUS
 62
         7
100
AcDbVertex
100
AcDb2dVertex
 10
1597.8286999334
 20
102.2524171371
 30
0.0
 70
         1
  0
VERTEX
  5
186
100
AcDbEntity
  8
L1_100
  6
CONTINUOUS
 62
         7
100
AcDbVertex
100
AcDb2dVertex
 10
1597.7763113188
 20
102.7795082449
 30
0.0
 70
         1
  0
VERTEX
  5
188
100
AcDbEntity
  8
L1_100
  6
CONTINUOUS
 62
         7
100
AcDbVertex
100
AcDb2dVertex
 10
1597.7274333161
 20
102.9824603754
 30
0.0
 70
         1
  0
VERTEX
  5
18A
100
AcDbEntity
  8
L1_100
  6
CONTINUOUS
 62
         7
100
AcDbVertex
100
AcDb2dVertex
 10
1597.6612154154
 20
103.1864114643
 30
0.0
 70
         1
  0
VERTEX
  5
18C
100
AcDbEntity
  8
L1_100
  6
CONTINUOUS
 62
         7
100
AcDbVertex
100
AcDb2dVertex
 10
1597.5771062453
 20
103.3895298125
 30
0.0
 70
         1
  0
VERTEX
  5
18E
100
AcDbEntity
  8
L1_100
  6
CONTINUOUS
 62
         7
100
AcDbVertex
100
AcDb2dVertex
 10
1597.4748615926
 20
103.5898549188
 30
0.0
 70
         1
  0
VERTEX
  5
190
100
AcDbEntity
  8
L1_100
  6
CONTINUOUS
 62
         7
100
AcDbVertex
100
AcDb2dVertex
 10
1597.354580879
 20
103.7853503826
 30
0.0
 70
         1
  0
VERTEX
  5
192
100
AcDbEntity
  8
L1_100
  6
CONTINUOUS
 62
         7
100
AcDbVertex
100
AcDb2dVertex
 10
1597.2167301576
 20
103.9739659875
 30
0.0
 70
         1
  0
VERTEX
  5
194
100
AcDbEntity
  8
L1_100
  6
CONTINUOUS
 62
         7
100
AcDbVertex
100
AcDb2dVertex
 10
1597.0621485615
 20
104.15370558
 30
0.0
 70
         1
  0
VERTEX
  5
196
100
AcDbEntity
  8
L1_100
  6
CONTINUOUS
 62
         7
100
AcDbVertex
100
AcDb2dVertex
 10
1596.892036353
 20
104.3226964466
 30
0.0
 70
         1
  0
VERTEX
  5
198
100
AcDbEntity
  8
L1_100
  6
CONTINUOUS
 62
         7
100
AcDbVertex
100
AcDb2dVertex
 10
1596.7079242984
 20
104.4792553898
 30
0.0
 70
         1
  0
VERTEX
  5
19A
100
AcDbEntity
  8
L1_100
  6
CONTINUOUS
 62
         7
100
AcDbVertex
100
AcDb2dVertex
 10
1596.442338152
 20
104.6671707932
 30
0.0
 70
         1
  0
VERTEX
  5
19C
100
AcDbEntity
  8
L1_100
  6
CONTINUOUS
 62
         7
100
AcDbVertex
100
AcDb2dVertex
 10
1596.1598336621
 20
104.8275810192
 30
0.0
 70
         1
  0
VERTEX
  5
19E
100
AcDbEntity
  8
L1_100
  6
CONTINUOUS
 62
         7
100
AcDbVertex
100
AcDb2dVertex
 10
1595.8657651001
 20
104.9589296908
 30
0.0
 70
         1
  0
VERTEX
  5
1A0
100
AcDbEntity
  8
L1_100
  6
CONTINUOUS
 62
         7
100
AcDbVertex
100
AcDb2dVertex
 10
1595.5655561065
 20
105.0607433278
 30
0.0
 70
         1
  0
VERTEX
  5
1A2
100
AcDbEntity
  8
L1_100
  6
CONTINUOUS
 62
         7
100
AcDbVertex
100
AcDb2dVertex
 10
1595.2643953619
 20
105.1335624779
 30
0.0
 70
         1
  0
VERTEX
  5
1A4
100
AcDbEntity
  8
L1_100
  6
CONTINUOUS
 62
         7
100
AcDbVertex
100
AcDb2dVertex
 10
1594.9669867778
 20
105.1788000135
 30
0.0
 70
         1
  0
VERTEX
  5
1A6
100
AcDbEntity
  8
L1_100
  6
CONTINUOUS
 62
         7
100
AcDbVertex
100
AcDb2dVertex
 10
1594.677372912
 20
105.1985527717
 30
0.0
 70
         1
  0
VERTEX
  5
1A8
100
AcDbEntity
  8
L1_100
  6
CONTINUOUS
 62
         7
100
AcDbVertex
100
AcDb2dVertex
 10
1594.3988367818
 20
105.195394316
 30
0.0
 70
         1
  0
VERTEX
  5
1AA
100
AcDbEntity
  8
L1_100
  6
CONTINUOUS
 62
         7
100
AcDbVertex
100
AcDb2dVertex
 10
1594.0464156628
 20
105.160111293
 30
0.0
 70
         1
  0
VERTEX
  5
1AC
100
AcDbEntity
  8
L1_100
  6
CONTINUOUS
 62
         7
100
AcDbVertex
100
AcDb2dVertex
 10
1593.7223418743
 20
105.0957494321
 30
0.0
 70
         1
  0
VERTEX
  5
1AE
100
AcDbEntity
  8
L1_100
  6
CONTINUOUS
 62
         7
100
AcDbVertex
100
AcDb2dVertex
 10
1593.428461359
 20
105.0091373634
 30
0.0
 70
         1
  0
VERTEX
  5
1B0
100
AcDbEntity
  8
L1_100
  6
CONTINUOUS
 62
         7
100
AcDbVertex
100
AcDb2dVertex
 10
1593.1649633413
 20
104.9064364843
 30
0.0
 70
         1
  0
VERTEX
  5
1B2
100
AcDbEntity
  8
L1_100
  6
CONTINUOUS
 62
         7
100
AcDbVertex
100
AcDb2dVertex
 10
1592.9308399389
 20
104.7929392758
 30
0.0
 70
         1
  0
VERTEX
  5
1B4
100
AcDbEntity
  8
L1_100
  6
CONTINUOUS
 62
         7
100
AcDbVertex
100
AcDb2dVertex
 10
1592.6587371923
 20
104.6305994605
 30
0.0
 70
         1
  0
VERTEX
  5
1B6
100
AcDbEntity
  8
L1_100
  6
CONTINUOUS
 62
         7
100
AcDbVertex
100
AcDb2dVertex
 10
1592.4310515618
 20
104.4646552396
 30
0.0
 70
         1
  0
VERTEX
  5
1B8
100
AcDbEntity
  8
L1_100
  6
CONTINUOUS
 62
         7
100
AcDbVertex
100
AcDb2dVertex
 10
1592.241778466
 20
104.3007937405
 30
0.0
 70
         1
  0
VERTEX
  5
1BA
100
AcDbEntity
  8
L1_100
  6
CONTINUOUS
 62
         7
100
AcDbVertex
100
AcDb2dVertex
 10
1592.0367665452
 20
104.0890325666
 30
0.0
 70
         1
  0
VERTEX
  5
1BC
100
AcDbEntity
  8
L1_100
  6
CONTINUOUS
 62
         7
100
AcDbVertex
100
AcDb2dVertex
 10
1591.8785805065
 20
103.8928797786
 30
0.0
 70
         1
  0
VERTEX
  5
1BE
100
AcDbEntity
  8
L1_100
  6
CONTINUOUS
 62
         7
100
AcDbVertex
100
AcDb2dVertex
 10
1591.720156533
 20
103.6548427513
 30
0.0
 70
         1
  0
VERTEX
  5
1C0
100
AcDbEntity
  8
L1_100
  6
CONTINUOUS
 62
         7
100
AcDbVertex
100
AcDb2dVertex
 10
1591.6087406859
 20
103.4493600506
 30
0.0
 70
         1
  0
VERTEX
  5
1C2
100
AcDbEntity
  8
L1_100
  6
CONTINUOUS
 62
         7
100
AcDbVertex
100
AcDb2dVertex
 10
1591.5072736113
 20
103.2159911417
 30
0.0
 70
         1
  0
VERTEX
  5
1C4
100
AcDbEntity
  8
L1_100
  6
CONTINUOUS
 62
         7
100
AcDbVertex
100
AcDb2dVertex
 10
1591.4259964828
 20
102.9682288574
 30
0.0
 70
         1
  0
VERTEX
  5
1C6
100
AcDbEntity
  8
L1_100
  6
CONTINUOUS
 62
         7
100
AcDbVertex
100
AcDb2dVertex
 10
1591.37117768
 20
102.7274036223
 30
0.0
 70
         1
  0
VERTEX
  5
1C8
100
AcDbEntity
  8
L1_100
  6
CONTINUOUS
 62
         7
100
AcDbVertex
100
AcDb2dVertex
 10
1591.3420332436
 20
102.5191308947
 30
0.0
 70
         1
  0
VERTEX
  5
1CA
100
AcDbEntity
  8
L1_100
  6
CONTINUOUS
 62
         7
100
AcDbVertex
100
AcDb2dVertex
 10
1591.3286999334
 20
102.2524144385
 30
0.0
 70
         1
  0
SEQEND
  5
1CC
100
AcDbEntity
  8
L1_100
  6
CONTINUOUS
 62
         7
  0
POLYLINE
  5
1CE
100
AcDbEntity
  8
L1_100
  6
CONTINUOUS
 62
         7
100
AcDb2dPolyline
 66
         1
 10
0.0
 20
0.0
 30
0.0
 70
         2
  0
VERTEX
  5
1D0
100
AcDbEntity
  8
L1_100
  6
CONTINUOUS
 62
         7
100
AcDbVertex
100
AcDb2dVertex
 10
1591.3286999334
 20
102.252414428
 30
0.0
 70
         1
  0
VERTEX
  5
1D2
100
AcDbEntity
  8
L1_100
  6
CONTINUOUS
 62
         7
100
AcDbVertex
100
AcDb2dVertex
 10
1591.3810879751
 20
101.7728608153
 30
0.0
 70
         1
  0
VERTEX
  5
1D4
100
AcDbEntity
  8
L1_100
  6
CONTINUOUS
 62
         7
100
AcDbVertex
100
AcDb2dVertex
 10
1591.4299657374
 20
101.5882125732
 30
0.0
 70
         1
  0
VERTEX
  5
1D6
100
AcDbEntity
  8
L1_100
  6
CONTINUOUS
 62
         7
100
AcDbVertex
100
AcDb2dVertex
 10
1591.496183388
 20
101.4026554443
 30
0.0
 70
         1
  0
VERTEX
  5
1D8
100
AcDbEntity
  8
L1_100
  6
CONTINUOUS
 62
         7
100
AcDbVertex
100
AcDb2dVertex
 10
1591.5802923023
 20
101.2178559283
 30
0.0
 70
         1
  0
VERTEX
  5
1DA
100
AcDbEntity
  8
L1_100
  6
CONTINUOUS
 62
         7
100
AcDbVertex
100
AcDb2dVertex
 10
1591.682536698
 20
101.0355977112
 30
0.0
 70
         1
  0
VERTEX
  5
1DC
100
AcDbEntity
  8
L1_100
  6
CONTINUOUS
 62
         7
100
AcDbVertex
100
AcDb2dVertex
 10
1591.8028171587
 20
100.8577335339
 30
0.0
 70
         1
  0
VERTEX
  5
1DE
100
AcDbEntity
  8
L1_100
  6
CONTINUOUS
 62
         7
100
AcDbVertex
100
AcDb2dVertex
 10
1591.9406676364
 20
100.6861287079
 30
0.0
 70
         1
  0
VERTEX
  5
1E0
100
AcDbEntity
  8
L1_100
  6
CONTINUOUS
 62
         7
100
AcDbVertex
100
AcDb2dVertex
 10
1592.0952490032
 20
100.5225993587
 30
0.0
 70
         1
  0
VERTEX
  5
1E2
100
AcDbEntity
  8
L1_100
  6
CONTINUOUS
 62
         7
100
AcDbVertex
100
AcDb2dVertex
 10
1592.2653610019
 20
100.3688493053
 30
0.0
 70
         1
  0
VERTEX
  5
1E4
100
AcDbEntity
  8
L1_100
  6
CONTINUOUS
 62
         7
100
AcDbVertex
100
AcDb2dVertex
 10
1592.4494728705
 20
100.2264099438
 30
0.0
 70
         1
  0
VERTEX
  5
1E6
100
AcDbEntity
  8
L1_100
  6
CONTINUOUS
 62
         7
100
AcDbVertex
100
AcDb2dVertex
 10
1592.715058811
 20
100.0554420178
 30
0.0
 70
         1
  0
VERTEX
  5
1E8
100
AcDbEntity
  8
L1_100
  6
CONTINUOUS
 62
         7
100
AcDbVertex
100
AcDb2dVertex
 10
1592.9975631501
 20
99.9094986098
 30
0.0
 70
         1
  0
VERTEX
  5
1EA
100
AcDbEntity
  8
L1_100
  6
CONTINUOUS
 62
         7
100
AcDbVertex
100
AcDb2dVertex
 10
1593.2916316187
 20
99.7899957404
 30
0.0
 70
         1
  0
VERTEX
  5
1EC
100
AcDbEntity
  8
L1_100
  6
CONTINUOUS
 62
         7
100
AcDbVertex
100
AcDb2dVertex
 10
1593.5918405756
 20
99.6973641978
 30
0.0
 70
         1
  0
VERTEX
  5
1EE
100
AcDbEntity
  8
L1_100
  6
CONTINUOUS
 62
         7
100
AcDbVertex
100
AcDb2dVertex
 10
1593.893001336
 20
99.6311121945
 30
0.0
 70
         1
  0
VERTEX
  5
1F0
100
AcDbEntity
  8
L1_100
  6
CONTINUOUS
 62
         7
100
AcDbVertex
100
AcDb2dVertex
 10
1594.1904099823
 20
99.5899542897
 30
0.0
 70
         1
  0
VERTEX
  5
1F2
100
AcDbEntity
  8
L1_100
  6
CONTINUOUS
 62
         7
100
AcDbVertex
100
AcDb2dVertex
 10
1594.4800239492
 20
99.5719827619
 30
0.0
 70
         1
  0
VERTEX
  5
1F4
100
AcDbEntity
  8
L1_100
  6
CONTINUOUS
 62
         7
100
AcDbVertex
100
AcDb2dVertex
 10
1594.8511169344
 20
99.5801836056
 30
0.0
 70
         1
  0
VERTEX
  5
1F6
100
AcDbEntity
  8
L1_100
  6
CONTINUOUS
 62
         7
100
AcDbVertex
100
AcDb2dVertex
 10
1595.1965806692
 20
99.6196562792
 30
0.0
 70
         1
  0
VERTEX
  5
1F8
100
AcDbEntity
  8
L1_100
  6
CONTINUOUS
 62
         7
100
AcDbVertex
100
AcDb2dVertex
 10
1595.5130422122
 20
99.683956649
 30
0.0
 70
         1
  0
VERTEX
  5
1FA
100
AcDbEntity
  8
L1_100
  6
CONTINUOUS
 62
         7
100
AcDbVertex
100
AcDb2dVertex
 10
1595.7991232468
 20
99.7670006363
 30
0.0
 70
         1
  0
VERTEX
  5
1FC
100
AcDbEntity
  8
L1_100
  6
CONTINUOUS
 62
         7
100
AcDbVertex
100
AcDb2dVertex
 10
1596.054982971
 20
99.8633730643
 30
0.0
 70
         1
  0
VERTEX
  5
1FE
100
AcDbEntity
  8
L1_100
  6
CONTINUOUS
 62
         7
100
AcDbVertex
100
AcDb2dVertex
 10
1596.3540902327
 20
100.0062316756
 30
0.0
 70
         1
  0
VERTEX
  5
200
100
AcDbEntity
  8
L1_100
  6
CONTINUOUS
 62
         7
100
AcDbVertex
100
AcDb2dVertex
 10
1596.6056007413
 20
100.1561698556
 30
0.0
 70
         1
  0
VERTEX
  5
202
100
AcDbEntity
  8
L1_100
  6
CONTINUOUS
 62
         7
100
AcDbVertex
100
AcDb2dVertex
 10
1596.8153690444
 20
100.3068228777
 30
0.0
 70
         1
  0
VERTEX
  5
204
100
AcDbEntity
  8
L1_100
  6
CONTINUOUS
 62
         7
100
AcDbVertex
100
AcDb2dVertex
 10
1597.0431014269
 20
100.5041490961
 30
0.0
 70
         1
  0
VERTEX
  5
206
100
AcDbEntity
  8
L1_100
  6
CONTINUOUS
 62
         7
100
AcDbVertex
100
AcDb2dVertex
 10
1597.219038931
 20
100.688777213
 30
0.0
 70
         1
  0
VERTEX
  5
208
100
AcDbEntity
  8
L1_100
  6
CONTINUOUS
 62
         7
100
AcDbVertex
100
AcDb2dVertex
 10
1597.3546589702
 20
100.8578368814
 30
0.0
 70
         1
  0
VERTEX
  5
20A
100
AcDbEntity
  8
L1_100
  6
CONTINUOUS
 62
         7
100
AcDbVertex
100
AcDb2dVertex
 10
1597.4905354571
 20
101.0613351003
 30
0.0
 70
         1
  0
VERTEX
  5
20C
100
AcDbEntity
  8
L1_100
  6
CONTINUOUS
 62
         7
100
AcDbVertex
100
AcDb2dVertex
 10
1597.6139054421
 20
101.2936918519
 30
0.0
 70
         1
  0
VERTEX
  5
20E
100
AcDbEntity
  8
L1_100
  6
CONTINUOUS
 62
         7
100
AcDbVertex
100
AcDb2dVertex
 10
1597.6909899572
 20
101.4800698977
 30
0.0
 70
         1
  0
VERTEX
  5
210
100
AcDbEntity
  8
L1_100
  6
CONTINUOUS
 62
         7
100
AcDbVertex
100
AcDb2dVertex
 10
1597.7531760249
 20
101.6776594683
 30
0.0
 70
         1
  0
VERTEX
  5
212
100
AcDbEntity
  8
L1_100
  6
CONTINUOUS
 62
         7
100
AcDbVertex
100
AcDb2dVertex
 10
1597.7954926104
 20
101.8700451081
 30
0.0
 70
         1
  0
VERTEX
  5
214
100
AcDbEntity
  8
L1_100
  6
CONTINUOUS
 62
         7
100
AcDbVertex
100
AcDb2dVertex
 10
1597.8228020526
 20
102.0909305494
 30
0.0
 70
         1
  0
VERTEX
  5
216
100
AcDbEntity
  8
L1_100
  6
CONTINUOUS
 62
         7
100
AcDbVertex
100
AcDb2dVertex
 10
1597.8286999334
 20
102.2524144385
 30
0.0
 70
         1
  0
SEQEND
  5
218
100
AcDbEntity
  8
L1_100
  6
CONTINUOUS
 62
         7
  0
LINE
  5
219
100
AcDbEntity
  8
L1_100
  6
CENTER
 62
         1
100
AcDbLine
 10
1597.8286999334
 20
122.2524144385
 30
0.0
 11
1591.3286999334
 21
122.2524144385
 31
0.0
  0
POLYLINE
  5
21B
100
AcDbEntity
  8
L1_100
  6
CONTINUOUS
 62
         7
100
AcDb2dPolyline
 66
         1
 10
0.0
 20
0.0
 30
0.0
 70
         2
  0
VERTEX
  5
21D
100
AcDbEntity
  8
L1_100
  6
CONTINUOUS
 62
         7
100
AcDbVertex
100
AcDb2dVertex
 10
1591.3286999334
 20
122.2524144385
 30
0.0
 70
         1
  0
VERTEX
  5
21F
100
AcDbEntity
  8
L1_100
  6
CONTINUOUS
 62
         7
100
AcDbVertex
100
AcDb2dVertex
 10
1591.3810879207
 20
121.7253237621
 30
0.0
 70
         1
  0
VERTEX
  5
221
100
AcDbEntity
  8
L1_100
  6
CONTINUOUS
 62
         7
100
AcDbVertex
100
AcDb2dVertex
 10
1591.4299656312
 20
121.5223717637
 30
0.0
 70
         1
  0
VERTEX
  5
223
100
AcDbEntity
  8
L1_100
  6
CONTINUOUS
 62
         7
100
AcDbVertex
100
AcDb2dVertex
 10
1591.4961832097
 20
121.3184207833
 30
0.0
 70
         1
  0
VERTEX
  5
225
100
AcDbEntity
  8
L1_100
  6
CONTINUOUS
 62
         7
100
AcDbVertex
100
AcDb2dVertex
 10
1591.5802920307
 20
121.1153025147
 30
0.0
 70
         1
  0
VERTEX
  5
227
100
AcDbEntity
  8
L1_100
  6
CONTINUOUS
 62
         7
100
AcDbVertex
100
AcDb2dVertex
 10
1591.6825363114
 20
120.9149774543
 30
0.0
 70
         1
  0
VERTEX
  5
229
100
AcDbEntity
  8
L1_100
  6
CONTINUOUS
 62
         7
100
AcDbVertex
100
AcDb2dVertex
 10
1591.8028166355
 20
120.7194819981
 30
0.0
 70
         1
  0
VERTEX
  5
22B
100
AcDbEntity
  8
L1_100
  6
CONTINUOUS
 62
         7
100
AcDbVertex
100
AcDb2dVertex
 10
1591.9406669562
 20
120.5308663594
 30
0.0
 70
         1
  0
VERTEX
  5
22D
100
AcDbEntity
  8
L1_100
  6
CONTINUOUS
 62
         7
100
AcDbVertex
100
AcDb2dVertex
 10
1592.0952481478
 20
120.3511266893
 30
0.0
 70
         1
  0
VERTEX
  5
22F
100
AcDbEntity
  8
L1_100
  6
CONTINUOUS
 62
         7
100
AcDbVertex
100
AcDb2dVertex
 10
1592.2653599558
 20
120.1821357005
 30
0.0
 70
         1
  0
VERTEX
  5
231
100
AcDbEntity
  8
L1_100
  6
CONTINUOUS
 62
         7
100
AcDbVertex
100
AcDb2dVertex
 10
1592.449471622
 20
120.025576591
 30
0.0
 70
         1
  0
VERTEX
  5
233
100
AcDbEntity
  8
L1_100
  6
CONTINUOUS
 62
         7
100
AcDbVertex
100
AcDb2dVertex
 10
1592.7150572799
 20
119.8376608991
 30
0.0
 70
         1
  0
VERTEX
  5
235
100
AcDbEntity
  8
L1_100
  6
CONTINUOUS
 62
         7
100
AcDbVertex
100
AcDb2dVertex
 10
1592.9975613338
 20
119.6772503178
 30
0.0
 70
         1
  0
VERTEX
  5
237
100
AcDbEntity
  8
L1_100
  6
CONTINUOUS
 62
         7
100
AcDbVertex
100
AcDb2dVertex
 10
1593.2916295255
 20
119.5459012363
 30
0.0
 70
         1
  0
VERTEX
  5
239
100
AcDbEntity
  8
L1_100
  6
CONTINUOUS
 62
         7
100
AcDbVertex
100
AcDb2dVertex
 10
1593.5918382241
 20
119.4440871495
 30
0.0
 70
         1
  0
VERTEX
  5
23B
100
AcDbEntity
  8
L1_100
  6
CONTINUOUS
 62
         7
100
AcDbVertex
100
AcDb2dVertex
 10
1593.8929987533
 20
119.3712675251
 30
0.0
 70
         1
  0
VERTEX
  5
23D
100
AcDbEntity
  8
L1_100
  6
CONTINUOUS
 62
         7
100
AcDbVertex
100
AcDb2dVertex
 10
1594.1904072017
 20
119.3260295061
 30
0.0
 70
         1
  0
VERTEX
  5
23F
100
AcDbEntity
  8
L1_100
  6
CONTINUOUS
 62
         7
100
AcDbVertex
100
AcDb2dVertex
 10
1594.4800210079
 20
119.3062762692
 30
0.0
 70
         1
  0
VERTEX
  5
241
100
AcDbEntity
  8
L1_100
  6
CONTINUOUS
 62
         7
100
AcDbVertex
100
AcDb2dVertex
 10
1594.7585571476
 20
119.3094342626
 30
0.0
 70
         1
  0
VERTEX
  5
243
100
AcDbEntity
  8
L1_100
  6
CONTINUOUS
 62
         7
100
AcDbVertex
100
AcDb2dVertex
 10
1595.110978373
 20
119.3447167062
 30
0.0
 70
         1
  0
VERTEX
  5
245
100
AcDbEntity
  8
L1_100
  6
CONTINUOUS
 62
         7
100
AcDbVertex
100
AcDb2dVertex
 10
1595.4350523532
 20
119.409078048
 30
0.0
 70
         1
  0
VERTEX
  5
247
100
AcDbEntity
  8
L1_100
  6
CONTINUOUS
 62
         7
100
AcDbVertex
100
AcDb2dVertex
 10
1595.728933122
 20
119.4956896654
 30
0.0
 70
         1
  0
VERTEX
  5
249
100
AcDbEntity
  8
L1_100
  6
CONTINUOUS
 62
         7
100
AcDbVertex
100
AcDb2dVertex
 10
1595.9924314337
 20
119.5983901619
 30
0.0
 70
         1
  0
VERTEX
  5
24B
100
AcDbEntity
  8
L1_100
  6
CONTINUOUS
 62
         7
100
AcDbVertex
100
AcDb2dVertex
 10
1596.2265551526
 20
119.7118870537
 30
0.0
 70
         1
  0
VERTEX
  5
24D
100
AcDbEntity
  8
L1_100
  6
CONTINUOUS
 62
         7
100
AcDbVertex
100
AcDb2dVertex
 10
1596.4986583366
 20
119.8742265361
 30
0.0
 70
         1
  0
VERTEX
  5
24F
100
AcDbEntity
  8
L1_100
  6
CONTINUOUS
 62
         7
100
AcDbVertex
100
AcDb2dVertex
 10
1596.7263443955
 20
120.0401705158
 30
0.0
 70
         1
  0
VERTEX
  5
251
100
AcDbEntity
  8
L1_100
  6
CONTINUOUS
 62
         7
100
AcDbVertex
100
AcDb2dVertex
 10
1596.9156178958
 20
120.2040318477
 30
0.0
 70
         1
  0
VERTEX
  5
253
100
AcDbEntity
  8
L1_100
  6
CONTINUOUS
 62
         7
100
AcDbVertex
100
AcDb2dVertex
 10
1597.1206303122
 20
120.4157928847
 30
0.0
 70
         1
  0
VERTEX
  5
255
100
AcDbEntity
  8
L1_100
  6
CONTINUOUS
 62
         7
100
AcDbVertex
100
AcDb2dVertex
 10
1597.2788167825
 20
120.6119456087
 30
0.0
 70
         1
  0
VERTEX
  5
257
100
AcDbEntity
  8
L1_100
  6
CONTINUOUS
 62
         7
100
AcDbVertex
100
AcDb2dVertex
 10
1597.4372412444
 20
120.8499826229
 30
0.0
 70
         1
  0
VERTEX
  5
259
100
AcDbEntity
  8
L1_100
  6
CONTINUOUS
 62
         7
100
AcDbVertex
100
AcDb2dVertex
 10
1597.5486574818
 20
121.055465359
 30
0.0
 70
         1
  0
VERTEX
  5
25B
100
AcDbEntity
  8
L1_100
  6
CONTINUOUS
 62
         7
100
AcDbVertex
100
AcDb2dVertex
 10
1597.6501249647
 20
121.2888343513
 30
0.0
 70
         1
  0
VERTEX
  5
25D
100
AcDbEntity
  8
L1_100
  6
CONTINUOUS
 62
         7
100
AcDbVertex
100
AcDb2dVertex
 10
1597.7314024859
 20
121.5365967662
 30
0.0
 70
         1
  0
VERTEX
  5
25F
100
AcDbEntity
  8
L1_100
  6
CONTINUOUS
 62
         7
100
AcDbVertex
100
AcDb2dVertex
 10
1597.78622163
 20
121.7774221623
 30
0.0
 70
         1
  0
VERTEX
  5
261
100
AcDbEntity
  8
L1_100
  6
CONTINUOUS
 62
         7
100
AcDbVertex
100
AcDb2dVertex
 10
1597.8153663296
 20
121.9856950517
 30
0.0
 70
         1
  0
VERTEX
  5
263
100
AcDbEntity
  8
L1_100
  6
CONTINUOUS
 62
         7
100
AcDbVertex
100
AcDb2dVertex
 10
1597.8286999334
 20
122.25241174
 30
0.0
 70
         1
  0
SEQEND
  5
265
100
AcDbEntity
  8
L1_100
  6
CONTINUOUS
 62
         7
  0
POLYLINE
  5
267
100
AcDbEntity
  8
L1_100
  6
CONTINUOUS
 62
         7
100
AcDb2dPolyline
 66
         1
 10
0.0
 20
0.0
 30
0.0
 70
         2
  0
VERTEX
  5
269
100
AcDbEntity
  8
L1_100
  6
CONTINUOUS
 62
         7
100
AcDbVertex
100
AcDb2dVertex
 10
1597.8286999334
 20
122.2524144385
 30
0.0
 70
         1
  0
VERTEX
  5
26B
100
AcDbEntity
  8
L1_100
  6
CONTINUOUS
 62
         7
100
AcDbVertex
100
AcDb2dVertex
 10
1597.7763118944
 20
122.7319680495
 30
0.0
 70
         1
  0
VERTEX
  5
26D
100
AcDbEntity
  8
L1_100
  6
CONTINUOUS
 62
         7
100
AcDbVertex
100
AcDb2dVertex
 10
1597.7274341333
 20
122.9166162911
 30
0.0
 70
         1
  0
VERTEX
  5
26F
100
AcDbEntity
  8
L1_100
  6
CONTINUOUS
 62
         7
100
AcDbVertex
100
AcDb2dVertex
 10
1597.6612164842
 20
123.1021734196
 30
0.0
 70
         1
  0
VERTEX
  5
271
100
AcDbEntity
  8
L1_100
  6
CONTINUOUS
 62
         7
100
AcDbVertex
100
AcDb2dVertex
 10
1597.5771075713
 20
123.2869729353
 30
0.0
 70
         1
  0
VERTEX
  5
273
100
AcDbEntity
  8
L1_100
  6
CONTINUOUS
 62
         7
100
AcDbVertex
100
AcDb2dVertex
 10
1597.4748631772
 20
123.4692311522
 30
0.0
 70
         1
  0
VERTEX
  5
275
100
AcDbEntity
  8
L1_100
  6
CONTINUOUS
 62
         7
100
AcDbVertex
100
AcDb2dVertex
 10
1597.3545827183
 20
123.6470953295
 30
0.0
 70
         1
  0
VERTEX
  5
277
100
AcDbEntity
  8
L1_100
  6
CONTINUOUS
 62
         7
100
AcDbVertex
100
AcDb2dVertex
 10
1597.2167322423
 20
123.8187001555
 30
0.0
 70
         1
  0
VERTEX
  5
279
100
AcDbEntity
  8
L1_100
  6
CONTINUOUS
 62
         7
100
AcDbVertex
100
AcDb2dVertex
 10
1597.0621508772
 20
123.9822295051
 30
0.0
 70
         1
  0
VERTEX
  5
27B
100
AcDbEntity
  8
L1_100
  6
CONTINUOUS
 62
         7
100
AcDbVertex
100
AcDb2dVertex
 10
1596.8920388803
 20
124.1359795589
 30
0.0
 70
         1
  0
VERTEX
  5
27D
100
AcDbEntity
  8
L1_100
  6
CONTINUOUS
 62
         7
100
AcDbVertex
100
AcDb2dVertex
 10
1596.7079270133
 20
124.2784189211
 30
0.0
 70
         1
  0
VERTEX
  5
27F
100
AcDbEntity
  8
L1_100
  6
CONTINUOUS
 62
         7
100
AcDbVertex
100
AcDb2dVertex
 10
1596.4423410749
 20
124.4493868482
 30
0.0
 70
         1
  0
VERTEX
  5
281
100
AcDbEntity
  8
L1_100
  6
CONTINUOUS
 62
         7
100
AcDbVertex
100
AcDb2dVertex
 10
1596.1598367377
 20
124.5953302577
 30
0.0
 70
         1
  0
VERTEX
  5
283
100
AcDbEntity
  8
L1_100
  6
CONTINUOUS
 62
         7
100
AcDbVertex
100
AcDb2dVertex
 10
1595.8657682707
 20
124.7148331287
 30
0.0
 70
         1
  0
VERTEX
  5
285
100
AcDbEntity
  8
L1_100
  6
CONTINUOUS
 62
         7
100
AcDbVertex
100
AcDb2dVertex
 10
1595.5655593151
 20
124.807464673
 30
0.0
 70
         1
  0
VERTEX
  5
287
100
AcDbEntity
  8
L1_100
  6
CONTINUOUS
 62
         7
100
AcDbVertex
100
AcDb2dVertex
 10
1595.2643985556
 20
124.8737166782
 30
0.0
 70
         1
  0
VERTEX
  5
289
100
AcDbEntity
  8
L1_100
  6
CONTINUOUS
 62
         7
100
AcDbVertex
100
AcDb2dVertex
 10
1594.9669899099
 20
124.9148745849
 30
0.0
 70
         1
  0
VERTEX
  5
28B
100
AcDbEntity
  8
L1_100
  6
CONTINUOUS
 62
         7
100
AcDbVertex
100
AcDb2dVertex
 10
1594.6773759432
 20
124.9328461146
 30
0.0
 70
         1
  0
VERTEX
  5
28D
100
AcDbEntity
  8
L1_100
  6
CONTINUOUS
 62
         7
100
AcDbVertex
100
AcDb2dVertex
 10
1594.3062829579
 20
124.9246452732
 30
0.0
 70
         1
  0
VERTEX
  5
28F
100
AcDbEntity
  8
L1_100
  6
CONTINUOUS
 62
         7
100
AcDbVertex
100
AcDb2dVertex
 10
1593.9608192225
 20
124.8851726019
 30
0.0
 70
         1
  0
VERTEX
  5
291
100
AcDbEntity
  8
L1_100
  6
CONTINUOUS
 62
         7
100
AcDbVertex
100
AcDb2dVertex
 10
1593.6443576786
 20
124.820872234
 30
0.0
 70
         1
  0
VERTEX
  5
293
100
AcDbEntity
  8
L1_100
  6
CONTINUOUS
 62
         7
100
AcDbVertex
100
AcDb2dVertex
 10
1593.3582766429
 20
124.7378282485
 30
0.0
 70
         1
  0
VERTEX
  5
295
100
AcDbEntity
  8
L1_100
  6
CONTINUOUS
 62
         7
100
AcDbVertex
100
AcDb2dVertex
 10
1593.1024169174
 20
124.6414558219
 30
0.0
 70
         1
  0
VERTEX
  5
297
100
AcDbEntity
  8
L1_100
  6
CONTINUOUS
 62
         7
100
AcDbVertex
100
AcDb2dVertex
 10
1592.8033096538
 20
124.4985972121
 30
0.0
 70
         1
  0
VERTEX
  5
299
100
AcDbEntity
  8
L1_100
  6
CONTINUOUS
 62
         7
100
AcDbVertex
100
AcDb2dVertex
 10
1592.5517991434
 20
124.3486590332
 30
0.0
 70
         1
  0
VERTEX
  5
29B
100
AcDbEntity
  8
L1_100
  6
CONTINUOUS
 62
         7
100
AcDbVertex
100
AcDb2dVertex
 10
1592.3420308384
 20
124.1980060119
 30
0.0
 70
         1
  0
VERTEX
  5
29D
100
AcDbEntity
  8
L1_100
  6
CONTINUOUS
 62
         7
100
AcDbVertex
100
AcDb2dVertex
 10
1592.1142984537
 20
124.0006797942
 30
0.0
 70
         1
  0
VERTEX
  5
29F
100
AcDbEntity
  8
L1_100
  6
CONTINUOUS
 62
         7
100
AcDbVertex
100
AcDb2dVertex
 10
1591.9383609477
 20
123.8160516777
 30
0.0
 70
         1
  0
VERTEX
  5
2A1
100
AcDbEntity
  8
L1_100
  6
CONTINUOUS
 62
         7
100
AcDbVertex
100
AcDb2dVertex
 10
1591.8027409067
 20
123.6469920094
 30
0.0
 70
         1
  0
VERTEX
  5
2A3
100
AcDbEntity
  8
L1_100
  6
CONTINUOUS
 62
         7
100
AcDbVertex
100
AcDb2dVertex
 10
1591.6668644179
 20
123.4434937905
 30
0.0
 70
         1
  0
VERTEX
  5
2A5
100
AcDbEntity
  8
L1_100
  6
CONTINUOUS
 62
         7
100
AcDbVertex
100
AcDb2dVertex
 10
1591.5434944309
 20
123.2111370386
 30
0.0
 70
         1
  0
VERTEX
  5
2A7
100
AcDbEntity
  8
L1_100
  6
CONTINUOUS
 62
         7
100
AcDbVertex
100
AcDb2dVertex
 10
1591.4664099144
 20
123.0247589925
 30
0.0
 70
         1
  0
VERTEX
  5
2A9
100
AcDbEntity
  8
L1_100
  6
CONTINUOUS
 62
         7
100
AcDbVertex
100
AcDb2dVertex
 10
1591.4042238452
 20
122.8271694213
 30
0.0
 70
         1
  0
VERTEX
  5
2AB
100
AcDbEntity
  8
L1_100
  6
CONTINUOUS
 62
         7
100
AcDbVertex
100
AcDb2dVertex
 10
1591.3619072585
 20
122.6347837809
 30
0.0
 70
         1
  0
VERTEX
  5
2AD
100
AcDbEntity
  8
L1_100
  6
CONTINUOUS
 62
         7
100
AcDbVertex
100
AcDb2dVertex
 10
1591.334597815
 20
122.4138983389
 30
0.0
 70
         1
  0
VERTEX
  5
2AF
100
AcDbEntity
  8
L1_100
  6
CONTINUOUS
 62
         7
100
AcDbVertex
100
AcDb2dVertex
 10
1591.3286999334
 20
122.2524144491
 30
0.0
 70
         1
  0
SEQEND
  5
2B1
100
AcDbEntity
  8
L1_100
  6
CONTINUOUS
 62
         7
  0
LINE
  5
2B2
100
AcDbEntity
  8
L1_100
  6
CENTER
 62
         1
100
AcDbLine
 10
1594.5786999334
 20
92.2524144385
 30
0.0
 11
1594.5786999334
 21
132.2524144385
 31
0.0
  0
ARC
  5
2B3
100
AcDbEntity
  8
L1_100
  6
CONTINUOUS
 62
         7
100
AcDbCircle
 10
1576.2786999334
 20
89.7524144385
 30
0.0
 40
0.5
100
AcDbArc
 50
270.0
 51
360.0
  0
ARC
  5
2B4
100
AcDbEntity
  8
L1_100
  6
CONTINUOUS
 62
         7
100
AcDbCircle
 10
1576.2786999334
 20
134.7524144385
 30
0.0
 40
0.5
100
AcDbArc
 50
0.0
 51
90.0
  0
LINE
  5
2B5
100
AcDbEntity
  8
L1_100
  6
CENTER
 62
         1
100
AcDbLine
 10
1548.5286999334
 20
112.2524144385
 30
0.0
 11
1623.7786999334
 21
112.2524144385
 31
0.0
  0
LINE
  5
2B6
100
AcDbEntity
  8
L1_100
  6
CONTINUOUS
 62
         7
100
AcDbLine
 10
1617.2786999334
 20
92.3524144385
 30
0.0
 11
1617.2786999334
 21
132.1524144385
 31
0.0
  0
LINE
  5
2B7
100
AcDbEntity
  8
L1_100
  6
CONTINUOUS
 62
         7
100
AcDbLine
 10
1615.3286999334
 20
92.3524144385
 30
0.0
 11
1615.3286999334
 21
132.1524144385
 31
0.0
  0
LINE
  5
2B8
100
AcDbEntity
  8
L1_100
  6
CONTINUOUS
 62
         7
100
AcDbLine
 10
1623.2786999334
 20
104.0024144385
 30
0.0
 11
1618.4786999334
 21
104.0024144385
 31
0.0
  0
ARC
  5
2B9
100
AcDbEntity
  8
L1_100
  6
CONTINUOUS
 62
         7
100
AcDbCircle
 10
1618.4786999334
 20
104.5024144385
 30
0.0
 40
0.5
100
AcDbArc
 50
180.0
 51
270.0
  0
LINE
  5
2BA
100
AcDbEntity
  8
L1_100
  6
CONTINUOUS
 62
         7
100
AcDbLine
 10
1617.9786999334
 20
104.5024144385
 30
0.0
 11
1617.9786999334
 21
120.0024144385
 31
0.0
  0
ARC
  5
2BB
100
AcDbEntity
  8
L1_100
  6
CONTINUOUS
 62
         7
100
AcDbCircle
 10
1618.4786999334
 20
120.0024144385
 30
0.0
 40
0.5
100
AcDbArc
 50
90.0
 51
180.0
  0
LINE
  5
2BC
100
AcDbEntity
  8
L1_100
  6
CONTINUOUS
 62
         7
100
AcDbLine
 10
1623.2786999334
 20
120.5024144385
 30
0.0
 11
1618.4786999334
 21
120.5024144385
 31
0.0
  0
LINE
  5
2BD
100
AcDbEntity
  8
L1_100
  6
CONTINUOUS
 62
         7
100
AcDbLine
 10
1623.2786999334
 20
132.2524144385
 30
0.0
 11
1617.3786999334
 21
132.2524144385
 31
0.0
  0
LINE
  5
2BE
100
AcDbEntity
  8
L1_100
  6
CONTINUOUS
 62
         7
100
AcDbLine
 10
1623.2786999334
 20
92.2524144385
 30
0.0
 11
1617.3786999334
 21
92.2524144385
 31
0.0
  0
LINE
  5
2BF
100
AcDbEntity
  8
L1_100
  6
CONTINUOUS
 62
         7
100
AcDbLine
 10
1623.7786999334
 20
92.7524144385
 30
0.0
 11
1623.7786999334
 21
103.5024144385
 31
0.0
  0
LINE
  5
2C0
100
AcDbEntity
  8
L1_100
  6
CONTINUOUS
 62
         7
100
AcDbLine
 10
1617.2786999334
 20
131.2524144385
 30
0.0
 11
1615.3286999334
 21
131.2524144385
 31
0.0
  0
LINE
  5
2C1
100
AcDbEntity
  8
L1_100
  6
CONTINUOUS
 62
         7
100
AcDbLine
 10
1617.2786999334
 20
93.2524144385
 30
0.0
 11
1615.3286999334
 21
93.2524144385
 31
0.0
  0
LINE
  5
2C2
100
AcDbEntity
  8
L1_100
  6
CONTINUOUS
 62
         7
100
AcDbLine
 10
1623.2786999334
 20
132.2524144385
 30
0.0
 11
1623.7786999334
 21
131.7524144385
 31
0.0
  0
LINE
  5
2C3
100
AcDbEntity
  8
L1_100
  6
CONTINUOUS
 62
         7
100
AcDbLine
 10
1623.7786999334
 20
92.7524144385
 30
0.0
 11
1623.2786999334
 21
92.2524144385
 31
0.0
  0
LINE
  5
2C4
100
AcDbEntity
  8
L1_100
  6
CONTINUOUS
 62
         7
100
AcDbLine
 10
1623.7786999334
 20
121.0024144385
 30
0.0
 11
1623.7786999334
 21
131.7524144385
 31
0.0
  0
LINE
  5
2C5
100
AcDbEntity
  8
L1_100
  6
CONTINUOUS
 62
         7
100
AcDbLine
 10
1623.7786999334
 20
121.0024144385
 30
0.0
 11
1623.2786999334
 21
120.5024144385
 31
0.0
  0
LINE
  5
2C6
100
AcDbEntity
  8
L1_100
  6
CONTINUOUS
 62
         7
100
AcDbLine
 10
1623.7786999334
 20
103.5024144385
 30
0.0
 11
1623.2786999334
 21
104.0024144385
 31
0.0
  0
ARC
  5
2C7
100
AcDbEntity
  8
L1_100
  6
CONTINUOUS
 62
         7
100
AcDbCircle
 10
1577.2786999334
 20
91.2524144385
 30
0.0
 40
0.5
100
AcDbArc
 50
90.0
 51
180.0
  0
ARC
  5
2C8
100
AcDbEntity
  8
L1_100
  6
CONTINUOUS
 62
         7
100
AcDbCircle
 10
1577.2786999334
 20
133.2524144385
 30
0.0
 40
0.5
100
AcDbArc
 50
180.0
 51
270.0
  0
LINE
  5
2C9
100
AcDbEntity
  8
L1_100
  6
CONTINUOUS
 62
         7
100
AcDbLine
 10
1576.7786999334
 20
89.7524144385
 30
0.0
 11
1576.7786999334
 21
134.7524144385
 31
0.0
  0
LINE
  5
2CA
100
AcDbEntity
  8
L1_100
  6
CONTINUOUS
 62
         7
100
AcDbLine
 10
1615.2286999334
 20
92.2524144385
 30
0.0
 11
1586.2286999334
 21
92.2524144385
 31
0.0
  0
LINE
  5
2CB
100
AcDbEntity
  8
L1_100
  6
CONTINUOUS
 62
         7
100
AcDbLine
 10
1615.2286999334
 20
132.2524144385
 30
0.0
 11
1586.2286999334
 21
132.2524144385
 31
0.0
  0
LINE
  5
2CC
100
AcDbEntity
  8
L1_100
  6
CONTINUOUS
 62
         7
100
AcDbLine
 10
1584.8286999334
 20
91.7524144385
 30
0.0
 11
1577.2786999334
 21
91.7524144385
 31
0.0
  0
LINE
  5
2CD
100
AcDbEntity
  8
L1_100
  6
CONTINUOUS
 62
         7
100
AcDbLine
 10
1584.8286999334
 20
132.7524144385
 30
0.0
 11
1577.2786999334
 21
132.7524144385
 31
0.0
  0
LINE
  5
2CE
100
AcDbEntity
  8
L1_100
  6
CONTINUOUS
 62
         7
100
AcDbLine
 10
1545.8786999334
 20
135.2524144385
 30
0.0
 11
1576.2786999334
 21
135.2524144385
 31
0.0
  0
LINE
  5
2CF
100
AcDbEntity
  8
L1_100
  6
CONTINUOUS
 62
         7
100
AcDbLine
 10
1545.8786999334
 20
89.2524144385
 30
0.0
 11
1576.2786999334
 21
89.2524144385
 31
0.0
  0
LINE
  5
2D0
100
AcDbEntity
  8
L1_100
  6
CONTINUOUS
 62
         7
100
AcDbLine
 10
1586.0286999334
 20
132.0524144385
 30
0.0
 11
1586.2286999334
 21
132.2524144385
 31
0.0
  0
LINE
  5
2D1
100
AcDbEntity
  8
L1_100
  6
CONTINUOUS
 62
         7
100
AcDbLine
 10
1585.0286999334
 20
91.9524144385
 30
0.0
 11
1585.0286999334
 21
132.5524144385
 31
0.0
  0
ARC
  5
2D2
100
AcDbEntity
  8
L1_100
  6
CONTINUOUS
 62
         7
100
AcDbCircle
 10
1584.8286999334
 20
132.5524144385
 30
0.0
 40
0.2
100
AcDbArc
 50
0.0
 51
90.0
  0
LINE
  5
2D3
100
AcDbEntity
  8
L1_100
  6
CONTINUOUS
 62
         7
100
AcDbLine
 10
1586.0286999334
 20
132.0524144385
 30
0.0
 11
1585.4286999334
 21
132.0524144385
 31
0.0
  0
ARC
  5
2D4
100
AcDbEntity
  8
L1_100
  6
CONTINUOUS
 62
         7
100
AcDbCircle
 10
1585.4286999334
 20
132.4524144385
 30
0.0
 40
0.4
100
AcDbArc
 50
180.0
 51
270.0
  0
ARC
  5
2D5
100
AcDbEntity
  8
L1_100
  6
CONTINUOUS
 62
         7
100
AcDbCircle
 10
1584.8286999334
 20
91.9524144385
 30
0.0
 40
0.2
100
AcDbArc
 50
270.0
 51
360.0
  0
LINE
  5
2D6
100
AcDbEntity
  8
L1_100
  6
CONTINUOUS
 62
         7
100
AcDbLine
 10
1586.0286999334
 20
92.4524144385
 30
0.0
 11
1586.2286999334
 21
92.2524144385
 31
0.0
  0
ARC
  5
2D7
100
AcDbEntity
  8
L1_100
  6
CONTINUOUS
 62
         7
100
AcDbCircle
 10
1585.4286999334
 20
92.0524144385
 30
0.0
 40
0.4
100
AcDbArc
 50
90.0
 51
180.0
  0
LINE
  5
2D8
100
AcDbEntity
  8
L1_100
  6
CONTINUOUS
 62
         7
100
AcDbLine
 10
1586.0286999334
 20
92.4524144385
 30
0.0
 11
1585.4286999334
 21
92.4524144385
 31
0.0
  0
LINE
  5
2D9
100
AcDbEntity
  8
L1_100
  6
CONTINUOUS
 62
         7
100
AcDbLine
 10
1615.2286999334
 20
132.2524144385
 30
0.0
 11
1615.3286999334
 21
132.1524144385
 31
0.0
  0
LINE
  5
2DA
100
AcDbEntity
  8
L1_100
  6
CONTINUOUS
 62
         7
100
AcDbLine
 10
1617.2786999334
 20
132.1524144385
 30
0.0
 11
1617.3786999334
 21
132.2524144385
 31
0.0
  0
LINE
  5
2DB
100
AcDbEntity
  8
L1_100
  6
CONTINUOUS
 62
         7
100
AcDbLine
 10
1615.3286999334
 20
92.3524144385
 30
0.0
 11
1615.2286999334
 21
92.2524144385
 31
0.0
  0
LINE
  5
2DC
100
AcDbEntity
  8
L1_100
  6
CONTINUOUS
 62
         7
100
AcDbLine
 10
1617.2786999334
 20
92.3524144385
 30
0.0
 11
1617.3786999334
 21
92.2524144385
 31
0.0
  0
LINE
  5
2DD
100
AcDbEntity
  8
L1_100
  6
CONTINUOUS
 62
         4
100
AcDbLine
 10
1623.2786999334
 20
120.5024144385
 30
0.0
 11
1623.2786999334
 21
132.2524144385
 31
0.0
  0
LINE
  5
2DE
100
AcDbEntity
  8
L1_100
  6
CONTINUOUS
 62
         4
100
AcDbLine
 10
1615.2286999334
 20
92.2524144385
 30
0.0
 11
1615.2286999334
 21
132.2524144385
 31
0.0
  0
LINE
  5
2DF
100
AcDbEntity
  8
L1_100
  6
CONTINUOUS
 62
         7
100
AcDbLine
 10
1586.2286999334
 20
92.2524144385
 30
0.0
 11
1586.2286999334
 21
132.2524144385
 31
0.0
  0
LINE
  5
2E0
100
AcDbEntity
  8
L1_100
  6
CONTINUOUS
 62
         4
100
AcDbLine
 10
1586.0286999334
 20
92.4524144385
 30
0.0
 11
1586.0286999334
 21
132.0524144385
 31
0.0
  0
LINE
  5
2E1
100
AcDbEntity
  8
L1_100
  6
CONTINUOUS
 62
         4
100
AcDbLine
 10
1585.4286999334
 20
92.4524144385
 30
0.0
 11
1585.4286999334
 21
132.0524144385
 31
0.0
  0
LINE
  5
2E2
100
AcDbEntity
  8
L1_100
  6
CONTINUOUS
 62
         4
100
AcDbLine
 10
1584.8286999334
 20
91.7524144385
 30
0.0
 11
1584.8286999334
 21
132.7524144385
 31
0.0
  0
LINE
  5
2E3
100
AcDbEntity
  8
L1_100
  6
CONTINUOUS
 62
         4
100
AcDbLine
 10
1577.2786999334
 20
91.7524144385
 30
0.0
 11
1577.2786999334
 21
132.7524144385
 31
0.0
  0
LINE
  5
2E4
100
AcDbEntity
  8
L1_100
  6
CONTINUOUS
 62
         4
100
AcDbLine
 10
1576.2786999334
 20
89.2524144385
 30
0.0
 11
1576.2786999334
 21
135.2524144385
 31
0.0
  0
LINE
  5
2E5
100
AcDbEntity
  8
L1_100
  6
CONTINUOUS
 62
         4
100
AcDbLine
 10
1623.2786999334
 20
92.2524144385
 30
0.0
 11
1623.2786999334
 21
104.0024144385
 31
0.0
  0
LINE
  5
2E6
100
AcDbEntity
  8
L1_100
  6
CONTINUOUS
 62
         4
100
AcDbLine
 10
1617.3786999334
 20
92.2524144385
 30
0.0
 11
1617.3786999334
 21
132.2524144385
 31
0.0
  0
DIMENSION
  5
2E9
100
AcDbEntity
  8
L1_100
  6
CONTINUOUS
 62
         4
100
AcDbDimension
  2
*D2
 10
1660.7834125432
 20
-111.2400166132
 30
0.0
 11
1656.7234125432
 21
-137.391230499
 31
0.0
  3
DIMSTYLE1
100
AcDbAlignedDimension
 13
1621.7786999334
 23
-111.2400166132
 33
0.0
 14
1621.7786999334
 24
-142.2400166132
 34
0.0
 50
90.0
100
AcDbRotatedDimension
  0
LINE
  5
2F5
100
AcDbEntity
  8
L1_100
  6
CONTINUOUS
 62
         7
100
AcDbLine
 10
1617.2786999334
 20
-146.6400166132
 30
0.0
 11
1617.3786999334
 21
-146.7400166132
 31
0.0
  0
LINE
  5
2F6
100
AcDbEntity
  8
L1_100
  6
CONTINUOUS
 62
         7
100
AcDbLine
 10
1615.3286999334
 20
-146.6400166132
 30
0.0
 11
1615.2286999334
 21
-146.7400166132
 31
0.0
  0
LINE
  5
2F7
100
AcDbEntity
  8
L1_100
  6
CONTINUOUS
 62
         7
100
AcDbLine
 10
1617.2786999334
 20
-106.8400166132
 30
0.0
 11
1617.3786999334
 21
-106.7400166132
 31
0.0
  0
LINE
  5
2F8
100
AcDbEntity
  8
L1_100
  6
CONTINUOUS
 62
         7
100
AcDbLine
 10
1615.2286999334
 20
-106.7400166132
 30
0.0
 11
1615.3286999334
 21
-106.8400166132
 31
0.0
  0
LINE
  5
2F9
100
AcDbEntity
  8
L1_100
  6
CONTINUOUS
 62
         7
100
AcDbLine
 10
1586.0286999334
 20
-146.5400166132
 30
0.0
 11
1585.4286999334
 21
-146.5400166132
 31
0.0
  0
ARC
  5
2FA
100
AcDbEntity
  8
L1_100
  6
CONTINUOUS
 62
         7
100
AcDbCircle
 10
1585.4286999334
 20
-146.9400166132
 30
0.0
 40
0.4
100
AcDbArc
 50
90.0
 51
180.0
  0
LINE
  5
2FB
100
AcDbEntity
  8
L1_100
  6
CONTINUOUS
 62
         7
100
AcDbLine
 10
1586.0286999334
 20
-146.5400166132
 30
0.0
 11
1586.2286999334
 21
-146.7400166132
 31
0.0
  0
LINE
  5
2FC
100
AcDbEntity
  8
L1_100
  6
CONTINUOUS
 62
         7
100
AcDbLine
 10
1585.0286999334
 20
-146.9400166132
 30
0.0
 11
1585.0286999334
 21
-147.0400166132
 31
0.0
  0
ARC
  5
2FD
100
AcDbEntity
  8
L1_100
  6
CONTINUOUS
 62
         7
100
AcDbCircle
 10
1584.8286999334
 20
-147.0400166132
 30
0.0
 40
0.2
100
AcDbArc
 50
270.0
 51
360.0
  0
ARC
  5
2FE
100
AcDbEntity
  8
L1_100
  6
CONTINUOUS
 62
         7
100
AcDbCircle
 10
1585.4286999334
 20
-106.5400166132
 30
0.0
 40
0.4
100
AcDbArc
 50
180.0
 51
270.0
  0
LINE
  5
2FF
100
AcDbEntity
  8
L1_100
  6
CONTINUOUS
 62
         7
100
AcDbLine
 10
1586.0286999334
 20
-106.9400166132
 30
0.0
 11
1585.4286999334
 21
-106.9400166132
 31
0.0
  0
ARC
  5
300
100
AcDbEntity
  8
L1_100
  6
CONTINUOUS
 62
         7
100
AcDbCircle
 10
1584.8286999334
 20
-106.4400166132
 30
0.0
 40
0.2
100
AcDbArc
 50
0.0
 51
90.0
  0
LINE
  5
301
100
AcDbEntity
  8
L1_100
  6
CONTINUOUS
 62
         7
100
AcDbLine
 10
1585.0286999334
 20
-106.5400166132
 30
0.0
 11
1585.0286999334
 21
-106.4400166132
 31
0.0
  0
DIMENSION
  5
304
100
AcDbEntity
  8
L1_100
  6
CONTINUOUS
 62
         4
100
AcDbDimension
  2
*D3
 10
1623.7786999334
 20
-166.7650741172
 30
0.0
 11
1594.7753986257
 21
-162.7050741172
 31
0.0
  3
DIMSTYLE1
100
AcDbAlignedDimension
 13
1623.7786999334
 23
-135.4900166132
 33
0.0
 14
1582.7786999334
 24
-142.7400166132
 34
0.0
100
AcDbRotatedDimension
  0
LINE
  5
310
100
AcDbEntity
  8
L1_100
  6
CONTINUOUS
 62
         7
100
AcDbLine
 10
1586.0286999334
 20
-106.9400166132
 30
0.0
 11
1586.2286999334
 21
-106.7400166132
 31
0.0
  0
LINE
  5
311
100
AcDbEntity
  8
L1_100
  6
CONTINUOUS
 62
         7
100
AcDbLine
 10
1545.8786999334
 20
-149.7400166132
 30
0.0
 11
1576.2786999334
 21
-149.7400166132
 31
0.0
  0
LINE
  5
312
100
AcDbEntity
  8
L1_100
  6
CONTINUOUS
 62
         7
100
AcDbLine
 10
1545.8786999334
 20
-103.7400166132
 30
0.0
 11
1576.2786999334
 21
-103.7400166132
 31
0.0
  0
LINE
  5
313
100
AcDbEntity
  8
L1_100
  6
CONTINUOUS
 62
         7
100
AcDbLine
 10
1576.7786999334
 20
-149.2400166132
 30
0.0
 11
1576.7786999334
 21
-147.7400166132
 31
0.0
  0
LINE
  5
314
100
AcDbEntity
  8
L1_100
  6
CONTINUOUS
 62
         7
100
AcDbLine
 10
1584.8286999334
 20
-106.2400166132
 30
0.0
 11
1577.2786999334
 21
-106.2400166132
 31
0.0
  0
LINE
  5
315
100
AcDbEntity
  8
L1_100
  6
CONTINUOUS
 62
         7
100
AcDbLine
 10
1584.8286999334
 20
-147.2400166132
 30
0.0
 11
1577.2786999334
 21
-147.2400166132
 31
0.0
  0
LINE
  5
316
100
AcDbEntity
  8
L1_100
  6
CONTINUOUS
 62
         7
100
AcDbLine
 10
1615.2286999334
 20
-106.7400166132
 30
0.0
 11
1586.2286999334
 21
-106.7400166132
 31
0.0
  0
LINE
  5
317
100
AcDbEntity
  8
L1_100
  6
CONTINUOUS
 62
         7
100
AcDbLine
 10
1615.2286999334
 20
-146.7400166132
 30
0.0
 11
1586.2286999334
 21
-146.7400166132
 31
0.0
  0
LINE
  5
318
100
AcDbEntity
  8
L1_100
  6
CONTINUOUS
 62
         7
100
AcDbLine
 10
1621.7786999334
 20
-111.2400166132
 30
0.0
 11
1587.7786999334
 21
-111.2400166132
 31
0.0
  0
LINE
  5
319
100
AcDbEntity
  8
L1_100
  6
CONTINUOUS
 62
         7
100
AcDbLine
 10
1621.7786999334
 20
-142.2400166132
 30
0.0
 11
1587.7786999334
 21
-142.2400166132
 31
0.0
  0
LINE
  5
31A
100
AcDbEntity
  8
L1_100
  6
CONTINUOUS
 62
         7
100
AcDbLine
 10
1576.7786999334
 20
-105.7400166132
 30
0.0
 11
1576.7786999334
 21
-104.2400166132
 31
0.0
  0
LINE
  5
31B
100
AcDbEntity
  8
L1_100
  6
CONTINUOUS
 62
         7
100
AcDbLine
 10
1587.7786999334
 20
-142.7400166132
 30
0.0
 11
1587.7786999334
 21
-110.7400166132
 31
0.0
  0
LINE
  5
31C
100
AcDbEntity
  8
L1_100
  6
CONTINUOUS
 62
         7
100
AcDbLine
 10
1582.7786999334
 20
-142.7400166132
 30
0.0
 11
1582.7786999334
 21
-110.7400166132
 31
0.0
  0
LINE
  5
31D
100
AcDbEntity
  8
L1_100
  6
CONTINUOUS
 62
         7
100
AcDbLine
 10
1587.7786999334
 20
-110.7400166132
 30
0.0
 11
1582.7786999334
 21
-110.7400166132
 31
0.0
  0
LINE
  5
31E
100
AcDbEntity
  8
L1_100
  6
CONTINUOUS
 62
         7
100
AcDbLine
 10
1587.7786999334
 20
-142.7400166132
 30
0.0
 11
1582.7786999334
 21
-142.7400166132
 31
0.0
  0
LINE
  5
31F
100
AcDbEntity
  8
L1_100
  6
CONTINUOUS
 62
         7
100
AcDbLine
 10
1582.7786999334
 20
-111.2400166132
 30
0.0
 11
1573.829770761
 21
-126.7400166132
 31
0.0
  0
LINE
  5
320
100
AcDbEntity
  8
L1_100
  6
CONTINUOUS
 62
         7
100
AcDbLine
 10
1582.7786999334
 20
-142.2400166132
 30
0.0
 11
1573.829770761
 21
-126.7400166132
 31
0.0
  0
ARC
  5
321
100
AcDbEntity
  8
L1_100
  6
CONTINUOUS
 62
         7
100
AcDbCircle
 10
1577.2786999334
 20
-105.7400166132
 30
0.0
 40
0.5
100
AcDbArc
 50
180.0
 51
270.0
  0
ARC
  5
322
100
AcDbEntity
  8
L1_100
  6
CONTINUOUS
 62
         7
100
AcDbCircle
 10
1577.2786999334
 20
-147.7400166132
 30
0.0
 40
0.5
100
AcDbArc
 50
90.0
 51
180.0
  0
LINE
  5
323
100
AcDbEntity
  8
L1_100
  6
CENTER
 62
         1
100
AcDbLine
 10
1594.5786999334
 20
-112.9702507792
 30
0.0
 11
1594.5786999334
 21
-103.2444172669
 31
0.0
  0
LINE
  5
324
100
AcDbEntity
  8
L1_100
  6
CENTER
 62
         1
100
AcDbLine
 10
1594.5786999334
 20
-149.0639350151
 30
0.0
 11
1594.5786999334
 21
-140.055044545
 31
0.0
  0
LINE
  5
325
100
AcDbEntity
  8
L1_100
  6
CONTINUOUS
 62
         7
100
AcDbLine
 10
1621.7786999334
 20
-111.2400166132
 30
0.0
 11
1621.7786999334
 21
-118.4900166132
 31
0.0
  0
ARC
  5
326
100
AcDbEntity
  8
L1_100
  6
CONTINUOUS
 62
         7
100
AcDbCircle
 10
1621.7786999334
 20
-144.2400166132
 30
0.0
 40
2.0
100
AcDbArc
 50
0.0
 51
90.0
  0
ARC
  5
327
100
AcDbEntity
  8
L1_100
  6
CONTINUOUS
 62
         7
100
AcDbCircle
 10
1621.7786999334
 20
-109.2400166132
 30
0.0
 40
2.0
100
AcDbArc
 50
270.0
 51
360.0
  0
LINE
  5
328
100
AcDbEntity
  8
L1_100
  6
CONTINUOUS
 62
         7
100
AcDbLine
 10
1623.7786999334
 20
-135.4900166132
 30
0.0
 11
1623.2786999334
 21
-134.9900166132
 31
0.0
  0
LINE
  5
329
100
AcDbEntity
  8
L1_100
  6
CONTINUOUS
 62
         7
100
AcDbLine
 10
1623.7786999334
 20
-117.9900166132
 30
0.0
 11
1623.2786999334
 21
-118.4900166132
 31
0.0
  0
LINE
  5
32A
100
AcDbEntity
  8
L1_100
  6
CONTINUOUS
 62
         7
100
AcDbLine
 10
1623.7786999334
 20
-117.9900166132
 30
0.0
 11
1623.7786999334
 21
-107.2400166132
 31
0.0
  0
LINE
  5
32B
100
AcDbEntity
  8
L1_100
  6
CONTINUOUS
 62
         7
100
AcDbLine
 10
1623.7786999334
 20
-146.2400166132
 30
0.0
 11
1623.2786999334
 21
-146.7400166132
 31
0.0
  0
LINE
  5
32C
100
AcDbEntity
  8
L1_100
  6
CONTINUOUS
 62
         7
100
AcDbLine
 10
1623.2786999334
 20
-106.7400166132
 30
0.0
 11
1623.7786999334
 21
-107.2400166132
 31
0.0
  0
LINE
  5
32D
100
AcDbEntity
  8
L1_100
  6
CONTINUOUS
 62
         7
100
AcDbLine
 10
1615.3286999334
 20
-146.6400166132
 30
0.0
 11
1615.3286999334
 21
-145.7400166132
 31
0.0
  0
LINE
  5
32E
100
AcDbEntity
  8
L1_100
  6
CONTINUOUS
 62
         7
100
AcDbLine
 10
1617.2786999334
 20
-146.6400166132
 30
0.0
 11
1617.2786999334
 21
-145.7400166132
 31
0.0
  0
LINE
  5
32F
100
AcDbEntity
  8
L1_100
  6
CONTINUOUS
 62
         7
100
AcDbLine
 10
1617.2786999334
 20
-145.7400166132
 30
0.0
 11
1615.3286999334
 21
-145.7400166132
 31
0.0
  0
LINE
  5
330
100
AcDbEntity
  8
L1_100
  6
CONTINUOUS
 62
         7
100
AcDbLine
 10
1617.2786999334
 20
-107.7400166132
 30
0.0
 11
1615.3286999334
 21
-107.7400166132
 31
0.0
  0
LINE
  5
331
100
AcDbEntity
  8
L1_100
  6
CONTINUOUS
 62
         7
100
AcDbLine
 10
1623.7786999334
 20
-146.2400166132
 30
0.0
 11
1623.7786999334
 21
-135.4900166132
 31
0.0
  0
LINE
  5
332
100
AcDbEntity
  8
L1_100
  6
CONTINUOUS
 62
         7
100
AcDbLine
 10
1623.2786999334
 20
-146.7400166132
 30
0.0
 11
1617.3786999334
 21
-146.7400166132
 31
0.0
  0
LINE
  5
333
100
AcDbEntity
  8
L1_100
  6
CONTINUOUS
 62
         7
100
AcDbLine
 10
1623.2786999334
 20
-106.7400166132
 30
0.0
 11
1617.3786999334
 21
-106.7400166132
 31
0.0
  0
LINE
  5
334
100
AcDbEntity
  8
L1_100
  6
CONTINUOUS
 62
         7
100
AcDbLine
 10
1623.2786999334
 20
-118.4900166132
 30
0.0
 11
1619.4786999334
 21
-118.4900166132
 31
0.0
  0
LINE
  5
335
100
AcDbEntity
  8
L1_100
  6
CONTINUOUS
 62
         7
100
AcDbLine
 10
1617.9786999334
 20
-133.4900166132
 30
0.0
 11
1617.9786999334
 21
-119.9900166132
 31
0.0
  0
LINE
  5
336
100
AcDbEntity
  8
L1_100
  6
CONTINUOUS
 62
         7
100
AcDbLine
 10
1623.2786999334
 20
-134.9900166132
 30
0.0
 11
1619.4786999334
 21
-134.9900166132
 31
0.0
  0
LINE
  5
337
100
AcDbEntity
  8
L1_100
  6
CONTINUOUS
 62
         7
100
AcDbLine
 10
1615.3286999334
 20
-107.7400166132
 30
0.0
 11
1615.3286999334
 21
-106.8400166132
 31
0.0
  0
LINE
  5
338
100
AcDbEntity
  8
L1_100
  6
CONTINUOUS
 62
         7
100
AcDbLine
 10
1617.2786999334
 20
-107.7400166132
 30
0.0
 11
1617.2786999334
 21
-106.8400166132
 31
0.0
  0
LINE
  5
339
100
AcDbEntity
  8
L1_100
  6
CONTINUOUS
 62
         7
100
AcDbLine
 10
1621.7786999334
 20
-134.9900166132
 30
0.0
 11
1621.7786999334
 21
-142.2400166132
 31
0.0
  0
LINE
  5
33A
100
AcDbEntity
  8
L1_100
  6
CENTER
 62
         1
100
AcDbLine
 10
1548.5286999334
 20
-126.7400166132
 30
0.0
 11
1623.7786999334
 21
-126.7400166132
 31
0.0
  0
LINE
  5
33B
100
AcDbEntity
  8
L1_100
  6
CONTINUOUS
 62
         7
100
AcDbLine
 10
1591.3286999337
 20
-110.8369077215
 30
0.0
 11
1591.3286999337
 21
-106.8400166132
 31
0.0
  0
LINE
  5
33C
100
AcDbEntity
  8
L1_100
  6
CONTINUOUS
 62
         7
100
AcDbLine
 10
1591.3286999337
 20
-110.8369077215
 30
0.0
 11
1591.5036999337
 21
-111.1400166128
 31
0.0
  0
LINE
  5
33D
100
AcDbEntity
  8
L1_100
  6
CONTINUOUS
 62
         7
100
AcDbLine
 10
1591.5036999337
 20
-111.2400166127
 30
0.0
 11
1591.5036999337
 21
-111.1400166128
 31
0.0
  0
LINE
  5
33E
100
AcDbEntity
  8
L1_100
  6
CONTINUOUS
 62
         7
100
AcDbLine
 10
1591.2286999337
 20
-106.7400166132
 30
0.0
 11
1591.3286999337
 21
-106.8400166132
 31
0.0
  0
LINE
  5
33F
100
AcDbEntity
  8
L1_100
  6
CONTINUOUS
 62
         7
100
AcDbLine
 10
1597.8286999331
 20
-110.8369077215
 30
0.0
 11
1597.6536999331
 21
-111.1400166128
 31
0.0
  0
LINE
  5
340
100
AcDbEntity
  8
L1_100
  6
CONTINUOUS
 62
         7
100
AcDbLine
 10
1597.8286999331
 20
-110.8369077215
 30
0.0
 11
1597.8286999331
 21
-106.8400166132
 31
0.0
  0
LINE
  5
341
100
AcDbEntity
  8
L1_100
  6
CONTINUOUS
 62
         7
100
AcDbLine
 10
1597.6536999331
 20
-111.2400166127
 30
0.0
 11
1597.6536999331
 21
-111.1400166128
 31
0.0
  0
LINE
  5
342
100
AcDbEntity
  8
L1_100
  6
CONTINUOUS
 62
         7
100
AcDbLine
 10
1597.8286999331
 20
-106.8400166132
 30
0.0
 11
1597.9286999331
 21
-106.7400166132
 31
0.0
  0
LINE
  5
343
100
AcDbEntity
  8
L1_100
  6
CONTINUOUS
 62
         7
100
AcDbLine
 10
1591.3286999337
 20
-142.6431255049
 30
0.0
 11
1591.3286999337
 21
-146.6400166132
 31
0.0
  0
LINE
  5
344
100
AcDbEntity
  8
L1_100
  6
CONTINUOUS
 62
         7
100
AcDbLine
 10
1591.3286999337
 20
-142.6431255049
 30
0.0
 11
1591.5036999337
 21
-142.3400166136
 31
0.0
  0
LINE
  5
345
100
AcDbEntity
  8
L1_100
  6
CONTINUOUS
 62
         7
100
AcDbLine
 10
1591.5036999337
 20
-142.2400166136
 30
0.0
 11
1591.5036999337
 21
-142.3400166136
 31
0.0
  0
LINE
  5
346
100
AcDbEntity
  8
L1_100
  6
CONTINUOUS
 62
         7
100
AcDbLine
 10
1591.2286999337
 20
-146.7400166132
 30
0.0
 11
1591.3286999337
 21
-146.6400166132
 31
0.0
  0
LINE
  5
347
100
AcDbEntity
  8
L1_100
  6
CONTINUOUS
 62
         7
100
AcDbLine
 10
1597.8286999331
 20
-142.6431255049
 30
0.0
 11
1597.6536999331
 21
-142.3400166136
 31
0.0
  0
LINE
  5
348
100
AcDbEntity
  8
L1_100
  6
CONTINUOUS
 62
         7
100
AcDbLine
 10
1597.8286999331
 20
-142.6431255049
 30
0.0
 11
1597.8286999331
 21
-146.6400166132
 31
0.0
  0
LINE
  5
349
100
AcDbEntity
  8
L1_100
  6
CONTINUOUS
 62
         7
100
AcDbLine
 10
1597.6536999331
 20
-142.2400166136
 30
0.0
 11
1597.6536999331
 21
-142.3400166136
 31
0.0
  0
LINE
  5
34A
100
AcDbEntity
  8
L1_100
  6
CONTINUOUS
 62
         7
100
AcDbLine
 10
1597.8286999331
 20
-146.6400166132
 30
0.0
 11
1597.9286999331
 21
-146.7400166132
 31
0.0
  0
ARC
  5
34B
100
AcDbEntity
  8
L1_100
  6
CONTINUOUS
 62
         7
100
AcDbCircle
 10
1576.2786999334
 20
-104.2400166132
 30
0.0
 40
0.5
100
AcDbArc
 50
0.0
 51
90.0
  0
ARC
  5
34C
100
AcDbEntity
  8
L1_100
  6
CONTINUOUS
 62
         7
100
AcDbCircle
 10
1576.2786999334
 20
-149.2400166132
 30
0.0
 40
0.5
100
AcDbArc
 50
270.0
 51
360.0
  0
LINE
  5
34D
100
AcDbEntity
  8
L1_100
  6
CONTINUOUS
 62
         7
100
AcDbLine
 10
1858.9560829625
 20
104.1774144385
 30
0.0
 11
1864.0532115015
 21
104.1774144385
 31
0.0
  0
LINE
  5
34E
100
AcDbEntity
  8
L1_100
  6
CONTINUOUS
 62
         7
100
AcDbLine
 10
1858.9560829625
 20
120.3274144385
 30
0.0
 11
1864.0532115015
 21
120.3274144385
 31
0.0
  0
LINE
  5
34F
100
AcDbEntity
  8
L1_100
  6
CONTINUOUS
 62
         7
100
AcDbLine
 10
1832.7120360185
 20
104.1774144385
 30
0.0
 11
1827.6149074795
 21
104.1774144385
 31
0.0
  0
LINE
  5
350
100
AcDbEntity
  8
L1_100
  6
CONTINUOUS
 62
         7
100
AcDbLine
 10
1832.7120360185
 20
120.3274144385
 30
0.0
 11
1827.6149074795
 21
120.3274144385
 31
0.0
  0
LINE
  5
351
100
AcDbEntity
  8
L1_100
  6
DASHED
 62
         2
100
AcDbLine
 10
1861.2315557898
 20
117.3893863224
 30
0.0
 11
1857.9815557901
 21
123.0185514464
 31
0.0
  0
LINE
  5
352
100
AcDbEntity
  8
L1_100
  6
DASHED
 62
         2
100
AcDbLine
 10
1860.8815557898
 20
117.3893863224
 30
0.0
 11
1857.8065557901
 21
122.7154425551
 31
0.0
  0
LINE
  5
353
100
AcDbEntity
  8
L1_100
  6
DASHED
 62
         2
100
AcDbLine
 10
1861.2315557898
 20
117.3893863224
 30
0.0
 11
1864.5493527881
 21
119.3049173125
 31
0.0
  0
LINE
  5
354
100
AcDbEntity
  8
L1_100
  6
DASHED
 62
         2
100
AcDbLine
 10
1860.5281464814
 20
117.185345363
 30
0.0
 11
1860.8815557898
 21
117.3893863224
 31
0.0
  0
LINE
  5
355
100
AcDbEntity
  8
L1_100
  6
DASHED
 62
         2
100
AcDbLine
 10
1861.2315557898
 20
117.3893863224
 30
0.0
 11
1860.8815557898
 21
117.3893863224
 31
0.0
  0
LINE
  5
356
100
AcDbEntity
  8
L1_100
  6
DASHED
 62
         2
100
AcDbLine
 10
1857.4531464817
 20
122.5114015958
 30
0.0
 11
1857.8065557901
 21
122.7154425551
 31
0.0
  0
LINE
  5
357
100
AcDbEntity
  8
L1_100
  6
DASHED
 62
         2
100
AcDbLine
 10
1857.9815557901
 20
123.0185514464
 30
0.0
 11
1857.8065557901
 21
122.7154425551
 31
0.0
  0
LINE
  5
358
100
AcDbEntity
  8
L1_100
  6
DASHED
 62
         2
100
AcDbLine
 10
1857.9815557901
 20
123.0185514464
 30
0.0
 11
1861.2993527884
 21
124.9340824365
 31
0.0
  0
LINE
  5
359
100
AcDbEntity
  8
L1_100
  6
DASHED
 62
         2
100
AcDbLine
 10
1857.9815557901
 20
101.4862774307
 30
0.0
 11
1861.2315557898
 21
107.1154425547
 31
0.0
  0
LINE
  5
35A
100
AcDbEntity
  8
L1_100
  6
DASHED
 62
         2
100
AcDbLine
 10
1857.8065557901
 20
101.789386322
 30
0.0
 11
1860.8815557898
 21
107.1154425547
 31
0.0
  0
LINE
  5
35B
100
AcDbEntity
  8
L1_100
  6
DASHED
 62
         2
100
AcDbLine
 10
1857.9815557901
 20
101.4862774307
 30
0.0
 11
1861.2993527884
 21
99.5707464406
 31
0.0
  0
LINE
  5
35C
100
AcDbEntity
  8
L1_100
  6
DASHED
 62
         2
100
AcDbLine
 10
1857.4531464817
 20
101.9934272813
 30
0.0
 11
1857.8065557901
 21
101.789386322
 31
0.0
  0
LINE
  5
35D
100
AcDbEntity
  8
L1_100
  6
DASHED
 62
         2
100
AcDbLine
 10
1857.9815557901
 20
101.4862774307
 30
0.0
 11
1857.8065557901
 21
101.789386322
 31
0.0
  0
LINE
  5
35E
100
AcDbEntity
  8
L1_100
  6
DASHED
 62
         2
100
AcDbLine
 10
1860.5281464814
 20
107.3194835141
 30
0.0
 11
1860.8815557898
 21
107.1154425547
 31
0.0
  0
LINE
  5
35F
100
AcDbEntity
  8
L1_100
  6
DASHED
 62
         2
100
AcDbLine
 10
1861.2315557898
 20
107.1154425547
 30
0.0
 11
1860.8815557898
 21
107.1154425547
 31
0.0
  0
LINE
  5
360
100
AcDbEntity
  8
L1_100
  6
DASHED
 62
         2
100
AcDbLine
 10
1861.2315557898
 20
107.1154425547
 30
0.0
 11
1864.5493527881
 21
105.1999115646
 31
0.0
  0
LINE
  5
361
100
AcDbEntity
  8
L1_100
  6
DASHED
 62
         2
100
AcDbLine
 10
1842.5840594909
 20
96.3493055468
 30
0.0
 11
1849.0840594902
 21
96.3493055468
 31
0.0
  0
LINE
  5
362
100
AcDbEntity
  8
L1_100
  6
DASHED
 62
         2
100
AcDbLine
 10
1842.7590594908
 20
96.6524144381
 30
0.0
 11
1848.9090594902
 21
96.6524144381
 31
0.0
  0
LINE
  5
363
100
AcDbEntity
  8
L1_100
  6
DASHED
 62
         2
100
AcDbLine
 10
1842.5840594909
 20
96.3493055468
 30
0.0
 11
1842.5840594909
 21
92.5182435666
 31
0.0
  0
LINE
  5
364
100
AcDbEntity
  8
L1_100
  6
DASHED
 62
         2
100
AcDbLine
 10
1842.7590594908
 20
97.0604963568
 30
0.0
 11
1842.7590594908
 21
96.6524144381
 31
0.0
  0
LINE
  5
365
100
AcDbEntity
  8
L1_100
  6
DASHED
 62
         2
100
AcDbLine
 10
1842.5840594909
 20
96.3493055468
 30
0.0
 11
1842.7590594908
 21
96.6524144381
 31
0.0
  0
LINE
  5
366
100
AcDbEntity
  8
L1_100
  6
DASHED
 62
         2
100
AcDbLine
 10
1848.9090594902
 20
97.0604963568
 30
0.0
 11
1848.9090594902
 21
96.6524144381
 31
0.0
  0
LINE
  5
367
100
AcDbEntity
  8
L1_100
  6
DASHED
 62
         2
100
AcDbLine
 10
1849.0840594902
 20
96.3493055468
 30
0.0
 11
1848.9090594902
 21
96.6524144381
 31
0.0
  0
LINE
  5
368
100
AcDbEntity
  8
L1_100
  6
DASHED
 62
         2
100
AcDbLine
 10
1849.0840594902
 20
96.3493055468
 30
0.0
 11
1849.0840594902
 21
92.5182435666
 31
0.0
  0
LINE
  5
369
100
AcDbEntity
  8
L1_100
  6
DASHED
 62
         2
100
AcDbLine
 10
1830.4365631913
 20
107.1154425547
 30
0.0
 11
1833.686563191
 21
101.4862774307
 31
0.0
  0
LINE
  5
36A
100
AcDbEntity
  8
L1_100
  6
DASHED
 62
         2
100
AcDbLine
 10
1830.7865631913
 20
107.1154425547
 30
0.0
 11
1833.861563191
 21
101.789386322
 31
0.0
  0
LINE
  5
36B
100
AcDbEntity
  8
L1_100
  6
DASHED
 62
         2
100
AcDbLine
 10
1830.4365631913
 20
107.1154425547
 30
0.0
 11
1827.118766193
 21
105.1999115646
 31
0.0
  0
LINE
  5
36C
100
AcDbEntity
  8
L1_100
  6
DASHED
 62
         2
100
AcDbLine
 10
1831.1399724997
 20
107.3194835141
 30
0.0
 11
1830.7865631913
 21
107.1154425547
 31
0.0
  0
LINE
  5
36D
100
AcDbEntity
  8
L1_100
  6
DASHED
 62
         2
100
AcDbLine
 10
1830.4365631913
 20
107.1154425547
 30
0.0
 11
1830.7865631913
 21
107.1154425547
 31
0.0
  0
LINE
  5
36E
100
AcDbEntity
  8
L1_100
  6
DASHED
 62
         2
100
AcDbLine
 10
1834.2149724994
 20
101.9934272813
 30
0.0
 11
1833.861563191
 21
101.789386322
 31
0.0
  0
LINE
  5
36F
100
AcDbEntity
  8
L1_100
  6
DASHED
 62
         2
100
AcDbLine
 10
1833.686563191
 20
101.4862774307
 30
0.0
 11
1833.861563191
 21
101.789386322
 31
0.0
  0
LINE
  5
370
100
AcDbEntity
  8
L1_100
  6
DASHED
 62
         2
100
AcDbLine
 10
1833.686563191
 20
101.4862774307
 30
0.0
 11
1830.3687661927
 21
99.5707464406
 31
0.0
  0
LINE
  5
371
100
AcDbEntity
  8
L1_100
  6
DASHED
 62
         2
100
AcDbLine
 10
1833.686563191
 20
123.0185514464
 30
0.0
 11
1830.4365631913
 21
117.3893863224
 31
0.0
  0
LINE
  5
372
100
AcDbEntity
  8
L1_100
  6
DASHED
 62
         2
100
AcDbLine
 10
1833.861563191
 20
122.7154425551
 30
0.0
 11
1830.7865631913
 21
117.3893863224
 31
0.0
  0
LINE
  5
373
100
AcDbEntity
  8
L1_100
  6
DASHED
 62
         2
100
AcDbLine
 10
1833.686563191
 20
123.0185514464
 30
0.0
 11
1830.3687661927
 21
124.9340824365
 31
0.0
  0
LINE
  5
374
100
AcDbEntity
  8
L1_100
  6
DASHED
 62
         2
100
AcDbLine
 10
1834.2149724994
 20
122.5114015958
 30
0.0
 11
1833.861563191
 21
122.7154425551
 31
0.0
  0
LINE
  5
375
100
AcDbEntity
  8
L1_100
  6
DASHED
 62
         2
100
AcDbLine
 10
1833.686563191
 20
123.0185514464
 30
0.0
 11
1833.861563191
 21
122.7154425551
 31
0.0
  0
LINE
  5
376
100
AcDbEntity
  8
L1_100
  6
DASHED
 62
         2
100
AcDbLine
 10
1831.1399724997
 20
117.185345363
 30
0.0
 11
1830.7865631913
 21
117.3893863224
 31
0.0
  0
LINE
  5
377
100
AcDbEntity
  8
L1_100
  6
DASHED
 62
         2
100
AcDbLine
 10
1830.4365631913
 20
117.3893863224
 30
0.0
 11
1830.7865631913
 21
117.3893863224
 31
0.0
  0
LINE
  5
378
100
AcDbEntity
  8
L1_100
  6
DASHED
 62
         2
100
AcDbLine
 10
1830.4365631913
 20
117.3893863224
 30
0.0
 11
1827.118766193
 21
119.3049173125
 31
0.0
  0
LINE
  5
379
100
AcDbEntity
  8
L1_100
  6
DASHED
 62
         2
100
AcDbLine
 10
1849.0840594902
 20
128.1555233303
 30
0.0
 11
1842.5840594909
 21
128.1555233303
 31
0.0
  0
LINE
  5
37A
100
AcDbEntity
  8
L1_100
  6
DASHED
 62
         2
100
AcDbLine
 10
1848.9090594902
 20
127.852414439
 30
0.0
 11
1842.7590594908
 21
127.852414439
 31
0.0
  0
LINE
  5
37B
100
AcDbEntity
  8
L1_100
  6
DASHED
 62
         2
100
AcDbLine
 10
1857.4531464817
 20
122.5114015958
 30
0.0
 11
1857.8065557901
 21
122.7154425551
 31
0.0
  0
LINE
  5
37C
100
AcDbEntity
  8
L1_100
  6
CENTER
 62
         1
100
AcDbLine
 10
1865.7526437776
 20
123.7524144385
 30
0.0
 11
1825.9154752035
 21
100.7524144385
 31
0.0
  0
LINE
  5
37D
100
AcDbEntity
  8
L1_100
  6
CENTER
 62
         1
100
AcDbLine
 10
1865.7526437776
 20
100.7524144385
 30
0.0
 11
1825.9154752035
 21
123.7524144385
 31
0.0
  0
LINE
  5
37E
100
AcDbEntity
  8
L1_100
  6
DASHED
 62
         2
100
AcDbLine
 10
1849.0840594902
 20
128.1555233303
 30
0.0
 11
1849.0840594902
 21
131.9865853105
 31
0.0
  0
CIRCLE
  5
37F
100
AcDbEntity
  8
L1_100
  6
CONTINUOUS
 62
         7
100
AcDbCircle
 10
1845.8340594905
 20
112.2524144385
 30
0.0
 40
20.0
  0
CIRCLE
  5
380
100
AcDbEntity
  8
L1_100
  6
CONTINUOUS
 62
         7
100
AcDbCircle
 10
1845.8340594905
 20
112.2524144385
 30
0.0
 40
20.5
  0
CIRCLE
  5
381
100
AcDbEntity
  8
L1_100
  6
CONTINUOUS
 62
         7
100
AcDbCircle
 10
1845.8340594905
 20
112.2524144385
 30
0.0
 40
23.0
  0
CIRCLE
  5
382
100
AcDbEntity
  8
L1_100
  6
CONTINUOUS
 62
         7
100
AcDbCircle
 10
1845.8340594905
 20
112.2524144385
 30
0.0
 40
15.5
  0
LINE
  5
383
100
AcDbEntity
  8
L1_100
  6
CENTER
 62
         1
100
AcDbLine
 10
1868.8340594905
 20
112.2524144385
 30
0.0
 11
1822.8340594905
 21
112.2524144385
 31
0.0
  0
LINE
  5
384
100
AcDbEntity
  8
L1_100
  6
CENTER
 62
         1
100
AcDbLine
 10
1845.8340594905
 20
89.2524144385
 30
0.0
 11
1845.8340594905
 21
135.2524144385
 31
0.0
  0
LINE
  5
385
100
AcDbEntity
  8
L1_100
  6
DASHED
 62
         2
100
AcDbLine
 10
1848.9090594902
 20
127.4443325203
 30
0.0
 11
1848.9090594902
 21
127.852414439
 31
0.0
  0
LINE
  5
386
100
AcDbEntity
  8
L1_100
  6
DASHED
 62
         2
100
AcDbLine
 10
1849.0840594902
 20
128.1555233303
 30
0.0
 11
1848.9090594902
 21
127.852414439
 31
0.0
  0
LINE
  5
387
100
AcDbEntity
  8
L1_100
  6
DASHED
 62
         2
100
AcDbLine
 10
1842.7590594908
 20
127.4443325203
 30
0.0
 11
1842.7590594908
 21
127.852414439
 31
0.0
  0
LINE
  5
388
100
AcDbEntity
  8
L1_100
  6
DASHED
 62
         2
100
AcDbLine
 10
1842.5840594909
 20
128.1555233303
 30
0.0
 11
1842.7590594908
 21
127.852414439
 31
0.0
  0
LINE
  5
389
100
AcDbEntity
  8
L1_100
  6
DASHED
 62
         2
100
AcDbLine
 10
1842.5840594909
 20
128.1555233303
 30
0.0
 11
1842.5840594909
 21
131.9865853105
 31
0.0
  0
LINE
  5
38A
100
AcDbEntity
  8
_Y__________
  6
CONTINUOUS
 62
         7
100
AcDbLine
 10
1523.7786999334
 20
147.1774144385
 30
0.0
 11
1525.7251100949
 21
146.6774144385
 31
0.0
  0
LINE
  5
38B
100
AcDbEntity
  8
_Y__________
  6
CONTINUOUS
 62
         7
100
AcDbLine
 10
1523.7786999334
 20
77.3274144385
 30
0.0
 11
1525.7251100949
 21
77.8274144385
 31
0.0
  0
LINE
  5
38C
100
AcDbEntity
  8
_Y__________
  6
CENTER
 62
         1
100
AcDbLine
 10
1513.0227673053
 20
112.2524144385
 30
0.0
 11
1542.8786999334
 21
112.2524144385
 31
0.0
  0
LINE
  5
38D
100
AcDbEntity
  8
_Y__________
  6
CENTER
 62
         1
100
AcDbLine
 10
1417.2325573653
 20
112.2524144385
 30
0.0
 11
1491.1537903612
 21
112.2524144385
 31
0.0
  0
LINE
  5
38E
100
AcDbEntity
  8
_Y__________
  6
CONTINUOUS
 62
         7
100
AcDbLine
 10
1523.7786999334
 20
147.1774144385
 30
0.0
 11
1424.3179293748
 21
132.6725821702
 31
0.0
  0
LINE
  5
38F
100
AcDbEntity
  8
_Y__________
  6
CONTINUOUS
 62
         7
100
AcDbLine
 10
1523.7786999334
 20
77.3274144385
 30
0.0
 11
1424.3179293748
 21
91.8322467069
 31
0.0
  0
LINE
  5
390
100
AcDbEntity
  8
_Y__________
  6
CONTINUOUS
 62
         7
100
AcDbLine
 10
1524.9786999334
 20
146.8691546422
 30
0.0
 11
1524.9786999334
 21
77.6356742349
 31
0.0
  0
LINE
  5
391
100
AcDbEntity
  8
_Y__________
  6
CENTER
 62
         1
100
AcDbLine
 10
1523.7786999334
 20
151.9774144385
 30
0.0
 11
1523.7786999334
 21
73.981360093
 31
0.0
  0
LINE
  5
392
100
AcDbEntity
  8
_Y__________
  6
CONTINUOUS
 62
         7
100
AcDbLine
 10
1525.7251100949
 20
146.6774144385
 30
0.0
 11
1525.7251100949
 21
77.8274144385
 31
0.0
  0
LINE
  5
393
100
AcDbEntity
  8
_Y__________
  6
CONTINUOUS
 62
         7
100
AcDbLine
 10
1526.9786999334
 20
159.5024144385
 30
0.0
 11
1526.9786999334
 21
65.0024144385
 31
0.0
  0
LINE
  5
394
100
AcDbEntity
  8
_Y__________
  6
CENTER
 62
         1
100
AcDbLine
 10
1534.8786999334
 20
167.2576777393
 30
0.0
 11
1534.8786999334
 21
57.2548581875
 31
0.0
  0
LINE
  5
395
100
AcDbEntity
  8
_Y__________
  6
CONTINUOUS
 62
         7
100
AcDbLine
 10
1538.4149703322
 20
63.5024144385
 30
0.0
 11
1541.3786999334
 21
63.5024144385
 31
0.0
  0
ARC
  5
396
100
AcDbEntity
  8
_Y__________
  6
CONTINUOUS
 62
         7
100
AcDbCircle
 10
1526.3786999334
 20
77.2274144385
 30
0.0
 40
0.6
100
AcDbArc
 50
0.0
 51
90.0
  0
LINE
  5
397
100
AcDbEntity
  8
_Y__________
  6
CONTINUOUS
 62
         7
100
AcDbLine
 10
1525.7251100949
 20
77.8274144385
 30
0.0
 11
1526.3786999334
 21
77.8274144385
 31
0.0
  0
ARC
  5
398
100
AcDbEntity
  8
_Y__________
  6
CONTINUOUS
 62
         7
100
AcDbCircle
 10
1526.3786999334
 20
77.2274144385
 30
0.0
 40
0.6
100
AcDbArc
 50
0.0
 51
90.0
  0
ARC
  5
399
100
AcDbEntity
  8
_Y__________
  6
CONTINUOUS
 62
         7
100
AcDbCircle
 10
1536.3220756064
 20
66.1274144385
 30
0.0
 40
0.5
100
AcDbArc
 50
30.0
 51
90.0
  0
LINE
  5
39A
100
AcDbEntity
  8
_Y__________
  6
CONTINUOUS
 62
         7
100
AcDbLine
 10
1533.0023115585
 20
66.3774144385
 30
0.0
 11
1531.3424295346
 21
63.5024144385
 31
0.0
  0
LINE
  5
39B
100
AcDbEntity
  8
_Y__________
  6
CONTINUOUS
 62
         7
100
AcDbLine
 10
1528.4786999334
 20
63.5024144385
 30
0.0
 11
1531.3424295346
 21
63.5024144385
 31
0.0
  0
ARC
  5
39C
100
AcDbEntity
  8
_Y__________
  6
CONTINUOUS
 62
         7
100
AcDbCircle
 10
1533.4353242604
 20
66.1274144385
 30
0.0
 40
0.5
100
AcDbArc
 50
90.0
 51
150.0
  0
LINE
  5
39D
100
AcDbEntity
  8
_Y__________
  6
CONTINUOUS
 62
         7
100
AcDbLine
 10
1533.4353242604
 20
66.6274144385
 30
0.0
 11
1536.3220756064
 21
66.6274144385
 31
0.0
  0
LINE
  5
39E
100
AcDbEntity
  8
_Y__________
  6
CONTINUOUS
 62
         7
100
AcDbLine
 10
1536.7550883083
 20
66.3774144385
 30
0.0
 11
1538.4149703322
 21
63.5024144385
 31
0.0
  0
LINE
  5
39F
100
AcDbEntity
  8
_Y__________
  6
CONTINUOUS
 62
         7
100
AcDbLine
 10
1538.4149703322
 20
161.0024144385
 30
0.0
 11
1541.3786999334
 21
161.0024144385
 31
0.0
  0
ARC
  5
3A0
100
AcDbEntity
  8
_Y__________
  6
CONTINUOUS
 62
         7
100
AcDbCircle
 10
1536.3220756064
 20
158.3774144385
 30
0.0
 40
0.5
100
AcDbArc
 50
270.0
 51
330.0
  0
LINE
  5
3A1
100
AcDbEntity
  8
_Y__________
  6
CONTINUOUS
 62
         7
100
AcDbLine
 10
1533.0023115585
 20
158.1274144385
 30
0.0
 11
1531.3424295346
 21
161.0024144385
 31
0.0
  0
ARC
  5
3A2
100
AcDbEntity
  8
_Y__________
  6
CONTINUOUS
 62
         7
100
AcDbCircle
 10
1526.3786999334
 20
147.2774144385
 30
0.0
 40
0.6
100
AcDbArc
 50
270.0
 51
360.0
  0
LINE
  5
3A3
100
AcDbEntity
  8
_Y__________
  6
CONTINUOUS
 62
         7
100
AcDbLine
 10
1525.7251100949
 20
146.6774144385
 30
0.0
 11
1526.3786999334
 21
146.6774144385
 31
0.0
  0
ARC
  5
3A4
100
AcDbEntity
  8
_Y__________
  6
CONTINUOUS
 62
         7
100
AcDbCircle
 10
1533.4353242604
 20
158.3774144385
 30
0.0
 40
0.5
100
AcDbArc
 50
210.0
 51
270.0
  0
LINE
  5
3A5
100
AcDbEntity
  8
_Y__________
  6
CONTINUOUS
 62
         7
100
AcDbLine
 10
1528.4786999334
 20
161.0024144385
 30
0.0
 11
1531.3424295346
 21
161.0024144385
 31
0.0
  0
LINE
  5
3A6
100
AcDbEntity
  8
_Y__________
  6
CONTINUOUS
 62
         7
100
AcDbLine
 10
1533.4353242604
 20
157.8774144385
 30
0.0
 11
1536.3220756064
 21
157.8774144385
 31
0.0
  0
LINE
  5
3A7
100
AcDbEntity
  8
_Y__________
  6
CONTINUOUS
 62
         7
100
AcDbLine
 10
1536.7550883083
 20
158.1274144385
 30
0.0
 11
1538.4149703322
 21
161.0024144385
 31
0.0
  0
LINE
  5
3A8
100
AcDbEntity
  8
_Y__________
  6
CONTINUOUS
 62
         7
100
AcDbLine
 10
1542.8786999334
 20
159.5024144385
 30
0.0
 11
1542.8786999334
 21
65.0024144385
 31
0.0
  0
LINE
  5
3A9
100
AcDbEntity
  8
_Y__________
  6
CONTINUOUS
 62
         4
100
AcDbLine
 10
1423.5286999334
 20
-139.2400166132
 30
0.0
 11
1423.5286999334
 21
-114.2400166132
 31
0.0
  0
LINE
  5
3AA
100
AcDbEntity
  8
_Y__________
  6
CONTINUOUS
 62
         7
100
AcDbLine
 10
1430.4480438949
 20
-137.1363580766
 30
0.0
 11
1430.4480438949
 21
-116.3436751498
 31
0.0
  0
LINE
  5
3AB
100
AcDbEntity
  8
_Y__________
  6
CONTINUOUS
 62
         7
100
AcDbLine
 10
1428.2615426459
 20
-139.3228593257
 30
0.0
 11
1430.4480438949
 21
-137.1363580766
 31
0.0
  0
ARC
  5
3AC
100
AcDbEntity
  8
_Y__________
  6
CONTINUOUS
 62
         7
100
AcDbCircle
 10
1427.9786999334
 20
-139.0400166132
 30
0.0
 40
0.4
100
AcDbArc
 50
270.0
 51
315.0
  0
ARC
  5
3AD
100
AcDbEntity
  8
_Y__________
  6
CONTINUOUS
 62
         7
100
AcDbCircle
 10
1423.5286999334
 20
-140.7400166132
 30
0.0
 40
1.5
100
AcDbArc
 50
90.0
 51
154.1580672375
  0
LINE
  5
3AE
100
AcDbEntity
  8
_Y__________
  6
CONTINUOUS
 62
         7
100
AcDbLine
 10
1427.1251100949
 20
-139.4400166132
 30
0.0
 11
1426.3786999334
 21
-139.2400166132
 31
0.0
  0
LINE
  5
3AF
100
AcDbEntity
  8
_Y__________
  6
CONTINUOUS
 62
         7
100
AcDbLine
 10
1427.1251100949
 20
-139.4400166132
 30
0.0
 11
1427.9786999334
 21
-139.4400166132
 31
0.0
  0
LINE
  5
3B0
100
AcDbEntity
  8
_Y__________
  6
CONTINUOUS
 62
         7
100
AcDbLine
 10
1423.5286999334
 20
-139.2400166132
 30
0.0
 11
1426.3786999334
 21
-139.2400166132
 31
0.0
  0
LINE
  5
3B1
100
AcDbEntity
  8
_Y__________
  6
CONTINUOUS
 62
         7
100
AcDbLine
 10
1428.2615426459
 20
-114.1571739007
 30
0.0
 11
1430.4480438949
 21
-116.3436751498
 31
0.0
  0
ARC
  5
3B2
100
AcDbEntity
  8
_Y__________
  6
CONTINUOUS
 62
         7
100
AcDbCircle
 10
1423.5286999334
 20
-112.7400166132
 30
0.0
 40
1.5
100
AcDbArc
 50
205.8419327625
 51
270.0
  0
LINE
  5
3B3
100
AcDbEntity
  8
_Y__________
  6
CONTINUOUS
 62
         7
100
AcDbLine
 10
1427.1251100949
 20
-114.0400166132
 30
0.0
 11
1426.3786999334
 21
-114.2400166132
 31
0.0
  0
ARC
  5
3B4
100
AcDbEntity
  8
_Y__________
  6
CONTINUOUS
 62
         7
100
AcDbCircle
 10
1427.9786999334
 20
-114.4400166132
 30
0.0
 40
0.4
100
AcDbArc
 50
45.0
 51
90.0
  0
LINE
  5
3B5
100
AcDbEntity
  8
_Y__________
  6
CONTINUOUS
 62
         7
100
AcDbLine
 10
1426.3786999334
 20
-139.2400166132
 30
0.0
 11
1426.3786999334
 21
-114.2400166132
 31
0.0
  0
LINE
  5
3B6
100
AcDbEntity
  8
_Y__________
  6
CONTINUOUS
 62
         7
100
AcDbLine
 10
1427.1251100949
 20
-114.0400166132
 30
0.0
 11
1427.9786999334
 21
-114.0400166132
 31
0.0
  0
LINE
  5
3B7
100
AcDbEntity
  8
_Y__________
  6
CONTINUOUS
 62
         7
100
AcDbLine
 10
1428.3786999334
 20
-139.2057020382
 30
0.0
 11
1428.3786999334
 21
-114.2743311882
 31
0.0
  0
ARC
  5
3B8
100
AcDbEntity
  8
_Y__________
  6
CONTINUOUS
 62
         7
100
AcDbCircle
 10
1536.0334004718
 20
-173.3650166132
 30
0.0
 40
1.0
100
AcDbArc
 50
30.0
 51
90.0
  0
LINE
  5
3B9
100
AcDbEntity
  8
_Y__________
  6
CENTER
 62
         1
100
AcDbLine
 10
1422.0286999334
 20
-126.7400166132
 30
0.0
 11
1542.8786999334
 21
-126.7400166132
 31
0.0
  0
LINE
  5
3BA
100
AcDbEntity
  8
_Y__________
  6
CONTINUOUS
 62
         7
100
AcDbLine
 10
1523.7786999334
 20
-91.8150166132
 30
0.0
 11
1525.7251100949
 21
-92.3150166132
 31
0.0
  0
LINE
  5
3BB
100
AcDbEntity
  8
_Y__________
  6
CONTINUOUS
 62
         7
100
AcDbLine
 10
1523.7786999334
 20
-161.6650166132
 30
0.0
 11
1525.7251100949
 21
-161.1650166132
 31
0.0
  0
LINE
  5
3BC
100
AcDbEntity
  8
_Y__________
  6
CONTINUOUS
 62
         5
100
AcDbLine
 10
1428.8443853584
 20
-114.7400166132
 30
0.0
 11
1466.6786999334
 21
-114.7400166132
 31
0.0
  0
LINE
  5
3BD
100
AcDbEntity
  8
_Y__________
  6
CONTINUOUS
 62
         7
100
AcDbLine
 10
1430.4480438949
 20
-116.3436751498
 30
0.0
 11
1466.6786999334
 21
-116.3436751498
 31
0.0
  0
LINE
  5
3BE
100
AcDbEntity
  8
_Y__________
  6
CONTINUOUS
 62
         7
100
AcDbLine
 10
1523.7786999334
 20
-91.8150166132
 30
0.0
 11
1424.1679293748
 21
-106.3417240875
 31
0.0
  0
LINE
  5
3BF
100
AcDbEntity
  8
_Y__________
  6
CONTINUOUS
 62
         5
100
AcDbLine
 10
1428.8443853584
 20
-138.7400166132
 30
0.0
 11
1466.6786999334
 21
-138.7400166132
 31
0.0
  0
LINE
  5
3C0
100
AcDbEntity
  8
_Y__________
  6
CONTINUOUS
 62
         7
100
AcDbLine
 10
1430.4480438949
 20
-137.1363580766
 30
0.0
 11
1466.6786999334
 21
-137.1363580766
 31
0.0
  0
LINE
  5
3C1
100
AcDbEntity
  8
_Y__________
  6
CONTINUOUS
 62
         7
100
AcDbLine
 10
1523.7786999334
 20
-161.6650166132
 30
0.0
 11
1424.1679293748
 21
-147.1383091389
 31
0.0
  0
LINE
  5
3C2
100
AcDbEntity
  8
_Y__________
  6
CONTINUOUS
 62
         7
100
AcDbLine
 10
1423.5286999334
 20
-114.2400166132
 30
0.0
 11
1426.3786999334
 21
-114.2400166132
 31
0.0
  0
LINE
  5
3C3
100
AcDbEntity
  8
_Y__________
  6
CONTINUOUS
 62
         7
100
AcDbLine
 10
1466.6786999334
 20
-114.7400166132
 30
0.0
 11
1466.6786999334
 21
-138.7400166132
 31
0.0
  0
LINE
  5
3C4
100
AcDbEntity
  8
_Y__________
  6
CONTINUOUS
 62
         7
100
AcDbLine
 10
1538.4149703322
 20
-175.4900166132
 30
0.0
 11
1541.3786999334
 21
-175.4900166132
 31
0.0
  0
ARC
  5
3C5
100
AcDbEntity
  8
_Y__________
  6
CONTINUOUS
 62
         7
100
AcDbCircle
 10
1526.3786999334
 20
-161.7650166132
 30
0.0
 40
0.6
100
AcDbArc
 50
0.0
 51
90.0
  0
LINE
  5
3C6
100
AcDbEntity
  8
_Y__________
  6
CONTINUOUS
 62
         7
100
AcDbLine
 10
1525.7251100949
 20
-161.1650166132
 30
0.0
 11
1526.3786999334
 21
-161.1650166132
 31
0.0
  0
ARC
  5
3C7
100
AcDbEntity
  8
_Y__________
  6
CONTINUOUS
 62
         7
100
AcDbCircle
 10
1533.4353242604
 20
-172.8650166132
 30
0.0
 40
0.5
100
AcDbArc
 50
90.0
 51
150.0
  0
LINE
  5
3C8
100
AcDbEntity
  8
_Y__________
  6
CONTINUOUS
 62
         7
100
AcDbLine
 10
1533.0023115585
 20
-172.6150166132
 30
0.0
 11
1531.3424295346
 21
-175.4900166132
 31
0.0
  0
LINE
  5
3C9
100
AcDbEntity
  8
_Y__________
  6
CONTINUOUS
 62
         7
100
AcDbLine
 10
1528.4786999334
 20
-175.4900166132
 30
0.0
 11
1531.3424295346
 21
-175.4900166132
 31
0.0
  0
LINE
  5
3CA
100
AcDbEntity
  8
_Y__________
  6
CONTINUOUS
 62
         7
100
AcDbLine
 10
1533.4353242604
 20
-172.3650166132
 30
0.0
 11
1536.0334004718
 21
-172.3650166132
 31
0.0
  0
LINE
  5
3CB
100
AcDbEntity
  8
_Y__________
  6
CONTINUOUS
 62
         7
100
AcDbLine
 10
1526.9786999334
 20
-161.7650166132
 30
0.0
 11
1526.9786999334
 21
-173.9900166132
 31
0.0
  0
LINE
  5
3CC
100
AcDbEntity
  8
_Y__________
  6
CONTINUOUS
 62
         7
100
AcDbLine
 10
1536.8994258756
 20
-172.8650166132
 30
0.0
 11
1538.4149703322
 21
-175.4900166132
 31
0.0
  0
LINE
  5
3CD
100
AcDbEntity
  8
_Y__________
  6
CONTINUOUS
 62
         7
100
AcDbLine
 10
1538.4149703322
 20
-77.9900166132
 30
0.0
 11
1541.3786999334
 21
-77.9900166132
 31
0.0
  0
LINE
  5
3CE
100
AcDbEntity
  8
_Y__________
  6
CONTINUOUS
 62
         7
100
AcDbLine
 10
1533.0023115585
 20
-80.8650166132
 30
0.0
 11
1531.3424295346
 21
-77.9900166132
 31
0.0
  0
ARC
  5
3CF
100
AcDbEntity
  8
_Y__________
  6
CONTINUOUS
 62
         7
100
AcDbCircle
 10
1536.3220756064
 20
-80.6150166132
 30
0.0
 40
0.5
100
AcDbArc
 50
270.0
 51
330.0
  0
ARC
  5
3D0
100
AcDbEntity
  8
_Y__________
  6
CONTINUOUS
 62
         7
100
AcDbCircle
 10
1533.4353242604
 20
-80.6150166132
 30
0.0
 40
0.5
100
AcDbArc
 50
210.0
 51
270.0
  0
ARC
  5
3D1
100
AcDbEntity
  8
_Y__________
  6
CONTINUOUS
 62
         7
100
AcDbCircle
 10
1526.3786999334
 20
-91.7150166132
 30
0.0
 40
0.6
100
AcDbArc
 50
270.0
 51
360.0
  0
LINE
  5
3D2
100
AcDbEntity
  8
_Y__________
  6
CONTINUOUS
 62
         7
100
AcDbLine
 10
1525.7251100949
 20
-92.3150166132
 30
0.0
 11
1526.3786999334
 21
-92.3150166132
 31
0.0
  0
LINE
  5
3D3
100
AcDbEntity
  8
_Y__________
  6
CONTINUOUS
 62
         7
100
AcDbLine
 10
1526.9786999334
 20
-79.4900166132
 30
0.0
 11
1526.9786999334
 21
-91.7150166132
 31
0.0
  0
LINE
  5
3D4
100
AcDbEntity
  8
_Y__________
  6
CONTINUOUS
 62
         7
100
AcDbLine
 10
1533.4353242604
 20
-81.1150166132
 30
0.0
 11
1536.3220756064
 21
-81.1150166132
 31
0.0
  0
LINE
  5
3D5
100
AcDbEntity
  8
_Y__________
  6
CONTINUOUS
 62
         7
100
AcDbLine
 10
1528.4786999334
 20
-77.9900166132
 30
0.0
 11
1531.3424295346
 21
-77.9900166132
 31
0.0
  0
LINE
  5
3D6
100
AcDbEntity
  8
_Y__________
  6
CONTINUOUS
 62
         7
100
AcDbLine
 10
1536.7550883083
 20
-80.8650166132
 30
0.0
 11
1538.4149703322
 21
-77.9900166132
 31
0.0
  0
LINE
  5
3D7
100
AcDbEntity
  8
_Y__________
  6
CONTINUOUS
 62
         7
100
AcDbLine
 10
1533.4353242604
 20
-81.1150166132
 30
0.0
 11
1536.3220756064
 21
-81.1150166132
 31
0.0
  0
LINE
  5
3D8
100
AcDbEntity
  8
_Y__________
  6
CONTINUOUS
 62
         7
100
AcDbLine
 10
1526.9786999334
 20
-79.4900166132
 30
0.0
 11
1526.9786999334
 21
-91.7150166132
 31
0.0
  0
LINE
  5
3D9
100
AcDbEntity
  8
_Y__________
  6
CONTINUOUS
 62
         7
100
AcDbLine
 10
1525.7251100949
 20
-92.3150166132
 30
0.0
 11
1526.3786999334
 21
-92.3150166132
 31
0.0
  0
ARC
  5
3DA
100
AcDbEntity
  8
_Y__________
  6
CONTINUOUS
 62
         7
100
AcDbCircle
 10
1526.3786999334
 20
-91.7150166132
 30
0.0
 40
0.6
100
AcDbArc
 50
270.0
 51
360.0
  0
ARC
  5
3DB
100
AcDbEntity
  8
_Y__________
  6
CONTINUOUS
 62
         7
100
AcDbCircle
 10
1533.4353242604
 20
-80.6150166132
 30
0.0
 40
0.5
100
AcDbArc
 50
210.0
 51
270.0
  0
ARC
  5
3DC
100
AcDbEntity
  8
_Y__________
  6
CONTINUOUS
 62
         7
100
AcDbCircle
 10
1536.3220756064
 20
-80.6150166132
 30
0.0
 40
0.5
100
AcDbArc
 50
270.0
 51
330.0
  0
LINE
  5
3DD
100
AcDbEntity
  8
_Y__________
  6
CONTINUOUS
 62
         7
100
AcDbLine
 10
1523.7786999334
 20
-91.8150166132
 30
0.0
 11
1525.7251100949
 21
-92.3150166132
 31
0.0
  0
LINE
  5
3DE
100
AcDbEntity
  8
_Y__________
  6
CONTINUOUS
 62
         7
100
AcDbLine
 10
1422.1786999334
 20
130.1987502026
 30
0.0
 11
1422.1786999334
 21
94.3060786745
 31
0.0
  0
ARC
  5
3DF
100
AcDbEntity
  8
_Y__________
  6
CONTINUOUS
 62
         7
100
AcDbCircle
 10
1424.6786999334
 20
130.1987502026
 30
0.0
 40
2.5
100
AcDbArc
 50
98.297222
 51
180.0
  0
ARC
  5
3E0
100
AcDbEntity
  8
_Y__________
  6
CONTINUOUS
 62
         7
100
AcDbCircle
 10
1424.6786999334
 20
94.3060786745
 30
0.0
 40
2.5
100
AcDbArc
 50
180.0
 51
261.702778
  0
ARC
  5
3E1
100
AcDbEntity
  8
_Y__________
  6
CONTINUOUS
 62
         7
100
AcDbCircle
 10
1424.6786999334
 20
-108.7936808492
 30
0.0
 40
2.5
100
AcDbArc
 50
98.297222
 51
180.0
  0
LINE
  5
3E2
100
AcDbEntity
  8
_Y__________
  6
CONTINUOUS
 62
         7
100
AcDbLine
 10
1422.1786999334
 20
-108.7936808492
 30
0.0
 11
1422.1786999334
 21
-144.6863523772
 31
0.0
  0
ARC
  5
3E3
100
AcDbEntity
  8
_Y__________
  6
CONTINUOUS
 62
         7
100
AcDbCircle
 10
1424.6786999334
 20
-144.6863523772
 30
0.0
 40
2.5
100
AcDbArc
 50
180.0
 51
261.702778
  0
LINE
  5
3E4
100
AcDbEntity
  8
_Y__________
  6
CONTINUOUS
 62
         7
100
AcDbLine
 10
1526.9786999334
 20
-79.4900166132
 30
0.0
 11
1526.9786999334
 21
-80.4900166132
 31
0.0
  0
LINE
  5
3E5
100
AcDbEntity
  8
_Y__________
  6
CONTINUOUS
 62
         7
100
AcDbLine
 10
1528.4786999334
 20
-77.9900166132
 30
0.0
 11
1529.4786999334
 21
-77.9900166132
 31
0.0
  0
LINE
  5
3E6
100
AcDbEntity
  8
_Y__________
  6
CONTINUOUS
 62
         7
100
AcDbLine
 10
1540.3786999334
 20
-77.9900166132
 30
0.0
 11
1541.3786999334
 21
-77.9900166132
 31
0.0
  0
LINE
  5
3E7
100
AcDbEntity
  8
_Y__________
  6
CONTINUOUS
 62
         7
100
AcDbLine
 10
1542.8786999334
 20
-79.4900166132
 30
0.0
 11
1542.8786999334
 21
-80.4900166132
 31
0.0
  0
LINE
  5
3E8
100
AcDbEntity
  8
_Y__________
  6
CONTINUOUS
 62
         7
100
AcDbLine
 10
1528.4786999334
 20
-175.4900166132
 30
0.0
 11
1529.4786999334
 21
-175.4900166132
 31
0.0
  0
LINE
  5
3E9
100
AcDbEntity
  8
_Y__________
  6
CONTINUOUS
 62
         7
100
AcDbLine
 10
1540.3786999334
 20
-175.4900166132
 30
0.0
 11
1541.3786999334
 21
-175.4900166132
 31
0.0
  0
ARC
  5
3EA
100
AcDbEntity
  8
_Y__________
  6
CONTINUOUS
 62
         7
100
AcDbCircle
 10
1541.3786999334
 20
-79.4900166132
 30
0.0
 40
1.5
100
AcDbArc
 50
0.0
 51
90.0
  0
ARC
  5
3EB
100
AcDbEntity
  8
_Y__________
  6
CONTINUOUS
 62
         7
100
AcDbCircle
 10
1528.4786999334
 20
-79.4900166132
 30
0.0
 40
1.5
100
AcDbArc
 50
90.0
 51
180.0
  0
ARC
  5
3EC
100
AcDbEntity
  8
_Y__________
  6
CONTINUOUS
 62
         7
100
AcDbCircle
 10
1541.3786999334
 20
-173.9900166132
 30
0.0
 40
1.5
100
AcDbArc
 50
270.0
 51
360.0
  0
ARC
  5
3ED
100
AcDbEntity
  8
_Y__________
  6
CONTINUOUS
 62
         7
100
AcDbCircle
 10
1528.4786999334
 20
-173.9900166132
 30
0.0
 40
1.5
100
AcDbArc
 50
180.0
 51
270.0
  0
LINE
  5
3EE
100
AcDbEntity
  8
_Y__________
  6
CONTINUOUS
 62
         7
100
AcDbLine
 10
1542.8786999334
 20
-172.9900166132
 30
0.0
 11
1542.8786999334
 21
-173.9900166132
 31
0.0
  0
LINE
  5
3EF
100
AcDbEntity
  8
_Y__________
  6
CONTINUOUS
 62
         7
100
AcDbLine
 10
1526.9786999334
 20
-172.9900166132
 30
0.0
 11
1526.9786999334
 21
-173.9900166132
 31
0.0
  0
LINE
  5
3F0
100
AcDbEntity
  8
_Y__________
  6
CONTINUOUS
 62
         7
100
AcDbLine
 10
1526.9786999334
 20
66.0024144385
 30
0.0
 11
1526.9786999334
 21
65.0024144385
 31
0.0
  0
LINE
  5
3F1
100
AcDbEntity
  8
_Y__________
  6
CONTINUOUS
 62
         7
100
AcDbLine
 10
1542.8786999334
 20
66.0024144385
 30
0.0
 11
1542.8786999334
 21
65.0024144385
 31
0.0
  0
ARC
  5
3F2
100
AcDbEntity
  8
_Y__________
  6
CONTINUOUS
 62
         7
100
AcDbCircle
 10
1528.4786999334
 20
65.0024144385
 30
0.0
 40
1.5
100
AcDbArc
 50
180.0
 51
270.0
  0
ARC
  5
3F3
100
AcDbEntity
  8
_Y__________
  6
CONTINUOUS
 62
         7
100
AcDbCircle
 10
1541.3786999334
 20
65.0024144385
 30
0.0
 40
1.5
100
AcDbArc
 50
270.0
 51
360.0
  0
ARC
  5
3F4
100
AcDbEntity
  8
_Y__________
  6
CONTINUOUS
 62
         7
100
AcDbCircle
 10
1528.4786999334
 20
159.5024144385
 30
0.0
 40
1.5
100
AcDbArc
 50
90.0
 51
180.0
  0
ARC
  5
3F5
100
AcDbEntity
  8
_Y__________
  6
CONTINUOUS
 62
         7
100
AcDbCircle
 10
1541.3786999334
 20
159.5024144385
 30
0.0
 40
1.5
100
AcDbArc
 50
0.0
 51
90.0
  0
LINE
  5
3F6
100
AcDbEntity
  8
_Y__________
  6
CONTINUOUS
 62
         7
100
AcDbLine
 10
1540.3786999334
 20
63.5024144385
 30
0.0
 11
1541.3786999334
 21
63.5024144385
 31
0.0
  0
LINE
  5
3F7
100
AcDbEntity
  8
_Y__________
  6
CONTINUOUS
 62
         7
100
AcDbLine
 10
1528.4786999334
 20
63.5024144385
 30
0.0
 11
1529.4786999334
 21
63.5024144385
 31
0.0
  0
LINE
  5
3F8
100
AcDbEntity
  8
_Y__________
  6
CONTINUOUS
 62
         7
100
AcDbLine
 10
1542.8786999334
 20
159.5024144385
 30
0.0
 11
1542.8786999334
 21
158.5024144385
 31
0.0
  0
LINE
  5
3F9
100
AcDbEntity
  8
_Y__________
  6
CONTINUOUS
 62
         7
100
AcDbLine
 10
1540.3786999334
 20
161.0024144385
 30
0.0
 11
1541.3786999334
 21
161.0024144385
 31
0.0
  0
LINE
  5
3FA
100
AcDbEntity
  8
_Y__________
  6
CONTINUOUS
 62
         7
100
AcDbLine
 10
1528.4786999334
 20
161.0024144385
 30
0.0
 11
1529.4786999334
 21
161.0024144385
 31
0.0
  0
LINE
  5
3FB
100
AcDbEntity
  8
_Y__________
  6
CONTINUOUS
 62
         7
100
AcDbLine
 10
1526.9786999334
 20
159.5024144385
 30
0.0
 11
1526.9786999334
 21
158.5024144385
 31
0.0
  0
CIRCLE
  5
3FC
100
AcDbEntity
  8
_Y__________
  6
CONTINUOUS
 62
         7
100
AcDbCircle
 10
1534.8786999334
 20
112.2562679634
 30
0.0
 40
4.76
  0
LINE
  5
3FD
100
AcDbEntity
  8
_Y__________
  6
DASHED
 62
         2
100
AcDbLine
 10
1808.6340594905
 20
117.2524144385
 30
0.0
 11
1821.8480594905
 21
117.2524144385
 31
0.0
  0
LINE
  5
3FE
100
AcDbEntity
  8
_Y__________
  6
DASHED
 62
         2
100
AcDbLine
 10
1808.6340594905
 20
107.2524144385
 30
0.0
 11
1821.8480594905
 21
107.2524144385
 31
0.0
  0
LINE
  5
3FF
100
AcDbEntity
  8
_Y__________
  6
DASHED
 62
         2
100
AcDbLine
 10
1821.8480594905
 20
117.2524144385
 30
0.0
 11
1821.8480594905
 21
107.2524144385
 31
0.0
  0
LINE
  5
400
100
AcDbEntity
  8
_Y__________
  6
DASHED
 62
         2
100
AcDbLine
 10
1824.7348108365
 20
112.2524144385
 30
0.0
 11
1821.8480594905
 21
107.2524144385
 31
0.0
  0
LINE
  5
401
100
AcDbEntity
  8
_Y__________
  6
DASHED
 62
         2
100
AcDbLine
 10
1821.8480594905
 20
117.2524144385
 30
0.0
 11
1824.7348108365
 21
112.2524144385
 31
0.0
  0
LINE
  5
402
100
AcDbEntity
  8
_Y__________
  6
DASHED
 62
         2
100
AcDbLine
 10
1808.6340594905
 20
107.2524144385
 30
0.0
 11
1808.1340594905
 21
106.7524144385
 31
0.0
  0
LINE
  5
403
100
AcDbEntity
  8
_Y__________
  6
DASHED
 62
         2
100
AcDbLine
 10
1808.6340594905
 20
117.2524144385
 30
0.0
 11
1808.1340594905
 21
117.7524144385
 31
0.0
  0
LINE
  5
404
100
AcDbEntity
  8
_Y__________
  6
DASHED
 62
         2
100
AcDbLine
 10
1808.6340594905
 20
117.2524144385
 30
0.0
 11
1808.6340594905
 21
107.2524144385
 31
0.0
  0
LINE
  5
405
100
AcDbEntity
  8
_Y__________
  6
CONTINUOUS
 62
         7
100
AcDbLine
 10
1542.8786999334
 20
98.4024144385
 30
0.0
 11
1538.4149703322
 21
98.4024144385
 31
0.0
  0
LINE
  5
406
100
AcDbEntity
  8
_Y__________
  6
CONTINUOUS
 62
         7
100
AcDbLine
 10
1531.3424295346
 20
98.4024144385
 30
0.0
 11
1526.9786999334
 21
98.4024144385
 31
0.0
  0
LINE
  5
407
100
AcDbEntity
  8
_Y__________
  6
CONTINUOUS
 62
         7
100
AcDbLine
 10
1526.9786999334
 20
98.4024144385
 30
0.0
 11
1527.9987940983
 21
99.4225086035
 31
0.0
  0
LINE
  5
408
100
AcDbEntity
  8
_Y__________
  6
CONTINUOUS
 62
         7
100
AcDbLine
 10
1531.3424295346
 20
98.4024144385
 30
0.0
 11
1533.0036999334
 21
99.4225086035
 31
0.0
  0
LINE
  5
409
100
AcDbEntity
  8
_Y__________
  6
CONTINUOUS
 62
         7
100
AcDbLine
 10
1541.7586057685
 20
99.4225086035
 30
0.0
 11
1527.9987940983
 21
99.4225086035
 31
0.0
  0
LINE
  5
40A
100
AcDbEntity
  8
_Y__________
  6
CONTINUOUS
 62
         7
100
AcDbLine
 10
1541.7586057685
 20
99.4225086035
 30
0.0
 11
1527.9987940983
 21
99.4225086035
 31
0.0
  0
LINE
  5
40B
100
AcDbEntity
  8
_Y__________
  6
CONTINUOUS
 62
         7
100
AcDbLine
 10
1536.7536999334
 20
99.4225086035
 30
0.0
 11
1538.4149703322
 21
98.4024144385
 31
0.0
  0
LINE
  5
40C
100
AcDbEntity
  8
_Y__________
  6
CONTINUOUS
 62
         7
100
AcDbLine
 10
1542.7786999334
 20
98.4024144385
 30
0.0
 11
1541.7586057685
 21
99.4225086035
 31
0.0
  0
LINE
  5
40D
100
AcDbEntity
  8
_Y__________
  6
CONTINUOUS
 62
         7
100
AcDbLine
 10
1538.4149703322
 20
98.4024144385
 30
0.0
 11
1538.4149703322
 21
63.5024144385
 31
0.0
  0
LINE
  5
40E
100
AcDbEntity
  8
_Y__________
  6
CONTINUOUS
 62
         7
100
AcDbLine
 10
1536.7536999334
 20
99.4225086035
 30
0.0
 11
1536.7536999334
 21
66.3798039001
 31
0.0
  0
LINE
  5
40F
100
AcDbEntity
  8
_Y__________
  6
CONTINUOUS
 62
         7
100
AcDbLine
 10
1533.0036999334
 20
99.4225086035
 30
0.0
 11
1533.0036999334
 21
66.3798039001
 31
0.0
  0
LINE
  5
410
100
AcDbEntity
  8
_Y__________
  6
CONTINUOUS
 62
         7
100
AcDbLine
 10
1531.3424295346
 20
98.4024144385
 30
0.0
 11
1531.3424295346
 21
63.5024144385
 31
0.0
  0
LINE
  5
411
100
AcDbEntity
  8
_Y__________
  6
CONTINUOUS
 62
         7
100
AcDbLine
 10
1542.8786999334
 20
126.1024144385
 30
0.0
 11
1538.4149703322
 21
126.1024144385
 31
0.0
  0
LINE
  5
412
100
AcDbEntity
  8
_Y__________
  6
CONTINUOUS
 62
         7
100
AcDbLine
 10
1531.3424295346
 20
126.1024144385
 30
0.0
 11
1533.0036999334
 21
125.0823202736
 31
0.0
  0
LINE
  5
413
100
AcDbEntity
  8
_Y__________
  6
CONTINUOUS
 62
         7
100
AcDbLine
 10
1526.9786999334
 20
126.1024144385
 30
0.0
 11
1527.9987940983
 21
125.0823202736
 31
0.0
  0
LINE
  5
414
100
AcDbEntity
  8
_Y__________
  6
CONTINUOUS
 62
         7
100
AcDbLine
 10
1531.3424295346
 20
126.1024144385
 30
0.0
 11
1526.9786999334
 21
126.1024144385
 31
0.0
  0
LINE
  5
415
100
AcDbEntity
  8
_Y__________
  6
CONTINUOUS
 62
         7
100
AcDbLine
 10
1541.7586057685
 20
125.0823202736
 30
0.0
 11
1527.9987940983
 21
125.0823202736
 31
0.0
  0
LINE
  5
416
100
AcDbEntity
  8
_Y__________
  6
CONTINUOUS
 62
         7
100
AcDbLine
 10
1541.7586057685
 20
125.0823202736
 30
0.0
 11
1527.9987940983
 21
125.0823202736
 31
0.0
  0
LINE
  5
417
100
AcDbEntity
  8
_Y__________
  6
CONTINUOUS
 62
         7
100
AcDbLine
 10
1536.7536999334
 20
125.0823202736
 30
0.0
 11
1538.4149703322
 21
126.1024144385
 31
0.0
  0
LINE
  5
418
100
AcDbEntity
  8
_Y__________
  6
CONTINUOUS
 62
         7
100
AcDbLine
 10
1542.7786999334
 20
126.1024144385
 30
0.0
 11
1541.7586057685
 21
125.0823202736
 31
0.0
  0
LINE
  5
419
100
AcDbEntity
  8
_Y__________
  6
CONTINUOUS
 62
         7
100
AcDbLine
 10
1538.4149703322
 20
161.0024144385
 30
0.0
 11
1538.4149703322
 21
126.1024144385
 31
0.0
  0
LINE
  5
41A
100
AcDbEntity
  8
_Y__________
  6
CONTINUOUS
 62
         7
100
AcDbLine
 10
1536.7536999334
 20
158.125024977
 30
0.0
 11
1536.7536999334
 21
125.0823202736
 31
0.0
  0
LINE
  5
41B
100
AcDbEntity
  8
_Y__________
  6
CONTINUOUS
 62
         7
100
AcDbLine
 10
1533.0036999334
 20
158.125024977
 30
0.0
 11
1533.0036999334
 21
125.0823202736
 31
0.0
  0
LINE
  5
41C
100
AcDbEntity
  8
_Y__________
  6
CONTINUOUS
 62
         7
100
AcDbLine
 10
1531.3424295346
 20
161.0024144385
 30
0.0
 11
1531.3424295346
 21
126.1024144385
 31
0.0
  0
ARC
  5
41D
100
AcDbEntity
  8
_Y__________
  6
DASHED
 62
         2
100
AcDbCircle
 10
1845.8340594905
 20
112.2524144385
 30
0.0
 40
45.625
100
AcDbArc
 50
197.6716498685
 51
343.6416615206
  0
ARC
  5
41E
100
AcDbEntity
  8
_Y__________
  6
CONTINUOUS
 62
         7
100
AcDbCircle
 10
1845.8340594905
 20
112.2524144385
 30
0.0
 40
48.75
100
AcDbArc
 50
16.5052120024
 51
163.4947879976
  0
ARC
  5
41F
100
AcDbEntity
  8
_Y__________
  6
DASHED
 62
         2
100
AcDbCircle
 10
1845.8340594905
 20
112.2524144385
 30
0.0
 40
45.625
100
AcDbArc
 50
16.3583384794
 51
163.6416615206
  0
ARC
  5
420
100
AcDbEntity
  8
_Y__________
  6
CONTINUOUS
 62
         7
100
AcDbCircle
 10
1845.8340594905
 20
112.2524144385
 30
0.0
 40
48.75
100
AcDbArc
 50
196.5052120024
 51
343.4947879976
  0
LINE
  5
421
100
AcDbEntity
  8
_Y__________
  6
CENTER
 62
         1
100
AcDbLine
 10
1845.8340594905
 20
57.5024144385
 30
0.0
 11
1845.8340594905
 21
164.4170373134
 31
0.0
  0
LINE
  5
422
100
AcDbEntity
  8
_Y__________
  6
CONTINUOUS
 62
         7
100
AcDbLine
 10
1881.3340594905
 20
124.6024144385
 30
0.0
 11
1881.3340594905
 21
99.9024144385
 31
0.0
  0
LINE
  5
423
100
AcDbEntity
  8
_Y__________
  6
CONTINUOUS
 62
         7
100
AcDbLine
 10
1891.5752618713
 20
125.1024144385
 30
0.0
 11
1881.8340594905
 21
125.1024144385
 31
0.0
  0
LINE
  5
424
100
AcDbEntity
  8
_Y__________
  6
CONTINUOUS
 62
         7
100
AcDbLine
 10
1892.5752618713
 20
126.1024144385
 30
0.0
 11
1891.5752618713
 21
125.1024144385
 31
0.0
  0
LINE
  5
425
100
AcDbEntity
  8
_Y__________
  6
CONTINUOUS
 62
         7
100
AcDbLine
 10
1892.5752618713
 20
98.4024144385
 30
0.0
 11
1891.5752618713
 21
99.4024144385
 31
0.0
  0
LINE
  5
426
100
AcDbEntity
  8
_Y__________
  6
CONTINUOUS
 62
         7
100
AcDbLine
 10
1891.5752618713
 20
99.4024144385
 30
0.0
 11
1881.8340594905
 21
99.4024144385
 31
0.0
  0
LINE
  5
427
100
AcDbEntity
  8
_Y__________
  6
CONTINUOUS
 62
         7
100
AcDbLine
 10
1881.3340594905
 20
124.6024144385
 30
0.0
 11
1881.8340594905
 21
125.1024144385
 31
0.0
  0
LINE
  5
428
100
AcDbEntity
  8
_Y__________
  6
CONTINUOUS
 62
         7
100
AcDbLine
 10
1881.3340594905
 20
99.9024144385
 30
0.0
 11
1881.8340594905
 21
99.4024144385
 31
0.0
  0
LINE
  5
429
100
AcDbEntity
  8
_Y__________
  6
CONTINUOUS
 62
         7
100
AcDbLine
 10
1808.1340594905
 20
99.9024144385
 30
0.0
 11
1807.6340594905
 21
99.4024144385
 31
0.0
  0
LINE
  5
42A
100
AcDbEntity
  8
_Y__________
  6
CONTINUOUS
 62
         7
100
AcDbLine
 10
1807.6340594905
 20
125.1024144385
 30
0.0
 11
1808.1340594905
 21
124.6024144385
 31
0.0
  0
LINE
  5
42B
100
AcDbEntity
  8
_Y__________
  6
CONTINUOUS
 62
         7
100
AcDbLine
 10
1808.1340594905
 20
124.6024144385
 30
0.0
 11
1808.1340594905
 21
99.9024144385
 31
0.0
  0
LINE
  5
42C
100
AcDbEntity
  8
_Y__________
  6
CONTINUOUS
 62
         7
100
AcDbLine
 10
1799.0928571098
 20
126.1024144385
 30
0.0
 11
1800.0928571098
 21
125.1024144385
 31
0.0
  0
LINE
  5
42D
100
AcDbEntity
  8
_Y__________
  6
CONTINUOUS
 62
         7
100
AcDbLine
 10
1800.0928571098
 20
125.1024144385
 30
0.0
 11
1807.6340594905
 21
125.1024144385
 31
0.0
  0
LINE
  5
42E
100
AcDbEntity
  8
_Y__________
  6
CONTINUOUS
 62
         7
100
AcDbLine
 10
1799.0928571098
 20
98.4024144385
 30
0.0
 11
1800.0928571098
 21
99.4024144385
 31
0.0
  0
LINE
  5
42F
100
AcDbEntity
  8
_Y__________
  6
CONTINUOUS
 62
         7
100
AcDbLine
 10
1800.0928571098
 20
99.4024144385
 30
0.0
 11
1807.6340594905
 21
99.4024144385
 31
0.0
  0
LINE
  5
430
100
AcDbEntity
  8
_Y__________
  6
CENTER
 62
         1
100
AcDbLine
 10
1239.9233403763
 20
165.6922817905
 30
0.0
 11
1239.9233403763
 21
50.6023837096
 31
0.0
  0
ARC
  5
431
100
AcDbEntity
  8
_Y__________
  6
CONTINUOUS
 62
         7
100
AcDbCircle
 10
1239.9233403763
 20
112.2524144385
 30
0.0
 40
48.75
100
AcDbArc
 50
16.5052120024
 51
163.4947879976
  0
LINE
  5
432
100
AcDbEntity
  8
_Y__________
  6
CENTER
 62
         1
100
AcDbLine
 10
1283.2887501132
 20
112.2524144385
 30
0.0
 11
1193.3587947809
 21
112.2524144385
 31
0.0
  0
ARC
  5
433
100
AcDbEntity
  8
_Y__________
  6
CONTINUOUS
 62
         7
100
AcDbCircle
 10
1239.9233403763
 20
112.2524144385
 30
0.0
 40
48.75
100
AcDbArc
 50
196.5052120024
 51
343.4947879976
  0
CIRCLE
  5
434
100
AcDbEntity
  8
_Y__________
  6
CONTINUOUS
 62
         7
100
AcDbCircle
 10
1239.9233403763
 20
112.2524144385
 30
0.0
 40
34.925
  0
CIRCLE
  5
435
100
AcDbEntity
  8
_Y__________
  6
CONTINUOUS
 62
         7
100
AcDbCircle
 10
1239.9233403763
 20
112.2524144385
 30
0.0
 40
20.3982925257
  0
CIRCLE
  5
436
100
AcDbEntity
  8
_Y__________
  6
CONTINUOUS
 62
         7
100
AcDbCircle
 10
1239.9233403763
 20
112.2524144385
 30
0.0
 40
10.3963414634
  0
ARC
  5
437
100
AcDbEntity
  8
_Y__________
  6
CONTINUOUS
 62
         4
100
AcDbCircle
 10
1239.9233403763
 20
112.2524144385
 30
0.0
 40
12.0
100
AcDbArc
 50
278.1340859252
 51
549.6704111119
  0
CIRCLE
  5
438
100
AcDbEntity
  8
_Y__________
  6
CONTINUOUS
 62
         7
100
AcDbCircle
 10
1239.9233403763
 20
112.2524144385
 30
0.0
 40
12.6589889012
  0
LINE
  5
439
100
AcDbEntity
  8
_Y__________
  6
CONTINUOUS
 62
         7
100
AcDbLine
 10
1203.9233403763
 20
99.9024144385
 30
0.0
 11
1203.9233403763
 21
124.6024144385
 31
0.0
  0
LINE
  5
43A
100
AcDbEntity
  8
_Y__________
  6
CONTINUOUS
 62
         7
100
AcDbLine
 10
1194.1821379955
 20
99.4024144385
 30
0.0
 11
1203.4233403763
 21
99.4024144385
 31
0.0
  0
LINE
  5
43B
100
AcDbEntity
  8
_Y__________
  6
CONTINUOUS
 62
         7
100
AcDbLine
 10
1193.1821379955
 20
98.4024144385
 30
0.0
 11
1194.1821379955
 21
99.4024144385
 31
0.0
  0
LINE
  5
43C
100
AcDbEntity
  8
_Y__________
  6
CONTINUOUS
 62
         7
100
AcDbLine
 10
1193.1821379955
 20
126.1024144385
 30
0.0
 11
1194.1821379955
 21
125.1024144385
 31
0.0
  0
LINE
  5
43D
100
AcDbEntity
  8
_Y__________
  6
CONTINUOUS
 62
         7
100
AcDbLine
 10
1194.1821379955
 20
125.1024144385
 30
0.0
 11
1203.4233403763
 21
125.1024144385
 31
0.0
  0
LINE
  5
43E
100
AcDbEntity
  8
_Y__________
  6
CONTINUOUS
 62
         7
100
AcDbLine
 10
1277.6233403763
 20
99.9024144385
 30
0.0
 11
1277.6233403763
 21
124.6024144385
 31
0.0
  0
LINE
  5
43F
100
AcDbEntity
  8
_Y__________
  6
CONTINUOUS
 62
         7
100
AcDbLine
 10
1285.664542757
 20
125.1024144385
 30
0.0
 11
1278.1233403763
 21
125.1024144385
 31
0.0
  0
LINE
  5
440
100
AcDbEntity
  8
_Y__________
  6
CONTINUOUS
 62
         7
100
AcDbLine
 10
1286.664542757
 20
126.1024144385
 30
0.0
 11
1285.664542757
 21
125.1024144385
 31
0.0
  0
LINE
  5
441
100
AcDbEntity
  8
_Y__________
  6
CONTINUOUS
 62
         7
100
AcDbLine
 10
1285.664542757
 20
99.4024144385
 30
0.0
 11
1278.1233403763
 21
99.4024144385
 31
0.0
  0
LINE
  5
442
100
AcDbEntity
  8
_Y__________
  6
CONTINUOUS
 62
         7
100
AcDbLine
 10
1286.664542757
 20
98.4024144385
 30
0.0
 11
1285.664542757
 21
99.4024144385
 31
0.0
  0
LINE
  5
443
100
AcDbEntity
  8
_Y__________
  6
CONTINUOUS
 62
         7
100
AcDbLine
 10
1203.4233403763
 20
99.4024144385
 30
0.0
 11
1203.9233403763
 21
99.9024144385
 31
0.0
  0
LINE
  5
444
100
AcDbEntity
  8
_Y__________
  6
CONTINUOUS
 62
         7
100
AcDbLine
 10
1203.9233403763
 20
124.6024144385
 30
0.0
 11
1203.4233403763
 21
125.1024144385
 31
0.0
  0
LINE
  5
445
100
AcDbEntity
  8
_Y__________
  6
CONTINUOUS
 62
         7
100
AcDbLine
 10
1278.1233403763
 20
125.1024144385
 30
0.0
 11
1277.6233403763
 21
124.6024144385
 31
0.0
  0
LINE
  5
446
100
AcDbEntity
  8
_Y__________
  6
CONTINUOUS
 62
         7
100
AcDbLine
 10
1277.6233403763
 20
99.9024144385
 30
0.0
 11
1278.1233403763
 21
99.4024144385
 31
0.0
  0
LINE
  5
447
100
AcDbEntity
  8
_Y__________
  6
CONTINUOUS
 62
         7
100
AcDbLine
 10
1476.4786999334
 20
-116.3436751498
 30
0.0
 11
1476.4786999334
 21
-137.1363580766
 31
0.0
  0
LINE
  5
448
100
AcDbEntity
  8
_Y__________
  6
CONTINUOUS
 62
         7
100
AcDbLine
 10
1476.4786999334
 20
-116.3436751498
 30
0.0
 11
1430.4480438949
 21
-116.3436751498
 31
0.0
  0
LINE
  5
449
100
AcDbEntity
  8
_Y__________
  6
CONTINUOUS
 62
         7
100
AcDbLine
 10
1476.4786999334
 20
-137.1363580766
 30
0.0
 11
1430.4480438949
 21
-137.1363580766
 31
0.0
  0
LINE
  5
44A
100
AcDbEntity
  8
_Y__________
  6
CONTINUOUS
 62
         7
100
AcDbLine
 10
1476.4786999334
 20
-116.3436751498
 30
0.0
 11
1482.4810304759
 21
-126.7400166132
 31
0.0
  0
LINE
  5
44B
100
AcDbEntity
  8
_Y__________
  6
CONTINUOUS
 62
         7
100
AcDbLine
 10
1476.4786999334
 20
-137.1363580766
 30
0.0
 11
1482.4810304759
 21
-126.7400166132
 31
0.0
  0
DIMENSION
  5
44E
100
AcDbEntity
  8
L1_100
  6
CONTINUOUS
 62
         4
100
AcDbDimension
  2
*D4
 10
1422.1786999334
 20
211.518567624
 30
0.0
 11
1516.0534065142
 21
214.143567624
 31
0.0
  3
DIMSTYLE1
100
AcDbAlignedDimension
 13
1422.1786999334
 23
130.1987502026
 33
0.0
 14
1623.7786999334
 24
131.7524144385
 34
0.0
100
AcDbRotatedDimension
  0
DIMENSION
  5
45C
100
AcDbEntity
  8
L1_100
  6
CONTINUOUS
 62
         4
100
AcDbDimension
  2
*D5
 10
1523.7786999334
 20
201.2530685635
 30
0.0
 11
1568.4495994074
 21
203.8780685635
 31
0.0
  3
DIMSTYLE1
100
AcDbAlignedDimension
 13
1523.7786999334
 23
151.9774144385
 33
0.0
 14
1623.7786999334
 24
131.7524144385
 34
0.0
100
AcDbRotatedDimension
  0
INSERT
  5
4C3
100
AcDbEntity
  8
0
  6
CONTINUOUS
100
AcDbBlockReference
  2
*X6
 10
0.0
 20
0.0
 30
0.0
  0
TEXT
  5
4C5
100
AcDbEntity
  8
L1_100
  6
CONTINUOUS
 62
         2
100
AcDbText
 10
1830.4058372732
 20
186.4382511173
 30
0.0
 40
4.5
  1
531572
 41
0.98
  7
BOX
100
AcDbText
  0
ENDSEC
  0
SECTION
  2
OBJECTS
  0
DICTIONARY
  5
19
100
AcDbDictionary
  3
ACAD_GROUP
350
1A
  3
ACAD_MLINESTYLE
350
1B
  0
DICTIONARY
  5
1A
102
{ACAD_REACTORS
330
19
102
}
100
AcDbDictionary
  0
DICTIONARY
  5
1B
102
{ACAD_REACTORS
330
19
102
}
100
AcDbDictionary
  3
STANDARD
350
1C
  0
MLINESTYLE
  5
1C
102
{ACAD_REACTORS
330
1B
102
}
100
AcDbMlineStyle
  2
STANDARD
 70
         0
  3

 62
         0
 51
90.0
 52
90.0
 71
         2
 49
0.5
 62
       256
  6
BYLAYER
 49
-0.5
 62
       256
  6
BYLAYER
  0
ENDSEC
  0
EOF
