  0
SECTION
  2
HEADER
  9
$ACADVER
  1
AC1014
  9
$ACADMAINTVER
 70
         0
  9
$DWGCODEPAGE
  3
BIG5
  9
$INSBASE
 10
0.0
 20
0.0
 30
0.0
  9
$EXTMIN
 10
1104.3342456642
 20
-200.9999078749
 30
0.0
  9
$EXTMAX
 10
1989.4319518218
 20
245.2389022891
 30
0.0
  9
$LIMMIN
 10
0.0
 20
0.0
  9
$LIMMAX
 10
0.0
 20
0.0
  9
$ORTHOMODE
 70
         0
  9
$REGENMODE
 70
         1
  9
$FILLMODE
 70
         1
  9
$QTEXTMODE
 70
         0
  9
$MIRRTEXT
 70
         1
  9
$DRAGMODE
 70
         2
  9
$LTSCALE
 40
1.0
  9
$OSMODE
 70
         0
  9
$ATTMODE
 70
         1
  9
$TEXTSIZE
 40
1.5
  9
$TRACEWID
 40
0.05
  9
$TEXTSTYLE
  7
STANDARD
  9
$CLAYER
  8
0
  9
$CELTYPE
  6
CONTINUOUS
  9
$CECOLOR
 62
        16
  9
$CELTSCALE
 40
1.0
  9
$DELOBJ
 70
         1
  9
$DISPSILH
 70
         0
  9
$DIMSCALE
 40
1.0
  9
$DIMASZ
 40
0.18
  9
$DIMEXO
 40
0.0625
  9
$DIMDLI
 40
0.38
  9
$DIMRND
 40
0.0
  9
$DIMDLE
 40
0.0
  9
$DIMEXE
 40
0.25
  9
$DIMTP
 40
0.01
  9
$DIMTM
 40
-0.01
  9
$DIMTXT
 40
3.5
  9
$DIMCEN
 40
0.09
  9
$DIMTSZ
 40
0.0
  9
$DIMTOL
 70
         0
  9
$DIMLIM
 70
         0
  9
$DIMTIH
 70
         1
  9
$DIMTOH
 70
         1
  9
$DIMSE1
 70
         0
  9
$DIMSE2
 70
         0
  9
$DIMTAD
 70
         0
  9
$DIMZIN
 70
         0
  9
$DIMBLK
  1

  9
$DIMASO
 70
         1
  9
$DIMSHO
 70
         1
  9
$DIMPOST
  1

  9
$DIMAPOST
  1

  9
$DIMALT
 70
         0
  9
$DIMALTD
 70
         2
  9
$DIMALTF
 40
25.4
  9
$DIMLFAC
 40
1.0
  9
$DIMTOFL
 70
         0
  9
$DIMTVP
 40
0.0
  9
$DIMTIX
 70
         0
  9
$DIMSOXD
 70
         0
  9
$DIMSAH
 70
         0
  9
$DIMBLK1
  1

  9
$DIMBLK2
  1

  9
$DIMSTYLE
  2
STANDARD
  9
$DIMCLRD
 70
         0
  9
$DIMCLRE
 70
         0
  9
$DIMCLRT
 70
        16
  9
$DIMTFAC
 40
0.7
  9
$DIMGAP
 40
0.09
  9
$DIMJUST
 70
         0
  9
$DIMSD1
 70
         0
  9
$DIMSD2
 70
         0
  9
$DIMTOLJ
 70
         1
  9
$DIMTZIN
 70
         0
  9
$DIMALTZ
 70
         0
  9
$DIMALTTZ
 70
         0
  9
$DIMFIT
 70
         3
  9
$DIMUPT
 70
         0
  9
$DIMUNIT
 70
         2
  9
$DIMDEC
 70
         4
  9
$DIMTDEC
 70
         4
  9
$DIMALTU
 70
         2
  9
$DIMALTTD
 70
         2
  9
$DIMTXSTY
  7
STANDARD
  9
$DIMAUNIT
 70
         0
  9
$LUNITS
 70
         2
  9
$LUPREC
 70
        10
  9
$SKETCHINC
 40
0.1
  9
$FILLETRAD
 40
0.0
  9
$AUNITS
 70
         0
  9
$AUPREC
 70
         0
  9
$MENU
  1
acad
  9
$ELEVATION
 40
0.0
  9
$PELEVATION
 40
0.0
  9
$THICKNESS
 40
0.0
  9
$LIMCHECK
 70
         0
  9
$BLIPMODE
 70
         1
  9
$CHAMFERA
 40
0.0
  9
$CHAMFERB
 40
0.0
  9
$CHAMFERC
 40
0.0
  9
$CHAMFERD
 40
0.0
  9
$SKPOLY
 70
         0
  9
$TDCREATE
 40
0.000000000
  9
$TDUPDATE
 40
0.000000000
  9
$TDINDWG
 40
0.0000000000
  9
$TDUSRTIMER
 40
0.0000000000
  9
$USRTIMER
 70
         1
  9
$ANGBASE
 50
0.0
  9
$ANGDIR
 70
         0
  9
$PDMODE
 70
         2
  9
$PDSIZE
 40
0.0
  9
$PLINEWID
 40
0.0
  9
$COORDS
 70
         1
  9
$SPLFRAME
 70
         0
  9
$SPLINETYPE
 70
         6
  9
$SPLINESEGS
 70
         8
  9
$ATTDIA
 70
         0
  9
$ATTREQ
 70
         1
  9
$HANDLING
 70
         1
  9
$HANDSEED
  5
548
  9
$SURFTAB1
 70
         6
  9
$SURFTAB2
 70
         6
  9
$SURFTYPE
 70
         6
  9
$SURFU
 70
         6
  9
$SURFV
 70
         6
  9
$UCSNAME
  2

  9
$UCSORG
 10
0.0
 20
0.0
 30
0.0
  9
$UCSXDIR
 10
1.0
 20
0.0
 30
0.0
  9
$UCSYDIR
 10
0.0
 20
1.0
 30
0.0
  9
$PUCSNAME
  2

  9
$PUCSORG
 10
0.0
 20
0.0
 30
0.0
  9
$PUCSXDIR
 10
1.0
 20
0.0
 30
0.0
  9
$PUCSYDIR
 10
0.0
 20
1.0
 30
0.0
  9
$USERI1
 70
         0
  9
$USERI2
 70
         0
  9
$USERI3
 70
         0
  9
$USERI4
 70
         0
  9
$USERI5
 70
         0
  9
$USERR1
 40
0.0
  9
$USERR2
 40
0.0
  9
$USERR3
 40
0.0
  9
$USERR4
 40
0.0
  9
$USERR5
 40
0.0
  9
$WORLDVIEW
 70
         1
  9
$SHADEDGE
 70
         3
  9
$SHADEDIF
 70
        70
  9
$TILEMODE
 70
         1
  9
$MAXACTVP
 70
        16
  9
$PINSBASE
 10
0.0
 20
0.0
 30
0.0
  9
$PLIMCHECK
 70
         0
  9
$PEXTMIN
 10
1.0000000000E+20
 20
1.0000000000E+20
 30
1.0000000000E+20
  9
$PEXTMAX
 10
-1.0000000000E+20
 20
-1.0000000000E+20
 30
-1.0000000000E+20
  9
$PLIMMIN
 10
0.0
 20
0.0
  9
$PLIMMAX
 10
12.0
 20
9.0
  9
$UNITMODE
 70
         0
  9
$VISRETAIN
 70
         0
  9
$PLINEGEN
 70
         1
  9
$PSLTSCALE
 70
         0
  9
$TREEDEPTH
 70
      3020
  9
$PICKSTYLE
 70
         1
  9
$CMLSTYLE
  2
STANDARD
  9
$CMLJUST
 70
         0
  9
$CMLSCALE
 40
1.0
  9
$PROXYGRAPHICS
 70
         0
  9
$MEASUREMENT
 70
         0
  0
ENDSEC
  0
SECTION
  2
CLASSES
  0
CLASS
  1
LWPOLYLINE
  2
AcDbPolyline
  3
"AutoCAD"
 90
        0
280
         0
281
         1
  0
CLASS
  1
IMAGE
  2
AcDbRasterImage
  3
ISM
 90
      127
280
         0
281
         1
  0
CLASS
  1
OLE2FRAME
  2
AcDbOle2Frame
  3
""
 90
        0
280
         0
281
         1
  0
CLASS
  1
HATCH
  2
AcDbHatch
  3
"ACAD_SEDONA"
 90
        0
280
         0
281
         1
  0
CLASS
  1
DICTIONARYVAR
  2
AcDbDictionaryVar
  3
"AutoCAD"
 90
        0
280
         0
281
         0
  0
CLASS
  1
RASTERVARIABLES
  2
AcDbRasterVariables
  3
ISM
 90
        0
280
         0
281
         0
  0
CLASS
  1
IMAGEDEF
  2
AcDbRasterImageDef
  3
ISM
 90
        0
280
         0
281
         0
  0
CLASS
  1
IMAGEDEF_REACTOR
  2
AcDbRasterImageDefReactor
  3
ISM
 90
        1
280
         0
281
         0
  0
CLASS
  1
IDBUFFER
  2
AcDbIdBuffer
  3
"Acad"
 90
        0
280
         0
281
         0
  0
CLASS
  1
SPATIAL_FILTER
  2
AcDbSpatialFilter
  3
"Acad"
 90
        0
280
         0
281
         0
  0
CLASS
  1
XRECORD
  2
AcDbXrecord
  3
"<Built In>"
 90
        0
280
         0
281
         0
  0
CLASS
  1
SORTENTSTABLE
  2
AcDbSortentsTable
  3
"AutoCAD"
 90
        0
280
         0
281
         0
  0
CLASS
  1
LAYER_INDEX
  2
AcDbLayerIndex
  3
"Acad"
 90
        0
280
         0
281
         0
  0
CLASS
  1
SPATIAL_INDEX
  2
AcDbSpatialIndex
  3
"Acad"
 90
        0
280
         0
281
         0
  0
CLASS
  1
OBJECT_PTR
  2
CAseDLPNTableRecord
  3
"ASE-LPNTableRecord"
 90
        1
280
         0
281
         0
  0
CLASS
  1
LAYOUT
  2
AcDbLayout
  3
"AutoCAD 2000"
 90
        1
280
         0
281
         0
  0
CLASS
  1
PLOTSETTINGS
  2
AcDbPlotSettings
  3
"AutoCAD 2000"
 90
        1
280
         0
281
         0
  0
CLASS
  1
ACDBDICTIONARYWDFLT
  2
AcDbDictionaryWithDefault
  3
"AutoCAD 2000"
 90
        1
280
         0
281
         0
  0
CLASS
  1
ACDBPLACEHOLDER
  2
AcDbPlaceHolder
  3
"AutoCAD 2000"
 90
        1
280
         0
281
         0
  0
CLASS
  1
VBA_PROJECT
  2
AcDbVbaProject
  3
"acadvba"
 90
        1
280
         0
281
         0
  0
CLASS
  1
WIPEOUT
  2
AcDbWipeout
  3
WipeOut|AutoCAD Express Tool|expresstools@autodesk.com
 90
      127
280
         0
281
         1
  0
CLASS
  1
WIPEOUTVARIABLES
  2
AcDbWipeoutVariables
  3
WipeOut|AutoCAD Express Tool|expresstools@autodesk.com
 90
        0
280
         0
281
         0
  0
CLASS
  1
RTEXT
  2
RText
  3
RText|AutoCAD Express Tool|expresstools@autodesk.com
 90
        0
280
         0
281
         1
  0
CLASS
  1
ARCALIGNEDTEXT
  2
AcDbArcAlignedText
  3
ATEXT|AutoCAD Express Tool|expresstools@autodesk.com
 90
        0
280
         0
281
         1
  0
ENDSEC
  0
SECTION
  2
TABLES
  0
TABLE
  2
VPORT
  5
7
100
AcDbSymbolTable
 70
         1
  0
VPORT
  5
15
100
AcDbSymbolTableRecord
100
AcDbViewportTableRecord
  2
*ACTIVE
 70
         0
 10
0.0
 20
0.0
 11
1.0
 21
1.0
 12
1546.883098743
 22
22.1194972071
 13
0.0
 23
0.0
 14
1.0
 24
1.0
 15
0.0
 25
0.0
 16
0.0
 26
0.0
 36
1.0
 17
0.0
 27
0.0
 37
0.0
 40
446.2388101639
 41
1.9834619625
 42
50.0
 43
0.0
 44
0.0
 50
0.0
 51
0.0
 71
         0
 72
       100
 73
         1
 74
         1
 75
         0
 76
         0
 77
         0
 78
         0
  0
ENDTAB
  0
TABLE
  2
LTYPE
  5
4
100
AcDbSymbolTable
 70
         6
  0
LTYPE
  5
11
100
AcDbSymbolTableRecord
100
AcDbLinetypeTableRecord
  2
BYBLOCK
 70
        64
  3

 72
        65
 73
         0
 40
0.0
  0
LTYPE
  5
12
100
AcDbSymbolTableRecord
100
AcDbLinetypeTableRecord
  2
BYLAYER
 70
        64
  3

 72
        65
 73
         0
 40
0.0
  0
LTYPE
  5
13
100
AcDbSymbolTableRecord
100
AcDbLinetypeTableRecord
  2
CONTINUOUS
 70
        64
  3
Solid line
 72
        65
 73
         0
 40
0.0
  0
LTYPE
  5
1D
100
AcDbSymbolTableRecord
100
AcDbLinetypeTableRecord
  2
DASHED
 70
        64
  3
_ _ _ _ _ _ _ _ _ _ _ _ _ _ _ _
 72
        65
 73
         2
 40
0.2
 49
0.1
 74
         0
 49
-0.1
 74
         0
  0
LTYPE
  5
1E
100
AcDbSymbolTableRecord
100
AcDbLinetypeTableRecord
  2
CENTER
 70
        64
  3
___ _ ___ _ ___ _ ___ _ ___ _ ___ _ ___ _ ___ _
 72
        65
 73
         4
 40
0.95
 49
0.625
 74
         0
 49
-0.125
 74
         0
 49
0.075
 74
         0
 49
-0.125
 74
         0
  0
LTYPE
  5
1F
100
AcDbSymbolTableRecord
100
AcDbLinetypeTableRecord
  2
PHANTOM
 70
        64
  3
______  __  __  ______  __  __  ______  __  __  
 72
        65
 73
         6
 40
1.025
 49
0.625
 74
         0
 49
-0.125
 74
         0
 49
0.075
 74
         0
 49
-0.125
 74
         0
 49
0.075
 74
         0
 49
-0.125
 74
         0
  0
ENDTAB
  0
TABLE
  2
LAYER
  5
2
100
AcDbSymbolTable
 70
         5
  0
LAYER
  5
14
100
AcDbSymbolTableRecord
100
AcDbLayerTableRecord
  2
0
 70
         0
 62
         7
  6
CONTINUOUS
  0
LAYER
  5
21
100
AcDbSymbolTableRecord
100
AcDbLayerTableRecord
  2
_____U
 70
         1
 62
         7
  6
CONTINUOUS
  0
LAYER
  5
22
100
AcDbSymbolTableRecord
100
AcDbLayerTableRecord
  2
_Y__________
 70
         0
 62
         7
  6
CONTINUOUS
  0
LAYER
  5
23
100
AcDbSymbolTableRecord
100
AcDbLayerTableRecord
  2
L1_130
 70
         0
 62
         7
  6
CONTINUOUS
  0
LAYER
  5
2B
100
AcDbSymbolTableRecord
100
AcDbLayerTableRecord
  2
DEFPOINTS
 70
         0
 62
        -7
  6
CONTINUOUS
  0
ENDTAB
  0
TABLE
  2
STYLE
  5
3
100
AcDbSymbolTable
 70
         8
  0
STYLE
  5
17
100
AcDbSymbolTableRecord
100
AcDbTextStyleTableRecord
  2
STANDARD
 70
         0
 40
0.0
 41
1.0
 50
0.0
 71
         0
 42
0.0
  3
txt
  4

  0
STYLE
  5
34
100
AcDbSymbolTableRecord
100
AcDbTextStyleTableRecord
  2
BOX
 70
         0
 40
1.0
 41
1.0
 50
0.0
 71
         0
 42
0.2
  3
txt.shx
  4

  0
STYLE
  5
80
100
AcDbSymbolTableRecord
100
AcDbTextStyleTableRecord
  2
BOX
 70
         0
 40
1.0
 41
1.0
 50
0.0
 71
         0
 42
0.2
  3
txt.shx
  4

  0
STYLE
  5
8E
100
AcDbSymbolTableRecord
100
AcDbTextStyleTableRecord
  2
BOX
 70
         0
 40
1.0
 41
1.0
 50
0.0
 71
         0
 42
0.2
  3
txt.shx
  4

  0
STYLE
  5
1AF
100
AcDbSymbolTableRecord
100
AcDbTextStyleTableRecord
  2
BOX
 70
         0
 40
1.0
 41
1.0
 50
0.0
 71
         0
 42
0.2
  3
txt.shx
  4

  0
STYLE
  5
4CB
100
AcDbSymbolTableRecord
100
AcDbTextStyleTableRecord
  2
BOX
 70
         0
 40
1.0
 41
1.0
 50
0.0
 71
         0
 42
0.2
  3
txt.shx
  4

  0
STYLE
  5
4D9
100
AcDbSymbolTableRecord
100
AcDbTextStyleTableRecord
  2
BOX
 70
         0
 40
1.0
 41
1.0
 50
0.0
 71
         0
 42
0.2
  3
txt.shx
  4

  0
STYLE
  5
546
100
AcDbSymbolTableRecord
100
AcDbTextStyleTableRecord
  2
BOX
 70
         0
 40
1.0
 41
1.0
 50
0.0
 71
         0
 42
0.2
  3
txt.shx
  4

  0
ENDTAB
  0
TABLE
  2
VIEW
  5
5
100
AcDbSymbolTable
 70
         0
  0
ENDTAB
  0
TABLE
  2
UCS
  5
6
100
AcDbSymbolTable
 70
         1
  0
UCS
  5
20
100
AcDbSymbolTableRecord
100
AcDbUCSTableRecord
  2
CK_VIEW_1
 70
         0
 10
0.0
 20
0.0
 30
1.0
 11
1.0
 21
0.0
 31
0.0
 12
0.0
 22
1.0
 32
0.0
  0
ENDTAB
  0
TABLE
  2
APPID
  5
8
100
AcDbSymbolTable
 70
         1
  0
APPID
  5
16
100
AcDbSymbolTableRecord
100
AcDbRegAppTableRecord
  2
ACAD
 70
         0
  0
ENDTAB
  0
TABLE
  2
DIMSTYLE
  5
9
100
AcDbSymbolTable
 70
         2
  0
DIMSTYLE
105
18
100
AcDbSymbolTableRecord
100
AcDbDimStyleTableRecord
  2
STANDARD
 70
         0
  3

  4

  5

  6

  7

 40
1.0
 41
0.18
 42
0.0625
 43
0.38
 44
0.18
 45
0.0
 46
0.0
 47
0.0
 48
0.0
 71
         0
 72
         0
 73
         1
 74
         1
 75
         0
 76
         0
 77
         0
 78
         0
140
0.18
141
0.09
142
0.0
143
25.4
144
1.0
145
0.0
146
1.0
147
0.09
170
         0
171
         2
172
         0
173
         0
174
         0
175
         0
176
         0
177
         0
178
         0
270
         2
271
         4
272
         4
273
         2
274
         2
275
         0
280
         0
281
         0
282
         0
283
         1
284
         0
285
         0
286
         0
287
         0
288
         0
340
17
  0
DIMSTYLE
105
27
100
AcDbSymbolTableRecord
100
AcDbDimStyleTableRecord
  2
DIMSTYLE1
 70
         0
  3

  4

  5

  6

  7

 40
1.0
 41
3.5
 42
0.0625
 43
0.38
 44
3.5
 45
0.0
 46
0.0
 47
0.0
 48
0.0
 71
         0
 72
         0
 73
         1
 74
         1
 75
         0
 76
         0
 77
         0
 78
         0
140
3.5
141
0.09
142
0.0
143
25.4
144
1.0
145
0.0
146
1.0
147
0.09
170
         0
171
         2
172
         0
173
         0
174
         0
175
         0
176
         0
177
         0
178
         0
270
         2
271
         4
272
         4
273
         2
274
         2
275
         0
280
         0
281
         0
282
         0
283
         1
284
         0
285
         0
286
         0
287
         0
288
         0
340
17
  0
ENDTAB
  0
TABLE
  2
BLOCK_RECORD
  5
1
100
AcDbSymbolTable
 70
         7
  0
BLOCK_RECORD
  5
A
100
AcDbSymbolTableRecord
100
AcDbBlockTableRecord
  2
*MODEL_SPACE
  0
BLOCK_RECORD
  5
B
100
AcDbSymbolTableRecord
100
AcDbBlockTableRecord
  2
*PAPER_SPACE
  0
BLOCK_RECORD
  5
28
100
AcDbSymbolTableRecord
100
AcDbBlockTableRecord
  2
*D0
  0
BLOCK_RECORD
  5
75
100
AcDbSymbolTableRecord
100
AcDbBlockTableRecord
  2
*D1
  0
BLOCK_RECORD
  5
83
100
AcDbSymbolTableRecord
100
AcDbBlockTableRecord
  2
*D2
  0
BLOCK_RECORD
  5
1A4
100
AcDbSymbolTableRecord
100
AcDbBlockTableRecord
  2
*D3
  0
BLOCK_RECORD
  5
4C0
100
AcDbSymbolTableRecord
100
AcDbBlockTableRecord
  2
*D4
  0
BLOCK_RECORD
  5
4CE
100
AcDbSymbolTableRecord
100
AcDbBlockTableRecord
  2
*D5
  0
BLOCK_RECORD
  5
4DC
100
AcDbSymbolTableRecord
100
AcDbBlockTableRecord
  2
*X6
  0
ENDTAB
  0
ENDSEC
  0
SECTION
  2
BLOCKS
  0
BLOCK
  5
D
100
AcDbEntity
  8
0
100
AcDbBlockBegin
  2
*MODEL_SPACE
 70
         0
 10
0.0
 20
0.0
 30
0.0
  3
*MODEL_SPACE
  1

  0
ENDBLK
  5
E
100
AcDbEntity
  8
0
100
AcDbBlockEnd
  0
BLOCK
  5
F
100
AcDbEntity
 67
         1
  8
0
100
AcDbBlockBegin
  2
*PAPER_SPACE
 70
         0
 10
0.0
 20
0.0
 30
0.0
  3
*PAPER_SPACE
  1

  0
ENDBLK
  5
10
100
AcDbEntity
 67
         1
  8
0
100
AcDbBlockEnd
  0
BLOCK
  5
29
100
AcDbEntity
  8
0
100
AcDbBlockBegin
  2
*D0
 70
        65
 10
0.0
 20
0.0
 30
0.0
  3
*D0
  1

  0
POINT
  5
2C
100
AcDbEntity
  8
DEFPOINTS
  6
CONTINUOUS
 62
         0
100
AcDbPoint
 10
1725.192691734
 20
146.2524144385
 30
0.0
  0
POINT
  5
2D
100
AcDbEntity
  8
DEFPOINTS
  6
CONTINUOUS
 62
         0
100
AcDbPoint
 10
1580.2786999334
 20
146.2524144385
 30
0.0
  0
POINT
  5
2E
100
AcDbEntity
  8
DEFPOINTS
  6
CONTINUOUS
 62
         0
100
AcDbPoint
 10
1580.2786999334
 20
78.2524144385
 30
0.0
  0
LINE
  5
2F
100
AcDbEntity
  8
L1_130
  6
CONTINUOUS
 62
         4
100
AcDbLine
 10
1582.0286999334
 20
146.2524144385
 30
0.0
 11
1726.067691734
 21
146.2524144385
 31
0.0
  0
LINE
  5
30
100
AcDbEntity
  8
L1_130
  6
CONTINUOUS
 62
         4
100
AcDbLine
 10
1582.0286999334
 20
78.2524144385
 30
0.0
 11
1726.067691734
 21
78.2524144385
 31
0.0
  0
LINE
  5
31
100
AcDbEntity
  8
L1_130
  6
CONTINUOUS
 62
         4
100
AcDbLine
 10
1725.192691734
 20
146.2524144385
 30
0.0
 11
1725.192691734
 21
78.2524144385
 31
0.0
  0
SOLID
  5
32
100
AcDbEntity
  8
L1_130
  6
CONTINUOUS
 62
         4
100
AcDbTrace
 10
1725.192691734
 20
146.2524144385
 30
0.0
 11
1725.717691734
 21
142.7524144385
 31
0.0
 12
1724.667691734
 22
142.7524144385
 32
0.0
 13
1725.192691734
 23
146.2524144385
 33
0.0
  0
SOLID
  5
33
100
AcDbEntity
  8
L1_130
  6
CONTINUOUS
 62
         4
100
AcDbTrace
 10
1725.192691734
 20
78.2524144385
 30
0.0
 11
1724.667691734
 21
81.7524144385
 31
0.0
 12
1725.717691734
 22
81.7524144385
 32
0.0
 13
1725.192691734
 23
78.2524144385
 33
0.0
  0
TEXT
  5
35
100
AcDbEntity
  8
L1_130
  6
CONTINUOUS
 62
         4
100
AcDbText
 10
1721.132691734
 20
98.1773731366
 30
0.0
 40
3.5
  1
崷68
 50
90.0
  7
BOX
100
AcDbText
  0
ENDBLK
  5
36
100
AcDbEntity
  8
0
  6
CONTINUOUS
100
AcDbBlockEnd
  0
BLOCK
  5
76
100
AcDbEntity
  8
0
100
AcDbBlockBegin
  2
*D1
 70
        65
 10
0.0
 20
0.0
 30
0.0
  3
*D1
  1

  0
POINT
  5
78
100
AcDbEntity
  8
DEFPOINTS
  6
CONTINUOUS
 62
         0
100
AcDbPoint
 10
1653.7786999334
 20
-179.8413255947
 30
0.0
  0
POINT
  5
79
100
AcDbEntity
  8
DEFPOINTS
  6
CONTINUOUS
 62
         0
100
AcDbPoint
 10
1653.7786999334
 20
-139.4900166132
 30
0.0
  0
POINT
  5
7A
100
AcDbEntity
  8
DEFPOINTS
  6
CONTINUOUS
 62
         0
100
AcDbPoint
 10
1588.7786999334
 20
-151.2400166132
 30
0.0
  0
LINE
  5
7B
100
AcDbEntity
  8
L1_130
  6
CONTINUOUS
 62
         4
100
AcDbLine
 10
1653.7786999334
 20
-141.2400166132
 30
0.0
 11
1653.7786999334
 21
-180.7163255947
 31
0.0
  0
LINE
  5
7C
100
AcDbEntity
  8
L1_130
  6
CONTINUOUS
 62
         4
100
AcDbLine
 10
1588.7786999334
 20
-152.9900166132
 30
0.0
 11
1588.7786999334
 21
-180.7163255947
 31
0.0
  0
LINE
  5
7D
100
AcDbEntity
  8
L1_130
  6
CONTINUOUS
 62
         4
100
AcDbLine
 10
1653.7786999334
 20
-179.8413255947
 30
0.0
 11
1588.7786999334
 21
-179.8413255947
 31
0.0
  0
SOLID
  5
7E
100
AcDbEntity
  8
L1_130
  6
CONTINUOUS
 62
         4
100
AcDbTrace
 10
1653.7786999334
 20
-179.8413255947
 30
0.0
 11
1650.2786999334
 21
-180.3663255947
 31
0.0
 12
1650.2786999334
 22
-179.3163255947
 32
0.0
 13
1653.7786999334
 23
-179.8413255947
 33
0.0
  0
SOLID
  5
7F
100
AcDbEntity
  8
L1_130
  6
CONTINUOUS
 62
         4
100
AcDbTrace
 10
1588.7786999334
 20
-179.8413255947
 30
0.0
 11
1592.2786999334
 21
-179.3163255947
 31
0.0
 12
1592.2786999334
 22
-180.3663255947
 32
0.0
 13
1588.7786999334
 23
-179.8413255947
 33
0.0
  0
TEXT
  5
81
100
AcDbEntity
  8
L1_130
  6
CONTINUOUS
 62
         4
100
AcDbText
 10
1610.8622784028
 20
-175.7813255947
 30
0.0
 40
3.5
  1
65
  7
BOX
100
AcDbText
  0
ENDBLK
  5
82
100
AcDbEntity
  8
0
  6
CONTINUOUS
100
AcDbBlockEnd
  0
BLOCK
  5
84
100
AcDbEntity
  8
0
100
AcDbBlockBegin
  2
*D2
 70
        65
 10
0.0
 20
0.0
 30
0.0
  3
*D2
  1

  0
POINT
  5
86
100
AcDbEntity
  8
DEFPOINTS
  6
CONTINUOUS
 62
         0
100
AcDbPoint
 10
1685.7982292351
 20
-102.7400166132
 30
0.0
  0
POINT
  5
87
100
AcDbEntity
  8
DEFPOINTS
  6
CONTINUOUS
 62
         0
100
AcDbPoint
 10
1651.7786999334
 20
-102.7400166132
 30
0.0
  0
POINT
  5
88
100
AcDbEntity
  8
DEFPOINTS
  6
CONTINUOUS
 62
         0
100
AcDbPoint
 10
1651.7786999334
 20
-150.7400166132
 30
0.0
  0
LINE
  5
89
100
AcDbEntity
  8
L1_130
  6
CONTINUOUS
 62
         4
100
AcDbLine
 10
1653.5286999334
 20
-102.7400166132
 30
0.0
 11
1686.6732292351
 21
-102.7400166132
 31
0.0
  0
LINE
  5
8A
100
AcDbEntity
  8
L1_130
  6
CONTINUOUS
 62
         4
100
AcDbLine
 10
1653.5286999334
 20
-150.7400166132
 30
0.0
 11
1686.6732292351
 21
-150.7400166132
 31
0.0
  0
LINE
  5
8B
100
AcDbEntity
  8
L1_130
  6
CONTINUOUS
 62
         4
100
AcDbLine
 10
1685.7982292351
 20
-102.7400166132
 30
0.0
 11
1685.7982292351
 21
-150.7400166132
 31
0.0
  0
SOLID
  5
8C
100
AcDbEntity
  8
L1_130
  6
CONTINUOUS
 62
         4
100
AcDbTrace
 10
1685.7982292351
 20
-102.7400166132
 30
0.0
 11
1686.3232292351
 21
-106.2400166132
 31
0.0
 12
1685.2732292351
 22
-106.2400166132
 32
0.0
 13
1685.7982292351
 23
-102.7400166132
 33
0.0
  0
SOLID
  5
8D
100
AcDbEntity
  8
L1_130
  6
CONTINUOUS
 62
         4
100
AcDbTrace
 10
1685.7982292351
 20
-150.7400166132
 30
0.0
 11
1685.2732292351
 21
-147.2400166132
 31
0.0
 12
1686.3232292351
 22
-147.2400166132
 32
0.0
 13
1685.7982292351
 23
-150.7400166132
 33
0.0
  0
TEXT
  5
8F
100
AcDbEntity
  8
L1_130
  6
CONTINUOUS
 62
         4
100
AcDbText
 10
1681.7382292351
 20
-138.2418138788
 30
0.0
 40
3.5
  1
崷48
 50
90.0
  7
BOX
100
AcDbText
  0
ENDBLK
  5
90
100
AcDbEntity
  8
0
  6
CONTINUOUS
100
AcDbBlockEnd
  0
BLOCK
  5
1A5
100
AcDbEntity
  8
0
100
AcDbBlockBegin
  2
*D3
 70
        65
 10
0.0
 20
0.0
 30
0.0
  3
*D3
  1

  0
POINT
  5
1A7
100
AcDbEntity
  8
DEFPOINTS
  6
CONTINUOUS
 62
         0
100
AcDbPoint
 10
1701.5942454511
 20
142.2524144385
 30
0.0
  0
POINT
  5
1A8
100
AcDbEntity
  8
DEFPOINTS
  6
CONTINUOUS
 62
         0
100
AcDbPoint
 10
1645.9786999334
 20
142.2524144385
 30
0.0
  0
POINT
  5
1A9
100
AcDbEntity
  8
DEFPOINTS
  6
CONTINUOUS
 62
         0
100
AcDbPoint
 10
1653.2786999334
 20
82.2524144385
 30
0.0
  0
LINE
  5
1AA
100
AcDbEntity
  8
L1_130
  6
CONTINUOUS
 62
         4
100
AcDbLine
 10
1647.7286999334
 20
142.2524144385
 30
0.0
 11
1702.4692454511
 21
142.2524144385
 31
0.0
  0
LINE
  5
1AB
100
AcDbEntity
  8
L1_130
  6
CONTINUOUS
 62
         4
100
AcDbLine
 10
1655.0286999334
 20
82.2524144385
 30
0.0
 11
1702.4692454511
 21
82.2524144385
 31
0.0
  0
LINE
  5
1AC
100
AcDbEntity
  8
L1_130
  6
CONTINUOUS
 62
         4
100
AcDbLine
 10
1701.5942454511
 20
142.2524144385
 30
0.0
 11
1701.5942454511
 21
82.2524144385
 31
0.0
  0
SOLID
  5
1AD
100
AcDbEntity
  8
L1_130
  6
CONTINUOUS
 62
         4
100
AcDbTrace
 10
1701.5942454511
 20
142.2524144385
 30
0.0
 11
1702.1192454511
 21
138.7524144385
 31
0.0
 12
1701.0692454511
 22
138.7524144385
 32
0.0
 13
1701.5942454511
 23
142.2524144385
 33
0.0
  0
SOLID
  5
1AE
100
AcDbEntity
  8
L1_130
  6
CONTINUOUS
 62
         4
100
AcDbTrace
 10
1701.5942454511
 20
82.2524144385
 30
0.0
 11
1701.0692454511
 21
85.7524144385
 31
0.0
 12
1702.1192454511
 22
85.7524144385
 32
0.0
 13
1701.5942454511
 23
82.2524144385
 33
0.0
  0
TEXT
  5
1B0
100
AcDbEntity
  8
L1_130
  6
CONTINUOUS
 62
         4
100
AcDbText
 10
1697.5342454511
 20
98.5800642678
 30
0.0
 40
3.5
  1
崷60
 50
90.0
  7
BOX
100
AcDbText
  0
ENDBLK
  5
1B1
100
AcDbEntity
  8
0
  6
CONTINUOUS
100
AcDbBlockEnd
  0
BLOCK
  5
4C1
100
AcDbEntity
  8
0
100
AcDbBlockBegin
  2
*D4
 70
        65
 10
0.0
 20
0.0
 30
0.0
  3
*D4
  1

  0
POINT
  5
4C3
100
AcDbEntity
  8
DEFPOINTS
  6
CONTINUOUS
 62
         0
100
AcDbPoint
 10
1653.7786999334
 20
218.8303200089
 30
0.0
  0
POINT
  5
4C4
100
AcDbEntity
  8
DEFPOINTS
  6
CONTINUOUS
 62
         0
100
AcDbPoint
 10
1653.7786999334
 20
141.7524144385
 30
0.0
  0
POINT
  5
4C5
100
AcDbEntity
  8
DEFPOINTS
  6
CONTINUOUS
 62
         0
100
AcDbPoint
 10
1422.1786999334
 20
130.1987502026
 30
0.0
  0
LINE
  5
4C6
100
AcDbEntity
  8
L1_130
  6
CONTINUOUS
 62
         4
100
AcDbLine
 10
1653.7786999334
 20
143.5024144385
 30
0.0
 11
1653.7786999334
 21
219.7053200089
 31
0.0
  0
LINE
  5
4C7
100
AcDbEntity
  8
L1_130
  6
CONTINUOUS
 62
         4
100
AcDbLine
 10
1422.1786999334
 20
131.9487502026
 30
0.0
 11
1422.1786999334
 21
219.7053200089
 31
0.0
  0
LINE
  5
4C8
100
AcDbEntity
  8
L1_130
  6
CONTINUOUS
 62
         4
100
AcDbLine
 10
1653.7786999334
 20
218.8303200089
 30
0.0
 11
1422.1786999334
 21
218.8303200089
 31
0.0
  0
SOLID
  5
4C9
100
AcDbEntity
  8
L1_130
  6
CONTINUOUS
 62
         4
100
AcDbTrace
 10
1653.7786999334
 20
218.8303200089
 30
0.0
 11
1650.2786999334
 21
218.3053200089
 31
0.0
 12
1650.2786999334
 22
219.3553200089
 32
0.0
 13
1653.7786999334
 23
218.8303200089
 33
0.0
  0
SOLID
  5
4CA
100
AcDbEntity
  8
L1_130
  6
CONTINUOUS
 62
         4
100
AcDbTrace
 10
1422.1786999334
 20
218.8303200089
 30
0.0
 11
1425.6786999334
 21
219.3553200089
 31
0.0
 12
1425.6786999334
 22
218.3053200089
 32
0.0
 13
1422.1786999334
 23
218.8303200089
 33
0.0
  0
TEXT
  5
4CC
100
AcDbEntity
  8
L1_130
  6
CONTINUOUS
 62
         4
100
AcDbText
 10
1528.2194954488
 20
221.4553200089
 30
0.0
 40
3.5
  1
231.6
  7
BOX
100
AcDbText
  0
ENDBLK
  5
4CD
100
AcDbEntity
  8
0
  6
CONTINUOUS
100
AcDbBlockEnd
  0
BLOCK
  5
4CF
100
AcDbEntity
  8
0
100
AcDbBlockBegin
  2
*D5
 70
        65
 10
0.0
 20
0.0
 30
0.0
  3
*D5
  1

  0
POINT
  5
4D1
100
AcDbEntity
  8
DEFPOINTS
  6
CONTINUOUS
 62
         0
100
AcDbPoint
 10
1523.7786999334
 20
209.2953925344
 30
0.0
  0
POINT
  5
4D2
100
AcDbEntity
  8
DEFPOINTS
  6
CONTINUOUS
 62
         0
100
AcDbPoint
 10
1523.7786999334
 20
151.9774144385
 30
0.0
  0
POINT
  5
4D3
100
AcDbEntity
  8
DEFPOINTS
  6
CONTINUOUS
 62
         0
100
AcDbPoint
 10
1653.7786999334
 20
141.7524144385
 30
0.0
  0
LINE
  5
4D4
100
AcDbEntity
  8
L1_130
  6
CONTINUOUS
 62
         4
100
AcDbLine
 10
1523.7786999334
 20
153.7274144385
 30
0.0
 11
1523.7786999334
 21
210.1703925344
 31
0.0
  0
LINE
  5
4D5
100
AcDbEntity
  8
L1_130
  6
CONTINUOUS
 62
         4
100
AcDbLine
 10
1653.7786999334
 20
143.5024144385
 30
0.0
 11
1653.7786999334
 21
210.1703925344
 31
0.0
  0
LINE
  5
4D6
100
AcDbEntity
  8
L1_130
  6
CONTINUOUS
 62
         4
100
AcDbLine
 10
1523.7786999334
 20
209.2953925344
 30
0.0
 11
1653.7786999334
 21
209.2953925344
 31
0.0
  0
SOLID
  5
4D7
100
AcDbEntity
  8
L1_130
  6
CONTINUOUS
 62
         4
100
AcDbTrace
 10
1523.7786999334
 20
209.2953925344
 30
0.0
 11
1527.2786999334
 21
209.8203925344
 31
0.0
 12
1527.2786999334
 22
208.7703925344
 32
0.0
 13
1523.7786999334
 23
209.2953925344
 33
0.0
  0
SOLID
  5
4D8
100
AcDbEntity
  8
L1_130
  6
CONTINUOUS
 62
         4
100
AcDbTrace
 10
1653.7786999334
 20
209.2953925344
 30
0.0
 11
1650.2786999334
 21
208.7703925344
 31
0.0
 12
1650.2786999334
 22
209.8203925344
 32
0.0
 13
1653.7786999334
 23
209.2953925344
 33
0.0
  0
TEXT
  5
4DA
100
AcDbEntity
  8
L1_130
  6
CONTINUOUS
 62
         4
100
AcDbText
 10
1582.9883287597
 20
211.9203925344
 30
0.0
 40
3.5
  1
130
  7
BOX
100
AcDbText
  0
ENDBLK
  5
4DB
100
AcDbEntity
  8
0
  6
CONTINUOUS
100
AcDbBlockEnd
  0
BLOCK
  5
4DD
100
AcDbEntity
  8
0
100
AcDbBlockBegin
  2
*X6
 70
        65
 10
0.0
 20
0.0
 30
0.0
  3
*X6
  1

  0
LINE
  5
4DE
100
AcDbEntity
  8
L1_130
  6
CONTINUOUS
 62
         4
100
AcDbLine
 10
1650.4425322132
 20
-156.7400166132
 30
0.0
 11
1653.7786999334
 21
-153.403848893
 31
0.0
  0
LINE
  5
4DF
100
AcDbEntity
  8
L1_130
  6
CONTINUOUS
 62
         4
100
AcDbLine
 10
1646.199891526
 20
-156.7400166132
 30
0.0
 11
1652.1626844135
 21
-150.7772237257
 31
0.0
  0
LINE
  5
4E0
100
AcDbEntity
  8
L1_130
  6
CONTINUOUS
 62
         4
100
AcDbLine
 10
1641.9572508389
 20
-156.7400166132
 30
0.0
 11
1647.9572508389
 21
-150.7400166132
 31
0.0
  0
LINE
  5
4E1
100
AcDbEntity
  8
L1_130
  6
CONTINUOUS
 62
         4
100
AcDbLine
 10
1637.7146101518
 20
-156.7400166132
 30
0.0
 11
1643.7146101518
 21
-150.7400166132
 31
0.0
  0
LINE
  5
4E2
100
AcDbEntity
  8
L1_130
  6
CONTINUOUS
 62
         4
100
AcDbLine
 10
1633.4719694647
 20
-156.7400166132
 30
0.0
 11
1639.4719694647
 21
-150.7400166132
 31
0.0
  0
LINE
  5
4E3
100
AcDbEntity
  8
L1_130
  6
CONTINUOUS
 62
         4
100
AcDbLine
 10
1629.2293287776
 20
-156.7400166132
 30
0.0
 11
1635.2293287776
 21
-150.7400166132
 31
0.0
  0
LINE
  5
4E4
100
AcDbEntity
  8
L1_130
  6
CONTINUOUS
 62
         4
100
AcDbLine
 10
1624.9866880904
 20
-156.7400166132
 30
0.0
 11
1630.9866880904
 21
-150.7400166132
 31
0.0
  0
LINE
  5
4E5
100
AcDbEntity
  8
L1_130
  6
CONTINUOUS
 62
         4
100
AcDbLine
 10
1620.7440474033
 20
-156.7400166132
 30
0.0
 11
1626.7440474033
 21
-150.7400166132
 31
0.0
  0
LINE
  5
4E6
100
AcDbEntity
  8
L1_130
  6
CONTINUOUS
 62
         4
100
AcDbLine
 10
1616.5014067162
 20
-156.7400166132
 30
0.0
 11
1622.5014067162
 21
-150.7400166132
 31
0.0
  0
LINE
  5
4E7
100
AcDbEntity
  8
L1_130
  6
CONTINUOUS
 62
         4
100
AcDbLine
 10
1612.2587660291
 20
-156.7400166132
 30
0.0
 11
1618.2587660291
 21
-150.7400166132
 31
0.0
  0
LINE
  5
4E8
100
AcDbEntity
  8
L1_130
  6
CONTINUOUS
 62
         4
100
AcDbLine
 10
1610.9786999329
 20
-153.7774420222
 30
0.0
 11
1614.016125342
 21
-150.7400166132
 31
0.0
  0
LINE
  5
4E9
100
AcDbEntity
  8
L1_130
  6
CONTINUOUS
 62
         4
100
AcDbLine
 10
1599.5308439677
 20
-156.7400166132
 30
0.0
 11
1601.9786999338
 21
-154.2921606471
 31
0.0
  0
LINE
  5
4EA
100
AcDbEntity
  8
L1_130
  6
CONTINUOUS
 62
         4
100
AcDbLine
 10
1595.383451607
 20
-156.6447682868
 30
0.0
 11
1601.2882032806
 21
-150.7400166132
 31
0.0
  0
LINE
  5
4EB
100
AcDbEntity
  8
L1_130
  6
CONTINUOUS
 62
         4
100
AcDbLine
 10
1649.2882032806
 20
-102.7400166132
 30
0.0
 11
1653.7786999334
 21
-98.2495199604
 31
0.0
  0
LINE
  5
4EC
100
AcDbEntity
  8
L1_130
  6
CONTINUOUS
 62
         4
100
AcDbLine
 10
1590.5455625935
 20
-157.2400166132
 30
0.0
 11
1597.0455625935
 21
-150.7400166132
 31
0.0
  0
LINE
  5
4ED
100
AcDbEntity
  8
L1_130
  6
CONTINUOUS
 62
         4
100
AcDbLine
 10
1645.0455625935
 20
-102.7400166132
 30
0.0
 11
1651.0455625935
 21
-96.7400166132
 31
0.0
  0
LINE
  5
4EE
100
AcDbEntity
  8
L1_130
  6
CONTINUOUS
 62
         4
100
AcDbLine
 10
1586.3029219064
 20
-157.2400166132
 30
0.0
 11
1592.3029219064
 21
-151.2400166132
 31
0.0
  0
LINE
  5
4EF
100
AcDbEntity
  8
L1_130
  6
CONTINUOUS
 62
         4
100
AcDbLine
 10
1640.8029219064
 20
-102.7400166132
 30
0.0
 11
1645.3029219064
 21
-98.2400166132
 31
0.0
  0
LINE
  5
4F0
100
AcDbEntity
  8
L1_130
  6
CONTINUOUS
 62
         4
100
AcDbLine
 10
1645.7786999334
 20
-97.7642385862
 30
0.0
 11
1646.8029219064
 21
-96.7400166132
 31
0.0
  0
LINE
  5
4F1
100
AcDbEntity
  8
L1_130
  6
CONTINUOUS
 62
         4
100
AcDbLine
 10
1578.5602812192
 20
-160.7400166132
 30
0.0
 11
1580.7786999334
 21
-158.5215978991
 31
0.0
  0
LINE
  5
4F2
100
AcDbEntity
  8
L1_130
  6
CONTINUOUS
 62
         4
100
AcDbLine
 10
1582.0602812192
 20
-157.2400166132
 30
0.0
 11
1588.6987531354
 21
-150.6015446971
 31
0.0
  0
LINE
  5
4F3
100
AcDbEntity
  8
L1_130
  6
CONTINUOUS
 62
         4
100
AcDbLine
 10
1636.5602812192
 20
-102.7400166132
 30
0.0
 11
1642.5602812192
 21
-96.7400166132
 31
0.0
  0
LINE
  5
4F4
100
AcDbEntity
  8
L1_130
  6
CONTINUOUS
 62
         4
100
AcDbLine
 10
1574.3176405321
 20
-160.7400166132
 30
0.0
 11
1587.1458388647
 21
-147.9118182806
 31
0.0
  0
LINE
  5
4F5
100
AcDbEntity
  8
L1_130
  6
CONTINUOUS
 62
         4
100
AcDbLine
 10
1632.3176405321
 20
-102.7400166132
 30
0.0
 11
1638.3176405321
 21
-96.7400166132
 31
0.0
  0
LINE
  5
4F6
100
AcDbEntity
  8
L1_130
  6
CONTINUOUS
 62
         4
100
AcDbLine
 10
1570.074999845
 20
-160.7400166132
 30
0.0
 11
1585.5929245941
 21
-145.2220918641
 31
0.0
  0
LINE
  5
4F7
100
AcDbEntity
  8
L1_130
  6
CONTINUOUS
 62
         4
100
AcDbLine
 10
1628.074999845
 20
-102.7400166132
 30
0.0
 11
1634.074999845
 21
-96.7400166132
 31
0.0
  0
LINE
  5
4F8
100
AcDbEntity
  8
L1_130
  6
CONTINUOUS
 62
         4
100
AcDbLine
 10
1565.8323591579
 20
-160.7400166132
 30
0.0
 11
1584.0400103235
 21
-142.5323654476
 31
0.0
  0
LINE
  5
4F9
100
AcDbEntity
  8
L1_130
  6
CONTINUOUS
 62
         4
100
AcDbLine
 10
1623.8323591579
 20
-102.7400166132
 30
0.0
 11
1629.8323591579
 21
-96.7400166132
 31
0.0
  0
LINE
  5
4FA
100
AcDbEntity
  8
L1_130
  6
CONTINUOUS
 62
         4
100
AcDbLine
 10
1561.5897184708
 20
-160.7400166132
 30
0.0
 11
1582.4870960529
 21
-139.8426390311
 31
0.0
  0
LINE
  5
4FB
100
AcDbEntity
  8
L1_130
  6
CONTINUOUS
 62
         4
100
AcDbLine
 10
1619.5897184708
 20
-102.7400166132
 30
0.0
 11
1625.5897184708
 21
-96.7400166132
 31
0.0
  0
LINE
  5
4FC
100
AcDbEntity
  8
L1_130
  6
CONTINUOUS
 62
         4
100
AcDbLine
 10
1556.4220777837
 20
-161.6650166132
 30
0.0
 11
1580.9341817823
 21
-137.1529126146
 31
0.0
  0
LINE
  5
4FD
100
AcDbEntity
  8
L1_130
  6
CONTINUOUS
 62
         4
100
AcDbLine
 10
1615.3470777837
 20
-102.7400166132
 30
0.0
 11
1621.3470777837
 21
-96.7400166132
 31
0.0
  0
LINE
  5
4FE
100
AcDbEntity
  8
L1_130
  6
CONTINUOUS
 62
         4
100
AcDbLine
 10
1538.3928136302
 20
-175.4516400796
 30
0.0
 11
1542.8786999334
 21
-170.9657537763
 31
0.0
  0
LINE
  5
4FF
100
AcDbEntity
  8
L1_130
  6
CONTINUOUS
 62
         4
100
AcDbLine
 10
1552.1794370965
 20
-161.6650166132
 30
0.0
 11
1579.3812675117
 21
-134.4631861981
 31
0.0
  0
LINE
  5
500
100
AcDbEntity
  8
L1_130
  6
CONTINUOUS
 62
         4
100
AcDbLine
 10
1611.1044370965
 20
-102.7400166132
 30
0.0
 11
1617.1044370965
 21
-96.7400166132
 31
0.0
  0
LINE
  5
501
100
AcDbEntity
  8
L1_130
  6
CONTINUOUS
 62
         4
100
AcDbLine
 10
1536.8348537715
 20
-172.7669592511
 30
0.0
 11
1542.8786999334
 21
-166.7231130892
 31
0.0
  0
LINE
  5
502
100
AcDbEntity
  8
L1_130
  6
CONTINUOUS
 62
         4
100
AcDbLine
 10
1547.9367964094
 20
-161.6650166132
 30
0.0
 11
1577.828353241
 21
-131.7734597816
 31
0.0
  0
LINE
  5
503
100
AcDbEntity
  8
L1_130
  6
CONTINUOUS
 62
         4
100
AcDbLine
 10
1610.9786999329
 20
-98.6231130897
 30
0.0
 11
1612.8617964094
 21
-96.7400166132
 31
0.0
  0
LINE
  5
504
100
AcDbEntity
  8
L1_130
  6
CONTINUOUS
 62
         4
100
AcDbLine
 10
1529.8691557223
 20
-175.4900166132
 30
0.0
 11
1542.8786999334
 21
-162.4804724021
 31
0.0
  0
LINE
  5
505
100
AcDbEntity
  8
L1_130
  6
CONTINUOUS
 62
         4
100
AcDbLine
 10
1543.6941557223
 20
-161.6650166132
 30
0.0
 11
1576.2754389704
 21
-129.0837333651
 31
0.0
  0
LINE
  5
506
100
AcDbEntity
  8
L1_130
  6
CONTINUOUS
 62
         4
100
AcDbLine
 10
1526.9853566047
 20
-174.1311750437
 30
0.0
 11
1575.6678406835
 21
-125.4486909648
 31
0.0
  0
LINE
  5
507
100
AcDbEntity
  8
L1_130
  6
CONTINUOUS
 62
         4
100
AcDbLine
 10
1598.3765150352
 20
-102.7400166132
 30
0.0
 11
1601.9786999338
 21
-99.1378317145
 31
0.0
  0
LINE
  5
508
100
AcDbEntity
  8
L1_130
  6
CONTINUOUS
 62
         4
100
AcDbLine
 10
1526.9786999334
 20
-169.8951910279
 30
0.0
 11
1581.4633956413
 21
-115.41049532
 31
0.0
  0
LINE
  5
509
100
AcDbEntity
  8
L1_130
  6
CONTINUOUS
 62
         4
100
AcDbLine
 10
1594.1338743481
 20
-102.7400166132
 30
0.0
 11
1600.1338743481
 21
-96.7400166132
 31
0.0
  0
LINE
  5
50A
100
AcDbEntity
  8
L1_130
  6
CONTINUOUS
 62
         4
100
AcDbLine
 10
1526.9786999334
 20
-165.6525503407
 30
0.0
 11
1587.258950599
 21
-105.3722996751
 31
0.0
  0
LINE
  5
50B
100
AcDbEntity
  8
L1_130
  6
CONTINUOUS
 62
         4
100
AcDbLine
 10
1590.3912336609
 20
-102.2400166132
 30
0.0
 11
1595.8912336609
 21
-96.7400166132
 31
0.0
  0
LINE
  5
50C
100
AcDbEntity
  8
L1_130
  6
CONTINUOUS
 62
         4
100
AcDbLine
 10
1526.9073568051
 20
-161.4812527819
 30
0.0
 11
1592.1485929738
 21
-96.2400166132
 31
0.0
  0
LINE
  5
50D
100
AcDbEntity
  8
L1_130
  6
CONTINUOUS
 62
         4
100
AcDbLine
 10
1522.6461215261
 20
-161.4998473738
 30
0.0
 11
1587.9059522867
 21
-96.2400166132
 31
0.0
  0
LINE
  5
50E
100
AcDbEntity
  8
L1_130
  6
CONTINUOUS
 62
         4
100
AcDbLine
 10
1518.9434577269
 20
-160.9598704859
 30
0.0
 11
1583.6633115996
 21
-96.2400166132
 31
0.0
  0
LINE
  5
50F
100
AcDbEntity
  8
L1_130
  6
CONTINUOUS
 62
         4
100
AcDbLine
 10
1515.2407939277
 20
-160.419893598
 30
0.0
 11
1580.7786999334
 21
-94.8819875923
 31
0.0
  0
LINE
  5
510
100
AcDbEntity
  8
L1_130
  6
CONTINUOUS
 62
         4
100
AcDbLine
 10
1511.5381301285
 20
-159.8799167101
 30
0.0
 11
1578.6780302253
 21
-92.7400166132
 31
0.0
  0
LINE
  5
511
100
AcDbEntity
  8
L1_130
  6
CONTINUOUS
 62
         4
100
AcDbLine
 10
1507.8354663292
 20
-159.3399398222
 30
0.0
 11
1574.4353895382
 21
-92.7400166132
 31
0.0
  0
LINE
  5
512
100
AcDbEntity
  8
L1_130
  6
CONTINUOUS
 62
         4
100
AcDbLine
 10
1504.13280253
 20
-158.7999629343
 30
0.0
 11
1570.1927488511
 21
-92.7400166132
 31
0.0
  0
LINE
  5
513
100
AcDbEntity
  8
L1_130
  6
CONTINUOUS
 62
         4
100
AcDbLine
 10
1500.4301387308
 20
-158.2599860464
 30
0.0
 11
1565.950108164
 21
-92.7400166132
 31
0.0
  0
LINE
  5
514
100
AcDbEntity
  8
L1_130
  6
CONTINUOUS
 62
         4
100
AcDbLine
 10
1496.7274749316
 20
-157.7200091585
 30
0.0
 11
1561.7074674769
 21
-92.7400166132
 31
0.0
  0
LINE
  5
515
100
AcDbEntity
  8
L1_130
  6
CONTINUOUS
 62
         4
100
AcDbLine
 10
1493.0248111324
 20
-157.1800322706
 30
0.0
 11
1558.3898267897
 21
-91.8150166132
 31
0.0
  0
LINE
  5
516
100
AcDbEntity
  8
L1_130
  6
CONTINUOUS
 62
         4
100
AcDbLine
 10
1489.3221473331
 20
-156.6400553827
 30
0.0
 11
1554.1471861026
 21
-91.8150166132
 31
0.0
  0
LINE
  5
517
100
AcDbEntity
  8
L1_130
  6
CONTINUOUS
 62
         4
100
AcDbLine
 10
1485.6194835339
 20
-156.1000784948
 30
0.0
 11
1549.9045454155
 21
-91.8150166132
 31
0.0
  0
LINE
  5
518
100
AcDbEntity
  8
L1_130
  6
CONTINUOUS
 62
         4
100
AcDbLine
 10
1481.9168197347
 20
-155.5601016069
 30
0.0
 11
1545.6619047284
 21
-91.8150166132
 31
0.0
  0
LINE
  5
519
100
AcDbEntity
  8
L1_130
  6
CONTINUOUS
 62
         4
100
AcDbLine
 10
1478.2141559355
 20
-155.020124719
 30
0.0
 11
1542.8786999334
 21
-90.3555807211
 31
0.0
  0
LINE
  5
51A
100
AcDbEntity
  8
L1_130
  6
CONTINUOUS
 62
         4
100
AcDbLine
 10
1474.5114921362
 20
-154.4801478311
 30
0.0
 11
1542.8786999334
 21
-86.112940034
 31
0.0
  0
LINE
  5
51B
100
AcDbEntity
  8
L1_130
  6
CONTINUOUS
 62
         4
100
AcDbLine
 10
1470.808828337
 20
-153.9401709432
 30
0.0
 11
1542.8786999334
 21
-81.8702993468
 31
0.0
  0
LINE
  5
51C
100
AcDbEntity
  8
L1_130
  6
CONTINUOUS
 62
         4
100
AcDbLine
 10
1467.1061645378
 20
-153.4001940553
 30
0.0
 11
1542.2425923314
 21
-78.2637662617
 31
0.0
  0
LINE
  5
51D
100
AcDbEntity
  8
L1_130
  6
CONTINUOUS
 62
         4
100
AcDbLine
 10
1463.4035007386
 20
-152.8602171674
 30
0.0
 11
1524.3117656779
 21
-91.9519522281
 31
0.0
  0
LINE
  5
51E
100
AcDbEntity
  8
L1_130
  6
CONTINUOUS
 62
         4
100
AcDbLine
 10
1526.9786999334
 20
-89.2850179726
 30
0.0
 11
1535.1487012928
 21
-81.1150166132
 31
0.0
  0
LINE
  5
51F
100
AcDbEntity
  8
L1_130
  6
CONTINUOUS
 62
         4
100
AcDbLine
 10
1459.7008369393
 20
-152.3202402795
 30
0.0
 11
1474.8847191423
 21
-137.1363580766
 31
0.0
  0
LINE
  5
520
100
AcDbEntity
  8
L1_130
  6
CONTINUOUS
 62
         4
100
AcDbLine
 10
1478.6561181872
 20
-133.3649590316
 30
0.0
 11
1519.5960910703
 21
-92.4249861485
 31
0.0
  0
LINE
  5
521
100
AcDbEntity
  8
L1_130
  6
CONTINUOUS
 62
         4
100
AcDbLine
 10
1526.9786999334
 20
-85.0423772855
 30
0.0
 11
1532.326536808
 21
-79.6945404108
 31
0.0
  0
LINE
  5
522
100
AcDbEntity
  8
L1_130
  6
CONTINUOUS
 62
         4
100
AcDbLine
 10
1455.9981731401
 20
-151.7802633916
 30
0.0
 11
1470.6420784551
 21
-137.1363580766
 31
0.0
  0
LINE
  5
523
100
AcDbEntity
  8
L1_130
  6
CONTINUOUS
 62
         4
100
AcDbLine
 10
1481.9529983641
 20
-125.8254381676
 30
0.0
 11
1514.629089111
 21
-93.1493474208
 31
0.0
  0
LINE
  5
524
100
AcDbEntity
  8
L1_130
  6
CONTINUOUS
 62
         4
100
AcDbLine
 10
1526.9786999334
 20
-80.7997365984
 30
0.0
 11
1529.7884199186
 21
-77.9900166132
 31
0.0
  0
LINE
  5
525
100
AcDbEntity
  8
L1_130
  6
CONTINUOUS
 62
         4
100
AcDbLine
 10
1452.2955093409
 20
-151.2402865037
 30
0.0
 11
1466.399437768
 21
-137.1363580766
 31
0.0
  0
LINE
  5
526
100
AcDbEntity
  8
L1_130
  6
CONTINUOUS
 62
         4
100
AcDbLine
 10
1480.4000840935
 20
-123.1357117511
 30
0.0
 11
1509.6620871517
 21
-93.873708693
 31
0.0
  0
LINE
  5
527
100
AcDbEntity
  8
L1_130
  6
CONTINUOUS
 62
         4
100
AcDbLine
 10
1448.5928455417
 20
-150.7003096159
 30
0.0
 11
1462.1567970809
 21
-137.1363580766
 31
0.0
  0
LINE
  5
528
100
AcDbEntity
  8
L1_130
  6
CONTINUOUS
 62
         4
100
AcDbLine
 10
1478.8471698229
 20
-120.4459853346
 30
0.0
 11
1504.6950851923
 21
-94.5980699652
 31
0.0
  0
LINE
  5
529
100
AcDbEntity
  8
L1_130
  6
CONTINUOUS
 62
         4
100
AcDbLine
 10
1444.8901817424
 20
-150.160332728
 30
0.0
 11
1457.9141563938
 21
-137.1363580766
 31
0.0
  0
LINE
  5
52A
100
AcDbEntity
  8
L1_130
  6
CONTINUOUS
 62
         4
100
AcDbLine
 10
1477.2942555523
 20
-117.7562589181
 30
0.0
 11
1499.728083233
 21
-95.3224312374
 31
0.0
  0
LINE
  5
52B
100
AcDbEntity
  8
L1_130
  6
CONTINUOUS
 62
         4
100
AcDbLine
 10
1441.1875179432
 20
-149.6203558401
 30
0.0
 11
1453.6715157067
 21
-137.1363580766
 31
0.0
  0
LINE
  5
52C
100
AcDbEntity
  8
L1_130
  6
CONTINUOUS
 62
         4
100
AcDbLine
 10
1474.4641986335
 20
-116.3436751498
 30
0.0
 11
1494.7610812737
 21
-96.0467925096
 31
0.0
  0
LINE
  5
52D
100
AcDbEntity
  8
L1_130
  6
CONTINUOUS
 62
         4
100
AcDbLine
 10
1437.484854144
 20
-149.0803789522
 30
0.0
 11
1449.4288750195
 21
-137.1363580766
 31
0.0
  0
LINE
  5
52E
100
AcDbEntity
  8
L1_130
  6
CONTINUOUS
 62
         4
100
AcDbLine
 10
1470.2215579464
 20
-116.3436751498
 30
0.0
 11
1489.7940793144
 21
-96.7711537818
 31
0.0
  0
LINE
  5
52F
100
AcDbEntity
  8
L1_130
  6
CONTINUOUS
 62
         4
100
AcDbLine
 10
1433.7821903448
 20
-148.5404020643
 30
0.0
 11
1445.1862343324
 21
-137.1363580766
 31
0.0
  0
LINE
  5
530
100
AcDbEntity
  8
L1_130
  6
CONTINUOUS
 62
         4
100
AcDbLine
 10
1465.9789172592
 20
-116.3436751498
 30
0.0
 11
1484.827077355
 21
-97.495515054
 31
0.0
  0
LINE
  5
531
100
AcDbEntity
  8
L1_130
  6
CONTINUOUS
 62
         4
100
AcDbLine
 10
1430.0795265455
 20
-148.0004251764
 30
0.0
 11
1440.9435936453
 21
-137.1363580766
 31
0.0
  0
LINE
  5
532
100
AcDbEntity
  8
L1_130
  6
CONTINUOUS
 62
         4
100
AcDbLine
 10
1461.7362765721
 20
-116.3436751498
 30
0.0
 11
1479.8600753957
 21
-98.2198763262
 31
0.0
  0
LINE
  5
533
100
AcDbEntity
  8
L1_130
  6
CONTINUOUS
 62
         4
100
AcDbLine
 10
1426.3768627463
 20
-147.4604482885
 30
0.0
 11
1436.7009529582
 21
-137.1363580766
 31
0.0
  0
LINE
  5
534
100
AcDbEntity
  8
L1_130
  6
CONTINUOUS
 62
         4
100
AcDbLine
 10
1457.493635885
 20
-116.3436751498
 30
0.0
 11
1474.8930734364
 21
-98.9442375984
 31
0.0
  0
LINE
  5
535
100
AcDbEntity
  8
L1_130
  6
CONTINUOUS
 62
         4
100
AcDbLine
 10
1423.0294741197
 20
-146.565196228
 30
0.0
 11
1432.4583122711
 21
-137.1363580766
 31
0.0
  0
LINE
  5
536
100
AcDbEntity
  8
L1_130
  6
CONTINUOUS
 62
         4
100
AcDbLine
 10
1453.2509951979
 20
-116.3436751498
 30
0.0
 11
1469.926071477
 21
-99.6685988706
 31
0.0
  0
LINE
  5
537
100
AcDbEntity
  8
L1_130
  6
CONTINUOUS
 62
         4
100
AcDbLine
 10
1422.1786999334
 20
-143.1733297272
 30
0.0
 11
1426.1120130474
 21
-139.2400166132
 31
0.0
  0
LINE
  5
538
100
AcDbEntity
  8
L1_130
  6
CONTINUOUS
 62
         4
100
AcDbLine
 10
1449.0083545108
 20
-116.3436751498
 30
0.0
 11
1464.9590695177
 21
-100.3929601428
 31
0.0
  0
LINE
  5
539
100
AcDbEntity
  8
L1_130
  6
CONTINUOUS
 62
         4
100
AcDbLine
 10
1444.7657138237
 20
-116.3436751498
 30
0.0
 11
1459.9920675584
 21
-101.117321415
 31
0.0
  0
LINE
  5
53A
100
AcDbEntity
  8
L1_130
  6
CONTINUOUS
 62
         4
100
AcDbLine
 10
1440.5230731365
 20
-116.3436751498
 30
0.0
 11
1455.0250655991
 21
-101.8416826873
 31
0.0
  0
LINE
  5
53B
100
AcDbEntity
  8
L1_130
  6
CONTINUOUS
 62
         4
100
AcDbLine
 10
1436.2804324494
 20
-116.3436751498
 30
0.0
 11
1450.0580636397
 21
-102.5660439595
 31
0.0
  0
LINE
  5
53C
100
AcDbEntity
  8
L1_130
  6
CONTINUOUS
 62
         4
100
AcDbLine
 10
1432.0377917623
 20
-116.3436751498
 30
0.0
 11
1445.0910616804
 21
-103.2904052317
 31
0.0
  0
LINE
  5
53D
100
AcDbEntity
  8
L1_130
  6
CONTINUOUS
 62
         4
100
AcDbLine
 10
1429.1215974851
 20
-115.0172287399
 30
0.0
 11
1440.1240597211
 21
-104.0147665039
 31
0.0
  0
LINE
  5
53E
100
AcDbEntity
  8
L1_130
  6
CONTINUOUS
 62
         4
100
AcDbLine
 10
1425.6561689246
 20
-114.2400166132
 30
0.0
 11
1435.1570577617
 21
-104.7391277761
 31
0.0
  0
LINE
  5
53F
100
AcDbEntity
  8
L1_130
  6
CONTINUOUS
 62
         4
100
AcDbLine
 10
1422.2060323419
 20
-113.4475125088
 30
0.0
 11
1430.1900558024
 21
-105.4634890483
 31
0.0
  0
LINE
  5
540
100
AcDbEntity
  8
L1_130
  6
CONTINUOUS
 62
         4
100
AcDbLine
 10
1422.1786999334
 20
-109.2322042302
 30
0.0
 11
1425.2230538431
 21
-106.1878503205
 31
0.0
  0
ENDBLK
  5
541
100
AcDbEntity
  8
0
  6
CONTINUOUS
100
AcDbBlockEnd
  0
ENDSEC
  0
SECTION
  2
ENTITIES
  0
ARC
  5
24
100
AcDbEntity
  8
L1_130
  6
CONTINUOUS
 62
         7
100
AcDbCircle
 10
1560.1699134958
 20
-161.7400166132
 30
0.0
 40
1.0
100
AcDbArc
 50
90.0
 51
135.0
  0
ARC
  5
25
100
AcDbEntity
  8
L1_130
  6
CONTINUOUS
 62
         7
100
AcDbCircle
 10
1560.1699134958
 20
-91.7400166132
 30
0.0
 40
1.0
100
AcDbArc
 50
225.0
 51
270.0
  0
LINE
  5
26
100
AcDbEntity
  8
L1_130
  6
CONTINUOUS
 62
         4
100
AcDbLine
 10
1559.7556999334
 20
78.1625941597
 30
0.0
 11
1559.7556999334
 21
146.3422347174
 31
0.0
  0
DIMENSION
  5
2A
100
AcDbEntity
  8
L1_130
  6
CONTINUOUS
 62
         4
100
AcDbDimension
  2
*D0
 10
1725.192691734
 20
146.2524144385
 30
0.0
 11
1721.132691734
 21
98.1773731366
 31
0.0
  3
DIMSTYLE1
100
AcDbAlignedDimension
 13
1580.2786999334
 23
146.2524144385
 33
0.0
 14
1580.2786999334
 24
78.2524144385
 34
0.0
 50
90.0
100
AcDbRotatedDimension
  0
ARC
  5
37
100
AcDbEntity
  8
L1_130
  6
CONTINUOUS
 62
         7
100
AcDbCircle
 10
1560.1699134958
 20
77.2524144385
 30
0.0
 40
1.0
100
AcDbArc
 50
90.0
 51
135.0
  0
ARC
  5
38
100
AcDbEntity
  8
L1_130
  6
CONTINUOUS
 62
         7
100
AcDbCircle
 10
1560.1699134958
 20
147.2524144385
 30
0.0
 40
1.0
100
AcDbArc
 50
225.0
 51
270.0
  0
LINE
  5
39
100
AcDbEntity
  8
L1_130
  6
DASHED
 62
         2
100
AcDbLine
 10
1827.0955972586
 20
127.9964457983
 30
0.0
 11
1822.830097259
 21
120.6083830794
 31
0.0
  0
LINE
  5
3A
100
AcDbEntity
  8
L1_130
  6
DASHED
 62
         2
100
AcDbLine
 10
1826.8610972586
 20
128.4026117127
 30
0.0
 11
1822.3610972591
 21
120.6083830794
 31
0.0
  0
LINE
  5
3B
100
AcDbEntity
  8
L1_130
  6
DASHED
 62
         2
100
AcDbLine
 10
1826.8610972586
 20
128.4026117127
 30
0.0
 11
1822.3972438059
 21
130.9798187052
 31
0.0
  0
LINE
  5
3C
100
AcDbEntity
  8
L1_130
  6
DASHED
 62
         2
100
AcDbLine
 10
1822.3610972591
 20
120.6083830794
 30
0.0
 11
1817.8972438064
 21
123.1855900719
 31
0.0
  0
LINE
  5
3D
100
AcDbEntity
  8
L1_130
  6
DASHED
 62
         2
100
AcDbLine
 10
1827.5131024347
 20
127.7553990725
 30
0.0
 11
1827.0955972586
 21
127.9964457983
 31
0.0
  0
LINE
  5
3E
100
AcDbEntity
  8
L1_130
  6
DASHED
 62
         2
100
AcDbLine
 10
1823.2476024352
 20
120.3673363535
 30
0.0
 11
1822.830097259
 21
120.6083830794
 31
0.0
  0
LINE
  5
3F
100
AcDbEntity
  8
L1_130
  6
DASHED
 62
         2
100
AcDbLine
 10
1822.830097259
 20
120.6083830794
 30
0.0
 11
1822.3610972591
 21
120.6083830794
 31
0.0
  0
LINE
  5
40
100
AcDbEntity
  8
L1_130
  6
DASHED
 62
         2
100
AcDbLine
 10
1827.0955972586
 20
127.9964457983
 30
0.0
 11
1826.8610972586
 21
128.4026117127
 31
0.0
  0
LINE
  5
41
100
AcDbEntity
  8
L1_130
  6
DASHED
 62
         2
100
AcDbLine
 10
1822.830097259
 20
103.8964457977
 30
0.0
 11
1827.0955972586
 21
96.5083830788
 31
0.0
  0
LINE
  5
42
100
AcDbEntity
  8
L1_130
  6
DASHED
 62
         2
100
AcDbLine
 10
1822.3610972591
 20
103.8964457977
 30
0.0
 11
1826.8610972586
 21
96.1022171644
 31
0.0
  0
LINE
  5
43
100
AcDbEntity
  8
L1_130
  6
DASHED
 62
         2
100
AcDbLine
 10
1822.3610972591
 20
103.8964457977
 30
0.0
 11
1817.8972438064
 21
101.3192388052
 31
0.0
  0
LINE
  5
44
100
AcDbEntity
  8
L1_130
  6
DASHED
 62
         2
100
AcDbLine
 10
1826.8610972586
 20
96.1022171644
 30
0.0
 11
1822.3972438059
 21
93.5250101719
 31
0.0
  0
LINE
  5
45
100
AcDbEntity
  8
L1_130
  6
DASHED
 62
         2
100
AcDbLine
 10
1823.2476024352
 20
104.1374925236
 30
0.0
 11
1822.830097259
 21
103.8964457977
 31
0.0
  0
LINE
  5
46
100
AcDbEntity
  8
L1_130
  6
DASHED
 62
         2
100
AcDbLine
 10
1827.5131024347
 20
96.7494298046
 30
0.0
 11
1827.0955972586
 21
96.5083830788
 31
0.0
  0
LINE
  5
47
100
AcDbEntity
  8
L1_130
  6
DASHED
 62
         2
100
AcDbLine
 10
1827.0955972586
 20
96.5083830788
 30
0.0
 11
1826.8610972586
 21
96.1022171644
 31
0.0
  0
LINE
  5
48
100
AcDbEntity
  8
L1_130
  6
DASHED
 62
         2
100
AcDbLine
 10
1822.830097259
 20
103.8964457977
 30
0.0
 11
1822.3610972591
 21
103.8964457977
 31
0.0
  0
LINE
  5
49
100
AcDbEntity
  8
L1_130
  6
DASHED
 62
         2
100
AcDbLine
 10
1841.568559491
 20
88.152414438
 30
0.0
 11
1850.0995594901
 21
88.152414438
 31
0.0
  0
LINE
  5
4A
100
AcDbEntity
  8
L1_130
  6
DASHED
 62
         2
100
AcDbLine
 10
1841.334059491
 20
87.7462485236
 30
0.0
 11
1850.3340594901
 21
87.7462485236
 31
0.0
  0
LINE
  5
4B
100
AcDbEntity
  8
L1_130
  6
DASHED
 62
         2
100
AcDbLine
 10
1841.334059491
 20
87.7462485236
 30
0.0
 11
1841.334059491
 21
82.5918345386
 31
0.0
  0
LINE
  5
4C
100
AcDbEntity
  8
L1_130
  6
DASHED
 62
         2
100
AcDbLine
 10
1850.3340594901
 20
87.7462485236
 30
0.0
 11
1850.3340594901
 21
82.5918345386
 31
0.0
  0
LINE
  5
4D
100
AcDbEntity
  8
L1_130
  6
DASHED
 62
         2
100
AcDbLine
 10
1841.568559491
 20
88.6345078896
 30
0.0
 11
1841.568559491
 21
88.152414438
 31
0.0
  0
LINE
  5
4E
100
AcDbEntity
  8
L1_130
  6
DASHED
 62
         2
100
AcDbLine
 10
1850.0995594901
 20
88.6345078896
 30
0.0
 11
1850.0995594901
 21
88.152414438
 31
0.0
  0
LINE
  5
4F
100
AcDbEntity
  8
L1_130
  6
DASHED
 62
         2
100
AcDbLine
 10
1850.0995594901
 20
88.152414438
 30
0.0
 11
1850.3340594901
 21
87.7462485236
 31
0.0
  0
LINE
  5
50
100
AcDbEntity
  8
L1_130
  6
DASHED
 62
         2
100
AcDbLine
 10
1841.568559491
 20
88.152414438
 30
0.0
 11
1841.334059491
 21
87.7462485236
 31
0.0
  0
LINE
  5
51
100
AcDbEntity
  8
L1_130
  6
DASHED
 62
         2
100
AcDbLine
 10
1864.5725217225
 20
96.5083830788
 30
0.0
 11
1868.838021722
 21
103.8964457977
 31
0.0
  0
LINE
  5
52
100
AcDbEntity
  8
L1_130
  6
DASHED
 62
         2
100
AcDbLine
 10
1864.8070217224
 20
96.1022171644
 30
0.0
 11
1869.307021722
 21
103.8964457977
 31
0.0
  0
LINE
  5
53
100
AcDbEntity
  8
L1_130
  6
DASHED
 62
         2
100
AcDbLine
 10
1864.8070217224
 20
96.1022171644
 30
0.0
 11
1869.2708751751
 21
93.5250101719
 31
0.0
  0
LINE
  5
54
100
AcDbEntity
  8
L1_130
  6
DASHED
 62
         2
100
AcDbLine
 10
1869.307021722
 20
103.8964457977
 30
0.0
 11
1873.7708751747
 21
101.3192388052
 31
0.0
  0
LINE
  5
55
100
AcDbEntity
  8
L1_130
  6
DASHED
 62
         2
100
AcDbLine
 10
1864.1550165463
 20
96.7494298046
 30
0.0
 11
1864.5725217225
 21
96.5083830788
 31
0.0
  0
LINE
  5
56
100
AcDbEntity
  8
L1_130
  6
DASHED
 62
         2
100
AcDbLine
 10
1868.4205165459
 20
104.1374925236
 30
0.0
 11
1868.838021722
 21
103.8964457977
 31
0.0
  0
LINE
  5
57
100
AcDbEntity
  8
L1_130
  6
DASHED
 62
         2
100
AcDbLine
 10
1868.838021722
 20
103.8964457977
 30
0.0
 11
1869.307021722
 21
103.8964457977
 31
0.0
  0
LINE
  5
58
100
AcDbEntity
  8
L1_130
  6
DASHED
 62
         2
100
AcDbLine
 10
1864.5725217225
 20
96.5083830788
 30
0.0
 11
1864.8070217224
 21
96.1022171644
 31
0.0
  0
LINE
  5
59
100
AcDbEntity
  8
L1_130
  6
DASHED
 62
         2
100
AcDbLine
 10
1868.838021722
 20
120.6083830794
 30
0.0
 11
1864.5725217225
 21
127.9964457983
 31
0.0
  0
LINE
  5
5A
100
AcDbEntity
  8
L1_130
  6
DASHED
 62
         2
100
AcDbLine
 10
1869.307021722
 20
120.6083830794
 30
0.0
 11
1864.8070217224
 21
128.4026117126
 31
0.0
  0
LINE
  5
5B
100
AcDbEntity
  8
L1_130
  6
DASHED
 62
         2
100
AcDbLine
 10
1869.307021722
 20
120.6083830794
 30
0.0
 11
1873.7708751747
 21
123.1855900719
 31
0.0
  0
LINE
  5
5C
100
AcDbEntity
  8
L1_130
  6
DASHED
 62
         2
100
AcDbLine
 10
1864.8070217224
 20
128.4026117126
 30
0.0
 11
1869.2708751751
 21
130.9798187052
 31
0.0
  0
LINE
  5
5D
100
AcDbEntity
  8
L1_130
  6
DASHED
 62
         2
100
AcDbLine
 10
1868.4205165459
 20
120.3673363535
 30
0.0
 11
1868.838021722
 21
120.6083830794
 31
0.0
  0
LINE
  5
5E
100
AcDbEntity
  8
L1_130
  6
DASHED
 62
         2
100
AcDbLine
 10
1864.1550165463
 20
127.7553990725
 30
0.0
 11
1864.5725217225
 21
127.9964457983
 31
0.0
  0
LINE
  5
5F
100
AcDbEntity
  8
L1_130
  6
DASHED
 62
         2
100
AcDbLine
 10
1864.5725217225
 20
127.9964457983
 30
0.0
 11
1864.8070217224
 21
128.4026117126
 31
0.0
  0
LINE
  5
60
100
AcDbEntity
  8
L1_130
  6
DASHED
 62
         2
100
AcDbLine
 10
1868.838021722
 20
120.6083830794
 30
0.0
 11
1869.307021722
 21
120.6083830794
 31
0.0
  0
LINE
  5
61
100
AcDbEntity
  8
L1_130
  6
CENTER
 62
         1
100
AcDbLine
 10
1816.3891957619
 20
129.2524144385
 30
0.0
 11
1875.2789232192
 21
95.2524144385
 31
0.0
  0
LINE
  5
62
100
AcDbEntity
  8
L1_130
  6
CENTER
 62
         1
100
AcDbLine
 10
1816.3891957619
 20
95.2524144385
 30
0.0
 11
1875.2789232192
 21
129.2524144385
 31
0.0
  0
LINE
  5
63
100
AcDbEntity
  8
L1_130
  6
DASHED
 62
         2
100
AcDbLine
 10
1850.0995594901
 20
136.3524144391
 30
0.0
 11
1841.568559491
 21
136.3524144391
 31
0.0
  0
LINE
  5
64
100
AcDbEntity
  8
L1_130
  6
DASHED
 62
         2
100
AcDbLine
 10
1850.3340594901
 20
136.7585803535
 30
0.0
 11
1841.334059491
 21
136.7585803535
 31
0.0
  0
LINE
  5
65
100
AcDbEntity
  8
L1_130
  6
DASHED
 62
         2
100
AcDbLine
 10
1841.568559491
 20
136.3524144391
 30
0.0
 11
1841.334059491
 21
136.7585803535
 31
0.0
  0
LINE
  5
66
100
AcDbEntity
  8
L1_130
  6
DASHED
 62
         2
100
AcDbLine
 10
1841.568559491
 20
135.8703209875
 30
0.0
 11
1841.568559491
 21
136.3524144391
 31
0.0
  0
LINE
  5
67
100
AcDbEntity
  8
L1_130
  6
DASHED
 62
         2
100
AcDbLine
 10
1841.334059491
 20
136.7585803535
 30
0.0
 11
1841.334059491
 21
141.9129943385
 31
0.0
  0
LINE
  5
68
100
AcDbEntity
  8
L1_130
  6
DASHED
 62
         2
100
AcDbLine
 10
1850.0995594901
 20
136.3524144391
 30
0.0
 11
1850.3340594901
 21
136.7585803535
 31
0.0
  0
LINE
  5
69
100
AcDbEntity
  8
L1_130
  6
DASHED
 62
         2
100
AcDbLine
 10
1850.0995594901
 20
135.8703209875
 30
0.0
 11
1850.0995594901
 21
136.3524144391
 31
0.0
  0
LINE
  5
6A
100
AcDbEntity
  8
L1_130
  6
DASHED
 62
         2
100
AcDbLine
 10
1850.3340594901
 20
136.7585803535
 30
0.0
 11
1850.3340594901
 21
141.9129943385
 31
0.0
  0
LINE
  5
6B
100
AcDbEntity
  8
L1_130
  6
CENTER
 62
         1
100
AcDbLine
 10
1845.8340594905
 20
78.2524144385
 30
0.0
 11
1845.8340594905
 21
146.2524144385
 31
0.0
  0
LINE
  5
6C
100
AcDbEntity
  8
L1_130
  6
CENTER
 62
         1
100
AcDbLine
 10
1879.8340594905
 20
112.2524144385
 30
0.0
 11
1811.8340594905
 21
112.2524144385
 31
0.0
  0
LINE
  5
6D
100
AcDbEntity
  8
L1_130
  6
CONTINUOUS
 62
         7
100
AcDbLine
 10
1825.346258242
 20
100.1774144385
 30
0.0
 11
1818.5622792039
 21
100.1774144385
 31
0.0
  0
LINE
  5
6E
100
AcDbEntity
  8
L1_130
  6
CONTINUOUS
 62
         7
100
AcDbLine
 10
1825.346258242
 20
124.3274144385
 30
0.0
 11
1818.5622792039
 21
124.3274144385
 31
0.0
  0
CIRCLE
  5
6F
100
AcDbEntity
  8
L1_130
  6
CONTINUOUS
 62
         7
100
AcDbCircle
 10
1845.8340594905
 20
112.2524144385
 30
0.0
 40
24.0
  0
CIRCLE
  5
70
100
AcDbEntity
  8
L1_130
  6
CONTINUOUS
 62
         7
100
AcDbCircle
 10
1845.8340594905
 20
112.2524144385
 30
0.0
 40
34.0
  0
CIRCLE
  5
71
100
AcDbEntity
  8
L1_130
  6
CONTINUOUS
 62
         7
100
AcDbCircle
 10
1845.8340594905
 20
112.2524144385
 30
0.0
 40
30.5
  0
CIRCLE
  5
72
100
AcDbEntity
  8
L1_130
  6
CONTINUOUS
 62
         7
100
AcDbCircle
 10
1845.8340594905
 20
112.2524144385
 30
0.0
 40
30.0
  0
LINE
  5
73
100
AcDbEntity
  8
L1_130
  6
CONTINUOUS
 62
         7
100
AcDbLine
 10
1873.1058397771
 20
100.1774144385
 30
0.0
 11
1866.3218607391
 21
100.1774144385
 31
0.0
  0
LINE
  5
74
100
AcDbEntity
  8
L1_130
  6
CONTINUOUS
 62
         7
100
AcDbLine
 10
1873.1058397771
 20
124.3274144385
 30
0.0
 11
1866.3218607391
 21
124.3274144385
 31
0.0
  0
DIMENSION
  5
77
100
AcDbEntity
  8
L1_130
  6
CONTINUOUS
 62
         4
100
AcDbDimension
  2
*D1
 10
1653.7786999334
 20
-179.8413255947
 30
0.0
 11
1610.8622784028
 21
-175.7813255947
 31
0.0
  3
DIMSTYLE1
100
AcDbAlignedDimension
 13
1653.7786999334
 23
-139.4900166132
 33
0.0
 14
1588.7786999334
 24
-151.2400166132
 34
0.0
100
AcDbRotatedDimension
  0
DIMENSION
  5
85
100
AcDbEntity
  8
L1_130
  6
CONTINUOUS
 62
         4
100
AcDbDimension
  2
*D2
 10
1685.7982292351
 20
-102.7400166132
 30
0.0
 11
1681.7382292351
 21
-138.2418138788
 31
0.0
  3
DIMSTYLE1
100
AcDbAlignedDimension
 13
1651.7786999334
 23
-102.7400166132
 33
0.0
 14
1651.7786999334
 24
-150.7400166132
 34
0.0
 50
90.0
100
AcDbRotatedDimension
  0
LINE
  5
91
100
AcDbEntity
  8
L1_130
  6
CENTER
 62
         1
100
AcDbLine
 10
1606.4786999334
 20
-149.0452453039
 30
0.0
 11
1606.4786999334
 21
-158.8521578702
 31
0.0
  0
LINE
  5
92
100
AcDbEntity
  8
L1_130
  6
CENTER
 62
         1
100
AcDbLine
 10
1606.4786999334
 20
-103.9225881976
 30
0.0
 11
1606.4786999334
 21
-95.9343875417
 31
0.0
  0
LINE
  5
93
100
AcDbEntity
  8
L1_130
  6
CENTER
 62
         1
100
AcDbLine
 10
1542.9286999334
 20
-126.7400166132
 30
0.0
 11
1651.2873589404
 21
-126.7400166132
 31
0.0
  0
LINE
  5
94
100
AcDbEntity
  8
L1_130
  6
CONTINUOUS
 62
         7
100
AcDbLine
 10
1645.7786999334
 20
-156.6400166132
 30
0.0
 11
1645.8786999334
 21
-156.7400166132
 31
0.0
  0
LINE
  5
95
100
AcDbEntity
  8
L1_130
  6
CONTINUOUS
 62
         7
100
AcDbLine
 10
1653.2786999334
 20
-156.7400166132
 30
0.0
 11
1645.8786999334
 21
-156.7400166132
 31
0.0
  0
LINE
  5
96
100
AcDbEntity
  8
L1_130
  6
CONTINUOUS
 62
         7
100
AcDbLine
 10
1645.7786999334
 20
-156.6400166132
 30
0.0
 11
1645.7786999334
 21
-155.2400166132
 31
0.0
  0
LINE
  5
97
100
AcDbEntity
  8
L1_130
  6
CONTINUOUS
 62
         7
100
AcDbLine
 10
1643.5786999334
 20
-156.6400166132
 30
0.0
 11
1643.4786999334
 21
-156.7400166132
 31
0.0
  0
LINE
  5
98
100
AcDbEntity
  8
L1_130
  6
CONTINUOUS
 62
         7
100
AcDbLine
 10
1643.4786999334
 20
-156.7400166132
 30
0.0
 11
1595.4786999334
 21
-156.7400166132
 31
0.0
  0
LINE
  5
99
100
AcDbEntity
  8
L1_130
  6
CONTINUOUS
 62
         7
100
AcDbLine
 10
1643.5786999334
 20
-156.6400166132
 30
0.0
 11
1643.5786999334
 21
-155.2400166132
 31
0.0
  0
LINE
  5
9A
100
AcDbEntity
  8
L1_130
  6
CONTINUOUS
 62
         7
100
AcDbLine
 10
1645.7786999334
 20
-96.8400166132
 30
0.0
 11
1645.8786999334
 21
-96.7400166132
 31
0.0
  0
LINE
  5
9B
100
AcDbEntity
  8
L1_130
  6
CONTINUOUS
 62
         7
100
AcDbLine
 10
1653.2786999334
 20
-96.7400166132
 30
0.0
 11
1645.8786999334
 21
-96.7400166132
 31
0.0
  0
LINE
  5
9C
100
AcDbEntity
  8
L1_130
  6
CONTINUOUS
 62
         7
100
AcDbLine
 10
1645.7786999334
 20
-98.2400166132
 30
0.0
 11
1645.7786999334
 21
-96.8400166132
 31
0.0
  0
LINE
  5
9D
100
AcDbEntity
  8
L1_130
  6
CONTINUOUS
 62
         7
100
AcDbLine
 10
1643.4786999334
 20
-96.7400166132
 30
0.0
 11
1643.5786999334
 21
-96.8400166132
 31
0.0
  0
LINE
  5
9E
100
AcDbEntity
  8
L1_130
  6
CONTINUOUS
 62
         7
100
AcDbLine
 10
1643.5786999334
 20
-98.2400166132
 30
0.0
 11
1643.5786999334
 21
-96.8400166132
 31
0.0
  0
LINE
  5
9F
100
AcDbEntity
  8
L1_130
  6
CONTINUOUS
 62
         7
100
AcDbLine
 10
1643.4786999334
 20
-96.7400166132
 30
0.0
 11
1595.4786999334
 21
-96.7400166132
 31
0.0
  0
ARC
  5
A0
100
AcDbEntity
  8
L1_130
  6
CONTINUOUS
 62
         7
100
AcDbCircle
 10
1580.2786999334
 20
-160.2400166132
 30
0.0
 40
0.5
100
AcDbArc
 50
270.0
 51
360.0
  0
ARC
  5
A1
100
AcDbEntity
  8
L1_130
  6
CONTINUOUS
 62
         7
100
AcDbCircle
 10
1580.2786999334
 20
-93.2400166132
 30
0.0
 40
0.5
100
AcDbArc
 50
0.0
 51
90.0
  0
LINE
  5
A2
100
AcDbEntity
  8
L1_130
  6
CONTINUOUS
 62
         7
100
AcDbLine
 10
1610.9786999329
 20
-156.6400166132
 30
0.0
 11
1611.0786999329
 21
-156.7400166132
 31
0.0
  0
LINE
  5
A3
100
AcDbEntity
  8
L1_130
  6
CONTINUOUS
 62
         7
100
AcDbLine
 10
1610.9786999329
 20
-151.2461825281
 30
0.0
 11
1610.9786999329
 21
-156.6400166132
 31
0.0
  0
LINE
  5
A4
100
AcDbEntity
  8
L1_130
  6
CONTINUOUS
 62
         7
100
AcDbLine
 10
1610.744199933
 20
-150.7400166138
 30
0.0
 11
1610.744199933
 21
-150.8400166138
 31
0.0
  0
LINE
  5
A5
100
AcDbEntity
  8
L1_130
  6
CONTINUOUS
 62
         7
100
AcDbLine
 10
1610.744199933
 20
-150.8400166138
 30
0.0
 11
1610.9786999329
 21
-151.2461825281
 31
0.0
  0
LINE
  5
A6
100
AcDbEntity
  8
L1_130
  6
CONTINUOUS
 62
         7
100
AcDbLine
 10
1601.8786999339
 20
-156.7400166132
 30
0.0
 11
1601.9786999338
 21
-156.6400166132
 31
0.0
  0
LINE
  5
A7
100
AcDbEntity
  8
L1_130
  6
CONTINUOUS
 62
         7
100
AcDbLine
 10
1601.9786999338
 20
-151.2461825281
 30
0.0
 11
1601.9786999338
 21
-156.6400166132
 31
0.0
  0
LINE
  5
A8
100
AcDbEntity
  8
L1_130
  6
CONTINUOUS
 62
         7
100
AcDbLine
 10
1602.2131999338
 20
-150.7400166138
 30
0.0
 11
1602.2131999338
 21
-150.8400166138
 31
0.0
  0
LINE
  5
A9
100
AcDbEntity
  8
L1_130
  6
CONTINUOUS
 62
         7
100
AcDbLine
 10
1602.2131999338
 20
-150.8400166138
 30
0.0
 11
1601.9786999338
 21
-151.2461825281
 31
0.0
  0
LINE
  5
AA
100
AcDbEntity
  8
L1_130
  6
CONTINUOUS
 62
         7
100
AcDbLine
 10
1610.9786999329
 20
-96.8400166132
 30
0.0
 11
1611.0786999329
 21
-96.7400166132
 31
0.0
  0
LINE
  5
AB
100
AcDbEntity
  8
L1_130
  6
CONTINUOUS
 62
         7
100
AcDbLine
 10
1610.9786999329
 20
-102.2338506983
 30
0.0
 11
1610.9786999329
 21
-96.8400166132
 31
0.0
  0
LINE
  5
AC
100
AcDbEntity
  8
L1_130
  6
CONTINUOUS
 62
         7
100
AcDbLine
 10
1610.744199933
 20
-102.7400166126
 30
0.0
 11
1610.744199933
 21
-102.6400166126
 31
0.0
  0
LINE
  5
AD
100
AcDbEntity
  8
L1_130
  6
CONTINUOUS
 62
         7
100
AcDbLine
 10
1610.744199933
 20
-102.6400166126
 30
0.0
 11
1610.9786999329
 21
-102.2338506983
 31
0.0
  0
LINE
  5
AE
100
AcDbEntity
  8
L1_130
  6
CONTINUOUS
 62
         7
100
AcDbLine
 10
1601.8786999339
 20
-96.7400166132
 30
0.0
 11
1601.9786999338
 21
-96.8400166132
 31
0.0
  0
LINE
  5
AF
100
AcDbEntity
  8
L1_130
  6
CONTINUOUS
 62
         7
100
AcDbLine
 10
1601.9786999338
 20
-102.2338506983
 30
0.0
 11
1601.9786999338
 21
-96.8400166132
 31
0.0
  0
LINE
  5
B0
100
AcDbEntity
  8
L1_130
  6
CONTINUOUS
 62
         7
100
AcDbLine
 10
1602.2131999338
 20
-102.7400166126
 30
0.0
 11
1602.2131999338
 21
-102.6400166126
 31
0.0
  0
LINE
  5
B1
100
AcDbEntity
  8
L1_130
  6
CONTINUOUS
 62
         7
100
AcDbLine
 10
1602.2131999338
 20
-102.6400166126
 30
0.0
 11
1601.9786999338
 21
-102.2338506983
 31
0.0
  0
LINE
  5
B2
100
AcDbEntity
  8
L1_130
  6
CONTINUOUS
 62
         7
100
AcDbLine
 10
1651.7786999334
 20
-138.9900166132
 30
0.0
 11
1651.7786999334
 21
-150.7400166132
 31
0.0
  0
LINE
  5
B3
100
AcDbEntity
  8
L1_130
  6
CONTINUOUS
 62
         7
100
AcDbLine
 10
1653.2786999334
 20
-138.9900166132
 30
0.0
 11
1646.9786999334
 21
-138.9900166132
 31
0.0
  0
LINE
  5
B4
100
AcDbEntity
  8
L1_130
  6
CONTINUOUS
 62
         7
100
AcDbLine
 10
1645.4786999334
 20
-137.4900166132
 30
0.0
 11
1645.4786999334
 21
-115.9900166132
 31
0.0
  0
LINE
  5
B5
100
AcDbEntity
  8
L1_130
  6
CONTINUOUS
 62
         7
100
AcDbLine
 10
1653.2786999334
 20
-114.4900166132
 30
0.0
 11
1646.9786999334
 21
-114.4900166132
 31
0.0
  0
LINE
  5
B6
100
AcDbEntity
  8
L1_130
  6
CONTINUOUS
 62
         7
100
AcDbLine
 10
1653.2786999334
 20
-156.7400166132
 30
0.0
 11
1653.7786999334
 21
-156.2400166132
 31
0.0
  0
LINE
  5
B7
100
AcDbEntity
  8
L1_130
  6
CONTINUOUS
 62
         7
100
AcDbLine
 10
1653.2786999334
 20
-138.9900166132
 30
0.0
 11
1653.7786999334
 21
-139.4900166132
 31
0.0
  0
LINE
  5
B8
100
AcDbEntity
  8
L1_130
  6
CONTINUOUS
 62
         7
100
AcDbLine
 10
1653.7786999334
 20
-113.9900166132
 30
0.0
 11
1653.2786999334
 21
-114.4900166132
 31
0.0
  0
LINE
  5
B9
100
AcDbEntity
  8
L1_130
  6
CONTINUOUS
 62
         7
100
AcDbLine
 10
1653.2786999334
 20
-96.7400166132
 30
0.0
 11
1653.7786999334
 21
-97.2400166132
 31
0.0
  0
LINE
  5
BA
100
AcDbEntity
  8
L1_130
  6
CONTINUOUS
 62
         7
100
AcDbLine
 10
1653.7786999334
 20
-113.9900166132
 30
0.0
 11
1653.7786999334
 21
-97.2400166132
 31
0.0
  0
LINE
  5
BB
100
AcDbEntity
  8
L1_130
  6
CONTINUOUS
 62
         7
100
AcDbLine
 10
1653.7786999334
 20
-156.2400166132
 30
0.0
 11
1653.7786999334
 21
-139.4900166132
 31
0.0
  0
LINE
  5
BC
100
AcDbEntity
  8
L1_130
  6
CONTINUOUS
 62
         7
100
AcDbLine
 10
1645.7786999334
 20
-98.2400166132
 30
0.0
 11
1643.5786999334
 21
-98.2400166132
 31
0.0
  0
LINE
  5
BD
100
AcDbEntity
  8
L1_130
  6
CONTINUOUS
 62
         7
100
AcDbLine
 10
1645.7786999334
 20
-155.2400166132
 30
0.0
 11
1643.5786999334
 21
-155.2400166132
 31
0.0
  0
LINE
  5
BE
100
AcDbEntity
  8
L1_130
  6
CONTINUOUS
 62
         7
100
AcDbLine
 10
1651.7786999334
 20
-102.7400166132
 30
0.0
 11
1651.7786999334
 21
-114.4900166132
 31
0.0
  0
ARC
  5
BF
100
AcDbEntity
  8
L1_130
  6
CONTINUOUS
 62
         7
100
AcDbCircle
 10
1651.7786999334
 20
-152.7400166132
 30
0.0
 40
2.0
100
AcDbArc
 50
0.0
 51
90.0
  0
ARC
  5
C0
100
AcDbEntity
  8
L1_130
  6
CONTINUOUS
 62
         7
100
AcDbCircle
 10
1651.7786999334
 20
-100.7400166132
 30
0.0
 40
2.0
100
AcDbArc
 50
270.0
 51
360.0
  0
LINE
  5
C1
100
AcDbEntity
  8
L1_130
  6
CONTINUOUS
 62
         7
100
AcDbLine
 10
1593.7786999334
 20
-151.2400166132
 30
0.0
 11
1588.7786999334
 21
-151.2400166132
 31
0.0
  0
LINE
  5
C2
100
AcDbEntity
  8
L1_130
  6
CONTINUOUS
 62
         7
100
AcDbLine
 10
1593.7786999334
 20
-102.2400166132
 30
0.0
 11
1588.7786999334
 21
-102.2400166132
 31
0.0
  0
LINE
  5
C3
100
AcDbEntity
  8
L1_130
  6
CONTINUOUS
 62
         7
100
AcDbLine
 10
1588.7786999334
 20
-150.7400166132
 30
0.0
 11
1574.9222934728
 21
-126.7400166132
 31
0.0
  0
LINE
  5
C4
100
AcDbEntity
  8
L1_130
  6
CONTINUOUS
 62
         7
100
AcDbLine
 10
1588.7786999334
 20
-102.7400166132
 30
0.0
 11
1574.9222934728
 21
-126.7400166132
 31
0.0
  0
LINE
  5
C5
100
AcDbEntity
  8
L1_130
  6
CONTINUOUS
 62
         7
100
AcDbLine
 10
1588.7786999334
 20
-151.2400166132
 30
0.0
 11
1588.7786999334
 21
-102.2400166132
 31
0.0
  0
LINE
  5
C6
100
AcDbEntity
  8
L1_130
  6
CONTINUOUS
 62
         7
100
AcDbLine
 10
1651.7786999334
 20
-150.7400166132
 30
0.0
 11
1593.7786999334
 21
-150.7400166132
 31
0.0
  0
LINE
  5
C7
100
AcDbEntity
  8
L1_130
  6
CONTINUOUS
 62
         7
100
AcDbLine
 10
1651.7786999334
 20
-102.7400166132
 30
0.0
 11
1593.7786999334
 21
-102.7400166132
 31
0.0
  0
LINE
  5
C8
100
AcDbEntity
  8
L1_130
  6
CONTINUOUS
 62
         7
100
AcDbLine
 10
1593.7786999334
 20
-151.2400166132
 30
0.0
 11
1593.7786999334
 21
-102.2400166132
 31
0.0
  0
LINE
  5
C9
100
AcDbEntity
  8
L1_130
  6
CONTINUOUS
 62
         7
100
AcDbLine
 10
1580.7786999334
 20
-95.7400166132
 30
0.0
 11
1580.7786999334
 21
-93.2400166132
 31
0.0
  0
LINE
  5
CA
100
AcDbEntity
  8
L1_130
  6
CONTINUOUS
 62
         7
100
AcDbLine
 10
1594.0786999334
 20
-157.2400166132
 30
0.0
 11
1581.2786999334
 21
-157.2400166132
 31
0.0
  0
LINE
  5
CB
100
AcDbEntity
  8
L1_130
  6
CONTINUOUS
 62
         7
100
AcDbLine
 10
1594.0786999334
 20
-96.2400166132
 30
0.0
 11
1581.2786999334
 21
-96.2400166132
 31
0.0
  0
LINE
  5
CC
100
AcDbEntity
  8
L1_130
  6
CONTINUOUS
 62
         7
100
AcDbLine
 10
1580.2786999334
 20
-160.7400166132
 30
0.0
 11
1560.1699134958
 21
-160.7400166132
 31
0.0
  0
LINE
  5
CD
100
AcDbEntity
  8
L1_130
  6
CONTINUOUS
 62
         7
100
AcDbLine
 10
1580.2786999334
 20
-92.7400166132
 30
0.0
 11
1560.1699134958
 21
-92.7400166132
 31
0.0
  0
LINE
  5
CE
100
AcDbEntity
  8
L1_130
  6
CONTINUOUS
 62
         7
100
AcDbLine
 10
1580.7786999334
 20
-160.2400166132
 30
0.0
 11
1580.7786999334
 21
-157.7400166132
 31
0.0
  0
ARC
  5
CF
100
AcDbEntity
  8
L1_130
  6
CONTINUOUS
 62
         7
100
AcDbCircle
 10
1581.2786999334
 20
-95.7400166132
 30
0.0
 40
0.5
100
AcDbArc
 50
180.0
 51
270.0
  0
ARC
  5
D0
100
AcDbEntity
  8
L1_130
  6
CONTINUOUS
 62
         7
100
AcDbCircle
 10
1581.2786999334
 20
-157.7400166132
 30
0.0
 40
0.5
100
AcDbArc
 50
90.0
 51
180.0
  0
LINE
  5
D1
100
AcDbEntity
  8
L1_130
  6
CONTINUOUS
 62
         7
100
AcDbLine
 10
1595.2786999334
 20
-96.9400166132
 30
0.0
 11
1595.4786999334
 21
-96.7400166132
 31
0.0
  0
LINE
  5
D2
100
AcDbEntity
  8
L1_130
  6
CONTINUOUS
 62
         7
100
AcDbLine
 10
1594.2786999334
 20
-96.5400166132
 30
0.0
 11
1594.2786999334
 21
-96.4400166132
 31
0.0
  0
ARC
  5
D3
100
AcDbEntity
  8
L1_130
  6
CONTINUOUS
 62
         7
100
AcDbCircle
 10
1594.0786999334
 20
-96.4400166132
 30
0.0
 40
0.2
100
AcDbArc
 50
0.0
 51
90.0
  0
LINE
  5
D4
100
AcDbEntity
  8
L1_130
  6
CONTINUOUS
 62
         7
100
AcDbLine
 10
1595.2786999334
 20
-96.9400166132
 30
0.0
 11
1594.6786999334
 21
-96.9400166132
 31
0.0
  0
ARC
  5
D5
100
AcDbEntity
  8
L1_130
  6
CONTINUOUS
 62
         7
100
AcDbCircle
 10
1594.6786999334
 20
-96.5400166132
 30
0.0
 40
0.4
100
AcDbArc
 50
180.0
 51
270.0
  0
ARC
  5
D6
100
AcDbEntity
  8
L1_130
  6
CONTINUOUS
 62
         7
100
AcDbCircle
 10
1594.0786999334
 20
-157.0400166132
 30
0.0
 40
0.2
100
AcDbArc
 50
270.0
 51
360.0
  0
LINE
  5
D7
100
AcDbEntity
  8
L1_130
  6
CONTINUOUS
 62
         7
100
AcDbLine
 10
1594.2786999334
 20
-156.9400166132
 30
0.0
 11
1594.2786999334
 21
-157.0400166132
 31
0.0
  0
ARC
  5
D8
100
AcDbEntity
  8
L1_130
  6
CONTINUOUS
 62
         7
100
AcDbCircle
 10
1594.6786999334
 20
-156.9400166132
 30
0.0
 40
0.4
100
AcDbArc
 50
90.0
 51
180.0
  0
LINE
  5
D9
100
AcDbEntity
  8
L1_130
  6
CONTINUOUS
 62
         7
100
AcDbLine
 10
1595.2786999334
 20
-156.5400166132
 30
0.0
 11
1595.4786999334
 21
-156.7400166132
 31
0.0
  0
LINE
  5
DA
100
AcDbEntity
  8
L1_130
  6
CONTINUOUS
 62
         7
100
AcDbLine
 10
1595.2786999334
 20
-156.5400166132
 30
0.0
 11
1594.6786999334
 21
-156.5400166132
 31
0.0
  0
POLYLINE
  5
DC
100
AcDbEntity
  8
L1_130
  6
CONTINUOUS
 62
         7
100
AcDb2dPolyline
 66
         1
 10
0.0
 20
0.0
 30
0.0
 70
         2
  0
VERTEX
  5
DE
100
AcDbEntity
  8
L1_130
  6
CONTINUOUS
 62
         7
100
AcDbVertex
100
AcDb2dVertex
 10
1601.9786999334
 20
127.2524144385
 30
0.0
 70
         1
  0
VERTEX
  5
E0
100
AcDbEntity
  8
L1_130
  6
CONTINUOUS
 62
         7
100
AcDbVertex
100
AcDb2dVertex
 10
1602.0183193109
 20
126.713946368
 30
0.0
 70
         1
  0
VERTEX
  5
E2
100
AcDbEntity
  8
L1_130
  6
CONTINUOUS
 62
         7
100
AcDbVertex
100
AcDb2dVertex
 10
1602.0702654671
 20
126.4361899631
 30
0.0
 70
         1
  0
VERTEX
  5
E4
100
AcDbEntity
  8
L1_130
  6
CONTINUOUS
 62
         7
100
AcDbVertex
100
AcDb2dVertex
 10
1602.1454893895
 20
126.1554653023
 30
0.0
 70
         1
  0
VERTEX
  5
E6
100
AcDbEntity
  8
L1_130
  6
CONTINUOUS
 62
         7
100
AcDbVertex
100
AcDb2dVertex
 10
1602.2450082461
 20
125.8741447884
 30
0.0
 70
         1
  0
VERTEX
  5
E8
100
AcDbEntity
  8
L1_130
  6
CONTINUOUS
 62
         7
100
AcDbVertex
100
AcDb2dVertex
 10
1602.3694563202
 20
125.5948193763
 30
0.0
 70
         1
  0
VERTEX
  5
EA
100
AcDbEntity
  8
L1_130
  6
CONTINUOUS
 62
         7
100
AcDbVertex
100
AcDb2dVertex
 10
1602.5190247821
 20
125.3202360652
 30
0.0
 70
         1
  0
VERTEX
  5
EC
100
AcDbEntity
  8
L1_130
  6
CONTINUOUS
 62
         7
100
AcDbVertex
100
AcDb2dVertex
 10
1602.6934165942
 20
125.0532204548
 30
0.0
 70
         1
  0
VERTEX
  5
EE
100
AcDbEntity
  8
L1_130
  6
CONTINUOUS
 62
         7
100
AcDbVertex
100
AcDb2dVertex
 10
1602.8918215796
 20
124.7965879607
 30
0.0
 70
         1
  0
VERTEX
  5
F0
100
AcDbEntity
  8
L1_130
  6
CONTINUOUS
 62
         7
100
AcDbVertex
100
AcDb2dVertex
 10
1603.1129154324
 20
124.553048808
 30
0.0
 70
         1
  0
VERTEX
  5
F2
100
AcDbEntity
  8
L1_130
  6
CONTINUOUS
 62
         7
100
AcDbVertex
100
AcDb2dVertex
 10
1603.3548845785
 20
124.3251130292
 30
0.0
 70
         1
  0
VERTEX
  5
F4
100
AcDbEntity
  8
L1_130
  6
CONTINUOUS
 62
         7
100
AcDbVertex
100
AcDb2dVertex
 10
1603.6154765123
 20
124.1150021489
 30
0.0
 70
         1
  0
VERTEX
  5
F6
100
AcDbEntity
  8
L1_130
  6
CONTINUOUS
 62
         7
100
AcDbVertex
100
AcDb2dVertex
 10
1603.8920728401
 20
123.9245739342
 30
0.0
 70
         1
  0
VERTEX
  5
F8
100
AcDbEntity
  8
L1_130
  6
CONTINUOUS
 62
         7
100
AcDbVertex
100
AcDb2dVertex
 10
1604.1817801066
 20
123.7552655067
 30
0.0
 70
         1
  0
VERTEX
  5
FA
100
AcDbEntity
  8
L1_130
  6
CONTINUOUS
 62
         7
100
AcDbVertex
100
AcDb2dVertex
 10
1604.4815318861
 20
123.6080584052
 30
0.0
 70
         1
  0
VERTEX
  5
FC
100
AcDbEntity
  8
L1_130
  6
CONTINUOUS
 62
         7
100
AcDbVertex
100
AcDb2dVertex
 10
1604.7881948147
 20
123.4834671
 30
0.0
 70
         1
  0
VERTEX
  5
FE
100
AcDbEntity
  8
L1_130
  6
CONTINUOUS
 62
         7
100
AcDbVertex
100
AcDb2dVertex
 10
1605.0986713023
 20
123.3815503053
 30
0.0
 70
         1
  0
VERTEX
  5
100
100
AcDbEntity
  8
L1_130
  6
CONTINUOUS
 62
         7
100
AcDbVertex
100
AcDb2dVertex
 10
1605.4099925337
 20
123.3019425147
 30
0.0
 70
         1
  0
VERTEX
  5
102
100
AcDbEntity
  8
L1_130
  6
CONTINUOUS
 62
         7
100
AcDbVertex
100
AcDb2dVertex
 10
1605.7193968369
 20
123.2439017433
 30
0.0
 70
         1
  0
VERTEX
  5
104
100
AcDbEntity
  8
L1_130
  6
CONTINUOUS
 62
         7
100
AcDbVertex
100
AcDb2dVertex
 10
1606.1268703208
 20
123.198038955
 30
0.0
 70
         1
  0
VERTEX
  5
106
100
AcDbEntity
  8
L1_130
  6
CONTINUOUS
 62
         7
100
AcDbVertex
100
AcDb2dVertex
 10
1606.5213286232
 20
123.1857725514
 30
0.0
 70
         1
  0
VERTEX
  5
108
100
AcDbEntity
  8
L1_130
  6
CONTINUOUS
 62
         7
100
AcDbVertex
100
AcDb2dVertex
 10
1606.8987264878
 20
123.2033443456
 30
0.0
 70
         1
  0
VERTEX
  5
10A
100
AcDbEntity
  8
L1_130
  6
CONTINUOUS
 62
         7
100
AcDbVertex
100
AcDb2dVertex
 10
1607.2560945201
 20
123.246735019
 30
0.0
 70
         1
  0
VERTEX
  5
10C
100
AcDbEntity
  8
L1_130
  6
CONTINUOUS
 62
         7
100
AcDbVertex
100
AcDb2dVertex
 10
1607.5914653355
 20
123.31189035
 30
0.0
 70
         1
  0
VERTEX
  5
10E
100
AcDbEntity
  8
L1_130
  6
CONTINUOUS
 62
         7
100
AcDbVertex
100
AcDb2dVertex
 10
1607.903753838
 20
123.3948977859
 30
0.0
 70
         1
  0
VERTEX
  5
110
100
AcDbEntity
  8
L1_130
  6
CONTINUOUS
 62
         7
100
AcDbVertex
100
AcDb2dVertex
 10
1608.2863686917
 20
123.5281407575
 30
0.0
 70
         1
  0
VERTEX
  5
112
100
AcDbEntity
  8
L1_130
  6
CONTINUOUS
 62
         7
100
AcDbVertex
100
AcDb2dVertex
 10
1608.6275547983
 20
123.6792249387
 30
0.0
 70
         1
  0
VERTEX
  5
114
100
AcDbEntity
  8
L1_130
  6
CONTINUOUS
 62
         7
100
AcDbVertex
100
AcDb2dVertex
 10
1608.9293968331
 20
123.8415836306
 30
0.0
 70
         1
  0
VERTEX
  5
116
100
AcDbEntity
  8
L1_130
  6
CONTINUOUS
 62
         7
100
AcDbVertex
100
AcDb2dVertex
 10
1609.1947865401
 20
124.0099094364
 30
0.0
 70
         1
  0
VERTEX
  5
118
100
AcDbEntity
  8
L1_130
  6
CONTINUOUS
 62
         7
100
AcDbVertex
100
AcDb2dVertex
 10
1609.4270260057
 20
124.1800518009
 30
0.0
 70
         1
  0
VERTEX
  5
11A
100
AcDbEntity
  8
L1_130
  6
CONTINUOUS
 62
         7
100
AcDbVertex
100
AcDb2dVertex
 10
1609.693420581
 20
124.406631502
 30
0.0
 70
         1
  0
VERTEX
  5
11C
100
AcDbEntity
  8
L1_130
  6
CONTINUOUS
 62
         7
100
AcDbVertex
100
AcDb2dVertex
 10
1609.9140056558
 20
124.6255528209
 30
0.0
 70
         1
  0
VERTEX
  5
11E
100
AcDbEntity
  8
L1_130
  6
CONTINUOUS
 62
         7
100
AcDbVertex
100
AcDb2dVertex
 10
1610.096188058
 20
124.8335361674
 30
0.0
 70
         1
  0
VERTEX
  5
120
100
AcDbEntity
  8
L1_130
  6
CONTINUOUS
 62
         7
100
AcDbVertex
100
AcDb2dVertex
 10
1610.2927697245
 20
125.0942243134
 30
0.0
 70
         1
  0
VERTEX
  5
122
100
AcDbEntity
  8
L1_130
  6
CONTINUOUS
 62
         7
100
AcDbVertex
100
AcDb2dVertex
 10
1610.4442893693
 20
125.3301681916
 30
0.0
 70
         1
  0
VERTEX
  5
124
100
AcDbEntity
  8
L1_130
  6
CONTINUOUS
 62
         7
100
AcDbVertex
100
AcDb2dVertex
 10
1610.5963112056
 20
125.6118666193
 30
0.0
 70
         1
  0
VERTEX
  5
126
100
AcDbEntity
  8
L1_130
  6
CONTINUOUS
 62
         7
100
AcDbVertex
100
AcDb2dVertex
 10
1610.703688827
 20
125.8525033252
 30
0.0
 70
         1
  0
VERTEX
  5
128
100
AcDbEntity
  8
L1_130
  6
CONTINUOUS
 62
         7
100
AcDbVertex
100
AcDb2dVertex
 10
1610.8021095278
 20
126.1243220334
 30
0.0
 70
         1
  0
VERTEX
  5
12A
100
AcDbEntity
  8
L1_130
  6
CONTINUOUS
 62
         7
100
AcDbVertex
100
AcDb2dVertex
 10
1610.8816742237
 20
126.4124635829
 30
0.0
 70
         1
  0
VERTEX
  5
12C
100
AcDbEntity
  8
L1_130
  6
CONTINUOUS
 62
         7
100
AcDbVertex
100
AcDb2dVertex
 10
1610.935953872
 20
126.6931999701
 30
0.0
 70
         1
  0
VERTEX
  5
12E
100
AcDbEntity
  8
L1_130
  6
CONTINUOUS
 62
         7
100
AcDbVertex
100
AcDb2dVertex
 10
1610.965166697
 20
126.9372492632
 30
0.0
 70
         1
  0
VERTEX
  5
130
100
AcDbEntity
  8
L1_130
  6
CONTINUOUS
 62
         7
100
AcDbVertex
100
AcDb2dVertex
 10
1610.977900141
 20
127.1757430224
 30
0.0
 70
         1
  0
VERTEX
  5
132
100
AcDbEntity
  8
L1_130
  6
CONTINUOUS
 62
         7
100
AcDbVertex
100
AcDb2dVertex
 10
1610.9786999334
 20
127.2524144385
 30
0.0
 70
         1
  0
SEQEND
  5
134
100
AcDbEntity
  8
L1_130
  6
CONTINUOUS
 62
         7
  0
POLYLINE
  5
136
100
AcDbEntity
  8
L1_130
  6
CONTINUOUS
 62
         7
100
AcDb2dPolyline
 66
         1
 10
0.0
 20
0.0
 30
0.0
 70
         2
  0
VERTEX
  5
138
100
AcDbEntity
  8
L1_130
  6
CONTINUOUS
 62
         7
100
AcDbVertex
100
AcDb2dVertex
 10
1610.9786999334
 20
127.2524150293
 30
0.0
 70
         1
  0
VERTEX
  5
13A
100
AcDbEntity
  8
L1_130
  6
CONTINUOUS
 62
         7
100
AcDbVertex
100
AcDb2dVertex
 10
1610.9390804626
 20
127.7459421533
 30
0.0
 70
         1
  0
VERTEX
  5
13C
100
AcDbEntity
  8
L1_130
  6
CONTINUOUS
 62
         7
100
AcDbVertex
100
AcDb2dVertex
 10
1610.8871342602
 20
128.0005167935
 30
0.0
 70
         1
  0
VERTEX
  5
13E
100
AcDbEntity
  8
L1_130
  6
CONTINUOUS
 62
         7
100
AcDbVertex
100
AcDb2dVertex
 10
1610.8119102934
 20
128.257811951
 30
0.0
 70
         1
  0
VERTEX
  5
140
100
AcDbEntity
  8
L1_130
  6
CONTINUOUS
 62
         7
100
AcDbVertex
100
AcDb2dVertex
 10
1610.7123913956
 20
128.5156532256
 30
0.0
 70
         1
  0
VERTEX
  5
142
100
AcDbEntity
  8
L1_130
  6
CONTINUOUS
 62
         7
100
AcDbVertex
100
AcDb2dVertex
 10
1610.5879432845
 20
128.7716659056
 30
0.0
 70
         1
  0
VERTEX
  5
144
100
AcDbEntity
  8
L1_130
  6
CONTINUOUS
 62
         7
100
AcDbVertex
100
AcDb2dVertex
 10
1610.4383747912
 20
129.0233322589
 30
0.0
 70
         1
  0
VERTEX
  5
146
100
AcDbEntity
  8
L1_130
  6
CONTINUOUS
 62
         7
100
AcDbVertex
100
AcDb2dVertex
 10
1610.2639829545
 20
129.2680625132
 30
0.0
 70
         1
  0
VERTEX
  5
148
100
AcDbEntity
  8
L1_130
  6
CONTINUOUS
 62
         7
100
AcDbVertex
100
AcDb2dVertex
 10
1610.0655779521
 20
129.5032762306
 30
0.0
 70
         1
  0
VERTEX
  5
14A
100
AcDbEntity
  8
L1_130
  6
CONTINUOUS
 62
         7
100
AcDbVertex
100
AcDb2dVertex
 10
1609.8444840905
 20
129.7264893841
 30
0.0
 70
         1
  0
VERTEX
  5
14C
100
AcDbEntity
  8
L1_130
  6
CONTINUOUS
 62
         7
100
AcDbVertex
100
AcDb2dVertex
 10
1609.6025149443
 20
129.935401432
 30
0.0
 70
         1
  0
VERTEX
  5
14E
100
AcDbEntity
  8
L1_130
  6
CONTINUOUS
 62
         7
100
AcDbVertex
100
AcDb2dVertex
 10
1609.3419230191
 20
130.1279762608
 30
0.0
 70
         1
  0
VERTEX
  5
150
100
AcDbEntity
  8
L1_130
  6
CONTINUOUS
 62
         7
100
AcDbVertex
100
AcDb2dVertex
 10
1609.0653267084
 20
130.3025111552
 30
0.0
 70
         1
  0
VERTEX
  5
152
100
AcDbEntity
  8
L1_130
  6
CONTINUOUS
 62
         7
100
AcDbVertex
100
AcDb2dVertex
 10
1608.7756194667
 20
130.4576889381
 30
0.0
 70
         1
  0
VERTEX
  5
154
100
AcDbEntity
  8
L1_130
  6
CONTINUOUS
 62
         7
100
AcDbVertex
100
AcDb2dVertex
 10
1608.4758677189
 20
130.5926099916
 30
0.0
 70
         1
  0
VERTEX
  5
156
100
AcDbEntity
  8
L1_130
  6
CONTINUOUS
 62
         7
100
AcDbVertex
100
AcDb2dVertex
 10
1608.169204828
 20
130.7068027843
 30
0.0
 70
         1
  0
VERTEX
  5
158
100
AcDbEntity
  8
L1_130
  6
CONTINUOUS
 62
         7
100
AcDbVertex
100
AcDb2dVertex
 10
1607.8587283827
 20
130.800213503
 30
0.0
 70
         1
  0
VERTEX
  5
15A
100
AcDbEntity
  8
L1_130
  6
CONTINUOUS
 62
         7
100
AcDbVertex
100
AcDb2dVertex
 10
1607.4416724743
 20
130.8934733747
 30
0.0
 70
         1
  0
VERTEX
  5
15C
100
AcDbEntity
  8
L1_130
  6
CONTINUOUS
 62
         7
100
AcDbVertex
100
AcDb2dVertex
 10
1607.0296128993
 20
130.9517802568
 30
0.0
 70
         1
  0
VERTEX
  5
15E
100
AcDbEntity
  8
L1_130
  6
CONTINUOUS
 62
         7
100
AcDbVertex
100
AcDb2dVertex
 10
1606.6281796268
 20
130.9777616984
 30
0.0
 70
         1
  0
VERTEX
  5
160
100
AcDbEntity
  8
L1_130
  6
CONTINUOUS
 62
         7
100
AcDbVertex
100
AcDb2dVertex
 10
1606.2419537313
 20
130.9746567011
 30
0.0
 70
         1
  0
VERTEX
  5
162
100
AcDbEntity
  8
L1_130
  6
CONTINUOUS
 62
         7
100
AcDbVertex
100
AcDb2dVertex
 10
1605.8744283284
 20
130.9460599052
 30
0.0
 70
         1
  0
VERTEX
  5
164
100
AcDbEntity
  8
L1_130
  6
CONTINUOUS
 62
         7
100
AcDbVertex
100
AcDb2dVertex
 10
1605.52805097
 20
130.89569459
 30
0.0
 70
         1
  0
VERTEX
  5
166
100
AcDbEntity
  8
L1_130
  6
CONTINUOUS
 62
         7
100
AcDbVertex
100
AcDb2dVertex
 10
1605.2043237828
 20
130.8272278655
 30
0.0
 70
         1
  0
VERTEX
  5
168
100
AcDbEntity
  8
L1_130
  6
CONTINUOUS
 62
         7
100
AcDbVertex
100
AcDb2dVertex
 10
1604.8062585757
 20
130.7128301953
 30
0.0
 70
         1
  0
VERTEX
  5
16A
100
AcDbEntity
  8
L1_130
  6
CONTINUOUS
 62
         7
100
AcDbVertex
100
AcDb2dVertex
 10
1604.4500861468
 20
130.5795828409
 30
0.0
 70
         1
  0
VERTEX
  5
16C
100
AcDbEntity
  8
L1_130
  6
CONTINUOUS
 62
         7
100
AcDbVertex
100
AcDb2dVertex
 10
1604.1341394234
 20
130.4339346425
 30
0.0
 70
         1
  0
VERTEX
  5
16E
100
AcDbEntity
  8
L1_130
  6
CONTINUOUS
 62
         7
100
AcDbVertex
100
AcDb2dVertex
 10
1603.8557700381
 20
130.2811654047
 30
0.0
 70
         1
  0
VERTEX
  5
170
100
AcDbEntity
  8
L1_130
  6
CONTINUOUS
 62
         7
100
AcDbVertex
100
AcDb2dVertex
 10
1603.6117873488
 20
130.1254530233
 30
0.0
 70
         1
  0
VERTEX
  5
172
100
AcDbEntity
  8
L1_130
  6
CONTINUOUS
 62
         7
100
AcDbVertex
100
AcDb2dVertex
 10
1603.3315547937
 20
129.9166293448
 30
0.0
 70
         1
  0
VERTEX
  5
174
100
AcDbEntity
  8
L1_130
  6
CONTINUOUS
 62
         7
100
AcDbVertex
100
AcDb2dVertex
 10
1603.0992809894
 20
129.713704049
 30
0.0
 70
         1
  0
VERTEX
  5
176
100
AcDbEntity
  8
L1_130
  6
CONTINUOUS
 62
         7
100
AcDbVertex
100
AcDb2dVertex
 10
1602.9073390283
 20
129.5201418477
 30
0.0
 70
         1
  0
VERTEX
  5
178
100
AcDbEntity
  8
L1_130
  6
CONTINUOUS
 62
         7
100
AcDbVertex
100
AcDb2dVertex
 10
1602.7001784204
 20
129.2767479659
 30
0.0
 70
         1
  0
VERTEX
  5
17A
100
AcDbEntity
  8
L1_130
  6
CONTINUOUS
 62
         7
100
AcDbVertex
100
AcDb2dVertex
 10
1602.540519316
 20
129.0559169519
 30
0.0
 70
         1
  0
VERTEX
  5
17C
100
AcDbEntity
  8
L1_130
  6
CONTINUOUS
 62
         7
100
AcDbVertex
100
AcDb2dVertex
 10
1602.3803988407
 20
128.7918114318
 30
0.0
 70
         1
  0
VERTEX
  5
17E
100
AcDbEntity
  8
L1_130
  6
CONTINUOUS
 62
         7
100
AcDbVertex
100
AcDb2dVertex
 10
1602.2673818587
 20
128.5659617396
 30
0.0
 70
         1
  0
VERTEX
  5
180
100
AcDbEntity
  8
L1_130
  6
CONTINUOUS
 62
         7
100
AcDbVertex
100
AcDb2dVertex
 10
1602.1638908553
 20
128.3107180696
 30
0.0
 70
         1
  0
VERTEX
  5
182
100
AcDbEntity
  8
L1_130
  6
CONTINUOUS
 62
         7
100
AcDbVertex
100
AcDb2dVertex
 10
1602.08033546
 20
128.0401343987
 30
0.0
 70
         1
  0
VERTEX
  5
184
100
AcDbEntity
  8
L1_130
  6
CONTINUOUS
 62
         7
100
AcDbVertex
100
AcDb2dVertex
 10
1602.0234223296
 20
127.7766132634
 30
0.0
 70
         1
  0
VERTEX
  5
186
100
AcDbEntity
  8
L1_130
  6
CONTINUOUS
 62
         7
100
AcDbVertex
100
AcDb2dVertex
 10
1601.9928426569
 20
127.5476986787
 30
0.0
 70
         1
  0
VERTEX
  5
188
100
AcDbEntity
  8
L1_130
  6
CONTINUOUS
 62
         7
100
AcDbVertex
100
AcDb2dVertex
 10
1601.9795347563
 20
127.3242091212
 30
0.0
 70
         1
  0
VERTEX
  5
18A
100
AcDbEntity
  8
L1_130
  6
CONTINUOUS
 62
         7
100
AcDbVertex
100
AcDb2dVertex
 10
1601.9786999334
 20
127.2524150572
 30
0.0
 70
         1
  0
SEQEND
  5
18C
100
AcDbEntity
  8
L1_130
  6
CONTINUOUS
 62
         7
  0
LINE
  5
18D
100
AcDbEntity
  8
L1_130
  6
CENTER
 62
         1
100
AcDbLine
 10
1610.9786999334
 20
127.2524144385
 30
0.0
 11
1601.9786999334
 21
127.2524144385
 31
0.0
  0
LINE
  5
18E
100
AcDbEntity
  8
L1_130
  6
CONTINUOUS
 62
         4
100
AcDbLine
 10
1653.2786999334
 20
82.2524144385
 30
0.0
 11
1653.2786999334
 21
100.0024144385
 31
0.0
  0
LINE
  5
18F
100
AcDbEntity
  8
L1_130
  6
CONTINUOUS
 62
         4
100
AcDbLine
 10
1645.8786999334
 20
82.2524144385
 30
0.0
 11
1645.8786999334
 21
142.2524144385
 31
0.0
  0
LINE
  5
190
100
AcDbEntity
  8
L1_130
  6
CONTINUOUS
 62
         4
100
AcDbLine
 10
1653.2786999334
 20
124.5024144385
 30
0.0
 11
1653.2786999334
 21
142.2524144385
 31
0.0
  0
LINE
  5
191
100
AcDbEntity
  8
L1_130
  6
CONTINUOUS
 62
         4
100
AcDbLine
 10
1643.4786999334
 20
82.2524144385
 30
0.0
 11
1643.4786999334
 21
142.2524144385
 31
0.0
  0
LINE
  5
192
100
AcDbEntity
  8
L1_130
  6
CONTINUOUS
 62
         7
100
AcDbLine
 10
1595.4786999334
 20
82.2524144385
 30
0.0
 11
1595.4786999334
 21
142.2524144385
 31
0.0
  0
LINE
  5
193
100
AcDbEntity
  8
L1_130
  6
CONTINUOUS
 62
         4
100
AcDbLine
 10
1595.2786999334
 20
82.4524144385
 30
0.0
 11
1595.2786999334
 21
142.0524144385
 31
0.0
  0
LINE
  5
194
100
AcDbEntity
  8
L1_130
  6
CONTINUOUS
 62
         4
100
AcDbLine
 10
1594.6786999334
 20
82.4524144385
 30
0.0
 11
1594.6786999334
 21
142.0524144385
 31
0.0
  0
LINE
  5
195
100
AcDbEntity
  8
L1_130
  6
CONTINUOUS
 62
         4
100
AcDbLine
 10
1594.0786999334
 20
81.7524144385
 30
0.0
 11
1594.0786999334
 21
142.7524144385
 31
0.0
  0
LINE
  5
196
100
AcDbEntity
  8
L1_130
  6
CONTINUOUS
 62
         4
100
AcDbLine
 10
1581.2786999334
 20
81.7524144385
 30
0.0
 11
1581.2786999334
 21
142.7524144385
 31
0.0
  0
LINE
  5
197
100
AcDbEntity
  8
L1_130
  6
CONTINUOUS
 62
         4
100
AcDbLine
 10
1580.2786999334
 20
78.2524144385
 30
0.0
 11
1580.2786999334
 21
146.2524144385
 31
0.0
  0
LINE
  5
198
100
AcDbEntity
  8
L1_130
  6
CONTINUOUS
 62
         7
100
AcDbLine
 10
1645.7786999334
 20
82.3524144385
 30
0.0
 11
1645.8786999334
 21
82.2524144385
 31
0.0
  0
LINE
  5
199
100
AcDbEntity
  8
L1_130
  6
CONTINUOUS
 62
         7
100
AcDbLine
 10
1643.5786999334
 20
82.3524144385
 30
0.0
 11
1643.4786999334
 21
82.2524144385
 31
0.0
  0
LINE
  5
19A
100
AcDbEntity
  8
L1_130
  6
CONTINUOUS
 62
         7
100
AcDbLine
 10
1645.7786999334
 20
142.1524144385
 30
0.0
 11
1645.8786999334
 21
142.2524144385
 31
0.0
  0
LINE
  5
19B
100
AcDbEntity
  8
L1_130
  6
CONTINUOUS
 62
         7
100
AcDbLine
 10
1643.4786999334
 20
142.2524144385
 30
0.0
 11
1643.5786999334
 21
142.1524144385
 31
0.0
  0
LINE
  5
19C
100
AcDbEntity
  8
L1_130
  6
CONTINUOUS
 62
         7
100
AcDbLine
 10
1595.2786999334
 20
82.4524144385
 30
0.0
 11
1594.6786999334
 21
82.4524144385
 31
0.0
  0
LINE
  5
19D
100
AcDbEntity
  8
L1_130
  6
CONTINUOUS
 62
         7
100
AcDbLine
 10
1595.2786999334
 20
82.4524144385
 30
0.0
 11
1595.4786999334
 21
82.2524144385
 31
0.0
  0
ARC
  5
19E
100
AcDbEntity
  8
L1_130
  6
CONTINUOUS
 62
         7
100
AcDbCircle
 10
1594.6786999334
 20
82.0524144385
 30
0.0
 40
0.4
100
AcDbArc
 50
90.0
 51
180.0
  0
LINE
  5
19F
100
AcDbEntity
  8
L1_130
  6
CONTINUOUS
 62
         7
100
AcDbLine
 10
1594.2786999334
 20
142.5524144385
 30
0.0
 11
1594.2786999334
 21
81.9524144385
 31
0.0
  0
ARC
  5
1A0
100
AcDbEntity
  8
L1_130
  6
CONTINUOUS
 62
         7
100
AcDbCircle
 10
1594.0786999334
 20
81.9524144385
 30
0.0
 40
0.2
100
AcDbArc
 50
270.0
 51
360.0
  0
ARC
  5
1A1
100
AcDbEntity
  8
L1_130
  6
CONTINUOUS
 62
         7
100
AcDbCircle
 10
1594.6786999334
 20
142.4524144385
 30
0.0
 40
0.4
100
AcDbArc
 50
180.0
 51
270.0
  0
LINE
  5
1A2
100
AcDbEntity
  8
L1_130
  6
CONTINUOUS
 62
         7
100
AcDbLine
 10
1595.2786999334
 20
142.0524144385
 30
0.0
 11
1594.6786999334
 21
142.0524144385
 31
0.0
  0
ARC
  5
1A3
100
AcDbEntity
  8
L1_130
  6
CONTINUOUS
 62
         7
100
AcDbCircle
 10
1594.0786999334
 20
142.5524144385
 30
0.0
 40
0.2
100
AcDbArc
 50
0.0
 51
90.0
  0
DIMENSION
  5
1A6
100
AcDbEntity
  8
L1_130
  6
CONTINUOUS
 62
         4
100
AcDbDimension
  2
*D3
 10
1701.5942454511
 20
142.2524144385
 30
0.0
 11
1697.5342454511
 21
98.5800642678
 31
0.0
  3
DIMSTYLE1
100
AcDbAlignedDimension
 13
1645.9786999334
 23
142.2524144385
 33
0.0
 14
1653.2786999334
 24
82.2524144385
 34
0.0
 50
90.0
100
AcDbRotatedDimension
  0
LINE
  5
1B2
100
AcDbEntity
  8
L1_130
  6
CONTINUOUS
 62
         7
100
AcDbLine
 10
1595.2786999334
 20
142.0524144385
 30
0.0
 11
1595.4786999334
 21
142.2524144385
 31
0.0
  0
ARC
  5
1B3
100
AcDbEntity
  8
L1_130
  6
CONTINUOUS
 62
         7
100
AcDbCircle
 10
1581.2786999334
 20
81.2524144385
 30
0.0
 40
0.5
100
AcDbArc
 50
90.0
 51
180.0
  0
ARC
  5
1B4
100
AcDbEntity
  8
L1_130
  6
CONTINUOUS
 62
         7
100
AcDbCircle
 10
1581.2786999334
 20
143.2524144385
 30
0.0
 40
0.5
100
AcDbArc
 50
180.0
 51
270.0
  0
LINE
  5
1B5
100
AcDbEntity
  8
L1_130
  6
CONTINUOUS
 62
         7
100
AcDbLine
 10
1580.2786999334
 20
146.2524144385
 30
0.0
 11
1560.1699134958
 21
146.2524144385
 31
0.0
  0
LINE
  5
1B6
100
AcDbEntity
  8
L1_130
  6
CONTINUOUS
 62
         7
100
AcDbLine
 10
1580.2786999334
 20
78.2524144385
 30
0.0
 11
1560.1699134958
 21
78.2524144385
 31
0.0
  0
LINE
  5
1B7
100
AcDbEntity
  8
L1_130
  6
CONTINUOUS
 62
         7
100
AcDbLine
 10
1594.0786999334
 20
142.7524144385
 30
0.0
 11
1581.2786999334
 21
142.7524144385
 31
0.0
  0
LINE
  5
1B8
100
AcDbEntity
  8
L1_130
  6
CONTINUOUS
 62
         7
100
AcDbLine
 10
1594.0786999334
 20
81.7524144385
 30
0.0
 11
1581.2786999334
 21
81.7524144385
 31
0.0
  0
LINE
  5
1B9
100
AcDbEntity
  8
L1_130
  6
CONTINUOUS
 62
         7
100
AcDbLine
 10
1580.7786999334
 20
78.7524144385
 30
0.0
 11
1580.7786999334
 21
145.7524144385
 31
0.0
  0
LINE
  5
1BA
100
AcDbEntity
  8
L1_130
  6
CONTINUOUS
 62
         7
100
AcDbLine
 10
1643.4786999334
 20
142.2524144385
 30
0.0
 11
1595.4786999334
 21
142.2524144385
 31
0.0
  0
LINE
  5
1BB
100
AcDbEntity
  8
L1_130
  6
CONTINUOUS
 62
         7
100
AcDbLine
 10
1643.4786999334
 20
82.2524144385
 30
0.0
 11
1595.4786999334
 21
82.2524144385
 31
0.0
  0
LINE
  5
1BC
100
AcDbEntity
  8
L1_130
  6
CENTER
 62
         1
100
AcDbLine
 10
1606.4786999334
 20
82.2524144385
 30
0.0
 11
1606.4786999334
 21
143.0580435101
 31
0.0
  0
LINE
  5
1BD
100
AcDbEntity
  8
L1_130
  6
CONTINUOUS
 62
         7
100
AcDbLine
 10
1643.5786999334
 20
82.3524144385
 30
0.0
 11
1643.5786999334
 21
142.1524144385
 31
0.0
  0
LINE
  5
1BE
100
AcDbEntity
  8
L1_130
  6
CONTINUOUS
 62
         7
100
AcDbLine
 10
1645.7786999334
 20
82.3524144385
 30
0.0
 11
1645.7786999334
 21
142.1524144385
 31
0.0
  0
LINE
  5
1BF
100
AcDbEntity
  8
L1_130
  6
CONTINUOUS
 62
         7
100
AcDbLine
 10
1645.7786999334
 20
83.7524144385
 30
0.0
 11
1643.5786999334
 21
83.7524144385
 31
0.0
  0
LINE
  5
1C0
100
AcDbEntity
  8
L1_130
  6
CONTINUOUS
 62
         7
100
AcDbLine
 10
1645.7786999334
 20
140.7524144385
 30
0.0
 11
1643.5786999334
 21
140.7524144385
 31
0.0
  0
LINE
  5
1C1
100
AcDbEntity
  8
L1_130
  6
CONTINUOUS
 62
         7
100
AcDbLine
 10
1653.2786999334
 20
82.2524144385
 30
0.0
 11
1645.8786999334
 21
82.2524144385
 31
0.0
  0
LINE
  5
1C2
100
AcDbEntity
  8
L1_130
  6
CONTINUOUS
 62
         7
100
AcDbLine
 10
1653.2786999334
 20
142.2524144385
 30
0.0
 11
1645.8786999334
 21
142.2524144385
 31
0.0
  0
LINE
  5
1C3
100
AcDbEntity
  8
L1_130
  6
CONTINUOUS
 62
         7
100
AcDbLine
 10
1653.7786999334
 20
82.7524144385
 30
0.0
 11
1653.7786999334
 21
99.5024144385
 31
0.0
  0
LINE
  5
1C4
100
AcDbEntity
  8
L1_130
  6
CONTINUOUS
 62
         7
100
AcDbLine
 10
1653.7786999334
 20
125.0024144385
 30
0.0
 11
1653.7786999334
 21
141.7524144385
 31
0.0
  0
LINE
  5
1C5
100
AcDbEntity
  8
L1_130
  6
CONTINUOUS
 62
         7
100
AcDbLine
 10
1653.2786999334
 20
142.2524144385
 30
0.0
 11
1653.7786999334
 21
141.7524144385
 31
0.0
  0
LINE
  5
1C6
100
AcDbEntity
  8
L1_130
  6
CONTINUOUS
 62
         7
100
AcDbLine
 10
1653.7786999334
 20
125.0024144385
 30
0.0
 11
1653.2786999334
 21
124.5024144385
 31
0.0
  0
LINE
  5
1C7
100
AcDbEntity
  8
L1_130
  6
CONTINUOUS
 62
         7
100
AcDbLine
 10
1653.2786999334
 20
100.0024144385
 30
0.0
 11
1653.7786999334
 21
99.5024144385
 31
0.0
  0
LINE
  5
1C8
100
AcDbEntity
  8
L1_130
  6
CONTINUOUS
 62
         7
100
AcDbLine
 10
1653.2786999334
 20
82.2524144385
 30
0.0
 11
1653.7786999334
 21
82.7524144385
 31
0.0
  0
LINE
  5
1C9
100
AcDbEntity
  8
L1_130
  6
CONTINUOUS
 62
         7
100
AcDbLine
 10
1653.2786999334
 20
124.5024144385
 30
0.0
 11
1646.9786999334
 21
124.5024144385
 31
0.0
  0
ARC
  5
1CA
100
AcDbEntity
  8
L1_130
  6
CONTINUOUS
 62
         7
100
AcDbCircle
 10
1646.9786999334
 20
124.0024144385
 30
0.0
 40
0.5
100
AcDbArc
 50
90.0
 51
180.0
  0
LINE
  5
1CB
100
AcDbEntity
  8
L1_130
  6
CONTINUOUS
 62
         7
100
AcDbLine
 10
1646.4786999334
 20
100.5024144385
 30
0.0
 11
1646.4786999334
 21
124.0024144385
 31
0.0
  0
ARC
  5
1CC
100
AcDbEntity
  8
L1_130
  6
CONTINUOUS
 62
         7
100
AcDbCircle
 10
1646.9786999334
 20
100.5024144385
 30
0.0
 40
0.5
100
AcDbArc
 50
180.0
 51
270.0
  0
LINE
  5
1CD
100
AcDbEntity
  8
L1_130
  6
CONTINUOUS
 62
         7
100
AcDbLine
 10
1653.2786999334
 20
100.0024144385
 30
0.0
 11
1646.9786999334
 21
100.0024144385
 31
0.0
  0
LINE
  5
1CE
100
AcDbEntity
  8
L1_130
  6
CENTER
 62
         1
100
AcDbLine
 10
1542.9286999334
 20
112.2524144385
 30
0.0
 11
1651.2873589404
 21
112.2524144385
 31
0.0
  0
ARC
  5
1CF
100
AcDbEntity
  8
L1_130
  6
CONTINUOUS
 62
         7
100
AcDbCircle
 10
1580.2786999334
 20
145.7524144385
 30
0.0
 40
0.5
100
AcDbArc
 50
0.0
 51
90.0
  0
ARC
  5
1D0
100
AcDbEntity
  8
L1_130
  6
CONTINUOUS
 62
         7
100
AcDbCircle
 10
1580.2786999334
 20
78.7524144385
 30
0.0
 40
0.5
100
AcDbArc
 50
270.0
 51
360.0
  0
POLYLINE
  5
1D2
100
AcDbEntity
  8
L1_130
  6
CONTINUOUS
 62
         7
100
AcDb2dPolyline
 66
         1
 10
0.0
 20
0.0
 30
0.0
 70
         2
  0
VERTEX
  5
1D4
100
AcDbEntity
  8
L1_130
  6
CONTINUOUS
 62
         7
100
AcDbVertex
100
AcDb2dVertex
 10
1601.9786999334
 20
97.2524138198
 30
0.0
 70
         1
  0
VERTEX
  5
1D6
100
AcDbEntity
  8
L1_130
  6
CONTINUOUS
 62
         7
100
AcDbVertex
100
AcDb2dVertex
 10
1602.0183194092
 20
96.7588866924
 30
0.0
 70
         1
  0
VERTEX
  5
1D8
100
AcDbEntity
  8
L1_130
  6
CONTINUOUS
 62
         7
100
AcDbVertex
100
AcDb2dVertex
 10
1602.0702656147
 20
96.5043120508
 30
0.0
 70
         1
  0
VERTEX
  5
1DA
100
AcDbEntity
  8
L1_130
  6
CONTINUOUS
 62
         7
100
AcDbVertex
100
AcDb2dVertex
 10
1602.1454895849
 20
96.2470168919
 30
0.0
 70
         1
  0
VERTEX
  5
1DC
100
AcDbEntity
  8
L1_130
  6
CONTINUOUS
 62
         7
100
AcDbVertex
100
AcDb2dVertex
 10
1602.2450084865
 20
95.9891756163
 30
0.0
 70
         1
  0
VERTEX
  5
1DE
100
AcDbEntity
  8
L1_130
  6
CONTINUOUS
 62
         7
100
AcDbVertex
100
AcDb2dVertex
 10
1602.3694566016
 20
95.7331629356
 30
0.0
 70
         1
  0
VERTEX
  5
1E0
100
AcDbEntity
  8
L1_130
  6
CONTINUOUS
 62
         7
100
AcDbVertex
100
AcDb2dVertex
 10
1602.5190250992
 20
95.4814965819
 30
0.0
 70
         1
  0
VERTEX
  5
1E2
100
AcDbEntity
  8
L1_130
  6
CONTINUOUS
 62
         7
100
AcDbVertex
100
AcDb2dVertex
 10
1602.6934169404
 20
95.2367663277
 30
0.0
 70
         1
  0
VERTEX
  5
1E4
100
AcDbEntity
  8
L1_130
  6
CONTINUOUS
 62
         7
100
AcDbVertex
100
AcDb2dVertex
 10
1602.8918219474
 20
95.0015526108
 30
0.0
 70
         1
  0
VERTEX
  5
1E6
100
AcDbEntity
  8
L1_130
  6
CONTINUOUS
 62
         7
100
AcDbVertex
100
AcDb2dVertex
 10
1603.1129158135
 20
94.7783394582
 30
0.0
 70
         1
  0
VERTEX
  5
1E8
100
AcDbEntity
  8
L1_130
  6
CONTINUOUS
 62
         7
100
AcDbVertex
100
AcDb2dVertex
 10
1603.3548849642
 20
94.5694274118
 30
0.0
 70
         1
  0
VERTEX
  5
1EA
100
AcDbEntity
  8
L1_130
  6
CONTINUOUS
 62
         7
100
AcDbVertex
100
AcDb2dVertex
 10
1603.6154768937
 20
94.3768525848
 30
0.0
 70
         1
  0
VERTEX
  5
1EC
100
AcDbEntity
  8
L1_130
  6
CONTINUOUS
 62
         7
100
AcDbVertex
100
AcDb2dVertex
 10
1603.8920732086
 20
94.2023176927
 30
0.0
 70
         1
  0
VERTEX
  5
1EE
100
AcDbEntity
  8
L1_130
  6
CONTINUOUS
 62
         7
100
AcDbVertex
100
AcDb2dVertex
 10
1604.181780454
 20
94.0471399125
 30
0.0
 70
         1
  0
VERTEX
  5
1F0
100
AcDbEntity
  8
L1_130
  6
CONTINUOUS
 62
         7
100
AcDbVertex
100
AcDb2dVertex
 10
1604.4815322051
 20
93.912218862
 30
0.0
 70
         1
  0
VERTEX
  5
1F2
100
AcDbEntity
  8
L1_130
  6
CONTINUOUS
 62
         7
100
AcDbVertex
100
AcDb2dVertex
 10
1604.788195099
 20
93.7980260726
 30
0.0
 70
         1
  0
VERTEX
  5
1F4
100
AcDbEntity
  8
L1_130
  6
CONTINUOUS
 62
         7
100
AcDbVertex
100
AcDb2dVertex
 10
1605.0986715467
 20
93.7046153574
 30
0.0
 70
         1
  0
VERTEX
  5
1F6
100
AcDbEntity
  8
L1_130
  6
CONTINUOUS
 62
         7
100
AcDbVertex
100
AcDb2dVertex
 10
1605.5157274576
 20
93.6113554906
 30
0.0
 70
         1
  0
VERTEX
  5
1F8
100
AcDbEntity
  8
L1_130
  6
CONTINUOUS
 62
         7
100
AcDbVertex
100
AcDb2dVertex
 10
1605.9277870341
 20
93.5530486135
 30
0.0
 70
         1
  0
VERTEX
  5
1FA
100
AcDbEntity
  8
L1_130
  6
CONTINUOUS
 62
         7
100
AcDbVertex
100
AcDb2dVertex
 10
1606.3292203073
 20
93.5270671768
 30
0.0
 70
         1
  0
VERTEX
  5
1FC
100
AcDbEntity
  8
L1_130
  6
CONTINUOUS
 62
         7
100
AcDbVertex
100
AcDb2dVertex
 10
1606.7154462028
 20
93.5301721789
 30
0.0
 70
         1
  0
VERTEX
  5
1FE
100
AcDbEntity
  8
L1_130
  6
CONTINUOUS
 62
         7
100
AcDbVertex
100
AcDb2dVertex
 10
1607.0829716049
 20
93.5587689794
 30
0.0
 70
         1
  0
VERTEX
  5
200
100
AcDbEntity
  8
L1_130
  6
CONTINUOUS
 62
         7
100
AcDbVertex
100
AcDb2dVertex
 10
1607.429348962
 20
93.6091342988
 30
0.0
 70
         1
  0
VERTEX
  5
202
100
AcDbEntity
  8
L1_130
  6
CONTINUOUS
 62
         7
100
AcDbVertex
100
AcDb2dVertex
 10
1607.7530761473
 20
93.6776010271
 30
0.0
 70
         1
  0
VERTEX
  5
204
100
AcDbEntity
  8
L1_130
  6
CONTINUOUS
 62
         7
100
AcDbVertex
100
AcDb2dVertex
 10
1608.1511413514
 20
93.7919987018
 30
0.0
 70
         1
  0
VERTEX
  5
206
100
AcDbEntity
  8
L1_130
  6
CONTINUOUS
 62
         7
100
AcDbVertex
100
AcDb2dVertex
 10
1608.5073137769
 20
93.92524606
 30
0.0
 70
         1
  0
VERTEX
  5
208
100
AcDbEntity
  8
L1_130
  6
CONTINUOUS
 62
         7
100
AcDbVertex
100
AcDb2dVertex
 10
1608.8232604967
 20
94.0708942615
 30
0.0
 70
         1
  0
VERTEX
  5
20A
100
AcDbEntity
  8
L1_130
  6
CONTINUOUS
 62
         7
100
AcDbVertex
100
AcDb2dVertex
 10
1609.1016298784
 20
94.2236635019
 30
0.0
 70
         1
  0
VERTEX
  5
20C
100
AcDbEntity
  8
L1_130
  6
CONTINUOUS
 62
         7
100
AcDbVertex
100
AcDb2dVertex
 10
1609.345612564
 20
94.3793758853
 30
0.0
 70
         1
  0
VERTEX
  5
20E
100
AcDbEntity
  8
L1_130
  6
CONTINUOUS
 62
         7
100
AcDbVertex
100
AcDb2dVertex
 10
1609.6258451144
 20
94.5881995658
 30
0.0
 70
         1
  0
VERTEX
  5
210
100
AcDbEntity
  8
L1_130
  6
CONTINUOUS
 62
         7
100
AcDbVertex
100
AcDb2dVertex
 10
1609.8581189143
 20
94.7911248629
 30
0.0
 70
         1
  0
VERTEX
  5
212
100
AcDbEntity
  8
L1_130
  6
CONTINUOUS
 62
         7
100
AcDbVertex
100
AcDb2dVertex
 10
1610.0500608715
 20
94.984687065
 30
0.0
 70
         1
  0
VERTEX
  5
214
100
AcDbEntity
  8
L1_130
  6
CONTINUOUS
 62
         7
100
AcDbVertex
100
AcDb2dVertex
 10
1610.2572214746
 20
95.2280809474
 30
0.0
 70
         1
  0
VERTEX
  5
216
100
AcDbEntity
  8
L1_130
  6
CONTINUOUS
 62
         7
100
AcDbVertex
100
AcDb2dVertex
 10
1610.416880575
 20
95.4489119615
 30
0.0
 70
         1
  0
VERTEX
  5
218
100
AcDbEntity
  8
L1_130
  6
CONTINUOUS
 62
         7
100
AcDbVertex
100
AcDb2dVertex
 10
1610.5770010457
 20
95.7130174813
 30
0.0
 70
         1
  0
VERTEX
  5
21A
100
AcDbEntity
  8
L1_130
  6
CONTINUOUS
 62
         7
100
AcDbVertex
100
AcDb2dVertex
 10
1610.6900180242
 20
95.9388671728
 30
0.0
 70
         1
  0
VERTEX
  5
21C
100
AcDbEntity
  8
L1_130
  6
CONTINUOUS
 62
         7
100
AcDbVertex
100
AcDb2dVertex
 10
1610.7935090238
 20
96.1941108418
 30
0.0
 70
         1
  0
VERTEX
  5
21E
100
AcDbEntity
  8
L1_130
  6
CONTINUOUS
 62
         7
100
AcDbVertex
100
AcDb2dVertex
 10
1610.8770644154
 20
96.4646945114
 30
0.0
 70
         1
  0
VERTEX
  5
220
100
AcDbEntity
  8
L1_130
  6
CONTINUOUS
 62
         7
100
AcDbVertex
100
AcDb2dVertex
 10
1610.9339775426
 20
96.7282156452
 30
0.0
 70
         1
  0
VERTEX
  5
222
100
AcDbEntity
  8
L1_130
  6
CONTINUOUS
 62
         7
100
AcDbVertex
100
AcDb2dVertex
 10
1610.9645572127
 20
96.9571302284
 30
0.0
 70
         1
  0
VERTEX
  5
224
100
AcDbEntity
  8
L1_130
  6
CONTINUOUS
 62
         7
100
AcDbVertex
100
AcDb2dVertex
 10
1610.9778651111
 20
97.1806197843
 30
0.0
 70
         1
  0
VERTEX
  5
226
100
AcDbEntity
  8
L1_130
  6
CONTINUOUS
 62
         7
100
AcDbVertex
100
AcDb2dVertex
 10
1610.9786999334
 20
97.2524138478
 30
0.0
 70
         1
  0
SEQEND
  5
228
100
AcDbEntity
  8
L1_130
  6
CONTINUOUS
 62
         7
  0
POLYLINE
  5
22A
100
AcDbEntity
  8
L1_130
  6
CONTINUOUS
 62
         7
100
AcDb2dPolyline
 66
         1
 10
0.0
 20
0.0
 30
0.0
 70
         2
  0
VERTEX
  5
22C
100
AcDbEntity
  8
L1_130
  6
CONTINUOUS
 62
         7
100
AcDbVertex
100
AcDb2dVertex
 10
1610.9786999334
 20
97.2524144386
 30
0.0
 70
         1
  0
VERTEX
  5
22E
100
AcDbEntity
  8
L1_130
  6
CONTINUOUS
 62
         7
100
AcDbVertex
100
AcDb2dVertex
 10
1610.9390805559
 20
97.7908825091
 30
0.0
 70
         1
  0
VERTEX
  5
230
100
AcDbEntity
  8
L1_130
  6
CONTINUOUS
 62
         7
100
AcDbVertex
100
AcDb2dVertex
 10
1610.8871343997
 20
98.068638914
 30
0.0
 70
         1
  0
VERTEX
  5
232
100
AcDbEntity
  8
L1_130
  6
CONTINUOUS
 62
         7
100
AcDbVertex
100
AcDb2dVertex
 10
1610.8119104773
 20
98.3493635748
 30
0.0
 70
         1
  0
VERTEX
  5
234
100
AcDbEntity
  8
L1_130
  6
CONTINUOUS
 62
         7
100
AcDbVertex
100
AcDb2dVertex
 10
1610.7123916207
 20
98.6306840887
 30
0.0
 70
         1
  0
VERTEX
  5
236
100
AcDbEntity
  8
L1_130
  6
CONTINUOUS
 62
         7
100
AcDbVertex
100
AcDb2dVertex
 10
1610.5879435466
 20
98.9100095008
 30
0.0
 70
         1
  0
VERTEX
  5
238
100
AcDbEntity
  8
L1_130
  6
CONTINUOUS
 62
         7
100
AcDbVertex
100
AcDb2dVertex
 10
1610.4383750847
 20
99.1845928119
 30
0.0
 70
         1
  0
VERTEX
  5
23A
100
AcDbEntity
  8
L1_130
  6
CONTINUOUS
 62
         7
100
AcDbVertex
100
AcDb2dVertex
 10
1610.2639832726
 20
99.4516084223
 30
0.0
 70
         1
  0
VERTEX
  5
23C
100
AcDbEntity
  8
L1_130
  6
CONTINUOUS
 62
         7
100
AcDbVertex
100
AcDb2dVertex
 10
1610.0655782872
 20
99.7082409164
 30
0.0
 70
         1
  0
VERTEX
  5
23E
100
AcDbEntity
  8
L1_130
  6
CONTINUOUS
 62
         7
100
AcDbVertex
100
AcDb2dVertex
 10
1609.8444844344
 20
99.9517800691
 30
0.0
 70
         1
  0
VERTEX
  5
240
100
AcDbEntity
  8
L1_130
  6
CONTINUOUS
 62
         7
100
AcDbVertex
100
AcDb2dVertex
 10
1609.6025152883
 20
100.1797158479
 30
0.0
 70
         1
  0
VERTEX
  5
242
100
AcDbEntity
  8
L1_130
  6
CONTINUOUS
 62
         7
100
AcDbVertex
100
AcDb2dVertex
 10
1609.3419233545
 20
100.3898267282
 30
0.0
 70
         1
  0
VERTEX
  5
244
100
AcDbEntity
  8
L1_130
  6
CONTINUOUS
 62
         7
100
AcDbVertex
100
AcDb2dVertex
 10
1609.0653270267
 20
100.5802549429
 30
0.0
 70
         1
  0
VERTEX
  5
246
100
AcDbEntity
  8
L1_130
  6
CONTINUOUS
 62
         7
100
AcDbVertex
100
AcDb2dVertex
 10
1608.7756197602
 20
100.7495633704
 30
0.0
 70
         1
  0
VERTEX
  5
248
100
AcDbEntity
  8
L1_130
  6
CONTINUOUS
 62
         7
100
AcDbVertex
100
AcDb2dVertex
 10
1608.4758679807
 20
100.8967704719
 30
0.0
 70
         1
  0
VERTEX
  5
24A
100
AcDbEntity
  8
L1_130
  6
CONTINUOUS
 62
         7
100
AcDbVertex
100
AcDb2dVertex
 10
1608.1692050521
 20
101.0213617771
 30
0.0
 70
         1
  0
VERTEX
  5
24C
100
AcDbEntity
  8
L1_130
  6
CONTINUOUS
 62
         7
100
AcDbVertex
100
AcDb2dVertex
 10
1607.8587285645
 20
101.1232785718
 30
0.0
 70
         1
  0
VERTEX
  5
24E
100
AcDbEntity
  8
L1_130
  6
CONTINUOUS
 62
         7
100
AcDbVertex
100
AcDb2dVertex
 10
1607.5474073331
 20
101.2028863624
 30
0.0
 70
         1
  0
VERTEX
  5
250
100
AcDbEntity
  8
L1_130
  6
CONTINUOUS
 62
         7
100
AcDbVertex
100
AcDb2dVertex
 10
1607.2380030299
 20
101.2609271338
 30
0.0
 70
         1
  0
VERTEX
  5
252
100
AcDbEntity
  8
L1_130
  6
CONTINUOUS
 62
         7
100
AcDbVertex
100
AcDb2dVertex
 10
1606.830529546
 20
101.3067899221
 30
0.0
 70
         1
  0
VERTEX
  5
254
100
AcDbEntity
  8
L1_130
  6
CONTINUOUS
 62
         7
100
AcDbVertex
100
AcDb2dVertex
 10
1606.4360712436
 20
101.3190563257
 30
0.0
 70
         1
  0
VERTEX
  5
256
100
AcDbEntity
  8
L1_130
  6
CONTINUOUS
 62
         7
100
AcDbVertex
100
AcDb2dVertex
 10
1606.058673379
 20
101.3014845315
 30
0.0
 70
         1
  0
VERTEX
  5
258
100
AcDbEntity
  8
L1_130
  6
CONTINUOUS
 62
         7
100
AcDbVertex
100
AcDb2dVertex
 10
1605.7013053467
 20
101.2580938581
 30
0.0
 70
         1
  0
VERTEX
  5
25A
100
AcDbEntity
  8
L1_130
  6
CONTINUOUS
 62
         7
100
AcDbVertex
100
AcDb2dVertex
 10
1605.3659345313
 20
101.1929385271
 30
0.0
 70
         1
  0
VERTEX
  5
25C
100
AcDbEntity
  8
L1_130
  6
CONTINUOUS
 62
         7
100
AcDbVertex
100
AcDb2dVertex
 10
1605.0536460288
 20
101.1099310912
 30
0.0
 70
         1
  0
VERTEX
  5
25E
100
AcDbEntity
  8
L1_130
  6
CONTINUOUS
 62
         7
100
AcDbVertex
100
AcDb2dVertex
 10
1604.6710311751
 20
100.9766881196
 30
0.0
 70
         1
  0
VERTEX
  5
260
100
AcDbEntity
  8
L1_130
  6
CONTINUOUS
 62
         7
100
AcDbVertex
100
AcDb2dVertex
 10
1604.3298450685
 20
100.8256039384
 30
0.0
 70
         1
  0
VERTEX
  5
262
100
AcDbEntity
  8
L1_130
  6
CONTINUOUS
 62
         7
100
AcDbVertex
100
AcDb2dVertex
 10
1604.0280030337
 20
100.6632452465
 30
0.0
 70
         1
  0
VERTEX
  5
264
100
AcDbEntity
  8
L1_130
  6
CONTINUOUS
 62
         7
100
AcDbVertex
100
AcDb2dVertex
 10
1603.7626133267
 20
100.4949194407
 30
0.0
 70
         1
  0
VERTEX
  5
266
100
AcDbEntity
  8
L1_130
  6
CONTINUOUS
 62
         7
100
AcDbVertex
100
AcDb2dVertex
 10
1603.5303738611
 20
100.3247770762
 30
0.0
 70
         1
  0
VERTEX
  5
268
100
AcDbEntity
  8
L1_130
  6
CONTINUOUS
 62
         7
100
AcDbVertex
100
AcDb2dVertex
 10
1603.2639792858
 20
100.0981973751
 30
0.0
 70
         1
  0
VERTEX
  5
26A
100
AcDbEntity
  8
L1_130
  6
CONTINUOUS
 62
         7
100
AcDbVertex
100
AcDb2dVertex
 10
1603.043394211
 20
99.8792760562
 30
0.0
 70
         1
  0
VERTEX
  5
26C
100
AcDbEntity
  8
L1_130
  6
CONTINUOUS
 62
         7
100
AcDbVertex
100
AcDb2dVertex
 10
1602.8612118088
 20
99.6712927097
 30
0.0
 70
         1
  0
VERTEX
  5
26E
100
AcDbEntity
  8
L1_130
  6
CONTINUOUS
 62
         7
100
AcDbVertex
100
AcDb2dVertex
 10
1602.6646301423
 20
99.4106045637
 30
0.0
 70
         1
  0
VERTEX
  5
270
100
AcDbEntity
  8
L1_130
  6
CONTINUOUS
 62
         7
100
AcDbVertex
100
AcDb2dVertex
 10
1602.5131104975
 20
99.1746606855
 30
0.0
 70
         1
  0
VERTEX
  5
272
100
AcDbEntity
  8
L1_130
  6
CONTINUOUS
 62
         7
100
AcDbVertex
100
AcDb2dVertex
 10
1602.3610886612
 20
98.8929622578
 30
0.0
 70
         1
  0
VERTEX
  5
274
100
AcDbEntity
  8
L1_130
  6
CONTINUOUS
 62
         7
100
AcDbVertex
100
AcDb2dVertex
 10
1602.2537110398
 20
98.6523255519
 30
0.0
 70
         1
  0
VERTEX
  5
276
100
AcDbEntity
  8
L1_130
  6
CONTINUOUS
 62
         7
100
AcDbVertex
100
AcDb2dVertex
 10
1602.155290339
 20
98.3805068437
 30
0.0
 70
         1
  0
VERTEX
  5
278
100
AcDbEntity
  8
L1_130
  6
CONTINUOUS
 62
         7
100
AcDbVertex
100
AcDb2dVertex
 10
1602.0757256431
 20
98.0923652942
 30
0.0
 70
         1
  0
VERTEX
  5
27A
100
AcDbEntity
  8
L1_130
  6
CONTINUOUS
 62
         7
100
AcDbVertex
100
AcDb2dVertex
 10
1602.0214459948
 20
97.811628907
 30
0.0
 70
         1
  0
VERTEX
  5
27C
100
AcDbEntity
  8
L1_130
  6
CONTINUOUS
 62
         7
100
AcDbVertex
100
AcDb2dVertex
 10
1601.9922331698
 20
97.5675796139
 30
0.0
 70
         1
  0
VERTEX
  5
27E
100
AcDbEntity
  8
L1_130
  6
CONTINUOUS
 62
         7
100
AcDbVertex
100
AcDb2dVertex
 10
1601.9794997258
 20
97.3290858547
 30
0.0
 70
         1
  0
VERTEX
  5
280
100
AcDbEntity
  8
L1_130
  6
CONTINUOUS
 62
         7
100
AcDbVertex
100
AcDb2dVertex
 10
1601.9786999334
 20
97.2524144386
 30
0.0
 70
         1
  0
SEQEND
  5
282
100
AcDbEntity
  8
L1_130
  6
CONTINUOUS
 62
         7
  0
LINE
  5
283
100
AcDbEntity
  8
L1_130
  6
CENTER
 62
         1
100
AcDbLine
 10
1610.9786999334
 20
97.2524144385
 30
0.0
 11
1601.9786999334
 21
97.2524144385
 31
0.0
  0
LINE
  5
284
100
AcDbEntity
  8
L1_130
  6
CONTINUOUS
 62
         7
100
AcDbLine
 10
1422.1786999334
 20
130.1987502026
 30
0.0
 11
1422.1786999334
 21
94.3060786745
 31
0.0
  0
LINE
  5
285
100
AcDbEntity
  8
L1_130
  6
CONTINUOUS
 62
         7
100
AcDbLine
 10
1526.9786999334
 20
159.5024144385
 30
0.0
 11
1526.9786999334
 21
65.0024144385
 31
0.0
  0
LINE
  5
286
100
AcDbEntity
  8
L1_130
  6
CENTER
 62
         1
100
AcDbLine
 10
1523.7786999334
 20
151.9774144385
 30
0.0
 11
1523.7786999334
 21
73.981360093
 31
0.0
  0
LINE
  5
287
100
AcDbEntity
  8
_Y__________
  6
CONTINUOUS
 62
         7
100
AcDbLine
 10
1558.8306999334
 20
-161.6650166132
 30
0.0
 11
1559.4628067146
 21
-161.032909832
 31
0.0
  0
LINE
  5
288
100
AcDbEntity
  8
_Y__________
  6
CONTINUOUS
 62
         7
100
AcDbLine
 10
1558.8306999334
 20
-91.8150166132
 30
0.0
 11
1559.4628067146
 21
-92.4471233944
 31
0.0
  0
LINE
  5
289
100
AcDbEntity
  8
_Y__________
  6
CONTINUOUS
 62
         7
100
AcDbLine
 10
1558.8306999334
 20
77.3274144385
 30
0.0
 11
1559.4628067146
 21
77.9595212197
 31
0.0
  0
LINE
  5
28A
100
AcDbEntity
  8
_Y__________
  6
CONTINUOUS
 62
         7
100
AcDbLine
 10
1558.8306999334
 20
147.1774144385
 30
0.0
 11
1559.4628067146
 21
146.5453076574
 31
0.0
  0
LINE
  5
28B
100
AcDbEntity
  8
_Y__________
  6
CONTINUOUS
 62
         7
100
AcDbLine
 10
1476.4786999334
 20
-137.1363580766
 30
0.0
 11
1482.4810304759
 21
-126.7400166132
 31
0.0
  0
LINE
  5
28C
100
AcDbEntity
  8
_Y__________
  6
CONTINUOUS
 62
         7
100
AcDbLine
 10
1476.4786999334
 20
-116.3436751498
 30
0.0
 11
1482.4810304759
 21
-126.7400166132
 31
0.0
  0
LINE
  5
28D
100
AcDbEntity
  8
_Y__________
  6
CONTINUOUS
 62
         7
100
AcDbLine
 10
1476.4786999334
 20
-137.1363580766
 30
0.0
 11
1430.4480438949
 21
-137.1363580766
 31
0.0
  0
LINE
  5
28E
100
AcDbEntity
  8
_Y__________
  6
CONTINUOUS
 62
         7
100
AcDbLine
 10
1476.4786999334
 20
-116.3436751498
 30
0.0
 11
1430.4480438949
 21
-116.3436751498
 31
0.0
  0
LINE
  5
28F
100
AcDbEntity
  8
_Y__________
  6
CONTINUOUS
 62
         7
100
AcDbLine
 10
1476.4786999334
 20
-116.3436751498
 30
0.0
 11
1476.4786999334
 21
-137.1363580766
 31
0.0
  0
LINE
  5
290
100
AcDbEntity
  8
_Y__________
  6
CONTINUOUS
 62
         7
100
AcDbLine
 10
1558.0306999334
 20
-161.6650166132
 30
0.0
 11
1557.0306999334
 21
-161.6650166132
 31
0.0
  0
LINE
  5
291
100
AcDbEntity
  8
_Y__________
  6
CONTINUOUS
 62
         7
100
AcDbLine
 10
1558.0306999334
 20
-91.8150166132
 30
0.0
 11
1557.0306999334
 21
-91.8150166132
 31
0.0
  0
LINE
  5
292
100
AcDbEntity
  8
_Y__________
  6
CONTINUOUS
 62
         7
100
AcDbLine
 10
1558.8306999334
 20
147.1774144385
 30
0.0
 11
1558.8306999334
 21
77.3274144385
 31
0.0
  0
LINE
  5
293
100
AcDbEntity
  8
_Y__________
  6
CONTINUOUS
 62
         7
100
AcDbLine
 10
1542.8786999334
 20
98.4024144385
 30
0.0
 11
1538.4149703322
 21
98.4024144385
 31
0.0
  0
LINE
  5
294
100
AcDbEntity
  8
_Y__________
  6
CONTINUOUS
 62
         7
100
AcDbLine
 10
1531.3424295346
 20
98.4024144385
 30
0.0
 11
1526.9786999334
 21
98.4024144385
 31
0.0
  0
LINE
  5
295
100
AcDbEntity
  8
_Y__________
  6
CONTINUOUS
 62
         7
100
AcDbLine
 10
1526.9786999334
 20
98.4024144385
 30
0.0
 11
1527.9987940983
 21
99.4225086035
 31
0.0
  0
LINE
  5
296
100
AcDbEntity
  8
_Y__________
  6
CONTINUOUS
 62
         7
100
AcDbLine
 10
1531.3424295346
 20
98.4024144385
 30
0.0
 11
1533.0036999334
 21
99.4225086035
 31
0.0
  0
LINE
  5
297
100
AcDbEntity
  8
_Y__________
  6
CONTINUOUS
 62
         7
100
AcDbLine
 10
1541.7586057685
 20
99.4225086035
 30
0.0
 11
1527.9987940983
 21
99.4225086035
 31
0.0
  0
LINE
  5
298
100
AcDbEntity
  8
_Y__________
  6
CONTINUOUS
 62
         7
100
AcDbLine
 10
1541.7586057685
 20
99.4225086035
 30
0.0
 11
1527.9987940983
 21
99.4225086035
 31
0.0
  0
LINE
  5
299
100
AcDbEntity
  8
_Y__________
  6
CONTINUOUS
 62
         7
100
AcDbLine
 10
1536.7536999334
 20
99.4225086035
 30
0.0
 11
1538.4149703322
 21
98.4024144385
 31
0.0
  0
LINE
  5
29A
100
AcDbEntity
  8
_Y__________
  6
CONTINUOUS
 62
         7
100
AcDbLine
 10
1542.7786999334
 20
98.4024144385
 30
0.0
 11
1541.7586057685
 21
99.4225086035
 31
0.0
  0
LINE
  5
29B
100
AcDbEntity
  8
_Y__________
  6
CONTINUOUS
 62
         7
100
AcDbLine
 10
1538.4149703322
 20
98.4024144385
 30
0.0
 11
1538.4149703322
 21
63.5024144385
 31
0.0
  0
LINE
  5
29C
100
AcDbEntity
  8
_Y__________
  6
CONTINUOUS
 62
         7
100
AcDbLine
 10
1536.7536999334
 20
99.4225086035
 30
0.0
 11
1536.7536999334
 21
66.3798039001
 31
0.0
  0
LINE
  5
29D
100
AcDbEntity
  8
_Y__________
  6
CONTINUOUS
 62
         7
100
AcDbLine
 10
1533.0036999334
 20
99.4225086035
 30
0.0
 11
1533.0036999334
 21
66.3798039001
 31
0.0
  0
LINE
  5
29E
100
AcDbEntity
  8
_Y__________
  6
CONTINUOUS
 62
         7
100
AcDbLine
 10
1531.3424295346
 20
98.4024144385
 30
0.0
 11
1531.3424295346
 21
63.5024144385
 31
0.0
  0
LINE
  5
29F
100
AcDbEntity
  8
_Y__________
  6
CONTINUOUS
 62
         7
100
AcDbLine
 10
1542.8786999334
 20
126.1024144385
 30
0.0
 11
1538.4149703322
 21
126.1024144385
 31
0.0
  0
LINE
  5
2A0
100
AcDbEntity
  8
_Y__________
  6
CONTINUOUS
 62
         7
100
AcDbLine
 10
1531.3424295346
 20
126.1024144385
 30
0.0
 11
1533.0036999334
 21
125.0823202736
 31
0.0
  0
LINE
  5
2A1
100
AcDbEntity
  8
_Y__________
  6
CONTINUOUS
 62
         7
100
AcDbLine
 10
1526.9786999334
 20
126.1024144385
 30
0.0
 11
1527.9987940983
 21
125.0823202736
 31
0.0
  0
LINE
  5
2A2
100
AcDbEntity
  8
_Y__________
  6
CONTINUOUS
 62
         7
100
AcDbLine
 10
1531.3424295346
 20
126.1024144385
 30
0.0
 11
1526.9786999334
 21
126.1024144385
 31
0.0
  0
LINE
  5
2A3
100
AcDbEntity
  8
_Y__________
  6
CONTINUOUS
 62
         7
100
AcDbLine
 10
1541.7586057685
 20
125.0823202736
 30
0.0
 11
1527.9987940983
 21
125.0823202736
 31
0.0
  0
LINE
  5
2A4
100
AcDbEntity
  8
_Y__________
  6
CONTINUOUS
 62
         7
100
AcDbLine
 10
1541.7586057685
 20
125.0823202736
 30
0.0
 11
1527.9987940983
 21
125.0823202736
 31
0.0
  0
LINE
  5
2A5
100
AcDbEntity
  8
_Y__________
  6
CONTINUOUS
 62
         7
100
AcDbLine
 10
1536.7536999334
 20
125.0823202736
 30
0.0
 11
1538.4149703322
 21
126.1024144385
 31
0.0
  0
LINE
  5
2A6
100
AcDbEntity
  8
_Y__________
  6
CONTINUOUS
 62
         7
100
AcDbLine
 10
1542.7786999334
 20
126.1024144385
 30
0.0
 11
1541.7586057685
 21
125.0823202736
 31
0.0
  0
LINE
  5
2A7
100
AcDbEntity
  8
_Y__________
  6
CONTINUOUS
 62
         7
100
AcDbLine
 10
1538.4149703322
 20
161.0024144385
 30
0.0
 11
1538.4149703322
 21
126.1024144385
 31
0.0
  0
LINE
  5
2A8
100
AcDbEntity
  8
_Y__________
  6
CONTINUOUS
 62
         7
100
AcDbLine
 10
1536.7536999334
 20
158.125024977
 30
0.0
 11
1536.7536999334
 21
125.0823202736
 31
0.0
  0
LINE
  5
2A9
100
AcDbEntity
  8
_Y__________
  6
CONTINUOUS
 62
         7
100
AcDbLine
 10
1533.0036999334
 20
158.125024977
 30
0.0
 11
1533.0036999334
 21
125.0823202736
 31
0.0
  0
LINE
  5
2AA
100
AcDbEntity
  8
_Y__________
  6
CONTINUOUS
 62
         7
100
AcDbLine
 10
1531.3424295346
 20
161.0024144385
 30
0.0
 11
1531.3424295346
 21
126.1024144385
 31
0.0
  0
ARC
  5
2AB
100
AcDbEntity
  8
_Y__________
  6
DASHED
 62
         2
100
AcDbCircle
 10
1845.8340594905
 20
112.2524144385
 30
0.0
 40
45.625
100
AcDbArc
 50
197.6716498685
 51
343.6416615206
  0
ARC
  5
2AC
100
AcDbEntity
  8
_Y__________
  6
CONTINUOUS
 62
         7
100
AcDbCircle
 10
1845.8340594905
 20
112.2524144385
 30
0.0
 40
48.75
100
AcDbArc
 50
16.5052120024
 51
163.4947879976
  0
ARC
  5
2AD
100
AcDbEntity
  8
_Y__________
  6
DASHED
 62
         2
100
AcDbCircle
 10
1845.8340594905
 20
112.2524144385
 30
0.0
 40
45.625
100
AcDbArc
 50
16.3583384794
 51
163.6416615206
  0
ARC
  5
2AE
100
AcDbEntity
  8
_Y__________
  6
CONTINUOUS
 62
         7
100
AcDbCircle
 10
1845.8340594905
 20
112.2524144385
 30
0.0
 40
48.75
100
AcDbArc
 50
196.5052120024
 51
343.4947879976
  0
LINE
  5
2AF
100
AcDbEntity
  8
_Y__________
  6
CENTER
 62
         1
100
AcDbLine
 10
1791.0840594905
 20
112.2524144385
 30
0.0
 11
1900.5840594905
 21
112.2524144385
 31
0.0
  0
LINE
  5
2B0
100
AcDbEntity
  8
_Y__________
  6
CENTER
 62
         1
100
AcDbLine
 10
1845.8340594905
 20
57.5024144385
 30
0.0
 11
1845.8340594905
 21
164.4170373134
 31
0.0
  0
LINE
  5
2B1
100
AcDbEntity
  8
_Y__________
  6
CONTINUOUS
 62
         7
100
AcDbLine
 10
1881.3340594905
 20
124.6024144385
 30
0.0
 11
1881.3340594905
 21
99.9024144385
 31
0.0
  0
LINE
  5
2B2
100
AcDbEntity
  8
_Y__________
  6
CONTINUOUS
 62
         7
100
AcDbLine
 10
1891.5752618713
 20
125.1024144385
 30
0.0
 11
1881.8340594905
 21
125.1024144385
 31
0.0
  0
LINE
  5
2B3
100
AcDbEntity
  8
_Y__________
  6
CONTINUOUS
 62
         7
100
AcDbLine
 10
1892.5752618713
 20
126.1024144385
 30
0.0
 11
1891.5752618713
 21
125.1024144385
 31
0.0
  0
LINE
  5
2B4
100
AcDbEntity
  8
_Y__________
  6
CONTINUOUS
 62
         7
100
AcDbLine
 10
1892.5752618713
 20
98.4024144385
 30
0.0
 11
1891.5752618713
 21
99.4024144385
 31
0.0
  0
LINE
  5
2B5
100
AcDbEntity
  8
_Y__________
  6
CONTINUOUS
 62
         7
100
AcDbLine
 10
1891.5752618713
 20
99.4024144385
 30
0.0
 11
1881.8340594905
 21
99.4024144385
 31
0.0
  0
LINE
  5
2B6
100
AcDbEntity
  8
_Y__________
  6
CONTINUOUS
 62
         7
100
AcDbLine
 10
1881.3340594905
 20
124.6024144385
 30
0.0
 11
1881.8340594905
 21
125.1024144385
 31
0.0
  0
LINE
  5
2B7
100
AcDbEntity
  8
_Y__________
  6
CONTINUOUS
 62
         7
100
AcDbLine
 10
1881.3340594905
 20
99.9024144385
 30
0.0
 11
1881.8340594905
 21
99.4024144385
 31
0.0
  0
LINE
  5
2B8
100
AcDbEntity
  8
_Y__________
  6
CONTINUOUS
 62
         7
100
AcDbLine
 10
1808.1340594905
 20
99.9024144385
 30
0.0
 11
1807.6340594905
 21
99.4024144385
 31
0.0
  0
LINE
  5
2B9
100
AcDbEntity
  8
_Y__________
  6
CONTINUOUS
 62
         7
100
AcDbLine
 10
1807.6340594905
 20
125.1024144385
 30
0.0
 11
1808.1340594905
 21
124.6024144385
 31
0.0
  0
LINE
  5
2BA
100
AcDbEntity
  8
_Y__________
  6
CONTINUOUS
 62
         7
100
AcDbLine
 10
1808.1340594905
 20
124.6024144385
 30
0.0
 11
1808.1340594905
 21
99.9024144385
 31
0.0
  0
LINE
  5
2BB
100
AcDbEntity
  8
_Y__________
  6
CONTINUOUS
 62
         7
100
AcDbLine
 10
1799.0928571098
 20
126.1024144385
 30
0.0
 11
1800.0928571098
 21
125.1024144385
 31
0.0
  0
LINE
  5
2BC
100
AcDbEntity
  8
_Y__________
  6
CONTINUOUS
 62
         7
100
AcDbLine
 10
1800.0928571098
 20
125.1024144385
 30
0.0
 11
1807.6340594905
 21
125.1024144385
 31
0.0
  0
LINE
  5
2BD
100
AcDbEntity
  8
_Y__________
  6
CONTINUOUS
 62
         7
100
AcDbLine
 10
1799.0928571098
 20
98.4024144385
 30
0.0
 11
1800.0928571098
 21
99.4024144385
 31
0.0
  0
LINE
  5
2BE
100
AcDbEntity
  8
_Y__________
  6
CONTINUOUS
 62
         7
100
AcDbLine
 10
1800.0928571098
 20
99.4024144385
 30
0.0
 11
1807.6340594905
 21
99.4024144385
 31
0.0
  0
LINE
  5
2BF
100
AcDbEntity
  8
_Y__________
  6
CENTER
 62
         1
100
AcDbLine
 10
1239.9233403763
 20
165.6922817905
 30
0.0
 11
1239.9233403763
 21
50.6023837096
 31
0.0
  0
ARC
  5
2C0
100
AcDbEntity
  8
_Y__________
  6
CONTINUOUS
 62
         7
100
AcDbCircle
 10
1239.9233403763
 20
112.2524144385
 30
0.0
 40
48.75
100
AcDbArc
 50
16.5052120024
 51
163.4947879976
  0
LINE
  5
2C1
100
AcDbEntity
  8
_Y__________
  6
CENTER
 62
         1
100
AcDbLine
 10
1283.2887501132
 20
112.2524144385
 30
0.0
 11
1193.3587947809
 21
112.2524144385
 31
0.0
  0
ARC
  5
2C2
100
AcDbEntity
  8
_Y__________
  6
CONTINUOUS
 62
         7
100
AcDbCircle
 10
1239.9233403763
 20
112.2524144385
 30
0.0
 40
48.75
100
AcDbArc
 50
196.5052120024
 51
343.4947879976
  0
CIRCLE
  5
2C3
100
AcDbEntity
  8
_Y__________
  6
CONTINUOUS
 62
         7
100
AcDbCircle
 10
1239.9233403763
 20
112.2524144385
 30
0.0
 40
34.925
  0
CIRCLE
  5
2C4
100
AcDbEntity
  8
_Y__________
  6
CONTINUOUS
 62
         7
100
AcDbCircle
 10
1239.9233403763
 20
112.2524144385
 30
0.0
 40
20.3982925257
  0
CIRCLE
  5
2C5
100
AcDbEntity
  8
_Y__________
  6
CONTINUOUS
 62
         7
100
AcDbCircle
 10
1239.9233403763
 20
112.2524144385
 30
0.0
 40
10.3963414634
  0
ARC
  5
2C6
100
AcDbEntity
  8
_Y__________
  6
CONTINUOUS
 62
         4
100
AcDbCircle
 10
1239.9233403763
 20
112.2524144385
 30
0.0
 40
12.0
100
AcDbArc
 50
278.1340859252
 51
549.6704111119
  0
CIRCLE
  5
2C7
100
AcDbEntity
  8
_Y__________
  6
CONTINUOUS
 62
         7
100
AcDbCircle
 10
1239.9233403763
 20
112.2524144385
 30
0.0
 40
12.6589889012
  0
LINE
  5
2C8
100
AcDbEntity
  8
_Y__________
  6
CONTINUOUS
 62
         7
100
AcDbLine
 10
1203.9233403763
 20
99.9024144385
 30
0.0
 11
1203.9233403763
 21
124.6024144385
 31
0.0
  0
LINE
  5
2C9
100
AcDbEntity
  8
_Y__________
  6
CONTINUOUS
 62
         7
100
AcDbLine
 10
1194.1821379955
 20
99.4024144385
 30
0.0
 11
1203.4233403763
 21
99.4024144385
 31
0.0
  0
LINE
  5
2CA
100
AcDbEntity
  8
_Y__________
  6
CONTINUOUS
 62
         7
100
AcDbLine
 10
1193.1821379955
 20
98.4024144385
 30
0.0
 11
1194.1821379955
 21
99.4024144385
 31
0.0
  0
LINE
  5
2CB
100
AcDbEntity
  8
_Y__________
  6
CONTINUOUS
 62
         7
100
AcDbLine
 10
1193.1821379955
 20
126.1024144385
 30
0.0
 11
1194.1821379955
 21
125.1024144385
 31
0.0
  0
LINE
  5
2CC
100
AcDbEntity
  8
_Y__________
  6
CONTINUOUS
 62
         7
100
AcDbLine
 10
1194.1821379955
 20
125.1024144385
 30
0.0
 11
1203.4233403763
 21
125.1024144385
 31
0.0
  0
LINE
  5
2CD
100
AcDbEntity
  8
_Y__________
  6
CONTINUOUS
 62
         7
100
AcDbLine
 10
1277.6233403763
 20
99.9024144385
 30
0.0
 11
1277.6233403763
 21
124.6024144385
 31
0.0
  0
LINE
  5
2CE
100
AcDbEntity
  8
_Y__________
  6
CONTINUOUS
 62
         7
100
AcDbLine
 10
1285.664542757
 20
125.1024144385
 30
0.0
 11
1278.1233403763
 21
125.1024144385
 31
0.0
  0
LINE
  5
2CF
100
AcDbEntity
  8
_Y__________
  6
CONTINUOUS
 62
         7
100
AcDbLine
 10
1286.664542757
 20
126.1024144385
 30
0.0
 11
1285.664542757
 21
125.1024144385
 31
0.0
  0
LINE
  5
2D0
100
AcDbEntity
  8
_Y__________
  6
CONTINUOUS
 62
         7
100
AcDbLine
 10
1285.664542757
 20
99.4024144385
 30
0.0
 11
1278.1233403763
 21
99.4024144385
 31
0.0
  0
LINE
  5
2D1
100
AcDbEntity
  8
_Y__________
  6
CONTINUOUS
 62
         7
100
AcDbLine
 10
1286.664542757
 20
98.4024144385
 30
0.0
 11
1285.664542757
 21
99.4024144385
 31
0.0
  0
LINE
  5
2D2
100
AcDbEntity
  8
_Y__________
  6
CONTINUOUS
 62
         7
100
AcDbLine
 10
1203.4233403763
 20
99.4024144385
 30
0.0
 11
1203.9233403763
 21
99.9024144385
 31
0.0
  0
LINE
  5
2D3
100
AcDbEntity
  8
_Y__________
  6
CONTINUOUS
 62
         7
100
AcDbLine
 10
1203.9233403763
 20
124.6024144385
 30
0.0
 11
1203.4233403763
 21
125.1024144385
 31
0.0
  0
LINE
  5
2D4
100
AcDbEntity
  8
_Y__________
  6
CONTINUOUS
 62
         7
100
AcDbLine
 10
1278.1233403763
 20
125.1024144385
 30
0.0
 11
1277.6233403763
 21
124.6024144385
 31
0.0
  0
LINE
  5
2D5
100
AcDbEntity
  8
_Y__________
  6
CONTINUOUS
 62
         7
100
AcDbLine
 10
1277.6233403763
 20
99.9024144385
 30
0.0
 11
1278.1233403763
 21
99.4024144385
 31
0.0
  0
CIRCLE
  5
2D6
100
AcDbEntity
  8
_Y__________
  6
CONTINUOUS
 62
         7
100
AcDbCircle
 10
1845.8340594905
 20
112.2524144385
 30
0.0
 40
34.925
  0
LINE
  5
2D7
100
AcDbEntity
  8
_Y__________
  6
DASHED
 62
         2
100
AcDbLine
 10
1808.6340594905
 20
117.2524144385
 30
0.0
 11
1808.6340594905
 21
107.2524144385
 31
0.0
  0
LINE
  5
2D8
100
AcDbEntity
  8
_Y__________
  6
DASHED
 62
         2
100
AcDbLine
 10
1808.6340594905
 20
117.2524144385
 30
0.0
 11
1808.1340594905
 21
117.7524144385
 31
0.0
  0
LINE
  5
2D9
100
AcDbEntity
  8
_Y__________
  6
DASHED
 62
         2
100
AcDbLine
 10
1808.6340594905
 20
107.2524144385
 30
0.0
 11
1808.1340594905
 21
106.7524144385
 31
0.0
  0
LINE
  5
2DA
100
AcDbEntity
  8
_Y__________
  6
DASHED
 62
         2
100
AcDbLine
 10
1821.8480594905
 20
117.2524144385
 30
0.0
 11
1824.7348108365
 21
112.2524144385
 31
0.0
  0
LINE
  5
2DB
100
AcDbEntity
  8
_Y__________
  6
DASHED
 62
         2
100
AcDbLine
 10
1824.7348108365
 20
112.2524144385
 30
0.0
 11
1821.8480594905
 21
107.2524144385
 31
0.0
  0
LINE
  5
2DC
100
AcDbEntity
  8
_Y__________
  6
DASHED
 62
         2
100
AcDbLine
 10
1821.8480594905
 20
117.2524144385
 30
0.0
 11
1821.8480594905
 21
107.2524144385
 31
0.0
  0
LINE
  5
2DD
100
AcDbEntity
  8
_Y__________
  6
DASHED
 62
         2
100
AcDbLine
 10
1808.6340594905
 20
107.2524144385
 30
0.0
 11
1821.8480594905
 21
107.2524144385
 31
0.0
  0
LINE
  5
2DE
100
AcDbEntity
  8
_Y__________
  6
DASHED
 62
         2
100
AcDbLine
 10
1808.6340594905
 20
117.2524144385
 30
0.0
 11
1821.8480594905
 21
117.2524144385
 31
0.0
  0
CIRCLE
  5
2DF
100
AcDbEntity
  8
_Y__________
  6
CONTINUOUS
 62
         7
100
AcDbCircle
 10
1534.8786999334
 20
112.2562679634
 30
0.0
 40
4.76
  0
LINE
  5
2E0
100
AcDbEntity
  8
_Y__________
  6
CONTINUOUS
 62
         7
100
AcDbLine
 10
1526.9786999334
 20
66.0024144385
 30
0.0
 11
1526.9786999334
 21
65.0024144385
 31
0.0
  0
LINE
  5
2E1
100
AcDbEntity
  8
_Y__________
  6
CONTINUOUS
 62
         7
100
AcDbLine
 10
1542.8786999334
 20
76.8274144385
 30
0.0
 11
1542.8786999334
 21
65.0024144385
 31
0.0
  0
ARC
  5
2E2
100
AcDbEntity
  8
_Y__________
  6
CONTINUOUS
 62
         7
100
AcDbCircle
 10
1528.4786999334
 20
65.0024144385
 30
0.0
 40
1.5
100
AcDbArc
 50
180.0
 51
270.0
  0
ARC
  5
2E3
100
AcDbEntity
  8
_Y__________
  6
CONTINUOUS
 62
         7
100
AcDbCircle
 10
1541.3786999334
 20
65.0024144385
 30
0.0
 40
1.5
100
AcDbArc
 50
270.0
 51
360.0
  0
ARC
  5
2E4
100
AcDbEntity
  8
_Y__________
  6
CONTINUOUS
 62
         7
100
AcDbCircle
 10
1528.4786999334
 20
159.5024144385
 30
0.0
 40
1.5
100
AcDbArc
 50
90.0
 51
180.0
  0
ARC
  5
2E5
100
AcDbEntity
  8
_Y__________
  6
CONTINUOUS
 62
         7
100
AcDbCircle
 10
1541.3786999334
 20
159.5024144385
 30
0.0
 40
1.5
100
AcDbArc
 50
0.0
 51
90.0
  0
LINE
  5
2E6
100
AcDbEntity
  8
_Y__________
  6
CONTINUOUS
 62
         7
100
AcDbLine
 10
1540.3786999334
 20
63.5024144385
 30
0.0
 11
1541.3786999334
 21
63.5024144385
 31
0.0
  0
LINE
  5
2E7
100
AcDbEntity
  8
_Y__________
  6
CONTINUOUS
 62
         7
100
AcDbLine
 10
1528.4786999334
 20
63.5024144385
 30
0.0
 11
1529.4786999334
 21
63.5024144385
 31
0.0
  0
LINE
  5
2E8
100
AcDbEntity
  8
_Y__________
  6
CONTINUOUS
 62
         7
100
AcDbLine
 10
1542.8786999334
 20
159.5024144385
 30
0.0
 11
1542.8786999334
 21
147.6774144385
 31
0.0
  0
LINE
  5
2E9
100
AcDbEntity
  8
_Y__________
  6
CONTINUOUS
 62
         7
100
AcDbLine
 10
1540.3786999334
 20
161.0024144385
 30
0.0
 11
1541.3786999334
 21
161.0024144385
 31
0.0
  0
LINE
  5
2EA
100
AcDbEntity
  8
_Y__________
  6
CONTINUOUS
 62
         7
100
AcDbLine
 10
1528.4786999334
 20
161.0024144385
 30
0.0
 11
1529.4786999334
 21
161.0024144385
 31
0.0
  0
LINE
  5
2EB
100
AcDbEntity
  8
_Y__________
  6
CONTINUOUS
 62
         7
100
AcDbLine
 10
1526.9786999334
 20
159.5024144385
 30
0.0
 11
1526.9786999334
 21
158.5024144385
 31
0.0
  0
ARC
  5
2EC
100
AcDbEntity
  8
_Y__________
  6
CONTINUOUS
 62
         7
100
AcDbCircle
 10
1543.3786999334
 20
147.6774144385
 30
0.0
 40
0.5
100
AcDbArc
 50
180.0
 51
270.0
  0
LINE
  5
2ED
100
AcDbEntity
  8
_Y__________
  6
CONTINUOUS
 62
         7
100
AcDbLine
 10
1543.3786999334
 20
147.1774144385
 30
0.0
 11
1558.8306999334
 21
147.1774144385
 31
0.0
  0
LINE
  5
2EE
100
AcDbEntity
  8
_Y__________
  6
CONTINUOUS
 62
         7
100
AcDbLine
 10
1543.3786999334
 20
77.3274144385
 30
0.0
 11
1558.8306999334
 21
77.3274144385
 31
0.0
  0
ARC
  5
2EF
100
AcDbEntity
  8
_Y__________
  6
CONTINUOUS
 62
         7
100
AcDbCircle
 10
1543.3786999334
 20
76.8274144385
 30
0.0
 40
0.5
100
AcDbArc
 50
90.0
 51
180.0
  0
ARC
  5
2F0
100
AcDbEntity
  8
_Y__________
  6
CONTINUOUS
 62
         7
100
AcDbCircle
 10
1543.3786999334
 20
-162.1650166132
 30
0.0
 40
0.5
100
AcDbArc
 50
90.0
 51
180.0
  0
ARC
  5
2F1
100
AcDbEntity
  8
_Y__________
  6
CONTINUOUS
 62
         7
100
AcDbCircle
 10
1543.3786999334
 20
-91.3150166132
 30
0.0
 40
0.5
100
AcDbArc
 50
180.0
 51
270.0
  0
LINE
  5
2F2
100
AcDbEntity
  8
_Y__________
  6
CONTINUOUS
 62
         7
100
AcDbLine
 10
1526.9786999334
 20
-79.4900166132
 30
0.0
 11
1526.9786999334
 21
-80.4900166132
 31
0.0
  0
LINE
  5
2F3
100
AcDbEntity
  8
_Y__________
  6
CONTINUOUS
 62
         7
100
AcDbLine
 10
1528.4786999334
 20
-77.9900166132
 30
0.0
 11
1529.4786999334
 21
-77.9900166132
 31
0.0
  0
LINE
  5
2F4
100
AcDbEntity
  8
_Y__________
  6
CONTINUOUS
 62
         7
100
AcDbLine
 10
1540.3786999334
 20
-77.9900166132
 30
0.0
 11
1541.3786999334
 21
-77.9900166132
 31
0.0
  0
LINE
  5
2F5
100
AcDbEntity
  8
_Y__________
  6
CONTINUOUS
 62
         7
100
AcDbLine
 10
1542.8786999334
 20
-79.4900166132
 30
0.0
 11
1542.8786999334
 21
-91.3150166132
 31
0.0
  0
LINE
  5
2F6
100
AcDbEntity
  8
_Y__________
  6
CONTINUOUS
 62
         7
100
AcDbLine
 10
1528.4786999334
 20
-175.4900166132
 30
0.0
 11
1529.4786999334
 21
-175.4900166132
 31
0.0
  0
LINE
  5
2F7
100
AcDbEntity
  8
_Y__________
  6
CONTINUOUS
 62
         7
100
AcDbLine
 10
1540.3786999334
 20
-175.4900166132
 30
0.0
 11
1541.3786999334
 21
-175.4900166132
 31
0.0
  0
ARC
  5
2F8
100
AcDbEntity
  8
_Y__________
  6
CONTINUOUS
 62
         7
100
AcDbCircle
 10
1541.3786999334
 20
-79.4900166132
 30
0.0
 40
1.5
100
AcDbArc
 50
0.0
 51
90.0
  0
ARC
  5
2F9
100
AcDbEntity
  8
_Y__________
  6
CONTINUOUS
 62
         7
100
AcDbCircle
 10
1528.4786999334
 20
-79.4900166132
 30
0.0
 40
1.5
100
AcDbArc
 50
90.0
 51
180.0
  0
ARC
  5
2FA
100
AcDbEntity
  8
_Y__________
  6
CONTINUOUS
 62
         7
100
AcDbCircle
 10
1541.3786999334
 20
-173.9900166132
 30
0.0
 40
1.5
100
AcDbArc
 50
270.0
 51
360.0
  0
ARC
  5
2FB
100
AcDbEntity
  8
_Y__________
  6
CONTINUOUS
 62
         7
100
AcDbCircle
 10
1528.4786999334
 20
-173.9900166132
 30
0.0
 40
1.5
100
AcDbArc
 50
180.0
 51
270.0
  0
LINE
  5
2FC
100
AcDbEntity
  8
_Y__________
  6
CONTINUOUS
 62
         7
100
AcDbLine
 10
1542.8786999334
 20
-162.1650166132
 30
0.0
 11
1542.8786999334
 21
-173.9900166132
 31
0.0
  0
LINE
  5
2FD
100
AcDbEntity
  8
_Y__________
  6
CONTINUOUS
 62
         7
100
AcDbLine
 10
1526.9786999334
 20
-172.9900166132
 30
0.0
 11
1526.9786999334
 21
-173.9900166132
 31
0.0
  0
LINE
  5
2FE
100
AcDbEntity
  8
_Y__________
  6
CONTINUOUS
 62
         7
100
AcDbLine
 10
1543.3786999334
 20
-91.8150166132
 30
0.0
 11
1558.8306999334
 21
-91.8150166132
 31
0.0
  0
LINE
  5
2FF
100
AcDbEntity
  8
_Y__________
  6
CONTINUOUS
 62
         7
100
AcDbLine
 10
1543.3786999334
 20
-161.6650166132
 30
0.0
 11
1558.8306999334
 21
-161.6650166132
 31
0.0
  0
ARC
  5
300
100
AcDbEntity
  8
_Y__________
  6
CONTINUOUS
 62
         7
100
AcDbCircle
 10
1424.6786999334
 20
-144.6863523772
 30
0.0
 40
2.5
100
AcDbArc
 50
180.0
 51
261.702778
  0
LINE
  5
301
100
AcDbEntity
  8
_Y__________
  6
CONTINUOUS
 62
         7
100
AcDbLine
 10
1422.1786999334
 20
-108.7936808492
 30
0.0
 11
1422.1786999334
 21
-144.6863523772
 31
0.0
  0
ARC
  5
302
100
AcDbEntity
  8
_Y__________
  6
CONTINUOUS
 62
         7
100
AcDbCircle
 10
1424.6786999334
 20
-108.7936808492
 30
0.0
 40
2.5
100
AcDbArc
 50
98.297222
 51
180.0
  0
ARC
  5
303
100
AcDbEntity
  8
_Y__________
  6
CONTINUOUS
 62
         7
100
AcDbCircle
 10
1424.6786999334
 20
94.3060786745
 30
0.0
 40
2.5
100
AcDbArc
 50
180.0
 51
261.702778
  0
ARC
  5
304
100
AcDbEntity
  8
_Y__________
  6
CONTINUOUS
 62
         7
100
AcDbCircle
 10
1424.6786999334
 20
130.1987502026
 30
0.0
 40
2.5
100
AcDbArc
 50
98.297222
 51
180.0
  0
LINE
  5
305
100
AcDbEntity
  8
_Y__________
  6
CONTINUOUS
 62
         7
100
AcDbLine
 10
1422.1786999334
 20
130.1987502026
 30
0.0
 11
1422.1786999334
 21
94.3060786745
 31
0.0
  0
LINE
  5
306
100
AcDbEntity
  8
_Y__________
  6
CONTINUOUS
 62
         7
100
AcDbLine
 10
1523.7786999334
 20
-91.8150166132
 30
0.0
 11
1525.7251100949
 21
-92.3150166132
 31
0.0
  0
ARC
  5
307
100
AcDbEntity
  8
_Y__________
  6
CONTINUOUS
 62
         7
100
AcDbCircle
 10
1536.3220756064
 20
-80.6150166132
 30
0.0
 40
0.5
100
AcDbArc
 50
270.0
 51
330.0
  0
ARC
  5
308
100
AcDbEntity
  8
_Y__________
  6
CONTINUOUS
 62
         7
100
AcDbCircle
 10
1533.4353242604
 20
-80.6150166132
 30
0.0
 40
0.5
100
AcDbArc
 50
210.0
 51
270.0
  0
ARC
  5
309
100
AcDbEntity
  8
_Y__________
  6
CONTINUOUS
 62
         7
100
AcDbCircle
 10
1526.3786999334
 20
-91.7150166132
 30
0.0
 40
0.6
100
AcDbArc
 50
270.0
 51
360.0
  0
LINE
  5
30A
100
AcDbEntity
  8
_Y__________
  6
CONTINUOUS
 62
         7
100
AcDbLine
 10
1525.7251100949
 20
-92.3150166132
 30
0.0
 11
1526.3786999334
 21
-92.3150166132
 31
0.0
  0
LINE
  5
30B
100
AcDbEntity
  8
_Y__________
  6
CONTINUOUS
 62
         7
100
AcDbLine
 10
1526.9786999334
 20
-79.4900166132
 30
0.0
 11
1526.9786999334
 21
-91.7150166132
 31
0.0
  0
LINE
  5
30C
100
AcDbEntity
  8
_Y__________
  6
CONTINUOUS
 62
         7
100
AcDbLine
 10
1533.4353242604
 20
-81.1150166132
 30
0.0
 11
1536.3220756064
 21
-81.1150166132
 31
0.0
  0
LINE
  5
30D
100
AcDbEntity
  8
_Y__________
  6
CONTINUOUS
 62
         7
100
AcDbLine
 10
1536.7550883083
 20
-80.8650166132
 30
0.0
 11
1538.4149703322
 21
-77.9900166132
 31
0.0
  0
LINE
  5
30E
100
AcDbEntity
  8
_Y__________
  6
CONTINUOUS
 62
         7
100
AcDbLine
 10
1528.4786999334
 20
-77.9900166132
 30
0.0
 11
1531.3424295346
 21
-77.9900166132
 31
0.0
  0
LINE
  5
30F
100
AcDbEntity
  8
_Y__________
  6
CONTINUOUS
 62
         7
100
AcDbLine
 10
1533.4353242604
 20
-81.1150166132
 30
0.0
 11
1536.3220756064
 21
-81.1150166132
 31
0.0
  0
LINE
  5
310
100
AcDbEntity
  8
_Y__________
  6
CONTINUOUS
 62
         7
100
AcDbLine
 10
1526.9786999334
 20
-79.4900166132
 30
0.0
 11
1526.9786999334
 21
-91.7150166132
 31
0.0
  0
LINE
  5
311
100
AcDbEntity
  8
_Y__________
  6
CONTINUOUS
 62
         7
100
AcDbLine
 10
1525.7251100949
 20
-92.3150166132
 30
0.0
 11
1526.3786999334
 21
-92.3150166132
 31
0.0
  0
ARC
  5
312
100
AcDbEntity
  8
_Y__________
  6
CONTINUOUS
 62
         7
100
AcDbCircle
 10
1526.3786999334
 20
-91.7150166132
 30
0.0
 40
0.6
100
AcDbArc
 50
270.0
 51
360.0
  0
ARC
  5
313
100
AcDbEntity
  8
_Y__________
  6
CONTINUOUS
 62
         7
100
AcDbCircle
 10
1533.4353242604
 20
-80.6150166132
 30
0.0
 40
0.5
100
AcDbArc
 50
210.0
 51
270.0
  0
ARC
  5
314
100
AcDbEntity
  8
_Y__________
  6
CONTINUOUS
 62
         7
100
AcDbCircle
 10
1536.3220756064
 20
-80.6150166132
 30
0.0
 40
0.5
100
AcDbArc
 50
270.0
 51
330.0
  0
LINE
  5
315
100
AcDbEntity
  8
_Y__________
  6
CONTINUOUS
 62
         7
100
AcDbLine
 10
1533.0023115585
 20
-80.8650166132
 30
0.0
 11
1531.3424295346
 21
-77.9900166132
 31
0.0
  0
LINE
  5
316
100
AcDbEntity
  8
_Y__________
  6
CONTINUOUS
 62
         7
100
AcDbLine
 10
1538.4149703322
 20
-77.9900166132
 30
0.0
 11
1541.3786999334
 21
-77.9900166132
 31
0.0
  0
LINE
  5
317
100
AcDbEntity
  8
_Y__________
  6
CONTINUOUS
 62
         7
100
AcDbLine
 10
1536.8994258756
 20
-172.8650166132
 30
0.0
 11
1538.4149703322
 21
-175.4900166132
 31
0.0
  0
LINE
  5
318
100
AcDbEntity
  8
_Y__________
  6
CONTINUOUS
 62
         7
100
AcDbLine
 10
1526.9786999334
 20
-161.7650166132
 30
0.0
 11
1526.9786999334
 21
-173.9900166132
 31
0.0
  0
LINE
  5
319
100
AcDbEntity
  8
_Y__________
  6
CONTINUOUS
 62
         7
100
AcDbLine
 10
1533.4353242604
 20
-172.3650166132
 30
0.0
 11
1536.0334004718
 21
-172.3650166132
 31
0.0
  0
LINE
  5
31A
100
AcDbEntity
  8
_Y__________
  6
CONTINUOUS
 62
         7
100
AcDbLine
 10
1528.4786999334
 20
-175.4900166132
 30
0.0
 11
1531.3424295346
 21
-175.4900166132
 31
0.0
  0
LINE
  5
31B
100
AcDbEntity
  8
_Y__________
  6
CONTINUOUS
 62
         7
100
AcDbLine
 10
1533.0023115585
 20
-172.6150166132
 30
0.0
 11
1531.3424295346
 21
-175.4900166132
 31
0.0
  0
ARC
  5
31C
100
AcDbEntity
  8
_Y__________
  6
CONTINUOUS
 62
         7
100
AcDbCircle
 10
1533.4353242604
 20
-172.8650166132
 30
0.0
 40
0.5
100
AcDbArc
 50
90.0
 51
150.0
  0
LINE
  5
31D
100
AcDbEntity
  8
_Y__________
  6
CONTINUOUS
 62
         7
100
AcDbLine
 10
1525.7251100949
 20
-161.1650166132
 30
0.0
 11
1526.3786999334
 21
-161.1650166132
 31
0.0
  0
ARC
  5
31E
100
AcDbEntity
  8
_Y__________
  6
CONTINUOUS
 62
         7
100
AcDbCircle
 10
1526.3786999334
 20
-161.7650166132
 30
0.0
 40
0.6
100
AcDbArc
 50
0.0
 51
90.0
  0
LINE
  5
31F
100
AcDbEntity
  8
_Y__________
  6
CONTINUOUS
 62
         7
100
AcDbLine
 10
1538.4149703322
 20
-175.4900166132
 30
0.0
 11
1541.3786999334
 21
-175.4900166132
 31
0.0
  0
LINE
  5
320
100
AcDbEntity
  8
_Y__________
  6
CONTINUOUS
 62
         7
100
AcDbLine
 10
1466.6786999334
 20
-114.7400166132
 30
0.0
 11
1466.6786999334
 21
-138.7400166132
 31
0.0
  0
LINE
  5
321
100
AcDbEntity
  8
_Y__________
  6
CONTINUOUS
 62
         7
100
AcDbLine
 10
1423.5286999334
 20
-114.2400166132
 30
0.0
 11
1426.3786999334
 21
-114.2400166132
 31
0.0
  0
LINE
  5
322
100
AcDbEntity
  8
_Y__________
  6
CONTINUOUS
 62
         7
100
AcDbLine
 10
1523.7786999334
 20
-161.6650166132
 30
0.0
 11
1424.1679293748
 21
-147.1383091389
 31
0.0
  0
LINE
  5
323
100
AcDbEntity
  8
_Y__________
  6
CONTINUOUS
 62
         7
100
AcDbLine
 10
1430.4480438949
 20
-137.1363580766
 30
0.0
 11
1466.6786999334
 21
-137.1363580766
 31
0.0
  0
LINE
  5
324
100
AcDbEntity
  8
_Y__________
  6
CONTINUOUS
 62
         5
100
AcDbLine
 10
1428.8443853584
 20
-138.7400166132
 30
0.0
 11
1466.6786999334
 21
-138.7400166132
 31
0.0
  0
LINE
  5
325
100
AcDbEntity
  8
_Y__________
  6
CONTINUOUS
 62
         7
100
AcDbLine
 10
1523.7786999334
 20
-91.8150166132
 30
0.0
 11
1424.1679293748
 21
-106.3417240875
 31
0.0
  0
LINE
  5
326
100
AcDbEntity
  8
_Y__________
  6
CONTINUOUS
 62
         7
100
AcDbLine
 10
1430.4480438949
 20
-116.3436751498
 30
0.0
 11
1466.6786999334
 21
-116.3436751498
 31
0.0
  0
LINE
  5
327
100
AcDbEntity
  8
_Y__________
  6
CONTINUOUS
 62
         5
100
AcDbLine
 10
1428.8443853584
 20
-114.7400166132
 30
0.0
 11
1466.6786999334
 21
-114.7400166132
 31
0.0
  0
LINE
  5
328
100
AcDbEntity
  8
_Y__________
  6
CONTINUOUS
 62
         7
100
AcDbLine
 10
1523.7786999334
 20
-161.6650166132
 30
0.0
 11
1525.7251100949
 21
-161.1650166132
 31
0.0
  0
LINE
  5
329
100
AcDbEntity
  8
_Y__________
  6
CONTINUOUS
 62
         7
100
AcDbLine
 10
1523.7786999334
 20
-91.8150166132
 30
0.0
 11
1525.7251100949
 21
-92.3150166132
 31
0.0
  0
LINE
  5
32A
100
AcDbEntity
  8
_Y__________
  6
CENTER
 62
         1
100
AcDbLine
 10
1422.0286999334
 20
-126.7400166132
 30
0.0
 11
1542.8786999334
 21
-126.7400166132
 31
0.0
  0
ARC
  5
32B
100
AcDbEntity
  8
_Y__________
  6
CONTINUOUS
 62
         7
100
AcDbCircle
 10
1536.0334004718
 20
-173.3650166132
 30
0.0
 40
1.0
100
AcDbArc
 50
30.0
 51
90.0
  0
LINE
  5
32C
100
AcDbEntity
  8
_Y__________
  6
CONTINUOUS
 62
         7
100
AcDbLine
 10
1428.3786999334
 20
-139.2057020382
 30
0.0
 11
1428.3786999334
 21
-114.2743311882
 31
0.0
  0
LINE
  5
32D
100
AcDbEntity
  8
_Y__________
  6
CONTINUOUS
 62
         7
100
AcDbLine
 10
1427.1251100949
 20
-114.0400166132
 30
0.0
 11
1427.9786999334
 21
-114.0400166132
 31
0.0
  0
LINE
  5
32E
100
AcDbEntity
  8
_Y__________
  6
CONTINUOUS
 62
         7
100
AcDbLine
 10
1426.3786999334
 20
-139.2400166132
 30
0.0
 11
1426.3786999334
 21
-114.2400166132
 31
0.0
  0
ARC
  5
32F
100
AcDbEntity
  8
_Y__________
  6
CONTINUOUS
 62
         7
100
AcDbCircle
 10
1427.9786999334
 20
-114.4400166132
 30
0.0
 40
0.4
100
AcDbArc
 50
45.0
 51
90.0
  0
LINE
  5
330
100
AcDbEntity
  8
_Y__________
  6
CONTINUOUS
 62
         7
100
AcDbLine
 10
1427.1251100949
 20
-114.0400166132
 30
0.0
 11
1426.3786999334
 21
-114.2400166132
 31
0.0
  0
ARC
  5
331
100
AcDbEntity
  8
_Y__________
  6
CONTINUOUS
 62
         7
100
AcDbCircle
 10
1423.5286999334
 20
-112.7400166132
 30
0.0
 40
1.5
100
AcDbArc
 50
205.8419327625
 51
270.0
  0
LINE
  5
332
100
AcDbEntity
  8
_Y__________
  6
CONTINUOUS
 62
         7
100
AcDbLine
 10
1428.2615426459
 20
-114.1571739007
 30
0.0
 11
1430.4480438949
 21
-116.3436751498
 31
0.0
  0
LINE
  5
333
100
AcDbEntity
  8
_Y__________
  6
CONTINUOUS
 62
         7
100
AcDbLine
 10
1423.5286999334
 20
-139.2400166132
 30
0.0
 11
1426.3786999334
 21
-139.2400166132
 31
0.0
  0
LINE
  5
334
100
AcDbEntity
  8
_Y__________
  6
CONTINUOUS
 62
         7
100
AcDbLine
 10
1427.1251100949
 20
-139.4400166132
 30
0.0
 11
1427.9786999334
 21
-139.4400166132
 31
0.0
  0
LINE
  5
335
100
AcDbEntity
  8
_Y__________
  6
CONTINUOUS
 62
         7
100
AcDbLine
 10
1427.1251100949
 20
-139.4400166132
 30
0.0
 11
1426.3786999334
 21
-139.2400166132
 31
0.0
  0
ARC
  5
336
100
AcDbEntity
  8
_Y__________
  6
CONTINUOUS
 62
         7
100
AcDbCircle
 10
1423.5286999334
 20
-140.7400166132
 30
0.0
 40
1.5
100
AcDbArc
 50
90.0
 51
154.1580672375
  0
ARC
  5
337
100
AcDbEntity
  8
_Y__________
  6
CONTINUOUS
 62
         7
100
AcDbCircle
 10
1427.9786999334
 20
-139.0400166132
 30
0.0
 40
0.4
100
AcDbArc
 50
270.0
 51
315.0
  0
LINE
  5
338
100
AcDbEntity
  8
_Y__________
  6
CONTINUOUS
 62
         7
100
AcDbLine
 10
1428.2615426459
 20
-139.3228593257
 30
0.0
 11
1430.4480438949
 21
-137.1363580766
 31
0.0
  0
LINE
  5
339
100
AcDbEntity
  8
_Y__________
  6
CONTINUOUS
 62
         7
100
AcDbLine
 10
1430.4480438949
 20
-137.1363580766
 30
0.0
 11
1430.4480438949
 21
-116.3436751498
 31
0.0
  0
LINE
  5
33A
100
AcDbEntity
  8
_Y__________
  6
CONTINUOUS
 62
         4
100
AcDbLine
 10
1423.5286999334
 20
-139.2400166132
 30
0.0
 11
1423.5286999334
 21
-114.2400166132
 31
0.0
  0
LINE
  5
33B
100
AcDbEntity
  8
_Y__________
  6
CONTINUOUS
 62
         7
100
AcDbLine
 10
1542.8786999334
 20
159.5024144385
 30
0.0
 11
1542.8786999334
 21
65.0024144385
 31
0.0
  0
LINE
  5
33C
100
AcDbEntity
  8
_Y__________
  6
CONTINUOUS
 62
         7
100
AcDbLine
 10
1536.7550883083
 20
158.1274144385
 30
0.0
 11
1538.4149703322
 21
161.0024144385
 31
0.0
  0
LINE
  5
33D
100
AcDbEntity
  8
_Y__________
  6
CONTINUOUS
 62
         7
100
AcDbLine
 10
1533.4353242604
 20
157.8774144385
 30
0.0
 11
1536.3220756064
 21
157.8774144385
 31
0.0
  0
LINE
  5
33E
100
AcDbEntity
  8
_Y__________
  6
CONTINUOUS
 62
         7
100
AcDbLine
 10
1528.4786999334
 20
161.0024144385
 30
0.0
 11
1531.3424295346
 21
161.0024144385
 31
0.0
  0
ARC
  5
33F
100
AcDbEntity
  8
_Y__________
  6
CONTINUOUS
 62
         7
100
AcDbCircle
 10
1533.4353242604
 20
158.3774144385
 30
0.0
 40
0.5
100
AcDbArc
 50
210.0
 51
270.0
  0
LINE
  5
340
100
AcDbEntity
  8
_Y__________
  6
CONTINUOUS
 62
         7
100
AcDbLine
 10
1525.7251100949
 20
146.6774144385
 30
0.0
 11
1526.3786999334
 21
146.6774144385
 31
0.0
  0
ARC
  5
341
100
AcDbEntity
  8
_Y__________
  6
CONTINUOUS
 62
         7
100
AcDbCircle
 10
1526.3786999334
 20
147.2774144385
 30
0.0
 40
0.6
100
AcDbArc
 50
270.0
 51
360.0
  0
LINE
  5
342
100
AcDbEntity
  8
_Y__________
  6
CONTINUOUS
 62
         7
100
AcDbLine
 10
1533.0023115585
 20
158.1274144385
 30
0.0
 11
1531.3424295346
 21
161.0024144385
 31
0.0
  0
ARC
  5
343
100
AcDbEntity
  8
_Y__________
  6
CONTINUOUS
 62
         7
100
AcDbCircle
 10
1536.3220756064
 20
158.3774144385
 30
0.0
 40
0.5
100
AcDbArc
 50
270.0
 51
330.0
  0
LINE
  5
344
100
AcDbEntity
  8
_Y__________
  6
CONTINUOUS
 62
         7
100
AcDbLine
 10
1538.4149703322
 20
161.0024144385
 30
0.0
 11
1541.3786999334
 21
161.0024144385
 31
0.0
  0
LINE
  5
345
100
AcDbEntity
  8
_Y__________
  6
CONTINUOUS
 62
         7
100
AcDbLine
 10
1536.7550883083
 20
66.3774144385
 30
0.0
 11
1538.4149703322
 21
63.5024144385
 31
0.0
  0
LINE
  5
346
100
AcDbEntity
  8
_Y__________
  6
CONTINUOUS
 62
         7
100
AcDbLine
 10
1533.4353242604
 20
66.6274144385
 30
0.0
 11
1536.3220756064
 21
66.6274144385
 31
0.0
  0
ARC
  5
347
100
AcDbEntity
  8
_Y__________
  6
CONTINUOUS
 62
         7
100
AcDbCircle
 10
1533.4353242604
 20
66.1274144385
 30
0.0
 40
0.5
100
AcDbArc
 50
90.0
 51
150.0
  0
LINE
  5
348
100
AcDbEntity
  8
_Y__________
  6
CONTINUOUS
 62
         7
100
AcDbLine
 10
1528.4786999334
 20
63.5024144385
 30
0.0
 11
1531.3424295346
 21
63.5024144385
 31
0.0
  0
LINE
  5
349
100
AcDbEntity
  8
_Y__________
  6
CONTINUOUS
 62
         7
100
AcDbLine
 10
1533.0023115585
 20
66.3774144385
 30
0.0
 11
1531.3424295346
 21
63.5024144385
 31
0.0
  0
ARC
  5
34A
100
AcDbEntity
  8
_Y__________
  6
CONTINUOUS
 62
         7
100
AcDbCircle
 10
1536.3220756064
 20
66.1274144385
 30
0.0
 40
0.5
100
AcDbArc
 50
30.0
 51
90.0
  0
ARC
  5
34B
100
AcDbEntity
  8
_Y__________
  6
CONTINUOUS
 62
         7
100
AcDbCircle
 10
1526.3786999334
 20
77.2274144385
 30
0.0
 40
0.6
100
AcDbArc
 50
0.0
 51
90.0
  0
LINE
  5
34C
100
AcDbEntity
  8
_Y__________
  6
CONTINUOUS
 62
         7
100
AcDbLine
 10
1525.7251100949
 20
77.8274144385
 30
0.0
 11
1526.3786999334
 21
77.8274144385
 31
0.0
  0
ARC
  5
34D
100
AcDbEntity
  8
_Y__________
  6
CONTINUOUS
 62
         7
100
AcDbCircle
 10
1526.3786999334
 20
77.2274144385
 30
0.0
 40
0.6
100
AcDbArc
 50
0.0
 51
90.0
  0
LINE
  5
34E
100
AcDbEntity
  8
_Y__________
  6
CONTINUOUS
 62
         7
100
AcDbLine
 10
1538.4149703322
 20
63.5024144385
 30
0.0
 11
1541.3786999334
 21
63.5024144385
 31
0.0
  0
LINE
  5
34F
100
AcDbEntity
  8
_Y__________
  6
CENTER
 62
         1
100
AcDbLine
 10
1534.8786999334
 20
167.2576777393
 30
0.0
 11
1534.8786999334
 21
57.2548581875
 31
0.0
  0
LINE
  5
350
100
AcDbEntity
  8
_Y__________
  6
CONTINUOUS
 62
         7
100
AcDbLine
 10
1526.9786999334
 20
159.5024144385
 30
0.0
 11
1526.9786999334
 21
65.0024144385
 31
0.0
  0
LINE
  5
351
100
AcDbEntity
  8
_Y__________
  6
CONTINUOUS
 62
         7
100
AcDbLine
 10
1525.7251100949
 20
146.6774144385
 30
0.0
 11
1525.7251100949
 21
77.8274144385
 31
0.0
  0
LINE
  5
352
100
AcDbEntity
  8
_Y__________
  6
CENTER
 62
         1
100
AcDbLine
 10
1523.7786999334
 20
151.9774144385
 30
0.0
 11
1523.7786999334
 21
73.981360093
 31
0.0
  0
LINE
  5
353
100
AcDbEntity
  8
_Y__________
  6
CONTINUOUS
 62
         7
100
AcDbLine
 10
1524.9786999334
 20
146.8691546422
 30
0.0
 11
1524.9786999334
 21
77.6356742349
 31
0.0
  0
LINE
  5
354
100
AcDbEntity
  8
_Y__________
  6
CONTINUOUS
 62
         7
100
AcDbLine
 10
1523.7786999334
 20
77.3274144385
 30
0.0
 11
1424.3179293748
 21
91.8322467069
 31
0.0
  0
LINE
  5
355
100
AcDbEntity
  8
_Y__________
  6
CONTINUOUS
 62
         7
100
AcDbLine
 10
1523.7786999334
 20
147.1774144385
 30
0.0
 11
1424.3179293748
 21
132.6725821702
 31
0.0
  0
LINE
  5
356
100
AcDbEntity
  8
_Y__________
  6
CENTER
 62
         1
100
AcDbLine
 10
1417.2325573653
 20
112.2524144385
 30
0.0
 11
1491.1537903612
 21
112.2524144385
 31
0.0
  0
LINE
  5
357
100
AcDbEntity
  8
_Y__________
  6
CENTER
 62
         1
100
AcDbLine
 10
1513.0227673053
 20
112.2524144385
 30
0.0
 11
1542.8786999334
 21
112.2524144385
 31
0.0
  0
LINE
  5
358
100
AcDbEntity
  8
_Y__________
  6
CONTINUOUS
 62
         7
100
AcDbLine
 10
1523.7786999334
 20
77.3274144385
 30
0.0
 11
1525.7251100949
 21
77.8274144385
 31
0.0
  0
LINE
  5
359
100
AcDbEntity
  8
_Y__________
  6
CONTINUOUS
 62
         7
100
AcDbLine
 10
1523.7786999334
 20
147.1774144385
 30
0.0
 11
1525.7251100949
 21
146.6774144385
 31
0.0
  0
POLYLINE
  5
35B
100
AcDbEntity
  8
L1_130
  6
CONTINUOUS
 62
         7
100
AcDb2dPolyline
 66
         1
 10
0.0
 20
0.0
 30
0.0
 70
         2
  0
VERTEX
  5
35D
100
AcDbEntity
  8
L1_130
  6
CONTINUOUS
 62
         7
100
AcDbVertex
100
AcDb2dVertex
 10
1601.9786999334
 20
-111.7400166132
 30
0.0
 70
         1
  0
VERTEX
  5
35F
100
AcDbEntity
  8
L1_130
  6
CONTINUOUS
 62
         7
100
AcDbVertex
100
AcDb2dVertex
 10
1602.0183193109
 20
-112.2784846837
 30
0.0
 70
         1
  0
VERTEX
  5
361
100
AcDbEntity
  8
L1_130
  6
CONTINUOUS
 62
         7
100
AcDbVertex
100
AcDb2dVertex
 10
1602.0702654671
 20
-112.5562410886
 30
0.0
 70
         1
  0
VERTEX
  5
363
100
AcDbEntity
  8
L1_130
  6
CONTINUOUS
 62
         7
100
AcDbVertex
100
AcDb2dVertex
 10
1602.1454893895
 20
-112.8369657495
 30
0.0
 70
         1
  0
VERTEX
  5
365
100
AcDbEntity
  8
L1_130
  6
CONTINUOUS
 62
         7
100
AcDbVertex
100
AcDb2dVertex
 10
1602.2450082461
 20
-113.1182862634
 30
0.0
 70
         1
  0
VERTEX
  5
367
100
AcDbEntity
  8
L1_130
  6
CONTINUOUS
 62
         7
100
AcDbVertex
100
AcDb2dVertex
 10
1602.3694563202
 20
-113.3976116754
 30
0.0
 70
         1
  0
VERTEX
  5
369
100
AcDbEntity
  8
L1_130
  6
CONTINUOUS
 62
         7
100
AcDbVertex
100
AcDb2dVertex
 10
1602.5190247821
 20
-113.6721949866
 30
0.0
 70
         1
  0
VERTEX
  5
36B
100
AcDbEntity
  8
L1_130
  6
CONTINUOUS
 62
         7
100
AcDbVertex
100
AcDb2dVertex
 10
1602.6934165942
 20
-113.9392105969
 30
0.0
 70
         1
  0
VERTEX
  5
36D
100
AcDbEntity
  8
L1_130
  6
CONTINUOUS
 62
         7
100
AcDbVertex
100
AcDb2dVertex
 10
1602.8918215796
 20
-114.1958430911
 30
0.0
 70
         1
  0
VERTEX
  5
36F
100
AcDbEntity
  8
L1_130
  6
CONTINUOUS
 62
         7
100
AcDbVertex
100
AcDb2dVertex
 10
1603.1129154324
 20
-114.4393822437
 30
0.0
 70
         1
  0
VERTEX
  5
371
100
AcDbEntity
  8
L1_130
  6
CONTINUOUS
 62
         7
100
AcDbVertex
100
AcDb2dVertex
 10
1603.3548845785
 20
-114.6673180225
 30
0.0
 70
         1
  0
VERTEX
  5
373
100
AcDbEntity
  8
L1_130
  6
CONTINUOUS
 62
         7
100
AcDbVertex
100
AcDb2dVertex
 10
1603.6154765123
 20
-114.8774289029
 30
0.0
 70
         1
  0
VERTEX
  5
375
100
AcDbEntity
  8
L1_130
  6
CONTINUOUS
 62
         7
100
AcDbVertex
100
AcDb2dVertex
 10
1603.8920728401
 20
-115.0678571176
 30
0.0
 70
         1
  0
VERTEX
  5
377
100
AcDbEntity
  8
L1_130
  6
CONTINUOUS
 62
         7
100
AcDbVertex
100
AcDb2dVertex
 10
1604.1817801066
 20
-115.237165545
 30
0.0
 70
         1
  0
VERTEX
  5
379
100
AcDbEntity
  8
L1_130
  6
CONTINUOUS
 62
         7
100
AcDbVertex
100
AcDb2dVertex
 10
1604.4815318861
 20
-115.3843726465
 30
0.0
 70
         1
  0
VERTEX
  5
37B
100
AcDbEntity
  8
L1_130
  6
CONTINUOUS
 62
         7
100
AcDbVertex
100
AcDb2dVertex
 10
1604.7881948147
 20
-115.5089639517
 30
0.0
 70
         1
  0
VERTEX
  5
37D
100
AcDbEntity
  8
L1_130
  6
CONTINUOUS
 62
         7
100
AcDbVertex
100
AcDb2dVertex
 10
1605.0986713023
 20
-115.6108807465
 30
0.0
 70
         1
  0
VERTEX
  5
37F
100
AcDbEntity
  8
L1_130
  6
CONTINUOUS
 62
         7
100
AcDbVertex
100
AcDb2dVertex
 10
1605.4099925337
 20
-115.6904885371
 30
0.0
 70
         1
  0
VERTEX
  5
381
100
AcDbEntity
  8
L1_130
  6
CONTINUOUS
 62
         7
100
AcDbVertex
100
AcDb2dVertex
 10
1605.7193968369
 20
-115.7485293085
 30
0.0
 70
         1
  0
VERTEX
  5
383
100
AcDbEntity
  8
L1_130
  6
CONTINUOUS
 62
         7
100
AcDbVertex
100
AcDb2dVertex
 10
1606.1268703208
 20
-115.7943920967
 30
0.0
 70
         1
  0
VERTEX
  5
385
100
AcDbEntity
  8
L1_130
  6
CONTINUOUS
 62
         7
100
AcDbVertex
100
AcDb2dVertex
 10
1606.5213286232
 20
-115.8066585003
 30
0.0
 70
         1
  0
VERTEX
  5
387
100
AcDbEntity
  8
L1_130
  6
CONTINUOUS
 62
         7
100
AcDbVertex
100
AcDb2dVertex
 10
1606.8987264878
 20
-115.7890867061
 30
0.0
 70
         1
  0
VERTEX
  5
389
100
AcDbEntity
  8
L1_130
  6
CONTINUOUS
 62
         7
100
AcDbVertex
100
AcDb2dVertex
 10
1607.2560945201
 20
-115.7456960328
 30
0.0
 70
         1
  0
VERTEX
  5
38B
100
AcDbEntity
  8
L1_130
  6
CONTINUOUS
 62
         7
100
AcDbVertex
100
AcDb2dVertex
 10
1607.5914653355
 20
-115.6805407018
 30
0.0
 70
         1
  0
VERTEX
  5
38D
100
AcDbEntity
  8
L1_130
  6
CONTINUOUS
 62
         7
100
AcDbVertex
100
AcDb2dVertex
 10
1607.903753838
 20
-115.5975332659
 30
0.0
 70
         1
  0
VERTEX
  5
38F
100
AcDbEntity
  8
L1_130
  6
CONTINUOUS
 62
         7
100
AcDbVertex
100
AcDb2dVertex
 10
1608.2863686917
 20
-115.4642902942
 30
0.0
 70
         1
  0
VERTEX
  5
391
100
AcDbEntity
  8
L1_130
  6
CONTINUOUS
 62
         7
100
AcDbVertex
100
AcDb2dVertex
 10
1608.6275547983
 20
-115.3132061131
 30
0.0
 70
         1
  0
VERTEX
  5
393
100
AcDbEntity
  8
L1_130
  6
CONTINUOUS
 62
         7
100
AcDbVertex
100
AcDb2dVertex
 10
1608.9293968331
 20
-115.1508474211
 30
0.0
 70
         1
  0
VERTEX
  5
395
100
AcDbEntity
  8
L1_130
  6
CONTINUOUS
 62
         7
100
AcDbVertex
100
AcDb2dVertex
 10
1609.1947865401
 20
-114.9825216154
 30
0.0
 70
         1
  0
VERTEX
  5
397
100
AcDbEntity
  8
L1_130
  6
CONTINUOUS
 62
         7
100
AcDbVertex
100
AcDb2dVertex
 10
1609.4270260057
 20
-114.8123792508
 30
0.0
 70
         1
  0
VERTEX
  5
399
100
AcDbEntity
  8
L1_130
  6
CONTINUOUS
 62
         7
100
AcDbVertex
100
AcDb2dVertex
 10
1609.693420581
 20
-114.5857995498
 30
0.0
 70
         1
  0
VERTEX
  5
39B
100
AcDbEntity
  8
L1_130
  6
CONTINUOUS
 62
         7
100
AcDbVertex
100
AcDb2dVertex
 10
1609.9140056558
 20
-114.3668782308
 30
0.0
 70
         1
  0
VERTEX
  5
39D
100
AcDbEntity
  8
L1_130
  6
CONTINUOUS
 62
         7
100
AcDbVertex
100
AcDb2dVertex
 10
1610.096188058
 20
-114.1588948844
 30
0.0
 70
         1
  0
VERTEX
  5
39F
100
AcDbEntity
  8
L1_130
  6
CONTINUOUS
 62
         7
100
AcDbVertex
100
AcDb2dVertex
 10
1610.2927697245
 20
-113.8982067384
 30
0.0
 70
         1
  0
VERTEX
  5
3A1
100
AcDbEntity
  8
L1_130
  6
CONTINUOUS
 62
         7
100
AcDbVertex
100
AcDb2dVertex
 10
1610.4442893693
 20
-113.6622628601
 30
0.0
 70
         1
  0
VERTEX
  5
3A3
100
AcDbEntity
  8
L1_130
  6
CONTINUOUS
 62
         7
100
AcDbVertex
100
AcDb2dVertex
 10
1610.5963112056
 20
-113.3805644325
 30
0.0
 70
         1
  0
VERTEX
  5
3A5
100
AcDbEntity
  8
L1_130
  6
CONTINUOUS
 62
         7
100
AcDbVertex
100
AcDb2dVertex
 10
1610.703688827
 20
-113.1399277266
 30
0.0
 70
         1
  0
VERTEX
  5
3A7
100
AcDbEntity
  8
L1_130
  6
CONTINUOUS
 62
         7
100
AcDbVertex
100
AcDb2dVertex
 10
1610.8021095278
 20
-112.8681090184
 30
0.0
 70
         1
  0
VERTEX
  5
3A9
100
AcDbEntity
  8
L1_130
  6
CONTINUOUS
 62
         7
100
AcDbVertex
100
AcDb2dVertex
 10
1610.8816742237
 20
-112.5799674689
 30
0.0
 70
         1
  0
VERTEX
  5
3AB
100
AcDbEntity
  8
L1_130
  6
CONTINUOUS
 62
         7
100
AcDbVertex
100
AcDb2dVertex
 10
1610.935953872
 20
-112.2992310817
 30
0.0
 70
         1
  0
VERTEX
  5
3AD
100
AcDbEntity
  8
L1_130
  6
CONTINUOUS
 62
         7
100
AcDbVertex
100
AcDb2dVertex
 10
1610.965166697
 20
-112.0551817886
 30
0.0
 70
         1
  0
VERTEX
  5
3AF
100
AcDbEntity
  8
L1_130
  6
CONTINUOUS
 62
         7
100
AcDbVertex
100
AcDb2dVertex
 10
1610.977900141
 20
-111.8166880294
 30
0.0
 70
         1
  0
VERTEX
  5
3B1
100
AcDbEntity
  8
L1_130
  6
CONTINUOUS
 62
         7
100
AcDbVertex
100
AcDb2dVertex
 10
1610.9786999334
 20
-111.7400166132
 30
0.0
 70
         1
  0
SEQEND
  5
3B3
100
AcDbEntity
  8
L1_130
  6
CONTINUOUS
 62
         7
  0
POLYLINE
  5
3B5
100
AcDbEntity
  8
L1_130
  6
CONTINUOUS
 62
         7
100
AcDb2dPolyline
 66
         1
 10
0.0
 20
0.0
 30
0.0
 70
         2
  0
VERTEX
  5
3B7
100
AcDbEntity
  8
L1_130
  6
CONTINUOUS
 62
         7
100
AcDbVertex
100
AcDb2dVertex
 10
1610.9786999334
 20
-111.7400160224
 30
0.0
 70
         1
  0
VERTEX
  5
3B9
100
AcDbEntity
  8
L1_130
  6
CONTINUOUS
 62
         7
100
AcDbVertex
100
AcDb2dVertex
 10
1610.9390804626
 20
-111.2464888984
 30
0.0
 70
         1
  0
VERTEX
  5
3BB
100
AcDbEntity
  8
L1_130
  6
CONTINUOUS
 62
         7
100
AcDbVertex
100
AcDb2dVertex
 10
1610.8871342602
 20
-110.9919142583
 30
0.0
 70
         1
  0
VERTEX
  5
3BD
100
AcDbEntity
  8
L1_130
  6
CONTINUOUS
 62
         7
100
AcDbVertex
100
AcDb2dVertex
 10
1610.8119102934
 20
-110.7346191007
 30
0.0
 70
         1
  0
VERTEX
  5
3BF
100
AcDbEntity
  8
L1_130
  6
CONTINUOUS
 62
         7
100
AcDbVertex
100
AcDb2dVertex
 10
1610.7123913956
 20
-110.4767778262
 30
0.0
 70
         1
  0
VERTEX
  5
3C1
100
AcDbEntity
  8
L1_130
  6
CONTINUOUS
 62
         7
100
AcDbVertex
100
AcDb2dVertex
 10
1610.5879432845
 20
-110.2207651462
 30
0.0
 70
         1
  0
VERTEX
  5
3C3
100
AcDbEntity
  8
L1_130
  6
CONTINUOUS
 62
         7
100
AcDbVertex
100
AcDb2dVertex
 10
1610.4383747912
 20
-109.9690987928
 30
0.0
 70
         1
  0
VERTEX
  5
3C5
100
AcDbEntity
  8
L1_130
  6
CONTINUOUS
 62
         7
100
AcDbVertex
100
AcDb2dVertex
 10
1610.2639829545
 20
-109.7243685385
 30
0.0
 70
         1
  0
VERTEX
  5
3C7
100
AcDbEntity
  8
L1_130
  6
CONTINUOUS
 62
         7
100
AcDbVertex
100
AcDb2dVertex
 10
1610.0655779521
 20
-109.4891548212
 30
0.0
 70
         1
  0
VERTEX
  5
3C9
100
AcDbEntity
  8
L1_130
  6
CONTINUOUS
 62
         7
100
AcDbVertex
100
AcDb2dVertex
 10
1609.8444840905
 20
-109.2659416676
 30
0.0
 70
         1
  0
VERTEX
  5
3CB
100
AcDbEntity
  8
L1_130
  6
CONTINUOUS
 62
         7
100
AcDbVertex
100
AcDb2dVertex
 10
1609.6025149443
 20
-109.0570296198
 30
0.0
 70
         1
  0
VERTEX
  5
3CD
100
AcDbEntity
  8
L1_130
  6
CONTINUOUS
 62
         7
100
AcDbVertex
100
AcDb2dVertex
 10
1609.3419230191
 20
-108.864454791
 30
0.0
 70
         1
  0
VERTEX
  5
3CF
100
AcDbEntity
  8
L1_130
  6
CONTINUOUS
 62
         7
100
AcDbVertex
100
AcDb2dVertex
 10
1609.0653267084
 20
-108.6899198965
 30
0.0
 70
         1
  0
VERTEX
  5
3D1
100
AcDbEntity
  8
L1_130
  6
CONTINUOUS
 62
         7
100
AcDbVertex
100
AcDb2dVertex
 10
1608.7756194667
 20
-108.5347421137
 30
0.0
 70
         1
  0
VERTEX
  5
3D3
100
AcDbEntity
  8
L1_130
  6
CONTINUOUS
 62
         7
100
AcDbVertex
100
AcDb2dVertex
 10
1608.4758677189
 20
-108.3998210601
 30
0.0
 70
         1
  0
VERTEX
  5
3D5
100
AcDbEntity
  8
L1_130
  6
CONTINUOUS
 62
         7
100
AcDbVertex
100
AcDb2dVertex
 10
1608.169204828
 20
-108.2856282675
 30
0.0
 70
         1
  0
VERTEX
  5
3D7
100
AcDbEntity
  8
L1_130
  6
CONTINUOUS
 62
         7
100
AcDbVertex
100
AcDb2dVertex
 10
1607.8587283827
 20
-108.1922175488
 30
0.0
 70
         1
  0
VERTEX
  5
3D9
100
AcDbEntity
  8
L1_130
  6
CONTINUOUS
 62
         7
100
AcDbVertex
100
AcDb2dVertex
 10
1607.4416724743
 20
-108.0989576771
 30
0.0
 70
         1
  0
VERTEX
  5
3DB
100
AcDbEntity
  8
L1_130
  6
CONTINUOUS
 62
         7
100
AcDbVertex
100
AcDb2dVertex
 10
1607.0296128993
 20
-108.0406507949
 30
0.0
 70
         1
  0
VERTEX
  5
3DD
100
AcDbEntity
  8
L1_130
  6
CONTINUOUS
 62
         7
100
AcDbVertex
100
AcDb2dVertex
 10
1606.6281796268
 20
-108.0146693533
 30
0.0
 70
         1
  0
VERTEX
  5
3DF
100
AcDbEntity
  8
L1_130
  6
CONTINUOUS
 62
         7
100
AcDbVertex
100
AcDb2dVertex
 10
1606.2419537313
 20
-108.0177743506
 30
0.0
 70
         1
  0
VERTEX
  5
3E1
100
AcDbEntity
  8
L1_130
  6
CONTINUOUS
 62
         7
100
AcDbVertex
100
AcDb2dVertex
 10
1605.8744283284
 20
-108.0463711465
 30
0.0
 70
         1
  0
VERTEX
  5
3E3
100
AcDbEntity
  8
L1_130
  6
CONTINUOUS
 62
         7
100
AcDbVertex
100
AcDb2dVertex
 10
1605.52805097
 20
-108.0967364618
 30
0.0
 70
         1
  0
VERTEX
  5
3E5
100
AcDbEntity
  8
L1_130
  6
CONTINUOUS
 62
         7
100
AcDbVertex
100
AcDb2dVertex
 10
1605.2043237828
 20
-108.1652031862
 30
0.0
 70
         1
  0
VERTEX
  5
3E7
100
AcDbEntity
  8
L1_130
  6
CONTINUOUS
 62
         7
100
AcDbVertex
100
AcDb2dVertex
 10
1604.8062585757
 20
-108.2796008565
 30
0.0
 70
         1
  0
VERTEX
  5
3E9
100
AcDbEntity
  8
L1_130
  6
CONTINUOUS
 62
         7
100
AcDbVertex
100
AcDb2dVertex
 10
1604.4500861468
 20
-108.4128482109
 30
0.0
 70
         1
  0
VERTEX
  5
3EB
100
AcDbEntity
  8
L1_130
  6
CONTINUOUS
 62
         7
100
AcDbVertex
100
AcDb2dVertex
 10
1604.1341394234
 20
-108.5584964092
 30
0.0
 70
         1
  0
VERTEX
  5
3ED
100
AcDbEntity
  8
L1_130
  6
CONTINUOUS
 62
         7
100
AcDbVertex
100
AcDb2dVertex
 10
1603.8557700381
 20
-108.7112656471
 30
0.0
 70
         1
  0
VERTEX
  5
3EF
100
AcDbEntity
  8
L1_130
  6
CONTINUOUS
 62
         7
100
AcDbVertex
100
AcDb2dVertex
 10
1603.6117873488
 20
-108.8669780285
 30
0.0
 70
         1
  0
VERTEX
  5
3F1
100
AcDbEntity
  8
L1_130
  6
CONTINUOUS
 62
         7
100
AcDbVertex
100
AcDb2dVertex
 10
1603.3315547937
 20
-109.0758017069
 30
0.0
 70
         1
  0
VERTEX
  5
3F3
100
AcDbEntity
  8
L1_130
  6
CONTINUOUS
 62
         7
100
AcDbVertex
100
AcDb2dVertex
 10
1603.0992809894
 20
-109.2787270027
 30
0.0
 70
         1
  0
VERTEX
  5
3F5
100
AcDbEntity
  8
L1_130
  6
CONTINUOUS
 62
         7
100
AcDbVertex
100
AcDb2dVertex
 10
1602.9073390283
 20
-109.4722892041
 30
0.0
 70
         1
  0
VERTEX
  5
3F7
100
AcDbEntity
  8
L1_130
  6
CONTINUOUS
 62
         7
100
AcDbVertex
100
AcDb2dVertex
 10
1602.7001784204
 20
-109.7156830859
 30
0.0
 70
         1
  0
VERTEX
  5
3F9
100
AcDbEntity
  8
L1_130
  6
CONTINUOUS
 62
         7
100
AcDbVertex
100
AcDb2dVertex
 10
1602.540519316
 20
-109.9365140999
 30
0.0
 70
         1
  0
VERTEX
  5
3FB
100
AcDbEntity
  8
L1_130
  6
CONTINUOUS
 62
         7
100
AcDbVertex
100
AcDb2dVertex
 10
1602.3803988407
 20
-110.20061962
 30
0.0
 70
         1
  0
VERTEX
  5
3FD
100
AcDbEntity
  8
L1_130
  6
CONTINUOUS
 62
         7
100
AcDbVertex
100
AcDb2dVertex
 10
1602.2673818587
 20
-110.4264693121
 30
0.0
 70
         1
  0
VERTEX
  5
3FF
100
AcDbEntity
  8
L1_130
  6
CONTINUOUS
 62
         7
100
AcDbVertex
100
AcDb2dVertex
 10
1602.1638908553
 20
-110.6817129821
 30
0.0
 70
         1
  0
VERTEX
  5
401
100
AcDbEntity
  8
L1_130
  6
CONTINUOUS
 62
         7
100
AcDbVertex
100
AcDb2dVertex
 10
1602.08033546
 20
-110.952296653
 30
0.0
 70
         1
  0
VERTEX
  5
403
100
AcDbEntity
  8
L1_130
  6
CONTINUOUS
 62
         7
100
AcDbVertex
100
AcDb2dVertex
 10
1602.0234223296
 20
-111.2158177884
 30
0.0
 70
         1
  0
VERTEX
  5
405
100
AcDbEntity
  8
L1_130
  6
CONTINUOUS
 62
         7
100
AcDbVertex
100
AcDb2dVertex
 10
1601.9928426569
 20
-111.4447323731
 30
0.0
 70
         1
  0
VERTEX
  5
407
100
AcDbEntity
  8
L1_130
  6
CONTINUOUS
 62
         7
100
AcDbVertex
100
AcDb2dVertex
 10
1601.9795347563
 20
-111.6682219305
 30
0.0
 70
         1
  0
VERTEX
  5
409
100
AcDbEntity
  8
L1_130
  6
CONTINUOUS
 62
         7
100
AcDbVertex
100
AcDb2dVertex
 10
1601.9786999334
 20
-111.7400159945
 30
0.0
 70
         1
  0
SEQEND
  5
40B
100
AcDbEntity
  8
L1_130
  6
CONTINUOUS
 62
         7
  0
POLYLINE
  5
40D
100
AcDbEntity
  8
L1_130
  6
CONTINUOUS
 62
         7
100
AcDb2dPolyline
 66
         1
 10
0.0
 20
0.0
 30
0.0
 70
         2
  0
VERTEX
  5
40F
100
AcDbEntity
  8
L1_130
  6
CONTINUOUS
 62
         7
100
AcDbVertex
100
AcDb2dVertex
 10
1610.9786999334
 20
-141.7400166132
 30
0.0
 70
         1
  0
VERTEX
  5
411
100
AcDbEntity
  8
L1_130
  6
CONTINUOUS
 62
         7
100
AcDbVertex
100
AcDb2dVertex
 10
1610.9390805559
 20
-141.2015485427
 30
0.0
 70
         1
  0
VERTEX
  5
413
100
AcDbEntity
  8
L1_130
  6
CONTINUOUS
 62
         7
100
AcDbVertex
100
AcDb2dVertex
 10
1610.8871343997
 20
-140.9237921378
 30
0.0
 70
         1
  0
VERTEX
  5
415
100
AcDbEntity
  8
L1_130
  6
CONTINUOUS
 62
         7
100
AcDbVertex
100
AcDb2dVertex
 10
1610.8119104773
 20
-140.6430674769
 30
0.0
 70
         1
  0
VERTEX
  5
417
100
AcDbEntity
  8
L1_130
  6
CONTINUOUS
 62
         7
100
AcDbVertex
100
AcDb2dVertex
 10
1610.7123916207
 20
-140.361746963
 30
0.0
 70
         1
  0
VERTEX
  5
419
100
AcDbEntity
  8
L1_130
  6
CONTINUOUS
 62
         7
100
AcDbVertex
100
AcDb2dVertex
 10
1610.5879435466
 20
-140.082421551
 30
0.0
 70
         1
  0
VERTEX
  5
41B
100
AcDbEntity
  8
L1_130
  6
CONTINUOUS
 62
         7
100
AcDbVertex
100
AcDb2dVertex
 10
1610.4383750847
 20
-139.8078382398
 30
0.0
 70
         1
  0
VERTEX
  5
41D
100
AcDbEntity
  8
L1_130
  6
CONTINUOUS
 62
         7
100
AcDbVertex
100
AcDb2dVertex
 10
1610.2639832726
 20
-139.5408226295
 30
0.0
 70
         1
  0
VERTEX
  5
41F
100
AcDbEntity
  8
L1_130
  6
CONTINUOUS
 62
         7
100
AcDbVertex
100
AcDb2dVertex
 10
1610.0655782872
 20
-139.2841901353
 30
0.0
 70
         1
  0
VERTEX
  5
421
100
AcDbEntity
  8
L1_130
  6
CONTINUOUS
 62
         7
100
AcDbVertex
100
AcDb2dVertex
 10
1609.8444844344
 20
-139.0406509827
 30
0.0
 70
         1
  0
VERTEX
  5
423
100
AcDbEntity
  8
L1_130
  6
CONTINUOUS
 62
         7
100
AcDbVertex
100
AcDb2dVertex
 10
1609.6025152883
 20
-138.8127152038
 30
0.0
 70
         1
  0
VERTEX
  5
425
100
AcDbEntity
  8
L1_130
  6
CONTINUOUS
 62
         7
100
AcDbVertex
100
AcDb2dVertex
 10
1609.3419233545
 20
-138.6026043235
 30
0.0
 70
         1
  0
VERTEX
  5
427
100
AcDbEntity
  8
L1_130
  6
CONTINUOUS
 62
         7
100
AcDbVertex
100
AcDb2dVertex
 10
1609.0653270267
 20
-138.4121761088
 30
0.0
 70
         1
  0
VERTEX
  5
429
100
AcDbEntity
  8
L1_130
  6
CONTINUOUS
 62
         7
100
AcDbVertex
100
AcDb2dVertex
 10
1608.7756197602
 20
-138.2428676814
 30
0.0
 70
         1
  0
VERTEX
  5
42B
100
AcDbEntity
  8
L1_130
  6
CONTINUOUS
 62
         7
100
AcDbVertex
100
AcDb2dVertex
 10
1608.4758679807
 20
-138.0956605798
 30
0.0
 70
         1
  0
VERTEX
  5
42D
100
AcDbEntity
  8
L1_130
  6
CONTINUOUS
 62
         7
100
AcDbVertex
100
AcDb2dVertex
 10
1608.1692050521
 20
-137.9710692747
 30
0.0
 70
         1
  0
VERTEX
  5
42F
100
AcDbEntity
  8
L1_130
  6
CONTINUOUS
 62
         7
100
AcDbVertex
100
AcDb2dVertex
 10
1607.8587285645
 20
-137.8691524799
 30
0.0
 70
         1
  0
VERTEX
  5
431
100
AcDbEntity
  8
L1_130
  6
CONTINUOUS
 62
         7
100
AcDbVertex
100
AcDb2dVertex
 10
1607.5474073331
 20
-137.7895446893
 30
0.0
 70
         1
  0
VERTEX
  5
433
100
AcDbEntity
  8
L1_130
  6
CONTINUOUS
 62
         7
100
AcDbVertex
100
AcDb2dVertex
 10
1607.2380030299
 20
-137.7315039179
 30
0.0
 70
         1
  0
VERTEX
  5
435
100
AcDbEntity
  8
L1_130
  6
CONTINUOUS
 62
         7
100
AcDbVertex
100
AcDb2dVertex
 10
1606.830529546
 20
-137.6856411297
 30
0.0
 70
         1
  0
VERTEX
  5
437
100
AcDbEntity
  8
L1_130
  6
CONTINUOUS
 62
         7
100
AcDbVertex
100
AcDb2dVertex
 10
1606.4360712436
 20
-137.6733747261
 30
0.0
 70
         1
  0
VERTEX
  5
439
100
AcDbEntity
  8
L1_130
  6
CONTINUOUS
 62
         7
100
AcDbVertex
100
AcDb2dVertex
 10
1606.058673379
 20
-137.6909465203
 30
0.0
 70
         1
  0
VERTEX
  5
43B
100
AcDbEntity
  8
L1_130
  6
CONTINUOUS
 62
         7
100
AcDbVertex
100
AcDb2dVertex
 10
1605.7013053467
 20
-137.7343371936
 30
0.0
 70
         1
  0
VERTEX
  5
43D
100
AcDbEntity
  8
L1_130
  6
CONTINUOUS
 62
         7
100
AcDbVertex
100
AcDb2dVertex
 10
1605.3659345313
 20
-137.7994925246
 30
0.0
 70
         1
  0
VERTEX
  5
43F
100
AcDbEntity
  8
L1_130
  6
CONTINUOUS
 62
         7
100
AcDbVertex
100
AcDb2dVertex
 10
1605.0536460288
 20
-137.8824999605
 30
0.0
 70
         1
  0
VERTEX
  5
441
100
AcDbEntity
  8
L1_130
  6
CONTINUOUS
 62
         7
100
AcDbVertex
100
AcDb2dVertex
 10
1604.6710311751
 20
-138.0157429322
 30
0.0
 70
         1
  0
VERTEX
  5
443
100
AcDbEntity
  8
L1_130
  6
CONTINUOUS
 62
         7
100
AcDbVertex
100
AcDb2dVertex
 10
1604.3298450685
 20
-138.1668271133
 30
0.0
 70
         1
  0
VERTEX
  5
445
100
AcDbEntity
  8
L1_130
  6
CONTINUOUS
 62
         7
100
AcDbVertex
100
AcDb2dVertex
 10
1604.0280030337
 20
-138.3291858053
 30
0.0
 70
         1
  0
VERTEX
  5
447
100
AcDbEntity
  8
L1_130
  6
CONTINUOUS
 62
         7
100
AcDbVertex
100
AcDb2dVertex
 10
1603.7626133267
 20
-138.497511611
 30
0.0
 70
         1
  0
VERTEX
  5
449
100
AcDbEntity
  8
L1_130
  6
CONTINUOUS
 62
         7
100
AcDbVertex
100
AcDb2dVertex
 10
1603.5303738611
 20
-138.6676539756
 30
0.0
 70
         1
  0
VERTEX
  5
44B
100
AcDbEntity
  8
L1_130
  6
CONTINUOUS
 62
         7
100
AcDbVertex
100
AcDb2dVertex
 10
1603.2639792858
 20
-138.8942336766
 30
0.0
 70
         1
  0
VERTEX
  5
44D
100
AcDbEntity
  8
L1_130
  6
CONTINUOUS
 62
         7
100
AcDbVertex
100
AcDb2dVertex
 10
1603.043394211
 20
-139.1131549956
 30
0.0
 70
         1
  0
VERTEX
  5
44F
100
AcDbEntity
  8
L1_130
  6
CONTINUOUS
 62
         7
100
AcDbVertex
100
AcDb2dVertex
 10
1602.8612118088
 20
-139.321138342
 30
0.0
 70
         1
  0
VERTEX
  5
451
100
AcDbEntity
  8
L1_130
  6
CONTINUOUS
 62
         7
100
AcDbVertex
100
AcDb2dVertex
 10
1602.6646301423
 20
-139.581826488
 30
0.0
 70
         1
  0
VERTEX
  5
453
100
AcDbEntity
  8
L1_130
  6
CONTINUOUS
 62
         7
100
AcDbVertex
100
AcDb2dVertex
 10
1602.5131104975
 20
-139.8177703663
 30
0.0
 70
         1
  0
VERTEX
  5
455
100
AcDbEntity
  8
L1_130
  6
CONTINUOUS
 62
         7
100
AcDbVertex
100
AcDb2dVertex
 10
1602.3610886612
 20
-140.0994687939
 30
0.0
 70
         1
  0
VERTEX
  5
457
100
AcDbEntity
  8
L1_130
  6
CONTINUOUS
 62
         7
100
AcDbVertex
100
AcDb2dVertex
 10
1602.2537110398
 20
-140.3401054998
 30
0.0
 70
         1
  0
VERTEX
  5
459
100
AcDbEntity
  8
L1_130
  6
CONTINUOUS
 62
         7
100
AcDbVertex
100
AcDb2dVertex
 10
1602.155290339
 20
-140.611924208
 30
0.0
 70
         1
  0
VERTEX
  5
45B
100
AcDbEntity
  8
L1_130
  6
CONTINUOUS
 62
         7
100
AcDbVertex
100
AcDb2dVertex
 10
1602.0757256431
 20
-140.9000657575
 30
0.0
 70
         1
  0
VERTEX
  5
45D
100
AcDbEntity
  8
L1_130
  6
CONTINUOUS
 62
         7
100
AcDbVertex
100
AcDb2dVertex
 10
1602.0214459948
 20
-141.1808021447
 30
0.0
 70
         1
  0
VERTEX
  5
45F
100
AcDbEntity
  8
L1_130
  6
CONTINUOUS
 62
         7
100
AcDbVertex
100
AcDb2dVertex
 10
1601.9922331698
 20
-141.4248514378
 30
0.0
 70
         1
  0
VERTEX
  5
461
100
AcDbEntity
  8
L1_130
  6
CONTINUOUS
 62
         7
100
AcDbVertex
100
AcDb2dVertex
 10
1601.9794997258
 20
-141.663345197
 30
0.0
 70
         1
  0
VERTEX
  5
463
100
AcDbEntity
  8
L1_130
  6
CONTINUOUS
 62
         7
100
AcDbVertex
100
AcDb2dVertex
 10
1601.9786999334
 20
-141.7400166132
 30
0.0
 70
         1
  0
SEQEND
  5
465
100
AcDbEntity
  8
L1_130
  6
CONTINUOUS
 62
         7
  0
POLYLINE
  5
467
100
AcDbEntity
  8
L1_130
  6
CONTINUOUS
 62
         7
100
AcDb2dPolyline
 66
         1
 10
0.0
 20
0.0
 30
0.0
 70
         2
  0
VERTEX
  5
469
100
AcDbEntity
  8
L1_130
  6
CONTINUOUS
 62
         7
100
AcDbVertex
100
AcDb2dVertex
 10
1601.9786999334
 20
-141.7400172319
 30
0.0
 70
         1
  0
VERTEX
  5
46B
100
AcDbEntity
  8
L1_130
  6
CONTINUOUS
 62
         7
100
AcDbVertex
100
AcDb2dVertex
 10
1602.0183194092
 20
-142.2335443593
 30
0.0
 70
         1
  0
VERTEX
  5
46D
100
AcDbEntity
  8
L1_130
  6
CONTINUOUS
 62
         7
100
AcDbVertex
100
AcDb2dVertex
 10
1602.0702656147
 20
-142.488119001
 30
0.0
 70
         1
  0
VERTEX
  5
46F
100
AcDbEntity
  8
L1_130
  6
CONTINUOUS
 62
         7
100
AcDbVertex
100
AcDb2dVertex
 10
1602.1454895849
 20
-142.7454141598
 30
0.0
 70
         1
  0
VERTEX
  5
471
100
AcDbEntity
  8
L1_130
  6
CONTINUOUS
 62
         7
100
AcDbVertex
100
AcDb2dVertex
 10
1602.2450084865
 20
-143.0032554354
 30
0.0
 70
         1
  0
VERTEX
  5
473
100
AcDbEntity
  8
L1_130
  6
CONTINUOUS
 62
         7
100
AcDbVertex
100
AcDb2dVertex
 10
1602.3694566016
 20
-143.2592681161
 30
0.0
 70
         1
  0
VERTEX
  5
475
100
AcDbEntity
  8
L1_130
  6
CONTINUOUS
 62
         7
100
AcDbVertex
100
AcDb2dVertex
 10
1602.5190250992
 20
-143.5109344698
 30
0.0
 70
         1
  0
VERTEX
  5
477
100
AcDbEntity
  8
L1_130
  6
CONTINUOUS
 62
         7
100
AcDbVertex
100
AcDb2dVertex
 10
1602.6934169404
 20
-143.7556647241
 30
0.0
 70
         1
  0
VERTEX
  5
479
100
AcDbEntity
  8
L1_130
  6
CONTINUOUS
 62
         7
100
AcDbVertex
100
AcDb2dVertex
 10
1602.8918219474
 20
-143.9908784409
 30
0.0
 70
         1
  0
VERTEX
  5
47B
100
AcDbEntity
  8
L1_130
  6
CONTINUOUS
 62
         7
100
AcDbVertex
100
AcDb2dVertex
 10
1603.1129158135
 20
-144.2140915935
 30
0.0
 70
         1
  0
VERTEX
  5
47D
100
AcDbEntity
  8
L1_130
  6
CONTINUOUS
 62
         7
100
AcDbVertex
100
AcDb2dVertex
 10
1603.3548849642
 20
-144.42300364
 30
0.0
 70
         1
  0
VERTEX
  5
47F
100
AcDbEntity
  8
L1_130
  6
CONTINUOUS
 62
         7
100
AcDbVertex
100
AcDb2dVertex
 10
1603.6154768937
 20
-144.6155784669
 30
0.0
 70
         1
  0
VERTEX
  5
481
100
AcDbEntity
  8
L1_130
  6
CONTINUOUS
 62
         7
100
AcDbVertex
100
AcDb2dVertex
 10
1603.8920732086
 20
-144.790113359
 30
0.0
 70
         1
  0
VERTEX
  5
483
100
AcDbEntity
  8
L1_130
  6
CONTINUOUS
 62
         7
100
AcDbVertex
100
AcDb2dVertex
 10
1604.181780454
 20
-144.9452911392
 30
0.0
 70
         1
  0
VERTEX
  5
485
100
AcDbEntity
  8
L1_130
  6
CONTINUOUS
 62
         7
100
AcDbVertex
100
AcDb2dVertex
 10
1604.4815322051
 20
-145.0802121898
 30
0.0
 70
         1
  0
VERTEX
  5
487
100
AcDbEntity
  8
L1_130
  6
CONTINUOUS
 62
         7
100
AcDbVertex
100
AcDb2dVertex
 10
1604.788195099
 20
-145.1944049791
 30
0.0
 70
         1
  0
VERTEX
  5
489
100
AcDbEntity
  8
L1_130
  6
CONTINUOUS
 62
         7
100
AcDbVertex
100
AcDb2dVertex
 10
1605.0986715467
 20
-145.2878156943
 30
0.0
 70
         1
  0
VERTEX
  5
48B
100
AcDbEntity
  8
L1_130
  6
CONTINUOUS
 62
         7
100
AcDbVertex
100
AcDb2dVertex
 10
1605.5157274576
 20
-145.3810755611
 30
0.0
 70
         1
  0
VERTEX
  5
48D
100
AcDbEntity
  8
L1_130
  6
CONTINUOUS
 62
         7
100
AcDbVertex
100
AcDb2dVertex
 10
1605.9277870341
 20
-145.4393824383
 30
0.0
 70
         1
  0
VERTEX
  5
48F
100
AcDbEntity
  8
L1_130
  6
CONTINUOUS
 62
         7
100
AcDbVertex
100
AcDb2dVertex
 10
1606.3292203073
 20
-145.4653638749
 30
0.0
 70
         1
  0
VERTEX
  5
491
100
AcDbEntity
  8
L1_130
  6
CONTINUOUS
 62
         7
100
AcDbVertex
100
AcDb2dVertex
 10
1606.7154462028
 20
-145.4622588728
 30
0.0
 70
         1
  0
VERTEX
  5
493
100
AcDbEntity
  8
L1_130
  6
CONTINUOUS
 62
         7
100
AcDbVertex
100
AcDb2dVertex
 10
1607.0829716049
 20
-145.4336620724
 30
0.0
 70
         1
  0
VERTEX
  5
495
100
AcDbEntity
  8
L1_130
  6
CONTINUOUS
 62
         7
100
AcDbVertex
100
AcDb2dVertex
 10
1607.429348962
 20
-145.383296753
 30
0.0
 70
         1
  0
VERTEX
  5
497
100
AcDbEntity
  8
L1_130
  6
CONTINUOUS
 62
         7
100
AcDbVertex
100
AcDb2dVertex
 10
1607.7530761473
 20
-145.3148300247
 30
0.0
 70
         1
  0
VERTEX
  5
499
100
AcDbEntity
  8
L1_130
  6
CONTINUOUS
 62
         7
100
AcDbVertex
100
AcDb2dVertex
 10
1608.1511413514
 20
-145.2004323499
 30
0.0
 70
         1
  0
VERTEX
  5
49B
100
AcDbEntity
  8
L1_130
  6
CONTINUOUS
 62
         7
100
AcDbVertex
100
AcDb2dVertex
 10
1608.5073137769
 20
-145.0671849917
 30
0.0
 70
         1
  0
VERTEX
  5
49D
100
AcDbEntity
  8
L1_130
  6
CONTINUOUS
 62
         7
100
AcDbVertex
100
AcDb2dVertex
 10
1608.8232604967
 20
-144.9215367902
 30
0.0
 70
         1
  0
VERTEX
  5
49F
100
AcDbEntity
  8
L1_130
  6
CONTINUOUS
 62
         7
100
AcDbVertex
100
AcDb2dVertex
 10
1609.1016298784
 20
-144.7687675498
 30
0.0
 70
         1
  0
VERTEX
  5
4A1
100
AcDbEntity
  8
L1_130
  6
CONTINUOUS
 62
         7
100
AcDbVertex
100
AcDb2dVertex
 10
1609.345612564
 20
-144.6130551664
 30
0.0
 70
         1
  0
VERTEX
  5
4A3
100
AcDbEntity
  8
L1_130
  6
CONTINUOUS
 62
         7
100
AcDbVertex
100
AcDb2dVertex
 10
1609.6258451144
 20
-144.404231486
 30
0.0
 70
         1
  0
VERTEX
  5
4A5
100
AcDbEntity
  8
L1_130
  6
CONTINUOUS
 62
         7
100
AcDbVertex
100
AcDb2dVertex
 10
1609.8581189143
 20
-144.2013061889
 30
0.0
 70
         1
  0
VERTEX
  5
4A7
100
AcDbEntity
  8
L1_130
  6
CONTINUOUS
 62
         7
100
AcDbVertex
100
AcDb2dVertex
 10
1610.0500608715
 20
-144.0077439867
 30
0.0
 70
         1
  0
VERTEX
  5
4A9
100
AcDbEntity
  8
L1_130
  6
CONTINUOUS
 62
         7
100
AcDbVertex
100
AcDb2dVertex
 10
1610.2572214746
 20
-143.7643501043
 30
0.0
 70
         1
  0
VERTEX
  5
4AB
100
AcDbEntity
  8
L1_130
  6
CONTINUOUS
 62
         7
100
AcDbVertex
100
AcDb2dVertex
 10
1610.416880575
 20
-143.5435190903
 30
0.0
 70
         1
  0
VERTEX
  5
4AD
100
AcDbEntity
  8
L1_130
  6
CONTINUOUS
 62
         7
100
AcDbVertex
100
AcDb2dVertex
 10
1610.5770010457
 20
-143.2794135705
 30
0.0
 70
         1
  0
VERTEX
  5
4AF
100
AcDbEntity
  8
L1_130
  6
CONTINUOUS
 62
         7
100
AcDbVertex
100
AcDb2dVertex
 10
1610.6900180242
 20
-143.0535638789
 30
0.0
 70
         1
  0
VERTEX
  5
4B1
100
AcDbEntity
  8
L1_130
  6
CONTINUOUS
 62
         7
100
AcDbVertex
100
AcDb2dVertex
 10
1610.7935090238
 20
-142.7983202099
 30
0.0
 70
         1
  0
VERTEX
  5
4B3
100
AcDbEntity
  8
L1_130
  6
CONTINUOUS
 62
         7
100
AcDbVertex
100
AcDb2dVertex
 10
1610.8770644154
 20
-142.5277365403
 30
0.0
 70
         1
  0
VERTEX
  5
4B5
100
AcDbEntity
  8
L1_130
  6
CONTINUOUS
 62
         7
100
AcDbVertex
100
AcDb2dVertex
 10
1610.9339775426
 20
-142.2642154065
 30
0.0
 70
         1
  0
VERTEX
  5
4B7
100
AcDbEntity
  8
L1_130
  6
CONTINUOUS
 62
         7
100
AcDbVertex
100
AcDb2dVertex
 10
1610.9645572127
 20
-142.0353008233
 30
0.0
 70
         1
  0
VERTEX
  5
4B9
100
AcDbEntity
  8
L1_130
  6
CONTINUOUS
 62
         7
100
AcDbVertex
100
AcDb2dVertex
 10
1610.9778651111
 20
-141.8118112674
 30
0.0
 70
         1
  0
VERTEX
  5
4BB
100
AcDbEntity
  8
L1_130
  6
CONTINUOUS
 62
         7
100
AcDbVertex
100
AcDb2dVertex
 10
1610.9786999334
 20
-141.740017204
 30
0.0
 70
         1
  0
SEQEND
  5
4BD
100
AcDbEntity
  8
L1_130
  6
CONTINUOUS
 62
         7
  0
LINE
  5
4BE
100
AcDbEntity
  8
L1_130
  6
CENTER
 62
         1
100
AcDbLine
 10
1610.9786999334
 20
-141.7400166132
 30
0.0
 11
1601.9786999334
 21
-141.7400166132
 31
0.0
  0
LINE
  5
4BF
100
AcDbEntity
  8
L1_130
  6
CENTER
 62
         1
100
AcDbLine
 10
1610.9786999334
 20
-111.7400166132
 30
0.0
 11
1601.9786999334
 21
-111.7400166132
 31
0.0
  0
DIMENSION
  5
4C2
100
AcDbEntity
  8
L1_130
  6
CONTINUOUS
 62
         4
100
AcDbDimension
  2
*D4
 10
1653.7786999334
 20
218.8303200089
 30
0.0
 11
1528.2194954488
 21
221.4553200089
 31
0.0
  3
DIMSTYLE1
100
AcDbAlignedDimension
 13
1653.7786999334
 23
141.7524144385
 33
0.0
 14
1422.1786999334
 24
130.1987502026
 34
0.0
100
AcDbRotatedDimension
  0
DIMENSION
  5
4D0
100
AcDbEntity
  8
L1_130
  6
CONTINUOUS
 62
         4
100
AcDbDimension
  2
*D5
 10
1523.7786999334
 20
209.2953925344
 30
0.0
 11
1582.9883287597
 21
211.9203925344
 31
0.0
  3
DIMSTYLE1
100
AcDbAlignedDimension
 13
1523.7786999334
 23
151.9774144385
 33
0.0
 14
1653.7786999334
 24
141.7524144385
 34
0.0
100
AcDbRotatedDimension
  0
INSERT
  5
543
100
AcDbEntity
  8
0
  6
CONTINUOUS
100
AcDbBlockReference
  2
*X6
 10
0.0
 20
0.0
 30
0.0
  0
ARC
  5
544
100
AcDbEntity
  8
L1_130
  6
CONTINUOUS
 62
         7
100
AcDbCircle
 10
1646.9786999334
 20
-137.4900166132
 30
0.0
 40
1.5
100
AcDbArc
 50
180.0
 51
270.0
  0
ARC
  5
545
100
AcDbEntity
  8
L1_130
  6
CONTINUOUS
 62
         7
100
AcDbCircle
 10
1646.9786999334
 20
-115.9900166132
 30
0.0
 40
1.5
100
AcDbArc
 50
90.0
 51
180.0
  0
TEXT
  5
547
100
AcDbEntity
  8
L1_130
  6
CONTINUOUS
 62
         2
100
AcDbText
 10
1830.4058372732
 20
186.4382511173
 30
0.0
 40
4.5
  1
531574
 41
0.98
  7
BOX
100
AcDbText
  0
ENDSEC
  0
SECTION
  2
OBJECTS
  0
DICTIONARY
  5
19
100
AcDbDictionary
  3
ACAD_GROUP
350
1A
  3
ACAD_MLINESTYLE
350
1B
  0
DICTIONARY
  5
1A
102
{ACAD_REACTORS
330
19
102
}
100
AcDbDictionary
  0
DICTIONARY
  5
1B
102
{ACAD_REACTORS
330
19
102
}
100
AcDbDictionary
  3
STANDARD
350
1C
  0
MLINESTYLE
  5
1C
102
{ACAD_REACTORS
330
1B
102
}
100
AcDbMlineStyle
  2
STANDARD
 70
         0
  3

 62
         0
 51
90.0
 52
90.0
 71
         2
 49
0.5
 62
       256
  6
BYLAYER
 49
-0.5
 62
       256
  6
BYLAYER
  0
ENDSEC
  0
EOF
