  0
SECTION
  2
HEADER
  9
$ACADVER
  1
AC1014
  9
$ACADMAINTVER
 70
         0
  9
$DWGCODEPAGE
  3
BIG5
  9
$INSBASE
 10
0.0
 20
0.0
 30
0.0
  9
$EXTMIN
 10
1213.1798913299
 20
550.038039796
 30
0.0
  9
$EXTMAX
 10
1868.0517582409
 20
880.20412278
 30
0.0
  9
$LIMMIN
 10
0.0
 20
0.0
  9
$LIMMAX
 10
0.0
 20
0.0
  9
$ORTHOMODE
 70
         0
  9
$REGENMODE
 70
         1
  9
$FILLMODE
 70
         1
  9
$QTEXTMODE
 70
         0
  9
$MIRRTEXT
 70
         1
  9
$DRAGMODE
 70
         2
  9
$LTSCALE
 40
1.0
  9
$OSMODE
 70
         0
  9
$ATTMODE
 70
         1
  9
$TEXTSIZE
 40
1.7
  9
$TRACEWID
 40
0.05
  9
$TEXTSTYLE
  7
STANDARD
  9
$CLAYER
  8
0
  9
$CELTYPE
  6
CONTINUOUS
  9
$CECOLOR
 62
         4
  9
$CELTSCALE
 40
1.0
  9
$DELOBJ
 70
         1
  9
$DISPSILH
 70
         0
  9
$DIMSCALE
 40
1.0
  9
$DIMASZ
 40
0.18
  9
$DIMEXO
 40
0.0625
  9
$DIMDLI
 40
0.38
  9
$DIMRND
 40
0.0
  9
$DIMDLE
 40
0.0
  9
$DIMEXE
 40
0.25
  9
$DIMTP
 40
0.01
  9
$DIMTM
 40
-0.01
  9
$DIMTXT
 40
2.7
  9
$DIMCEN
 40
0.09
  9
$DIMTSZ
 40
0.0
  9
$DIMTOL
 70
         0
  9
$DIMLIM
 70
         0
  9
$DIMTIH
 70
         1
  9
$DIMTOH
 70
         1
  9
$DIMSE1
 70
         0
  9
$DIMSE2
 70
         0
  9
$DIMTAD
 70
         0
  9
$DIMZIN
 70
         0
  9
$DIMBLK
  1

  9
$DIMASO
 70
         1
  9
$DIMSHO
 70
         1
  9
$DIMPOST
  1

  9
$DIMAPOST
  1

  9
$DIMALT
 70
         0
  9
$DIMALTD
 70
         2
  9
$DIMALTF
 40
25.4
  9
$DIMLFAC
 40
1.0
  9
$DIMTOFL
 70
         0
  9
$DIMTVP
 40
0.0
  9
$DIMTIX
 70
         0
  9
$DIMSOXD
 70
         0
  9
$DIMSAH
 70
         0
  9
$DIMBLK1
  1

  9
$DIMBLK2
  1

  9
$DIMSTYLE
  2
STANDARD
  9
$DIMCLRD
 70
         0
  9
$DIMCLRE
 70
         0
  9
$DIMCLRT
 70
         4
  9
$DIMTFAC
 40
1.0
  9
$DIMGAP
 40
0.09
  9
$DIMJUST
 70
         0
  9
$DIMSD1
 70
         0
  9
$DIMSD2
 70
         0
  9
$DIMTOLJ
 70
         1
  9
$DIMTZIN
 70
         0
  9
$DIMALTZ
 70
         0
  9
$DIMALTTZ
 70
         0
  9
$DIMFIT
 70
         3
  9
$DIMUPT
 70
         0
  9
$DIMUNIT
 70
         2
  9
$DIMDEC
 70
         4
  9
$DIMTDEC
 70
         4
  9
$DIMALTU
 70
         2
  9
$DIMALTTD
 70
         2
  9
$DIMTXSTY
  7
STANDARD
  9
$DIMAUNIT
 70
         0
  9
$LUNITS
 70
         2
  9
$LUPREC
 70
        10
  9
$SKETCHINC
 40
0.1
  9
$FILLETRAD
 40
0.0
  9
$AUNITS
 70
         0
  9
$AUPREC
 70
         0
  9
$MENU
  1
acad
  9
$ELEVATION
 40
0.0
  9
$PELEVATION
 40
0.0
  9
$THICKNESS
 40
0.0
  9
$LIMCHECK
 70
         0
  9
$BLIPMODE
 70
         1
  9
$CHAMFERA
 40
0.0
  9
$CHAMFERB
 40
0.0
  9
$CHAMFERC
 40
0.0
  9
$CHAMFERD
 40
0.0
  9
$SKPOLY
 70
         0
  9
$TDCREATE
 40
0.000000000
  9
$TDUPDATE
 40
0.000000000
  9
$TDINDWG
 40
0.0000000000
  9
$TDUSRTIMER
 40
0.0000000000
  9
$USRTIMER
 70
         1
  9
$ANGBASE
 50
0.0
  9
$ANGDIR
 70
         0
  9
$PDMODE
 70
         2
  9
$PDSIZE
 40
0.0
  9
$PLINEWID
 40
0.0
  9
$COORDS
 70
         1
  9
$SPLFRAME
 70
         0
  9
$SPLINETYPE
 70
         6
  9
$SPLINESEGS
 70
         8
  9
$ATTDIA
 70
         0
  9
$ATTREQ
 70
         1
  9
$HANDLING
 70
         1
  9
$HANDSEED
  5
3FF
  9
$SURFTAB1
 70
         6
  9
$SURFTAB2
 70
         6
  9
$SURFTYPE
 70
         6
  9
$SURFU
 70
         6
  9
$SURFV
 70
         6
  9
$UCSNAME
  2

  9
$UCSORG
 10
0.0
 20
0.0
 30
0.0
  9
$UCSXDIR
 10
1.0
 20
0.0
 30
0.0
  9
$UCSYDIR
 10
0.0
 20
1.0
 30
0.0
  9
$PUCSNAME
  2

  9
$PUCSORG
 10
0.0
 20
0.0
 30
0.0
  9
$PUCSXDIR
 10
1.0
 20
0.0
 30
0.0
  9
$PUCSYDIR
 10
0.0
 20
1.0
 30
0.0
  9
$USERI1
 70
         0
  9
$USERI2
 70
         0
  9
$USERI3
 70
         0
  9
$USERI4
 70
         0
  9
$USERI5
 70
         0
  9
$USERR1
 40
0.0
  9
$USERR2
 40
0.0
  9
$USERR3
 40
0.0
  9
$USERR4
 40
0.0
  9
$USERR5
 40
0.0
  9
$WORLDVIEW
 70
         1
  9
$SHADEDGE
 70
         3
  9
$SHADEDIF
 70
        70
  9
$TILEMODE
 70
         1
  9
$MAXACTVP
 70
        16
  9
$PINSBASE
 10
0.0
 20
0.0
 30
0.0
  9
$PLIMCHECK
 70
         0
  9
$PEXTMIN
 10
1.0000000000E+20
 20
1.0000000000E+20
 30
1.0000000000E+20
  9
$PEXTMAX
 10
-1.0000000000E+20
 20
-1.0000000000E+20
 30
-1.0000000000E+20
  9
$PLIMMIN
 10
0.0
 20
0.0
  9
$PLIMMAX
 10
12.0
 20
9.0
  9
$UNITMODE
 70
         0
  9
$VISRETAIN
 70
         0
  9
$PLINEGEN
 70
         1
  9
$PSLTSCALE
 70
         0
  9
$TREEDEPTH
 70
      3020
  9
$PICKSTYLE
 70
         1
  9
$CMLSTYLE
  2
STANDARD
  9
$CMLJUST
 70
         0
  9
$CMLSCALE
 40
1.0
  9
$PROXYGRAPHICS
 70
         0
  9
$MEASUREMENT
 70
         0
  0
ENDSEC
  0
SECTION
  2
CLASSES
  0
CLASS
  1
LWPOLYLINE
  2
AcDbPolyline
  3
"AutoCAD"
 90
        0
280
         0
281
         1
  0
CLASS
  1
IMAGE
  2
AcDbRasterImage
  3
ISM
 90
      127
280
         0
281
         1
  0
CLASS
  1
OLE2FRAME
  2
AcDbOle2Frame
  3
""
 90
        0
280
         0
281
         1
  0
CLASS
  1
HATCH
  2
AcDbHatch
  3
"ACAD_SEDONA"
 90
        0
280
         0
281
         1
  0
CLASS
  1
DICTIONARYVAR
  2
AcDbDictionaryVar
  3
"AutoCAD"
 90
        0
280
         0
281
         0
  0
CLASS
  1
RASTERVARIABLES
  2
AcDbRasterVariables
  3
ISM
 90
        0
280
         0
281
         0
  0
CLASS
  1
IMAGEDEF
  2
AcDbRasterImageDef
  3
ISM
 90
        0
280
         0
281
         0
  0
CLASS
  1
IMAGEDEF_REACTOR
  2
AcDbRasterImageDefReactor
  3
ISM
 90
        1
280
         0
281
         0
  0
CLASS
  1
IDBUFFER
  2
AcDbIdBuffer
  3
"Acad"
 90
        0
280
         0
281
         0
  0
CLASS
  1
SPATIAL_FILTER
  2
AcDbSpatialFilter
  3
"Acad"
 90
        0
280
         0
281
         0
  0
CLASS
  1
XRECORD
  2
AcDbXrecord
  3
"<Built In>"
 90
        0
280
         0
281
         0
  0
CLASS
  1
SORTENTSTABLE
  2
AcDbSortentsTable
  3
"AutoCAD"
 90
        0
280
         0
281
         0
  0
CLASS
  1
LAYER_INDEX
  2
AcDbLayerIndex
  3
"Acad"
 90
        0
280
         0
281
         0
  0
CLASS
  1
SPATIAL_INDEX
  2
AcDbSpatialIndex
  3
"Acad"
 90
        0
280
         0
281
         0
  0
CLASS
  1
OBJECT_PTR
  2
CAseDLPNTableRecord
  3
"ASE-LPNTableRecord"
 90
        1
280
         0
281
         0
  0
CLASS
  1
LAYOUT
  2
AcDbLayout
  3
"AutoCAD 2000"
 90
        1
280
         0
281
         0
  0
CLASS
  1
PLOTSETTINGS
  2
AcDbPlotSettings
  3
"AutoCAD 2000"
 90
        1
280
         0
281
         0
  0
CLASS
  1
ACDBDICTIONARYWDFLT
  2
AcDbDictionaryWithDefault
  3
"AutoCAD 2000"
 90
        1
280
         0
281
         0
  0
CLASS
  1
ACDBPLACEHOLDER
  2
AcDbPlaceHolder
  3
"AutoCAD 2000"
 90
        1
280
         0
281
         0
  0
CLASS
  1
VBA_PROJECT
  2
AcDbVbaProject
  3
"acadvba"
 90
        1
280
         0
281
         0
  0
CLASS
  1
WIPEOUT
  2
AcDbWipeout
  3
WipeOut|AutoCAD Express Tool|expresstools@autodesk.com
 90
      127
280
         0
281
         1
  0
CLASS
  1
WIPEOUTVARIABLES
  2
AcDbWipeoutVariables
  3
WipeOut|AutoCAD Express Tool|expresstools@autodesk.com
 90
        0
280
         0
281
         0
  0
CLASS
  1
RTEXT
  2
RText
  3
RText|AutoCAD Express Tool|expresstools@autodesk.com
 90
        0
280
         0
281
         1
  0
CLASS
  1
ARCALIGNEDTEXT
  2
AcDbArcAlignedText
  3
ATEXT|AutoCAD Express Tool|expresstools@autodesk.com
 90
        0
280
         0
281
         1
  0
ENDSEC
  0
SECTION
  2
TABLES
  0
TABLE
  2
VPORT
  5
7
100
AcDbSymbolTable
 70
         1
  0
VPORT
  5
15
100
AcDbSymbolTableRecord
100
AcDbViewportTableRecord
  2
*ACTIVE
 70
         0
 10
0.0
 20
0.0
 11
1.0
 21
1.0
 12
1540.6158247854
 22
715.121081288
 13
0.0
 23
0.0
 14
1.0
 24
1.0
 15
0.0
 25
0.0
 16
0.0
 26
0.0
 36
1.0
 17
0.0
 27
0.0
 37
0.0
 40
330.166082984
 41
1.9834619625
 42
50.0
 43
0.0
 44
0.0
 50
0.0
 51
0.0
 71
         0
 72
       100
 73
         1
 74
         1
 75
         0
 76
         0
 77
         0
 78
         0
  0
ENDTAB
  0
TABLE
  2
LTYPE
  5
4
100
AcDbSymbolTable
 70
         6
  0
LTYPE
  5
11
100
AcDbSymbolTableRecord
100
AcDbLinetypeTableRecord
  2
BYBLOCK
 70
        64
  3

 72
        65
 73
         0
 40
0.0
  0
LTYPE
  5
12
100
AcDbSymbolTableRecord
100
AcDbLinetypeTableRecord
  2
BYLAYER
 70
        64
  3

 72
        65
 73
         0
 40
0.0
  0
LTYPE
  5
13
100
AcDbSymbolTableRecord
100
AcDbLinetypeTableRecord
  2
CONTINUOUS
 70
        64
  3
Solid line
 72
        65
 73
         0
 40
0.0
  0
LTYPE
  5
1D
100
AcDbSymbolTableRecord
100
AcDbLinetypeTableRecord
  2
DASHED
 70
        64
  3
_ _ _ _ _ _ _ _ _ _ _ _ _ _ _ _
 72
        65
 73
         2
 40
0.2
 49
0.1
 74
         0
 49
-0.1
 74
         0
  0
LTYPE
  5
1E
100
AcDbSymbolTableRecord
100
AcDbLinetypeTableRecord
  2
CENTER
 70
        64
  3
___ _ ___ _ ___ _ ___ _ ___ _ ___ _ ___ _ ___ _
 72
        65
 73
         4
 40
0.95
 49
0.625
 74
         0
 49
-0.125
 74
         0
 49
0.075
 74
         0
 49
-0.125
 74
         0
  0
LTYPE
  5
1F
100
AcDbSymbolTableRecord
100
AcDbLinetypeTableRecord
  2
PHANTOM
 70
        64
  3
______  __  __  ______  __  __  ______  __  __  
 72
        65
 73
         6
 40
1.025
 49
0.625
 74
         0
 49
-0.125
 74
         0
 49
0.075
 74
         0
 49
-0.125
 74
         0
 49
0.075
 74
         0
 49
-0.125
 74
         0
  0
ENDTAB
  0
TABLE
  2
LAYER
  5
2
100
AcDbSymbolTable
 70
        12
  0
LAYER
  5
14
100
AcDbSymbolTableRecord
100
AcDbLayerTableRecord
  2
0
 70
         0
 62
         7
  6
CONTINUOUS
  0
LAYER
  5
21
100
AcDbSymbolTableRecord
100
AcDbLayerTableRecord
  2
____
 70
         0
 62
         7
  6
CONTINUOUS
  0
LAYER
  5
22
100
AcDbSymbolTableRecord
100
AcDbLayerTableRecord
  2
____
 70
         1
 62
         7
  6
CONTINUOUS
  0
LAYER
  5
23
100
AcDbSymbolTableRecord
100
AcDbLayerTableRecord
  2
____
 70
         1
 62
         7
  6
CONTINUOUS
  0
LAYER
  5
24
100
AcDbSymbolTableRecord
100
AcDbLayerTableRecord
  2
____
 70
         1
 62
         7
  6
CONTINUOUS
  0
LAYER
  5
25
100
AcDbSymbolTableRecord
100
AcDbLayerTableRecord
  2
______
 70
         1
 62
         7
  6
CONTINUOUS
  0
LAYER
  5
26
100
AcDbSymbolTableRecord
100
AcDbLayerTableRecord
  2
___G
 70
         1
 62
         7
  6
CONTINUOUS
  0
LAYER
  5
27
100
AcDbSymbolTableRecord
100
AcDbLayerTableRecord
  2
______
 70
         1
 62
         7
  6
CONTINUOUS
  0
LAYER
  5
28
100
AcDbSymbolTableRecord
100
AcDbLayerTableRecord
  2
____
 70
         1
 62
         7
  6
CONTINUOUS
  0
LAYER
  5
29
100
AcDbSymbolTableRecord
100
AcDbLayerTableRecord
  2
___T
 70
         1
 62
         7
  6
CONTINUOUS
  0
LAYER
  5
2A
100
AcDbSymbolTableRecord
100
AcDbLayerTableRecord
  2
______
 70
         1
 62
         7
  6
CONTINUOUS
  0
LAYER
  5
10E
100
AcDbSymbolTableRecord
100
AcDbLayerTableRecord
  2
DEFPOINTS
 70
         0
 62
        -7
  6
CONTINUOUS
  0
ENDTAB
  0
TABLE
  2
STYLE
  5
3
100
AcDbSymbolTable
 70
        27
  0
STYLE
  5
17
100
AcDbSymbolTableRecord
100
AcDbTextStyleTableRecord
  2
STANDARD
 70
         0
 40
0.0
 41
1.0
 50
0.0
 71
         0
 42
0.0
  3
txt
  4

  0
STYLE
  5
117
100
AcDbSymbolTableRecord
100
AcDbTextStyleTableRecord
  2
BOX
 70
         0
 40
1.0
 41
1.0
 50
0.0
 71
         0
 42
0.2
  3
txt.shx
  4

  0
STYLE
  5
138
100
AcDbSymbolTableRecord
100
AcDbTextStyleTableRecord
  2
BOX
 70
         0
 40
1.0
 41
1.0
 50
0.0
 71
         0
 42
0.2
  3
txt.shx
  4

  0
STYLE
  5
146
100
AcDbSymbolTableRecord
100
AcDbTextStyleTableRecord
  2
BOX
 70
         0
 40
1.0
 41
1.0
 50
0.0
 71
         0
 42
0.2
  3
txt.shx
  4

  0
STYLE
  5
175
100
AcDbSymbolTableRecord
100
AcDbTextStyleTableRecord
  2
BOX
 70
         0
 40
1.0
 41
1.0
 50
0.0
 71
         0
 42
0.2
  3
txt.shx
  4

  0
STYLE
  5
18C
100
AcDbSymbolTableRecord
100
AcDbTextStyleTableRecord
  2
BOX
 70
         0
 40
1.0
 41
1.0
 50
0.0
 71
         0
 42
0.2
  3
txt.shx
  4

  0
STYLE
  5
19A
100
AcDbSymbolTableRecord
100
AcDbTextStyleTableRecord
  2
BOX
 70
         0
 40
1.0
 41
1.0
 50
0.0
 71
         0
 42
0.2
  3
txt.shx
  4

  0
STYLE
  5
1BF
100
AcDbSymbolTableRecord
100
AcDbTextStyleTableRecord
  2
BOX
 70
         0
 40
1.0
 41
1.0
 50
0.0
 71
         0
 42
0.2
  3
txt.shx
  4

  0
STYLE
  5
1CE
100
AcDbSymbolTableRecord
100
AcDbTextStyleTableRecord
  2
BOX
 70
         0
 40
1.0
 41
1.0
 50
0.0
 71
         0
 42
0.2
  3
txt.shx
  4

  0
STYLE
  5
1FD
100
AcDbSymbolTableRecord
100
AcDbTextStyleTableRecord
  2
BOX
 70
         0
 40
1.0
 41
1.0
 50
0.0
 71
         0
 42
0.2
  3
txt.shx
  4

  0
STYLE
  5
20B
100
AcDbSymbolTableRecord
100
AcDbTextStyleTableRecord
  2
BOX
 70
         0
 40
1.0
 41
1.0
 50
0.0
 71
         0
 42
0.2
  3
txt.shx
  4

  0
STYLE
  5
24A
100
AcDbSymbolTableRecord
100
AcDbTextStyleTableRecord
  2
BOX
 70
         0
 40
1.0
 41
1.0
 50
0.0
 71
         0
 42
0.2
  3
txt.shx
  4

  0
STYLE
  5
257
100
AcDbSymbolTableRecord
100
AcDbTextStyleTableRecord
  2
BOX
 70
         0
 40
1.0
 41
1.0
 50
0.0
 71
         0
 42
0.2
  3
txt.shx
  4

  0
STYLE
  5
269
100
AcDbSymbolTableRecord
100
AcDbTextStyleTableRecord
  2
BOX
 70
         0
 40
1.0
 41
1.0
 50
0.0
 71
         0
 42
0.2
  3
txt.shx
  4

  0
STYLE
  5
278
100
AcDbSymbolTableRecord
100
AcDbTextStyleTableRecord
  2
BOX
 70
         0
 40
1.0
 41
1.0
 50
0.0
 71
         0
 42
0.2
  3
txt.shx
  4

  0
STYLE
  5
293
100
AcDbSymbolTableRecord
100
AcDbTextStyleTableRecord
  2
BOX
 70
         0
 40
1.0
 41
1.0
 50
0.0
 71
         0
 42
0.2
  3
txt.shx
  4

  0
STYLE
  5
2A1
100
AcDbSymbolTableRecord
100
AcDbTextStyleTableRecord
  2
BOX
 70
         0
 40
1.0
 41
1.0
 50
0.0
 71
         0
 42
0.2
  3
txt.shx
  4

  0
STYLE
  5
2C1
100
AcDbSymbolTableRecord
100
AcDbTextStyleTableRecord
  2
BOX
 70
         0
 40
1.0
 41
1.0
 50
0.0
 71
         0
 42
0.2
  3
txt.shx
  4

  0
STYLE
  5
2CF
100
AcDbSymbolTableRecord
100
AcDbTextStyleTableRecord
  2
BOX
 70
         0
 40
1.0
 41
1.0
 50
0.0
 71
         0
 42
0.2
  3
txt.shx
  4

  0
STYLE
  5
2DD
100
AcDbSymbolTableRecord
100
AcDbTextStyleTableRecord
  2
BOX
 70
         0
 40
1.0
 41
1.0
 50
0.0
 71
         0
 42
0.2
  3
txt.shx
  4

  0
STYLE
  5
2EB
100
AcDbSymbolTableRecord
100
AcDbTextStyleTableRecord
  2
BOX
 70
         0
 40
1.0
 41
1.0
 50
0.0
 71
         0
 42
0.2
  3
txt.shx
  4

  0
STYLE
  5
2F9
100
AcDbSymbolTableRecord
100
AcDbTextStyleTableRecord
  2
BOX
 70
         0
 40
1.0
 41
1.0
 50
0.0
 71
         0
 42
0.2
  3
txt.shx
  4

  0
STYLE
  5
311
100
AcDbSymbolTableRecord
100
AcDbTextStyleTableRecord
  2
BOX
 70
         0
 40
1.0
 41
1.0
 50
0.0
 71
         0
 42
0.2
  3
txt.shx
  4

  0
STYLE
  5
31B
100
AcDbSymbolTableRecord
100
AcDbTextStyleTableRecord
  2
BOX
 70
         0
 40
1.0
 41
1.0
 50
0.0
 71
         0
 42
0.2
  3
txt.shx
  4

  0
STYLE
  5
32B
100
AcDbSymbolTableRecord
100
AcDbTextStyleTableRecord
  2
BOX
 70
         0
 40
1.0
 41
1.0
 50
0.0
 71
         0
 42
0.2
  3
txt.shx
  4

  0
STYLE
  5
3FA
100
AcDbSymbolTableRecord
100
AcDbTextStyleTableRecord
  2
BOX
 70
         0
 40
1.0
 41
1.0
 50
0.0
 71
         0
 42
0.2
  3
txt.shx
  4

  0
STYLE
  5
3FD
100
AcDbSymbolTableRecord
100
AcDbTextStyleTableRecord
  2
BOX
 70
         0
 40
1.0
 41
1.0
 50
0.0
 71
         0
 42
0.2
  3
txt.shx
  4

  0
ENDTAB
  0
TABLE
  2
VIEW
  5
5
100
AcDbSymbolTable
 70
         0
  0
ENDTAB
  0
TABLE
  2
UCS
  5
6
100
AcDbSymbolTable
 70
         1
  0
UCS
  5
20
100
AcDbSymbolTableRecord
100
AcDbUCSTableRecord
  2
CK_VIEW_1
 70
         0
 10
0.0
 20
0.0
 30
1.0
 11
1.0
 21
0.0
 31
0.0
 12
0.0
 22
1.0
 32
0.0
  0
ENDTAB
  0
TABLE
  2
APPID
  5
8
100
AcDbSymbolTable
 70
         1
  0
APPID
  5
16
100
AcDbSymbolTableRecord
100
AcDbRegAppTableRecord
  2
ACAD
 70
         0
  0
ENDTAB
  0
TABLE
  2
DIMSTYLE
  5
9
100
AcDbSymbolTable
 70
         2
  0
DIMSTYLE
105
18
100
AcDbSymbolTableRecord
100
AcDbDimStyleTableRecord
  2
STANDARD
 70
         0
  3

  4

  5

  6

  7

 40
1.0
 41
0.18
 42
0.0625
 43
0.38
 44
0.18
 45
0.0
 46
0.0
 47
0.0
 48
0.0
 71
         0
 72
         0
 73
         1
 74
         1
 75
         0
 76
         0
 77
         0
 78
         0
140
0.18
141
0.09
142
0.0
143
25.4
144
1.0
145
0.0
146
1.0
147
0.09
170
         0
171
         2
172
         0
173
         0
174
         0
175
         0
176
         0
177
         0
178
         0
270
         2
271
         4
272
         4
273
         2
274
         2
275
         0
280
         0
281
         0
282
         0
283
         1
284
         0
285
         0
286
         0
287
         0
288
         0
340
17
  0
DIMSTYLE
105
10A
100
AcDbSymbolTableRecord
100
AcDbDimStyleTableRecord
  2
DIMSTYLE1
 70
         0
  3

  4

  5

  6

  7

 40
1.0
 41
2.7
 42
0.0625
 43
0.38
 44
2.7
 45
0.0
 46
0.0
 47
0.0
 48
0.0
 71
         0
 72
         0
 73
         1
 74
         1
 75
         0
 76
         0
 77
         0
 78
         0
140
2.7
141
0.09
142
0.0
143
25.4
144
1.0
145
0.0
146
1.0
147
0.09
170
         0
171
         2
172
         0
173
         0
174
         0
175
         0
176
         0
177
         0
178
         0
270
         2
271
         4
272
         4
273
         2
274
         2
275
         0
280
         0
281
         0
282
         0
283
         1
284
         0
285
         0
286
         0
287
         0
288
         0
340
17
  0
ENDTAB
  0
TABLE
  2
BLOCK_RECORD
  5
1
100
AcDbSymbolTable
 70
        36
  0
BLOCK_RECORD
  5
A
100
AcDbSymbolTableRecord
100
AcDbBlockTableRecord
  2
*MODEL_SPACE
  0
BLOCK_RECORD
  5
B
100
AcDbSymbolTableRecord
100
AcDbBlockTableRecord
  2
*PAPER_SPACE
  0
BLOCK_RECORD
  5
10B
100
AcDbSymbolTableRecord
100
AcDbBlockTableRecord
  2
*D0
  0
BLOCK_RECORD
  5
12D
100
AcDbSymbolTableRecord
100
AcDbBlockTableRecord
  2
*D1
  0
BLOCK_RECORD
  5
13B
100
AcDbSymbolTableRecord
100
AcDbBlockTableRecord
  2
*D2
  0
BLOCK_RECORD
  5
16A
100
AcDbSymbolTableRecord
100
AcDbBlockTableRecord
  2
*D3
  0
BLOCK_RECORD
  5
185
100
AcDbSymbolTableRecord
100
AcDbBlockTableRecord
  2
GENDIML6
  0
BLOCK_RECORD
  5
191
100
AcDbSymbolTableRecord
100
AcDbBlockTableRecord
  2
*D5
  0
BLOCK_RECORD
  5
19D
100
AcDbSymbolTableRecord
100
AcDbBlockTableRecord
  2
*X6
  0
BLOCK_RECORD
  5
1AD
100
AcDbSymbolTableRecord
100
AcDbBlockTableRecord
  2
*X7
  0
BLOCK_RECORD
  5
1C3
100
AcDbSymbolTableRecord
100
AcDbBlockTableRecord
  2
*D8
  0
BLOCK_RECORD
  5
1DF
100
AcDbSymbolTableRecord
100
AcDbBlockTableRecord
  2
*X9
  0
BLOCK_RECORD
  5
1ED
100
AcDbSymbolTableRecord
100
AcDbBlockTableRecord
  2
*X10
  0
BLOCK_RECORD
  5
200
100
AcDbSymbolTableRecord
100
AcDbBlockTableRecord
  2
*D11
  0
BLOCK_RECORD
  5
21C
100
AcDbSymbolTableRecord
100
AcDbBlockTableRecord
  2
*X12
  0
BLOCK_RECORD
  5
228
100
AcDbSymbolTableRecord
100
AcDbBlockTableRecord
  2
*X13
  0
BLOCK_RECORD
  5
235
100
AcDbSymbolTableRecord
100
AcDbBlockTableRecord
  2
*X14
  0
BLOCK_RECORD
  5
23F
100
AcDbSymbolTableRecord
100
AcDbBlockTableRecord
  2
*X15
  0
BLOCK_RECORD
  5
24C
100
AcDbSymbolTableRecord
100
AcDbBlockTableRecord
  2
*D16
  0
BLOCK_RECORD
  5
26D
100
AcDbSymbolTableRecord
100
AcDbBlockTableRecord
  2
*D17
  0
BLOCK_RECORD
  5
288
100
AcDbSymbolTableRecord
100
AcDbBlockTableRecord
  2
*D18
  0
BLOCK_RECORD
  5
296
100
AcDbSymbolTableRecord
100
AcDbBlockTableRecord
  2
*D19
  0
BLOCK_RECORD
  5
2B9
100
AcDbSymbolTableRecord
100
AcDbBlockTableRecord
  2
*D20
  0
BLOCK_RECORD
  5
2C4
100
AcDbSymbolTableRecord
100
AcDbBlockTableRecord
  2
*D21
  0
BLOCK_RECORD
  5
2D2
100
AcDbSymbolTableRecord
100
AcDbBlockTableRecord
  2
*D22
  0
BLOCK_RECORD
  5
2E0
100
AcDbSymbolTableRecord
100
AcDbBlockTableRecord
  2
*D23
  0
BLOCK_RECORD
  5
2EE
100
AcDbSymbolTableRecord
100
AcDbBlockTableRecord
  2
*D24
  0
BLOCK_RECORD
  5
306
100
AcDbSymbolTableRecord
100
AcDbBlockTableRecord
  2
*D25
  0
BLOCK_RECORD
  5
314
100
AcDbSymbolTableRecord
100
AcDbBlockTableRecord
  2
GENDIML28
  0
BLOCK_RECORD
  5
320
100
AcDbSymbolTableRecord
100
AcDbBlockTableRecord
  2
*D27
  0
BLOCK_RECORD
  5
339
100
AcDbSymbolTableRecord
100
AcDbBlockTableRecord
  2
*X28
  0
BLOCK_RECORD
  5
347
100
AcDbSymbolTableRecord
100
AcDbBlockTableRecord
  2
*X29
  0
BLOCK_RECORD
  5
352
100
AcDbSymbolTableRecord
100
AcDbBlockTableRecord
  2
*X30
  0
BLOCK_RECORD
  5
360
100
AcDbSymbolTableRecord
100
AcDbBlockTableRecord
  2
*X31
  0
BLOCK_RECORD
  5
36C
100
AcDbSymbolTableRecord
100
AcDbBlockTableRecord
  2
*X32
  0
BLOCK_RECORD
  5
378
100
AcDbSymbolTableRecord
100
AcDbBlockTableRecord
  2
*X33
  0
BLOCK_RECORD
  5
39A
100
AcDbSymbolTableRecord
100
AcDbBlockTableRecord
  2
*X34
  0
BLOCK_RECORD
  5
3EE
100
AcDbSymbolTableRecord
100
AcDbBlockTableRecord
  2
*D35
  0
ENDTAB
  0
ENDSEC
  0
SECTION
  2
BLOCKS
  0
BLOCK
  5
D
100
AcDbEntity
  8
0
100
AcDbBlockBegin
  2
*MODEL_SPACE
 70
         0
 10
0.0
 20
0.0
 30
0.0
  3
*MODEL_SPACE
  1

  0
ENDBLK
  5
E
100
AcDbEntity
  8
0
100
AcDbBlockEnd
  0
BLOCK
  5
F
100
AcDbEntity
 67
         1
  8
0
100
AcDbBlockBegin
  2
*PAPER_SPACE
 70
         0
 10
0.0
 20
0.0
 30
0.0
  3
*PAPER_SPACE
  1

  0
ENDBLK
  5
10
100
AcDbEntity
 67
         1
  8
0
100
AcDbBlockEnd
  0
BLOCK
  5
10C
100
AcDbEntity
  8
0
100
AcDbBlockBegin
  2
*D0
 70
        65
 10
0.0
 20
0.0
 30
0.0
  3
*D0
  1

  0
POINT
  5
10F
100
AcDbEntity
  8
DEFPOINTS
  6
CONTINUOUS
 62
         0
100
AcDbPoint
 10
1605.999902034
 20
827.7185070351
 30
0.0
  0
POINT
  5
110
100
AcDbEntity
  8
DEFPOINTS
  6
CONTINUOUS
 62
         0
100
AcDbPoint
 10
1605.999902034
 20
771.6839665993
 30
0.0
  0
POINT
  5
111
100
AcDbEntity
  8
DEFPOINTS
  6
CONTINUOUS
 62
         0
100
AcDbPoint
 10
1550.881902034
 20
781.0569665993
 30
0.0
  0
LINE
  5
112
100
AcDbEntity
  8
____
  6
CONTINUOUS
 62
         4
100
AcDbLine
 10
1605.999902034
 20
773.0339665993
 30
0.0
 11
1605.999902034
 21
828.3935070351
 31
0.0
  0
LINE
  5
113
100
AcDbEntity
  8
____
  6
CONTINUOUS
 62
         4
100
AcDbLine
 10
1550.881902034
 20
782.4069665993
 30
0.0
 11
1550.881902034
 21
828.3935070351
 31
0.0
  0
LINE
  5
114
100
AcDbEntity
  8
____
  6
CONTINUOUS
 62
         4
100
AcDbLine
 10
1605.999902034
 20
827.7185070351
 30
0.0
 11
1550.881902034
 21
827.7185070351
 31
0.0
  0
SOLID
  5
115
100
AcDbEntity
  8
____
  6
CONTINUOUS
 62
         4
100
AcDbTrace
 10
1605.999902034
 20
827.7185070351
 30
0.0
 11
1603.299902034
 21
827.3135070351
 31
0.0
 12
1603.299902034
 22
828.1235070351
 32
0.0
 13
1605.999902034
 23
827.7185070351
 33
0.0
  0
SOLID
  5
116
100
AcDbEntity
  8
____
  6
CONTINUOUS
 62
         4
100
AcDbTrace
 10
1550.881902034
 20
827.7185070351
 30
0.0
 11
1553.581902034
 21
828.1235070351
 31
0.0
 12
1553.581902034
 22
827.3135070351
 32
0.0
 13
1550.881902034
 23
827.7185070351
 33
0.0
  0
TEXT
  5
118
100
AcDbEntity
  8
____
  6
CONTINUOUS
 62
         4
100
AcDbText
 10
1577.8826251044
 20
829.7435070351
 30
0.0
 40
2.7
  1
55
  7
BOX
100
AcDbText
  0
ENDBLK
  5
119
100
AcDbEntity
  8
0
  6
CONTINUOUS
100
AcDbBlockEnd
  0
BLOCK
  5
12E
100
AcDbEntity
  8
0
100
AcDbBlockBegin
  2
*D1
 70
        65
 10
0.0
 20
0.0
 30
0.0
  3
*D1
  1

  0
POINT
  5
130
100
AcDbEntity
  8
DEFPOINTS
  6
CONTINUOUS
 62
         0
100
AcDbPoint
 10
1605.999902034
 20
852.2833069238
 30
0.0
  0
POINT
  5
131
100
AcDbEntity
  8
DEFPOINTS
  6
CONTINUOUS
 62
         0
100
AcDbPoint
 10
1605.999902034
 20
771.6839665993
 30
0.0
  0
POINT
  5
132
100
AcDbEntity
  8
DEFPOINTS
  6
CONTINUOUS
 62
         0
100
AcDbPoint
 10
1446.149902034
 20
784.2319665993
 30
0.0
  0
LINE
  5
133
100
AcDbEntity
  8
____
  6
CONTINUOUS
 62
         4
100
AcDbLine
 10
1605.999902034
 20
773.0339665993
 30
0.0
 11
1605.999902034
 21
852.9583069238
 31
0.0
  0
LINE
  5
134
100
AcDbEntity
  8
____
  6
CONTINUOUS
 62
         4
100
AcDbLine
 10
1446.149902034
 20
785.5819665993
 30
0.0
 11
1446.149902034
 21
852.9583069238
 31
0.0
  0
LINE
  5
135
100
AcDbEntity
  8
____
  6
CONTINUOUS
 62
         4
100
AcDbLine
 10
1605.999902034
 20
852.2833069238
 30
0.0
 11
1446.149902034
 21
852.2833069238
 31
0.0
  0
SOLID
  5
136
100
AcDbEntity
  8
____
  6
CONTINUOUS
 62
         4
100
AcDbTrace
 10
1605.999902034
 20
852.2833069238
 30
0.0
 11
1603.299902034
 21
851.8783069238
 31
0.0
 12
1603.299902034
 22
852.6883069238
 32
0.0
 13
1605.999902034
 23
852.2833069238
 33
0.0
  0
SOLID
  5
137
100
AcDbEntity
  8
____
  6
CONTINUOUS
 62
         4
100
AcDbTrace
 10
1446.149902034
 20
852.2833069238
 30
0.0
 11
1448.849902034
 21
852.6883069238
 31
0.0
 12
1448.849902034
 22
851.8783069238
 32
0.0
 13
1446.149902034
 23
852.2833069238
 33
0.0
  0
TEXT
  5
139
100
AcDbEntity
  8
____
  6
CONTINUOUS
 62
         4
100
AcDbText
 10
1522.024902034
 20
854.3083069238
 30
0.0
 40
2.7
  1
160
  7
BOX
100
AcDbText
  0
ENDBLK
  5
13A
100
AcDbEntity
  8
0
  6
CONTINUOUS
100
AcDbBlockEnd
  0
BLOCK
  5
13C
100
AcDbEntity
  8
0
100
AcDbBlockBegin
  2
*D2
 70
        65
 10
0.0
 20
0.0
 30
0.0
  3
*D2
  1

  0
POINT
  5
13E
100
AcDbEntity
  8
DEFPOINTS
  6
CONTINUOUS
 62
         0
100
AcDbPoint
 10
1605.999902034
 20
860.4715735534
 30
0.0
  0
POINT
  5
13F
100
AcDbEntity
  8
DEFPOINTS
  6
CONTINUOUS
 62
         0
100
AcDbPoint
 10
1605.999902034
 20
771.6839665993
 30
0.0
  0
POINT
  5
140
100
AcDbEntity
  8
DEFPOINTS
  6
CONTINUOUS
 62
         0
100
AcDbPoint
 10
1377.749902034
 20
773.2192733157
 30
0.0
  0
LINE
  5
141
100
AcDbEntity
  8
____
  6
CONTINUOUS
 62
         4
100
AcDbLine
 10
1605.999902034
 20
773.0339665993
 30
0.0
 11
1605.999902034
 21
861.1465735534
 31
0.0
  0
LINE
  5
142
100
AcDbEntity
  8
____
  6
CONTINUOUS
 62
         4
100
AcDbLine
 10
1377.749902034
 20
774.5692733157
 30
0.0
 11
1377.749902034
 21
861.1465735534
 31
0.0
  0
LINE
  5
143
100
AcDbEntity
  8
____
  6
CONTINUOUS
 62
         4
100
AcDbLine
 10
1605.999902034
 20
860.4715735534
 30
0.0
 11
1377.749902034
 21
860.4715735534
 31
0.0
  0
SOLID
  5
144
100
AcDbEntity
  8
____
  6
CONTINUOUS
 62
         4
100
AcDbTrace
 10
1605.999902034
 20
860.4715735534
 30
0.0
 11
1603.299902034
 21
860.0665735534
 31
0.0
 12
1603.299902034
 22
860.8765735534
 32
0.0
 13
1605.999902034
 23
860.4715735534
 33
0.0
  0
SOLID
  5
145
100
AcDbEntity
  8
____
  6
CONTINUOUS
 62
         4
100
AcDbTrace
 10
1377.749902034
 20
860.4715735534
 30
0.0
 11
1380.449902034
 21
860.8765735534
 31
0.0
 12
1380.449902034
 22
860.0665735534
 32
0.0
 13
1377.749902034
 23
860.4715735534
 33
0.0
  0
TEXT
  5
147
100
AcDbEntity
  8
____
  6
CONTINUOUS
 62
         4
100
AcDbText
 10
1483.774902034
 20
862.4965735534
 30
0.0
 40
2.7
  1
228.25
  7
BOX
100
AcDbText
  0
ENDBLK
  5
148
100
AcDbEntity
  8
0
  6
CONTINUOUS
100
AcDbBlockEnd
  0
BLOCK
  5
16B
100
AcDbEntity
  8
0
100
AcDbBlockBegin
  2
*D3
 70
        65
 10
0.0
 20
0.0
 30
0.0
  3
*D3
  1

  0
POINT
  5
16D
100
AcDbEntity
  8
DEFPOINTS
  6
CONTINUOUS
 62
         0
100
AcDbPoint
 10
1582.381902034
 20
685.6664250939
 30
0.0
  0
POINT
  5
16E
100
AcDbEntity
  8
DEFPOINTS
  6
CONTINUOUS
 62
         0
100
AcDbPoint
 10
1582.381902034
 20
658.1003207807
 30
0.0
  0
POINT
  5
16F
100
AcDbEntity
  8
DEFPOINTS
  6
CONTINUOUS
 62
         0
100
AcDbPoint
 10
1550.881902034
 20
665.9503207807
 30
0.0
  0
LINE
  5
170
100
AcDbEntity
  8
____
  6
CONTINUOUS
 62
         4
100
AcDbLine
 10
1582.381902034
 20
659.4503207807
 30
0.0
 11
1582.381902034
 21
686.3414250939
 31
0.0
  0
LINE
  5
171
100
AcDbEntity
  8
____
  6
CONTINUOUS
 62
         4
100
AcDbLine
 10
1550.881902034
 20
667.3003207807
 30
0.0
 11
1550.881902034
 21
686.3414250939
 31
0.0
  0
LINE
  5
172
100
AcDbEntity
  8
____
  6
CONTINUOUS
 62
         4
100
AcDbLine
 10
1582.381902034
 20
685.6664250939
 30
0.0
 11
1550.881902034
 21
685.6664250939
 31
0.0
  0
SOLID
  5
173
100
AcDbEntity
  8
____
  6
CONTINUOUS
 62
         4
100
AcDbTrace
 10
1582.381902034
 20
685.6664250939
 30
0.0
 11
1579.681902034
 21
685.2614250939
 31
0.0
 12
1579.681902034
 22
686.0714250939
 32
0.0
 13
1582.381902034
 23
685.6664250939
 33
0.0
  0
SOLID
  5
174
100
AcDbEntity
  8
____
  6
CONTINUOUS
 62
         4
100
AcDbTrace
 10
1550.881902034
 20
685.6664250939
 30
0.0
 11
1553.581902034
 21
686.0714250939
 31
0.0
 12
1553.581902034
 22
685.2614250939
 32
0.0
 13
1550.881902034
 23
685.6664250939
 33
0.0
  0
TEXT
  5
176
100
AcDbEntity
  8
____
  6
CONTINUOUS
 62
         4
100
AcDbText
 10
1561.231902034
 20
687.6914250939
 30
0.0
 40
2.7
  1
31.5
  7
BOX
100
AcDbText
  0
ENDBLK
  5
177
100
AcDbEntity
  8
0
  6
CONTINUOUS
100
AcDbBlockEnd
  0
BLOCK
  5
186
100
AcDbEntity
  8
0
100
AcDbBlockBegin
  2
GENDIML6
 70
        64
 10
0.0
 20
0.0
 30
0.0
  3
GENDIML6
  1

  0
LINE
  5
187
100
AcDbEntity
  8
____
  6
CONTINUOUS
 62
         4
100
AcDbLine
 10
1719.6398336495
 20
619.0006243418
 30
0.0
 11
1733.2574256582
 21
619.0006243418
 31
0.0
  0
LINE
  5
188
100
AcDbEntity
  8
____
  6
CONTINUOUS
 62
         4
100
AcDbLine
 10
1719.6398336495
 20
580.9006243418
 30
0.0
 11
1733.2574256582
 21
580.9006243418
 31
0.0
  0
LINE
  5
189
100
AcDbEntity
  8
____
  6
CONTINUOUS
 62
         4
100
AcDbLine
 10
1732.5824256582
 20
619.0006243418
 30
0.0
 11
1732.5824256582
 21
580.9006243418
 31
0.0
  0
SOLID
  5
18A
100
AcDbEntity
  8
____
  6
CONTINUOUS
 62
         4
100
AcDbTrace
 10
1732.5824256582
 20
619.0006243418
 30
0.0
 11
1732.9874256582
 21
616.3006243418
 31
0.0
 12
1732.1774256582
 22
616.3006243418
 32
0.0
 13
1732.5824256582
 23
619.0006243418
 33
0.0
  0
SOLID
  5
18B
100
AcDbEntity
  8
____
  6
CONTINUOUS
 62
         4
100
AcDbTrace
 10
1732.5824256582
 20
580.9006243418
 30
0.0
 11
1732.1774256582
 21
583.6006243418
 31
0.0
 12
1732.9874256582
 22
583.6006243418
 32
0.0
 13
1732.5824256582
 23
580.9006243418
 33
0.0
  0
TEXT
  5
18D
100
AcDbEntity
  8
____
  6
CONTINUOUS
 62
         4
100
AcDbText
 10
1730.5574256582
 20
591.9265742149
 30
0.0
 40
2.7
  1
崷38.1
 50
90.0
  7
BOX
100
AcDbText
  0
ENDBLK
  5
18E
100
AcDbEntity
  8
0
  6
CONTINUOUS
100
AcDbBlockEnd
  0
BLOCK
  5
192
100
AcDbEntity
  8
0
100
AcDbBlockBegin
  2
*D5
 70
        65
 10
0.0
 20
0.0
 30
0.0
  3
*D5
  1

  0
POINT
  5
194
100
AcDbEntity
  8
DEFPOINTS
  6
CONTINUOUS
 62
         0
100
AcDbPoint
 10
1648.0890510844
 20
608.9742133046
 30
0.0
  0
POINT
  5
195
100
AcDbEntity
  8
DEFPOINTS
  6
CONTINUOUS
 62
         0
100
AcDbPoint
 10
1630.2156247502
 20
590.927035379
 30
0.0
  0
LINE
  5
196
100
AcDbEntity
  8
____
  6
CONTINUOUS
 62
         4
100
AcDbLine
 10
1630.2156247502
 20
590.927035379
 30
0.0
 11
1639.1523379173
 21
599.9506243418
 31
0.0
  0
SOLID
  5
197
100
AcDbEntity
  8
____
  6
CONTINUOUS
 62
         4
100
AcDbTrace
 10
1630.2156247502
 20
590.927035379
 30
0.0
 11
1631.8277957755
 21
593.1304258539
 31
0.0
 12
1632.4033160165
 22
592.5604465102
 32
0.0
 13
1630.2156247502
 23
590.927035379
 33
0.0
  0
LINE
  5
198
100
AcDbEntity
  8
____
  6
CONTINUOUS
 62
         4
100
AcDbLine
 10
1648.0890510844
 20
608.9742133046
 30
0.0
 11
1639.1523379173
 21
599.9506243418
 31
0.0
  0
SOLID
  5
199
100
AcDbEntity
  8
____
  6
CONTINUOUS
 62
         4
100
AcDbTrace
 10
1648.0890510844
 20
608.9742133046
 30
0.0
 11
1646.4768800591
 21
606.7708228296
 31
0.0
 12
1645.9013598181
 22
607.3408021733
 32
0.0
 13
1648.0890510844
 23
608.9742133046
 33
0.0
  0
TEXT
  5
19B
100
AcDbEntity
  8
____
  6
CONTINUOUS
 62
         4
100
AcDbText
 10
1632.1440154041
 20
593.4281012899
 30
0.0
 40
2.7
  1
崷25.4
 50
45.277143312
  7
BOX
100
AcDbText
  0
ENDBLK
  5
19C
100
AcDbEntity
  8
0
  6
CONTINUOUS
100
AcDbBlockEnd
  0
BLOCK
  5
19E
100
AcDbEntity
  8
0
100
AcDbBlockBegin
  2
*X6
 70
        65
 10
0.0
 20
0.0
 30
0.0
  3
*X6
  1

  0
LINE
  5
19F
100
AcDbEntity
  8
____
  6
CONTINUOUS
 62
         4
100
AcDbLine
 10
1717.9284844996
 20
615.0306243418
 30
0.0
 11
1719.2898336495
 21
616.3919734916
 31
0.0
  0
LINE
  5
1A0
100
AcDbEntity
  8
____
  6
CONTINUOUS
 62
         4
100
AcDbLine
 10
1716.5142709372
 20
615.0306243418
 30
0.0
 11
1719.2898336495
 21
617.806187054
 31
0.0
  0
LINE
  5
1A1
100
AcDbEntity
  8
____
  6
CONTINUOUS
 62
         4
100
AcDbLine
 10
1715.1000573749
 20
615.0306243418
 30
0.0
 11
1718.8784615086
 21
618.8090284755
 31
0.0
  0
LINE
  5
1A2
100
AcDbEntity
  8
____
  6
CONTINUOUS
 62
         4
100
AcDbLine
 10
1713.6858438125
 20
615.0306243418
 30
0.0
 11
1717.6558438125
 21
619.0006243418
 31
0.0
  0
LINE
  5
1A3
100
AcDbEntity
  8
____
  6
CONTINUOUS
 62
         4
100
AcDbLine
 10
1712.2716302501
 20
615.0306243418
 30
0.0
 11
1716.2416302501
 21
619.0006243418
 31
0.0
  0
LINE
  5
1A4
100
AcDbEntity
  8
____
  6
CONTINUOUS
 62
         4
100
AcDbLine
 10
1710.8574166877
 20
615.0306243418
 30
0.0
 11
1714.8274166877
 21
619.0006243418
 31
0.0
  0
LINE
  5
1A5
100
AcDbEntity
  8
____
  6
CONTINUOUS
 62
         4
100
AcDbLine
 10
1709.4432031254
 20
615.0306243418
 30
0.0
 11
1713.4132031254
 21
619.0006243418
 31
0.0
  0
LINE
  5
1A6
100
AcDbEntity
  8
____
  6
CONTINUOUS
 62
         4
100
AcDbLine
 10
1708.028989563
 20
615.0306243418
 30
0.0
 11
1711.998989563
 21
619.0006243418
 31
0.0
  0
LINE
  5
1A7
100
AcDbEntity
  8
____
  6
CONTINUOUS
 62
         4
100
AcDbLine
 10
1706.6147760006
 20
615.0306243418
 30
0.0
 11
1710.5847760006
 21
619.0006243418
 31
0.0
  0
LINE
  5
1A8
100
AcDbEntity
  8
____
  6
CONTINUOUS
 62
         4
100
AcDbLine
 10
1706.5898336495
 20
616.419895553
 30
0.0
 11
1709.1705624382
 21
619.0006243418
 31
0.0
  0
LINE
  5
1A9
100
AcDbEntity
  8
____
  6
CONTINUOUS
 62
         4
100
AcDbLine
 10
1706.5898336495
 20
617.8341091154
 30
0.0
 11
1707.7563488759
 21
619.0006243418
 31
0.0
  0
ENDBLK
  5
1AA
100
AcDbEntity
  8
0
  6
CONTINUOUS
100
AcDbBlockEnd
  0
BLOCK
  5
1AE
100
AcDbEntity
  8
0
100
AcDbBlockBegin
  2
*X7
 70
        65
 10
0.0
 20
0.0
 30
0.0
  3
*X7
  1

  0
LINE
  5
1AF
100
AcDbEntity
  8
____
  6
CONTINUOUS
 62
         4
100
AcDbLine
 10
1717.7396099966
 20
580.9006243418
 30
0.0
 11
1719.2898336495
 21
582.4508479947
 31
0.0
  0
LINE
  5
1B0
100
AcDbEntity
  8
____
  6
CONTINUOUS
 62
         4
100
AcDbLine
 10
1716.3253964342
 20
580.9006243418
 30
0.0
 11
1719.2898336495
 21
583.865061557
 31
0.0
  0
LINE
  5
1B1
100
AcDbEntity
  8
____
  6
CONTINUOUS
 62
         4
100
AcDbLine
 10
1714.9111828718
 20
580.9006243418
 30
0.0
 11
1719.2898336495
 21
585.2792751194
 31
0.0
  0
LINE
  5
1B2
100
AcDbEntity
  8
____
  6
CONTINUOUS
 62
         4
100
AcDbLine
 10
1713.4969693094
 20
580.9006243418
 30
0.0
 11
1719.2898336495
 21
586.6934886818
 31
0.0
  0
LINE
  5
1B3
100
AcDbEntity
  8
____
  6
CONTINUOUS
 62
         4
100
AcDbLine
 10
1712.0827557471
 20
580.9006243418
 30
0.0
 11
1718.4327557471
 21
587.2506243418
 31
0.0
  0
LINE
  5
1B4
100
AcDbEntity
  8
____
  6
CONTINUOUS
 62
         4
100
AcDbLine
 10
1710.6685421847
 20
580.9006243418
 30
0.0
 11
1717.0185421847
 21
587.2506243418
 31
0.0
  0
LINE
  5
1B5
100
AcDbEntity
  8
____
  6
CONTINUOUS
 62
         4
100
AcDbLine
 10
1709.2543286223
 20
580.9006243418
 30
0.0
 11
1715.6043286223
 21
587.2506243418
 31
0.0
  0
LINE
  5
1B6
100
AcDbEntity
  8
____
  6
CONTINUOUS
 62
         4
100
AcDbLine
 10
1707.8401150599
 20
580.9006243418
 30
0.0
 11
1714.1901150599
 21
587.2506243418
 31
0.0
  0
LINE
  5
1B7
100
AcDbEntity
  8
____
  6
CONTINUOUS
 62
         4
100
AcDbLine
 10
1706.8055275117
 20
581.2802503559
 30
0.0
 11
1712.7759014976
 21
587.2506243418
 31
0.0
  0
LINE
  5
1B8
100
AcDbEntity
  8
____
  6
CONTINUOUS
 62
         4
100
AcDbLine
 10
1706.5898336495
 20
582.478770056
 30
0.0
 11
1711.3616879352
 21
587.2506243418
 31
0.0
  0
LINE
  5
1B9
100
AcDbEntity
  8
____
  6
CONTINUOUS
 62
         4
100
AcDbLine
 10
1706.5898336495
 20
583.8929836184
 30
0.0
 11
1709.9474743728
 21
587.2506243418
 31
0.0
  0
LINE
  5
1BA
100
AcDbEntity
  8
____
  6
CONTINUOUS
 62
         4
100
AcDbLine
 10
1706.5898336495
 20
585.3071971808
 30
0.0
 11
1708.5332608105
 21
587.2506243418
 31
0.0
  0
LINE
  5
1BB
100
AcDbEntity
  8
____
  6
CONTINUOUS
 62
         4
100
AcDbLine
 10
1706.5898336495
 20
586.7214107431
 30
0.0
 11
1707.1190472481
 21
587.2506243418
 31
0.0
  0
ENDBLK
  5
1BC
100
AcDbEntity
  8
0
  6
CONTINUOUS
100
AcDbBlockEnd
  0
BLOCK
  5
1C4
100
AcDbEntity
  8
0
100
AcDbBlockBegin
  2
*D8
 70
        65
 10
0.0
 20
0.0
 30
0.0
  3
*D8
  1

  0
POINT
  5
1C6
100
AcDbEntity
  8
DEFPOINTS
  6
CONTINUOUS
 62
         0
100
AcDbPoint
 10
1706.5898336495
 20
630.2550290132
 30
0.0
  0
POINT
  5
1C7
100
AcDbEntity
  8
DEFPOINTS
  6
CONTINUOUS
 62
         0
100
AcDbPoint
 10
1706.5898336495
 20
618.2006243418
 30
0.0
  0
POINT
  5
1C8
100
AcDbEntity
  8
DEFPOINTS
  6
CONTINUOUS
 62
         0
100
AcDbPoint
 10
1719.2898336495
 20
618.2006243418
 30
0.0
  0
LINE
  5
1C9
100
AcDbEntity
  8
____
  6
CONTINUOUS
 62
         4
100
AcDbLine
 10
1706.5898336495
 20
619.5506243418
 30
0.0
 11
1706.5898336495
 21
630.9300290132
 31
0.0
  0
LINE
  5
1CA
100
AcDbEntity
  8
____
  6
CONTINUOUS
 62
         4
100
AcDbLine
 10
1719.2898336495
 20
619.5506243418
 30
0.0
 11
1719.2898336495
 21
630.9300290132
 31
0.0
  0
LINE
  5
1CB
100
AcDbEntity
  8
____
  6
CONTINUOUS
 62
         4
100
AcDbLine
 10
1706.5898336495
 20
630.2550290132
 30
0.0
 11
1719.2898336495
 21
630.2550290132
 31
0.0
  0
SOLID
  5
1CC
100
AcDbEntity
  8
____
  6
CONTINUOUS
 62
         4
100
AcDbTrace
 10
1706.5898336495
 20
630.2550290132
 30
0.0
 11
1709.2898336495
 21
630.6600290132
 31
0.0
 12
1709.2898336495
 22
629.8500290132
 32
0.0
 13
1706.5898336495
 23
630.2550290132
 33
0.0
  0
SOLID
  5
1CD
100
AcDbEntity
  8
____
  6
CONTINUOUS
 62
         4
100
AcDbTrace
 10
1719.2898336495
 20
630.2550290132
 30
0.0
 11
1716.5898336495
 21
629.8500290132
 31
0.0
 12
1716.5898336495
 22
630.6600290132
 32
0.0
 13
1719.2898336495
 23
630.2550290132
 33
0.0
  0
TEXT
  5
1CF
100
AcDbEntity
  8
____
  6
CONTINUOUS
 62
         4
100
AcDbText
 10
1707.5398336495
 20
632.2800290132
 30
0.0
 40
2.7
  1
12.7
  7
BOX
100
AcDbText
  0
ENDBLK
  5
1D0
100
AcDbEntity
  8
0
  6
CONTINUOUS
100
AcDbBlockEnd
  0
BLOCK
  5
1E0
100
AcDbEntity
  8
0
100
AcDbBlockBegin
  2
*X9
 70
        65
 10
0.0
 20
0.0
 30
0.0
  3
*X9
  1

  0
LINE
  5
1E1
100
AcDbEntity
  8
____
  6
CONTINUOUS
 62
         4
100
AcDbLine
 10
1696.1122506837
 20
615.0306243418
 30
0.0
 11
1696.5898336495
 21
615.5082073075
 31
0.0
  0
LINE
  5
1E2
100
AcDbEntity
  8
____
  6
CONTINUOUS
 62
         4
100
AcDbLine
 10
1694.6980371213
 20
615.0306243418
 30
0.0
 11
1696.5898336495
 21
616.9224208699
 31
0.0
  0
LINE
  5
1E3
100
AcDbEntity
  8
____
  6
CONTINUOUS
 62
         4
100
AcDbLine
 10
1693.2838235589
 20
615.0306243418
 30
0.0
 11
1696.5461517177
 21
618.2929525005
 31
0.0
  0
LINE
  5
1E4
100
AcDbEntity
  8
____
  6
CONTINUOUS
 62
         4
100
AcDbLine
 10
1691.8696099966
 20
615.0306243418
 30
0.0
 11
1695.8141307966
 21
618.9751451418
 31
0.0
  0
LINE
  5
1E5
100
AcDbEntity
  8
____
  6
CONTINUOUS
 62
         4
100
AcDbLine
 10
1690.4553964342
 20
615.0306243418
 30
0.0
 11
1694.4253964342
 21
619.0006243418
 31
0.0
  0
LINE
  5
1E6
100
AcDbEntity
  8
____
  6
CONTINUOUS
 62
         4
100
AcDbLine
 10
1689.0411828718
 20
615.0306243418
 30
0.0
 11
1693.0111828718
 21
619.0006243418
 31
0.0
  0
LINE
  5
1E7
100
AcDbEntity
  8
____
  6
CONTINUOUS
 62
         4
100
AcDbLine
 10
1687.6269693094
 20
615.0306243418
 30
0.0
 11
1691.5969693094
 21
619.0006243418
 31
0.0
  0
LINE
  5
1E8
100
AcDbEntity
  8
____
  6
CONTINUOUS
 62
         4
100
AcDbLine
 10
1687.0648336495
 20
615.8827022442
 30
0.0
 11
1690.1827557471
 21
619.0006243418
 31
0.0
  0
LINE
  5
1E9
100
AcDbEntity
  8
____
  6
CONTINUOUS
 62
         4
100
AcDbLine
 10
1687.0648336495
 20
617.2969158065
 30
0.0
 11
1688.7685421847
 21
619.0006243418
 31
0.0
  0
ENDBLK
  5
1EA
100
AcDbEntity
  8
0
  6
CONTINUOUS
100
AcDbBlockEnd
  0
BLOCK
  5
1EE
100
AcDbEntity
  8
0
100
AcDbBlockBegin
  2
*X10
 70
        65
 10
0.0
 20
0.0
 30
0.0
  3
*X10
  1

  0
LINE
  5
1EF
100
AcDbEntity
  8
____
  6
CONTINUOUS
 62
         4
100
AcDbLine
 10
1696.0211987142
 20
580.9984468753
 30
0.0
 11
1696.4920111159
 21
581.469259277
 31
0.0
  0
LINE
  5
1F0
100
AcDbEntity
  8
____
  6
CONTINUOUS
 62
         4
100
AcDbLine
 10
1694.5091626183
 20
580.9006243418
 30
0.0
 11
1696.5898336495
 21
582.981295373
 31
0.0
  0
LINE
  5
1F1
100
AcDbEntity
  8
____
  6
CONTINUOUS
 62
         4
100
AcDbLine
 10
1693.0949490559
 20
580.9006243418
 30
0.0
 11
1696.5898336495
 21
584.3955089353
 31
0.0
  0
LINE
  5
1F2
100
AcDbEntity
  8
____
  6
CONTINUOUS
 62
         4
100
AcDbLine
 10
1691.6807354935
 20
580.9006243418
 30
0.0
 11
1696.5898336495
 21
585.8097224977
 31
0.0
  0
LINE
  5
1F3
100
AcDbEntity
  8
____
  6
CONTINUOUS
 62
         4
100
AcDbLine
 10
1690.2665219311
 20
580.9006243418
 30
0.0
 11
1696.3531777903
 21
586.9872802009
 31
0.0
  0
LINE
  5
1F4
100
AcDbEntity
  8
____
  6
CONTINUOUS
 62
         4
100
AcDbLine
 10
1688.8523083688
 20
580.9006243418
 30
0.0
 11
1695.2023083688
 21
587.2506243418
 31
0.0
  0
LINE
  5
1F5
100
AcDbEntity
  8
____
  6
CONTINUOUS
 62
         4
100
AcDbLine
 10
1687.5694312176
 20
581.031960753
 30
0.0
 11
1693.7880948064
 21
587.2506243418
 31
0.0
  0
LINE
  5
1F6
100
AcDbEntity
  8
____
  6
CONTINUOUS
 62
         4
100
AcDbLine
 10
1687.0648336495
 20
581.9415767472
 30
0.0
 11
1692.373881244
 21
587.2506243418
 31
0.0
  0
LINE
  5
1F7
100
AcDbEntity
  8
____
  6
CONTINUOUS
 62
         4
100
AcDbLine
 10
1687.0648336495
 20
583.3557903096
 30
0.0
 11
1690.9596676816
 21
587.2506243418
 31
0.0
  0
LINE
  5
1F8
100
AcDbEntity
  8
____
  6
CONTINUOUS
 62
         4
100
AcDbLine
 10
1687.0648336495
 20
584.770003872
 30
0.0
 11
1689.5454541193
 21
587.2506243418
 31
0.0
  0
LINE
  5
1F9
100
AcDbEntity
  8
____
  6
CONTINUOUS
 62
         4
100
AcDbLine
 10
1687.0648336495
 20
586.1842174343
 30
0.0
 11
1688.1312405569
 21
587.2506243418
 31
0.0
  0
ENDBLK
  5
1FA
100
AcDbEntity
  8
0
  6
CONTINUOUS
100
AcDbBlockEnd
  0
BLOCK
  5
201
100
AcDbEntity
  8
0
100
AcDbBlockBegin
  2
*D11
 70
        65
 10
0.0
 20
0.0
 30
0.0
  3
*D11
  1

  0
POINT
  5
203
100
AcDbEntity
  8
DEFPOINTS
  6
CONTINUOUS
 62
         0
100
AcDbPoint
 10
1687.0648336495
 20
628.7995583783
 30
0.0
  0
POINT
  5
204
100
AcDbEntity
  8
DEFPOINTS
  6
CONTINUOUS
 62
         0
100
AcDbPoint
 10
1687.0648336495
 20
618.2006243418
 30
0.0
  0
POINT
  5
205
100
AcDbEntity
  8
DEFPOINTS
  6
CONTINUOUS
 62
         0
100
AcDbPoint
 10
1696.5898336495
 20
618.2006243418
 30
0.0
  0
LINE
  5
206
100
AcDbEntity
  8
____
  6
CONTINUOUS
 62
         4
100
AcDbLine
 10
1687.0648336495
 20
619.5506243418
 30
0.0
 11
1687.0648336495
 21
629.4745583783
 31
0.0
  0
LINE
  5
207
100
AcDbEntity
  8
____
  6
CONTINUOUS
 62
         4
100
AcDbLine
 10
1696.5898336495
 20
619.5506243418
 30
0.0
 11
1696.5898336495
 21
629.4745583783
 31
0.0
  0
LINE
  5
208
100
AcDbEntity
  8
____
  6
CONTINUOUS
 62
         4
100
AcDbLine
 10
1687.0648336495
 20
628.7995583783
 30
0.0
 11
1696.5898336495
 21
628.7995583783
 31
0.0
  0
SOLID
  5
209
100
AcDbEntity
  8
____
  6
CONTINUOUS
 62
         4
100
AcDbTrace
 10
1687.0648336495
 20
628.7995583783
 30
0.0
 11
1689.7648336495
 21
629.2045583783
 31
0.0
 12
1689.7648336495
 22
628.3945583783
 32
0.0
 13
1687.0648336495
 23
628.7995583783
 33
0.0
  0
SOLID
  5
20A
100
AcDbEntity
  8
____
  6
CONTINUOUS
 62
         4
100
AcDbTrace
 10
1696.5898336495
 20
628.7995583783
 30
0.0
 11
1693.8898336495
 21
628.3945583783
 31
0.0
 12
1693.8898336495
 22
629.2045583783
 32
0.0
 13
1696.5898336495
 23
628.7995583783
 33
0.0
  0
TEXT
  5
20C
100
AcDbEntity
  8
____
  6
CONTINUOUS
 62
         4
100
AcDbText
 10
1689.3090451925
 20
630.8245583783
 30
0.0
 40
2.7
  1
9.525
  7
BOX
100
AcDbText
  0
ENDBLK
  5
20D
100
AcDbEntity
  8
0
  6
CONTINUOUS
100
AcDbBlockEnd
  0
BLOCK
  5
21D
100
AcDbEntity
  8
0
100
AcDbBlockBegin
  2
*X12
 70
        65
 10
0.0
 20
0.0
 30
0.0
  3
*X12
  1

  0
LINE
  5
21E
100
AcDbEntity
  8
____
  6
CONTINUOUS
 62
         4
100
AcDbLine
 10
1681.715281064
 20
615.0306243418
 30
0.0
 11
1682.0648336495
 21
615.3801769272
 31
0.0
  0
LINE
  5
21F
100
AcDbEntity
  8
____
  6
CONTINUOUS
 62
         4
100
AcDbLine
 10
1680.3010675016
 20
615.0306243418
 30
0.0
 11
1682.0648336495
 21
616.7943904896
 31
0.0
  0
LINE
  5
220
100
AcDbEntity
  8
____
  6
CONTINUOUS
 62
         4
100
AcDbLine
 10
1678.8868539393
 20
615.0306243418
 30
0.0
 11
1682.0466560212
 21
618.1904264237
 31
0.0
  0
LINE
  5
221
100
AcDbEntity
  8
____
  6
CONTINUOUS
 62
         4
100
AcDbLine
 10
1677.4726403769
 20
615.0306243418
 30
0.0
 11
1681.3887321965
 21
618.9467161614
 31
0.0
  0
LINE
  5
222
100
AcDbEntity
  8
____
  6
CONTINUOUS
 62
         4
100
AcDbLine
 10
1676.0584268145
 20
615.0306243418
 30
0.0
 11
1680.0284268145
 21
619.0006243418
 31
0.0
  0
LINE
  5
223
100
AcDbEntity
  8
____
  6
CONTINUOUS
 62
         4
100
AcDbLine
 10
1675.7148336495
 20
616.1012447391
 30
0.0
 11
1678.6142132521
 21
619.0006243418
 31
0.0
  0
LINE
  5
224
100
AcDbEntity
  8
____
  6
CONTINUOUS
 62
         4
100
AcDbLine
 10
1675.7148336495
 20
617.5154583015
 30
0.0
 11
1677.1999996898
 21
619.0006243418
 31
0.0
  0
ENDBLK
  5
225
100
AcDbEntity
  8
0
  6
CONTINUOUS
100
AcDbBlockEnd
  0
BLOCK
  5
229
100
AcDbEntity
  8
0
100
AcDbBlockBegin
  2
*X13
 70
        65
 10
0.0
 20
0.0
 30
0.0
  3
*X13
  1

  0
LINE
  5
22A
100
AcDbEntity
  8
____
  6
CONTINUOUS
 62
         4
100
AcDbLine
 10
1680.1121929986
 20
580.9006243418
 30
0.0
 11
1682.0648336495
 21
582.8532649926
 31
0.0
  0
LINE
  5
22B
100
AcDbEntity
  8
____
  6
CONTINUOUS
 62
         4
100
AcDbLine
 10
1678.6979794362
 20
580.9006243418
 30
0.0
 11
1682.0648336495
 21
584.267478555
 31
0.0
  0
LINE
  5
22C
100
AcDbEntity
  8
____
  6
CONTINUOUS
 62
         4
100
AcDbLine
 10
1677.2837658738
 20
580.9006243418
 30
0.0
 11
1682.0648336495
 21
585.6816921174
 31
0.0
  0
LINE
  5
22D
100
AcDbEntity
  8
____
  6
CONTINUOUS
 62
         4
100
AcDbLine
 10
1676.0893305943
 20
581.1204026246
 30
0.0
 11
1681.8921929805
 21
586.9232650108
 31
0.0
  0
LINE
  5
22E
100
AcDbEntity
  8
____
  6
CONTINUOUS
 62
         4
100
AcDbLine
 10
1675.7148336495
 20
582.1601192421
 30
0.0
 11
1680.8053387491
 21
587.2506243418
 31
0.0
  0
LINE
  5
22F
100
AcDbEntity
  8
____
  6
CONTINUOUS
 62
         4
100
AcDbLine
 10
1675.7148336495
 20
583.5743328045
 30
0.0
 11
1679.3911251867
 21
587.2506243418
 31
0.0
  0
LINE
  5
230
100
AcDbEntity
  8
____
  6
CONTINUOUS
 62
         4
100
AcDbLine
 10
1675.7148336495
 20
584.9885463669
 30
0.0
 11
1677.9769116244
 21
587.2506243418
 31
0.0
  0
LINE
  5
231
100
AcDbEntity
  8
____
  6
CONTINUOUS
 62
         4
100
AcDbLine
 10
1675.7148336495
 20
586.4027599292
 30
0.0
 11
1676.562698062
 21
587.2506243418
 31
0.0
  0
ENDBLK
  5
232
100
AcDbEntity
  8
0
  6
CONTINUOUS
100
AcDbBlockEnd
  0
BLOCK
  5
236
100
AcDbEntity
  8
0
100
AcDbBlockBegin
  2
*X14
 70
        65
 10
0.0
 20
0.0
 30
0.0
  3
*X14
  1

  0
LINE
  5
237
100
AcDbEntity
  8
____
  6
CONTINUOUS
 62
         4
100
AcDbLine
 10
1670.5559014976
 20
615.0306243418
 30
0.0
 11
1670.7148336495
 21
615.1895564937
 31
0.0
  0
LINE
  5
238
100
AcDbEntity
  8
____
  6
CONTINUOUS
 62
         4
100
AcDbLine
 10
1669.1416879352
 20
615.0306243418
 30
0.0
 11
1670.7148336495
 21
616.603770056
 31
0.0
  0
LINE
  5
239
100
AcDbEntity
  8
____
  6
CONTINUOUS
 62
         4
100
AcDbLine
 10
1667.7274743728
 20
615.0306243418
 30
0.0
 11
1670.7146855266
 21
618.0178354955
 31
0.0
  0
LINE
  5
23A
100
AcDbEntity
  8
____
  6
CONTINUOUS
 62
         4
100
AcDbLine
 10
1667.5398336495
 20
616.2571971808
 30
0.0
 11
1670.1724239604
 21
618.8897874917
 31
0.0
  0
LINE
  5
23B
100
AcDbEntity
  8
____
  6
CONTINUOUS
 62
         4
100
AcDbLine
 10
1667.5398336495
 20
617.6714107431
 30
0.0
 11
1668.8690472481
 21
619.0006243418
 31
0.0
  0
ENDBLK
  5
23C
100
AcDbEntity
  8
0
  6
CONTINUOUS
100
AcDbBlockEnd
  0
BLOCK
  5
240
100
AcDbEntity
  8
0
100
AcDbBlockBegin
  2
*X15
 70
        65
 10
0.0
 20
0.0
 30
0.0
  3
*X15
  1

  0
LINE
  5
241
100
AcDbEntity
  8
____
  6
CONTINUOUS
 62
         4
100
AcDbLine
 10
1668.9528134322
 20
580.9006243418
 30
0.0
 11
1670.7148336495
 21
582.6626445591
 31
0.0
  0
LINE
  5
242
100
AcDbEntity
  8
____
  6
CONTINUOUS
 62
         4
100
AcDbLine
 10
1667.8321102475
 20
581.1941347195
 30
0.0
 11
1670.7148336495
 21
584.0768581214
 31
0.0
  0
LINE
  5
243
100
AcDbEntity
  8
____
  6
CONTINUOUS
 62
         4
100
AcDbLine
 10
1667.5398336495
 20
582.3160716838
 30
0.0
 11
1670.7148336495
 21
585.4910716838
 31
0.0
  0
LINE
  5
244
100
AcDbEntity
  8
____
  6
CONTINUOUS
 62
         4
100
AcDbLine
 10
1667.5398336495
 20
583.7302852462
 30
0.0
 11
1670.6375031973
 21
586.827954794
 31
0.0
  0
LINE
  5
245
100
AcDbEntity
  8
____
  6
CONTINUOUS
 62
         4
100
AcDbLine
 10
1667.5398336495
 20
585.1444988086
 30
0.0
 11
1669.6459591827
 21
587.2506243418
 31
0.0
  0
LINE
  5
246
100
AcDbEntity
  8
____
  6
CONTINUOUS
 62
         4
100
AcDbLine
 10
1667.5398336495
 20
586.5587123709
 30
0.0
 11
1668.2317456203
 21
587.2506243418
 31
0.0
  0
ENDBLK
  5
247
100
AcDbEntity
  8
0
  6
CONTINUOUS
100
AcDbBlockEnd
  0
BLOCK
  5
24D
100
AcDbEntity
  8
0
100
AcDbBlockBegin
  2
*D16
 70
        65
 10
0.0
 20
0.0
 30
0.0
  3
*D16
  1

  0
POINT
  5
24F
100
AcDbEntity
  8
DEFPOINTS
  6
CONTINUOUS
 62
         0
100
AcDbPoint
 10
1675.7148336495
 20
625.6481808922
 30
0.0
  0
POINT
  5
250
100
AcDbEntity
  8
DEFPOINTS
  6
CONTINUOUS
 62
         0
100
AcDbPoint
 10
1675.7148336495
 20
618.2006243418
 30
0.0
  0
POINT
  5
251
100
AcDbEntity
  8
DEFPOINTS
  6
CONTINUOUS
 62
         0
100
AcDbPoint
 10
1682.0648336495
 20
618.2006243418
 30
0.0
  0
LINE
  5
252
100
AcDbEntity
  8
____
  6
CONTINUOUS
 62
         4
100
AcDbLine
 10
1675.7148336495
 20
619.5506243418
 30
0.0
 11
1675.7148336495
 21
626.3231808922
 31
0.0
  0
LINE
  5
253
100
AcDbEntity
  8
____
  6
CONTINUOUS
 62
         4
100
AcDbLine
 10
1682.0648336495
 20
619.5506243418
 30
0.0
 11
1682.0648336495
 21
626.3231808922
 31
0.0
  0
LINE
  5
254
100
AcDbEntity
  8
____
  6
CONTINUOUS
 62
         4
100
AcDbLine
 10
1675.7148336495
 20
625.6481808922
 30
0.0
 11
1682.0648336495
 21
625.6481808922
 31
0.0
  0
SOLID
  5
255
100
AcDbEntity
  8
____
  6
CONTINUOUS
 62
         4
100
AcDbTrace
 10
1675.7148336495
 20
625.6481808922
 30
0.0
 11
1678.4148336495
 21
626.0531808922
 31
0.0
 12
1678.4148336495
 22
625.2431808922
 32
0.0
 13
1675.7148336495
 23
625.6481808922
 33
0.0
  0
SOLID
  5
256
100
AcDbEntity
  8
____
  6
CONTINUOUS
 62
         4
100
AcDbTrace
 10
1682.0648336495
 20
625.6481808922
 30
0.0
 11
1679.3648336495
 21
625.2431808922
 31
0.0
 12
1679.3648336495
 22
626.0531808922
 32
0.0
 13
1682.0648336495
 23
625.6481808922
 33
0.0
  0
TEXT
  5
258
100
AcDbEntity
  8
____
  6
CONTINUOUS
 62
         4
100
AcDbText
 10
1673.4898336495
 20
627.6731808922
 30
0.0
 40
2.7
  1
6.35
  7
BOX
100
AcDbText
  0
ENDBLK
  5
259
100
AcDbEntity
  8
0
  6
CONTINUOUS
100
AcDbBlockEnd
  0
BLOCK
  5
26E
100
AcDbEntity
  8
0
100
AcDbBlockBegin
  2
*D17
 70
        65
 10
0.0
 20
0.0
 30
0.0
  3
*D17
  1

  0
POINT
  5
270
100
AcDbEntity
  8
DEFPOINTS
  6
CONTINUOUS
 62
         0
100
AcDbPoint
 10
1667.5398336495
 20
628.8153889754
 30
0.0
  0
POINT
  5
271
100
AcDbEntity
  8
DEFPOINTS
  6
CONTINUOUS
 62
         0
100
AcDbPoint
 10
1667.5398336495
 20
618.2006243418
 30
0.0
  0
POINT
  5
272
100
AcDbEntity
  8
DEFPOINTS
  6
CONTINUOUS
 62
         0
100
AcDbPoint
 10
1670.7148336495
 20
618.2006243418
 30
0.0
  0
LINE
  5
273
100
AcDbEntity
  8
____
  6
CONTINUOUS
 62
         4
100
AcDbLine
 10
1667.5398336495
 20
619.5506243418
 30
0.0
 11
1667.5398336495
 21
629.4903889754
 31
0.0
  0
LINE
  5
274
100
AcDbEntity
  8
____
  6
CONTINUOUS
 62
         4
100
AcDbLine
 10
1670.7148336495
 20
619.5506243418
 30
0.0
 11
1670.7148336495
 21
629.4903889754
 31
0.0
  0
LINE
  5
275
100
AcDbEntity
  8
____
  6
CONTINUOUS
 62
         4
100
AcDbLine
 10
1667.5398336495
 20
628.8153889754
 30
0.0
 11
1670.7148336495
 21
628.8153889754
 31
0.0
  0
SOLID
  5
276
100
AcDbEntity
  8
____
  6
CONTINUOUS
 62
         4
100
AcDbTrace
 10
1667.5398336495
 20
628.8153889754
 30
0.0
 11
1670.2398336495
 21
629.2203889754
 31
0.0
 12
1670.2398336495
 22
628.4103889754
 32
0.0
 13
1667.5398336495
 23
628.8153889754
 33
0.0
  0
SOLID
  5
277
100
AcDbEntity
  8
____
  6
CONTINUOUS
 62
         4
100
AcDbTrace
 10
1670.7148336495
 20
628.8153889754
 30
0.0
 11
1668.0148336495
 21
628.4103889754
 31
0.0
 12
1668.0148336495
 22
629.2203889754
 32
0.0
 13
1670.7148336495
 23
628.8153889754
 33
0.0
  0
TEXT
  5
279
100
AcDbEntity
  8
____
  6
CONTINUOUS
 62
         4
100
AcDbText
 10
1662.3773336495
 20
630.8403889754
 30
0.0
 40
2.7
  1
3.175
  7
BOX
100
AcDbText
  0
ENDBLK
  5
27A
100
AcDbEntity
  8
0
  6
CONTINUOUS
100
AcDbBlockEnd
  0
BLOCK
  5
289
100
AcDbEntity
  8
0
100
AcDbBlockBegin
  2
*D18
 70
        65
 10
0.0
 20
0.0
 30
0.0
  3
*D18
  1

  0
POINT
  5
28B
100
AcDbEntity
  8
DEFPOINTS
  6
CONTINUOUS
 62
         0
100
AcDbPoint
 10
1642.3273379173
 20
627.9932839718
 30
0.0
  0
POINT
  5
28C
100
AcDbEntity
  8
DEFPOINTS
  6
CONTINUOUS
 62
         0
100
AcDbPoint
 10
1642.3273379173
 20
612.247346466
 30
0.0
  0
POINT
  5
28D
100
AcDbEntity
  8
DEFPOINTS
  6
CONTINUOUS
 62
         0
100
AcDbPoint
 10
1635.9773379173
 20
612.247346466
 30
0.0
  0
LINE
  5
28E
100
AcDbEntity
  8
____
  6
CONTINUOUS
 62
         4
100
AcDbLine
 10
1642.3273379173
 20
613.597346466
 30
0.0
 11
1642.3273379173
 21
628.6682839718
 31
0.0
  0
LINE
  5
28F
100
AcDbEntity
  8
____
  6
CONTINUOUS
 62
         4
100
AcDbLine
 10
1635.9773379173
 20
613.597346466
 30
0.0
 11
1635.9773379173
 21
628.6682839718
 31
0.0
  0
LINE
  5
290
100
AcDbEntity
  8
____
  6
CONTINUOUS
 62
         4
100
AcDbLine
 10
1642.3273379173
 20
627.9932839718
 30
0.0
 11
1635.9773379173
 21
627.9932839718
 31
0.0
  0
SOLID
  5
291
100
AcDbEntity
  8
____
  6
CONTINUOUS
 62
         4
100
AcDbTrace
 10
1642.3273379173
 20
627.9932839718
 30
0.0
 11
1639.6273379173
 21
627.5882839718
 31
0.0
 12
1639.6273379173
 22
628.3982839718
 32
0.0
 13
1642.3273379173
 23
627.9932839718
 33
0.0
  0
SOLID
  5
292
100
AcDbEntity
  8
____
  6
CONTINUOUS
 62
         4
100
AcDbTrace
 10
1635.9773379173
 20
627.9932839718
 30
0.0
 11
1638.6773379173
 21
628.3982839718
 31
0.0
 12
1638.6773379173
 22
627.5882839718
 32
0.0
 13
1635.9773379173
 23
627.9932839718
 33
0.0
  0
TEXT
  5
294
100
AcDbEntity
  8
____
  6
CONTINUOUS
 62
         4
100
AcDbText
 10
1633.7523379173
 20
630.0182839718
 30
0.0
 40
2.7
  1
6.35
  7
BOX
100
AcDbText
  0
ENDBLK
  5
295
100
AcDbEntity
  8
0
  6
CONTINUOUS
100
AcDbBlockEnd
  0
BLOCK
  5
297
100
AcDbEntity
  8
0
100
AcDbBlockBegin
  2
*D19
 70
        65
 10
0.0
 20
0.0
 30
0.0
  3
*D19
  1

  0
POINT
  5
299
100
AcDbEntity
  8
DEFPOINTS
  6
CONTINUOUS
 62
         0
100
AcDbPoint
 10
1616.1818723374
 20
615.0306243418
 30
0.0
  0
POINT
  5
29A
100
AcDbEntity
  8
DEFPOINTS
  6
CONTINUOUS
 62
         0
100
AcDbPoint
 10
1639.1523379173
 20
615.0306243418
 30
0.0
  0
POINT
  5
29B
100
AcDbEntity
  8
DEFPOINTS
  6
CONTINUOUS
 62
         0
100
AcDbPoint
 10
1639.1523379173
 20
587.2506243418
 30
0.0
  0
LINE
  5
29C
100
AcDbEntity
  8
____
  6
CONTINUOUS
 62
         4
100
AcDbLine
 10
1637.8023379173
 20
615.0306243418
 30
0.0
 11
1615.5068723374
 21
615.0306243418
 31
0.0
  0
LINE
  5
29D
100
AcDbEntity
  8
____
  6
CONTINUOUS
 62
         4
100
AcDbLine
 10
1637.8023379173
 20
587.2506243418
 30
0.0
 11
1615.5068723374
 21
587.2506243418
 31
0.0
  0
LINE
  5
29E
100
AcDbEntity
  8
____
  6
CONTINUOUS
 62
         4
100
AcDbLine
 10
1616.1818723374
 20
615.0306243418
 30
0.0
 11
1616.1818723374
 21
587.2506243418
 31
0.0
  0
SOLID
  5
29F
100
AcDbEntity
  8
____
  6
CONTINUOUS
 62
         4
100
AcDbTrace
 10
1616.1818723374
 20
615.0306243418
 30
0.0
 11
1616.5868723374
 21
612.3306243418
 31
0.0
 12
1615.7768723374
 22
612.3306243418
 32
0.0
 13
1616.1818723374
 23
615.0306243418
 33
0.0
  0
SOLID
  5
2A0
100
AcDbEntity
  8
____
  6
CONTINUOUS
 62
         4
100
AcDbTrace
 10
1616.1818723374
 20
587.2506243418
 30
0.0
 11
1615.7768723374
 21
589.9506243418
 31
0.0
 12
1616.5868723374
 22
589.9506243418
 32
0.0
 13
1616.1818723374
 23
587.2506243418
 33
0.0
  0
TEXT
  5
2A2
100
AcDbEntity
  8
____
  6
CONTINUOUS
 62
         4
100
AcDbText
 10
1614.1568723374
 20
592.6868058311
 30
0.0
 40
2.7
  1
27.78
 50
90.0
  7
BOX
100
AcDbText
  0
ENDBLK
  5
2A3
100
AcDbEntity
  8
0
  6
CONTINUOUS
100
AcDbBlockEnd
  0
BLOCK
  5
2BA
100
AcDbEntity
  8
0
100
AcDbBlockBegin
  2
*D20
 70
        65
 10
0.0
 20
0.0
 30
0.0
  3
*D20
  1

  0
POINT
  5
2BC
100
AcDbEntity
  8
DEFPOINTS
  6
CONTINUOUS
 62
         0
100
AcDbPoint
 10
1524.2207542509
 20
580.7315000432
 30
0.0
  0
POINT
  5
2BD
100
AcDbEntity
  8
DEFPOINTS
  6
CONTINUOUS
 62
         0
100
AcDbPoint
 10
1526.4445716114
 20
578.4653885395
 30
0.0
  0
LINE
  5
2BE
100
AcDbEntity
  8
____
  6
CONTINUOUS
 62
         4
100
AcDbLine
 10
1526.4445716114
 20
578.4653885395
 30
0.0
 11
1524.2207542509
 21
580.7315000432
 31
0.0
  0
LINE
  5
2BF
100
AcDbEntity
  8
____
  6
CONTINUOUS
 62
         4
100
AcDbLine
 10
1526.4445716114
 20
578.4653885395
 30
0.0
 11
1539.6139073174
 21
565.0455890225
 31
0.0
  0
SOLID
  5
2C0
100
AcDbEntity
  8
____
  6
CONTINUOUS
 62
         4
100
AcDbTrace
 10
1526.4445716114
 20
578.4653885395
 30
0.0
 11
1528.6247549286
 21
576.8219696327
 31
0.0
 12
1528.0466288442
 22
576.2546335502
 32
0.0
 13
1526.4445716114
 23
578.4653885395
 33
0.0
  0
TEXT
  5
2C2
100
AcDbEntity
  8
____
  6
CONTINUOUS
 62
         4
100
AcDbText
 10
1527.9031291171
 20
578.8173047335
 30
0.0
 40
2.7
  1
R3.175
 50
314.4603023101
  7
BOX
100
AcDbText
  0
ENDBLK
  5
2C3
100
AcDbEntity
  8
0
  6
CONTINUOUS
100
AcDbBlockEnd
  0
BLOCK
  5
2C5
100
AcDbEntity
  8
0
100
AcDbBlockBegin
  2
*D21
 70
        65
 10
0.0
 20
0.0
 30
0.0
  3
*D21
  1

  0
POINT
  5
2C7
100
AcDbEntity
  8
DEFPOINTS
  6
CONTINUOUS
 62
         0
100
AcDbPoint
 10
1485.0883480345
 20
592.0581379102
 30
0.0
  0
POINT
  5
2C8
100
AcDbEntity
  8
DEFPOINTS
  6
CONTINUOUS
 62
         0
100
AcDbPoint
 10
1485.0883480345
 20
582.9065000432
 30
0.0
  0
POINT
  5
2C9
100
AcDbEntity
  8
DEFPOINTS
  6
CONTINUOUS
 62
         0
100
AcDbPoint
 10
1491.4383480345
 20
582.9065000432
 30
0.0
  0
LINE
  5
2CA
100
AcDbEntity
  8
____
  6
CONTINUOUS
 62
         4
100
AcDbLine
 10
1485.0883480345
 20
584.2565000432
 30
0.0
 11
1485.0883480345
 21
592.7331379102
 31
0.0
  0
LINE
  5
2CB
100
AcDbEntity
  8
____
  6
CONTINUOUS
 62
         4
100
AcDbLine
 10
1491.4383480345
 20
584.2565000432
 30
0.0
 11
1491.4383480345
 21
592.7331379102
 31
0.0
  0
LINE
  5
2CC
100
AcDbEntity
  8
____
  6
CONTINUOUS
 62
         4
100
AcDbLine
 10
1485.0883480345
 20
592.0581379102
 30
0.0
 11
1491.4383480345
 21
592.0581379102
 31
0.0
  0
SOLID
  5
2CD
100
AcDbEntity
  8
____
  6
CONTINUOUS
 62
         4
100
AcDbTrace
 10
1485.0883480345
 20
592.0581379102
 30
0.0
 11
1487.7883480345
 21
592.4631379102
 31
0.0
 12
1487.7883480345
 22
591.6531379102
 32
0.0
 13
1485.0883480345
 23
592.0581379102
 33
0.0
  0
SOLID
  5
2CE
100
AcDbEntity
  8
____
  6
CONTINUOUS
 62
         4
100
AcDbTrace
 10
1491.4383480345
 20
592.0581379102
 30
0.0
 11
1488.7383480345
 21
591.6531379102
 31
0.0
 12
1488.7383480345
 22
592.4631379102
 32
0.0
 13
1491.4383480345
 23
592.0581379102
 33
0.0
  0
TEXT
  5
2D0
100
AcDbEntity
  8
____
  6
CONTINUOUS
 62
         4
100
AcDbText
 10
1483.3789655448
 20
594.0831379102
 30
0.0
 40
2.7
  1
6.35
  7
BOX
100
AcDbText
  0
ENDBLK
  5
2D1
100
AcDbEntity
  8
0
  6
CONTINUOUS
100
AcDbBlockEnd
  0
BLOCK
  5
2D3
100
AcDbEntity
  8
0
100
AcDbBlockBegin
  2
*D22
 70
        65
 10
0.0
 20
0.0
 30
0.0
  3
*D22
  1

  0
POINT
  5
2D5
100
AcDbEntity
  8
DEFPOINTS
  6
CONTINUOUS
 62
         0
100
AcDbPoint
 10
1474.685461095
 20
583.9065000432
 30
0.0
  0
POINT
  5
2D6
100
AcDbEntity
  8
DEFPOINTS
  6
CONTINUOUS
 62
         0
100
AcDbPoint
 10
1486.0883480345
 20
583.9065000432
 30
0.0
  0
POINT
  5
2D7
100
AcDbEntity
  8
DEFPOINTS
  6
CONTINUOUS
 62
         0
100
AcDbPoint
 10
1486.0883480345
 20
577.5565000432
 30
0.0
  0
LINE
  5
2D8
100
AcDbEntity
  8
____
  6
CONTINUOUS
 62
         4
100
AcDbLine
 10
1484.7383480345
 20
583.9065000432
 30
0.0
 11
1474.010461095
 21
583.9065000432
 31
0.0
  0
LINE
  5
2D9
100
AcDbEntity
  8
____
  6
CONTINUOUS
 62
         4
100
AcDbLine
 10
1484.7383480345
 20
577.5565000432
 30
0.0
 11
1474.010461095
 21
577.5565000432
 31
0.0
  0
LINE
  5
2DA
100
AcDbEntity
  8
____
  6
CONTINUOUS
 62
         4
100
AcDbLine
 10
1474.685461095
 20
583.9065000432
 30
0.0
 11
1474.685461095
 21
577.5565000432
 31
0.0
  0
SOLID
  5
2DB
100
AcDbEntity
  8
____
  6
CONTINUOUS
 62
         4
100
AcDbTrace
 10
1474.685461095
 20
583.9065000432
 30
0.0
 11
1475.090461095
 21
581.2065000432
 31
0.0
 12
1474.280461095
 22
581.2065000432
 32
0.0
 13
1474.685461095
 23
583.9065000432
 33
0.0
  0
SOLID
  5
2DC
100
AcDbEntity
  8
____
  6
CONTINUOUS
 62
         4
100
AcDbTrace
 10
1474.685461095
 20
577.5565000432
 30
0.0
 11
1474.280461095
 21
580.2565000432
 31
0.0
 12
1475.090461095
 22
580.2565000432
 32
0.0
 13
1474.685461095
 23
577.5565000432
 33
0.0
  0
TEXT
  5
2DE
100
AcDbEntity
  8
____
  6
CONTINUOUS
 62
         4
100
AcDbText
 10
1472.660461095
 20
575.8322771132
 30
0.0
 40
2.7
  1
6.35
 50
90.0
  7
BOX
100
AcDbText
  0
ENDBLK
  5
2DF
100
AcDbEntity
  8
0
  6
CONTINUOUS
100
AcDbBlockEnd
  0
BLOCK
  5
2E1
100
AcDbEntity
  8
0
100
AcDbBlockBegin
  2
*D23
 70
        65
 10
0.0
 20
0.0
 30
0.0
  3
*D23
  1

  0
POINT
  5
2E3
100
AcDbEntity
  8
DEFPOINTS
  6
CONTINUOUS
 62
         0
100
AcDbPoint
 10
1527.3957542509
 20
591.5410268967
 30
0.0
  0
POINT
  5
2E4
100
AcDbEntity
  8
DEFPOINTS
  6
CONTINUOUS
 62
         0
100
AcDbPoint
 10
1527.3957542509
 20
580.7315000432
 30
0.0
  0
POINT
  5
2E5
100
AcDbEntity
  8
DEFPOINTS
  6
CONTINUOUS
 62
         0
100
AcDbPoint
 10
1502.3957542509
 20
580.7315000432
 30
0.0
  0
LINE
  5
2E6
100
AcDbEntity
  8
____
  6
CONTINUOUS
 62
         4
100
AcDbLine
 10
1527.3957542509
 20
582.0815000432
 30
0.0
 11
1527.3957542509
 21
592.2160268967
 31
0.0
  0
LINE
  5
2E7
100
AcDbEntity
  8
____
  6
CONTINUOUS
 62
         4
100
AcDbLine
 10
1502.3957542509
 20
582.0815000432
 30
0.0
 11
1502.3957542509
 21
592.2160268967
 31
0.0
  0
LINE
  5
2E8
100
AcDbEntity
  8
____
  6
CONTINUOUS
 62
         4
100
AcDbLine
 10
1527.3957542509
 20
591.5410268967
 30
0.0
 11
1502.3957542509
 21
591.5410268967
 31
0.0
  0
SOLID
  5
2E9
100
AcDbEntity
  8
____
  6
CONTINUOUS
 62
         4
100
AcDbTrace
 10
1527.3957542509
 20
591.5410268967
 30
0.0
 11
1524.6957542509
 21
591.1360268967
 31
0.0
 12
1524.6957542509
 22
591.9460268967
 32
0.0
 13
1527.3957542509
 23
591.5410268967
 33
0.0
  0
SOLID
  5
2EA
100
AcDbEntity
  8
____
  6
CONTINUOUS
 62
         4
100
AcDbTrace
 10
1502.3957542509
 20
591.5410268967
 30
0.0
 11
1505.0957542509
 21
591.9460268967
 31
0.0
 12
1505.0957542509
 22
591.1360268967
 32
0.0
 13
1502.3957542509
 23
591.5410268967
 33
0.0
  0
TEXT
  5
2EC
100
AcDbEntity
  8
____
  6
CONTINUOUS
 62
         4
100
AcDbText
 10
1509.7516272337
 20
593.5660268967
 30
0.0
 40
2.7
  1
24.8
  7
BOX
100
AcDbText
  0
ENDBLK
  5
2ED
100
AcDbEntity
  8
0
  6
CONTINUOUS
100
AcDbBlockEnd
  0
BLOCK
  5
2EF
100
AcDbEntity
  8
0
100
AcDbBlockBegin
  2
*D24
 70
        65
 10
0.0
 20
0.0
 30
0.0
  3
*D24
  1

  0
POINT
  5
2F1
100
AcDbEntity
  8
DEFPOINTS
  6
CONTINUOUS
 62
         0
100
AcDbPoint
 10
1731.0516576645
 20
701.1855524758
 30
0.0
  0
POINT
  5
2F2
100
AcDbEntity
  8
DEFPOINTS
  6
CONTINUOUS
 62
         0
100
AcDbPoint
 10
1731.0516576645
 20
683.9804342507
 30
0.0
  0
POINT
  5
2F3
100
AcDbEntity
  8
DEFPOINTS
  6
CONTINUOUS
 62
         0
100
AcDbPoint
 10
1696.9516576645
 20
683.9804342507
 30
0.0
  0
LINE
  5
2F4
100
AcDbEntity
  8
____
  6
CONTINUOUS
 62
         4
100
AcDbLine
 10
1731.0516576645
 20
685.3304342507
 30
0.0
 11
1731.0516576645
 21
701.8605524758
 31
0.0
  0
LINE
  5
2F5
100
AcDbEntity
  8
____
  6
CONTINUOUS
 62
         4
100
AcDbLine
 10
1696.9516576645
 20
685.3304342507
 30
0.0
 11
1696.9516576645
 21
701.8605524758
 31
0.0
  0
LINE
  5
2F6
100
AcDbEntity
  8
____
  6
CONTINUOUS
 62
         4
100
AcDbLine
 10
1731.0516576645
 20
701.1855524758
 30
0.0
 11
1696.9516576645
 21
701.1855524758
 31
0.0
  0
SOLID
  5
2F7
100
AcDbEntity
  8
____
  6
CONTINUOUS
 62
         4
100
AcDbTrace
 10
1731.0516576645
 20
701.1855524758
 30
0.0
 11
1728.3516576645
 21
700.7805524758
 31
0.0
 12
1728.3516576645
 22
701.5905524758
 32
0.0
 13
1731.0516576645
 23
701.1855524758
 33
0.0
  0
SOLID
  5
2F8
100
AcDbEntity
  8
____
  6
CONTINUOUS
 62
         4
100
AcDbTrace
 10
1696.9516576645
 20
701.1855524758
 30
0.0
 11
1699.6516576645
 21
701.5905524758
 31
0.0
 12
1699.6516576645
 22
700.7805524758
 32
0.0
 13
1696.9516576645
 23
701.1855524758
 33
0.0
  0
TEXT
  5
2FA
100
AcDbEntity
  8
____
  6
CONTINUOUS
 62
         4
100
AcDbText
 10
1708.8203460542
 20
703.2105524758
 30
0.0
 40
2.7
  1
34.1
  7
BOX
100
AcDbText
  0
ENDBLK
  5
2FB
100
AcDbEntity
  8
0
  6
CONTINUOUS
100
AcDbBlockEnd
  0
BLOCK
  5
307
100
AcDbEntity
  8
0
100
AcDbBlockBegin
  2
*D25
 70
        65
 10
0.0
 20
0.0
 30
0.0
  3
*D25
  1

  0
POINT
  5
309
100
AcDbEntity
  8
DEFPOINTS
  6
CONTINUOUS
 62
         0
100
AcDbPoint
 10
1664.8830516032
 20
701.7826441774
 30
0.0
  0
POINT
  5
30A
100
AcDbEntity
  8
DEFPOINTS
  6
CONTINUOUS
 62
         0
100
AcDbPoint
 10
1664.8830516032
 20
684.8642074558
 30
0.0
  0
POINT
  5
30B
100
AcDbEntity
  8
DEFPOINTS
  6
CONTINUOUS
 62
         0
100
AcDbPoint
 10
1655.3830516032
 20
693.0333759362
 30
0.0
  0
LINE
  5
30C
100
AcDbEntity
  8
____
  6
CONTINUOUS
 62
         4
100
AcDbLine
 10
1664.8830516032
 20
686.2142074558
 30
0.0
 11
1664.8830516032
 21
702.4576441774
 31
0.0
  0
LINE
  5
30D
100
AcDbEntity
  8
____
  6
CONTINUOUS
 62
         4
100
AcDbLine
 10
1655.3830516032
 20
694.3833759362
 30
0.0
 11
1655.3830516032
 21
702.4576441774
 31
0.0
  0
LINE
  5
30E
100
AcDbEntity
  8
____
  6
CONTINUOUS
 62
         4
100
AcDbLine
 10
1664.8830516032
 20
701.7826441774
 30
0.0
 11
1655.3830516032
 21
701.7826441774
 31
0.0
  0
SOLID
  5
30F
100
AcDbEntity
  8
____
  6
CONTINUOUS
 62
         4
100
AcDbTrace
 10
1664.8830516032
 20
701.7826441774
 30
0.0
 11
1662.1830516032
 21
701.3776441774
 31
0.0
 12
1662.1830516032
 22
702.1876441774
 32
0.0
 13
1664.8830516032
 23
701.7826441774
 33
0.0
  0
SOLID
  5
310
100
AcDbEntity
  8
____
  6
CONTINUOUS
 62
         4
100
AcDbTrace
 10
1655.3830516032
 20
701.7826441774
 30
0.0
 11
1658.0830516032
 21
702.1876441774
 31
0.0
 12
1658.0830516032
 22
701.3776441774
 32
0.0
 13
1655.3830516032
 23
701.7826441774
 33
0.0
  0
TEXT
  5
312
100
AcDbEntity
  8
____
  6
CONTINUOUS
 62
         4
100
AcDbText
 10
1656.0830516032
 20
703.8076441774
 30
0.0
 40
2.7
  1
9.5
  7
BOX
100
AcDbText
  0
ENDBLK
  5
313
100
AcDbEntity
  8
0
  6
CONTINUOUS
100
AcDbBlockEnd
  0
BLOCK
  5
315
100
AcDbEntity
  8
0
100
AcDbBlockBegin
  2
GENDIML28
 70
        64
 10
0.0
 20
0.0
 30
0.0
  3
GENDIML28
  1

  0
LINE
  5
316
100
AcDbEntity
  8
____
  6
CONTINUOUS
 62
         4
100
AcDbLine
 10
1655.5330516032
 20
694.5333759362
 30
0.0
 11
1643.2711762221
 21
694.5333759362
 31
0.0
  0
LINE
  5
317
100
AcDbEntity
  8
____
  6
CONTINUOUS
 62
         4
100
AcDbLine
 10
1655.5330516032
 20
656.4333759362
 30
0.0
 11
1643.2711762221
 21
656.4333759362
 31
0.0
  0
LINE
  5
318
100
AcDbEntity
  8
____
  6
CONTINUOUS
 62
         4
100
AcDbLine
 10
1643.9461762221
 20
694.5333759362
 30
0.0
 11
1643.9461762221
 21
656.4333759362
 31
0.0
  0
SOLID
  5
319
100
AcDbEntity
  8
____
  6
CONTINUOUS
 62
         4
100
AcDbTrace
 10
1643.9461762221
 20
694.5333759362
 30
0.0
 11
1644.3511762221
 21
691.8333759362
 31
0.0
 12
1643.5411762221
 22
691.8333759362
 32
0.0
 13
1643.9461762221
 23
694.5333759362
 33
0.0
  0
SOLID
  5
31A
100
AcDbEntity
  8
____
  6
CONTINUOUS
 62
         4
100
AcDbTrace
 10
1643.9461762221
 20
656.4333759362
 30
0.0
 11
1643.5411762221
 21
659.1333759362
 31
0.0
 12
1644.3511762221
 22
659.1333759362
 32
0.0
 13
1643.9461762221
 23
656.4333759362
 33
0.0
  0
TEXT
  5
31C
100
AcDbEntity
  8
____
  6
CONTINUOUS
 62
         4
100
AcDbText
 10
1641.9211762221
 20
667.8089406696
 30
0.0
 40
2.7
  1
崷38.1
 50
90.0
  7
BOX
100
AcDbText
  0
ENDBLK
  5
31D
100
AcDbEntity
  8
0
  6
CONTINUOUS
100
AcDbBlockEnd
  0
BLOCK
  5
321
100
AcDbEntity
  8
0
100
AcDbBlockBegin
  2
*D27
 70
        65
 10
0.0
 20
0.0
 30
0.0
  3
*D27
  1

  0
POINT
  5
323
100
AcDbEntity
  8
DEFPOINTS
  6
CONTINUOUS
 62
         0
100
AcDbPoint
 10
1655.3830516032
 20
646.8888960575
 30
0.0
  0
POINT
  5
324
100
AcDbEntity
  8
DEFPOINTS
  6
CONTINUOUS
 62
         0
100
AcDbPoint
 10
1655.3830516032
 20
657.9333759362
 30
0.0
  0
POINT
  5
325
100
AcDbEntity
  8
DEFPOINTS
  6
CONTINUOUS
 62
         0
100
AcDbPoint
 10
1678.3830516032
 20
658.4333759362
 30
0.0
  0
LINE
  5
326
100
AcDbEntity
  8
____
  6
CONTINUOUS
 62
         4
100
AcDbLine
 10
1655.3830516032
 20
656.5833759362
 30
0.0
 11
1655.3830516032
 21
646.2138960575
 31
0.0
  0
LINE
  5
327
100
AcDbEntity
  8
____
  6
CONTINUOUS
 62
         4
100
AcDbLine
 10
1678.3830516032
 20
657.0833759362
 30
0.0
 11
1678.3830516032
 21
646.2138960575
 31
0.0
  0
LINE
  5
328
100
AcDbEntity
  8
____
  6
CONTINUOUS
 62
         4
100
AcDbLine
 10
1655.3830516032
 20
646.8888960575
 30
0.0
 11
1678.3830516032
 21
646.8888960575
 31
0.0
  0
SOLID
  5
329
100
AcDbEntity
  8
____
  6
CONTINUOUS
 62
         4
100
AcDbTrace
 10
1655.3830516032
 20
646.8888960575
 30
0.0
 11
1658.0830516032
 21
647.2938960575
 31
0.0
 12
1658.0830516032
 22
646.4838960575
 32
0.0
 13
1655.3830516032
 23
646.8888960575
 33
0.0
  0
SOLID
  5
32A
100
AcDbEntity
  8
____
  6
CONTINUOUS
 62
         4
100
AcDbTrace
 10
1678.3830516032
 20
646.8888960575
 30
0.0
 11
1675.6830516032
 21
646.4838960575
 31
0.0
 12
1675.6830516032
 22
647.2938960575
 32
0.0
 13
1678.3830516032
 23
646.8888960575
 33
0.0
  0
TEXT
  5
32C
100
AcDbEntity
  8
____
  6
CONTINUOUS
 62
         4
100
AcDbText
 10
1664.3034755148
 20
648.9138960575
 30
0.0
 40
2.7
  1
23
  7
BOX
100
AcDbText
  0
ENDBLK
  5
32D
100
AcDbEntity
  8
0
  6
CONTINUOUS
100
AcDbBlockEnd
  0
BLOCK
  5
33A
100
AcDbEntity
  8
0
100
AcDbBlockBegin
  2
*X28
 70
        65
 10
0.0
 20
0.0
 30
0.0
  3
*X28
  1

  0
LINE
  5
33B
100
AcDbEntity
  8
____
  6
CONTINUOUS
 62
         4
100
AcDbLine
 10
1763.1933390904
 20
760.9191205924
 30
0.0
 11
1761.4715235038
 21
762.640936179
 31
0.0
  0
LINE
  5
33C
100
AcDbEntity
  8
____
  6
CONTINUOUS
 62
         4
100
AcDbLine
 10
1766.0217662151
 20
760.9191205924
 30
0.0
 11
1762.0059077668
 21
764.9349790407
 31
0.0
  0
LINE
  5
33D
100
AcDbEntity
  8
____
  6
CONTINUOUS
 62
         4
100
AcDbLine
 10
1768.8501933399
 20
760.9191205924
 30
0.0
 11
1762.8572059595
 21
766.9121079728
 31
0.0
  0
LINE
  5
33E
100
AcDbEntity
  8
____
  6
CONTINUOUS
 62
         4
100
AcDbLine
 10
1771.6786204646
 20
760.9191205924
 30
0.0
 11
1763.9650893925
 21
768.6326516645
 31
0.0
  0
LINE
  5
33F
100
AcDbEntity
  8
____
  6
CONTINUOUS
 62
         4
100
AcDbLine
 10
1774.0542637096
 20
761.3719044722
 30
0.0
 11
1765.3032536483
 21
770.1229145334
 31
0.0
  0
LINE
  5
340
100
AcDbEntity
  8
____
  6
CONTINUOUS
 62
         4
100
AcDbLine
 10
1774.0542637096
 20
764.2003315969
 30
0.0
 11
1766.8657461758
 21
771.3888491307
 31
0.0
  0
LINE
  5
341
100
AcDbEntity
  8
____
  6
CONTINUOUS
 62
         4
100
AcDbLine
 10
1774.0542637096
 20
767.0287587217
 30
0.0
 11
1771.4339018388
 21
769.6491205924
 31
0.0
  0
LINE
  5
342
100
AcDbEntity
  8
____
  6
CONTINUOUS
 62
         4
100
AcDbLine
 10
1770.8792637096
 20
770.2037587217
 30
0.0
 11
1768.6643755275
 21
772.4186469037
 31
0.0
  0
LINE
  5
343
100
AcDbEntity
  8
____
  6
CONTINUOUS
 62
         4
100
AcDbLine
 10
1770.8792637096
 20
773.0321858464
 30
0.0
 11
1770.734025037
 21
773.177424519
 31
0.0
  0
ENDBLK
  5
344
100
AcDbEntity
  8
0
  6
CONTINUOUS
100
AcDbBlockEnd
  0
BLOCK
  5
348
100
AcDbEntity
  8
0
100
AcDbBlockBegin
  2
*X29
 70
        65
 10
0.0
 20
0.0
 30
0.0
  3
*X29
  1

  0
LINE
  5
349
100
AcDbEntity
  8
____
  6
CONTINUOUS
 62
         4
100
AcDbLine
 10
1769.3218094882
 20
749.1337959451
 30
0.0
 11
1762.2689390623
 21
756.186666371
 31
0.0
  0
LINE
  5
34A
100
AcDbEntity
  8
____
  6
CONTINUOUS
 62
         4
100
AcDbLine
 10
1773.0229700036
 20
748.2610625545
 30
0.0
 11
1761.3962056716
 21
759.8878268864
 31
0.0
  0
LINE
  5
34B
100
AcDbEntity
  8
____
  6
CONTINUOUS
 62
         4
100
AcDbLine
 10
1774.0542637096
 20
750.0581959732
 30
0.0
 11
1763.1933390904
 21
760.9191205924
 31
0.0
  0
LINE
  5
34C
100
AcDbEntity
  8
____
  6
CONTINUOUS
 62
         4
100
AcDbLine
 10
1774.0542637096
 20
752.886623098
 30
0.0
 11
1766.0217662151
 21
760.9191205924
 31
0.0
  0
LINE
  5
34D
100
AcDbEntity
  8
____
  6
CONTINUOUS
 62
         4
100
AcDbLine
 10
1774.0542637096
 20
755.7150502227
 30
0.0
 11
1768.8501933399
 21
760.9191205924
 31
0.0
  0
LINE
  5
34E
100
AcDbEntity
  8
____
  6
CONTINUOUS
 62
         4
100
AcDbLine
 10
1774.0542637096
 20
758.5434773475
 30
0.0
 11
1771.6786204646
 21
760.9191205924
 31
0.0
  0
ENDBLK
  5
34F
100
AcDbEntity
  8
0
  6
CONTINUOUS
100
AcDbBlockEnd
  0
BLOCK
  5
353
100
AcDbEntity
  8
0
100
AcDbBlockBegin
  2
*X30
 70
        65
 10
0.0
 20
0.0
 30
0.0
  3
*X30
  1

  0
LINE
  5
354
100
AcDbEntity
  8
____
  6
CONTINUOUS
 62
         4
100
AcDbLine
 10
1775.7760792961
 20
748.3363803866
 30
0.0
 11
1774.0542637096
 21
750.0581959732
 31
0.0
  0
LINE
  5
355
100
AcDbEntity
  8
____
  6
CONTINUOUS
 62
         4
100
AcDbLine
 10
1778.0701221579
 20
748.8707646497
 30
0.0
 11
1774.0542637096
 21
752.886623098
 31
0.0
  0
LINE
  5
356
100
AcDbEntity
  8
____
  6
CONTINUOUS
 62
         4
100
AcDbLine
 10
1780.0472510899
 20
749.7220628423
 30
0.0
 11
1774.0542637096
 21
755.7150502227
 31
0.0
  0
LINE
  5
357
100
AcDbEntity
  8
____
  6
CONTINUOUS
 62
         4
100
AcDbLine
 10
1781.7677947817
 20
750.8299462754
 30
0.0
 11
1774.0542637096
 21
758.5434773475
 31
0.0
  0
LINE
  5
358
100
AcDbEntity
  8
____
  6
CONTINUOUS
 62
         4
100
AcDbLine
 10
1783.2580576506
 20
752.1681105312
 30
0.0
 11
1774.5070475893
 21
760.9191205924
 31
0.0
  0
LINE
  5
359
100
AcDbEntity
  8
____
  6
CONTINUOUS
 62
         4
100
AcDbLine
 10
1784.5239922479
 20
753.7306030586
 30
0.0
 11
1777.3354747141
 21
760.9191205924
 31
0.0
  0
LINE
  5
35A
100
AcDbEntity
  8
____
  6
CONTINUOUS
 62
         4
100
AcDbLine
 10
1785.5537900209
 20
755.5292324104
 30
0.0
 11
1780.1639018388
 21
760.9191205924
 31
0.0
  0
LINE
  5
35B
100
AcDbEntity
  8
____
  6
CONTINUOUS
 62
         4
100
AcDbLine
 10
1786.3125676362
 20
757.5988819198
 30
0.0
 11
1782.9923289636
 21
760.9191205924
 31
0.0
  0
LINE
  5
35C
100
AcDbEntity
  8
____
  6
CONTINUOUS
 62
         4
100
AcDbLine
 10
1786.7222290733
 20
760.0176476074
 30
0.0
 11
1785.8207560883
 21
760.9191205924
 31
0.0
  0
ENDBLK
  5
35D
100
AcDbEntity
  8
0
  6
CONTINUOUS
100
AcDbBlockEnd
  0
BLOCK
  5
361
100
AcDbEntity
  8
0
100
AcDbBlockBegin
  2
*X31
 70
        65
 10
0.0
 20
0.0
 30
0.0
  3
*X31
  1

  0
LINE
  5
362
100
AcDbEntity
  8
____
  6
CONTINUOUS
 62
         4
100
AcDbLine
 10
1774.5070475893
 20
760.9191205924
 30
0.0
 11
1774.0542637096
 21
761.3719044722
 31
0.0
  0
LINE
  5
363
100
AcDbEntity
  8
____
  6
CONTINUOUS
 62
         4
100
AcDbLine
 10
1777.3354747141
 20
760.9191205924
 30
0.0
 11
1774.0542637096
 21
764.2003315969
 31
0.0
  0
LINE
  5
364
100
AcDbEntity
  8
____
  6
CONTINUOUS
 62
         4
100
AcDbLine
 10
1780.1639018388
 20
760.9191205924
 30
0.0
 11
1774.0542637096
 21
767.0287587217
 31
0.0
  0
LINE
  5
365
100
AcDbEntity
  8
____
  6
CONTINUOUS
 62
         4
100
AcDbLine
 10
1782.9923289636
 20
760.9191205924
 30
0.0
 11
1774.2623289636
 21
769.6491205924
 31
0.0
  0
LINE
  5
366
100
AcDbEntity
  8
____
  6
CONTINUOUS
 62
         4
100
AcDbLine
 10
1785.8207560883
 20
760.9191205924
 30
0.0
 11
1777.0907560883
 21
769.6491205924
 31
0.0
  0
LINE
  5
367
100
AcDbEntity
  8
____
  6
CONTINUOUS
 62
         4
100
AcDbLine
 10
1786.5854679308
 20
762.9828358747
 30
0.0
 11
1777.2292637096
 21
772.3390400959
 31
0.0
  0
LINE
  5
368
100
AcDbEntity
  8
____
  6
CONTINUOUS
 62
         4
100
AcDbLine
 10
1784.9457874928
 20
767.4509434374
 30
0.0
 11
1780.5860865545
 21
771.8106443757
 31
0.0
  0
ENDBLK
  5
369
100
AcDbEntity
  8
0
  6
CONTINUOUS
100
AcDbBlockEnd
  0
BLOCK
  5
36D
100
AcDbEntity
  8
0
100
AcDbBlockBegin
  2
*X32
 70
        65
 10
0.0
 20
0.0
 30
0.0
  3
*X32
  1

  0
LINE
  5
36E
100
AcDbEntity
  8
____
  6
CONTINUOUS
 62
         4
100
AcDbLine
 10
1776.8566016869
 20
769.6491205924
 30
0.0
 11
1777.2292637096
 21
770.0217826151
 31
0.0
  0
LINE
  5
36F
100
AcDbEntity
  8
____
  6
CONTINUOUS
 62
         4
100
AcDbLine
 10
1775.4423881245
 20
769.6491205924
 30
0.0
 11
1777.2292637096
 21
771.4359961774
 31
0.0
  0
LINE
  5
370
100
AcDbEntity
  8
____
  6
CONTINUOUS
 62
         4
100
AcDbLine
 10
1774.0542637096
 20
769.6752097398
 30
0.0
 11
1777.2292637096
 21
772.8502097398
 31
0.0
  0
LINE
  5
371
100
AcDbEntity
  8
____
  6
CONTINUOUS
 62
         4
100
AcDbLine
 10
1774.0542637096
 20
771.0894233022
 30
0.0
 11
1777.2292637096
 21
774.2644233022
 31
0.0
  0
LINE
  5
372
100
AcDbEntity
  8
____
  6
CONTINUOUS
 62
         4
100
AcDbLine
 10
1774.0542637096
 20
772.5036368646
 30
0.0
 11
1777.2292637096
 21
775.6786368646
 31
0.0
  0
LINE
  5
373
100
AcDbEntity
  8
____
  6
CONTINUOUS
 62
         4
100
AcDbLine
 10
1774.0542637096
 20
773.9178504269
 30
0.0
 11
1776.135533875
 21
775.9991205924
 31
0.0
  0
LINE
  5
374
100
AcDbEntity
  8
____
  6
CONTINUOUS
 62
         4
100
AcDbLine
 10
1774.0542637096
 20
775.3320639893
 30
0.0
 11
1774.7213203127
 21
775.9991205924
 31
0.0
  0
ENDBLK
  5
375
100
AcDbEntity
  8
0
  6
CONTINUOUS
100
AcDbBlockEnd
  0
BLOCK
  5
379
100
AcDbEntity
  8
0
100
AcDbBlockBegin
  2
*X33
 70
        65
 10
0.0
 20
0.0
 30
0.0
  3
*X33
  1

  0
LINE
  5
37A
100
AcDbEntity
  8
____
  6
CONTINUOUS
 62
         4
100
AcDbLine
 10
1774.0281745622
 20
769.6491205924
 30
0.0
 11
1774.0542637096
 21
769.6752097398
 31
0.0
  0
LINE
  5
37B
100
AcDbEntity
  8
____
  6
CONTINUOUS
 62
         4
100
AcDbLine
 10
1772.6139609998
 20
769.6491205924
 30
0.0
 11
1774.0542637096
 21
771.0894233022
 31
0.0
  0
LINE
  5
37C
100
AcDbEntity
  8
____
  6
CONTINUOUS
 62
         4
100
AcDbLine
 10
1771.1997474374
 20
769.6491205924
 30
0.0
 11
1774.0542637096
 21
772.5036368645
 31
0.0
  0
LINE
  5
37D
100
AcDbEntity
  8
____
  6
CONTINUOUS
 62
         4
100
AcDbLine
 10
1770.8792637096
 20
770.7428504269
 30
0.0
 11
1774.0542637096
 21
773.9178504269
 31
0.0
  0
LINE
  5
37E
100
AcDbEntity
  8
____
  6
CONTINUOUS
 62
         4
100
AcDbLine
 10
1770.8792637096
 20
772.1570639893
 30
0.0
 11
1774.0542637096
 21
775.3320639893
 31
0.0
  0
LINE
  5
37F
100
AcDbEntity
  8
____
  6
CONTINUOUS
 62
         4
100
AcDbLine
 10
1770.8792637096
 20
773.5712775517
 30
0.0
 11
1773.3071067503
 21
775.9991205924
 31
0.0
  0
LINE
  5
380
100
AcDbEntity
  8
____
  6
CONTINUOUS
 62
         4
100
AcDbLine
 10
1770.8792637096
 20
774.985491114
 30
0.0
 11
1771.8928931879
 21
775.9991205924
 31
0.0
  0
ENDBLK
  5
381
100
AcDbEntity
  8
0
  6
CONTINUOUS
100
AcDbBlockEnd
  0
BLOCK
  5
39B
100
AcDbEntity
  8
0
100
AcDbBlockBegin
  2
*X34
 70
        65
 10
0.0
 20
0.0
 30
0.0
  3
*X34
  1

  0
LINE
  5
39C
100
AcDbEntity
  8
____
  6
CONTINUOUS
 62
         4
100
AcDbLine
 10
1600.0777642586
 20
634.2233207807
 30
0.0
 11
1605.999902034
 21
640.1454585561
 31
0.0
  0
LINE
  5
39D
100
AcDbEntity
  8
____
  6
CONTINUOUS
 62
         4
100
AcDbLine
 10
1595.8351235715
 20
634.2233207807
 30
0.0
 11
1605.999902034
 21
644.3880992433
 31
0.0
  0
LINE
  5
39E
100
AcDbEntity
  8
____
  6
CONTINUOUS
 62
         4
100
AcDbLine
 10
1591.5924828844
 20
634.2233207807
 30
0.0
 11
1603.2694828844
 21
645.9003207807
 31
0.0
  0
LINE
  5
39F
100
AcDbEntity
  8
____
  6
CONTINUOUS
 62
         4
100
AcDbLine
 10
1587.3498421973
 20
634.2233207807
 30
0.0
 11
1605.999902034
 21
652.8733806175
 31
0.0
  0
LINE
  5
3A0
100
AcDbEntity
  8
____
  6
CONTINUOUS
 62
         4
100
AcDbLine
 10
1584.4945517721
 20
635.6106710427
 30
0.0
 11
1605.9584120738
 21
657.0745313444
 31
0.0
  0
LINE
  5
3A1
100
AcDbEntity
  8
____
  6
CONTINUOUS
 62
         4
100
AcDbLine
 10
1578.841560823
 20
634.2003207807
 30
0.0
 11
1604.0345121542
 21
659.3932721119
 31
0.0
  0
LINE
  5
3A2
100
AcDbEntity
  8
____
  6
CONTINUOUS
 62
         4
100
AcDbLine
 10
1574.5989201359
 20
634.2003207807
 30
0.0
 11
1599.9759201359
 21
659.5773207807
 31
0.0
  0
LINE
  5
3A3
100
AcDbEntity
  8
____
  6
CONTINUOUS
 62
         4
100
AcDbLine
 10
1570.3562794488
 20
634.2003207807
 30
0.0
 11
1595.7332794488
 21
659.5773207807
 31
0.0
  0
LINE
  5
3A4
100
AcDbEntity
  8
____
  6
CONTINUOUS
 62
         4
100
AcDbLine
 10
1566.1136387617
 20
634.2003207807
 30
0.0
 11
1591.4906387617
 21
659.5773207807
 31
0.0
  0
LINE
  5
3A5
100
AcDbEntity
  8
____
  6
CONTINUOUS
 62
         4
100
AcDbLine
 10
1561.8709980745
 20
634.2003207807
 30
0.0
 11
1587.2479980745
 21
659.5773207807
 31
0.0
  0
LINE
  5
3A6
100
AcDbEntity
  8
____
  6
CONTINUOUS
 62
         4
100
AcDbLine
 10
1557.6283573874
 20
634.2003207807
 30
0.0
 11
1582.3340365949
 21
658.9059999883
 31
0.0
  0
LINE
  5
3A7
100
AcDbEntity
  8
____
  6
CONTINUOUS
 62
         4
100
AcDbLine
 10
1547.0357167003
 20
627.8503207807
 30
0.0
 11
1550.881902034
 21
631.6965061145
 31
0.0
  0
LINE
  5
3A8
100
AcDbEntity
  8
____
  6
CONTINUOUS
 62
         4
100
AcDbLine
 10
1553.3857167003
 20
634.2003207807
 30
0.0
 11
1574.8157167003
 21
655.6303207807
 31
0.0
  0
LINE
  5
3A9
100
AcDbEntity
  8
____
  6
CONTINUOUS
 62
         4
100
AcDbLine
 10
1576.881902034
 20
657.6965061145
 30
0.0
 11
1578.7857167003
 21
659.6003207807
 31
0.0
  0
LINE
  5
3AA
100
AcDbEntity
  8
____
  6
CONTINUOUS
 62
         4
100
AcDbLine
 10
1542.7930760132
 20
627.8503207807
 30
0.0
 11
1570.5730760132
 21
655.6303207807
 31
0.0
  0
LINE
  5
3AB
100
AcDbEntity
  8
____
  6
CONTINUOUS
 62
         4
100
AcDbLine
 10
1538.5504353261
 20
627.8503207807
 30
0.0
 11
1566.3304353261
 21
655.6303207807
 31
0.0
  0
LINE
  5
3AC
100
AcDbEntity
  8
____
  6
CONTINUOUS
 62
         4
100
AcDbLine
 10
1534.3077946389
 20
627.8503207807
 30
0.0
 11
1562.0877946389
 21
655.6303207807
 31
0.0
  0
LINE
  5
3AD
100
AcDbEntity
  8
____
  6
CONTINUOUS
 62
         4
100
AcDbLine
 10
1530.0651539518
 20
627.8503207807
 30
0.0
 11
1557.8451539518
 21
655.6303207807
 31
0.0
  0
LINE
  5
3AE
100
AcDbEntity
  8
____
  6
CONTINUOUS
 62
         4
100
AcDbLine
 10
1525.8225132647
 20
627.8503207807
 30
0.0
 11
1553.6025132647
 21
655.6303207807
 31
0.0
  0
LINE
  5
3AF
100
AcDbEntity
  8
____
  6
CONTINUOUS
 62
         4
100
AcDbLine
 10
1521.5798725776
 20
627.8503207807
 30
0.0
 11
1551.881902034
 21
658.1523502372
 31
0.0
  0
LINE
  5
3B0
100
AcDbEntity
  8
____
  6
CONTINUOUS
 62
         4
100
AcDbLine
 10
1517.3372318905
 20
627.8503207807
 30
0.0
 11
1550.881902034
 21
661.3949909243
 31
0.0
  0
LINE
  5
3B1
100
AcDbEntity
  8
____
  6
CONTINUOUS
 62
         4
100
AcDbLine
 10
1513.0945912034
 20
627.8503207807
 30
0.0
 11
1550.5873206727
 21
665.3430502501
 31
0.0
  0
LINE
  5
3B2
100
AcDbEntity
  8
____
  6
CONTINUOUS
 62
         4
100
AcDbLine
 10
1508.8519505162
 20
627.8503207807
 30
0.0
 11
1546.9519505162
 21
665.9503207807
 31
0.0
  0
LINE
  5
3B3
100
AcDbEntity
  8
____
  6
CONTINUOUS
 62
         4
100
AcDbLine
 10
1504.6093098291
 20
627.8503207807
 30
0.0
 11
1542.7093098291
 21
665.9503207807
 31
0.0
  0
LINE
  5
3B4
100
AcDbEntity
  8
____
  6
CONTINUOUS
 62
         4
100
AcDbLine
 10
1500.366669142
 20
627.8503207807
 30
0.0
 11
1538.466669142
 21
665.9503207807
 31
0.0
  0
LINE
  5
3B5
100
AcDbEntity
  8
____
  6
CONTINUOUS
 62
         4
100
AcDbLine
 10
1496.1240284549
 20
627.8503207807
 30
0.0
 11
1534.2240284549
 21
665.9503207807
 31
0.0
  0
LINE
  5
3B6
100
AcDbEntity
  8
____
  6
CONTINUOUS
 62
         4
100
AcDbLine
 10
1491.8813877678
 20
627.8503207807
 30
0.0
 11
1529.9813877678
 21
665.9503207807
 31
0.0
  0
LINE
  5
3B7
100
AcDbEntity
  8
____
  6
CONTINUOUS
 62
         4
100
AcDbLine
 10
1487.6387470806
 20
627.8503207807
 30
0.0
 11
1525.7387470806
 21
665.9503207807
 31
0.0
  0
LINE
  5
3B8
100
AcDbEntity
  8
____
  6
CONTINUOUS
 62
         4
100
AcDbLine
 10
1480.2211063935
 20
624.6753207807
 30
0.0
 11
1481.201902034
 21
625.6561164212
 31
0.0
  0
LINE
  5
3B9
100
AcDbEntity
  8
____
  6
CONTINUOUS
 62
         4
100
AcDbLine
 10
1483.3961063935
 20
627.8503207807
 30
0.0
 11
1521.4961063935
 21
665.9503207807
 31
0.0
  0
LINE
  5
3BA
100
AcDbEntity
  8
____
  6
CONTINUOUS
 62
         4
100
AcDbLine
 10
1475.9784657064
 20
624.6753207807
 30
0.0
 11
1517.2534657064
 21
665.9503207807
 31
0.0
  0
LINE
  5
3BB
100
AcDbEntity
  8
____
  6
CONTINUOUS
 62
         4
100
AcDbLine
 10
1462.1858250191
 20
615.1253207806
 30
0.0
 11
1465.249902034
 21
618.1893977955
 31
0.0
  0
LINE
  5
3BC
100
AcDbEntity
  8
____
  6
CONTINUOUS
 62
         4
100
AcDbLine
 10
1471.7358250193
 20
624.6753207807
 30
0.0
 11
1513.0108250193
 21
665.9503207807
 31
0.0
  0
LINE
  5
3BD
100
AcDbEntity
  8
____
  6
CONTINUOUS
 62
         4
100
AcDbLine
 10
1459.7455665653
 20
616.9277030139
 30
0.0
 11
1465.249902034
 21
622.4320384826
 31
0.0
  0
LINE
  5
3BE
100
AcDbEntity
  8
____
  6
CONTINUOUS
 62
         4
100
AcDbLine
 10
1467.4931843322
 20
624.6753207807
 30
0.0
 11
1508.7681843322
 21
665.9503207807
 31
0.0
  0
LINE
  5
3BF
100
AcDbEntity
  8
____
  6
CONTINUOUS
 62
         4
100
AcDbLine
 10
1453.7005436449
 20
615.1253207806
 30
0.0
 11
1453.7315101623
 21
615.156287298
 31
0.0
  0
LINE
  5
3C0
100
AcDbEntity
  8
____
  6
CONTINUOUS
 62
         4
100
AcDbLine
 10
1457.350543645
 20
618.7753207807
 30
0.0
 11
1504.525543645
 21
665.9503207807
 31
0.0
  0
LINE
  5
3C1
100
AcDbEntity
  8
____
  6
CONTINUOUS
 62
         4
100
AcDbLine
 10
1449.6988606885
 20
615.3662785113
 30
0.0
 11
1500.2829029579
 21
665.9503207807
 31
0.0
  0
LINE
  5
3C2
100
AcDbEntity
  8
____
  6
CONTINUOUS
 62
         4
100
AcDbLine
 10
1449.349902034
 20
619.259960544
 30
0.0
 11
1496.0402622708
 21
665.9503207807
 31
0.0
  0
LINE
  5
3C3
100
AcDbEntity
  8
____
  6
CONTINUOUS
 62
         4
100
AcDbLine
 10
1449.349902034
 20
623.5026012311
 30
0.0
 11
1491.7976215837
 21
665.9503207807
 31
0.0
  0
LINE
  5
3C4
100
AcDbEntity
  8
____
  6
CONTINUOUS
 62
         4
100
AcDbLine
 10
1446.263425405
 20
624.6587652892
 30
0.0
 11
1487.5549808966
 21
665.9503207807
 31
0.0
  0
LINE
  5
3C5
100
AcDbEntity
  8
____
  6
CONTINUOUS
 62
         4
100
AcDbLine
 10
1442.5607571689
 20
625.1987377402
 30
0.0
 11
1483.3123402094
 21
665.9503207807
 31
0.0
  0
LINE
  5
3C6
100
AcDbEntity
  8
____
  6
CONTINUOUS
 62
         4
100
AcDbLine
 10
1438.8580889329
 20
625.7387101913
 30
0.0
 11
1481.201902034
 21
668.0825232924
 31
0.0
  0
LINE
  5
3C7
100
AcDbEntity
  8
____
  6
CONTINUOUS
 62
         4
100
AcDbLine
 10
1435.1554206969
 20
626.2786826424
 30
0.0
 11
1478.0020588352
 21
669.1253207807
 31
0.0
  0
LINE
  5
3C8
100
AcDbEntity
  8
____
  6
CONTINUOUS
 62
         4
100
AcDbLine
 10
1431.4527524608
 20
626.8186550935
 30
0.0
 11
1473.7594181481
 21
669.1253207807
 31
0.0
  0
LINE
  5
3C9
100
AcDbEntity
  8
____
  6
CONTINUOUS
 62
         4
100
AcDbLine
 10
1427.7500842248
 20
627.3586275446
 30
0.0
 11
1469.516777461
 21
669.1253207807
 31
0.0
  0
LINE
  5
3CA
100
AcDbEntity
  8
____
  6
CONTINUOUS
 62
         4
100
AcDbLine
 10
1424.0474159888
 20
627.8985999957
 30
0.0
 11
1465.4964637751
 21
669.347647782
 31
0.0
  0
LINE
  5
3CB
100
AcDbEntity
  8
____
  6
CONTINUOUS
 62
         4
100
AcDbLine
 10
1420.3447477527
 20
628.4385724468
 30
0.0
 11
1465.249902034
 21
673.343726728
 31
0.0
  0
LINE
  5
3CC
100
AcDbEntity
  8
____
  6
CONTINUOUS
 62
         4
100
AcDbLine
 10
1416.6420795167
 20
628.9785448979
 30
0.0
 11
1465.249902034
 21
677.5863674152
 31
0.0
  0
LINE
  5
3CD
100
AcDbEntity
  8
____
  6
CONTINUOUS
 62
         4
100
AcDbLine
 10
1412.9394112807
 20
629.5185173489
 30
0.0
 11
1458.5146325527
 21
675.093738621
 31
0.0
  0
LINE
  5
3CE
100
AcDbEntity
  8
____
  6
CONTINUOUS
 62
         4
100
AcDbLine
 10
1459.0826838622
 20
675.6617899305
 30
0.0
 11
1462.0962147127
 21
678.6753207809
 31
0.0
  0
LINE
  5
3CF
100
AcDbEntity
  8
____
  6
CONTINUOUS
 62
         4
100
AcDbLine
 10
1409.2367430447
 20
630.0584898
 30
0.0
 11
1419.0785740254
 21
639.9003207807
 31
0.0
  0
LINE
  5
3D0
100
AcDbEntity
  8
____
  6
CONTINUOUS
 62
         4
100
AcDbLine
 10
1421.84996585
 20
642.6717126054
 30
0.0
 11
1448.2785740254
 21
669.1003207807
 31
0.0
  0
LINE
  5
3D1
100
AcDbEntity
  8
____
  6
CONTINUOUS
 62
         4
100
AcDbLine
 10
1449.349902034
 20
670.1716487894
 30
0.0
 11
1455.2289557202
 21
676.0507024756
 31
0.0
  0
LINE
  5
3D2
100
AcDbEntity
  8
____
  6
CONTINUOUS
 62
         4
100
AcDbLine
 10
1405.5340748086
 20
630.5984622511
 30
0.0
 11
1414.8359333383
 21
639.9003207807
 31
0.0
  0
LINE
  5
3D3
100
AcDbEntity
  8
____
  6
CONTINUOUS
 62
         4
100
AcDbLine
 10
1423.3926076091
 20
648.4569950516
 30
0.0
 11
1443.7042801463
 21
668.7686675888
 31
0.0
  0
LINE
  5
3D4
100
AcDbEntity
  8
____
  6
CONTINUOUS
 62
         4
100
AcDbLine
 10
1449.349902034
 20
674.4142894765
 30
0.0
 11
1453.6109333384
 21
678.6753207809
 31
0.0
  0
LINE
  5
3D5
100
AcDbEntity
  8
____
  6
CONTINUOUS
 62
         4
100
AcDbLine
 10
1401.8314065726
 20
631.1384347022
 30
0.0
 11
1410.5932926511
 21
639.9003207807
 31
0.0
  0
LINE
  5
3D6
100
AcDbEntity
  8
____
  6
CONTINUOUS
 62
         4
100
AcDbLine
 10
1421.8396933384
 20
651.1467214681
 30
0.0
 11
1438.7372861711
 21
668.0443143007
 31
0.0
  0
LINE
  5
3D7
100
AcDbEntity
  8
____
  6
CONTINUOUS
 62
         4
100
AcDbLine
 10
1398.1287383366
 20
631.6784071533
 30
0.0
 11
1406.350651964
 21
639.9003207807
 31
0.0
  0
LINE
  5
3D8
100
AcDbEntity
  8
____
  6
CONTINUOUS
 62
         4
100
AcDbLine
 10
1420.2867790678
 20
653.8364478846
 30
0.0
 11
1433.770292196
 21
667.3199610127
 31
0.0
  0
LINE
  5
3D9
100
AcDbEntity
  8
____
  6
CONTINUOUS
 62
         4
100
AcDbLine
 10
1394.4260701005
 20
632.2183796044
 30
0.0
 11
1402.1080112769
 21
639.9003207807
 31
0.0
  0
LINE
  5
3DA
100
AcDbEntity
  8
____
  6
CONTINUOUS
 62
         4
100
AcDbLine
 10
1416.1080112769
 20
653.9003207807
 30
0.0
 11
1428.8032982208
 21
666.5956077247
 31
0.0
  0
LINE
  5
3DB
100
AcDbEntity
  8
____
  6
CONTINUOUS
 62
         4
100
AcDbLine
 10
1390.7234018645
 20
632.7583520555
 30
0.0
 11
1397.8653705898
 21
639.9003207807
 31
0.0
  0
LINE
  5
3DC
100
AcDbEntity
  8
____
  6
CONTINUOUS
 62
         4
100
AcDbLine
 10
1411.8653705898
 20
653.9003207807
 30
0.0
 11
1423.8363042456
 21
665.8712544366
 31
0.0
  0
LINE
  5
3DD
100
AcDbEntity
  8
____
  6
CONTINUOUS
 62
         4
100
AcDbLine
 10
1387.0207336285
 20
633.2983245066
 30
0.0
 11
1393.6227299027
 21
639.9003207807
 31
0.0
  0
LINE
  5
3DE
100
AcDbEntity
  8
____
  6
CONTINUOUS
 62
         4
100
AcDbLine
 10
1407.6227299027
 20
653.9003207807
 30
0.0
 11
1418.8693102705
 21
665.1469011486
 31
0.0
  0
LINE
  5
3DF
100
AcDbEntity
  8
____
  6
CONTINUOUS
 62
         4
100
AcDbLine
 10
1383.3180653924
 20
633.8382969576
 30
0.0
 11
1389.3800892155
 21
639.9003207807
 31
0.0
  0
LINE
  5
3E0
100
AcDbEntity
  8
____
  6
CONTINUOUS
 62
         4
100
AcDbLine
 10
1403.3800892155
 20
653.9003207807
 30
0.0
 11
1413.9023162953
 21
664.4225478605
 31
0.0
  0
LINE
  5
3E1
100
AcDbEntity
  8
____
  6
CONTINUOUS
 62
         4
100
AcDbLine
 10
1379.6153971564
 20
634.3782694087
 30
0.0
 11
1385.1374485284
 21
639.9003207807
 31
0.0
  0
LINE
  5
3E2
100
AcDbEntity
  8
____
  6
CONTINUOUS
 62
         4
100
AcDbLine
 10
1399.1374485284
 20
653.9003207807
 30
0.0
 11
1408.9353223201
 21
663.6981945725
 31
0.0
  0
LINE
  5
3E3
100
AcDbEntity
  8
____
  6
CONTINUOUS
 62
         4
100
AcDbLine
 10
1377.749902034
 20
636.7554149735
 30
0.0
 11
1379.7448078413
 21
638.7503207807
 31
0.0
  0
LINE
  5
3E4
100
AcDbEntity
  8
____
  6
CONTINUOUS
 62
         4
100
AcDbLine
 10
1394.8948078413
 20
653.9003207807
 30
0.0
 11
1403.968328345
 21
662.9738412844
 31
0.0
  0
LINE
  5
3E5
100
AcDbEntity
  8
____
  6
CONTINUOUS
 62
         4
100
AcDbLine
 10
1390.6521671542
 20
653.9003207807
 30
0.0
 11
1399.0013343698
 21
662.2494879964
 31
0.0
  0
LINE
  5
3E6
100
AcDbEntity
  8
____
  6
CONTINUOUS
 62
         4
100
AcDbLine
 10
1386.4095264671
 20
653.9003207807
 30
0.0
 11
1394.0343403947
 21
661.5251347083
 31
0.0
  0
LINE
  5
3E7
100
AcDbEntity
  8
____
  6
CONTINUOUS
 62
         4
100
AcDbLine
 10
1382.9098152632
 20
654.643250264
 30
0.0
 11
1389.0673464195
 21
660.8007814203
 31
0.0
  0
LINE
  5
3E8
100
AcDbEntity
  8
____
  6
CONTINUOUS
 62
         4
100
AcDbLine
 10
1379.0742450928
 20
655.0503207807
 30
0.0
 11
1384.1003524443
 21
660.0764281323
 31
0.0
  0
LINE
  5
3E9
100
AcDbEntity
  8
____
  6
CONTINUOUS
 62
         4
100
AcDbLine
 10
1377.749902034
 20
657.9686184091
 30
0.0
 11
1379.1333584692
 21
659.3520748442
 31
0.0
  0
ENDBLK
  5
3EA
100
AcDbEntity
  8
0
  6
CONTINUOUS
100
AcDbBlockEnd
  0
BLOCK
  5
3EF
100
AcDbEntity
  8
0
100
AcDbBlockBegin
  2
*D35
 70
        65
 10
0.0
 20
0.0
 30
0.0
  3
*D35
  1

  0
POINT
  5
3F1
100
AcDbEntity
  8
DEFPOINTS
  6
CONTINUOUS
 62
         0
100
AcDbPoint
 10
1567.9719953546
 20
659.6003207807
 30
0.0
  0
POINT
  5
3F2
100
AcDbEntity
  8
DEFPOINTS
  6
CONTINUOUS
 62
         0
100
AcDbPoint
 10
1552.881902034
 20
659.6003207807
 30
0.0
  0
POINT
  5
3F3
100
AcDbEntity
  8
DEFPOINTS
  6
CONTINUOUS
 62
         0
100
AcDbPoint
 10
1552.881902034
 20
634.2003207807
 30
0.0
  0
LINE
  5
3F4
100
AcDbEntity
  8
____
  6
CONTINUOUS
 62
         4
100
AcDbLine
 10
1554.231902034
 20
659.6003207807
 30
0.0
 11
1568.6469953546
 21
659.6003207807
 31
0.0
  0
LINE
  5
3F5
100
AcDbEntity
  8
____
  6
CONTINUOUS
 62
         4
100
AcDbLine
 10
1554.231902034
 20
634.2003207807
 30
0.0
 11
1568.6469953546
 21
634.2003207807
 31
0.0
  0
LINE
  5
3F6
100
AcDbEntity
  8
____
  6
CONTINUOUS
 62
         4
100
AcDbLine
 10
1567.9719953546
 20
659.6003207807
 30
0.0
 11
1567.9719953546
 21
634.2003207807
 31
0.0
  0
SOLID
  5
3F7
100
AcDbEntity
  8
____
  6
CONTINUOUS
 62
         4
100
AcDbTrace
 10
1567.9719953546
 20
659.6003207807
 30
0.0
 11
1568.3769953546
 21
656.9003207807
 31
0.0
 12
1567.5669953546
 22
656.9003207807
 32
0.0
 13
1567.9719953546
 23
659.6003207807
 33
0.0
  0
LINE
  5
3F8
100
AcDbEntity
  8
____
  6
CONTINUOUS
 62
         4
100
AcDbLine
 10
1567.9719953546
 20
634.2003207807
 30
0.0
 11
1567.9719953546
 21
617.3500435905
 31
0.0
  0
SOLID
  5
3F9
100
AcDbEntity
  8
____
  6
CONTINUOUS
 62
         4
100
AcDbTrace
 10
1567.9719953546
 20
634.2003207807
 30
0.0
 11
1567.5669953546
 21
636.9003207807
 31
0.0
 12
1568.3769953546
 22
636.9003207807
 32
0.0
 13
1567.9719953546
 23
634.2003207807
 33
0.0
  0
TEXT
  5
3FB
100
AcDbEntity
  8
____
  6
CONTINUOUS
 62
         4
100
AcDbText
 10
1565.9469953546
 20
618.7000435905
 30
0.0
 40
2.7
  1
崷25.4
 50
90.0
  7
BOX
100
AcDbText
  0
ENDBLK
  5
3FC
100
AcDbEntity
  8
0
  6
CONTINUOUS
100
AcDbBlockEnd
  0
ENDSEC
  0
SECTION
  2
ENTITIES
  0
LINE
  5
2B
100
AcDbEntity
  8
____
  6
DASHED
 62
         2
100
AcDbLine
 10
1680.4406939681
 20
757.0069665993
 30
0.0
 11
1679.9406939681
 21
756.5069665993
 31
0.0
  0
LINE
  5
2C
100
AcDbEntity
  8
____
  6
DASHED
 62
         2
100
AcDbLine
 10
1680.4406939681
 20
767.0069665993
 30
0.0
 11
1679.9406939681
 21
767.5069665993
 31
0.0
  0
LINE
  5
2D
100
AcDbEntity
  8
____
  6
DASHED
 62
         2
100
AcDbLine
 10
1680.4406939681
 20
767.0069665993
 30
0.0
 11
1680.4406939681
 21
757.0069665993
 31
0.0
  0
LINE
  5
2E
100
AcDbEntity
  8
____
  6
DASHED
 62
         2
100
AcDbLine
 10
1680.4406939681
 20
757.0069665993
 30
0.0
 11
1686.6146939681
 21
757.0069665993
 31
0.0
  0
LINE
  5
2F
100
AcDbEntity
  8
____
  6
DASHED
 62
         2
100
AcDbLine
 10
1689.501445314
 20
762.0069665993
 30
0.0
 11
1686.6146939681
 21
757.0069665993
 31
0.0
  0
LINE
  5
30
100
AcDbEntity
  8
____
  6
DASHED
 62
         2
100
AcDbLine
 10
1686.6146939681
 20
767.0069665993
 30
0.0
 11
1689.501445314
 21
762.0069665993
 31
0.0
  0
LINE
  5
31
100
AcDbEntity
  8
____
  6
DASHED
 62
         2
100
AcDbLine
 10
1686.6146939681
 20
767.0069665993
 30
0.0
 11
1686.6146939681
 21
757.0069665993
 31
0.0
  0
LINE
  5
32
100
AcDbEntity
  8
____
  6
DASHED
 62
         2
100
AcDbLine
 10
1680.4406939681
 20
767.0069665993
 30
0.0
 11
1686.6146939681
 21
767.0069665993
 31
0.0
  0
ARC
  5
33
100
AcDbEntity
  8
____
  6
CONTINUOUS
 62
         7
100
AcDbCircle
 10
1465.749902034
 20
784.7919665993
 30
0.0
 40
0.5
100
AcDbArc
 50
180.0
 51
270.0
  0
ARC
  5
34
100
AcDbEntity
  8
____
  6
CONTINUOUS
 62
         7
100
AcDbCircle
 10
1465.749902034
 20
739.2219665993
 30
0.0
 40
0.5
100
AcDbArc
 50
90.0
 51
180.0
  0
LINE
  5
35
100
AcDbEntity
  8
____
  6
CONTINUOUS
 62
         7
100
AcDbLine
 10
1465.749902034
 20
739.7219665993
 30
0.0
 11
1480.401902034
 21
739.7219665993
 31
0.0
  0
LINE
  5
36
100
AcDbEntity
  8
____
  6
CONTINUOUS
 62
         7
100
AcDbLine
 10
1465.749902034
 20
784.2919665993
 30
0.0
 11
1480.401902034
 21
784.2919665993
 31
0.0
  0
LINE
  5
37
100
AcDbEntity
  8
____
  6
CENTER
 62
         1
100
AcDbLine
 10
1678.4483063868
 20
762.0069665993
 30
0.0
 11
1732.4267633673
 21
762.0069665993
 31
0.0
  0
LINE
  5
38
100
AcDbEntity
  8
____
  6
CONTINUOUS
 62
         7
100
AcDbLine
 10
1680.3406939681
 20
754.0628813181
 30
0.0
 11
1679.8406939681
 21
753.5628813181
 31
0.0
  0
LINE
  5
39
100
AcDbEntity
  8
____
  6
CONTINUOUS
 62
         7
100
AcDbLine
 10
1674.3082267354
 20
753.5628813181
 30
0.0
 11
1679.8406939681
 21
753.5628813181
 31
0.0
  0
LINE
  5
3A
100
AcDbEntity
  8
____
  6
CONTINUOUS
 62
         7
100
AcDbLine
 10
1674.7023120165
 20
753.9569665993
 30
0.0
 11
1679.4406939681
 21
753.9569665993
 31
0.0
  0
LINE
  5
3B
100
AcDbEntity
  8
____
  6
CONTINUOUS
 62
         7
100
AcDbLine
 10
1674.3082267354
 20
753.5628813181
 30
0.0
 11
1674.7023120165
 21
753.9569665993
 31
0.0
  0
LINE
  5
3C
100
AcDbEntity
  8
____
  6
CONTINUOUS
 62
         7
100
AcDbLine
 10
1679.9406939681
 20
754.4569665993
 30
0.0
 11
1679.4406939681
 21
753.9569665993
 31
0.0
  0
LINE
  5
3D
100
AcDbEntity
  8
____
  6
CONTINUOUS
 62
         7
100
AcDbLine
 10
1680.3406939681
 20
769.9510518805
 30
0.0
 11
1679.8406939681
 21
770.4510518805
 31
0.0
  0
LINE
  5
3E
100
AcDbEntity
  8
____
  6
CONTINUOUS
 62
         7
100
AcDbLine
 10
1674.3082267354
 20
770.4510518805
 30
0.0
 11
1674.7023120165
 21
770.0569665993
 31
0.0
  0
LINE
  5
3F
100
AcDbEntity
  8
____
  6
CONTINUOUS
 62
         7
100
AcDbLine
 10
1679.9406939681
 20
769.5569665993
 30
0.0
 11
1679.4406939681
 21
770.0569665993
 31
0.0
  0
LINE
  5
40
100
AcDbEntity
  8
____
  6
CONTINUOUS
 62
         7
100
AcDbLine
 10
1679.9406939681
 20
769.5569665993
 30
0.0
 11
1679.9406939681
 21
754.4569665993
 31
0.0
  0
LINE
  5
41
100
AcDbEntity
  8
____
  6
CONTINUOUS
 62
         7
100
AcDbLine
 10
1674.7023120165
 20
770.0569665993
 30
0.0
 11
1679.4406939681
 21
770.0569665993
 31
0.0
  0
LINE
  5
42
100
AcDbEntity
  8
____
  6
CONTINUOUS
 62
         7
100
AcDbLine
 10
1674.3082267354
 20
770.4510518805
 30
0.0
 11
1679.8406939681
 21
770.4510518805
 31
0.0
  0
LINE
  5
43
100
AcDbEntity
  8
____
  6
CONTINUOUS
 62
         7
100
AcDbLine
 10
1727.3406939681
 20
769.9510518805
 30
0.0
 11
1727.8406939681
 21
770.4510518805
 31
0.0
  0
LINE
  5
44
100
AcDbEntity
  8
____
  6
CONTINUOUS
 62
         7
100
AcDbLine
 10
1727.3406939681
 20
754.0628813181
 30
0.0
 11
1727.8406939681
 21
753.5628813181
 31
0.0
  0
LINE
  5
45
100
AcDbEntity
  8
____
  6
CONTINUOUS
 62
         7
100
AcDbLine
 10
1735.5731612008
 20
753.5628813181
 30
0.0
 11
1735.1790759196
 21
753.9569665993
 31
0.0
  0
LINE
  5
46
100
AcDbEntity
  8
____
  6
CONTINUOUS
 62
         7
100
AcDbLine
 10
1727.7406939681
 20
754.4569665993
 30
0.0
 11
1728.2406939681
 21
753.9569665993
 31
0.0
  0
LINE
  5
47
100
AcDbEntity
  8
____
  6
CONTINUOUS
 62
         7
100
AcDbLine
 10
1728.2406939681
 20
753.9569665993
 30
0.0
 11
1735.1790759196
 21
753.9569665993
 31
0.0
  0
LINE
  5
48
100
AcDbEntity
  8
____
  6
CONTINUOUS
 62
         7
100
AcDbLine
 10
1735.5731612008
 20
753.5628813181
 30
0.0
 11
1727.8406939681
 21
753.5628813181
 31
0.0
  0
LINE
  5
49
100
AcDbEntity
  8
____
  6
CONTINUOUS
 62
         7
100
AcDbLine
 10
1727.3406939681
 20
769.9510518805
 30
0.0
 11
1727.3406939681
 21
754.0628813181
 31
0.0
  0
LINE
  5
4A
100
AcDbEntity
  8
____
  6
CONTINUOUS
 62
         7
100
AcDbLine
 10
1735.5731612008
 20
770.4510518805
 30
0.0
 11
1735.1790759196
 21
770.0569665993
 31
0.0
  0
LINE
  5
4B
100
AcDbEntity
  8
____
  6
CONTINUOUS
 62
         7
100
AcDbLine
 10
1728.2406939681
 20
770.0569665993
 30
0.0
 11
1735.1790759196
 21
770.0569665993
 31
0.0
  0
LINE
  5
4C
100
AcDbEntity
  8
____
  6
CONTINUOUS
 62
         7
100
AcDbLine
 10
1735.5731612008
 20
770.4510518805
 30
0.0
 11
1727.8406939681
 21
770.4510518805
 31
0.0
  0
LINE
  5
4D
100
AcDbEntity
  8
____
  6
CONTINUOUS
 62
         7
100
AcDbLine
 10
1727.7406939681
 20
769.5569665993
 30
0.0
 11
1728.2406939681
 21
770.0569665993
 31
0.0
  0
LINE
  5
4E
100
AcDbEntity
  8
____
  6
CONTINUOUS
 62
         7
100
AcDbLine
 10
1727.7406939681
 20
769.5569665993
 30
0.0
 11
1727.7406939681
 21
754.4569665993
 31
0.0
  0
LINE
  5
4F
100
AcDbEntity
  8
____
  6
CONTINUOUS
 62
         7
100
AcDbLine
 10
1680.3406939681
 20
769.9510518805
 30
0.0
 11
1680.3406939681
 21
754.0628813181
 31
0.0
  0
ARC
  5
50
100
AcDbEntity
  8
____
  6
DASHED
 62
         2
100
AcDbCircle
 10
1704.9406939681
 20
762.0069665993
 30
0.0
 40
28.125
100
AcDbArc
 50
198.3406919436
 51
343.3680794645
  0
ARC
  5
51
100
AcDbEntity
  8
____
  6
DASHED
 62
         2
100
AcDbCircle
 10
1704.9406939681
 20
762.0069665993
 30
0.0
 40
28.125
100
AcDbArc
 50
16.6319205355
 51
163.3680794645
  0
LINE
  5
52
100
AcDbEntity
  8
____
  6
CENTER
 62
         1
100
AcDbLine
 10
1704.9406939681
 20
796.7819665993
 30
0.0
 11
1704.9406939681
 21
727.2319665993
 31
0.0
  0
ARC
  5
53
100
AcDbEntity
  8
____
  6
CONTINUOUS
 62
         7
100
AcDbCircle
 10
1704.9406939681
 20
762.0069665993
 30
0.0
 40
30.775
100
AcDbArc
 50
195.9251485826
 51
344.0748514174
  0
ARC
  5
54
100
AcDbEntity
  8
____
  6
CONTINUOUS
 62
         7
100
AcDbCircle
 10
1704.9406939681
 20
762.0069665993
 30
0.0
 40
31.775
100
AcDbArc
 50
15.411296411
 51
164.588703589
  0
ARC
  5
55
100
AcDbEntity
  8
____
  6
CONTINUOUS
 62
         7
100
AcDbCircle
 10
1704.9406939681
 20
762.0069665993
 30
0.0
 40
30.775
100
AcDbArc
 50
15.9251485826
 51
164.0748514174
  0
CIRCLE
  5
56
100
AcDbEntity
  8
____
  6
CENTER
 62
         1
100
AcDbCircle
 10
1457.249902034
 20
794.6569665993
 30
0.0
 40
3.5
  0
LINE
  5
57
100
AcDbEntity
  8
____
  6
CONTINUOUS
 62
         7
100
AcDbLine
 10
1455.374902034
 20
790.9045618635
 30
0.0
 11
1453.7136316352
 21
793.7819665993
 31
0.0
  0
LINE
  5
58
100
AcDbEntity
  8
____
  6
CENTER
 62
         1
100
AcDbLine
 10
1452.9388967754
 20
794.6569665993
 30
0.0
 11
1461.3477313438
 21
794.6569665993
 31
0.0
  0
LINE
  5
59
100
AcDbEntity
  8
____
  6
CONTINUOUS
 62
         7
100
AcDbLine
 10
1464.449902034
 20
770.0569665993
 30
0.0
 11
1450.149902034
 21
770.0569665993
 31
0.0
  0
LINE
  5
5A
100
AcDbEntity
  8
____
  6
CONTINUOUS
 62
         7
100
AcDbLine
 10
1464.449902034
 20
753.9569665993
 30
0.0
 11
1450.149902034
 21
753.9569665993
 31
0.0
  0
LINE
  5
5B
100
AcDbEntity
  8
____
  6
CONTINUOUS
 62
         7
100
AcDbLine
 10
1453.7136316352
 20
770.8569665993
 30
0.0
 11
1455.374902034
 21
770.0569665993
 31
0.0
  0
LINE
  5
5C
100
AcDbEntity
  8
____
  6
CENTER
 62
         1
100
AcDbLine
 10
1452.9388967754
 20
729.3569665993
 30
0.0
 11
1461.3477313438
 21
729.3569665993
 31
0.0
  0
LINE
  5
5D
100
AcDbEntity
  8
____
  6
CONTINUOUS
 62
         7
100
AcDbLine
 10
1455.374902034
 20
733.1093713351
 30
0.0
 11
1453.7136316352
 21
730.2319665993
 31
0.0
  0
LINE
  5
5E
100
AcDbEntity
  8
____
  6
CONTINUOUS
 62
         7
100
AcDbLine
 10
1453.7136316352
 20
753.1569665993
 30
0.0
 11
1455.374902034
 21
753.9569665993
 31
0.0
  0
LINE
  5
5F
100
AcDbEntity
  8
____
  6
CONTINUOUS
 62
         7
100
AcDbLine
 10
1450.149902034
 20
770.0569665993
 30
0.0
 11
1450.149902034
 21
753.9569665993
 31
0.0
  0
LINE
  5
60
100
AcDbEntity
  8
____
  6
CONTINUOUS
 62
         7
100
AcDbLine
 10
1449.349902034
 20
792.7819665993
 30
0.0
 11
1449.349902034
 21
731.2319665993
 31
0.0
  0
LINE
  5
61
100
AcDbEntity
  8
____
  6
CENTER
 62
         1
100
AcDbLine
 10
1446.149902034
 20
784.2319665993
 30
0.0
 11
1446.149902034
 21
739.7819665993
 31
0.0
  0
LINE
  5
62
100
AcDbEntity
  8
____
  6
CONTINUOUS
 62
         7
100
AcDbLine
 10
1453.7136316352
 20
753.1569665993
 30
0.0
 11
1453.7136316352
 21
730.2319665993
 31
0.0
  0
LINE
  5
63
100
AcDbEntity
  8
____
  6
CONTINUOUS
 62
         7
100
AcDbLine
 10
1450.349902034
 20
730.2319665993
 30
0.0
 11
1453.7136316352
 21
730.2319665993
 31
0.0
  0
LINE
  5
64
100
AcDbEntity
  8
____
  6
CONTINUOUS
 62
         7
100
AcDbLine
 10
1453.7136316352
 20
753.1569665993
 30
0.0
 11
1449.349902034
 21
753.1569665993
 31
0.0
  0
LINE
  5
65
100
AcDbEntity
  8
____
  6
CONTINUOUS
 62
         7
100
AcDbLine
 10
1450.149902034
 20
753.9569665993
 30
0.0
 11
1449.349902034
 21
753.1569665993
 31
0.0
  0
LINE
  5
66
100
AcDbEntity
  8
____
  6
CONTINUOUS
 62
         7
100
AcDbLine
 10
1450.349902034
 20
793.7819665993
 30
0.0
 11
1453.7136316352
 21
793.7819665993
 31
0.0
  0
LINE
  5
67
100
AcDbEntity
  8
____
  6
CONTINUOUS
 62
         7
100
AcDbLine
 10
1449.349902034
 20
770.8569665993
 30
0.0
 11
1450.149902034
 21
770.0569665993
 31
0.0
  0
LINE
  5
68
100
AcDbEntity
  8
____
  6
CONTINUOUS
 62
         7
100
AcDbLine
 10
1453.7136316352
 20
770.8569665993
 30
0.0
 11
1449.349902034
 21
770.8569665993
 31
0.0
  0
LINE
  5
69
100
AcDbEntity
  8
____
  6
CONTINUOUS
 62
         7
100
AcDbLine
 10
1453.7136316352
 20
793.7819665993
 30
0.0
 11
1453.7136316352
 21
770.8569665993
 31
0.0
  0
LINE
  5
6A
100
AcDbEntity
  8
____
  6
CONTINUOUS
 62
         7
100
AcDbLine
 10
1464.449902034
 20
770.0569665993
 30
0.0
 11
1464.449902034
 21
753.9569665993
 31
0.0
  0
LINE
  5
6B
100
AcDbEntity
  8
____
  6
CONTINUOUS
 62
         7
100
AcDbLine
 10
1465.249902034
 20
792.7819665993
 30
0.0
 11
1465.249902034
 21
731.2319665993
 31
0.0
  0
LINE
  5
6C
100
AcDbEntity
  8
____
  6
CONTINUOUS
 62
         7
100
AcDbLine
 10
1465.249902034
 20
792.7819665993
 30
0.0
 11
1465.249902034
 21
781.0069665993
 31
0.0
  0
LINE
  5
6D
100
AcDbEntity
  8
____
  6
CONTINUOUS
 62
         7
100
AcDbLine
 10
1460.7861724328
 20
753.1569665993
 30
0.0
 11
1460.7861724328
 21
730.2319665993
 31
0.0
  0
LINE
  5
6E
100
AcDbEntity
  8
____
  6
CONTINUOUS
 62
         7
100
AcDbLine
 10
1459.124902034
 20
753.9569665993
 30
0.0
 11
1459.124902034
 21
733.1093713351
 31
0.0
  0
LINE
  5
6F
100
AcDbEntity
  8
____
  6
CONTINUOUS
 62
         7
100
AcDbLine
 10
1455.374902034
 20
753.9569665993
 30
0.0
 11
1455.374902034
 21
733.1093713351
 31
0.0
  0
LINE
  5
70
100
AcDbEntity
  8
____
  6
CONTINUOUS
 62
         7
100
AcDbLine
 10
1456.3487023658
 20
733.8819665993
 30
0.0
 11
1458.1511017023
 21
733.8819665993
 31
0.0
  0
ARC
  5
71
100
AcDbEntity
  8
____
  6
CONTINUOUS
 62
         7
100
AcDbCircle
 10
1456.3487023658
 20
732.8819665993
 30
0.0
 40
1.0
100
AcDbArc
 50
90.0
 51
166.8556743105
  0
LINE
  5
72
100
AcDbEntity
  8
____
  6
CONTINUOUS
 62
         7
100
AcDbLine
 10
1459.124902034
 20
733.1093713351
 30
0.0
 11
1460.7861724328
 21
730.2319665993
 31
0.0
  0
ARC
  5
73
100
AcDbEntity
  8
____
  6
CONTINUOUS
 62
         7
100
AcDbCircle
 10
1458.1511017023
 20
732.8819665993
 30
0.0
 40
1.0
100
AcDbArc
 50
13.1443256895
 51
90.0
  0
LINE
  5
74
100
AcDbEntity
  8
____
  6
CONTINUOUS
 62
         7
100
AcDbLine
 10
1460.7861724328
 20
730.2319665993
 30
0.0
 11
1464.249902034
 21
730.2319665993
 31
0.0
  0
LINE
  5
75
100
AcDbEntity
  8
____
  6
CONTINUOUS
 62
         7
100
AcDbLine
 10
1465.249902034
 20
753.1569665993
 30
0.0
 11
1460.7861724328
 21
753.1569665993
 31
0.0
  0
LINE
  5
76
100
AcDbEntity
  8
____
  6
CONTINUOUS
 62
         7
100
AcDbLine
 10
1459.124902034
 20
753.9569665993
 30
0.0
 11
1460.7861724328
 21
753.1569665993
 31
0.0
  0
LINE
  5
77
100
AcDbEntity
  8
____
  6
CONTINUOUS
 62
         7
100
AcDbLine
 10
1459.124902034
 20
790.9045618635
 30
0.0
 11
1460.7861724328
 21
793.7819665993
 31
0.0
  0
LINE
  5
78
100
AcDbEntity
  8
____
  6
CONTINUOUS
 62
         7
100
AcDbLine
 10
1460.7861724328
 20
793.7819665993
 30
0.0
 11
1464.249902034
 21
793.7819665993
 31
0.0
  0
LINE
  5
79
100
AcDbEntity
  8
____
  6
CONTINUOUS
 62
         7
100
AcDbLine
 10
1456.3487023658
 20
790.1319665993
 30
0.0
 11
1458.1511017023
 21
790.1319665993
 31
0.0
  0
ARC
  5
7A
100
AcDbEntity
  8
____
  6
CONTINUOUS
 62
         7
100
AcDbCircle
 10
1456.3487023658
 20
791.1319665993
 30
0.0
 40
1.0
100
AcDbArc
 50
193.1443256895
 51
270.0
  0
ARC
  5
7B
100
AcDbEntity
  8
____
  6
CONTINUOUS
 62
         7
100
AcDbCircle
 10
1458.1511017023
 20
791.1319665993
 30
0.0
 40
1.0
100
AcDbArc
 50
270.0
 51
346.8556743105
  0
LINE
  5
7C
100
AcDbEntity
  8
____
  6
CONTINUOUS
 62
         7
100
AcDbLine
 10
1465.249902034
 20
770.8569665993
 30
0.0
 11
1464.449902034
 21
770.0569665993
 31
0.0
  0
LINE
  5
7D
100
AcDbEntity
  8
____
  6
CONTINUOUS
 62
         7
100
AcDbLine
 10
1459.124902034
 20
770.0569665993
 30
0.0
 11
1460.7861724328
 21
770.8569665993
 31
0.0
  0
LINE
  5
7E
100
AcDbEntity
  8
____
  6
CONTINUOUS
 62
         7
100
AcDbLine
 10
1465.249902034
 20
770.8569665993
 30
0.0
 11
1460.7861724328
 21
770.8569665993
 31
0.0
  0
LINE
  5
7F
100
AcDbEntity
  8
____
  6
CONTINUOUS
 62
         7
100
AcDbLine
 10
1459.124902034
 20
790.9045618635
 30
0.0
 11
1459.124902034
 21
770.0569665993
 31
0.0
  0
LINE
  5
80
100
AcDbEntity
  8
____
  6
CONTINUOUS
 62
         7
100
AcDbLine
 10
1460.7861724328
 20
793.7819665993
 30
0.0
 11
1460.7861724328
 21
770.8569665993
 31
0.0
  0
LINE
  5
81
100
AcDbEntity
  8
____
  6
CONTINUOUS
 62
         7
100
AcDbLine
 10
1455.374902034
 20
790.9045618635
 30
0.0
 11
1455.374902034
 21
770.0569665993
 31
0.0
  0
CIRCLE
  5
82
100
AcDbEntity
  8
____
  6
CENTER
 62
         1
100
AcDbCircle
 10
1457.249902034
 20
729.3569665993
 30
0.0
 40
3.5
  0
LINE
  5
83
100
AcDbEntity
  8
____
  6
CENTER
 62
         1
100
AcDbLine
 10
1457.249902034
 20
799.5122299001
 30
0.0
 11
1457.249902034
 21
724.5094103483
 31
0.0
  0
LINE
  5
84
100
AcDbEntity
  8
____
  6
CONTINUOUS
 62
         7
100
AcDbLine
 10
1377.749902034
 20
773.2192733157
 30
0.0
 11
1377.749902034
 21
750.7946598829
 31
0.0
  0
ARC
  5
85
100
AcDbEntity
  8
____
  6
CONTINUOUS
 62
         7
100
AcDbCircle
 10
1378.949902034
 20
750.7946598829
 30
0.0
 40
1.2
100
AcDbArc
 50
180.0
 51
261.7028550302
  0
ARC
  5
86
100
AcDbEntity
  8
____
  6
CONTINUOUS
 62
         7
100
AcDbCircle
 10
1378.949902034
 20
773.2192733157
 30
0.0
 40
1.2
100
AcDbArc
 50
98.2971449698
 51
180.0
  0
LINE
  5
87
100
AcDbEntity
  8
____
  6
CONTINUOUS
 62
         7
100
AcDbLine
 10
1378.7767337623
 20
749.6072203056
 30
0.0
 11
1447.349902034
 21
739.6069665993
 31
0.0
  0
LINE
  5
88
100
AcDbEntity
  8
____
  6
CENTER
 62
         1
100
AcDbLine
 10
1375.506400303
 20
762.0069665993
 30
0.0
 11
1424.6125151721
 21
762.0069665993
 31
0.0
  0
LINE
  5
89
100
AcDbEntity
  8
____
  6
CONTINUOUS
 62
         7
100
AcDbLine
 10
1378.7767337623
 20
774.406712893
 30
0.0
 11
1447.349902034
 21
784.4069665993
 31
0.0
  0
LINE
  5
8A
100
AcDbEntity
  8
____
  6
CENTER
 62
         1
100
AcDbLine
 10
1442.7974106156
 20
762.0069665993
 30
0.0
 11
1609.9372217199
 21
762.0069665993
 31
0.0
  0
ARC
  5
8B
100
AcDbEntity
  8
____
  6
CONTINUOUS
 62
         7
100
AcDbCircle
 10
1704.9406939681
 20
762.0069665993
 30
0.0
 40
31.775
100
AcDbArc
 50
195.411296411
 51
344.588703589
  0
LINE
  5
8C
100
AcDbEntity
  8
____
  6
CONTINUOUS
 62
         7
100
AcDbLine
 10
1448.0963121955
 20
739.8069665993
 30
0.0
 11
1448.749902034
 21
739.8069665993
 31
0.0
  0
LINE
  5
8D
100
AcDbEntity
  8
____
  6
CONTINUOUS
 62
         7
100
AcDbLine
 10
1447.349902034
 20
739.6069665993
 30
0.0
 11
1448.0963121955
 21
739.8069665993
 31
0.0
  0
ARC
  5
8E
100
AcDbEntity
  8
____
  6
CONTINUOUS
 62
         7
100
AcDbCircle
 10
1448.749902034
 20
739.2069665993
 30
0.0
 40
0.6
100
AcDbArc
 50
0.0
 51
90.0
  0
LINE
  5
8F
100
AcDbEntity
  8
____
  6
CONTINUOUS
 62
         7
100
AcDbLine
 10
1448.0963121955
 20
739.8069665993
 30
0.0
 11
1448.0963121955
 21
784.2069665993
 31
0.0
  0
LINE
  5
90
100
AcDbEntity
  8
____
  6
CONTINUOUS
 62
         7
100
AcDbLine
 10
1447.349902034
 20
739.6069665993
 30
0.0
 11
1447.349902034
 21
784.4069665993
 31
0.0
  0
LINE
  5
91
100
AcDbEntity
  8
____
  6
CONTINUOUS
 62
         7
100
AcDbLine
 10
1448.0963121955
 20
784.2069665993
 30
0.0
 11
1448.749902034
 21
784.2069665993
 31
0.0
  0
LINE
  5
92
100
AcDbEntity
  8
____
  6
CONTINUOUS
 62
         7
100
AcDbLine
 10
1447.349902034
 20
784.4069665993
 30
0.0
 11
1448.0963121955
 21
784.2069665993
 31
0.0
  0
ARC
  5
93
100
AcDbEntity
  8
____
  6
CONTINUOUS
 62
         7
100
AcDbCircle
 10
1448.749902034
 20
784.8069665993
 30
0.0
 40
0.6
100
AcDbArc
 50
270.0
 51
360.0
  0
CIRCLE
  5
94
100
AcDbEntity
  8
____
  6
CONTINUOUS
 62
         7
100
AcDbCircle
 10
1457.249902034
 20
762.0069665993
 30
0.0
 40
5.0
  0
ARC
  5
95
100
AcDbEntity
  8
____
  6
CONTINUOUS
 62
         7
100
AcDbCircle
 10
1480.401902034
 20
625.4753207807
 30
0.0
 40
0.8
100
AcDbArc
 50
270.0
 51
360.0
  0
LINE
  5
96
100
AcDbEntity
  8
____
  6
CONTINUOUS
 62
         7
100
AcDbLine
 10
1466.049902034
 20
624.6753207807
 30
0.0
 11
1480.401902034
 21
624.6753207807
 31
0.0
  0
ARC
  5
97
100
AcDbEntity
  8
____
  6
CONTINUOUS
 62
         7
100
AcDbCircle
 10
1466.049902034
 20
623.8753207807
 30
0.0
 40
0.8
100
AcDbArc
 50
90.0
 51
180.0
  0
LINE
  5
98
100
AcDbEntity
  8
____
  6
CONTINUOUS
 62
         7
100
AcDbLine
 10
1465.249902034
 20
623.8753207807
 30
0.0
 11
1465.249902034
 21
616.1253207806
 31
0.0
  0
LINE
  5
99
100
AcDbEntity
  8
____
  6
CONTINUOUS
 62
         7
100
AcDbLine
 10
1460.7861724328
 20
615.1253207806
 30
0.0
 11
1464.249902034
 21
615.1253207806
 31
0.0
  0
LINE
  5
9A
100
AcDbEntity
  8
____
  6
CONTINUOUS
 62
         7
100
AcDbLine
 10
1459.124902034
 20
618.0027255166
 30
0.0
 11
1460.7861724328
 21
615.1253207807
 31
0.0
  0
ARC
  5
9B
100
AcDbEntity
  8
____
  6
CONTINUOUS
 62
         7
100
AcDbCircle
 10
1458.1511017023
 20
617.7753207806
 30
0.0
 40
1.0
100
AcDbArc
 50
13.1443256895
 51
90.0
  0
LINE
  5
9C
100
AcDbEntity
  8
____
  6
CONTINUOUS
 62
         7
100
AcDbLine
 10
1456.3487023658
 20
618.7753207807
 30
0.0
 11
1458.1511017023
 21
618.7753207807
 31
0.0
  0
ARC
  5
9D
100
AcDbEntity
  8
____
  6
CONTINUOUS
 62
         7
100
AcDbCircle
 10
1456.3487023658
 20
617.7753207807
 30
0.0
 40
1.0
100
AcDbArc
 50
90.0
 51
166.8556743105
  0
LINE
  5
9E
100
AcDbEntity
  8
____
  6
CONTINUOUS
 62
         7
100
AcDbLine
 10
1455.374902034
 20
618.0027255166
 30
0.0
 11
1453.7136316352
 21
615.1253207807
 31
0.0
  0
LINE
  5
9F
100
AcDbEntity
  8
____
  6
CONTINUOUS
 62
         7
100
AcDbLine
 10
1449.349902034
 20
624.1003207806
 30
0.0
 11
1449.349902034
 21
616.1253207806
 31
0.0
  0
LINE
  5
A0
100
AcDbEntity
  8
____
  6
CONTINUOUS
 62
         7
100
AcDbLine
 10
1450.349902034
 20
615.1253207806
 30
0.0
 11
1453.7136316352
 21
615.1253207806
 31
0.0
  0
ARC
  5
A1
100
AcDbEntity
  8
____
  6
CONTINUOUS
 62
         7
100
AcDbCircle
 10
1448.749902034
 20
624.1003207807
 30
0.0
 40
0.6
100
AcDbArc
 50
0.0
 51
90.0
  0
LINE
  5
A2
100
AcDbEntity
  8
____
  6
CONTINUOUS
 62
         7
100
AcDbLine
 10
1448.0963121955
 20
624.7003207807
 30
0.0
 11
1448.749902034
 21
624.7003207807
 31
0.0
  0
LINE
  5
A3
100
AcDbEntity
  8
____
  6
CONTINUOUS
 62
         7
100
AcDbLine
 10
1447.349902034
 20
624.5003207806
 30
0.0
 11
1448.0963121955
 21
624.7003207806
 31
0.0
  0
LINE
  5
A4
100
AcDbEntity
  8
____
  6
CENTER
 62
         1
100
AcDbLine
 10
1374.7021690586
 20
646.9003207807
 30
0.0
 11
1616.1721011027
 21
646.9003207807
 31
0.0
  0
LINE
  5
A5
100
AcDbEntity
  8
____
  6
CONTINUOUS
 62
         7
100
AcDbLine
 10
1406.199902034
 20
654.9003207807
 30
0.0
 11
1406.199902034
 21
638.9003207807
 31
0.0
  0
LINE
  5
A6
100
AcDbEntity
  8
____
  6
CONTINUOUS
 62
         5
100
AcDbLine
 10
1382.6527447465
 20
638.9003207807
 30
0.0
 11
1406.199902034
 21
638.9003207807
 31
0.0
  0
LINE
  5
A7
100
AcDbEntity
  8
____
  6
CONTINUOUS
 62
         7
100
AcDbLine
 10
1378.7767337623
 20
634.500574487
 30
0.0
 11
1447.3499020345
 21
624.5003207807
 31
0.0
  0
ARC
  5
A8
100
AcDbEntity
  8
____
  6
CONTINUOUS
 62
         7
100
AcDbCircle
 10
1378.949902034
 20
635.6880140643
 30
0.0
 40
1.2
100
AcDbArc
 50
180.0
 51
261.7028550302
  0
ARC
  5
A9
100
AcDbEntity
  8
____
  6
CONTINUOUS
 62
         7
100
AcDbCircle
 10
1378.749902034
 20
637.7503207807
 30
0.0
 40
1.0
100
AcDbArc
 50
90.0
 51
180.0
  0
LINE
  5
AA
100
AcDbEntity
  8
____
  6
CONTINUOUS
 62
         7
100
AcDbLine
 10
1378.749902034
 20
638.7503207807
 30
0.0
 11
1381.519902034
 21
638.7503207807
 31
0.0
  0
LINE
  5
AB
100
AcDbEntity
  8
____
  6
CONTINUOUS
 62
         7
100
AcDbLine
 10
1381.8676738053
 20
638.6571356155
 30
0.0
 11
1381.519902034
 21
638.7503207807
 31
0.0
  0
LINE
  5
AC
100
AcDbEntity
  8
____
  6
CONTINUOUS
 62
         7
100
AcDbLine
 10
1381.9194376143
 20
638.6503207807
 30
0.0
 11
1382.319902034
 21
638.6503207807
 31
0.0
  0
ARC
  5
AD
100
AcDbEntity
  8
____
  6
CONTINUOUS
 62
         7
100
AcDbCircle
 10
1382.319902034
 20
638.8503207807
 30
0.0
 40
0.2
100
AcDbArc
 50
270.0
 51
314.9999999962
  0
LINE
  5
AE
100
AcDbEntity
  8
____
  6
CONTINUOUS
 62
         7
100
AcDbLine
 10
1382.4613233902
 20
638.7088994245
 30
0.0
 11
1383.6527447465
 21
639.9003207807
 31
0.0
  0
LINE
  5
AF
100
AcDbEntity
  8
____
  6
CONTINUOUS
 62
         7
100
AcDbLine
 10
1383.6527447465
 20
639.9003207807
 30
0.0
 11
1420.249902034
 21
639.9003207807
 31
0.0
  0
LINE
  5
B0
100
AcDbEntity
  8
____
  6
CONTINUOUS
 62
         7
100
AcDbLine
 10
1383.6527447465
 20
653.9003207807
 30
0.0
 11
1383.6527447465
 21
639.9003207807
 31
0.0
  0
LINE
  5
B1
100
AcDbEntity
  8
____
  6
CONTINUOUS
 62
         7
100
AcDbLine
 10
1383.6527447465
 20
653.9003207807
 30
0.0
 11
1420.249902034
 21
653.9003207807
 31
0.0
  0
LINE
  5
B2
100
AcDbEntity
  8
____
  6
CONTINUOUS
 62
         5
100
AcDbLine
 10
1382.6527447465
 20
654.9003207807
 30
0.0
 11
1406.199902034
 21
654.9003207807
 31
0.0
  0
LINE
  5
B3
100
AcDbEntity
  8
____
  6
CONTINUOUS
 62
         7
100
AcDbLine
 10
1381.519902034
 20
655.0503207807
 30
0.0
 11
1381.519902034
 21
638.7503207807
 31
0.0
  0
LINE
  5
B4
100
AcDbEntity
  8
____
  6
CONTINUOUS
 62
         7
100
AcDbLine
 10
1382.519902034
 20
654.6938436214
 30
0.0
 11
1382.519902034
 21
639.2215674452
 31
0.0
  0
ARC
  5
B5
100
AcDbEntity
  8
____
  6
CONTINUOUS
 62
         7
100
AcDbCircle
 10
1382.319902034
 20
654.9503207807
 30
0.0
 40
0.2
100
AcDbArc
 50
45.0000000038
 51
90.0
  0
LINE
  5
B6
100
AcDbEntity
  8
____
  6
CONTINUOUS
 62
         7
100
AcDbLine
 10
1382.4613233902
 20
655.091742137
 30
0.0
 11
1383.6527447465
 21
653.9003207807
 31
0.0
  0
LINE
  5
B7
100
AcDbEntity
  8
____
  6
CONTINUOUS
 62
         7
100
AcDbLine
 10
1381.9194376143
 20
655.1503207807
 30
0.0
 11
1382.319902034
 21
655.1503207807
 31
0.0
  0
LINE
  5
B8
100
AcDbEntity
  8
____
  6
CONTINUOUS
 62
         7
100
AcDbLine
 10
1381.8676738053
 20
655.143505946
 30
0.0
 11
1381.519902034
 21
655.0503207807
 31
0.0
  0
ARC
  5
B9
100
AcDbEntity
  8
____
  6
CONTINUOUS
 62
         7
100
AcDbCircle
 10
1381.9194376143
 20
654.9503207807
 30
0.0
 40
0.2
100
AcDbArc
 50
90.0
 51
105.0
  0
LINE
  5
BA
100
AcDbEntity
  8
____
  6
CONTINUOUS
 62
         7
100
AcDbLine
 10
1378.749902034
 20
655.0503207807
 30
0.0
 11
1381.519902034
 21
655.0503207807
 31
0.0
  0
ARC
  5
BB
100
AcDbEntity
  8
____
  6
CONTINUOUS
 62
         7
100
AcDbCircle
 10
1378.749902034
 20
656.0503207807
 30
0.0
 40
1.0
100
AcDbArc
 50
180.0
 51
270.0
  0
LINE
  5
BC
100
AcDbEntity
  8
____
  6
CONTINUOUS
 62
         7
100
AcDbLine
 10
1377.749902034
 20
658.1126274972
 30
0.0
 11
1377.749902034
 21
635.6880140643
 31
0.0
  0
ARC
  5
BD
100
AcDbEntity
  8
____
  6
CONTINUOUS
 62
         7
100
AcDbCircle
 10
1378.949902034
 20
658.1126274972
 30
0.0
 40
1.2
100
AcDbArc
 50
98.2971449698
 51
180.0
  0
LINE
  5
BE
100
AcDbEntity
  8
____
  6
CONTINUOUS
 62
         7
100
AcDbLine
 10
1447.349902034
 20
669.3003207807
 30
0.0
 11
1448.0963121955
 21
669.1003207807
 31
0.0
  0
LINE
  5
BF
100
AcDbEntity
  8
____
  6
CONTINUOUS
 62
         7
100
AcDbLine
 10
1378.7767337623
 20
659.3000670745
 30
0.0
 11
1447.349902034
 21
669.3003207807
 31
0.0
  0
LINE
  5
C0
100
AcDbEntity
  8
____
  6
CONTINUOUS
 62
         7
100
AcDbLine
 10
1448.0963121955
 20
669.1003207807
 30
0.0
 11
1448.749902034
 21
669.1003207807
 31
0.0
  0
ARC
  5
C1
100
AcDbEntity
  8
____
  6
CONTINUOUS
 62
         7
100
AcDbCircle
 10
1448.749902034
 20
669.7003207807
 30
0.0
 40
0.6
100
AcDbArc
 50
270.0
 51
360.0
  0
LINE
  5
C2
100
AcDbEntity
  8
____
  6
CONTINUOUS
 62
         7
100
AcDbLine
 10
1449.349902034
 20
669.7003207807
 30
0.0
 11
1449.349902034
 21
677.6753207809
 31
0.0
  0
LINE
  5
C3
100
AcDbEntity
  8
____
  6
CONTINUOUS
 62
         7
100
AcDbLine
 10
1450.349902034
 20
678.6753207809
 30
0.0
 11
1453.7136316352
 21
678.6753207809
 31
0.0
  0
LINE
  5
C4
100
AcDbEntity
  8
____
  6
CONTINUOUS
 62
         7
100
AcDbLine
 10
1455.374902034
 20
675.7979160449
 30
0.0
 11
1453.7136316352
 21
678.6753207807
 31
0.0
  0
ARC
  5
C5
100
AcDbEntity
  8
____
  6
CONTINUOUS
 62
         7
100
AcDbCircle
 10
1456.3487023658
 20
676.0253207809
 30
0.0
 40
1.0
100
AcDbArc
 50
193.1443256895
 51
270.0
  0
LINE
  5
C6
100
AcDbEntity
  8
____
  6
CONTINUOUS
 62
         7
100
AcDbLine
 10
1456.3487023658
 20
675.0253207809
 30
0.0
 11
1458.1511017023
 21
675.0253207809
 31
0.0
  0
ARC
  5
C7
100
AcDbEntity
  8
____
  6
CONTINUOUS
 62
         7
100
AcDbCircle
 10
1458.1511017023
 20
676.0253207809
 30
0.0
 40
1.0
100
AcDbArc
 50
270.0
 51
346.8556743105
  0
LINE
  5
C8
100
AcDbEntity
  8
____
  6
CONTINUOUS
 62
         7
100
AcDbLine
 10
1459.124902034
 20
675.7979160451
 30
0.0
 11
1460.7861724328
 21
678.6753207809
 31
0.0
  0
LINE
  5
C9
100
AcDbEntity
  8
____
  6
CONTINUOUS
 62
         7
100
AcDbLine
 10
1465.249902034
 20
677.6753207809
 30
0.0
 11
1465.249902034
 21
669.9253207807
 31
0.0
  0
LINE
  5
CA
100
AcDbEntity
  8
____
  6
CONTINUOUS
 62
         7
100
AcDbLine
 10
1460.7861724328
 20
678.6753207809
 30
0.0
 11
1464.249902034
 21
678.6753207809
 31
0.0
  0
ARC
  5
CB
100
AcDbEntity
  8
____
  6
CONTINUOUS
 62
         7
100
AcDbCircle
 10
1466.049902034
 20
669.9253207807
 30
0.0
 40
0.8
100
AcDbArc
 50
180.0
 51
270.0
  0
LINE
  5
CC
100
AcDbEntity
  8
____
  6
CONTINUOUS
 62
         7
100
AcDbLine
 10
1466.049902034
 20
669.1253207807
 30
0.0
 11
1480.401902034
 21
669.1253207807
 31
0.0
  0
ARC
  5
CD
100
AcDbEntity
  8
____
  6
CONTINUOUS
 62
         7
100
AcDbCircle
 10
1480.401902034
 20
668.3253207807
 30
0.0
 40
0.8
100
AcDbArc
 50
0.0
 51
90.0
  0
LINE
  5
CE
100
AcDbEntity
  8
____
  6
CONTINUOUS
 62
         7
100
AcDbLine
 10
1481.201902034
 20
668.3253207807
 30
0.0
 11
1481.201902034
 21
667.9503207807
 31
0.0
  0
LINE
  5
CF
100
AcDbEntity
  8
____
  6
CONTINUOUS
 62
         7
100
AcDbLine
 10
1345.1064003031
 20
754.0628813181
 30
0.0
 11
1345.1064003031
 21
769.9510518805
 31
0.0
  0
LINE
  5
D0
100
AcDbEntity
  8
____
  6
CONTINUOUS
 62
         7
100
AcDbLine
 10
1297.7064003031
 20
754.4569665993
 30
0.0
 11
1297.7064003031
 21
769.5569665993
 31
0.0
  0
LINE
  5
D1
100
AcDbEntity
  8
____
  6
CONTINUOUS
 62
         7
100
AcDbLine
 10
1297.7064003031
 20
754.4569665993
 30
0.0
 11
1297.2064003031
 21
753.9569665993
 31
0.0
  0
LINE
  5
D2
100
AcDbEntity
  8
____
  6
CONTINUOUS
 62
         7
100
AcDbLine
 10
1289.8739330703
 20
753.5628813181
 30
0.0
 11
1297.6064003031
 21
753.5628813181
 31
0.0
  0
LINE
  5
D3
100
AcDbEntity
  8
____
  6
CONTINUOUS
 62
         7
100
AcDbLine
 10
1297.2064003031
 20
753.9569665993
 30
0.0
 11
1290.2680183515
 21
753.9569665993
 31
0.0
  0
LINE
  5
D4
100
AcDbEntity
  8
____
  6
CONTINUOUS
 62
         7
100
AcDbLine
 10
1289.8739330703
 20
753.5628813181
 30
0.0
 11
1290.2680183515
 21
753.9569665993
 31
0.0
  0
LINE
  5
D5
100
AcDbEntity
  8
____
  6
CONTINUOUS
 62
         7
100
AcDbLine
 10
1298.1064003031
 20
754.0628813181
 30
0.0
 11
1298.1064003031
 21
769.9510518805
 31
0.0
  0
LINE
  5
D6
100
AcDbEntity
  8
____
  6
CONTINUOUS
 62
         7
100
AcDbLine
 10
1289.8739330703
 20
770.4510518805
 30
0.0
 11
1297.6064003031
 21
770.4510518805
 31
0.0
  0
LINE
  5
D7
100
AcDbEntity
  8
____
  6
CONTINUOUS
 62
         7
100
AcDbLine
 10
1297.2064003031
 20
770.0569665993
 30
0.0
 11
1290.2680183515
 21
770.0569665993
 31
0.0
  0
LINE
  5
D8
100
AcDbEntity
  8
____
  6
CONTINUOUS
 62
         7
100
AcDbLine
 10
1297.7064003031
 20
769.5569665993
 30
0.0
 11
1297.2064003031
 21
770.0569665993
 31
0.0
  0
LINE
  5
D9
100
AcDbEntity
  8
____
  6
CONTINUOUS
 62
         7
100
AcDbLine
 10
1289.8739330703
 20
770.4510518805
 30
0.0
 11
1290.2680183515
 21
770.0569665993
 31
0.0
  0
LINE
  5
DA
100
AcDbEntity
  8
____
  6
CONTINUOUS
 62
         7
100
AcDbLine
 10
1298.1064003031
 20
769.9510518805
 30
0.0
 11
1297.6064003031
 21
770.4510518805
 31
0.0
  0
LINE
  5
DB
100
AcDbEntity
  8
____
  6
CONTINUOUS
 62
         7
100
AcDbLine
 10
1298.1064003031
 20
754.0628813181
 30
0.0
 11
1297.6064003031
 21
753.5628813181
 31
0.0
  0
LINE
  5
DC
100
AcDbEntity
  8
____
  6
CONTINUOUS
 62
         7
100
AcDbLine
 10
1351.1388675358
 20
753.5628813181
 30
0.0
 11
1345.6064003031
 21
753.5628813181
 31
0.0
  0
LINE
  5
DD
100
AcDbEntity
  8
____
  6
CONTINUOUS
 62
         7
100
AcDbLine
 10
1350.7447822546
 20
753.9569665993
 30
0.0
 11
1346.0064003031
 21
753.9569665993
 31
0.0
  0
LINE
  5
DE
100
AcDbEntity
  8
____
  6
CONTINUOUS
 62
         7
100
AcDbLine
 10
1345.5064003031
 20
754.4569665993
 30
0.0
 11
1345.5064003031
 21
769.5569665993
 31
0.0
  0
LINE
  5
DF
100
AcDbEntity
  8
____
  6
CONTINUOUS
 62
         7
100
AcDbLine
 10
1345.5064003031
 20
754.4569665993
 30
0.0
 11
1346.0064003031
 21
753.9569665993
 31
0.0
  0
LINE
  5
E0
100
AcDbEntity
  8
____
  6
CONTINUOUS
 62
         7
100
AcDbLine
 10
1351.1388675358
 20
753.5628813181
 30
0.0
 11
1350.7447822546
 21
753.9569665993
 31
0.0
  0
LINE
  5
E1
100
AcDbEntity
  8
____
  6
CONTINUOUS
 62
         7
100
AcDbLine
 10
1345.1064003031
 20
754.0628813181
 30
0.0
 11
1345.6064003031
 21
753.5628813181
 31
0.0
  0
LINE
  5
E2
100
AcDbEntity
  8
____
  6
CONTINUOUS
 62
         7
100
AcDbLine
 10
1345.5064003031
 20
769.5569665993
 30
0.0
 11
1346.0064003031
 21
770.0569665993
 31
0.0
  0
LINE
  5
E3
100
AcDbEntity
  8
____
  6
CONTINUOUS
 62
         7
100
AcDbLine
 10
1351.1388675358
 20
770.4510518805
 30
0.0
 11
1350.7447822546
 21
770.0569665993
 31
0.0
  0
LINE
  5
E4
100
AcDbEntity
  8
____
  6
CONTINUOUS
 62
         7
100
AcDbLine
 10
1350.7447822546
 20
770.0569665993
 30
0.0
 11
1346.0064003031
 21
770.0569665993
 31
0.0
  0
LINE
  5
E5
100
AcDbEntity
  8
____
  6
CONTINUOUS
 62
         7
100
AcDbLine
 10
1351.1388675358
 20
770.4510518805
 30
0.0
 11
1345.6064003031
 21
770.4510518805
 31
0.0
  0
LINE
  5
E6
100
AcDbEntity
  8
____
  6
CONTINUOUS
 62
         7
100
AcDbLine
 10
1345.1064003031
 20
769.9510518805
 30
0.0
 11
1345.6064003031
 21
770.4510518805
 31
0.0
  0
CIRCLE
  5
E7
100
AcDbEntity
  8
____
  6
CONTINUOUS
 62
         7
100
AcDbCircle
 10
1320.506400303
 20
762.0069665993
 30
0.0
 40
22.225
  0
CIRCLE
  5
E8
100
AcDbEntity
  8
____
  6
CONTINUOUS
 62
         7
100
AcDbCircle
 10
1320.506400303
 20
762.0069665993
 30
0.0
 40
8.5
  0
CIRCLE
  5
E9
100
AcDbEntity
  8
____
  6
CONTINUOUS
 62
         7
100
AcDbCircle
 10
1320.506400303
 20
762.0069665993
 30
0.0
 40
9.5
  0
ARC
  5
EA
100
AcDbEntity
  8
____
  6
CONTINUOUS
 62
         5
100
AcDbCircle
 10
1320.506400303
 20
762.0069665993
 30
0.0
 40
8.0
100
AcDbArc
 50
352.9901372228
 51
621.2264515101
  0
CIRCLE
  5
EB
100
AcDbEntity
  8
____
  6
CONTINUOUS
 62
         7
100
AcDbCircle
 10
1320.506400303
 20
762.0069665993
 30
0.0
 40
7.0
  0
CIRCLE
  5
EC
100
AcDbEntity
  8
____
  6
CONTINUOUS
 62
         7
100
AcDbCircle
 10
1320.506400303
 20
762.0069665993
 30
0.0
 40
12.7165768873
  0
LINE
  5
ED
100
AcDbEntity
  8
____
  6
CENTER
 62
         1
100
AcDbLine
 10
1320.506400303
 20
726.3956143665
 30
0.0
 11
1320.506400303
 21
797.2396746978
 31
0.0
  0
ARC
  5
EE
100
AcDbEntity
  8
____
  6
CONTINUOUS
 62
         7
100
AcDbCircle
 10
1320.506400303
 20
762.0069665993
 30
0.0
 40
31.775
100
AcDbArc
 50
15.411296411
 51
164.588703589
  0
LINE
  5
EF
100
AcDbEntity
  8
____
  6
CENTER
 62
         1
100
AcDbLine
 10
1292.3125384951
 20
762.0069665993
 30
0.0
 11
1349.6530525164
 21
762.0069665993
 31
0.0
  0
ARC
  5
F0
100
AcDbEntity
  8
____
  6
CONTINUOUS
 62
         7
100
AcDbCircle
 10
1320.506400303
 20
762.0069665993
 30
0.0
 40
31.775
100
AcDbArc
 50
195.411296411
 51
344.588703589
  0
ARC
  5
F1
100
AcDbEntity
  8
____
  6
CONTINUOUS
 62
         7
100
AcDbCircle
 10
1450.349902034
 20
677.6753207809
 30
0.0
 40
1.0
100
AcDbArc
 50
90.0
 51
180.0
  0
ARC
  5
F2
100
AcDbEntity
  8
____
  6
CONTINUOUS
 62
         7
100
AcDbCircle
 10
1464.249902034
 20
677.6753207809
 30
0.0
 40
1.0
100
AcDbArc
 50
0.0
 51
90.0
  0
ARC
  5
F3
100
AcDbEntity
  8
____
  6
CONTINUOUS
 62
         7
100
AcDbCircle
 10
1464.249902034
 20
616.1253207806
 30
0.0
 40
1.0
100
AcDbArc
 50
270.0
 51
360.0
  0
ARC
  5
F4
100
AcDbEntity
  8
____
  6
CONTINUOUS
 62
         7
100
AcDbCircle
 10
1450.349902034
 20
616.1253207806
 30
0.0
 40
1.0
100
AcDbArc
 50
180.0
 51
270.0
  0
LINE
  5
F5
100
AcDbEntity
  8
____
  6
CONTINUOUS
 62
         4
100
AcDbLine
 10
1450.349902034
 20
793.7819665993
 30
0.0
 11
1450.349902034
 21
770.8569665993
 31
0.0
  0
ARC
  5
F6
100
AcDbEntity
  8
____
  6
CONTINUOUS
 62
         7
100
AcDbCircle
 10
1450.349902034
 20
792.7819665993
 30
0.0
 40
1.0
100
AcDbArc
 50
90.0
 51
180.0
  0
LINE
  5
F7
100
AcDbEntity
  8
____
  6
CONTINUOUS
 62
         4
100
AcDbLine
 10
1464.249902034
 20
793.7819665993
 30
0.0
 11
1464.249902034
 21
770.8569665993
 31
0.0
  0
ARC
  5
F8
100
AcDbEntity
  8
____
  6
CONTINUOUS
 62
         7
100
AcDbCircle
 10
1464.249902034
 20
792.7819665993
 30
0.0
 40
1.0
100
AcDbArc
 50
0.0
 51
90.0
  0
ARC
  5
F9
100
AcDbEntity
  8
____
  6
CONTINUOUS
 62
         7
100
AcDbCircle
 10
1450.349902034
 20
731.2319665993
 30
0.0
 40
1.0
100
AcDbArc
 50
180.0
 51
270.0
  0
LINE
  5
FA
100
AcDbEntity
  8
____
  6
CONTINUOUS
 62
         4
100
AcDbLine
 10
1450.349902034
 20
753.1569665993
 30
0.0
 11
1450.349902034
 21
730.2319665993
 31
0.0
  0
ARC
  5
FB
100
AcDbEntity
  8
____
  6
CONTINUOUS
 62
         7
100
AcDbCircle
 10
1464.249902034
 20
731.2319665993
 30
0.0
 40
1.0
100
AcDbArc
 50
270.0
 51
360.0
  0
LINE
  5
FC
100
AcDbEntity
  8
____
  6
CONTINUOUS
 62
         4
100
AcDbLine
 10
1464.249902034
 20
753.1569665993
 30
0.0
 11
1464.249902034
 21
730.2319665993
 31
0.0
  0
ARC
  5
FD
100
AcDbEntity
  8
____
  6
CONTINUOUS
 62
         7
100
AcDbCircle
 10
1581.381902034
 20
750.3069665993
 30
0.0
 40
1.0
100
AcDbArc
 50
270.0
 51
360.0
  0
ARC
  5
FE
100
AcDbEntity
  8
____
  6
CONTINUOUS
 62
         7
100
AcDbCircle
 10
1581.381902034
 20
773.7069665993
 30
0.0
 40
1.0
100
AcDbArc
 50
0.0
 51
90.0
  0
LINE
  5
FF
100
AcDbEntity
  8
____
  6
CONTINUOUS
 62
         4
100
AcDbLine
 10
1551.107573143
 20
749.5069665993
 30
0.0
 11
1551.107573143
 21
774.5069665993
 31
0.0
  0
LINE
  5
100
100
AcDbEntity
  8
____
  6
CONTINUOUS
 62
         4
100
AcDbLine
 10
1552.5354918725
 20
774.5069665993
 30
0.0
 11
1552.5354918725
 21
749.5069665993
 31
0.0
  0
LINE
  5
101
100
AcDbEntity
  8
____
  6
CONTINUOUS
 62
         4
100
AcDbLine
 10
1552.881902034
 20
774.7069665993
 30
0.0
 11
1552.881902034
 21
749.3069665993
 31
0.0
  0
LINE
  5
102
100
AcDbEntity
  8
____
  6
CONTINUOUS
 62
         7
100
AcDbLine
 10
1552.881902034
 20
749.3069665993
 30
0.0
 11
1552.6283121955
 21
749.4533767608
 31
0.0
  0
LINE
  5
103
100
AcDbEntity
  8
____
  6
CONTINUOUS
 62
         7
100
AcDbLine
 10
1551.107573143
 20
749.5069665993
 30
0.0
 11
1552.4283121955
 21
749.5069665993
 31
0.0
  0
ARC
  5
104
100
AcDbEntity
  8
____
  6
CONTINUOUS
 62
         7
100
AcDbCircle
 10
1552.4283121955
 20
749.1069665993
 30
0.0
 40
0.4
100
AcDbArc
 50
60.0
 51
90.0
  0
ARC
  5
105
100
AcDbEntity
  8
____
  6
CONTINUOUS
 62
         7
100
AcDbCircle
 10
1551.107573143
 20
749.1069665993
 30
0.0
 40
0.4
100
AcDbArc
 50
90.0
 51
124.3452138268
  0
LINE
  5
106
100
AcDbEntity
  8
____
  6
CONTINUOUS
 62
         7
100
AcDbLine
 10
1551.107573143
 20
774.5069665993
 30
0.0
 11
1552.4283121955
 21
774.5069665993
 31
0.0
  0
LINE
  5
107
100
AcDbEntity
  8
____
  6
CONTINUOUS
 62
         7
100
AcDbLine
 10
1552.881902034
 20
774.7069665993
 30
0.0
 11
1552.6283121955
 21
774.5605564378
 31
0.0
  0
ARC
  5
108
100
AcDbEntity
  8
____
  6
CONTINUOUS
 62
         7
100
AcDbCircle
 10
1552.4283121955
 20
774.9069665993
 30
0.0
 40
0.4
100
AcDbArc
 50
270.0
 51
300.0
  0
ARC
  5
109
100
AcDbEntity
  8
____
  6
CONTINUOUS
 62
         7
100
AcDbCircle
 10
1551.107573143
 20
774.9069665993
 30
0.0
 40
0.4
100
AcDbArc
 50
235.6547861732
 51
270.0
  0
DIMENSION
  5
10D
100
AcDbEntity
  8
____
  6
CONTINUOUS
 62
         4
100
AcDbDimension
  2
*D0
 10
1605.999902034
 20
827.7185070351
 30
0.0
 11
1577.8826251044
 21
829.7435070351
 31
0.0
  3
DIMSTYLE1
100
AcDbAlignedDimension
 13
1605.999902034
 23
771.6839665993
 33
0.0
 14
1550.881902034
 24
781.0569665993
 34
0.0
100
AcDbRotatedDimension
  0
LINE
  5
11A
100
AcDbEntity
  8
____
  6
CONTINUOUS
 62
         7
100
AcDbLine
 10
1584.381902034
 20
750.8299665993
 30
0.0
 11
1585.881902034
 21
749.3299665993
 31
0.0
  0
LINE
  5
11B
100
AcDbEntity
  8
____
  6
CONTINUOUS
 62
         7
100
AcDbLine
 10
1582.381902034
 20
773.7069665993
 30
0.0
 11
1582.381902034
 21
750.3069665993
 31
0.0
  0
ARC
  5
11C
100
AcDbEntity
  8
____
  6
CONTINUOUS
 62
         7
100
AcDbCircle
 10
1602.999902034
 20
752.3299665993
 30
0.0
 40
3.0
100
AcDbArc
 50
270.0
 51
360.0
  0
ARC
  5
11D
100
AcDbEntity
  8
____
  6
CONTINUOUS
 62
         7
100
AcDbCircle
 10
1602.999902034
 20
771.6839665993
 30
0.0
 40
3.0
100
AcDbArc
 50
0.0
 51
90.0
  0
LINE
  5
11E
100
AcDbEntity
  8
____
  6
CONTINUOUS
 62
         4
100
AcDbLine
 10
1605.4703667676
 20
750.6279665993
 30
0.0
 11
1584.560902034
 21
750.6279665993
 31
0.0
  0
LINE
  5
11F
100
AcDbEntity
  8
____
  6
CONTINUOUS
 62
         4
100
AcDbLine
 10
1605.4703667676
 20
773.3859665993
 30
0.0
 11
1584.560902034
 21
773.3859665993
 31
0.0
  0
LINE
  5
120
100
AcDbEntity
  8
____
  6
CONTINUOUS
 62
         7
100
AcDbLine
 10
1602.999902034
 20
749.3299665993
 30
0.0
 11
1585.881902034
 21
749.3299665993
 31
0.0
  0
LINE
  5
121
100
AcDbEntity
  8
____
  6
CONTINUOUS
 62
         7
100
AcDbLine
 10
1582.381902034
 20
750.8069665993
 30
0.0
 11
1584.381902034
 21
750.8069665993
 31
0.0
  0
LINE
  5
122
100
AcDbEntity
  8
____
  6
CONTINUOUS
 62
         7
100
AcDbLine
 10
1582.381902034
 20
773.2069665993
 30
0.0
 11
1584.381902034
 21
773.2069665993
 31
0.0
  0
LINE
  5
123
100
AcDbEntity
  8
____
  6
CONTINUOUS
 62
         7
100
AcDbLine
 10
1581.381902034
 20
749.3069665993
 30
0.0
 11
1552.881902034
 21
749.3069665993
 31
0.0
  0
LINE
  5
124
100
AcDbEntity
  8
____
  6
CONTINUOUS
 62
         7
100
AcDbLine
 10
1581.381902034
 20
774.7069665993
 30
0.0
 11
1552.881902034
 21
774.7069665993
 31
0.0
  0
LINE
  5
125
100
AcDbEntity
  8
____
  6
CONTINUOUS
 62
         7
100
AcDbLine
 10
1549.381902034
 20
742.9569665993
 30
0.0
 11
1483.201902034
 21
742.9569665993
 31
0.0
  0
LINE
  5
126
100
AcDbEntity
  8
____
  6
CONTINUOUS
 62
         7
100
AcDbLine
 10
1549.381902034
 20
781.0569665993
 30
0.0
 11
1483.201902034
 21
781.0569665993
 31
0.0
  0
LINE
  5
127
100
AcDbEntity
  8
____
  6
CONTINUOUS
 62
         7
100
AcDbLine
 10
1550.881902034
 20
744.4569665993
 30
0.0
 11
1550.881902034
 21
779.5569665993
 31
0.0
  0
LINE
  5
128
100
AcDbEntity
  8
____
  6
CONTINUOUS
 62
         7
100
AcDbLine
 10
1585.858902034
 20
774.6839665993
 30
0.0
 11
1584.381902034
 21
773.2069665993
 31
0.0
  0
LINE
  5
129
100
AcDbEntity
  8
____
  6
CONTINUOUS
 62
         7
100
AcDbLine
 10
1584.381902034
 20
750.8299665993
 30
0.0
 11
1584.381902034
 21
773.2069665993
 31
0.0
  0
LINE
  5
12A
100
AcDbEntity
  8
____
  6
CONTINUOUS
 62
         7
100
AcDbLine
 10
1605.999902034
 20
752.3299665993
 30
0.0
 11
1605.999902034
 21
771.6839665993
 31
0.0
  0
ARC
  5
12B
100
AcDbEntity
  8
____
  6
CONTINUOUS
 62
         7
100
AcDbCircle
 10
1549.381902034
 20
779.5569665993
 30
0.0
 40
1.5
100
AcDbArc
 50
0.0
 51
90.0
  0
ARC
  5
12C
100
AcDbEntity
  8
____
  6
CONTINUOUS
 62
         7
100
AcDbCircle
 10
1549.381902034
 20
744.4569665993
 30
0.0
 40
1.5
100
AcDbArc
 50
270.0
 51
360.0
  0
DIMENSION
  5
12F
100
AcDbEntity
  8
____
  6
CONTINUOUS
 62
         4
100
AcDbDimension
  2
*D1
 10
1605.999902034
 20
852.2833069238
 30
0.0
 11
1522.024902034
 21
854.3083069238
 31
0.0
  3
DIMSTYLE1
100
AcDbAlignedDimension
 13
1605.999902034
 23
771.6839665993
 33
0.0
 14
1446.149902034
 24
784.2319665993
 34
0.0
100
AcDbRotatedDimension
  0
DIMENSION
  5
13D
100
AcDbEntity
  8
____
  6
CONTINUOUS
 62
         4
100
AcDbDimension
  2
*D2
 10
1605.999902034
 20
860.4715735534
 30
0.0
 11
1483.774902034
 21
862.4965735534
 31
0.0
  3
DIMSTYLE1
100
AcDbAlignedDimension
 13
1605.999902034
 23
771.6839665993
 33
0.0
 14
1377.749902034
 24
773.2192733157
 34
0.0
100
AcDbRotatedDimension
  0
LINE
  5
149
100
AcDbEntity
  8
____
  6
CONTINUOUS
 62
         7
100
AcDbLine
 10
1481.201902034
 20
783.4919665993
 30
0.0
 11
1481.201902034
 21
740.5219665993
 31
0.0
  0
ARC
  5
14A
100
AcDbEntity
  8
____
  6
CONTINUOUS
 62
         7
100
AcDbCircle
 10
1480.401902034
 20
783.4919665993
 30
0.0
 40
0.8
100
AcDbArc
 50
0.0
 51
90.0
  0
ARC
  5
14B
100
AcDbEntity
  8
____
  6
CONTINUOUS
 62
         7
100
AcDbCircle
 10
1480.401902034
 20
740.5219665993
 30
0.0
 40
0.8
100
AcDbArc
 50
270.0
 51
360.0
  0
ARC
  5
14C
100
AcDbEntity
  8
____
  6
CONTINUOUS
 62
         7
100
AcDbCircle
 10
1483.201902034
 20
783.0569665993
 30
0.0
 40
2.0
100
AcDbArc
 50
180.0
 51
270.0
  0
ARC
  5
14D
100
AcDbEntity
  8
____
  6
CONTINUOUS
 62
         7
100
AcDbCircle
 10
1483.201902034
 20
740.9569665993
 30
0.0
 40
2.0
100
AcDbArc
 50
90.0
 51
180.0
  0
ARC
  5
14E
100
AcDbEntity
  8
____
  6
CONTINUOUS
 62
         7
100
AcDbCircle
 10
1581.381902034
 20
635.2003207807
 30
0.0
 40
1.0
100
AcDbArc
 50
270.0
 51
360.0
  0
ARC
  5
14F
100
AcDbEntity
  8
____
  6
CONTINUOUS
 62
         7
100
AcDbCircle
 10
1581.381902034
 20
658.6003207807
 30
0.0
 40
1.0
100
AcDbArc
 50
0.0
 51
90.0
  0
LINE
  5
150
100
AcDbEntity
  8
____
  6
CONTINUOUS
 62
         7
100
AcDbLine
 10
1551.107573143
 20
659.4003207807
 30
0.0
 11
1552.4283121955
 21
659.4003207807
 31
0.0
  0
LINE
  5
151
100
AcDbEntity
  8
____
  6
CONTINUOUS
 62
         7
100
AcDbLine
 10
1552.881902034
 20
634.2003207807
 30
0.0
 11
1552.6283121955
 21
634.3467309423
 31
0.0
  0
LINE
  5
152
100
AcDbEntity
  8
____
  6
CONTINUOUS
 62
         7
100
AcDbLine
 10
1551.107573143
 20
634.4003207807
 30
0.0
 11
1552.4283121955
 21
634.4003207807
 31
0.0
  0
ARC
  5
153
100
AcDbEntity
  8
____
  6
CONTINUOUS
 62
         7
100
AcDbCircle
 10
1552.4283121955
 20
634.0003207807
 30
0.0
 40
0.4
100
AcDbArc
 50
60.0
 51
90.0
  0
ARC
  5
154
100
AcDbEntity
  8
____
  6
CONTINUOUS
 62
         7
100
AcDbCircle
 10
1551.107573143
 20
634.0003207807
 30
0.0
 40
0.4
100
AcDbArc
 50
90.0
 51
124.3452138268
  0
LINE
  5
155
100
AcDbEntity
  8
____
  6
CONTINUOUS
 62
         7
100
AcDbLine
 10
1552.881902034
 20
659.6003207807
 30
0.0
 11
1552.6283121955
 21
659.4539106192
 31
0.0
  0
ARC
  5
156
100
AcDbEntity
  8
____
  6
CONTINUOUS
 62
         7
100
AcDbCircle
 10
1552.4283121955
 20
659.8003207807
 30
0.0
 40
0.4
100
AcDbArc
 50
270.0
 51
300.0
  0
ARC
  5
157
100
AcDbEntity
  8
____
  6
CONTINUOUS
 62
         7
100
AcDbCircle
 10
1551.107573143
 20
659.8003207807
 30
0.0
 40
0.4
100
AcDbArc
 50
235.6547861732
 51
270.0
  0
LINE
  5
158
100
AcDbEntity
  8
____
  6
CONTINUOUS
 62
         4
100
AcDbLine
 10
1605.4703667676
 20
635.5213207807
 30
0.0
 11
1584.560902034
 21
635.5213207807
 31
0.0
  0
LINE
  5
159
100
AcDbEntity
  8
____
  6
CONTINUOUS
 62
         4
100
AcDbLine
 10
1605.4703667676
 20
658.2793207807
 30
0.0
 11
1584.560902034
 21
658.2793207807
 31
0.0
  0
LINE
  5
15A
100
AcDbEntity
  8
____
  6
CONTINUOUS
 62
         7
100
AcDbLine
 10
1549.381902034
 20
665.9503207807
 30
0.0
 11
1483.201902034
 21
665.9503207807
 31
0.0
  0
LINE
  5
15B
100
AcDbEntity
  8
____
  6
CONTINUOUS
 62
         7
100
AcDbLine
 10
1605.999902034
 20
637.2233207807
 30
0.0
 11
1605.999902034
 21
656.5773207807
 31
0.0
  0
LINE
  5
15C
100
AcDbEntity
  8
____
  6
CONTINUOUS
 62
         7
100
AcDbLine
 10
1585.858902034
 20
659.5773207807
 30
0.0
 11
1584.381902034
 21
658.1003207807
 31
0.0
  0
LINE
  5
15D
100
AcDbEntity
  8
____
  6
CONTINUOUS
 62
         7
100
AcDbLine
 10
1550.881902034
 20
629.3503207807
 30
0.0
 11
1550.881902034
 21
634.3305821175
 31
0.0
  0
LINE
  5
15E
100
AcDbEntity
  8
____
  6
CONTINUOUS
 62
         7
100
AcDbLine
 10
1581.381902034
 20
659.6003207807
 30
0.0
 11
1552.881902034
 21
659.6003207807
 31
0.0
  0
LINE
  5
15F
100
AcDbEntity
  8
____
  6
CONTINUOUS
 62
         7
100
AcDbLine
 10
1581.381902034
 20
634.2003207807
 30
0.0
 11
1552.881902034
 21
634.2003207807
 31
0.0
  0
LINE
  5
160
100
AcDbEntity
  8
____
  6
CONTINUOUS
 62
         7
100
AcDbLine
 10
1582.381902034
 20
658.1003207807
 30
0.0
 11
1584.381902034
 21
658.1003207807
 31
0.0
  0
LINE
  5
161
100
AcDbEntity
  8
____
  6
CONTINUOUS
 62
         7
100
AcDbLine
 10
1582.381902034
 20
635.7003207807
 30
0.0
 11
1584.381902034
 21
635.7003207807
 31
0.0
  0
LINE
  5
162
100
AcDbEntity
  8
____
  6
CONTINUOUS
 62
         7
100
AcDbLine
 10
1602.999902034
 20
659.5773207807
 30
0.0
 11
1585.858902034
 21
659.5773207807
 31
0.0
  0
LINE
  5
163
100
AcDbEntity
  8
____
  6
CONTINUOUS
 62
         7
100
AcDbLine
 10
1602.999902034
 20
634.2233207807
 30
0.0
 11
1585.881902034
 21
634.2233207807
 31
0.0
  0
ARC
  5
164
100
AcDbEntity
  8
____
  6
CONTINUOUS
 62
         7
100
AcDbCircle
 10
1602.999902034
 20
656.5773207807
 30
0.0
 40
3.0
100
AcDbArc
 50
0.0
 51
90.0
  0
ARC
  5
165
100
AcDbEntity
  8
____
  6
CONTINUOUS
 62
         7
100
AcDbCircle
 10
1602.999902034
 20
637.2233207807
 30
0.0
 40
3.0
100
AcDbArc
 50
270.0
 51
360.0
  0
LINE
  5
166
100
AcDbEntity
  8
____
  6
CONTINUOUS
 62
         7
100
AcDbLine
 10
1582.381902034
 20
658.6003207807
 30
0.0
 11
1582.381902034
 21
658.1003207807
 31
0.0
  0
LINE
  5
167
100
AcDbEntity
  8
____
  6
CONTINUOUS
 62
         7
100
AcDbLine
 10
1584.381902034
 20
635.7233207807
 30
0.0
 11
1585.881902034
 21
634.2233207807
 31
0.0
  0
ARC
  5
168
100
AcDbEntity
  8
____
  6
CONTINUOUS
 62
         7
100
AcDbCircle
 10
1549.381902034
 20
664.4503207807
 30
0.0
 40
1.5
100
AcDbArc
 50
0.0
 51
90.0
  0
ARC
  5
169
100
AcDbEntity
  8
____
  6
CONTINUOUS
 62
         7
100
AcDbCircle
 10
1549.381902034
 20
629.3503207807
 30
0.0
 40
1.5
100
AcDbArc
 50
270.0
 51
360.0
  0
DIMENSION
  5
16C
100
AcDbEntity
  8
____
  6
CONTINUOUS
 62
         4
100
AcDbDimension
  2
*D3
 10
1582.381902034
 20
685.6664250939
 30
0.0
 11
1561.231902034
 21
687.6914250939
 31
0.0
  3
DIMSTYLE1
100
AcDbAlignedDimension
 13
1582.381902034
 23
658.1003207807
 33
0.0
 14
1550.881902034
 24
665.9503207807
 34
0.0
100
AcDbRotatedDimension
  0
LINE
  5
178
100
AcDbEntity
  8
____
  6
CONTINUOUS
 62
         7
100
AcDbLine
 10
1551.881902034
 20
655.6303207807
 30
0.0
 11
1551.881902034
 21
659.4003207807
 31
0.0
  0
LINE
  5
179
100
AcDbEntity
  8
____
  6
CONTINUOUS
 62
         7
100
AcDbLine
 10
1576.881902034
 20
655.6303207807
 30
0.0
 11
1551.881902034
 21
655.6303207807
 31
0.0
  0
LINE
  5
17A
100
AcDbEntity
  8
____
  6
CONTINUOUS
 62
         7
100
AcDbLine
 10
1576.881902034
 20
659.6003207807
 30
0.0
 11
1576.881902034
 21
655.6303207807
 31
0.0
  0
LINE
  5
17B
100
AcDbEntity
  8
____
  6
CONTINUOUS
 62
         7
100
AcDbLine
 10
1602.8772523032
 20
647.9003207807
 30
0.0
 11
1602.299902034
 21
646.9003207807
 31
0.0
  0
LINE
  5
17C
100
AcDbEntity
  8
____
  6
CONTINUOUS
 62
         7
100
AcDbLine
 10
1602.8772523032
 20
645.9003207807
 30
0.0
 11
1602.299902034
 21
646.9003207807
 31
0.0
  0
LINE
  5
17D
100
AcDbEntity
  8
____
  6
CONTINUOUS
 62
         7
100
AcDbLine
 10
1602.8772523032
 20
647.9003207807
 30
0.0
 11
1602.8772523032
 21
645.9003207807
 31
0.0
  0
LINE
  5
17E
100
AcDbEntity
  8
____
  6
CONTINUOUS
 62
         7
100
AcDbLine
 10
1602.8772523032
 20
647.9003207807
 30
0.0
 11
1603.8235136591
 21
647.9003207807
 31
0.0
  0
LINE
  5
17F
100
AcDbEntity
  8
____
  6
CONTINUOUS
 62
         7
100
AcDbLine
 10
1602.8772523032
 20
645.9003207807
 30
0.0
 11
1603.8235136591
 21
645.9003207807
 31
0.0
  0
LINE
  5
180
100
AcDbEntity
  8
____
  6
CONTINUOUS
 62
         7
100
AcDbLine
 10
1603.8235136591
 20
647.9003207807
 30
0.0
 11
1603.8235136591
 21
645.9003207807
 31
0.0
  0
LINE
  5
181
100
AcDbEntity
  8
____
  6
CONTINUOUS
 62
         7
100
AcDbLine
 10
1605.999902034
 20
649.1568591948
 30
0.0
 11
1603.8235136591
 21
647.9003207807
 31
0.0
  0
LINE
  5
182
100
AcDbEntity
  8
____
  6
CONTINUOUS
 62
         7
100
AcDbLine
 10
1605.999902034
 20
644.6437823667
 30
0.0
 11
1603.8235136591
 21
645.9003207807
 31
0.0
  0
LINE
  5
183
100
AcDbEntity
  8
____
  6
CONTINUOUS
 62
         7
100
AcDbLine
 10
1582.381902034
 20
635.7003207807
 30
0.0
 11
1582.381902034
 21
635.2003207807
 31
0.0
  0
LINE
  5
184
100
AcDbEntity
  8
____
  6
CONTINUOUS
 62
         7
100
AcDbLine
 10
1550.881902034
 20
659.470059444
 30
0.0
 11
1550.881902034
 21
664.4503207807
 31
0.0
  0
INSERT
  5
190
100
AcDbEntity
  8
0
  6
CONTINUOUS
100
AcDbBlockReference
  2
GENDIML6
 10
0.0
 20
0.0
 30
0.0
  0
DIMENSION
  5
193
100
AcDbEntity
  8
____
  6
CONTINUOUS
 62
         4
100
AcDbDimension
  2
*D5
 10
1648.0890510844
 20
608.9742133046
 30
0.0
 11
1632.1440154041
 21
593.4281012899
 31
0.0
 70
         3
  3
DIMSTYLE1
100
AcDbDiametricDimension
 15
1630.2156247502
 25
590.927035379
 35
0.0
 40
0.0
  0
INSERT
  5
1AC
100
AcDbEntity
  8
0
  6
CONTINUOUS
100
AcDbBlockReference
  2
*X6
 10
0.0
 20
0.0
 30
0.0
  0
INSERT
  5
1BE
100
AcDbEntity
  8
0
  6
CONTINUOUS
100
AcDbBlockReference
  2
*X7
 10
0.0
 20
0.0
 30
0.0
  0
TEXT
  5
1C0
100
AcDbEntity
  8
____
  6
CONTINUOUS
 62
         2
100
AcDbText
 10
1710.5109225388
 20
636.6994262214
 30
0.0
 40
1.7
  1
1/2
  7
BOX
100
AcDbText
  0
LINE
  5
1C1
100
AcDbEntity
  8
____
  6
CONTINUOUS
 62
         7
100
AcDbLine
 10
1719.2898336495
 20
581.9006243418
 30
0.0
 11
1719.2898336495
 21
618.0006243418
 31
0.0
  0
LINE
  5
1C2
100
AcDbEntity
  8
____
  6
CONTINUOUS
 62
         7
100
AcDbLine
 10
1706.5898336495
 20
581.9006243418
 30
0.0
 11
1706.5898336495
 21
618.0006243418
 31
0.0
  0
DIMENSION
  5
1C5
100
AcDbEntity
  8
____
  6
CONTINUOUS
 62
         4
100
AcDbDimension
  2
*D8
 10
1706.5898336495
 20
630.2550290132
 30
0.0
 11
1707.5398336495
 21
632.2800290132
 31
0.0
  3
DIMSTYLE1
100
AcDbAlignedDimension
 13
1706.5898336495
 23
618.2006243418
 33
0.0
 14
1719.2898336495
 24
618.2006243418
 34
0.0
100
AcDbRotatedDimension
  0
LINE
  5
1D1
100
AcDbEntity
  8
____
  6
CONTINUOUS
 62
         7
100
AcDbLine
 10
1718.2898336495
 20
619.0006243418
 30
0.0
 11
1707.5898336495
 21
619.0006243418
 31
0.0
  0
LINE
  5
1D2
100
AcDbEntity
  8
____
  6
CONTINUOUS
 62
         7
100
AcDbLine
 10
1718.2898336495
 20
580.9006243418
 30
0.0
 11
1707.5898336495
 21
580.9006243418
 31
0.0
  0
ARC
  5
1D3
100
AcDbEntity
  8
____
  6
CONTINUOUS
 62
         7
100
AcDbCircle
 10
1707.5898336495
 20
618.0006243418
 30
0.0
 40
1.0
100
AcDbArc
 50
90.0
 51
180.0
  0
ARC
  5
1D4
100
AcDbEntity
  8
____
  6
CONTINUOUS
 62
         7
100
AcDbCircle
 10
1718.2898336495
 20
618.0006243418
 30
0.0
 40
1.0
100
AcDbArc
 50
0.0
 51
90.0
  0
ARC
  5
1D5
100
AcDbEntity
  8
____
  6
CONTINUOUS
 62
         7
100
AcDbCircle
 10
1718.2898336495
 20
581.9006243418
 30
0.0
 40
1.0
100
AcDbArc
 50
270.0
 51
360.0
  0
ARC
  5
1D6
100
AcDbEntity
  8
____
  6
CONTINUOUS
 62
         7
100
AcDbCircle
 10
1707.5898336495
 20
581.9006243418
 30
0.0
 40
1.0
100
AcDbArc
 50
180.0
 51
270.0
  0
LINE
  5
1D7
100
AcDbEntity
  8
____
  6
CONTINUOUS
 62
         7
100
AcDbLine
 10
1719.2898336495
 20
615.0306243418
 30
0.0
 11
1706.5898336495
 21
615.0306243418
 31
0.0
  0
LINE
  5
1D8
100
AcDbEntity
  8
____
  6
CONTINUOUS
 62
         7
100
AcDbLine
 10
1718.7898336495
 20
612.247346466
 30
0.0
 11
1707.0898336495
 21
612.247346466
 31
0.0
  0
LINE
  5
1D9
100
AcDbEntity
  8
____
  6
CONTINUOUS
 62
         7
100
AcDbLine
 10
1718.7898336495
 20
587.2506243418
 30
0.0
 11
1707.0898336495
 21
587.2506243418
 31
0.0
  0
LINE
  5
1DA
100
AcDbEntity
  8
____
  6
CONTINUOUS
 62
         7
100
AcDbLine
 10
1707.0898336495
 20
612.247346466
 30
0.0
 11
1706.5898336495
 21
612.747346466
 31
0.0
  0
LINE
  5
1DB
100
AcDbEntity
  8
____
  6
CONTINUOUS
 62
         7
100
AcDbLine
 10
1707.0898336495
 20
587.2506243418
 30
0.0
 11
1706.5898336495
 21
586.7506243418
 31
0.0
  0
LINE
  5
1DC
100
AcDbEntity
  8
____
  6
CONTINUOUS
 62
         7
100
AcDbLine
 10
1718.7898336495
 20
612.247346466
 30
0.0
 11
1719.2898336495
 21
612.747346466
 31
0.0
  0
LINE
  5
1DD
100
AcDbEntity
  8
____
  6
CONTINUOUS
 62
         7
100
AcDbLine
 10
1718.7898336495
 20
587.2506243418
 30
0.0
 11
1719.2898336495
 21
586.7506243418
 31
0.0
  0
LINE
  5
1DE
100
AcDbEntity
  8
____
  6
CONTINUOUS
 62
         7
100
AcDbLine
 10
1687.0648336495
 20
618.0006243418
 30
0.0
 11
1687.0648336495
 21
581.9006243418
 31
0.0
  0
INSERT
  5
1EC
100
AcDbEntity
  8
0
  6
CONTINUOUS
100
AcDbBlockReference
  2
*X9
 10
0.0
 20
0.0
 30
0.0
  0
INSERT
  5
1FC
100
AcDbEntity
  8
0
  6
CONTINUOUS
100
AcDbBlockReference
  2
*X10
 10
0.0
 20
0.0
 30
0.0
  0
TEXT
  5
1FE
100
AcDbEntity
  8
____
  6
CONTINUOUS
 62
         2
100
AcDbText
 10
1688.7597305515
 20
635.1445966274
 30
0.0
 40
1.7
  1
3/8
  7
BOX
100
AcDbText
  0
LINE
  5
1FF
100
AcDbEntity
  8
____
  6
CONTINUOUS
 62
         7
100
AcDbLine
 10
1696.5898336495
 20
581.9006243418
 30
0.0
 11
1696.5898336495
 21
618.0006243418
 31
0.0
  0
DIMENSION
  5
202
100
AcDbEntity
  8
____
  6
CONTINUOUS
 62
         4
100
AcDbDimension
  2
*D11
 10
1687.0648336495
 20
628.7995583783
 30
0.0
 11
1689.3090451925
 21
630.8245583783
 31
0.0
  3
DIMSTYLE1
100
AcDbAlignedDimension
 13
1687.0648336495
 23
618.2006243418
 33
0.0
 14
1696.5898336495
 24
618.2006243418
 34
0.0
100
AcDbRotatedDimension
  0
LINE
  5
20E
100
AcDbEntity
  8
____
  6
CONTINUOUS
 62
         7
100
AcDbLine
 10
1695.5898336495
 20
619.0006243418
 30
0.0
 11
1688.0648336495
 21
619.0006243418
 31
0.0
  0
LINE
  5
20F
100
AcDbEntity
  8
____
  6
CONTINUOUS
 62
         7
100
AcDbLine
 10
1695.5898336495
 20
580.9006243418
 30
0.0
 11
1688.0648336495
 21
580.9006243418
 31
0.0
  0
ARC
  5
210
100
AcDbEntity
  8
____
  6
CONTINUOUS
 62
         7
100
AcDbCircle
 10
1688.0648336495
 20
618.0006243418
 30
0.0
 40
1.0
100
AcDbArc
 50
90.0
 51
180.0
  0
ARC
  5
211
100
AcDbEntity
  8
____
  6
CONTINUOUS
 62
         7
100
AcDbCircle
 10
1695.5898336495
 20
618.0006243418
 30
0.0
 40
1.0
100
AcDbArc
 50
0.0
 51
90.0
  0
ARC
  5
212
100
AcDbEntity
  8
____
  6
CONTINUOUS
 62
         7
100
AcDbCircle
 10
1695.5898336495
 20
581.9006243418
 30
0.0
 40
1.0
100
AcDbArc
 50
270.0
 51
360.0
  0
ARC
  5
213
100
AcDbEntity
  8
____
  6
CONTINUOUS
 62
         7
100
AcDbCircle
 10
1688.0648336495
 20
581.9006243418
 30
0.0
 40
1.0
100
AcDbArc
 50
180.0
 51
270.0
  0
LINE
  5
214
100
AcDbEntity
  8
____
  6
CONTINUOUS
 62
         7
100
AcDbLine
 10
1696.5898336495
 20
615.0306243418
 30
0.0
 11
1687.0648336495
 21
615.0306243418
 31
0.0
  0
LINE
  5
215
100
AcDbEntity
  8
____
  6
CONTINUOUS
 62
         7
100
AcDbLine
 10
1696.0898336495
 20
612.247346466
 30
0.0
 11
1687.5648336495
 21
612.247346466
 31
0.0
  0
LINE
  5
216
100
AcDbEntity
  8
____
  6
CONTINUOUS
 62
         7
100
AcDbLine
 10
1696.0898336495
 20
587.2506243418
 30
0.0
 11
1687.5648336495
 21
587.2506243418
 31
0.0
  0
LINE
  5
217
100
AcDbEntity
  8
____
  6
CONTINUOUS
 62
         7
100
AcDbLine
 10
1687.5648336495
 20
612.247346466
 30
0.0
 11
1687.0648336495
 21
612.747346466
 31
0.0
  0
LINE
  5
218
100
AcDbEntity
  8
____
  6
CONTINUOUS
 62
         7
100
AcDbLine
 10
1687.5648336495
 20
587.2506243418
 30
0.0
 11
1687.0648336495
 21
586.7506243418
 31
0.0
  0
LINE
  5
219
100
AcDbEntity
  8
____
  6
CONTINUOUS
 62
         7
100
AcDbLine
 10
1696.0898336495
 20
612.247346466
 30
0.0
 11
1696.5898336495
 21
612.747346466
 31
0.0
  0
LINE
  5
21A
100
AcDbEntity
  8
____
  6
CONTINUOUS
 62
         7
100
AcDbLine
 10
1696.0898336495
 20
587.2506243418
 30
0.0
 11
1696.5898336495
 21
586.7506243418
 31
0.0
  0
LINE
  5
21B
100
AcDbEntity
  8
____
  6
CENTER
 62
         1
100
AcDbLine
 10
1722.7741196971
 20
599.9506243418
 30
0.0
 11
1616.2380742725
 21
599.9506243418
 31
0.0
  0
INSERT
  5
227
100
AcDbEntity
  8
0
  6
CONTINUOUS
100
AcDbBlockReference
  2
*X12
 10
0.0
 20
0.0
 30
0.0
  0
INSERT
  5
234
100
AcDbEntity
  8
0
  6
CONTINUOUS
100
AcDbBlockReference
  2
*X13
 10
0.0
 20
0.0
 30
0.0
  0
INSERT
  5
23E
100
AcDbEntity
  8
0
  6
CONTINUOUS
100
AcDbBlockReference
  2
*X14
 10
0.0
 20
0.0
 30
0.0
  0
INSERT
  5
249
100
AcDbEntity
  8
0
  6
CONTINUOUS
100
AcDbBlockReference
  2
*X15
 10
0.0
 20
0.0
 30
0.0
  0
TEXT
  5
24B
100
AcDbEntity
  8
____
  6
CONTINUOUS
 62
         2
100
AcDbText
 10
1677.0602780232
 20
632.5532139707
 30
0.0
 40
1.7
  1
1/4
  7
BOX
100
AcDbText
  0
DIMENSION
  5
24E
100
AcDbEntity
  8
____
  6
CONTINUOUS
 62
         4
100
AcDbDimension
  2
*D16
 10
1675.7148336495
 20
625.6481808922
 30
0.0
 11
1673.4898336495
 21
627.6731808922
 31
0.0
  3
DIMSTYLE1
100
AcDbAlignedDimension
 13
1675.7148336495
 23
618.2006243418
 33
0.0
 14
1682.0648336495
 24
618.2006243418
 34
0.0
100
AcDbRotatedDimension
  0
LINE
  5
25A
100
AcDbEntity
  8
____
  6
CONTINUOUS
 62
         7
100
AcDbLine
 10
1681.0648336495
 20
619.0006243418
 30
0.0
 11
1676.7148336495
 21
619.0006243418
 31
0.0
  0
LINE
  5
25B
100
AcDbEntity
  8
____
  6
CONTINUOUS
 62
         7
100
AcDbLine
 10
1681.0648336495
 20
580.9006243418
 30
0.0
 11
1676.7148336495
 21
580.9006243418
 31
0.0
  0
ARC
  5
25C
100
AcDbEntity
  8
____
  6
CONTINUOUS
 62
         7
100
AcDbCircle
 10
1676.7148336495
 20
618.0006243418
 30
0.0
 40
1.0
100
AcDbArc
 50
90.0
 51
180.0
  0
ARC
  5
25D
100
AcDbEntity
  8
____
  6
CONTINUOUS
 62
         7
100
AcDbCircle
 10
1681.0648336495
 20
618.0006243418
 30
0.0
 40
1.0
100
AcDbArc
 50
0.0
 51
90.0
  0
ARC
  5
25E
100
AcDbEntity
  8
____
  6
CONTINUOUS
 62
         7
100
AcDbCircle
 10
1681.0648336495
 20
581.9006243418
 30
0.0
 40
1.0
100
AcDbArc
 50
270.0
 51
360.0
  0
ARC
  5
25F
100
AcDbEntity
  8
____
  6
CONTINUOUS
 62
         7
100
AcDbCircle
 10
1676.7148336495
 20
581.9006243418
 30
0.0
 40
1.0
100
AcDbArc
 50
180.0
 51
270.0
  0
LINE
  5
260
100
AcDbEntity
  8
____
  6
CONTINUOUS
 62
         7
100
AcDbLine
 10
1682.0648336495
 20
615.0306243418
 30
0.0
 11
1675.7148336495
 21
615.0306243418
 31
0.0
  0
LINE
  5
261
100
AcDbEntity
  8
____
  6
CONTINUOUS
 62
         7
100
AcDbLine
 10
1681.5648336495
 20
612.247346466
 30
0.0
 11
1676.2148336495
 21
612.247346466
 31
0.0
  0
LINE
  5
262
100
AcDbEntity
  8
____
  6
CONTINUOUS
 62
         7
100
AcDbLine
 10
1681.5648336495
 20
587.2506243418
 30
0.0
 11
1676.2148336495
 21
587.2506243418
 31
0.0
  0
LINE
  5
263
100
AcDbEntity
  8
____
  6
CONTINUOUS
 62
         7
100
AcDbLine
 10
1676.2148336495
 20
612.247346466
 30
0.0
 11
1675.7148336495
 21
612.747346466
 31
0.0
  0
LINE
  5
264
100
AcDbEntity
  8
____
  6
CONTINUOUS
 62
         7
100
AcDbLine
 10
1681.5648336495
 20
612.247346466
 30
0.0
 11
1682.0648336495
 21
612.747346466
 31
0.0
  0
LINE
  5
265
100
AcDbEntity
  8
____
  6
CONTINUOUS
 62
         7
100
AcDbLine
 10
1676.2148336495
 20
587.2506243418
 30
0.0
 11
1675.7148336495
 21
586.7506243418
 31
0.0
  0
LINE
  5
266
100
AcDbEntity
  8
____
  6
CONTINUOUS
 62
         7
100
AcDbLine
 10
1681.5648336495
 20
587.2506243418
 30
0.0
 11
1682.0648336495
 21
586.7506243418
 31
0.0
  0
LINE
  5
267
100
AcDbEntity
  8
____
  6
CONTINUOUS
 62
         7
100
AcDbLine
 10
1675.7148336495
 20
618.0006243418
 30
0.0
 11
1675.7148336495
 21
581.9006243418
 31
0.0
  0
LINE
  5
268
100
AcDbEntity
  8
____
  6
CONTINUOUS
 62
         7
100
AcDbLine
 10
1682.0648336495
 20
581.9006243418
 30
0.0
 11
1682.0648336495
 21
618.0006243418
 31
0.0
  0
TEXT
  5
26A
100
AcDbEntity
  8
____
  6
CONTINUOUS
 62
         2
100
AcDbText
 10
1665.5955066555
 20
636.0774943838
 30
0.0
 40
1.7
  1
1/8
  7
BOX
100
AcDbText
  0
LINE
  5
26B
100
AcDbEntity
  8
____
  6
CONTINUOUS
 62
         7
100
AcDbLine
 10
1667.5398336495
 20
581.9006243418
 30
0.0
 11
1667.5398336495
 21
618.0006243418
 31
0.0
  0
LINE
  5
26C
100
AcDbEntity
  8
____
  6
CONTINUOUS
 62
         7
100
AcDbLine
 10
1670.7148336495
 20
581.9006243418
 30
0.0
 11
1670.7148336495
 21
618.0006243418
 31
0.0
  0
DIMENSION
  5
26F
100
AcDbEntity
  8
____
  6
CONTINUOUS
 62
         4
100
AcDbDimension
  2
*D17
 10
1667.5398336495
 20
628.8153889754
 30
0.0
 11
1662.3773336495
 21
630.8403889754
 31
0.0
  3
DIMSTYLE1
100
AcDbAlignedDimension
 13
1667.5398336495
 23
618.2006243418
 33
0.0
 14
1670.7148336495
 24
618.2006243418
 34
0.0
100
AcDbRotatedDimension
  0
LINE
  5
27B
100
AcDbEntity
  8
____
  6
CONTINUOUS
 62
         7
100
AcDbLine
 10
1669.7148336495
 20
619.0006243418
 30
0.0
 11
1668.5398336495
 21
619.0006243418
 31
0.0
  0
LINE
  5
27C
100
AcDbEntity
  8
____
  6
CONTINUOUS
 62
         7
100
AcDbLine
 10
1669.7148336495
 20
580.9006243418
 30
0.0
 11
1668.5398336495
 21
580.9006243418
 31
0.0
  0
ARC
  5
27D
100
AcDbEntity
  8
____
  6
CONTINUOUS
 62
         7
100
AcDbCircle
 10
1668.5398336495
 20
618.0006243418
 30
0.0
 40
1.0
100
AcDbArc
 50
90.0
 51
180.0
  0
ARC
  5
27E
100
AcDbEntity
  8
____
  6
CONTINUOUS
 62
         7
100
AcDbCircle
 10
1669.7148336495
 20
618.0006243418
 30
0.0
 40
1.0
100
AcDbArc
 50
0.0
 51
90.0
  0
ARC
  5
27F
100
AcDbEntity
  8
____
  6
CONTINUOUS
 62
         7
100
AcDbCircle
 10
1669.7148336495
 20
581.9006243418
 30
0.0
 40
1.0
100
AcDbArc
 50
270.0
 51
360.0
  0
ARC
  5
280
100
AcDbEntity
  8
____
  6
CONTINUOUS
 62
         7
100
AcDbCircle
 10
1668.5398336495
 20
581.9006243418
 30
0.0
 40
1.0
100
AcDbArc
 50
180.0
 51
270.0
  0
LINE
  5
281
100
AcDbEntity
  8
____
  6
CONTINUOUS
 62
         7
100
AcDbLine
 10
1670.7148336495
 20
615.0306243418
 30
0.0
 11
1667.5398336495
 21
615.0306243418
 31
0.0
  0
LINE
  5
282
100
AcDbEntity
  8
____
  6
CONTINUOUS
 62
         7
100
AcDbLine
 10
1670.2148336495
 20
612.247346466
 30
0.0
 11
1668.0398336495
 21
612.247346466
 31
0.0
  0
LINE
  5
283
100
AcDbEntity
  8
____
  6
CONTINUOUS
 62
         7
100
AcDbLine
 10
1670.2148336495
 20
587.2506243418
 30
0.0
 11
1668.0398336495
 21
587.2506243418
 31
0.0
  0
LINE
  5
284
100
AcDbEntity
  8
____
  6
CONTINUOUS
 62
         7
100
AcDbLine
 10
1668.0398336495
 20
612.247346466
 30
0.0
 11
1667.5398336495
 21
612.747346466
 31
0.0
  0
LINE
  5
285
100
AcDbEntity
  8
____
  6
CONTINUOUS
 62
         7
100
AcDbLine
 10
1668.0398336495
 20
587.2506243418
 30
0.0
 11
1667.5398336495
 21
586.7506243418
 31
0.0
  0
LINE
  5
286
100
AcDbEntity
  8
____
  6
CONTINUOUS
 62
         7
100
AcDbLine
 10
1670.2148336495
 20
612.247346466
 30
0.0
 11
1670.7148336495
 21
612.747346466
 31
0.0
  0
LINE
  5
287
100
AcDbEntity
  8
____
  6
CONTINUOUS
 62
         7
100
AcDbLine
 10
1670.2148336495
 20
587.2506243418
 30
0.0
 11
1670.7148336495
 21
586.7506243418
 31
0.0
  0
DIMENSION
  5
28A
100
AcDbEntity
  8
____
  6
CONTINUOUS
 62
         4
100
AcDbDimension
  2
*D18
 10
1642.3273379173
 20
627.9932839718
 30
0.0
 11
1633.7523379173
 21
630.0182839718
 31
0.0
  3
DIMSTYLE1
100
AcDbAlignedDimension
 13
1642.3273379173
 23
612.247346466
 33
0.0
 14
1635.9773379173
 24
612.247346466
 34
0.0
100
AcDbRotatedDimension
  0
DIMENSION
  5
298
100
AcDbEntity
  8
____
  6
CONTINUOUS
 62
         4
100
AcDbDimension
  2
*D19
 10
1616.1818723374
 20
615.0306243418
 30
0.0
 11
1614.1568723374
 21
592.6868058311
 31
0.0
  3
DIMSTYLE1
100
AcDbAlignedDimension
 13
1639.1523379173
 23
615.0306243418
 33
0.0
 14
1639.1523379173
 24
587.2506243418
 34
0.0
 50
90.0
100
AcDbRotatedDimension
  0
CIRCLE
  5
2A4
100
AcDbEntity
  8
____
  6
CONTINUOUS
 62
         7
100
AcDbCircle
 10
1639.1523379173
 20
599.9506243418
 30
0.0
 40
19.05
  0
LINE
  5
2A5
100
AcDbEntity
  8
____
  6
CONTINUOUS
 62
         7
100
AcDbLine
 10
1642.3273379173
 20
612.247346466
 30
0.0
 11
1642.3273379173
 21
615.0306243418
 31
0.0
  0
LINE
  5
2A6
100
AcDbEntity
  8
____
  6
CONTINUOUS
 62
         7
100
AcDbLine
 10
1635.9773379173
 20
612.247346466
 30
0.0
 11
1635.9773379173
 21
615.0306243418
 31
0.0
  0
ARC
  5
2A7
100
AcDbEntity
  8
____
  6
CONTINUOUS
 62
         7
100
AcDbCircle
 10
1639.1523379173
 20
599.9506243418
 30
0.0
 40
12.7
100
AcDbArc
 50
104.4775121859
 51
435.5224878141
  0
LINE
  5
2A8
100
AcDbEntity
  8
____
  6
CONTINUOUS
 62
         7
100
AcDbLine
 10
1642.3273379173
 20
615.0306243418
 30
0.0
 11
1635.9773379173
 21
615.0306243418
 31
0.0
  0
LINE
  5
2A9
100
AcDbEntity
  8
____
  6
CENTER
 62
         1
100
AcDbLine
 10
1639.1523379173
 20
577.8421630234
 30
0.0
 11
1639.1523379173
 21
622.3487474181
 31
0.0
  0
ARC
  5
2AA
100
AcDbEntity
  8
____
  6
CONTINUOUS
 62
         7
100
AcDbCircle
 10
1505.5707542509
 20
580.7315000432
 30
0.0
 40
3.175
100
AcDbArc
 50
180.0
 51
270.0
  0
ARC
  5
2AB
100
AcDbEntity
  8
____
  6
CONTINUOUS
 62
         7
100
AcDbCircle
 10
1524.2207542509
 20
580.7315000432
 30
0.0
 40
3.175
100
AcDbArc
 50
270.0
 51
359.9999999998
  0
ARC
  5
2AC
100
AcDbEntity
  8
____
  6
CONTINUOUS
 62
         7
100
AcDbCircle
 10
1524.2207542509
 20
580.7315000432
 30
0.0
 40
3.175
100
AcDbArc
 50
0.0
 51
90.0000000002
  0
ARC
  5
2AD
100
AcDbEntity
  8
____
  6
CONTINUOUS
 62
         7
100
AcDbCircle
 10
1505.5707542509
 20
580.7315000432
 30
0.0
 40
3.175
100
AcDbArc
 50
90.0
 51
180.0
  0
LINE
  5
2AE
100
AcDbEntity
  8
____
  6
CONTINUOUS
 62
         7
100
AcDbLine
 10
1524.2207542509
 20
577.5565000432
 30
0.0
 11
1505.5707542509
 21
577.5565000432
 31
0.0
  0
LINE
  5
2AF
100
AcDbEntity
  8
____
  6
CONTINUOUS
 62
         7
100
AcDbLine
 10
1524.2207542509
 20
583.9065000432
 30
0.0
 11
1505.5707542509
 21
583.9065000432
 31
0.0
  0
ARC
  5
2B0
100
AcDbEntity
  8
____
  6
CONTINUOUS
 62
         7
100
AcDbCircle
 10
1490.4383480345
 20
582.9065000432
 30
0.0
 40
1.0
100
AcDbArc
 50
0.0
 51
90.0
  0
ARC
  5
2B1
100
AcDbEntity
  8
____
  6
CONTINUOUS
 62
         7
100
AcDbCircle
 10
1486.0883480345
 20
582.9065000432
 30
0.0
 40
1.0
100
AcDbArc
 50
90.0
 51
180.0
  0
ARC
  5
2B2
100
AcDbEntity
  8
____
  6
CONTINUOUS
 62
         7
100
AcDbCircle
 10
1486.0883480345
 20
578.5565000432
 30
0.0
 40
1.0
100
AcDbArc
 50
180.0
 51
270.0
  0
ARC
  5
2B3
100
AcDbEntity
  8
____
  6
CONTINUOUS
 62
         7
100
AcDbCircle
 10
1490.4383480345
 20
578.5565000432
 30
0.0
 40
1.0
100
AcDbArc
 50
270.0
 51
360.0
  0
LINE
  5
2B4
100
AcDbEntity
  8
____
  6
CONTINUOUS
 62
         7
100
AcDbLine
 10
1490.4383480345
 20
577.5565000432
 30
0.0
 11
1486.0883480345
 21
577.5565000432
 31
0.0
  0
LINE
  5
2B5
100
AcDbEntity
  8
____
  6
CONTINUOUS
 62
         7
100
AcDbLine
 10
1490.4383480345
 20
583.9065000432
 30
0.0
 11
1486.0883480345
 21
583.9065000432
 31
0.0
  0
LINE
  5
2B6
100
AcDbEntity
  8
____
  6
CONTINUOUS
 62
         7
100
AcDbLine
 10
1491.4383480345
 20
578.5565000432
 30
0.0
 11
1491.4383480345
 21
582.9065000432
 31
0.0
  0
LINE
  5
2B7
100
AcDbEntity
  8
____
  6
CONTINUOUS
 62
         7
100
AcDbLine
 10
1485.0883480345
 20
578.5565000432
 30
0.0
 11
1485.0883480345
 21
582.9065000432
 31
0.0
  0
LINE
  5
2B8
100
AcDbEntity
  8
____
  6
CENTER
 62
         1
100
AcDbLine
 10
1532.7066709404
 20
580.7315000432
 30
0.0
 11
1477.260642662
 21
580.7315000432
 31
0.0
  0
DIMENSION
  5
2BB
100
AcDbEntity
  8
____
  6
CONTINUOUS
 62
         4
100
AcDbDimension
  2
*D20
 10
1524.2207542509
 20
580.7315000432
 30
0.0
 11
1527.9031291171
 21
578.8173047335
 31
0.0
 70
         4
  3
DIMSTYLE1
100
AcDbRadialDimension
 15
1526.4445716114
 25
578.4653885395
 35
0.0
 40
0.0
  0
DIMENSION
  5
2C6
100
AcDbEntity
  8
____
  6
CONTINUOUS
 62
         4
100
AcDbDimension
  2
*D21
 10
1485.0883480345
 20
592.0581379102
 30
0.0
 11
1483.3789655448
 21
594.0831379102
 31
0.0
  3
DIMSTYLE1
100
AcDbAlignedDimension
 13
1485.0883480345
 23
582.9065000432
 33
0.0
 14
1491.4383480345
 24
582.9065000432
 34
0.0
100
AcDbRotatedDimension
  0
DIMENSION
  5
2D4
100
AcDbEntity
  8
____
  6
CONTINUOUS
 62
         4
100
AcDbDimension
  2
*D22
 10
1474.685461095
 20
583.9065000432
 30
0.0
 11
1472.660461095
 21
575.8322771132
 31
0.0
  3
DIMSTYLE1
100
AcDbAlignedDimension
 13
1486.0883480345
 23
583.9065000432
 33
0.0
 14
1486.0883480345
 24
577.5565000432
 34
0.0
 50
90.0
100
AcDbRotatedDimension
  0
DIMENSION
  5
2E2
100
AcDbEntity
  8
____
  6
CONTINUOUS
 62
         4
100
AcDbDimension
  2
*D23
 10
1527.3957542509
 20
591.5410268967
 30
0.0
 11
1509.7516272337
 21
593.5660268967
 31
0.0
  3
DIMSTYLE1
100
AcDbAlignedDimension
 13
1527.3957542509
 23
580.7315000432
 33
0.0
 14
1502.3957542509
 24
580.7315000432
 34
0.0
100
AcDbRotatedDimension
  0
DIMENSION
  5
2F0
100
AcDbEntity
  8
____
  6
CONTINUOUS
 62
         4
100
AcDbDimension
  2
*D24
 10
1731.0516576645
 20
701.1855524758
 30
0.0
 11
1708.8203460542
 21
703.2105524758
 31
0.0
  3
DIMSTYLE1
100
AcDbAlignedDimension
 13
1731.0516576645
 23
683.9804342507
 33
0.0
 14
1696.9516576645
 24
683.9804342507
 34
0.0
100
AcDbRotatedDimension
  0
LINE
  5
2FC
100
AcDbEntity
  8
____
  6
CONTINUOUS
 62
         4
100
AcDbLine
 10
1664.8830516032
 20
683.9804342507
 30
0.0
 11
1678.3830516032
 21
666.9863176217
 31
0.0
  0
LINE
  5
2FD
100
AcDbEntity
  8
____
  6
CONTINUOUS
 62
         4
100
AcDbLine
 10
1678.3830516032
 20
683.9804342507
 30
0.0
 11
1664.8830516032
 21
666.9863176217
 31
0.0
  0
LINE
  5
2FE
100
AcDbEntity
  8
____
  6
CENTER
 62
         1
100
AcDbLine
 10
1737.4403817587
 20
675.4833759362
 30
0.0
 11
1651.5917000912
 21
675.4833759362
 31
0.0
  0
LINE
  5
2FF
100
AcDbEntity
  8
____
  6
CENTER
 62
         1
100
AcDbLine
 10
1714.0016576645
 20
652.9880286545
 30
0.0
 11
1714.0016576645
 21
696.6988874603
 31
0.0
  0
LINE
  5
300
100
AcDbEntity
  8
____
  6
CONTINUOUS
 62
         7
100
AcDbLine
 10
1678.3830516032
 20
666.9863176217
 30
0.0
 11
1664.8830516032
 21
666.9863176217
 31
0.0
  0
LINE
  5
301
100
AcDbEntity
  8
____
  6
CONTINUOUS
 62
         7
100
AcDbLine
 10
1678.3830516032
 20
683.9804342507
 30
0.0
 11
1664.8830516032
 21
683.9804342507
 31
0.0
  0
LINE
  5
302
100
AcDbEntity
  8
____
  6
CONTINUOUS
 62
         7
100
AcDbLine
 10
1664.8830516032
 20
666.9863176217
 30
0.0
 11
1664.8830516032
 21
683.9804342507
 31
0.0
  0
LINE
  5
303
100
AcDbEntity
  8
____
  6
CONTINUOUS
 62
         7
100
AcDbLine
 10
1731.0516576645
 20
666.9863176217
 30
0.0
 11
1731.0516576645
 21
683.9804342507
 31
0.0
  0
LINE
  5
304
100
AcDbEntity
  8
____
  6
CONTINUOUS
 62
         7
100
AcDbLine
 10
1696.9516576645
 20
666.9863176217
 30
0.0
 11
1696.9516576645
 21
683.9804342507
 31
0.0
  0
CIRCLE
  5
305
100
AcDbEntity
  8
____
  6
CONTINUOUS
 62
         7
100
AcDbCircle
 10
1714.0016576645
 20
675.4833759362
 30
0.0
 40
17.05
  0
DIMENSION
  5
308
100
AcDbEntity
  8
____
  6
CONTINUOUS
 62
         4
100
AcDbDimension
  2
*D25
 10
1664.8830516032
 20
701.7826441774
 30
0.0
 11
1656.0830516032
 21
703.8076441774
 31
0.0
  3
DIMSTYLE1
100
AcDbAlignedDimension
 13
1664.8830516032
 23
684.8642074558
 33
0.0
 14
1655.3830516032
 24
693.0333759362
 34
0.0
100
AcDbRotatedDimension
  0
INSERT
  5
31F
100
AcDbEntity
  8
0
  6
CONTINUOUS
100
AcDbBlockReference
  2
GENDIML28
 10
0.0
 20
0.0
 30
0.0
  0
DIMENSION
  5
322
100
AcDbEntity
  8
____
  6
CONTINUOUS
 62
         4
100
AcDbDimension
  2
*D27
 10
1655.3830516032
 20
646.8888960575
 30
0.0
 11
1664.3034755148
 21
648.9138960575
 31
0.0
  3
DIMSTYLE1
100
AcDbAlignedDimension
 13
1655.3830516032
 23
657.9333759362
 33
0.0
 14
1678.3830516032
 24
658.4333759362
 34
0.0
100
AcDbRotatedDimension
  0
LINE
  5
32E
100
AcDbEntity
  8
____
  6
CONTINUOUS
 62
         7
100
AcDbLine
 10
1655.3830516032
 20
657.9333759362
 30
0.0
 11
1655.3830516032
 21
693.0333759362
 31
0.0
  0
LINE
  5
32F
100
AcDbEntity
  8
____
  6
CONTINUOUS
 62
         7
100
AcDbLine
 10
1678.3830516032
 20
658.4333759362
 30
0.0
 11
1678.3830516032
 21
692.5333759362
 31
0.0
  0
CIRCLE
  5
330
100
AcDbEntity
  8
____
  6
CONTINUOUS
 62
         7
100
AcDbCircle
 10
1714.0016576645
 20
675.4833759362
 30
0.0
 40
19.05
  0
LINE
  5
331
100
AcDbEntity
  8
____
  6
CONTINUOUS
 62
         7
100
AcDbLine
 10
1676.3830516032
 20
694.5333759362
 30
0.0
 11
1656.8830516032
 21
694.5333759362
 31
0.0
  0
LINE
  5
332
100
AcDbEntity
  8
____
  6
CONTINUOUS
 62
         7
100
AcDbLine
 10
1676.3830516032
 20
656.4333759362
 30
0.0
 11
1656.8830516032
 21
656.4333759362
 31
0.0
  0
ARC
  5
333
100
AcDbEntity
  8
____
  6
CONTINUOUS
 62
         7
100
AcDbCircle
 10
1676.3830516032
 20
692.5333759362
 30
0.0
 40
2.0
100
AcDbArc
 50
0.0
 51
90.0
  0
ARC
  5
334
100
AcDbEntity
  8
____
  6
CONTINUOUS
 62
         7
100
AcDbCircle
 10
1676.3830516032
 20
658.4333759362
 30
0.0
 40
2.0
100
AcDbArc
 50
270.0
 51
360.0
  0
ARC
  5
335
100
AcDbEntity
  8
____
  6
CONTINUOUS
 62
         7
100
AcDbCircle
 10
1656.8830516032
 20
657.9333759362
 30
0.0
 40
1.5
100
AcDbArc
 50
180.0
 51
270.0
  0
ARC
  5
336
100
AcDbEntity
  8
____
  6
CONTINUOUS
 62
         7
100
AcDbCircle
 10
1656.8830516032
 20
693.0333759362
 30
0.0
 40
1.5
100
AcDbArc
 50
90.0
 51
180.0
  0
CIRCLE
  5
337
100
AcDbEntity
  8
____
  6
CONTINUOUS
 62
         7
100
AcDbCircle
 10
1714.0016576645
 20
675.4833759362
 30
0.0
 40
12.7
  0
ARC
  5
338
100
AcDbEntity
  8
____
  6
CONTINUOUS
 62
         4
100
AcDbCircle
 10
1714.0016576645
 20
675.4833759362
 30
0.0
 40
11.379
100
AcDbArc
 50
270.0
 51
540.0
  0
INSERT
  5
346
100
AcDbEntity
  8
0
  6
CONTINUOUS
100
AcDbBlockReference
  2
*X28
 10
0.0
 20
0.0
 30
0.0
  0
INSERT
  5
351
100
AcDbEntity
  8
0
  6
CONTINUOUS
100
AcDbBlockReference
  2
*X29
 10
0.0
 20
0.0
 30
0.0
  0
INSERT
  5
35F
100
AcDbEntity
  8
0
  6
CONTINUOUS
100
AcDbBlockReference
  2
*X30
 10
0.0
 20
0.0
 30
0.0
  0
INSERT
  5
36B
100
AcDbEntity
  8
0
  6
CONTINUOUS
100
AcDbBlockReference
  2
*X31
 10
0.0
 20
0.0
 30
0.0
  0
INSERT
  5
377
100
AcDbEntity
  8
0
  6
CONTINUOUS
100
AcDbBlockReference
  2
*X32
 10
0.0
 20
0.0
 30
0.0
  0
INSERT
  5
383
100
AcDbEntity
  8
0
  6
CONTINUOUS
100
AcDbBlockReference
  2
*X33
 10
0.0
 20
0.0
 30
0.0
  0
LINE
  5
384
100
AcDbEntity
  8
____
  6
CONTINUOUS
 62
         7
100
AcDbLine
 10
1777.2292637096
 20
769.6491205924
 30
0.0
 11
1770.8792637096
 21
769.6491205924
 31
0.0
  0
ARC
  5
385
100
AcDbEntity
  8
____
  6
CONTINUOUS
 62
         7
100
AcDbCircle
 10
1774.0542637096
 20
760.9191205924
 30
0.0
 40
12.7
100
AcDbArc
 50
104.4775121859
 51
435.5224878141
  0
LINE
  5
386
100
AcDbEntity
  8
____
  6
CONTINUOUS
 62
         7
100
AcDbLine
 10
1770.8792637096
 20
769.6491205924
 30
0.0
 11
1770.8792637096
 21
775.9991205924
 31
0.0
  0
LINE
  5
387
100
AcDbEntity
  8
____
  6
CONTINUOUS
 62
         7
100
AcDbLine
 10
1777.2292637096
 20
769.6491205924
 30
0.0
 11
1777.2292637096
 21
775.9991205924
 31
0.0
  0
LINE
  5
388
100
AcDbEntity
  8
____
  6
CONTINUOUS
 62
         7
100
AcDbLine
 10
1777.2292637096
 20
775.9991205924
 30
0.0
 11
1770.8792637096
 21
775.9991205924
 31
0.0
  0
LINE
  5
389
100
AcDbEntity
  8
____
  6
CENTER
 62
         1
100
AcDbLine
 10
1774.0542637096
 20
742.3724166077
 30
0.0
 11
1774.0542637096
 21
779.4658245771
 31
0.0
  0
LINE
  5
38A
100
AcDbEntity
  8
____
  6
CENTER
 62
         1
100
AcDbLine
 10
1791.3577165005
 20
760.9191205924
 30
0.0
 11
1756.5469797908
 21
760.9191205924
 31
0.0
  0
LINE
  5
38B
100
AcDbEntity
  8
____
  6
DASHED
 62
         2
100
AcDbLine
 10
1708.1156939681
 20
770.7369665993
 30
0.0
 11
1701.7656939681
 21
770.7369665993
 31
0.0
  0
CIRCLE
  5
38C
100
AcDbEntity
  8
____
  6
CONTINUOUS
 62
         7
100
AcDbCircle
 10
1704.9406939681
 20
762.0069665993
 30
0.0
 40
12.7
  0
LINE
  5
38D
100
AcDbEntity
  8
____
  6
DASHED
 62
         2
100
AcDbLine
 10
1701.7656939681
 20
770.7369665993
 30
0.0
 11
1701.7656939681
 21
774.3036887235
 31
0.0
  0
LINE
  5
38E
100
AcDbEntity
  8
____
  6
DASHED
 62
         2
100
AcDbLine
 10
1708.1156939681
 20
770.7369665993
 30
0.0
 11
1708.1156939681
 21
774.3036887235
 31
0.0
  0
CIRCLE
  5
38F
100
AcDbEntity
  8
____
  6
CONTINUOUS
 62
         7
100
AcDbCircle
 10
1704.9406939681
 20
762.0069665993
 30
0.0
 40
19.05
  0
LINE
  5
390
100
AcDbEntity
  8
____
  6
CENTER
 62
         1
100
AcDbLine
 10
1704.9406939681
 20
739.1332172613
 30
0.0
 11
1704.9406939681
 21
786.7979519172
 31
0.0
  0
LINE
  5
391
100
AcDbEntity
  8
____
  6
CENTER
 62
         1
100
AcDbLine
 10
1734.8823276874
 20
762.0069665993
 30
0.0
 11
1677.9895534532
 21
762.0069665993
 31
0.0
  0
ARC
  5
392
100
AcDbEntity
  8
____
  6
CONTINUOUS
 62
         4
100
AcDbCircle
 10
1704.9406939681
 20
762.0069665993
 30
0.0
 40
11.379
100
AcDbArc
 50
259.5493817017
 51
540.0
  0
ARC
  5
393
100
AcDbEntity
  8
____
  6
CONTINUOUS
 62
         7
100
AcDbCircle
 10
1483.201902034
 20
667.9503207807
 30
0.0
 40
2.0
100
AcDbArc
 50
180.0
 51
270.0
  0
ARC
  5
394
100
AcDbEntity
  8
____
  6
CONTINUOUS
 62
         7
100
AcDbCircle
 10
1483.201902034
 20
625.8503207807
 30
0.0
 40
2.0
100
AcDbArc
 50
90.0
 51
180.0
  0
LINE
  5
395
100
AcDbEntity
  8
____
  6
CONTINUOUS
 62
         7
100
AcDbLine
 10
1549.381902034
 20
627.8503207807
 30
0.0
 11
1483.201902034
 21
627.8503207807
 31
0.0
  0
LINE
  5
396
100
AcDbEntity
  8
____
  6
CONTINUOUS
 62
         7
100
AcDbLine
 10
1481.201902034
 20
625.8503207807
 30
0.0
 11
1481.201902034
 21
625.4753207807
 31
0.0
  0
LINE
  5
397
100
AcDbEntity
  8
____
  6
CONTINUOUS
 62
         7
100
AcDbLine
 10
1420.249902034
 20
639.9003207807
 30
0.0
 11
1424.2913539183
 21
646.9003207807
 31
0.0
  0
LINE
  5
398
100
AcDbEntity
  8
____
  6
CONTINUOUS
 62
         7
100
AcDbLine
 10
1420.249902034
 20
653.9003207807
 30
0.0
 11
1424.2913539183
 21
646.9003207807
 31
0.0
  0
LINE
  5
399
100
AcDbEntity
  8
____
  6
CONTINUOUS
 62
         7
100
AcDbLine
 10
1420.249902034
 20
653.9003207807
 30
0.0
 11
1420.249902034
 21
639.9003207807
 31
0.0
  0
INSERT
  5
3EC
100
AcDbEntity
  8
0
  6
CONTINUOUS
100
AcDbBlockReference
  2
*X34
 10
0.0
 20
0.0
 30
0.0
  0
LINE
  5
3ED
100
AcDbEntity
  8
____
  6
CONTINUOUS
 62
         7
100
AcDbLine
 10
1602.999902034
 20
774.6839665993
 30
0.0
 11
1585.881902034
 21
774.6839665993
 31
0.0
  0
DIMENSION
  5
3F0
100
AcDbEntity
  8
____
  6
CONTINUOUS
 62
         4
100
AcDbDimension
  2
*D35
 10
1567.9719953546
 20
659.6003207807
 30
0.0
 11
1565.9469953546
 21
618.7000435905
 31
0.0
  3
DIMSTYLE1
100
AcDbAlignedDimension
 13
1552.881902034
 23
659.6003207807
 33
0.0
 14
1552.881902034
 24
634.2003207807
 34
0.0
 50
90.0
100
AcDbRotatedDimension
  0
TEXT
  5
3FE
100
AcDbEntity
  8
____
  6
CONTINUOUS
 62
         2
100
AcDbText
 10
1689.5124717508
 20
836.1928032781
 30
0.0
 40
4.5
  1
531580
 41
0.98
  7
BOX
100
AcDbText
  0
ENDSEC
  0
SECTION
  2
OBJECTS
  0
DICTIONARY
  5
19
100
AcDbDictionary
  3
ACAD_GROUP
350
1A
  3
ACAD_MLINESTYLE
350
1B
  0
DICTIONARY
  5
1A
102
{ACAD_REACTORS
330
19
102
}
100
AcDbDictionary
  0
DICTIONARY
  5
1B
102
{ACAD_REACTORS
330
19
102
}
100
AcDbDictionary
  3
STANDARD
350
1C
  0
MLINESTYLE
  5
1C
102
{ACAD_REACTORS
330
1B
102
}
100
AcDbMlineStyle
  2
STANDARD
 70
         0
  3

 62
         0
 51
90.0
 52
90.0
 71
         2
 49
0.5
 62
       256
  6
BYLAYER
 49
-0.5
 62
       256
  6
BYLAYER
  0
ENDSEC
  0
EOF
