  0
SECTION
  2
HEADER
  9
$ACADVER
  1
AC1014
  9
$ACADMAINTVER
 70
         0
  9
$DWGCODEPAGE
  3
BIG5
  9
$INSBASE
 10
0.0
 20
0.0
 30
0.0
  9
$EXTMIN
 10
2301.6117135187
 20
-624.005285084
 30
0.0
  9
$EXTMAX
 10
2816.1218373665
 20
-66.7087354
 30
0.0
  9
$LIMMIN
 10
0.0
 20
0.0
  9
$LIMMAX
 10
0.0
 20
0.0
  9
$ORTHOMODE
 70
         0
  9
$REGENMODE
 70
         1
  9
$FILLMODE
 70
         1
  9
$QTEXTMODE
 70
         0
  9
$MIRRTEXT
 70
         1
  9
$DRAGMODE
 70
         2
  9
$LTSCALE
 40
1.0
  9
$OSMODE
 70
         0
  9
$ATTMODE
 70
         1
  9
$TEXTSIZE
 40
2.2
  9
$TRACEWID
 40
0.05
  9
$TEXTSTYLE
  7
STANDARD
  9
$CLAYER
  8
0
  9
$CELTYPE
  6
CONTINUOUS
  9
$CECOLOR
 62
        16
  9
$CELTSCALE
 40
1.0
  9
$DELOBJ
 70
         1
  9
$DISPSILH
 70
         0
  9
$DIMSCALE
 40
1.0
  9
$DIMASZ
 40
0.18
  9
$DIMEXO
 40
0.0625
  9
$DIMDLI
 40
0.38
  9
$DIMRND
 40
0.0
  9
$DIMDLE
 40
0.0
  9
$DIMEXE
 40
0.25
  9
$DIMTP
 40
0.01
  9
$DIMTM
 40
-0.01
  9
$DIMTXT
 40
2.7
  9
$DIMCEN
 40
0.09
  9
$DIMTSZ
 40
0.0
  9
$DIMTOL
 70
         0
  9
$DIMLIM
 70
         0
  9
$DIMTIH
 70
         1
  9
$DIMTOH
 70
         1
  9
$DIMSE1
 70
         0
  9
$DIMSE2
 70
         0
  9
$DIMTAD
 70
         0
  9
$DIMZIN
 70
         0
  9
$DIMBLK
  1

  9
$DIMASO
 70
         1
  9
$DIMSHO
 70
         1
  9
$DIMPOST
  1

  9
$DIMAPOST
  1

  9
$DIMALT
 70
         0
  9
$DIMALTD
 70
         2
  9
$DIMALTF
 40
25.4
  9
$DIMLFAC
 40
1.0
  9
$DIMTOFL
 70
         0
  9
$DIMTVP
 40
0.0
  9
$DIMTIX
 70
         0
  9
$DIMSOXD
 70
         0
  9
$DIMSAH
 70
         0
  9
$DIMBLK1
  1

  9
$DIMBLK2
  1

  9
$DIMSTYLE
  2
STANDARD
  9
$DIMCLRD
 70
         0
  9
$DIMCLRE
 70
         0
  9
$DIMCLRT
 70
        16
  9
$DIMTFAC
 40
1.0
  9
$DIMGAP
 40
0.09
  9
$DIMJUST
 70
         0
  9
$DIMSD1
 70
         0
  9
$DIMSD2
 70
         0
  9
$DIMTOLJ
 70
         1
  9
$DIMTZIN
 70
         0
  9
$DIMALTZ
 70
         0
  9
$DIMALTTZ
 70
         0
  9
$DIMFIT
 70
         3
  9
$DIMUPT
 70
         0
  9
$DIMUNIT
 70
         2
  9
$DIMDEC
 70
         4
  9
$DIMTDEC
 70
         4
  9
$DIMALTU
 70
         2
  9
$DIMALTTD
 70
         2
  9
$DIMTXSTY
  7
STANDARD
  9
$DIMAUNIT
 70
         0
  9
$LUNITS
 70
         2
  9
$LUPREC
 70
        10
  9
$SKETCHINC
 40
0.1
  9
$FILLETRAD
 40
0.0
  9
$AUNITS
 70
         0
  9
$AUPREC
 70
         0
  9
$MENU
  1
acad
  9
$ELEVATION
 40
0.0
  9
$PELEVATION
 40
0.0
  9
$THICKNESS
 40
0.0
  9
$LIMCHECK
 70
         0
  9
$BLIPMODE
 70
         1
  9
$CHAMFERA
 40
0.0
  9
$CHAMFERB
 40
0.0
  9
$CHAMFERC
 40
0.0
  9
$CHAMFERD
 40
0.0
  9
$SKPOLY
 70
         0
  9
$TDCREATE
 40
0.000000000
  9
$TDUPDATE
 40
0.000000000
  9
$TDINDWG
 40
0.0000000000
  9
$TDUSRTIMER
 40
0.0000000000
  9
$USRTIMER
 70
         1
  9
$ANGBASE
 50
0.0
  9
$ANGDIR
 70
         0
  9
$PDMODE
 70
         2
  9
$PDSIZE
 40
0.0
  9
$PLINEWID
 40
0.0
  9
$COORDS
 70
         0
  9
$SPLFRAME
 70
         0
  9
$SPLINETYPE
 70
         6
  9
$SPLINESEGS
 70
         8
  9
$ATTDIA
 70
         0
  9
$ATTREQ
 70
         1
  9
$HANDLING
 70
         1
  9
$HANDSEED
  5
4AD
  9
$SURFTAB1
 70
         6
  9
$SURFTAB2
 70
         6
  9
$SURFTYPE
 70
         6
  9
$SURFU
 70
         6
  9
$SURFV
 70
         6
  9
$UCSNAME
  2

  9
$UCSORG
 10
0.0
 20
0.0
 30
0.0
  9
$UCSXDIR
 10
1.0
 20
0.0
 30
0.0
  9
$UCSYDIR
 10
0.0
 20
1.0
 30
0.0
  9
$PUCSNAME
  2

  9
$PUCSORG
 10
0.0
 20
0.0
 30
0.0
  9
$PUCSXDIR
 10
1.0
 20
0.0
 30
0.0
  9
$PUCSYDIR
 10
0.0
 20
1.0
 30
0.0
  9
$USERI1
 70
         0
  9
$USERI2
 70
         0
  9
$USERI3
 70
         0
  9
$USERI4
 70
         0
  9
$USERI5
 70
         0
  9
$USERR1
 40
0.0
  9
$USERR2
 40
0.0
  9
$USERR3
 40
0.0
  9
$USERR4
 40
0.0
  9
$USERR5
 40
0.0
  9
$WORLDVIEW
 70
         1
  9
$SHADEDGE
 70
         3
  9
$SHADEDIF
 70
        70
  9
$TILEMODE
 70
         1
  9
$MAXACTVP
 70
        16
  9
$PINSBASE
 10
0.0
 20
0.0
 30
0.0
  9
$PLIMCHECK
 70
         0
  9
$PEXTMIN
 10
1.0000000000E+20
 20
1.0000000000E+20
 30
1.0000000000E+20
  9
$PEXTMAX
 10
-1.0000000000E+20
 20
-1.0000000000E+20
 30
-1.0000000000E+20
  9
$PLIMMIN
 10
0.0
 20
0.0
  9
$PLIMMAX
 10
12.0
 20
9.0
  9
$UNITMODE
 70
         0
  9
$VISRETAIN
 70
         0
  9
$PLINEGEN
 70
         1
  9
$PSLTSCALE
 70
         0
  9
$TREEDEPTH
 70
      3020
  9
$PICKSTYLE
 70
         1
  9
$CMLSTYLE
  2
STANDARD
  9
$CMLJUST
 70
         0
  9
$CMLSCALE
 40
1.0
  9
$PROXYGRAPHICS
 70
         0
  9
$MEASUREMENT
 70
         0
  0
ENDSEC
  0
SECTION
  2
CLASSES
  0
CLASS
  1
LWPOLYLINE
  2
AcDbPolyline
  3
"AutoCAD"
 90
        0
280
         0
281
         1
  0
CLASS
  1
IMAGE
  2
AcDbRasterImage
  3
ISM
 90
      127
280
         0
281
         1
  0
CLASS
  1
OLE2FRAME
  2
AcDbOle2Frame
  3
""
 90
        0
280
         0
281
         1
  0
CLASS
  1
HATCH
  2
AcDbHatch
  3
"ACAD_SEDONA"
 90
        0
280
         0
281
         1
  0
CLASS
  1
DICTIONARYVAR
  2
AcDbDictionaryVar
  3
"AutoCAD"
 90
        0
280
         0
281
         0
  0
CLASS
  1
RASTERVARIABLES
  2
AcDbRasterVariables
  3
ISM
 90
        0
280
         0
281
         0
  0
CLASS
  1
IMAGEDEF
  2
AcDbRasterImageDef
  3
ISM
 90
        0
280
         0
281
         0
  0
CLASS
  1
IMAGEDEF_REACTOR
  2
AcDbRasterImageDefReactor
  3
ISM
 90
        1
280
         0
281
         0
  0
CLASS
  1
IDBUFFER
  2
AcDbIdBuffer
  3
"Acad"
 90
        0
280
         0
281
         0
  0
CLASS
  1
SPATIAL_FILTER
  2
AcDbSpatialFilter
  3
"Acad"
 90
        0
280
         0
281
         0
  0
CLASS
  1
XRECORD
  2
AcDbXrecord
  3
"<Built In>"
 90
        0
280
         0
281
         0
  0
CLASS
  1
SORTENTSTABLE
  2
AcDbSortentsTable
  3
"AutoCAD"
 90
        0
280
         0
281
         0
  0
CLASS
  1
LAYER_INDEX
  2
AcDbLayerIndex
  3
"Acad"
 90
        0
280
         0
281
         0
  0
CLASS
  1
SPATIAL_INDEX
  2
AcDbSpatialIndex
  3
"Acad"
 90
        0
280
         0
281
         0
  0
CLASS
  1
OBJECT_PTR
  2
CAseDLPNTableRecord
  3
"ASE-LPNTableRecord"
 90
        1
280
         0
281
         0
  0
CLASS
  1
LAYOUT
  2
AcDbLayout
  3
"AutoCAD 2000"
 90
        1
280
         0
281
         0
  0
CLASS
  1
PLOTSETTINGS
  2
AcDbPlotSettings
  3
"AutoCAD 2000"
 90
        1
280
         0
281
         0
  0
CLASS
  1
ACDBDICTIONARYWDFLT
  2
AcDbDictionaryWithDefault
  3
"AutoCAD 2000"
 90
        1
280
         0
281
         0
  0
CLASS
  1
ACDBPLACEHOLDER
  2
AcDbPlaceHolder
  3
"AutoCAD 2000"
 90
        1
280
         0
281
         0
  0
CLASS
  1
VBA_PROJECT
  2
AcDbVbaProject
  3
"acadvba"
 90
        1
280
         0
281
         0
  0
CLASS
  1
WIPEOUT
  2
AcDbWipeout
  3
WipeOut|AutoCAD Express Tool|expresstools@autodesk.com
 90
      127
280
         0
281
         1
  0
CLASS
  1
WIPEOUTVARIABLES
  2
AcDbWipeoutVariables
  3
WipeOut|AutoCAD Express Tool|expresstools@autodesk.com
 90
        0
280
         0
281
         0
  0
CLASS
  1
RTEXT
  2
RText
  3
RText|AutoCAD Express Tool|expresstools@autodesk.com
 90
        0
280
         0
281
         1
  0
CLASS
  1
ARCALIGNEDTEXT
  2
AcDbArcAlignedText
  3
ATEXT|AutoCAD Express Tool|expresstools@autodesk.com
 90
        0
280
         0
281
         1
  0
ENDSEC
  0
SECTION
  2
TABLES
  0
TABLE
  2
VPORT
  5
7
100
AcDbSymbolTable
 70
         1
  0
VPORT
  5
15
100
AcDbSymbolTableRecord
100
AcDbViewportTableRecord
  2
*ACTIVE
 70
         0
 10
0.0
 20
0.0
 11
1.0
 21
1.0
 12
2558.8667754426
 22
-345.357010242
 13
0.0
 23
0.0
 14
1.0
 24
1.0
 15
0.0
 25
0.0
 16
0.0
 26
0.0
 36
1.0
 17
0.0
 27
0.0
 37
0.0
 40
557.296549684
 41
0.9232250301
 42
50.0
 43
0.0
 44
0.0
 50
0.0
 51
0.0
 71
         0
 72
       100
 73
         1
 74
         1
 75
         0
 76
         0
 77
         0
 78
         0
  0
ENDTAB
  0
TABLE
  2
LTYPE
  5
4
100
AcDbSymbolTable
 70
         6
  0
LTYPE
  5
11
100
AcDbSymbolTableRecord
100
AcDbLinetypeTableRecord
  2
BYBLOCK
 70
        64
  3

 72
        65
 73
         0
 40
0.0
  0
LTYPE
  5
12
100
AcDbSymbolTableRecord
100
AcDbLinetypeTableRecord
  2
BYLAYER
 70
        64
  3

 72
        65
 73
         0
 40
0.0
  0
LTYPE
  5
13
100
AcDbSymbolTableRecord
100
AcDbLinetypeTableRecord
  2
CONTINUOUS
 70
        64
  3
Solid line
 72
        65
 73
         0
 40
0.0
  0
LTYPE
  5
1D
100
AcDbSymbolTableRecord
100
AcDbLinetypeTableRecord
  2
DASHED
 70
        64
  3
_ _ _ _ _ _ _ _ _ _ _ _ _ _ _ _
 72
        65
 73
         2
 40
0.2
 49
0.1
 74
         0
 49
-0.1
 74
         0
  0
LTYPE
  5
1E
100
AcDbSymbolTableRecord
100
AcDbLinetypeTableRecord
  2
CENTER
 70
        64
  3
___ _ ___ _ ___ _ ___ _ ___ _ ___ _ ___ _ ___ _
 72
        65
 73
         4
 40
0.95
 49
0.625
 74
         0
 49
-0.125
 74
         0
 49
0.075
 74
         0
 49
-0.125
 74
         0
  0
LTYPE
  5
1F
100
AcDbSymbolTableRecord
100
AcDbLinetypeTableRecord
  2
PHANTOM
 70
        64
  3
______  __  __  ______  __  __  ______  __  __  
 72
        65
 73
         6
 40
1.025
 49
0.625
 74
         0
 49
-0.125
 74
         0
 49
0.075
 74
         0
 49
-0.125
 74
         0
 49
0.075
 74
         0
 49
-0.125
 74
         0
  0
ENDTAB
  0
TABLE
  2
LAYER
  5
2
100
AcDbSymbolTable
 70
        12
  0
LAYER
  5
14
100
AcDbSymbolTableRecord
100
AcDbLayerTableRecord
  2
0
 70
         0
 62
         7
  6
CONTINUOUS
  0
LAYER
  5
21
100
AcDbSymbolTableRecord
100
AcDbLayerTableRecord
  2
____
 70
         0
 62
         7
  6
CONTINUOUS
  0
LAYER
  5
22
100
AcDbSymbolTableRecord
100
AcDbLayerTableRecord
  2
____
 70
         1
 62
         7
  6
CONTINUOUS
  0
LAYER
  5
23
100
AcDbSymbolTableRecord
100
AcDbLayerTableRecord
  2
____
 70
         1
 62
         7
  6
CONTINUOUS
  0
LAYER
  5
24
100
AcDbSymbolTableRecord
100
AcDbLayerTableRecord
  2
____
 70
         1
 62
         7
  6
CONTINUOUS
  0
LAYER
  5
25
100
AcDbSymbolTableRecord
100
AcDbLayerTableRecord
  2
______
 70
         1
 62
         7
  6
CONTINUOUS
  0
LAYER
  5
26
100
AcDbSymbolTableRecord
100
AcDbLayerTableRecord
  2
___G
 70
         1
 62
         7
  6
CONTINUOUS
  0
LAYER
  5
27
100
AcDbSymbolTableRecord
100
AcDbLayerTableRecord
  2
______
 70
         1
 62
         7
  6
CONTINUOUS
  0
LAYER
  5
28
100
AcDbSymbolTableRecord
100
AcDbLayerTableRecord
  2
_____I
 70
         1
 62
         7
  6
CONTINUOUS
  0
LAYER
  5
29
100
AcDbSymbolTableRecord
100
AcDbLayerTableRecord
  2
___T
 70
         1
 62
         7
  6
CONTINUOUS
  0
LAYER
  5
2A
100
AcDbSymbolTableRecord
100
AcDbLayerTableRecord
  2
______
 70
         1
 62
         7
  6
CONTINUOUS
  0
LAYER
  5
31
100
AcDbSymbolTableRecord
100
AcDbLayerTableRecord
  2
DEFPOINTS
 70
         0
 62
        -7
  6
CONTINUOUS
  0
ENDTAB
  0
TABLE
  2
STYLE
  5
3
100
AcDbSymbolTable
 70
        37
  0
STYLE
  5
17
100
AcDbSymbolTableRecord
100
AcDbTextStyleTableRecord
  2
STANDARD
 70
         0
 40
0.0
 41
1.0
 50
0.0
 71
         0
 42
0.0
  3
txt
  4

  0
STYLE
  5
3A
100
AcDbSymbolTableRecord
100
AcDbTextStyleTableRecord
  2
BOX
 70
         0
 40
1.0
 41
1.0
 50
0.0
 71
         0
 42
0.2
  3
txt.shx
  4

  0
STYLE
  5
48
100
AcDbSymbolTableRecord
100
AcDbTextStyleTableRecord
  2
BOX
 70
         0
 40
1.0
 41
1.0
 50
0.0
 71
         0
 42
0.2
  3
txt.shx
  4

  0
STYLE
  5
A5
100
AcDbSymbolTableRecord
100
AcDbTextStyleTableRecord
  2
BOX
 70
         0
 40
1.0
 41
1.0
 50
0.0
 71
         0
 42
0.2
  3
txt.shx
  4

  0
STYLE
  5
C0
100
AcDbSymbolTableRecord
100
AcDbTextStyleTableRecord
  2
BOX
 70
         0
 40
1.0
 41
1.0
 50
0.0
 71
         0
 42
0.2
  3
txt.shx
  4

  0
STYLE
  5
CE
100
AcDbSymbolTableRecord
100
AcDbTextStyleTableRecord
  2
BOX
 70
         0
 40
1.0
 41
1.0
 50
0.0
 71
         0
 42
0.2
  3
txt.shx
  4

  0
STYLE
  5
DC
100
AcDbSymbolTableRecord
100
AcDbTextStyleTableRecord
  2
BOX
 70
         0
 40
1.0
 41
1.0
 50
0.0
 71
         0
 42
0.2
  3
txt.shx
  4

  0
STYLE
  5
F6
100
AcDbSymbolTableRecord
100
AcDbTextStyleTableRecord
  2
BOX
 70
         0
 40
1.0
 41
1.0
 50
0.0
 71
         0
 42
0.2
  3
txt.shx
  4

  0
STYLE
  5
101
100
AcDbSymbolTableRecord
100
AcDbTextStyleTableRecord
  2
BOX
 70
         0
 40
1.0
 41
1.0
 50
0.0
 71
         0
 42
0.2
  3
txt.shx
  4

  0
STYLE
  5
110
100
AcDbSymbolTableRecord
100
AcDbTextStyleTableRecord
  2
BOX
 70
         0
 40
1.0
 41
1.0
 50
0.0
 71
         0
 42
0.2
  3
txt.shx
  4

  0
STYLE
  5
196
100
AcDbSymbolTableRecord
100
AcDbTextStyleTableRecord
  2
BOX
 70
         0
 40
1.0
 41
1.0
 50
0.0
 71
         0
 42
0.2
  3
txt.shx
  4

  0
STYLE
  5
199
100
AcDbSymbolTableRecord
100
AcDbTextStyleTableRecord
  2
BOX
 70
         0
 40
1.0
 41
1.0
 50
0.0
 71
         0
 42
0.2
  3
txt.shx
  4

  0
STYLE
  5
1AA
100
AcDbSymbolTableRecord
100
AcDbTextStyleTableRecord
  2
BOX
 70
         0
 40
1.0
 41
1.0
 50
0.0
 71
         0
 42
0.2
  3
txt.shx
  4

  0
STYLE
  5
1B9
100
AcDbSymbolTableRecord
100
AcDbTextStyleTableRecord
  2
BOX
 70
         0
 40
1.0
 41
1.0
 50
0.0
 71
         0
 42
0.2
  3
txt.shx
  4

  0
STYLE
  5
1C9
100
AcDbSymbolTableRecord
100
AcDbTextStyleTableRecord
  2
BOX
 70
         0
 40
1.0
 41
1.0
 50
0.0
 71
         0
 42
0.2
  3
txt.shx
  4

  0
STYLE
  5
1D6
100
AcDbSymbolTableRecord
100
AcDbTextStyleTableRecord
  2
BOX
 70
         0
 40
1.0
 41
1.0
 50
0.0
 71
         0
 42
0.2
  3
txt.shx
  4

  0
STYLE
  5
1F5
100
AcDbSymbolTableRecord
100
AcDbTextStyleTableRecord
  2
BOX
 70
         0
 40
1.0
 41
1.0
 50
0.0
 71
         0
 42
0.2
  3
txt.shx
  4

  0
STYLE
  5
1F8
100
AcDbSymbolTableRecord
100
AcDbTextStyleTableRecord
  2
BOX
 70
         0
 40
1.0
 41
1.0
 50
0.0
 71
         0
 42
0.2
  3
txt.shx
  4

  0
STYLE
  5
207
100
AcDbSymbolTableRecord
100
AcDbTextStyleTableRecord
  2
BOX
 70
         0
 40
1.0
 41
1.0
 50
0.0
 71
         0
 42
0.2
  3
txt.shx
  4

  0
STYLE
  5
215
100
AcDbSymbolTableRecord
100
AcDbTextStyleTableRecord
  2
BOX
 70
         0
 40
1.0
 41
1.0
 50
0.0
 71
         0
 42
0.2
  3
txt.shx
  4

  0
STYLE
  5
225
100
AcDbSymbolTableRecord
100
AcDbTextStyleTableRecord
  2
BOX
 70
         0
 40
1.0
 41
1.0
 50
0.0
 71
         0
 42
0.2
  3
txt.shx
  4

  0
STYLE
  5
238
100
AcDbSymbolTableRecord
100
AcDbTextStyleTableRecord
  2
BOX
 70
         0
 40
1.0
 41
1.0
 50
0.0
 71
         0
 42
0.2
  3
txt.shx
  4

  0
STYLE
  5
246
100
AcDbSymbolTableRecord
100
AcDbTextStyleTableRecord
  2
BOX
 70
         0
 40
1.0
 41
1.0
 50
0.0
 71
         0
 42
0.2
  3
txt.shx
  4

  0
STYLE
  5
255
100
AcDbSymbolTableRecord
100
AcDbTextStyleTableRecord
  2
BOX
 70
         0
 40
1.0
 41
1.0
 50
0.0
 71
         0
 42
0.2
  3
txt.shx
  4

  0
STYLE
  5
270
100
AcDbSymbolTableRecord
100
AcDbTextStyleTableRecord
  2
BOX
 70
         0
 40
1.0
 41
1.0
 50
0.0
 71
         0
 42
0.2
  3
txt.shx
  4

  0
STYLE
  5
285
100
AcDbSymbolTableRecord
100
AcDbTextStyleTableRecord
  2
BOX
 70
         0
 40
1.0
 41
1.0
 50
0.0
 71
         0
 42
0.2
  3
txt.shx
  4

  0
STYLE
  5
28A
100
AcDbSymbolTableRecord
100
AcDbTextStyleTableRecord
  2
STSL
 70
         0
 40
1.0
 41
1.0
 50
0.0
 71
         0
 42
0.2
  3

  4
Stsl
  0
STYLE
  5
294
100
AcDbSymbolTableRecord
100
AcDbTextStyleTableRecord
  2
BOX
 70
         0
 40
1.0
 41
1.0
 50
0.0
 71
         0
 42
0.2
  3
txt.shx
  4

  0
STYLE
  5
2BF
100
AcDbSymbolTableRecord
100
AcDbTextStyleTableRecord
  2
BOX
 70
         0
 40
1.0
 41
1.0
 50
0.0
 71
         0
 42
0.2
  3
txt.shx
  4

  0
STYLE
  5
2CF
100
AcDbSymbolTableRecord
100
AcDbTextStyleTableRecord
  2
BOX
 70
         0
 40
1.0
 41
1.0
 50
0.0
 71
         0
 42
0.2
  3
txt.shx
  4

  0
STYLE
  5
2E2
100
AcDbSymbolTableRecord
100
AcDbTextStyleTableRecord
  2
BOX
 70
         0
 40
1.0
 41
1.0
 50
0.0
 71
         0
 42
0.2
  3
txt.shx
  4

  0
STYLE
  5
2E4
100
AcDbSymbolTableRecord
100
AcDbTextStyleTableRecord
  2
BOX
 70
         0
 40
1.0
 41
1.0
 50
0.0
 71
         0
 42
0.2
  3
txt.shx
  4

  0
STYLE
  5
34E
100
AcDbSymbolTableRecord
100
AcDbTextStyleTableRecord
  2
BOX
 70
         0
 40
1.0
 41
1.0
 50
0.0
 71
         0
 42
0.2
  3
txt.shx
  4

  0
STYLE
  5
350
100
AcDbSymbolTableRecord
100
AcDbTextStyleTableRecord
  2
BOX
 70
         0
 40
1.0
 41
1.0
 50
0.0
 71
         0
 42
0.2
  3
txt.shx
  4

  0
STYLE
  5
35D
100
AcDbSymbolTableRecord
100
AcDbTextStyleTableRecord
  2
BOX
 70
         0
 40
1.0
 41
1.0
 50
0.0
 71
         0
 42
0.2
  3
txt.shx
  4

  0
STYLE
  5
3A0
100
AcDbSymbolTableRecord
100
AcDbTextStyleTableRecord
  2
BOX
 70
         0
 40
1.0
 41
1.0
 50
0.0
 71
         0
 42
0.2
  3
txt.shx
  4

  0
STYLE
  5
3A2
100
AcDbSymbolTableRecord
100
AcDbTextStyleTableRecord
  2
BOX
 70
         0
 40
1.0
 41
1.0
 50
0.0
 71
         0
 42
0.2
  3
txt.shx
  4

  0
ENDTAB
  0
TABLE
  2
VIEW
  5
5
100
AcDbSymbolTable
 70
         0
  0
ENDTAB
  0
TABLE
  2
UCS
  5
6
100
AcDbSymbolTable
 70
         1
  0
UCS
  5
20
100
AcDbSymbolTableRecord
100
AcDbUCSTableRecord
  2
CK_VIEW_1
 70
         0
 10
0.0
 20
0.0
 30
1.0
 11
1.0
 21
0.0
 31
0.0
 12
0.0
 22
1.0
 32
0.0
  0
ENDTAB
  0
TABLE
  2
APPID
  5
8
100
AcDbSymbolTable
 70
         1
  0
APPID
  5
16
100
AcDbSymbolTableRecord
100
AcDbRegAppTableRecord
  2
ACAD
 70
         0
  0
ENDTAB
  0
TABLE
  2
DIMSTYLE
  5
9
100
AcDbSymbolTable
 70
         2
  0
DIMSTYLE
105
18
100
AcDbSymbolTableRecord
100
AcDbDimStyleTableRecord
  2
STANDARD
 70
         0
  3

  4

  5

  6

  7

 40
1.0
 41
0.18
 42
0.0625
 43
0.38
 44
0.18
 45
0.0
 46
0.0
 47
0.0
 48
0.0
 71
         0
 72
         0
 73
         1
 74
         1
 75
         0
 76
         0
 77
         0
 78
         0
140
0.18
141
0.09
142
0.0
143
25.4
144
1.0
145
0.0
146
1.0
147
0.09
170
         0
171
         2
172
         0
173
         0
174
         0
175
         0
176
         0
177
         0
178
         0
270
         2
271
         4
272
         4
273
         2
274
         2
275
         0
280
         0
281
         0
282
         0
283
         1
284
         0
285
         0
286
         0
287
         0
288
         0
340
17
  0
DIMSTYLE
105
2D
100
AcDbSymbolTableRecord
100
AcDbDimStyleTableRecord
  2
DIMSTYLE1
 70
         0
  3

  4

  5

  6

  7

 40
1.0
 41
2.7
 42
0.0625
 43
0.38
 44
2.7
 45
0.0
 46
0.0
 47
0.0
 48
0.0
 71
         0
 72
         0
 73
         1
 74
         1
 75
         0
 76
         0
 77
         0
 78
         0
140
2.7
141
0.09
142
0.0
143
25.4
144
1.0
145
0.0
146
1.0
147
0.09
170
         0
171
         2
172
         0
173
         0
174
         0
175
         0
176
         0
177
         0
178
         0
270
         2
271
         4
272
         4
273
         2
274
         2
275
         0
280
         0
281
         0
282
         0
283
         1
284
         0
285
         0
286
         0
287
         0
288
         0
340
17
  0
ENDTAB
  0
TABLE
  2
BLOCK_RECORD
  5
1
100
AcDbSymbolTable
 70
        42
  0
BLOCK_RECORD
  5
A
100
AcDbSymbolTableRecord
100
AcDbBlockTableRecord
  2
*MODEL_SPACE
  0
BLOCK_RECORD
  5
B
100
AcDbSymbolTableRecord
100
AcDbBlockTableRecord
  2
*PAPER_SPACE
  0
BLOCK_RECORD
  5
2E
100
AcDbSymbolTableRecord
100
AcDbBlockTableRecord
  2
*D0
  0
BLOCK_RECORD
  5
3D
100
AcDbSymbolTableRecord
100
AcDbBlockTableRecord
  2
*D1
  0
BLOCK_RECORD
  5
52
100
AcDbSymbolTableRecord
100
AcDbBlockTableRecord
  2
*X2
  0
BLOCK_RECORD
  5
5F
100
AcDbSymbolTableRecord
100
AcDbBlockTableRecord
  2
*X3
  0
BLOCK_RECORD
  5
6D
100
AcDbSymbolTableRecord
100
AcDbBlockTableRecord
  2
*X4
  0
BLOCK_RECORD
  5
79
100
AcDbSymbolTableRecord
100
AcDbBlockTableRecord
  2
*X5
  0
BLOCK_RECORD
  5
83
100
AcDbSymbolTableRecord
100
AcDbBlockTableRecord
  2
*X6
  0
BLOCK_RECORD
  5
8F
100
AcDbSymbolTableRecord
100
AcDbBlockTableRecord
  2
*X7
  0
BLOCK_RECORD
  5
9A
100
AcDbSymbolTableRecord
100
AcDbBlockTableRecord
  2
*D8
  0
BLOCK_RECORD
  5
B5
100
AcDbSymbolTableRecord
100
AcDbBlockTableRecord
  2
*D9
  0
BLOCK_RECORD
  5
C3
100
AcDbSymbolTableRecord
100
AcDbBlockTableRecord
  2
*D10
  0
BLOCK_RECORD
  5
D1
100
AcDbSymbolTableRecord
100
AcDbBlockTableRecord
  2
*D11
  0
BLOCK_RECORD
  5
EE
100
AcDbSymbolTableRecord
100
AcDbBlockTableRecord
  2
*D12
  0
BLOCK_RECORD
  5
FA
100
AcDbSymbolTableRecord
100
AcDbBlockTableRecord
  2
GENDIML15
  0
BLOCK_RECORD
  5
106
100
AcDbSymbolTableRecord
100
AcDbBlockTableRecord
  2
*D14
  0
BLOCK_RECORD
  5
113
100
AcDbSymbolTableRecord
100
AcDbBlockTableRecord
  2
*X15
  0
BLOCK_RECORD
  5
11E
100
AcDbSymbolTableRecord
100
AcDbBlockTableRecord
  2
*X16
  0
BLOCK_RECORD
  5
127
100
AcDbSymbolTableRecord
100
AcDbBlockTableRecord
  2
*X17
  0
BLOCK_RECORD
  5
134
100
AcDbSymbolTableRecord
100
AcDbBlockTableRecord
  2
*X18
  0
BLOCK_RECORD
  5
13F
100
AcDbSymbolTableRecord
100
AcDbBlockTableRecord
  2
*X19
  0
BLOCK_RECORD
  5
150
100
AcDbSymbolTableRecord
100
AcDbBlockTableRecord
  2
*X20
  0
BLOCK_RECORD
  5
160
100
AcDbSymbolTableRecord
100
AcDbBlockTableRecord
  2
*X21
  0
BLOCK_RECORD
  5
170
100
AcDbSymbolTableRecord
100
AcDbBlockTableRecord
  2
*X22
  0
BLOCK_RECORD
  5
18B
100
AcDbSymbolTableRecord
100
AcDbBlockTableRecord
  2
*D23
  0
BLOCK_RECORD
  5
1AE
100
AcDbSymbolTableRecord
100
AcDbBlockTableRecord
  2
*D24
  0
BLOCK_RECORD
  5
1CB
100
AcDbSymbolTableRecord
100
AcDbBlockTableRecord
  2
*D25
  0
BLOCK_RECORD
  5
1EA
100
AcDbSymbolTableRecord
100
AcDbBlockTableRecord
  2
*D26
  0
BLOCK_RECORD
  5
1FC
100
AcDbSymbolTableRecord
100
AcDbBlockTableRecord
  2
*D27
  0
BLOCK_RECORD
  5
20E
100
AcDbSymbolTableRecord
100
AcDbBlockTableRecord
  2
GENDIML30
  0
BLOCK_RECORD
  5
21A
100
AcDbSymbolTableRecord
100
AcDbBlockTableRecord
  2
*D29
  0
BLOCK_RECORD
  5
22D
100
AcDbSymbolTableRecord
100
AcDbBlockTableRecord
  2
*D30
  0
BLOCK_RECORD
  5
23B
100
AcDbSymbolTableRecord
100
AcDbBlockTableRecord
  2
*D31
  0
BLOCK_RECORD
  5
24E
100
AcDbSymbolTableRecord
100
AcDbBlockTableRecord
  2
GENDIML34
  0
BLOCK_RECORD
  5
269
100
AcDbSymbolTableRecord
100
AcDbBlockTableRecord
  2
GENDIML35
  0
BLOCK_RECORD
  5
27D
100
AcDbSymbolTableRecord
100
AcDbBlockTableRecord
  2
GENDIML36
  0
BLOCK_RECORD
  5
28C
100
AcDbSymbolTableRecord
100
AcDbBlockTableRecord
  2
GENDIML37
  0
BLOCK_RECORD
  5
2B4
100
AcDbSymbolTableRecord
100
AcDbBlockTableRecord
  2
*D36
  0
BLOCK_RECORD
  5
2C2
100
AcDbSymbolTableRecord
100
AcDbBlockTableRecord
  2
*D37
  0
BLOCK_RECORD
  5
352
100
AcDbSymbolTableRecord
100
AcDbBlockTableRecord
  2
*D38
  0
BLOCK_RECORD
  5
360
100
AcDbSymbolTableRecord
100
AcDbBlockTableRecord
  2
*X39
  0
BLOCK_RECORD
  5
3A6
100
AcDbSymbolTableRecord
100
AcDbBlockTableRecord
  2
*X40
  0
BLOCK_RECORD
  5
454
100
AcDbSymbolTableRecord
100
AcDbBlockTableRecord
  2
*X41
  0
ENDTAB
  0
ENDSEC
  0
SECTION
  2
BLOCKS
  0
BLOCK
  5
D
100
AcDbEntity
  8
0
100
AcDbBlockBegin
  2
*MODEL_SPACE
 70
         0
 10
0.0
 20
0.0
 30
0.0
  3
*MODEL_SPACE
  1

  0
ENDBLK
  5
E
100
AcDbEntity
  8
0
100
AcDbBlockEnd
  0
BLOCK
  5
F
100
AcDbEntity
 67
         1
  8
0
100
AcDbBlockBegin
  2
*PAPER_SPACE
 70
         0
 10
0.0
 20
0.0
 30
0.0
  3
*PAPER_SPACE
  1

  0
ENDBLK
  5
10
100
AcDbEntity
 67
         1
  8
0
100
AcDbBlockEnd
  0
BLOCK
  5
2F
100
AcDbEntity
  8
0
100
AcDbBlockBegin
  2
*D0
 70
        65
 10
0.0
 20
0.0
 30
0.0
  3
*D0
  1

  0
POINT
  5
32
100
AcDbEntity
  8
DEFPOINTS
  6
CONTINUOUS
 62
         0
100
AcDbPoint
 10
2622.8767300879
 20
-213.1626928834
 30
0.0
  0
POINT
  5
33
100
AcDbEntity
  8
DEFPOINTS
  6
CONTINUOUS
 62
         0
100
AcDbPoint
 10
2622.8767300879
 20
-300.9896562505
 30
0.0
  0
POINT
  5
34
100
AcDbEntity
  8
DEFPOINTS
  6
CONTINUOUS
 62
         0
100
AcDbPoint
 10
2394.6267300879
 20
-302.629349534
 30
0.0
  0
LINE
  5
35
100
AcDbEntity
  8
____
  6
CONTINUOUS
 62
         4
100
AcDbLine
 10
2622.8767300879
 20
-299.6396562505
 30
0.0
 11
2622.8767300879
 21
-212.4876928834
 31
0.0
  0
LINE
  5
36
100
AcDbEntity
  8
____
  6
CONTINUOUS
 62
         4
100
AcDbLine
 10
2394.6267300879
 20
-301.279349534
 30
0.0
 11
2394.6267300879
 21
-212.4876928834
 31
0.0
  0
LINE
  5
37
100
AcDbEntity
  8
____
  6
CONTINUOUS
 62
         4
100
AcDbLine
 10
2622.8767300879
 20
-213.1626928834
 30
0.0
 11
2394.6267300879
 21
-213.1626928834
 31
0.0
  0
SOLID
  5
38
100
AcDbEntity
  8
____
  6
CONTINUOUS
 62
         4
100
AcDbTrace
 10
2622.8767300879
 20
-213.1626928834
 30
0.0
 11
2620.1767300879
 21
-213.5676928834
 31
0.0
 12
2620.1767300879
 22
-212.7576928834
 32
0.0
 13
2622.8767300879
 23
-213.1626928834
 33
0.0
  0
SOLID
  5
39
100
AcDbEntity
  8
____
  6
CONTINUOUS
 62
         4
100
AcDbTrace
 10
2394.6267300879
 20
-213.1626928834
 30
0.0
 11
2397.3267300879
 21
-212.7576928834
 31
0.0
 12
2397.3267300879
 22
-213.5676928834
 32
0.0
 13
2394.6267300879
 23
-213.1626928834
 33
0.0
  0
TEXT
  5
3B
100
AcDbEntity
  8
____
  6
CONTINUOUS
 62
         4
100
AcDbText
 10
2500.6517300879
 20
-211.1376928834
 30
0.0
 40
2.7
  1
228.25
  7
BOX
100
AcDbText
  0
ENDBLK
  5
3C
100
AcDbEntity
  8
0
  6
CONTINUOUS
100
AcDbBlockEnd
  0
BLOCK
  5
3E
100
AcDbEntity
  8
0
100
AcDbBlockBegin
  2
*D1
 70
        65
 10
0.0
 20
0.0
 30
0.0
  3
*D1
  1

  0
POINT
  5
40
100
AcDbEntity
  8
DEFPOINTS
  6
CONTINUOUS
 62
         0
100
AcDbPoint
 10
2622.8767300879
 20
-220.8698770826
 30
0.0
  0
POINT
  5
41
100
AcDbEntity
  8
DEFPOINTS
  6
CONTINUOUS
 62
         0
100
AcDbPoint
 10
2622.8767300879
 20
-300.9896562505
 30
0.0
  0
POINT
  5
42
100
AcDbEntity
  8
DEFPOINTS
  6
CONTINUOUS
 62
         0
100
AcDbPoint
 10
2463.0267300879
 20
-291.6166562505
 30
0.0
  0
LINE
  5
43
100
AcDbEntity
  8
____
  6
CONTINUOUS
 62
         4
100
AcDbLine
 10
2622.8767300879
 20
-299.6396562505
 30
0.0
 11
2622.8767300879
 21
-220.1948770826
 31
0.0
  0
LINE
  5
44
100
AcDbEntity
  8
____
  6
CONTINUOUS
 62
         4
100
AcDbLine
 10
2463.0267300879
 20
-290.2666562505
 30
0.0
 11
2463.0267300879
 21
-220.1948770826
 31
0.0
  0
LINE
  5
45
100
AcDbEntity
  8
____
  6
CONTINUOUS
 62
         4
100
AcDbLine
 10
2622.8767300879
 20
-220.8698770826
 30
0.0
 11
2463.0267300879
 21
-220.8698770826
 31
0.0
  0
SOLID
  5
46
100
AcDbEntity
  8
____
  6
CONTINUOUS
 62
         4
100
AcDbTrace
 10
2622.8767300879
 20
-220.8698770826
 30
0.0
 11
2620.1767300879
 21
-221.2748770826
 31
0.0
 12
2620.1767300879
 22
-220.4648770826
 32
0.0
 13
2622.8767300879
 23
-220.8698770826
 33
0.0
  0
SOLID
  5
47
100
AcDbEntity
  8
____
  6
CONTINUOUS
 62
         4
100
AcDbTrace
 10
2463.0267300879
 20
-220.8698770826
 30
0.0
 11
2465.7267300879
 21
-220.4648770826
 31
0.0
 12
2465.7267300879
 22
-221.2748770826
 32
0.0
 13
2463.0267300879
 23
-220.8698770826
 33
0.0
  0
TEXT
  5
49
100
AcDbEntity
  8
____
  6
CONTINUOUS
 62
         4
100
AcDbText
 10
2538.9017300879
 20
-218.8448770826
 30
0.0
 40
2.7
  1
160
  7
BOX
100
AcDbText
  0
ENDBLK
  5
4A
100
AcDbEntity
  8
0
  6
CONTINUOUS
100
AcDbBlockEnd
  0
BLOCK
  5
53
100
AcDbEntity
  8
0
100
AcDbBlockBegin
  2
*X2
 70
        65
 10
0.0
 20
0.0
 30
0.0
  3
*X2
  1

  0
LINE
  5
54
100
AcDbEntity
  8
____
  6
CONTINUOUS
 62
         4
100
AcDbLine
 10
2793.3151250834
 20
-302.7166562505
 30
0.0
 11
2793.9310917635
 21
-302.1006895704
 31
0.0
  0
LINE
  5
55
100
AcDbEntity
  8
____
  6
CONTINUOUS
 62
         4
100
AcDbLine
 10
2791.9009115211
 20
-302.7166562505
 30
0.0
 11
2793.9310917635
 21
-300.6864760081
 31
0.0
  0
LINE
  5
56
100
AcDbEntity
  8
____
  6
CONTINUOUS
 62
         4
100
AcDbLine
 10
2790.4866979587
 20
-302.7166562505
 30
0.0
 11
2793.9310917635
 21
-299.2722624457
 31
0.0
  0
LINE
  5
57
100
AcDbEntity
  8
____
  6
CONTINUOUS
 62
         4
100
AcDbLine
 10
2789.9710917635
 20
-301.8180488833
 30
0.0
 11
2793.9310917635
 21
-297.8580488833
 31
0.0
  0
LINE
  5
58
100
AcDbEntity
  8
____
  6
CONTINUOUS
 62
         4
100
AcDbLine
 10
2789.9710917635
 20
-300.4038353209
 30
0.0
 11
2793.9310917635
 21
-296.4438353209
 31
0.0
  0
LINE
  5
59
100
AcDbEntity
  8
____
  6
CONTINUOUS
 62
         4
100
AcDbLine
 10
2789.9710917635
 20
-298.9896217586
 30
0.0
 11
2793.9310917635
 21
-295.0296217586
 31
0.0
  0
LINE
  5
5A
100
AcDbEntity
  8
____
  6
CONTINUOUS
 62
         4
100
AcDbLine
 10
2789.9710917635
 20
-297.5754081962
 30
0.0
 11
2792.7498437092
 21
-294.7966562505
 31
0.0
  0
LINE
  5
5B
100
AcDbEntity
  8
____
  6
CONTINUOUS
 62
         4
100
AcDbLine
 10
2789.9710917635
 20
-296.1611946338
 30
0.0
 11
2791.3356301468
 21
-294.7966562505
 31
0.0
  0
ENDBLK
  5
5C
100
AcDbEntity
  8
0
  6
CONTINUOUS
100
AcDbBlockEnd
  0
BLOCK
  5
60
100
AcDbEntity
  8
0
100
AcDbBlockBegin
  2
*X3
 70
        65
 10
0.0
 20
0.0
 30
0.0
  3
*X3
  1

  0
LINE
  5
61
100
AcDbEntity
  8
____
  6
CONTINUOUS
 62
         4
100
AcDbLine
 10
2797.5577657706
 20
-302.7166562505
 30
0.0
 11
2797.8910917635
 21
-302.3833302575
 31
0.0
  0
LINE
  5
62
100
AcDbEntity
  8
____
  6
CONTINUOUS
 62
         4
100
AcDbLine
 10
2796.1435522082
 20
-302.7166562505
 30
0.0
 11
2797.8910917635
 21
-300.9691166952
 31
0.0
  0
LINE
  5
63
100
AcDbEntity
  8
____
  6
CONTINUOUS
 62
         4
100
AcDbLine
 10
2794.7293386458
 20
-302.7166562505
 30
0.0
 11
2797.8910917635
 21
-299.5549031328
 31
0.0
  0
LINE
  5
64
100
AcDbEntity
  8
____
  6
CONTINUOUS
 62
         4
100
AcDbLine
 10
2793.9310917635
 20
-302.1006895704
 30
0.0
 11
2797.8910917635
 21
-298.1406895704
 31
0.0
  0
LINE
  5
65
100
AcDbEntity
  8
____
  6
CONTINUOUS
 62
         4
100
AcDbLine
 10
2793.9310917635
 20
-300.6864760081
 30
0.0
 11
2797.8910917635
 21
-296.7264760081
 31
0.0
  0
LINE
  5
66
100
AcDbEntity
  8
____
  6
CONTINUOUS
 62
         4
100
AcDbLine
 10
2793.9310917635
 20
-299.2722624457
 30
0.0
 11
2797.8910917635
 21
-295.3122624457
 31
0.0
  0
LINE
  5
67
100
AcDbEntity
  8
____
  6
CONTINUOUS
 62
         4
100
AcDbLine
 10
2793.9310917635
 20
-297.8580488833
 30
0.0
 11
2796.9924843963
 21
-294.7966562505
 31
0.0
  0
LINE
  5
68
100
AcDbEntity
  8
____
  6
CONTINUOUS
 62
         4
100
AcDbLine
 10
2793.9310917635
 20
-296.4438353209
 30
0.0
 11
2795.5782708339
 21
-294.7966562505
 31
0.0
  0
LINE
  5
69
100
AcDbEntity
  8
____
  6
CONTINUOUS
 62
         4
100
AcDbLine
 10
2793.9310917635
 20
-295.0296217586
 30
0.0
 11
2794.1640572716
 21
-294.7966562505
 31
0.0
  0
ENDBLK
  5
6A
100
AcDbEntity
  8
0
  6
CONTINUOUS
100
AcDbBlockEnd
  0
BLOCK
  5
6E
100
AcDbEntity
  8
0
100
AcDbBlockBegin
  2
*X4
 70
        65
 10
0.0
 20
0.0
 30
0.0
  3
*X4
  1

  0
LINE
  5
6F
100
AcDbEntity
  8
____
  6
CONTINUOUS
 62
         4
100
AcDbLine
 10
2797.1462426123
 20
-329.3876663501
 30
0.0
 11
2793.9310917635
 21
-326.1725155013
 31
0.0
  0
LINE
  5
70
100
AcDbEntity
  8
____
  6
CONTINUOUS
 62
         4
100
AcDbLine
 10
2800.3585149681
 20
-328.3572980189
 30
0.0
 11
2793.9310917635
 21
-321.9298748142
 31
0.0
  0
LINE
  5
71
100
AcDbEntity
  8
____
  6
CONTINUOUS
 62
         4
100
AcDbLine
 10
2803.0677194101
 20
-326.8238617737
 30
0.0
 11
2793.9310917635
 21
-317.6872341271
 31
0.0
  0
LINE
  5
72
100
AcDbEntity
  8
____
  6
CONTINUOUS
 62
         4
100
AcDbLine
 10
2805.3531875661
 20
-324.8666892425
 30
0.0
 11
2794.328154574
 21
-313.8416562505
 31
0.0
  0
LINE
  5
73
100
AcDbEntity
  8
____
  6
CONTINUOUS
 62
         4
100
AcDbLine
 10
2807.2339349246
 20
-322.504795914
 30
0.0
 11
2798.5707952611
 21
-313.8416562505
 31
0.0
  0
LINE
  5
74
100
AcDbEntity
  8
____
  6
CONTINUOUS
 62
         4
100
AcDbLine
 10
2808.6816674732
 20
-319.7098877755
 30
0.0
 11
2802.8134359482
 21
-313.8416562505
 31
0.0
  0
LINE
  5
75
100
AcDbEntity
  8
____
  6
CONTINUOUS
 62
         4
100
AcDbLine
 10
2809.6008069115
 20
-316.3863865267
 30
0.0
 11
2807.0560766353
 21
-313.8416562505
 31
0.0
  0
ENDBLK
  5
76
100
AcDbEntity
  8
0
  6
CONTINUOUS
100
AcDbBlockEnd
  0
BLOCK
  5
7A
100
AcDbEntity
  8
0
100
AcDbBlockBegin
  2
*X5
 70
        65
 10
0.0
 20
0.0
 30
0.0
  3
*X5
  1

  0
LINE
  5
7B
100
AcDbEntity
  8
____
  6
CONTINUOUS
 62
         4
100
AcDbLine
 10
2787.7277669687
 20
-328.4544720807
 30
0.0
 11
2779.3182759332
 21
-320.0449810453
 31
0.0
  0
LINE
  5
7C
100
AcDbEntity
  8
____
  6
CONTINUOUS
 62
         4
100
AcDbLine
 10
2793.2165004993
 20
-329.7005649243
 30
0.0
 11
2778.0721830896
 21
-314.5562475146
 31
0.0
  0
LINE
  5
7D
100
AcDbEntity
  8
____
  6
CONTINUOUS
 62
         4
100
AcDbLine
 10
2793.9310917635
 20
-326.1725155013
 30
0.0
 11
2781.6002325126
 21
-313.8416562505
 31
0.0
  0
LINE
  5
7E
100
AcDbEntity
  8
____
  6
CONTINUOUS
 62
         4
100
AcDbLine
 10
2793.9310917635
 20
-321.9298748142
 30
0.0
 11
2785.8428731997
 21
-313.8416562505
 31
0.0
  0
LINE
  5
7F
100
AcDbEntity
  8
____
  6
CONTINUOUS
 62
         4
100
AcDbLine
 10
2793.9310917635
 20
-317.6872341271
 30
0.0
 11
2790.0855138868
 21
-313.8416562505
 31
0.0
  0
ENDBLK
  5
80
100
AcDbEntity
  8
0
  6
CONTINUOUS
100
AcDbBlockEnd
  0
BLOCK
  5
84
100
AcDbEntity
  8
0
100
AcDbBlockBegin
  2
*X6
 70
        65
 10
0.0
 20
0.0
 30
0.0
  3
*X6
  1

  0
LINE
  5
85
100
AcDbEntity
  8
____
  6
CONTINUOUS
 62
         4
100
AcDbLine
 10
2781.6002325126
 20
-313.8416562505
 30
0.0
 11
2778.3850816638
 21
-310.6265054016
 31
0.0
  0
LINE
  5
86
100
AcDbEntity
  8
____
  6
CONTINUOUS
 62
         4
100
AcDbLine
 10
2785.8428731997
 20
-313.8416562505
 30
0.0
 11
2779.4154499951
 21
-307.4142330458
 31
0.0
  0
LINE
  5
87
100
AcDbEntity
  8
____
  6
CONTINUOUS
 62
         4
100
AcDbLine
 10
2790.0855138868
 20
-313.8416562505
 30
0.0
 11
2780.9488862402
 21
-304.7050286039
 31
0.0
  0
LINE
  5
88
100
AcDbEntity
  8
____
  6
CONTINUOUS
 62
         4
100
AcDbLine
 10
2793.9310917635
 20
-313.44459344
 30
0.0
 11
2782.9060587714
 21
-302.4195604479
 31
0.0
  0
LINE
  5
89
100
AcDbEntity
  8
____
  6
CONTINUOUS
 62
         4
100
AcDbLine
 10
2793.9310917635
 20
-309.2019527528
 30
0.0
 11
2785.2679520999
 21
-300.5388130893
 31
0.0
  0
LINE
  5
8A
100
AcDbEntity
  8
____
  6
CONTINUOUS
 62
         4
100
AcDbLine
 10
2793.9310917635
 20
-304.9593120657
 30
0.0
 11
2791.6884359482
 21
-302.7166562505
 31
0.0
  0
LINE
  5
8B
100
AcDbEntity
  8
____
  6
CONTINUOUS
 62
         4
100
AcDbLine
 10
2789.9710917635
 20
-300.9993120657
 30
0.0
 11
2788.0628602385
 21
-299.0910805407
 31
0.0
  0
ENDBLK
  5
8C
100
AcDbEntity
  8
0
  6
CONTINUOUS
100
AcDbBlockEnd
  0
BLOCK
  5
90
100
AcDbEntity
  8
0
100
AcDbBlockBegin
  2
*X7
 70
        65
 10
0.0
 20
0.0
 30
0.0
  3
*X7
  1

  0
LINE
  5
91
100
AcDbEntity
  8
____
  6
CONTINUOUS
 62
         4
100
AcDbLine
 10
2794.328154574
 20
-313.8416562505
 30
0.0
 11
2793.9310917635
 21
-313.44459344
 31
0.0
  0
LINE
  5
92
100
AcDbEntity
  8
____
  6
CONTINUOUS
 62
         4
100
AcDbLine
 10
2798.5707952611
 20
-313.8416562505
 30
0.0
 11
2793.9310917635
 21
-309.2019527528
 31
0.0
  0
LINE
  5
93
100
AcDbEntity
  8
____
  6
CONTINUOUS
 62
         4
100
AcDbLine
 10
2802.8134359482
 20
-313.8416562505
 30
0.0
 11
2793.9310917635
 21
-304.9593120657
 31
0.0
  0
LINE
  5
94
100
AcDbEntity
  8
____
  6
CONTINUOUS
 62
         4
100
AcDbLine
 10
2807.0560766353
 20
-313.8416562505
 30
0.0
 11
2795.9310766353
 21
-302.7166562505
 31
0.0
  0
LINE
  5
95
100
AcDbEntity
  8
____
  6
CONTINUOUS
 62
         4
100
AcDbLine
 10
2809.7282165782
 20
-312.2711555062
 30
0.0
 11
2797.8910917635
 21
-300.4340306915
 31
0.0
  0
LINE
  5
96
100
AcDbEntity
  8
____
  6
CONTINUOUS
 62
         4
100
AcDbLine
 10
2807.7787420505
 20
-306.0790402914
 30
0.0
 11
2801.6937077225
 21
-299.9940059634
 31
0.0
  0
ENDBLK
  5
97
100
AcDbEntity
  8
0
  6
CONTINUOUS
100
AcDbBlockEnd
  0
BLOCK
  5
9B
100
AcDbEntity
  8
0
100
AcDbBlockBegin
  2
*D8
 70
        65
 10
0.0
 20
0.0
 30
0.0
  3
*D8
  1

  0
POINT
  5
9D
100
AcDbEntity
  8
DEFPOINTS
  6
CONTINUOUS
 62
         0
100
AcDbPoint
 10
2774.063815982
 20
-294.7966562505
 30
0.0
  0
POINT
  5
9E
100
AcDbEntity
  8
DEFPOINTS
  6
CONTINUOUS
 62
         0
100
AcDbPoint
 10
2789.9710917635
 20
-294.7966562505
 30
0.0
  0
POINT
  5
9F
100
AcDbEntity
  8
DEFPOINTS
  6
CONTINUOUS
 62
         0
100
AcDbPoint
 10
2793.9310917635
 20
-329.7166562505
 30
0.0
  0
LINE
  5
A0
100
AcDbEntity
  8
____
  6
CONTINUOUS
 62
         4
100
AcDbLine
 10
2788.6210917635
 20
-294.7966562505
 30
0.0
 11
2773.388815982
 21
-294.7966562505
 31
0.0
  0
LINE
  5
A1
100
AcDbEntity
  8
____
  6
CONTINUOUS
 62
         4
100
AcDbLine
 10
2792.5810917635
 20
-329.7166562505
 30
0.0
 11
2773.388815982
 21
-329.7166562505
 31
0.0
  0
LINE
  5
A2
100
AcDbEntity
  8
____
  6
CONTINUOUS
 62
         4
100
AcDbLine
 10
2774.063815982
 20
-294.7966562505
 30
0.0
 11
2774.063815982
 21
-329.7166562505
 31
0.0
  0
SOLID
  5
A3
100
AcDbEntity
  8
____
  6
CONTINUOUS
 62
         4
100
AcDbTrace
 10
2774.063815982
 20
-294.7966562505
 30
0.0
 11
2774.468815982
 21
-297.4966562505
 31
0.0
 12
2773.658815982
 22
-297.4966562505
 32
0.0
 13
2774.063815982
 23
-294.7966562505
 33
0.0
  0
SOLID
  5
A4
100
AcDbEntity
  8
____
  6
CONTINUOUS
 62
         4
100
AcDbTrace
 10
2774.063815982
 20
-329.7166562505
 30
0.0
 11
2773.658815982
 21
-327.0166562505
 31
0.0
 12
2774.468815982
 22
-327.0166562505
 32
0.0
 13
2774.063815982
 23
-329.7166562505
 33
0.0
  0
TEXT
  5
A6
100
AcDbEntity
  8
____
  6
CONTINUOUS
 62
         4
100
AcDbText
 10
2772.038815982
 20
-322.2447113502
 30
0.0
 40
2.7
  1
34.92
 50
90.0
  7
BOX
100
AcDbText
  0
ENDBLK
  5
A7
100
AcDbEntity
  8
0
  6
CONTINUOUS
100
AcDbBlockEnd
  0
BLOCK
  5
B6
100
AcDbEntity
  8
0
100
AcDbBlockBegin
  2
*D9
 70
        65
 10
0.0
 20
0.0
 30
0.0
  3
*D9
  1

  0
POINT
  5
B8
100
AcDbEntity
  8
DEFPOINTS
  6
CONTINUOUS
 62
         0
100
AcDbPoint
 10
2510.3620982519
 20
-485.0680784891
 30
0.0
  0
POINT
  5
B9
100
AcDbEntity
  8
DEFPOINTS
  6
CONTINUOUS
 62
         0
100
AcDbPoint
 10
2510.3620982519
 20
-500.1361186158
 30
0.0
  0
POINT
  5
BA
100
AcDbEntity
  8
DEFPOINTS
  6
CONTINUOUS
 62
         0
100
AcDbPoint
 10
2535.3620982519
 20
-500.1361186158
 30
0.0
  0
LINE
  5
BB
100
AcDbEntity
  8
____
  6
CONTINUOUS
 62
         4
100
AcDbLine
 10
2510.3620982519
 20
-498.7861186158
 30
0.0
 11
2510.3620982519
 21
-484.3930784891
 31
0.0
  0
LINE
  5
BC
100
AcDbEntity
  8
____
  6
CONTINUOUS
 62
         4
100
AcDbLine
 10
2535.3620982519
 20
-498.7861186158
 30
0.0
 11
2535.3620982519
 21
-484.3930784891
 31
0.0
  0
LINE
  5
BD
100
AcDbEntity
  8
____
  6
CONTINUOUS
 62
         4
100
AcDbLine
 10
2510.3620982519
 20
-485.0680784891
 30
0.0
 11
2535.3620982519
 21
-485.0680784891
 31
0.0
  0
SOLID
  5
BE
100
AcDbEntity
  8
____
  6
CONTINUOUS
 62
         4
100
AcDbTrace
 10
2510.3620982519
 20
-485.0680784891
 30
0.0
 11
2513.0620982519
 21
-484.6630784891
 31
0.0
 12
2513.0620982519
 22
-485.4730784891
 32
0.0
 13
2510.3620982519
 23
-485.0680784891
 33
0.0
  0
SOLID
  5
BF
100
AcDbEntity
  8
____
  6
CONTINUOUS
 62
         4
100
AcDbTrace
 10
2535.3620982519
 20
-485.0680784891
 30
0.0
 11
2532.6620982519
 21
-485.4730784891
 31
0.0
 12
2532.6620982519
 22
-484.6630784891
 32
0.0
 13
2535.3620982519
 23
-485.0680784891
 33
0.0
  0
TEXT
  5
C1
100
AcDbEntity
  8
____
  6
CONTINUOUS
 62
         4
100
AcDbText
 10
2517.4620982519
 20
-483.0430784891
 30
0.0
 40
2.7
  1
24.8
  7
BOX
100
AcDbText
  0
ENDBLK
  5
C2
100
AcDbEntity
  8
0
  6
CONTINUOUS
100
AcDbBlockEnd
  0
BLOCK
  5
C4
100
AcDbEntity
  8
0
100
AcDbBlockBegin
  2
*D10
 70
        65
 10
0.0
 20
0.0
 30
0.0
  3
*D10
  1

  0
POINT
  5
C6
100
AcDbEntity
  8
DEFPOINTS
  6
CONTINUOUS
 62
         0
100
AcDbPoint
 10
2477.0009363401
 20
-496.1761186158
 30
0.0
  0
POINT
  5
C7
100
AcDbEntity
  8
DEFPOINTS
  6
CONTINUOUS
 62
         0
100
AcDbPoint
 10
2485.5666734468
 20
-496.1761186158
 30
0.0
  0
POINT
  5
C8
100
AcDbEntity
  8
DEFPOINTS
  6
CONTINUOUS
 62
         0
100
AcDbPoint
 10
2485.5666734468
 20
-504.0961186158
 30
0.0
  0
LINE
  5
C9
100
AcDbEntity
  8
____
  6
CONTINUOUS
 62
         4
100
AcDbLine
 10
2484.2166734468
 20
-496.1761186158
 30
0.0
 11
2476.3259363401
 21
-496.1761186158
 31
0.0
  0
LINE
  5
CA
100
AcDbEntity
  8
____
  6
CONTINUOUS
 62
         4
100
AcDbLine
 10
2484.2166734468
 20
-504.0961186158
 30
0.0
 11
2476.3259363401
 21
-504.0961186158
 31
0.0
  0
LINE
  5
CB
100
AcDbEntity
  8
____
  6
CONTINUOUS
 62
         4
100
AcDbLine
 10
2477.0009363401
 20
-496.1761186158
 30
0.0
 11
2477.0009363401
 21
-504.0961186158
 31
0.0
  0
SOLID
  5
CC
100
AcDbEntity
  8
____
  6
CONTINUOUS
 62
         4
100
AcDbTrace
 10
2477.0009363401
 20
-496.1761186158
 30
0.0
 11
2477.4059363401
 21
-498.8761186158
 31
0.0
 12
2476.5959363401
 22
-498.8761186158
 32
0.0
 13
2477.0009363401
 23
-496.1761186158
 33
0.0
  0
SOLID
  5
CD
100
AcDbEntity
  8
____
  6
CONTINUOUS
 62
         4
100
AcDbTrace
 10
2477.0009363401
 20
-504.0961186158
 30
0.0
 11
2476.5959363401
 21
-501.3961186158
 31
0.0
 12
2477.4059363401
 22
-501.3961186158
 32
0.0
 13
2477.0009363401
 23
-504.0961186158
 33
0.0
  0
TEXT
  5
CF
100
AcDbEntity
  8
____
  6
CONTINUOUS
 62
         4
100
AcDbText
 10
2474.9759363401
 20
-505.5361186158
 30
0.0
 40
2.7
  1
7.92
 50
90.0
  7
BOX
100
AcDbText
  0
ENDBLK
  5
D0
100
AcDbEntity
  8
0
  6
CONTINUOUS
100
AcDbBlockEnd
  0
BLOCK
  5
D2
100
AcDbEntity
  8
0
100
AcDbBlockBegin
  2
*D11
 70
        65
 10
0.0
 20
0.0
 30
0.0
  3
*D11
  1

  0
POINT
  5
D4
100
AcDbEntity
  8
DEFPOINTS
  6
CONTINUOUS
 62
         0
100
AcDbPoint
 10
2492.4866734468
 20
-488.9376641298
 30
0.0
  0
POINT
  5
D5
100
AcDbEntity
  8
DEFPOINTS
  6
CONTINUOUS
 62
         0
100
AcDbPoint
 10
2492.4866734468
 20
-497.1761186158
 30
0.0
  0
POINT
  5
D6
100
AcDbEntity
  8
DEFPOINTS
  6
CONTINUOUS
 62
         0
100
AcDbPoint
 10
2484.5666734468
 20
-497.1761186158
 30
0.0
  0
LINE
  5
D7
100
AcDbEntity
  8
____
  6
CONTINUOUS
 62
         4
100
AcDbLine
 10
2492.4866734468
 20
-495.8261186158
 30
0.0
 11
2492.4866734468
 21
-488.2626641298
 31
0.0
  0
LINE
  5
D8
100
AcDbEntity
  8
____
  6
CONTINUOUS
 62
         4
100
AcDbLine
 10
2484.5666734468
 20
-495.8261186158
 30
0.0
 11
2484.5666734468
 21
-488.2626641298
 31
0.0
  0
LINE
  5
D9
100
AcDbEntity
  8
____
  6
CONTINUOUS
 62
         4
100
AcDbLine
 10
2492.4866734468
 20
-488.9376641298
 30
0.0
 11
2484.5666734468
 21
-488.9376641298
 31
0.0
  0
SOLID
  5
DA
100
AcDbEntity
  8
____
  6
CONTINUOUS
 62
         4
100
AcDbTrace
 10
2492.4866734468
 20
-488.9376641298
 30
0.0
 11
2489.7866734468
 21
-489.3426641298
 31
0.0
 12
2489.7866734468
 22
-488.5326641298
 32
0.0
 13
2492.4866734468
 23
-488.9376641298
 33
0.0
  0
SOLID
  5
DB
100
AcDbEntity
  8
____
  6
CONTINUOUS
 62
         4
100
AcDbTrace
 10
2484.5666734468
 20
-488.9376641298
 30
0.0
 11
2487.2666734468
 21
-488.5326641298
 31
0.0
 12
2487.2666734468
 22
-489.3426641298
 32
0.0
 13
2484.5666734468
 23
-488.9376641298
 33
0.0
  0
TEXT
  5
DD
100
AcDbEntity
  8
____
  6
CONTINUOUS
 62
         4
100
AcDbText
 10
2483.1266734468
 20
-486.9126641298
 30
0.0
 40
2.7
  1
7.92
  7
BOX
100
AcDbText
  0
ENDBLK
  5
DE
100
AcDbEntity
  8
0
  6
CONTINUOUS
100
AcDbBlockEnd
  0
BLOCK
  5
EF
100
AcDbEntity
  8
0
100
AcDbBlockBegin
  2
*D12
 70
        65
 10
0.0
 20
0.0
 30
0.0
  3
*D12
  1

  0
POINT
  5
F1
100
AcDbEntity
  8
DEFPOINTS
  6
CONTINUOUS
 62
         0
100
AcDbPoint
 10
2531.4020982519
 20
-500.1361186158
 30
0.0
  0
POINT
  5
F2
100
AcDbEntity
  8
DEFPOINTS
  6
CONTINUOUS
 62
         0
100
AcDbPoint
 10
2534.2857877425
 20
-502.8501442093
 30
0.0
  0
LINE
  5
F3
100
AcDbEntity
  8
____
  6
CONTINUOUS
 62
         4
100
AcDbLine
 10
2534.2857877425
 20
-502.8501442093
 30
0.0
 11
2531.4020982519
 21
-500.1361186158
 31
0.0
  0
LINE
  5
F4
100
AcDbEntity
  8
____
  6
CONTINUOUS
 62
         4
100
AcDbLine
 10
2534.2857877425
 20
-502.8501442093
 30
0.0
 11
2547.380382179
 21
-515.1743089829
 31
0.0
  0
SOLID
  5
F5
100
AcDbEntity
  8
____
  6
CONTINUOUS
 62
         4
100
AcDbTrace
 10
2534.2857877425
 20
-502.8501442093
 30
0.0
 11
2532.0420650178
 21
-501.2945950025
 31
0.0
 12
2532.5972066164
 22
-500.7047494249
 32
0.0
 13
2534.2857877425
 23
-502.8501442093
 33
0.0
  0
TEXT
  5
F7
100
AcDbEntity
  8
____
  6
CONTINUOUS
 62
         4
100
AcDbText
 10
2537.1196755143
 20
-503.7340059233
 30
0.0
 40
2.7
  1
R3.96
 50
316.7360744411
  7
BOX
100
AcDbText
  0
ENDBLK
  5
F8
100
AcDbEntity
  8
0
  6
CONTINUOUS
100
AcDbBlockEnd
  0
BLOCK
  5
FB
100
AcDbEntity
  8
0
100
AcDbBlockBegin
  2
GENDIML15
 70
        64
 10
0.0
 20
0.0
 30
0.0
  3
GENDIML15
  1

  0
LINE
  5
FC
100
AcDbEntity
  8
____
  6
CONTINUOUS
 62
         4
100
AcDbLine
 10
2786.0835461055
 20
-384.5065021661
 30
0.0
 11
2804.5464995419
 21
-384.5065021661
 31
0.0
  0
LINE
  5
FD
100
AcDbEntity
  8
____
  6
CONTINUOUS
 62
         4
100
AcDbLine
 10
2786.0835461055
 20
-427.0065021661
 30
0.0
 11
2804.5464995419
 21
-427.0065021661
 31
0.0
  0
LINE
  5
FE
100
AcDbEntity
  8
____
  6
CONTINUOUS
 62
         4
100
AcDbLine
 10
2803.8714995419
 20
-384.5065021661
 30
0.0
 11
2803.8714995419
 21
-427.0065021661
 31
0.0
  0
SOLID
  5
FF
100
AcDbEntity
  8
____
  6
CONTINUOUS
 62
         4
100
AcDbTrace
 10
2803.8714995419
 20
-384.5065021661
 30
0.0
 11
2804.2764995419
 21
-387.2065021661
 31
0.0
 12
2803.4664995419
 22
-387.2065021661
 32
0.0
 13
2803.8714995419
 23
-384.5065021661
 33
0.0
  0
SOLID
  5
100
100
AcDbEntity
  8
____
  6
CONTINUOUS
 62
         4
100
AcDbTrace
 10
2803.8714995419
 20
-427.0065021661
 30
0.0
 11
2803.4664995419
 21
-424.3065021661
 31
0.0
 12
2804.2764995419
 22
-424.3065021661
 32
0.0
 13
2803.8714995419
 23
-427.0065021661
 33
0.0
  0
TEXT
  5
102
100
AcDbEntity
  8
____
  6
CONTINUOUS
 62
         4
100
AcDbText
 10
2801.8464995419
 20
-413.8565021661
 30
0.0
 40
2.7
  1
崷42.5
 50
90.0
  7
BOX
100
AcDbText
  0
ENDBLK
  5
103
100
AcDbEntity
  8
0
  6
CONTINUOUS
100
AcDbBlockEnd
  0
BLOCK
  5
107
100
AcDbEntity
  8
0
100
AcDbBlockBegin
  2
*D14
 70
        65
 10
0.0
 20
0.0
 30
0.0
  3
*D14
  1

  0
POINT
  5
109
100
AcDbEntity
  8
DEFPOINTS
  6
CONTINUOUS
 62
         0
100
AcDbPoint
 10
2662.9132848189
 20
-400.3760251514
 30
0.0
  0
POINT
  5
10A
100
AcDbEntity
  8
DEFPOINTS
  6
CONTINUOUS
 62
         0
100
AcDbPoint
 10
2692.7840793911
 20
-411.1369791808
 30
0.0
  0
LINE
  5
10B
100
AcDbEntity
  8
____
  6
CONTINUOUS
 62
         4
100
AcDbLine
 10
2692.7840793911
 20
-411.1369791808
 30
0.0
 11
2677.848682105
 21
-405.7565021661
 31
0.0
  0
SOLID
  5
10C
100
AcDbEntity
  8
____
  6
CONTINUOUS
 62
         4
100
AcDbTrace
 10
2692.7840793911
 20
-411.1369791808
 30
0.0
 11
2690.1066201241
 21
-410.6029034619
 31
0.0
 12
2690.3811515497
 22
-409.8408453956
 32
0.0
 13
2692.7840793911
 23
-411.1369791808
 33
0.0
  0
LINE
  5
10D
100
AcDbEntity
  8
____
  6
CONTINUOUS
 62
         4
100
AcDbLine
 10
2677.848682105
 20
-405.7565021661
 30
0.0
 11
2662.9132848189
 21
-400.3760251514
 31
0.0
  0
SOLID
  5
10E
100
AcDbEntity
  8
____
  6
CONTINUOUS
 62
         4
100
AcDbTrace
 10
2662.9132848189
 20
-400.3760251514
 30
0.0
 11
2665.5907440858
 21
-400.9101008704
 31
0.0
 12
2665.3162126602
 22
-401.6721589366
 32
0.0
 13
2662.9132848189
 23
-400.3760251514
 33
0.0
  0
LINE
  5
10F
100
AcDbEntity
  8
____
  6
CONTINUOUS
 62
         4
100
AcDbLine
 10
2692.7840793911
 20
-411.1369791808
 30
0.0
 11
2681.9036747894
 21
-407.2173133194
 31
0.0
  0
TEXT
  5
111
100
AcDbEntity
  8
____
  6
CONTINUOUS
 62
         4
100
AcDbText
 10
2663.0359539956
 20
-399.1690183583
 30
0.0
 40
2.7
  1
崷31.75
 50
-19.8115563737
  7
BOX
100
AcDbText
  0
ENDBLK
  5
112
100
AcDbEntity
  8
0
  6
CONTINUOUS
100
AcDbBlockEnd
  0
BLOCK
  5
114
100
AcDbEntity
  8
0
100
AcDbBlockBegin
  2
*X15
 70
        65
 10
0.0
 20
0.0
 30
0.0
  3
*X15
  1

  0
LINE
  5
115
100
AcDbEntity
  8
____
  6
CONTINUOUS
 62
         4
100
AcDbLine
 10
2711.2024593666
 20
-427.0055375136
 30
0.0
 11
2712.157581453
 21
-426.0504154272
 31
0.0
  0
LINE
  5
116
100
AcDbEntity
  8
____
  6
CONTINUOUS
 62
         4
100
AcDbLine
 10
2709.8036039571
 20
-426.9901793607
 30
0.0
 11
2712.1585461055
 21
-424.6352372123
 31
0.0
  0
LINE
  5
117
100
AcDbEntity
  8
____
  6
CONTINUOUS
 62
         4
100
AcDbLine
 10
2709.0404753687
 20
-426.3390943868
 30
0.0
 11
2712.1585461055
 21
-423.2210236499
 31
0.0
  0
LINE
  5
118
100
AcDbEntity
  8
____
  6
CONTINUOUS
 62
         4
100
AcDbLine
 10
2708.9835461055
 20
-424.9818100875
 30
0.0
 11
2711.9922000662
 21
-421.9731561268
 31
0.0
  0
LINE
  5
119
100
AcDbEntity
  8
____
  6
CONTINUOUS
 62
         4
100
AcDbLine
 10
2708.9835461055
 20
-423.5675965251
 30
0.0
 11
2710.9116404646
 21
-421.6395021661
 31
0.0
  0
LINE
  5
11A
100
AcDbEntity
  8
____
  6
CONTINUOUS
 62
         4
100
AcDbLine
 10
2708.9835461055
 20
-422.1533829628
 30
0.0
 11
2709.4974269022
 21
-421.6395021661
 31
0.0
  0
ENDBLK
  5
11B
100
AcDbEntity
  8
0
  6
CONTINUOUS
100
AcDbBlockEnd
  0
BLOCK
  5
11F
100
AcDbEntity
  8
0
100
AcDbBlockBegin
  2
*X16
 70
        65
 10
0.0
 20
0.0
 30
0.0
  3
*X16
  1

  0
LINE
  5
120
100
AcDbEntity
  8
____
  6
CONTINUOUS
 62
         4
100
AcDbLine
 10
2711.8905149676
 20
-386.7195021661
 30
0.0
 11
2712.1585461055
 21
-386.4514710282
 31
0.0
  0
LINE
  5
121
100
AcDbEntity
  8
____
  6
CONTINUOUS
 62
         4
100
AcDbLine
 10
2710.4763014052
 20
-386.7195021661
 30
0.0
 11
2712.0793432416
 21
-385.1164603297
 31
0.0
  0
LINE
  5
122
100
AcDbEntity
  8
____
  6
CONTINUOUS
 62
         4
100
AcDbLine
 10
2709.0620878429
 20
-386.7195021661
 30
0.0
 11
2711.2689721829
 21
-384.5126178261
 31
0.0
  0
LINE
  5
123
100
AcDbEntity
  8
____
  6
CONTINUOUS
 62
         4
100
AcDbLine
 10
2708.9922078752
 20
-385.3751685714
 30
0.0
 11
2709.8522125108
 21
-384.5151639358
 31
0.0
  0
ENDBLK
  5
124
100
AcDbEntity
  8
0
  6
CONTINUOUS
100
AcDbBlockEnd
  0
BLOCK
  5
128
100
AcDbEntity
  8
0
100
AcDbBlockBegin
  2
*X17
 70
        65
 10
0.0
 20
0.0
 30
0.0
  3
*X17
  1

  0
LINE
  5
129
100
AcDbEntity
  8
____
  6
CONTINUOUS
 62
         4
100
AcDbLine
 10
2732.3608742805
 20
-427.0065021661
 30
0.0
 11
2733.5085461055
 21
-425.8588303411
 31
0.0
  0
LINE
  5
12A
100
AcDbEntity
  8
____
  6
CONTINUOUS
 62
         4
100
AcDbLine
 10
2730.9466607181
 20
-427.0065021661
 30
0.0
 11
2733.5085461055
 21
-424.4446167787
 31
0.0
  0
LINE
  5
12B
100
AcDbEntity
  8
____
  6
CONTINUOUS
 62
         4
100
AcDbLine
 10
2729.5324471557
 20
-427.0065021661
 30
0.0
 11
2733.5085461055
 21
-423.0304032163
 31
0.0
  0
LINE
  5
12C
100
AcDbEntity
  8
____
  6
CONTINUOUS
 62
         4
100
AcDbLine
 10
2728.1190152434
 20
-427.0057205161
 30
0.0
 11
2733.2468898495
 21
-421.87784591
 31
0.0
  0
LINE
  5
12D
100
AcDbEntity
  8
____
  6
CONTINUOUS
 62
         4
100
AcDbLine
 10
2727.2616925129
 20
-426.4488296843
 30
0.0
 11
2732.071020031
 21
-421.6395021661
 31
0.0
  0
LINE
  5
12E
100
AcDbEntity
  8
____
  6
CONTINUOUS
 62
         4
100
AcDbLine
 10
2727.1585461055
 20
-425.1377625292
 30
0.0
 11
2730.6568064686
 21
-421.6395021661
 31
0.0
  0
LINE
  5
12F
100
AcDbEntity
  8
____
  6
CONTINUOUS
 62
         4
100
AcDbLine
 10
2727.1585461055
 20
-423.7235489668
 30
0.0
 11
2729.2425929062
 21
-421.6395021661
 31
0.0
  0
LINE
  5
130
100
AcDbEntity
  8
____
  6
CONTINUOUS
 62
         4
100
AcDbLine
 10
2727.1585461055
 20
-422.3093354045
 30
0.0
 11
2727.8283793439
 21
-421.6395021661
 31
0.0
  0
ENDBLK
  5
131
100
AcDbEntity
  8
0
  6
CONTINUOUS
100
AcDbBlockEnd
  0
BLOCK
  5
135
100
AcDbEntity
  8
0
100
AcDbBlockBegin
  2
*X18
 70
        65
 10
0.0
 20
0.0
 30
0.0
  3
*X18
  1

  0
LINE
  5
136
100
AcDbEntity
  8
____
  6
CONTINUOUS
 62
         4
100
AcDbLine
 10
2733.049894534
 20
-386.7195021661
 30
0.0
 11
2733.5085461055
 21
-386.2608505946
 31
0.0
  0
LINE
  5
137
100
AcDbEntity
  8
____
  6
CONTINUOUS
 62
         4
100
AcDbLine
 10
2731.6356809717
 20
-386.7195021661
 30
0.0
 11
2733.3649640818
 21
-384.9902190559
 31
0.0
  0
LINE
  5
138
100
AcDbEntity
  8
____
  6
CONTINUOUS
 62
         4
100
AcDbLine
 10
2730.2214674093
 20
-386.7195021661
 30
0.0
 11
2732.4344674093
 21
-384.5065021661
 31
0.0
  0
LINE
  5
139
100
AcDbEntity
  8
____
  6
CONTINUOUS
 62
         4
100
AcDbLine
 10
2728.8072538469
 20
-386.7195021661
 30
0.0
 11
2731.0202538469
 21
-384.5065021661
 31
0.0
  0
LINE
  5
13A
100
AcDbEntity
  8
____
  6
CONTINUOUS
 62
         4
100
AcDbLine
 10
2727.3930402845
 20
-386.7195021661
 30
0.0
 11
2729.6060402845
 21
-384.5065021661
 31
0.0
  0
LINE
  5
13B
100
AcDbEntity
  8
____
  6
CONTINUOUS
 62
         4
100
AcDbLine
 10
2727.1585461055
 20
-385.5397827828
 30
0.0
 11
2728.1918267222
 21
-384.5065021661
 31
0.0
  0
ENDBLK
  5
13C
100
AcDbEntity
  8
0
  6
CONTINUOUS
100
AcDbBlockEnd
  0
BLOCK
  5
140
100
AcDbEntity
  8
0
100
AcDbBlockBegin
  2
*X19
 70
        65
 10
0.0
 20
0.0
 30
0.0
  3
*X19
  1

  0
LINE
  5
141
100
AcDbEntity
  8
____
  6
CONTINUOUS
 62
         4
100
AcDbLine
 10
2784.9020924918
 20
-426.9921958892
 30
0.0
 11
2785.7192398286
 21
-426.1750485524
 31
0.0
  0
LINE
  5
142
100
AcDbEntity
  8
____
  6
CONTINUOUS
 62
         4
100
AcDbLine
 10
2783.4735726525
 20
-427.0065021661
 30
0.0
 11
2785.7335461055
 21
-424.7465287131
 31
0.0
  0
LINE
  5
143
100
AcDbEntity
  8
____
  6
CONTINUOUS
 62
         4
100
AcDbLine
 10
2782.0593590901
 20
-427.0065021661
 30
0.0
 11
2785.7335461055
 21
-423.3323151507
 31
0.0
  0
LINE
  5
144
100
AcDbEntity
  8
____
  6
CONTINUOUS
 62
         4
100
AcDbLine
 10
2780.6451455278
 20
-427.0065021661
 30
0.0
 11
2785.6228458167
 21
-422.0288018772
 31
0.0
  0
LINE
  5
145
100
AcDbEntity
  8
____
  6
CONTINUOUS
 62
         4
100
AcDbLine
 10
2779.2309319654
 20
-427.0065021661
 30
0.0
 11
2784.5979319654
 21
-421.6395021661
 31
0.0
  0
LINE
  5
146
100
AcDbEntity
  8
____
  6
CONTINUOUS
 62
         4
100
AcDbLine
 10
2777.816718403
 20
-427.0065021661
 30
0.0
 11
2783.183718403
 21
-421.6395021661
 31
0.0
  0
LINE
  5
147
100
AcDbEntity
  8
____
  6
CONTINUOUS
 62
         4
100
AcDbLine
 10
2776.4025048407
 20
-427.0065021661
 30
0.0
 11
2781.7695048407
 21
-421.6395021661
 31
0.0
  0
LINE
  5
148
100
AcDbEntity
  8
____
  6
CONTINUOUS
 62
         4
100
AcDbLine
 10
2774.9882912783
 20
-427.0065021661
 30
0.0
 11
2780.3552912783
 21
-421.6395021661
 31
0.0
  0
LINE
  5
149
100
AcDbEntity
  8
____
  6
CONTINUOUS
 62
         4
100
AcDbLine
 10
2773.6503929069
 20
-426.9301869751
 30
0.0
 11
2778.9410777159
 21
-421.6395021661
 31
0.0
  0
LINE
  5
14A
100
AcDbEntity
  8
____
  6
CONTINUOUS
 62
         4
100
AcDbLine
 10
2773.0406745893
 20
-426.1256917304
 30
0.0
 11
2777.5268641535
 21
-421.6395021661
 31
0.0
  0
LINE
  5
14B
100
AcDbEntity
  8
____
  6
CONTINUOUS
 62
         4
100
AcDbLine
 10
2773.0335461055
 20
-424.7186066517
 30
0.0
 11
2776.1126505912
 21
-421.6395021661
 31
0.0
  0
LINE
  5
14C
100
AcDbEntity
  8
____
  6
CONTINUOUS
 62
         4
100
AcDbLine
 10
2773.0335461055
 20
-423.3043930894
 30
0.0
 11
2774.6984370288
 21
-421.6395021661
 31
0.0
  0
ENDBLK
  5
14D
100
AcDbEntity
  8
0
  6
CONTINUOUS
100
AcDbBlockEnd
  0
BLOCK
  5
151
100
AcDbEntity
  8
0
100
AcDbBlockBegin
  2
*X20
 70
        65
 10
0.0
 20
0.0
 30
0.0
  3
*X20
  1

  0
LINE
  5
152
100
AcDbEntity
  8
____
  6
CONTINUOUS
 62
         4
100
AcDbLine
 10
2785.5768064707
 20
-386.7195021661
 30
0.0
 11
2785.7335461055
 21
-386.5627625313
 31
0.0
  0
LINE
  5
153
100
AcDbEntity
  8
____
  6
CONTINUOUS
 62
         4
100
AcDbLine
 10
2784.1625929083
 20
-386.7195021661
 30
0.0
 11
2785.6846044074
 21
-385.1974906671
 31
0.0
  0
LINE
  5
154
100
AcDbEntity
  8
____
  6
CONTINUOUS
 62
         4
100
AcDbLine
 10
2782.7483793459
 20
-386.7195021661
 30
0.0
 11
2784.9398642989
 21
-384.5280172132
 31
0.0
  0
LINE
  5
155
100
AcDbEntity
  8
____
  6
CONTINUOUS
 62
         4
100
AcDbLine
 10
2781.3341657836
 20
-386.7195021661
 30
0.0
 11
2783.5471657836
 21
-384.5065021661
 31
0.0
  0
LINE
  5
156
100
AcDbEntity
  8
____
  6
CONTINUOUS
 62
         4
100
AcDbLine
 10
2779.9199522212
 20
-386.7195021661
 30
0.0
 11
2782.1329522212
 21
-384.5065021661
 31
0.0
  0
LINE
  5
157
100
AcDbEntity
  8
____
  6
CONTINUOUS
 62
         4
100
AcDbLine
 10
2778.5057386588
 20
-386.7195021661
 30
0.0
 11
2780.7187386588
 21
-384.5065021661
 31
0.0
  0
LINE
  5
158
100
AcDbEntity
  8
____
  6
CONTINUOUS
 62
         4
100
AcDbLine
 10
2777.0915250964
 20
-386.7195021661
 30
0.0
 11
2779.3045250964
 21
-384.5065021661
 31
0.0
  0
LINE
  5
159
100
AcDbEntity
  8
____
  6
CONTINUOUS
 62
         4
100
AcDbLine
 10
2775.6773115341
 20
-386.7195021661
 30
0.0
 11
2777.8903115341
 21
-384.5065021661
 31
0.0
  0
LINE
  5
15A
100
AcDbEntity
  8
____
  6
CONTINUOUS
 62
         4
100
AcDbLine
 10
2774.2630979717
 20
-386.7195021661
 30
0.0
 11
2776.4760979717
 21
-384.5065021661
 31
0.0
  0
LINE
  5
15B
100
AcDbEntity
  8
____
  6
CONTINUOUS
 62
         4
100
AcDbLine
 10
2773.0335461055
 20
-386.5348404699
 30
0.0
 11
2775.0618844093
 21
-384.5065021661
 31
0.0
  0
LINE
  5
15C
100
AcDbEntity
  8
____
  6
CONTINUOUS
 62
         4
100
AcDbLine
 10
2773.1997630223
 20
-384.9544099908
 30
0.0
 11
2773.4814539302
 21
-384.6727190829
 31
0.0
  0
ENDBLK
  5
15D
100
AcDbEntity
  8
0
  6
CONTINUOUS
100
AcDbBlockEnd
  0
BLOCK
  5
161
100
AcDbEntity
  8
0
100
AcDbBlockBegin
  2
*X21
 70
        65
 10
0.0
 20
0.0
 30
0.0
  3
*X21
  1

  0
LINE
  5
162
100
AcDbEntity
  8
____
  6
CONTINUOUS
 62
         4
100
AcDbLine
 10
2757.1833402572
 20
-427.9952193715
 30
0.0
 11
2758.0222633109
 21
-427.1562963178
 31
0.0
  0
LINE
  5
163
100
AcDbEntity
  8
____
  6
CONTINUOUS
 62
         4
100
AcDbLine
 10
2755.7578439002
 20
-428.0065021661
 30
0.0
 11
2758.0335461055
 21
-425.7307999607
 31
0.0
  0
LINE
  5
164
100
AcDbEntity
  8
____
  6
CONTINUOUS
 62
         4
100
AcDbLine
 10
2754.3436303378
 20
-428.0065021661
 30
0.0
 11
2758.0335461055
 21
-424.3165863984
 31
0.0
  0
LINE
  5
165
100
AcDbEntity
  8
____
  6
CONTINUOUS
 62
         4
100
AcDbLine
 10
2752.9294167754
 20
-428.0065021661
 30
0.0
 11
2758.0335461055
 21
-422.902372836
 31
0.0
  0
LINE
  5
166
100
AcDbEntity
  8
____
  6
CONTINUOUS
 62
         4
100
AcDbLine
 10
2751.515203213
 20
-428.0065021661
 30
0.0
 11
2757.7078746593
 21
-421.8138307199
 31
0.0
  0
LINE
  5
167
100
AcDbEntity
  8
____
  6
CONTINUOUS
 62
         4
100
AcDbLine
 10
2750.1009896507
 20
-428.0065021661
 30
0.0
 11
2756.4679896507
 21
-421.6395021661
 31
0.0
  0
LINE
  5
168
100
AcDbEntity
  8
____
  6
CONTINUOUS
 62
         4
100
AcDbLine
 10
2748.8961922677
 20
-427.7970859867
 30
0.0
 11
2755.0537760883
 21
-421.6395021661
 31
0.0
  0
LINE
  5
169
100
AcDbEntity
  8
____
  6
CONTINUOUS
 62
         4
100
AcDbLine
 10
2748.5085461055
 20
-426.7705185865
 30
0.0
 11
2753.6395625259
 21
-421.6395021661
 31
0.0
  0
LINE
  5
16A
100
AcDbEntity
  8
____
  6
CONTINUOUS
 62
         4
100
AcDbLine
 10
2748.5085461055
 20
-425.3563050241
 30
0.0
 11
2752.2253489635
 21
-421.6395021661
 31
0.0
  0
LINE
  5
16B
100
AcDbEntity
  8
____
  6
CONTINUOUS
 62
         4
100
AcDbLine
 10
2748.5085461055
 20
-423.9420914618
 30
0.0
 11
2750.8111354012
 21
-421.6395021661
 31
0.0
  0
LINE
  5
16C
100
AcDbEntity
  8
____
  6
CONTINUOUS
 62
         4
100
AcDbLine
 10
2748.5085461055
 20
-422.5278778994
 30
0.0
 11
2749.3969218388
 21
-421.6395021661
 31
0.0
  0
ENDBLK
  5
16D
100
AcDbEntity
  8
0
  6
CONTINUOUS
100
AcDbBlockEnd
  0
BLOCK
  5
171
100
AcDbEntity
  8
0
100
AcDbBlockBegin
  2
*X22
 70
        65
 10
0.0
 20
0.0
 30
0.0
  3
*X22
  1

  0
LINE
  5
172
100
AcDbEntity
  8
____
  6
CONTINUOUS
 62
         4
100
AcDbLine
 10
2757.4468641537
 20
-386.7195021661
 30
0.0
 11
2758.0335461055
 21
-386.1328202143
 31
0.0
  0
LINE
  5
173
100
AcDbEntity
  8
____
  6
CONTINUOUS
 62
         4
100
AcDbLine
 10
2756.0326505913
 20
-386.7195021661
 30
0.0
 11
2758.0335461055
 21
-384.7186066519
 31
0.0
  0
LINE
  5
174
100
AcDbEntity
  8
____
  6
CONTINUOUS
 62
         4
100
AcDbLine
 10
2754.618437029
 20
-386.7195021661
 30
0.0
 11
2757.6323401082
 21
-383.7055990869
 31
0.0
  0
LINE
  5
175
100
AcDbEntity
  8
____
  6
CONTINUOUS
 62
         4
100
AcDbLine
 10
2753.2042234666
 20
-386.7195021661
 30
0.0
 11
2756.4172234666
 21
-383.5065021661
 31
0.0
  0
LINE
  5
176
100
AcDbEntity
  8
____
  6
CONTINUOUS
 62
         4
100
AcDbLine
 10
2751.7900099042
 20
-386.7195021661
 30
0.0
 11
2755.0030099042
 21
-383.5065021661
 31
0.0
  0
LINE
  5
177
100
AcDbEntity
  8
____
  6
CONTINUOUS
 62
         4
100
AcDbLine
 10
2750.3757963418
 20
-386.7195021661
 30
0.0
 11
2753.5887963418
 21
-383.5065021661
 31
0.0
  0
LINE
  5
178
100
AcDbEntity
  8
____
  6
CONTINUOUS
 62
         4
100
AcDbLine
 10
2748.9615827795
 20
-386.7195021661
 30
0.0
 11
2752.1745827795
 21
-383.5065021661
 31
0.0
  0
LINE
  5
179
100
AcDbEntity
  8
____
  6
CONTINUOUS
 62
         4
100
AcDbLine
 10
2748.5085461055
 20
-385.7583252777
 30
0.0
 11
2750.7603692171
 21
-383.5065021661
 31
0.0
  0
LINE
  5
17A
100
AcDbEntity
  8
____
  6
CONTINUOUS
 62
         4
100
AcDbLine
 10
2748.5245952347
 20
-384.3280625862
 30
0.0
 11
2749.3301065256
 21
-383.5225512952
 31
0.0
  0
ENDBLK
  5
17B
100
AcDbEntity
  8
0
  6
CONTINUOUS
100
AcDbBlockEnd
  0
BLOCK
  5
18C
100
AcDbEntity
  8
0
100
AcDbBlockBegin
  2
*D23
 70
        65
 10
0.0
 20
0.0
 30
0.0
  3
*D23
  1

  0
POINT
  5
18E
100
AcDbEntity
  8
DEFPOINTS
  6
CONTINUOUS
 62
         0
100
AcDbPoint
 10
2708.9835461055
 20
-376.4838111424
 30
0.0
  0
POINT
  5
18F
100
AcDbEntity
  8
DEFPOINTS
  6
CONTINUOUS
 62
         0
100
AcDbPoint
 10
2708.9835461055
 20
-383.5065021661
 30
0.0
  0
POINT
  5
190
100
AcDbEntity
  8
DEFPOINTS
  6
CONTINUOUS
 62
         0
100
AcDbPoint
 10
2712.1585461055
 20
-383.5065021661
 30
0.0
  0
LINE
  5
191
100
AcDbEntity
  8
____
  6
CONTINUOUS
 62
         4
100
AcDbLine
 10
2708.9835461055
 20
-382.1565021661
 30
0.0
 11
2708.9835461055
 21
-375.8088111424
 31
0.0
  0
LINE
  5
192
100
AcDbEntity
  8
____
  6
CONTINUOUS
 62
         4
100
AcDbLine
 10
2712.1585461055
 20
-382.1565021661
 30
0.0
 11
2712.1585461055
 21
-375.8088111424
 31
0.0
  0
LINE
  5
193
100
AcDbEntity
  8
____
  6
CONTINUOUS
 62
         4
100
AcDbLine
 10
2708.9835461055
 20
-376.4838111424
 30
0.0
 11
2712.1585461055
 21
-376.4838111424
 31
0.0
  0
SOLID
  5
194
100
AcDbEntity
  8
____
  6
CONTINUOUS
 62
         4
100
AcDbTrace
 10
2708.9835461055
 20
-376.4838111424
 30
0.0
 11
2711.6835461055
 21
-376.0788111424
 31
0.0
 12
2711.6835461055
 22
-376.8888111424
 32
0.0
 13
2708.9835461055
 23
-376.4838111424
 33
0.0
  0
SOLID
  5
195
100
AcDbEntity
  8
____
  6
CONTINUOUS
 62
         4
100
AcDbTrace
 10
2712.1585461055
 20
-376.4838111424
 30
0.0
 11
2709.4585461055
 21
-376.8888111424
 31
0.0
 12
2709.4585461055
 22
-376.0788111424
 32
0.0
 13
2712.1585461055
 23
-376.4838111424
 33
0.0
  0
TEXT
  5
197
100
AcDbEntity
  8
____
  6
CONTINUOUS
 62
         4
100
AcDbText
 10
2705.1710461055
 20
-374.4588111424
 30
0.0
 40
2.7
  1
3.18
  7
BOX
100
AcDbText
  0
ENDBLK
  5
198
100
AcDbEntity
  8
0
  6
CONTINUOUS
100
AcDbBlockEnd
  0
BLOCK
  5
1AF
100
AcDbEntity
  8
0
100
AcDbBlockBegin
  2
*D24
 70
        65
 10
0.0
 20
0.0
 30
0.0
  3
*D24
  1

  0
POINT
  5
1B1
100
AcDbEntity
  8
DEFPOINTS
  6
CONTINUOUS
 62
         0
100
AcDbPoint
 10
2727.1585461055
 20
-376.3796156029
 30
0.0
  0
POINT
  5
1B2
100
AcDbEntity
  8
DEFPOINTS
  6
CONTINUOUS
 62
         0
100
AcDbPoint
 10
2727.1585461055
 20
-383.5065021661
 30
0.0
  0
POINT
  5
1B3
100
AcDbEntity
  8
DEFPOINTS
  6
CONTINUOUS
 62
         0
100
AcDbPoint
 10
2733.5085461055
 20
-383.5065021661
 30
0.0
  0
LINE
  5
1B4
100
AcDbEntity
  8
____
  6
CONTINUOUS
 62
         4
100
AcDbLine
 10
2727.1585461055
 20
-382.1565021661
 30
0.0
 11
2727.1585461055
 21
-375.7046156029
 31
0.0
  0
LINE
  5
1B5
100
AcDbEntity
  8
____
  6
CONTINUOUS
 62
         4
100
AcDbLine
 10
2733.5085461055
 20
-382.1565021661
 30
0.0
 11
2733.5085461055
 21
-375.7046156029
 31
0.0
  0
LINE
  5
1B6
100
AcDbEntity
  8
____
  6
CONTINUOUS
 62
         4
100
AcDbLine
 10
2727.1585461055
 20
-376.3796156029
 30
0.0
 11
2733.5085461055
 21
-376.3796156029
 31
0.0
  0
SOLID
  5
1B7
100
AcDbEntity
  8
____
  6
CONTINUOUS
 62
         4
100
AcDbTrace
 10
2727.1585461055
 20
-376.3796156029
 30
0.0
 11
2729.8585461055
 21
-375.9746156029
 31
0.0
 12
2729.8585461055
 22
-376.7846156029
 32
0.0
 13
2727.1585461055
 23
-376.3796156029
 33
0.0
  0
SOLID
  5
1B8
100
AcDbEntity
  8
____
  6
CONTINUOUS
 62
         4
100
AcDbTrace
 10
2733.5085461055
 20
-376.3796156029
 30
0.0
 11
2730.8085461055
 21
-376.7846156029
 31
0.0
 12
2730.8085461055
 22
-375.9746156029
 32
0.0
 13
2733.5085461055
 23
-376.3796156029
 33
0.0
  0
TEXT
  5
1BA
100
AcDbEntity
  8
____
  6
CONTINUOUS
 62
         4
100
AcDbText
 10
2724.9335461055
 20
-374.3546156029
 30
0.0
 40
2.7
  1
6.35
  7
BOX
100
AcDbText
  0
ENDBLK
  5
1BB
100
AcDbEntity
  8
0
  6
CONTINUOUS
100
AcDbBlockEnd
  0
BLOCK
  5
1CC
100
AcDbEntity
  8
0
100
AcDbBlockBegin
  2
*D25
 70
        65
 10
0.0
 20
0.0
 30
0.0
  3
*D25
  1

  0
POINT
  5
1CE
100
AcDbEntity
  8
DEFPOINTS
  6
CONTINUOUS
 62
         0
100
AcDbPoint
 10
2773.0335461055
 20
-375.6129655277
 30
0.0
  0
POINT
  5
1CF
100
AcDbEntity
  8
DEFPOINTS
  6
CONTINUOUS
 62
         0
100
AcDbPoint
 10
2773.0335461055
 20
-383.5065021661
 30
0.0
  0
POINT
  5
1D0
100
AcDbEntity
  8
DEFPOINTS
  6
CONTINUOUS
 62
         0
100
AcDbPoint
 10
2785.7335461055
 20
-383.5065021661
 30
0.0
  0
LINE
  5
1D1
100
AcDbEntity
  8
____
  6
CONTINUOUS
 62
         4
100
AcDbLine
 10
2773.0335461055
 20
-382.1565021661
 30
0.0
 11
2773.0335461055
 21
-374.9379655277
 31
0.0
  0
LINE
  5
1D2
100
AcDbEntity
  8
____
  6
CONTINUOUS
 62
         4
100
AcDbLine
 10
2785.7335461055
 20
-382.1565021661
 30
0.0
 11
2785.7335461055
 21
-374.9379655277
 31
0.0
  0
LINE
  5
1D3
100
AcDbEntity
  8
____
  6
CONTINUOUS
 62
         4
100
AcDbLine
 10
2773.0335461055
 20
-375.6129655277
 30
0.0
 11
2785.7335461055
 21
-375.6129655277
 31
0.0
  0
SOLID
  5
1D4
100
AcDbEntity
  8
____
  6
CONTINUOUS
 62
         4
100
AcDbTrace
 10
2773.0335461055
 20
-375.6129655277
 30
0.0
 11
2775.7335461055
 21
-375.2079655277
 31
0.0
 12
2775.7335461055
 22
-376.0179655277
 32
0.0
 13
2773.0335461055
 23
-375.6129655277
 33
0.0
  0
SOLID
  5
1D5
100
AcDbEntity
  8
____
  6
CONTINUOUS
 62
         4
100
AcDbTrace
 10
2785.7335461055
 20
-375.6129655277
 30
0.0
 11
2783.0335461055
 21
-376.0179655277
 31
0.0
 12
2783.0335461055
 22
-375.2079655277
 32
0.0
 13
2785.7335461055
 23
-375.6129655277
 33
0.0
  0
TEXT
  5
1D7
100
AcDbEntity
  8
____
  6
CONTINUOUS
 62
         4
100
AcDbText
 10
2773.9835461055
 20
-373.5879655277
 30
0.0
 40
2.7
  1
12.7
  7
BOX
100
AcDbText
  0
ENDBLK
  5
1D8
100
AcDbEntity
  8
0
  6
CONTINUOUS
100
AcDbBlockEnd
  0
BLOCK
  5
1EB
100
AcDbEntity
  8
0
100
AcDbBlockBegin
  2
*D26
 70
        65
 10
0.0
 20
0.0
 30
0.0
  3
*D26
  1

  0
POINT
  5
1ED
100
AcDbEntity
  8
DEFPOINTS
  6
CONTINUOUS
 62
         0
100
AcDbPoint
 10
2748.5085461055
 20
-376.1240655779
 30
0.0
  0
POINT
  5
1EE
100
AcDbEntity
  8
DEFPOINTS
  6
CONTINUOUS
 62
         0
100
AcDbPoint
 10
2748.5085461055
 20
-383.5065021661
 30
0.0
  0
POINT
  5
1EF
100
AcDbEntity
  8
DEFPOINTS
  6
CONTINUOUS
 62
         0
100
AcDbPoint
 10
2758.0335461055
 20
-383.5065021661
 30
0.0
  0
LINE
  5
1F0
100
AcDbEntity
  8
____
  6
CONTINUOUS
 62
         4
100
AcDbLine
 10
2748.5085461055
 20
-382.1565021661
 30
0.0
 11
2748.5085461055
 21
-375.4490655779
 31
0.0
  0
LINE
  5
1F1
100
AcDbEntity
  8
____
  6
CONTINUOUS
 62
         4
100
AcDbLine
 10
2758.0335461055
 20
-382.1565021661
 30
0.0
 11
2758.0335461055
 21
-375.4490655779
 31
0.0
  0
LINE
  5
1F2
100
AcDbEntity
  8
____
  6
CONTINUOUS
 62
         4
100
AcDbLine
 10
2748.5085461055
 20
-376.1240655779
 30
0.0
 11
2758.0335461055
 21
-376.1240655779
 31
0.0
  0
SOLID
  5
1F3
100
AcDbEntity
  8
____
  6
CONTINUOUS
 62
         4
100
AcDbTrace
 10
2748.5085461055
 20
-376.1240655779
 30
0.0
 11
2751.2085461055
 21
-375.7190655779
 31
0.0
 12
2751.2085461055
 22
-376.5290655779
 32
0.0
 13
2748.5085461055
 23
-376.1240655779
 33
0.0
  0
SOLID
  5
1F4
100
AcDbEntity
  8
____
  6
CONTINUOUS
 62
         4
100
AcDbTrace
 10
2758.0335461055
 20
-376.1240655779
 30
0.0
 11
2755.3335461055
 21
-376.5290655779
 31
0.0
 12
2755.3335461055
 22
-375.7190655779
 32
0.0
 13
2758.0335461055
 23
-376.1240655779
 33
0.0
  0
TEXT
  5
1F6
100
AcDbEntity
  8
____
  6
CONTINUOUS
 62
         4
100
AcDbText
 10
2747.8710461055
 20
-374.0990655779
 30
0.0
 40
2.7
  1
9.53
  7
BOX
100
AcDbText
  0
ENDBLK
  5
1F7
100
AcDbEntity
  8
0
  6
CONTINUOUS
100
AcDbBlockEnd
  0
BLOCK
  5
1FD
100
AcDbEntity
  8
0
100
AcDbBlockBegin
  2
*D27
 70
        65
 10
0.0
 20
0.0
 30
0.0
  3
*D27
  1

  0
POINT
  5
1FF
100
AcDbEntity
  8
DEFPOINTS
  6
CONTINUOUS
 62
         0
100
AcDbPoint
 10
2681.808682105
 20
-376.9472559744
 30
0.0
  0
POINT
  5
200
100
AcDbEntity
  8
DEFPOINTS
  6
CONTINUOUS
 62
         0
100
AcDbPoint
 10
2681.808682105
 20
-386.7195021661
 30
0.0
  0
POINT
  5
201
100
AcDbEntity
  8
DEFPOINTS
  6
CONTINUOUS
 62
         0
100
AcDbPoint
 10
2673.888682105
 20
-386.7195021661
 30
0.0
  0
LINE
  5
202
100
AcDbEntity
  8
____
  6
CONTINUOUS
 62
         4
100
AcDbLine
 10
2681.808682105
 20
-385.3695021661
 30
0.0
 11
2681.808682105
 21
-376.2722559744
 31
0.0
  0
LINE
  5
203
100
AcDbEntity
  8
____
  6
CONTINUOUS
 62
         4
100
AcDbLine
 10
2673.888682105
 20
-385.3695021661
 30
0.0
 11
2673.888682105
 21
-376.2722559744
 31
0.0
  0
LINE
  5
204
100
AcDbEntity
  8
____
  6
CONTINUOUS
 62
         4
100
AcDbLine
 10
2681.808682105
 20
-376.9472559744
 30
0.0
 11
2673.888682105
 21
-376.9472559744
 31
0.0
  0
SOLID
  5
205
100
AcDbEntity
  8
____
  6
CONTINUOUS
 62
         4
100
AcDbTrace
 10
2681.808682105
 20
-376.9472559744
 30
0.0
 11
2679.108682105
 21
-377.3522559744
 31
0.0
 12
2679.108682105
 22
-376.5422559744
 32
0.0
 13
2681.808682105
 23
-376.9472559744
 33
0.0
  0
SOLID
  5
206
100
AcDbEntity
  8
____
  6
CONTINUOUS
 62
         4
100
AcDbTrace
 10
2673.888682105
 20
-376.9472559744
 30
0.0
 11
2676.588682105
 21
-376.5422559744
 31
0.0
 12
2676.588682105
 22
-377.3522559744
 32
0.0
 13
2673.888682105
 23
-376.9472559744
 33
0.0
  0
TEXT
  5
208
100
AcDbEntity
  8
____
  6
CONTINUOUS
 62
         4
100
AcDbText
 10
2672.448682105
 20
-374.9222559744
 30
0.0
 40
2.7
  1
7.92
  7
BOX
100
AcDbText
  0
ENDBLK
  5
209
100
AcDbEntity
  8
0
  6
CONTINUOUS
100
AcDbBlockEnd
  0
BLOCK
  5
20F
100
AcDbEntity
  8
0
100
AcDbBlockBegin
  2
GENDIML30
 70
        64
 10
0.0
 20
0.0
 30
0.0
  3
GENDIML30
  1

  0
LINE
  5
210
100
AcDbEntity
  8
____
  6
CONTINUOUS
 62
         4
100
AcDbLine
 10
2676.498682105
 20
-386.7115021661
 30
0.0
 11
2649.004738468
 21
-386.7115021661
 31
0.0
  0
LINE
  5
211
100
AcDbEntity
  8
____
  6
CONTINUOUS
 62
         4
100
AcDbLine
 10
2676.498682105
 20
-421.6315021661
 30
0.0
 11
2649.004738468
 21
-421.6315021661
 31
0.0
  0
LINE
  5
212
100
AcDbEntity
  8
____
  6
CONTINUOUS
 62
         4
100
AcDbLine
 10
2649.679738468
 20
-386.7115021661
 30
0.0
 11
2649.679738468
 21
-421.6315021661
 31
0.0
  0
SOLID
  5
213
100
AcDbEntity
  8
____
  6
CONTINUOUS
 62
         4
100
AcDbTrace
 10
2649.679738468
 20
-386.7115021661
 30
0.0
 11
2650.084738468
 21
-389.4115021661
 31
0.0
 12
2649.274738468
 22
-389.4115021661
 32
0.0
 13
2649.679738468
 23
-386.7115021661
 33
0.0
  0
SOLID
  5
214
100
AcDbEntity
  8
____
  6
CONTINUOUS
 62
         4
100
AcDbTrace
 10
2649.679738468
 20
-421.6315021661
 30
0.0
 11
2649.274738468
 21
-418.9315021661
 31
0.0
 12
2650.084738468
 22
-418.9315021661
 32
0.0
 13
2649.679738468
 23
-421.6315021661
 33
0.0
  0
TEXT
  5
216
100
AcDbEntity
  8
____
  6
CONTINUOUS
 62
         4
100
AcDbText
 10
2647.654738468
 20
-413.6215021661
 30
0.0
 40
2.7
  1
崷34.92
 50
90.0
  7
BOX
100
AcDbText
  0
ENDBLK
  5
217
100
AcDbEntity
  8
0
  6
CONTINUOUS
100
AcDbBlockEnd
  0
BLOCK
  5
21B
100
AcDbEntity
  8
0
100
AcDbBlockBegin
  2
*D29
 70
        65
 10
0.0
 20
0.0
 30
0.0
  3
*D29
  1

  0
POINT
  5
21D
100
AcDbEntity
  8
DEFPOINTS
  6
CONTINUOUS
 62
         0
100
AcDbPoint
 10
2753.3115782493
 20
-441.5836427893
 30
0.0
  0
POINT
  5
21E
100
AcDbEntity
  8
DEFPOINTS
  6
CONTINUOUS
 62
         0
100
AcDbPoint
 10
2753.3115782493
 20
-463.7589814807
 30
0.0
  0
POINT
  5
21F
100
AcDbEntity
  8
DEFPOINTS
  6
CONTINUOUS
 62
         0
100
AcDbPoint
 10
2712.8115782493
 20
-463.7589814807
 30
0.0
  0
LINE
  5
220
100
AcDbEntity
  8
____
  6
CONTINUOUS
 62
         4
100
AcDbLine
 10
2753.3115782493
 20
-462.4089814807
 30
0.0
 11
2753.3115782493
 21
-440.9086427893
 31
0.0
  0
LINE
  5
221
100
AcDbEntity
  8
____
  6
CONTINUOUS
 62
         4
100
AcDbLine
 10
2712.8115782493
 20
-462.4089814807
 30
0.0
 11
2712.8115782493
 21
-440.9086427893
 31
0.0
  0
LINE
  5
222
100
AcDbEntity
  8
____
  6
CONTINUOUS
 62
         4
100
AcDbLine
 10
2753.3115782493
 20
-441.5836427893
 30
0.0
 11
2712.8115782493
 21
-441.5836427893
 31
0.0
  0
SOLID
  5
223
100
AcDbEntity
  8
____
  6
CONTINUOUS
 62
         4
100
AcDbTrace
 10
2753.3115782493
 20
-441.5836427893
 30
0.0
 11
2750.6115782493
 21
-441.9886427893
 31
0.0
 12
2750.6115782493
 22
-441.1786427893
 32
0.0
 13
2753.3115782493
 23
-441.5836427893
 33
0.0
  0
SOLID
  5
224
100
AcDbEntity
  8
____
  6
CONTINUOUS
 62
         4
100
AcDbTrace
 10
2712.8115782493
 20
-441.5836427893
 30
0.0
 11
2715.5115782493
 21
-441.1786427893
 31
0.0
 12
2715.5115782493
 22
-441.9886427893
 32
0.0
 13
2712.8115782493
 23
-441.5836427893
 33
0.0
  0
TEXT
  5
226
100
AcDbEntity
  8
____
  6
CONTINUOUS
 62
         4
100
AcDbText
 10
2727.6615782493
 20
-439.5586427893
 30
0.0
 40
2.7
  1
40.5
  7
BOX
100
AcDbText
  0
ENDBLK
  5
227
100
AcDbEntity
  8
0
  6
CONTINUOUS
100
AcDbBlockEnd
  0
BLOCK
  5
22E
100
AcDbEntity
  8
0
100
AcDbBlockBegin
  2
*D30
 70
        65
 10
0.0
 20
0.0
 30
0.0
  3
*D30
  1

  0
POINT
  5
230
100
AcDbEntity
  8
DEFPOINTS
  6
CONTINUOUS
 62
         0
100
AcDbPoint
 10
2674.4429721879
 20
-442.6082251941
 30
0.0
  0
POINT
  5
231
100
AcDbEntity
  8
DEFPOINTS
  6
CONTINUOUS
 62
         0
100
AcDbPoint
 10
2674.4429721879
 20
-457.478525938
 30
0.0
  0
POINT
  5
232
100
AcDbEntity
  8
DEFPOINTS
  6
CONTINUOUS
 62
         0
100
AcDbPoint
 10
2683.9429721879
 20
-463.5976944184
 30
0.0
  0
LINE
  5
233
100
AcDbEntity
  8
____
  6
CONTINUOUS
 62
         4
100
AcDbLine
 10
2674.4429721879
 20
-456.128525938
 30
0.0
 11
2674.4429721879
 21
-441.9332251941
 31
0.0
  0
LINE
  5
234
100
AcDbEntity
  8
____
  6
CONTINUOUS
 62
         4
100
AcDbLine
 10
2683.9429721879
 20
-462.2476944184
 30
0.0
 11
2683.9429721879
 21
-441.9332251941
 31
0.0
  0
LINE
  5
235
100
AcDbEntity
  8
____
  6
CONTINUOUS
 62
         4
100
AcDbLine
 10
2674.4429721879
 20
-442.6082251941
 30
0.0
 11
2683.9429721879
 21
-442.6082251941
 31
0.0
  0
SOLID
  5
236
100
AcDbEntity
  8
____
  6
CONTINUOUS
 62
         4
100
AcDbTrace
 10
2674.4429721879
 20
-442.6082251941
 30
0.0
 11
2677.1429721879
 21
-442.2032251941
 31
0.0
 12
2677.1429721879
 22
-443.0132251941
 32
0.0
 13
2674.4429721879
 23
-442.6082251941
 33
0.0
  0
SOLID
  5
237
100
AcDbEntity
  8
____
  6
CONTINUOUS
 62
         4
100
AcDbTrace
 10
2683.9429721879
 20
-442.6082251941
 30
0.0
 11
2681.2429721879
 21
-443.0132251941
 31
0.0
 12
2681.2429721879
 22
-442.2032251941
 32
0.0
 13
2683.9429721879
 23
-442.6082251941
 33
0.0
  0
TEXT
  5
239
100
AcDbEntity
  8
____
  6
CONTINUOUS
 62
         4
100
AcDbText
 10
2675.1429721879
 20
-440.5832251941
 30
0.0
 40
2.7
  1
9.5
  7
BOX
100
AcDbText
  0
ENDBLK
  5
23A
100
AcDbEntity
  8
0
  6
CONTINUOUS
100
AcDbBlockEnd
  0
BLOCK
  5
23C
100
AcDbEntity
  8
0
100
AcDbBlockBegin
  2
*D31
 70
        65
 10
0.0
 20
0.0
 30
0.0
  3
*D31
  1

  0
POINT
  5
23E
100
AcDbEntity
  8
DEFPOINTS
  6
CONTINUOUS
 62
         0
100
AcDbPoint
 10
2674.4429721879
 20
-503.673336523
 30
0.0
  0
POINT
  5
23F
100
AcDbEntity
  8
DEFPOINTS
  6
CONTINUOUS
 62
         0
100
AcDbPoint
 10
2674.4429721879
 20
-495.978525938
 30
0.0
  0
POINT
  5
240
100
AcDbEntity
  8
DEFPOINTS
  6
CONTINUOUS
 62
         0
100
AcDbPoint
 10
2700.4429721879
 20
-495.978525938
 30
0.0
  0
LINE
  5
241
100
AcDbEntity
  8
____
  6
CONTINUOUS
 62
         4
100
AcDbLine
 10
2674.4429721879
 20
-497.328525938
 30
0.0
 11
2674.4429721879
 21
-504.348336523
 31
0.0
  0
LINE
  5
242
100
AcDbEntity
  8
____
  6
CONTINUOUS
 62
         4
100
AcDbLine
 10
2700.4429721879
 20
-497.328525938
 30
0.0
 11
2700.4429721879
 21
-504.348336523
 31
0.0
  0
LINE
  5
243
100
AcDbEntity
  8
____
  6
CONTINUOUS
 62
         4
100
AcDbLine
 10
2674.4429721879
 20
-503.673336523
 30
0.0
 11
2700.4429721879
 21
-503.673336523
 31
0.0
  0
SOLID
  5
244
100
AcDbEntity
  8
____
  6
CONTINUOUS
 62
         4
100
AcDbTrace
 10
2674.4429721879
 20
-503.673336523
 30
0.0
 11
2677.1429721879
 21
-503.268336523
 31
0.0
 12
2677.1429721879
 22
-504.078336523
 32
0.0
 13
2674.4429721879
 23
-503.673336523
 33
0.0
  0
SOLID
  5
245
100
AcDbEntity
  8
____
  6
CONTINUOUS
 62
         4
100
AcDbTrace
 10
2700.4429721879
 20
-503.673336523
 30
0.0
 11
2697.7429721879
 21
-504.078336523
 31
0.0
 12
2697.7429721879
 22
-503.268336523
 32
0.0
 13
2700.4429721879
 23
-503.673336523
 33
0.0
  0
TEXT
  5
247
100
AcDbEntity
  8
____
  6
CONTINUOUS
 62
         4
100
AcDbText
 10
2684.7429721879
 20
-501.648336523
 30
0.0
 40
2.7
  1
26
  7
BOX
100
AcDbText
  0
ENDBLK
  5
248
100
AcDbEntity
  8
0
  6
CONTINUOUS
100
AcDbBlockEnd
  0
BLOCK
  5
24F
100
AcDbEntity
  8
0
100
AcDbBlockBegin
  2
GENDIML34
 70
        64
 10
0.0
 20
0.0
 30
0.0
  3
GENDIML34
  1

  0
LINE
  5
250
100
AcDbEntity
  8
____
  6
CONTINUOUS
 62
         4
100
AcDbLine
 10
2674.5929721879
 20
-450.728525938
 30
0.0
 11
2667.4869150797
 21
-450.728525938
 31
0.0
  0
LINE
  5
251
100
AcDbEntity
  8
____
  6
CONTINUOUS
 62
         4
100
AcDbLine
 10
2674.5929721879
 20
-495.228525938
 30
0.0
 11
2667.4869150797
 21
-495.228525938
 31
0.0
  0
LINE
  5
252
100
AcDbEntity
  8
____
  6
CONTINUOUS
 62
         4
100
AcDbLine
 10
2668.1619150797
 20
-450.728525938
 30
0.0
 11
2668.1619150797
 21
-495.228525938
 31
0.0
  0
SOLID
  5
253
100
AcDbEntity
  8
____
  6
CONTINUOUS
 62
         4
100
AcDbTrace
 10
2668.1619150797
 20
-450.728525938
 30
0.0
 11
2668.5669150797
 21
-453.428525938
 31
0.0
 12
2667.7569150797
 22
-453.428525938
 32
0.0
 13
2668.1619150797
 23
-450.728525938
 33
0.0
  0
SOLID
  5
254
100
AcDbEntity
  8
____
  6
CONTINUOUS
 62
         4
100
AcDbTrace
 10
2668.1619150797
 20
-495.228525938
 30
0.0
 11
2667.7569150797
 21
-492.528525938
 31
0.0
 12
2668.5669150797
 22
-492.528525938
 32
0.0
 13
2668.1619150797
 23
-495.228525938
 33
0.0
  0
TEXT
  5
256
100
AcDbEntity
  8
____
  6
CONTINUOUS
 62
         4
100
AcDbText
 10
2666.1369150797
 20
-481.078525938
 30
0.0
 40
2.7
  1
崷44.5
 50
90.0
  7
BOX
100
AcDbText
  0
ENDBLK
  5
257
100
AcDbEntity
  8
0
  6
CONTINUOUS
100
AcDbBlockEnd
  0
BLOCK
  5
26A
100
AcDbEntity
  8
0
100
AcDbBlockBegin
  2
GENDIML35
 70
        64
 10
0.0
 20
0.0
 30
0.0
  3
GENDIML35
  1

  0
LINE
  5
26B
100
AcDbEntity
  8
____
  6
CONTINUOUS
 62
         4
100
AcDbLine
 10
2621.2267300879
 20
-413.096302069
 30
0.0
 11
2639.6776546574
 21
-413.096302069
 31
0.0
  0
LINE
  5
26C
100
AcDbEntity
  8
____
  6
CONTINUOUS
 62
         4
100
AcDbLine
 10
2621.2267300879
 20
-444.800302069
 30
0.0
 11
2639.6776546574
 21
-444.800302069
 31
0.0
  0
LINE
  5
26D
100
AcDbEntity
  8
____
  6
CONTINUOUS
 62
         4
100
AcDbLine
 10
2639.0026546574
 20
-413.096302069
 30
0.0
 11
2639.0026546574
 21
-444.800302069
 31
0.0
  0
SOLID
  5
26E
100
AcDbEntity
  8
____
  6
CONTINUOUS
 62
         4
100
AcDbTrace
 10
2639.0026546574
 20
-413.096302069
 30
0.0
 11
2639.4076546574
 21
-415.796302069
 31
0.0
 12
2638.5976546574
 22
-415.796302069
 32
0.0
 13
2639.0026546574
 23
-413.096302069
 33
0.0
  0
SOLID
  5
26F
100
AcDbEntity
  8
____
  6
CONTINUOUS
 62
         4
100
AcDbTrace
 10
2639.0026546574
 20
-444.800302069
 30
0.0
 11
2638.5976546574
 21
-442.100302069
 31
0.0
 12
2639.4076546574
 22
-442.100302069
 32
0.0
 13
2639.0026546574
 23
-444.800302069
 33
0.0
  0
TEXT
  5
271
100
AcDbEntity
  8
____
  6
CONTINUOUS
 62
         4
100
AcDbText
 10
2636.9776546574
 20
-453.8215407803
 30
0.0
 40
2.7
  1
1-1/4"12UNF-2A
 50
90.0
  7
BOX
100
AcDbText
  0
ENDBLK
  5
272
100
AcDbEntity
  8
0
  6
CONTINUOUS
100
AcDbBlockEnd
  0
BLOCK
  5
27E
100
AcDbEntity
  8
0
100
AcDbBlockBegin
  2
GENDIML36
 70
        64
 10
0.0
 20
0.0
 30
0.0
  3
GENDIML36
  1

  0
LINE
  5
27F
100
AcDbEntity
  8
____
  6
CONTINUOUS
 62
         4
100
AcDbLine
 10
2596.6067300879
 20
-414.573302069
 30
0.0
 11
2586.803512008
 21
-414.573302069
 31
0.0
  0
LINE
  5
280
100
AcDbEntity
  8
____
  6
CONTINUOUS
 62
         4
100
AcDbLine
 10
2596.6067300879
 20
-443.323302069
 30
0.0
 11
2586.803512008
 21
-443.323302069
 31
0.0
  0
LINE
  5
281
100
AcDbEntity
  8
____
  6
CONTINUOUS
 62
         4
100
AcDbLine
 10
2587.478512008
 20
-414.573302069
 30
0.0
 11
2587.478512008
 21
-443.323302069
 31
0.0
  0
SOLID
  5
282
100
AcDbEntity
  8
____
  6
CONTINUOUS
 62
         4
100
AcDbTrace
 10
2587.478512008
 20
-414.573302069
 30
0.0
 11
2587.883512008
 21
-417.273302069
 31
0.0
 12
2587.073512008
 22
-417.273302069
 32
0.0
 13
2587.478512008
 23
-414.573302069
 33
0.0
  0
LINE
  5
283
100
AcDbEntity
  8
____
  6
CONTINUOUS
 62
         4
100
AcDbLine
 10
2587.478512008
 20
-443.323302069
 30
0.0
 11
2587.478512008
 21
-471.8681206322
 31
0.0
  0
SOLID
  5
284
100
AcDbEntity
  8
____
  6
CONTINUOUS
 62
         4
100
AcDbTrace
 10
2587.478512008
 20
-443.323302069
 30
0.0
 11
2587.073512008
 21
-440.623302069
 31
0.0
 12
2587.883512008
 22
-440.623302069
 32
0.0
 13
2587.478512008
 23
-443.323302069
 33
0.0
  0
TEXT
  5
286
100
AcDbEntity
  8
____
  6
CONTINUOUS
 62
         4
100
AcDbText
 10
2585.453512008
 20
-470.5181206322
 30
0.0
 40
2.7
  1
崷28.75
 50
90.0
  7
BOX
100
AcDbText
  0
ENDBLK
  5
287
100
AcDbEntity
  8
0
  6
CONTINUOUS
100
AcDbBlockEnd
  0
BLOCK
  5
28D
100
AcDbEntity
  8
0
100
AcDbBlockBegin
  2
GENDIML37
 70
        64
 10
0.0
 20
0.0
 30
0.0
  3
GENDIML37
  1

  0
LINE
  5
28E
100
AcDbEntity
  8
____
  6
CONTINUOUS
 62
         4
100
AcDbLine
 10
2570.8067300879
 20
-413.073302069
 30
0.0
 11
2579.6943244089
 21
-413.073302069
 31
0.0
  0
LINE
  5
28F
100
AcDbEntity
  8
____
  6
CONTINUOUS
 62
         4
100
AcDbLine
 10
2570.8067300879
 20
-444.823302069
 30
0.0
 11
2579.6943244089
 21
-444.823302069
 31
0.0
  0
LINE
  5
290
100
AcDbEntity
  8
____
  6
CONTINUOUS
 62
         4
100
AcDbLine
 10
2579.0193244089
 20
-413.073302069
 30
0.0
 11
2579.0193244089
 21
-444.823302069
 31
0.0
  0
SOLID
  5
291
100
AcDbEntity
  8
____
  6
CONTINUOUS
 62
         4
100
AcDbTrace
 10
2579.0193244089
 20
-413.073302069
 30
0.0
 11
2579.4243244089
 21
-415.773302069
 31
0.0
 12
2578.6143244089
 22
-415.773302069
 32
0.0
 13
2579.0193244089
 23
-413.073302069
 33
0.0
  0
LINE
  5
292
100
AcDbEntity
  8
____
  6
CONTINUOUS
 62
         4
100
AcDbLine
 10
2579.0193244089
 20
-444.823302069
 30
0.0
 11
2579.0193244089
 21
-474.94418885
 31
0.0
  0
SOLID
  5
293
100
AcDbEntity
  8
____
  6
CONTINUOUS
 62
         4
100
AcDbTrace
 10
2579.0193244089
 20
-444.823302069
 30
0.0
 11
2578.6143244089
 21
-442.123302069
 31
0.0
 12
2579.4243244089
 22
-442.123302069
 32
0.0
 13
2579.0193244089
 23
-444.823302069
 33
0.0
  0
TEXT
  5
295
100
AcDbEntity
  8
____
  6
CONTINUOUS
 62
         4
100
AcDbText
 10
2576.9943244089
 20
-473.59418885
 30
0.0
 40
2.7
  1
崷31.75
 50
90.0
  7
BOX
100
AcDbText
  0
ENDBLK
  5
296
100
AcDbEntity
  8
0
  6
CONTINUOUS
100
AcDbBlockEnd
  0
BLOCK
  5
2B5
100
AcDbEntity
  8
0
100
AcDbBlockBegin
  2
*D36
 70
        65
 10
0.0
 20
0.0
 30
0.0
  3
*D36
  1

  0
POINT
  5
2B7
100
AcDbEntity
  8
DEFPOINTS
  6
CONTINUOUS
 62
         0
100
AcDbPoint
 10
2622.8767300879
 20
-249.7718178297
 30
0.0
  0
POINT
  5
2B8
100
AcDbEntity
  8
DEFPOINTS
  6
CONTINUOUS
 62
         0
100
AcDbPoint
 10
2622.8767300879
 20
-300.9896562505
 30
0.0
  0
POINT
  5
2B9
100
AcDbEntity
  8
DEFPOINTS
  6
CONTINUOUS
 62
         0
100
AcDbPoint
 10
2564.4567300879
 20
-293.0916562505
 30
0.0
  0
LINE
  5
2BA
100
AcDbEntity
  8
____
  6
CONTINUOUS
 62
         4
100
AcDbLine
 10
2622.8767300879
 20
-299.6396562505
 30
0.0
 11
2622.8767300879
 21
-249.0968178297
 31
0.0
  0
LINE
  5
2BB
100
AcDbEntity
  8
____
  6
CONTINUOUS
 62
         4
100
AcDbLine
 10
2564.4567300879
 20
-291.7416562505
 30
0.0
 11
2564.4567300879
 21
-249.0968178297
 31
0.0
  0
LINE
  5
2BC
100
AcDbEntity
  8
____
  6
CONTINUOUS
 62
         4
100
AcDbLine
 10
2622.8767300879
 20
-249.7718178297
 30
0.0
 11
2564.4567300879
 21
-249.7718178297
 31
0.0
  0
SOLID
  5
2BD
100
AcDbEntity
  8
____
  6
CONTINUOUS
 62
         4
100
AcDbTrace
 10
2622.8767300879
 20
-249.7718178297
 30
0.0
 11
2620.1767300879
 21
-250.1768178297
 31
0.0
 12
2620.1767300879
 22
-249.3668178297
 32
0.0
 13
2622.8767300879
 23
-249.7718178297
 33
0.0
  0
SOLID
  5
2BE
100
AcDbEntity
  8
____
  6
CONTINUOUS
 62
         4
100
AcDbTrace
 10
2564.4567300879
 20
-249.7718178297
 30
0.0
 11
2567.1567300879
 21
-249.3668178297
 31
0.0
 12
2567.1567300879
 22
-250.1768178297
 32
0.0
 13
2564.4567300879
 23
-249.7718178297
 33
0.0
  0
TEXT
  5
2C0
100
AcDbEntity
  8
____
  6
CONTINUOUS
 62
         4
100
AcDbText
 10
2592.6050643557
 20
-247.7468178297
 30
0.0
 40
2.7
  1
58
  7
BOX
100
AcDbText
  0
ENDBLK
  5
2C1
100
AcDbEntity
  8
0
  6
CONTINUOUS
100
AcDbBlockEnd
  0
BLOCK
  5
2C3
100
AcDbEntity
  8
0
100
AcDbBlockBegin
  2
*D37
 70
        65
 10
0.0
 20
0.0
 30
0.0
  3
*D37
  1

  0
POINT
  5
2C5
100
AcDbEntity
  8
DEFPOINTS
  6
CONTINUOUS
 62
         0
100
AcDbPoint
 10
2595.9567300879
 20
-338.5470751486
 30
0.0
  0
POINT
  5
2C6
100
AcDbEntity
  8
DEFPOINTS
  6
CONTINUOUS
 62
         0
100
AcDbPoint
 10
2595.9567300879
 20
-328.2166562505
 30
0.0
  0
POINT
  5
2C7
100
AcDbEntity
  8
DEFPOINTS
  6
CONTINUOUS
 62
         0
100
AcDbPoint
 10
2597.9567300879
 20
-328.1936562505
 30
0.0
  0
LINE
  5
2C8
100
AcDbEntity
  8
____
  6
CONTINUOUS
 62
         4
100
AcDbLine
 10
2595.9567300879
 20
-329.5666562505
 30
0.0
 11
2595.9567300879
 21
-339.2220751486
 31
0.0
  0
LINE
  5
2C9
100
AcDbEntity
  8
____
  6
CONTINUOUS
 62
         4
100
AcDbLine
 10
2597.9567300879
 20
-329.5436562505
 30
0.0
 11
2597.9567300879
 21
-339.2220751486
 31
0.0
  0
LINE
  5
2CA
100
AcDbEntity
  8
____
  6
CONTINUOUS
 62
         4
100
AcDbLine
 10
2595.9567300879
 20
-338.5470751486
 30
0.0
 11
2590.5567300879
 21
-338.5470751486
 31
0.0
  0
SOLID
  5
2CB
100
AcDbEntity
  8
____
  6
CONTINUOUS
 62
         4
100
AcDbTrace
 10
2595.9567300879
 20
-338.5470751486
 30
0.0
 11
2593.2567300879
 21
-338.9520751486
 31
0.0
 12
2593.2567300879
 22
-338.1420751486
 32
0.0
 13
2595.9567300879
 23
-338.5470751486
 33
0.0
  0
LINE
  5
2CC
100
AcDbEntity
  8
____
  6
CONTINUOUS
 62
         4
100
AcDbLine
 10
2597.9567300879
 20
-338.5470751486
 30
0.0
 11
2607.9788840374
 21
-338.5470751486
 31
0.0
  0
SOLID
  5
2CD
100
AcDbEntity
  8
____
  6
CONTINUOUS
 62
         4
100
AcDbTrace
 10
2597.9567300879
 20
-338.5470751486
 30
0.0
 11
2600.6567300879
 21
-338.1420751486
 31
0.0
 12
2600.6567300879
 22
-338.9520751486
 32
0.0
 13
2597.9567300879
 23
-338.5470751486
 33
0.0
  0
LINE
  5
2CE
100
AcDbEntity
  8
____
  6
CONTINUOUS
 62
         4
100
AcDbLine
 10
2595.9567300879
 20
-338.5470751486
 30
0.0
 11
2597.9567300879
 21
-338.5470751486
 31
0.0
  0
TEXT
  5
2D0
100
AcDbEntity
  8
____
  6
CONTINUOUS
 62
         4
100
AcDbText
 10
2603.9288840375
 20
-336.5220751486
 30
0.0
 40
2.7
  1
2
  7
BOX
100
AcDbText
  0
ENDBLK
  5
2D1
100
AcDbEntity
  8
0
  6
CONTINUOUS
100
AcDbBlockEnd
  0
BLOCK
  5
353
100
AcDbEntity
  8
0
100
AcDbBlockBegin
  2
*D38
 70
        65
 10
0.0
 20
0.0
 30
0.0
  3
*D38
  1

  0
POINT
  5
355
100
AcDbEntity
  8
DEFPOINTS
  6
CONTINUOUS
 62
         0
100
AcDbPoint
 10
2494.1845321427
 20
-291.6166562505
 30
0.0
  0
POINT
  5
356
100
AcDbEntity
  8
DEFPOINTS
  6
CONTINUOUS
 62
         0
100
AcDbPoint
 10
2498.0787300879
 20
-291.6166562505
 30
0.0
  0
POINT
  5
357
100
AcDbEntity
  8
DEFPOINTS
  6
CONTINUOUS
 62
         0
100
AcDbPoint
 10
2498.0787300879
 20
-336.0666562505
 30
0.0
  0
LINE
  5
358
100
AcDbEntity
  8
____
  6
CONTINUOUS
 62
         4
100
AcDbLine
 10
2496.7287300879
 20
-291.6166562505
 30
0.0
 11
2493.5095321427
 21
-291.6166562505
 31
0.0
  0
LINE
  5
359
100
AcDbEntity
  8
____
  6
CONTINUOUS
 62
         4
100
AcDbLine
 10
2496.7287300879
 20
-336.0666562505
 30
0.0
 11
2493.5095321427
 21
-336.0666562505
 31
0.0
  0
LINE
  5
35A
100
AcDbEntity
  8
____
  6
CONTINUOUS
 62
         4
100
AcDbLine
 10
2494.1845321427
 20
-291.6166562505
 30
0.0
 11
2494.1845321427
 21
-336.0666562505
 31
0.0
  0
SOLID
  5
35B
100
AcDbEntity
  8
____
  6
CONTINUOUS
 62
         4
100
AcDbTrace
 10
2494.1845321427
 20
-291.6166562505
 30
0.0
 11
2494.5895321427
 21
-294.3166562505
 31
0.0
 12
2493.7795321427
 22
-294.3166562505
 32
0.0
 13
2494.1845321427
 23
-291.6166562505
 33
0.0
  0
SOLID
  5
35C
100
AcDbEntity
  8
____
  6
CONTINUOUS
 62
         4
100
AcDbTrace
 10
2494.1845321427
 20
-336.0666562505
 30
0.0
 11
2493.7795321427
 21
-333.3666562505
 31
0.0
 12
2494.5895321427
 22
-333.3666562505
 32
0.0
 13
2494.1845321427
 23
-336.0666562505
 33
0.0
  0
TEXT
  5
35E
100
AcDbEntity
  8
____
  6
CONTINUOUS
 62
         4
100
AcDbText
 10
2492.1595321427
 20
-331.6871316023
 30
0.0
 40
2.7
  1
崷44.57
 50
90.0
  7
BOX
100
AcDbText
  0
ENDBLK
  5
35F
100
AcDbEntity
  8
0
  6
CONTINUOUS
100
AcDbBlockEnd
  0
BLOCK
  5
361
100
AcDbEntity
  8
0
100
AcDbBlockBegin
  2
*X39
 70
        65
 10
0.0
 20
0.0
 30
0.0
  3
*X39
  1

  0
LINE
  5
362
100
AcDbEntity
  8
____
  6
CONTINUOUS
 62
         4
100
AcDbLine
 10
2713.7151177304
 20
-276.7069138479
 30
0.0
 11
2713.7060845294
 21
-276.7111260987
 31
0.0
  0
LINE
  5
363
100
AcDbEntity
  8
____
  6
CONTINUOUS
 62
         4
100
AcDbLine
 10
2713.8022759196
 20
-276.7214402128
 30
0.0
 11
2713.7060845294
 21
-276.7662949947
 31
0.0
  0
LINE
  5
364
100
AcDbEntity
  8
____
  6
CONTINUOUS
 62
         4
100
AcDbLine
 10
2713.8894341088
 20
-276.7359665777
 30
0.0
 11
2713.7060845294
 21
-276.8214638906
 31
0.0
  0
LINE
  5
365
100
AcDbEntity
  8
____
  6
CONTINUOUS
 62
         4
100
AcDbLine
 10
2713.976592298
 20
-276.7504929425
 30
0.0
 11
2713.7060845294
 21
-276.8766327866
 31
0.0
  0
LINE
  5
366
100
AcDbEntity
  8
____
  6
CONTINUOUS
 62
         4
100
AcDbLine
 10
2714.0637504871
 20
-276.7650193074
 30
0.0
 11
2713.7060845294
 21
-276.9318016825
 31
0.0
  0
LINE
  5
367
100
AcDbEntity
  8
____
  6
CONTINUOUS
 62
         4
100
AcDbLine
 10
2714.1509086763
 20
-276.7795456722
 30
0.0
 11
2713.7060845294
 21
-276.9869705785
 31
0.0
  0
LINE
  5
368
100
AcDbEntity
  8
____
  6
CONTINUOUS
 62
         4
100
AcDbLine
 10
2714.2380668655
 20
-276.7940720371
 30
0.0
 11
2713.7060845294
 21
-277.0421394744
 31
0.0
  0
LINE
  5
369
100
AcDbEntity
  8
____
  6
CONTINUOUS
 62
         4
100
AcDbLine
 10
2714.3252250547
 20
-276.808598402
 30
0.0
 11
2713.7060845294
 21
-277.0973083704
 31
0.0
  0
LINE
  5
36A
100
AcDbEntity
  8
____
  6
CONTINUOUS
 62
         4
100
AcDbLine
 10
2714.4123832438
 20
-276.8231247668
 30
0.0
 11
2713.7060845294
 21
-277.1524772663
 31
0.0
  0
LINE
  5
36B
100
AcDbEntity
  8
____
  6
CONTINUOUS
 62
         4
100
AcDbLine
 10
2714.499541433
 20
-276.8376511317
 30
0.0
 11
2713.7060845294
 21
-277.2076461623
 31
0.0
  0
LINE
  5
36C
100
AcDbEntity
  8
____
  6
CONTINUOUS
 62
         4
100
AcDbLine
 10
2714.5866996222
 20
-276.8521774966
 30
0.0
 11
2713.7060845294
 21
-277.2628150582
 31
0.0
  0
LINE
  5
36D
100
AcDbEntity
  8
____
  6
CONTINUOUS
 62
         4
100
AcDbLine
 10
2714.6738578114
 20
-276.8667038614
 30
0.0
 11
2713.7060845294
 21
-277.3179839542
 31
0.0
  0
LINE
  5
36E
100
AcDbEntity
  8
____
  6
CONTINUOUS
 62
         4
100
AcDbLine
 10
2714.7610160006
 20
-276.8812302263
 30
0.0
 11
2713.7060845294
 21
-277.3731528501
 31
0.0
  0
LINE
  5
36F
100
AcDbEntity
  8
____
  6
CONTINUOUS
 62
         4
100
AcDbLine
 10
2714.8481741897
 20
-276.8957565911
 30
0.0
 11
2713.7060845294
 21
-277.4283217461
 31
0.0
  0
LINE
  5
370
100
AcDbEntity
  8
____
  6
CONTINUOUS
 62
         4
100
AcDbLine
 10
2714.9353323789
 20
-276.910282956
 30
0.0
 11
2713.7060845294
 21
-277.483490642
 31
0.0
  0
LINE
  5
371
100
AcDbEntity
  8
____
  6
CONTINUOUS
 62
         4
100
AcDbLine
 10
2715.0224905681
 20
-276.9248093209
 30
0.0
 11
2713.7060845294
 21
-277.538659538
 31
0.0
  0
LINE
  5
372
100
AcDbEntity
  8
____
  6
CONTINUOUS
 62
         4
100
AcDbLine
 10
2715.1096487573
 20
-276.9393356857
 30
0.0
 11
2713.7060845294
 21
-277.5938284339
 31
0.0
  0
LINE
  5
373
100
AcDbEntity
  8
____
  6
CONTINUOUS
 62
         4
100
AcDbLine
 10
2715.1968069465
 20
-276.9538620506
 30
0.0
 11
2713.7060845294
 21
-277.6489973299
 31
0.0
  0
LINE
  5
374
100
AcDbEntity
  8
____
  6
CONTINUOUS
 62
         4
100
AcDbLine
 10
2715.2839651356
 20
-276.9683884155
 30
0.0
 11
2713.7060845294
 21
-277.7041662258
 31
0.0
  0
LINE
  5
375
100
AcDbEntity
  8
____
  6
CONTINUOUS
 62
         4
100
AcDbLine
 10
2715.3711233248
 20
-276.9829147803
 30
0.0
 11
2713.7060845294
 21
-277.7593351218
 31
0.0
  0
LINE
  5
376
100
AcDbEntity
  8
____
  6
CONTINUOUS
 62
         4
100
AcDbLine
 10
2715.458281514
 20
-276.9974411452
 30
0.0
 11
2713.7060845294
 21
-277.8145040177
 31
0.0
  0
LINE
  5
377
100
AcDbEntity
  8
____
  6
CONTINUOUS
 62
         4
100
AcDbLine
 10
2715.5454397032
 20
-277.0119675101
 30
0.0
 11
2713.7060845294
 21
-277.8696729137
 31
0.0
  0
LINE
  5
378
100
AcDbEntity
  8
____
  6
CONTINUOUS
 62
         4
100
AcDbLine
 10
2715.6325978923
 20
-277.0264938749
 30
0.0
 11
2713.7060845294
 21
-277.9248418096
 31
0.0
  0
LINE
  5
379
100
AcDbEntity
  8
____
  6
CONTINUOUS
 62
         4
100
AcDbLine
 10
2715.7197560815
 20
-277.0410202398
 30
0.0
 11
2713.7060845294
 21
-277.9800107056
 31
0.0
  0
LINE
  5
37A
100
AcDbEntity
  8
____
  6
CONTINUOUS
 62
         4
100
AcDbLine
 10
2715.8069142707
 20
-277.0555466046
 30
0.0
 11
2713.7060845294
 21
-278.0351796015
 31
0.0
  0
LINE
  5
37B
100
AcDbEntity
  8
____
  6
CONTINUOUS
 62
         4
100
AcDbLine
 10
2715.8940724599
 20
-277.0700729695
 30
0.0
 11
2713.7060845294
 21
-278.0903484974
 31
0.0
  0
LINE
  5
37C
100
AcDbEntity
  8
____
  6
CONTINUOUS
 62
         4
100
AcDbLine
 10
2715.9812306491
 20
-277.0845993344
 30
0.0
 11
2713.7060845294
 21
-278.1455173934
 31
0.0
  0
LINE
  5
37D
100
AcDbEntity
  8
____
  6
CONTINUOUS
 62
         4
100
AcDbLine
 10
2716.0683888382
 20
-277.0991256992
 30
0.0
 11
2713.7060845294
 21
-278.2006862893
 31
0.0
  0
LINE
  5
37E
100
AcDbEntity
  8
____
  6
CONTINUOUS
 62
         4
100
AcDbLine
 10
2716.1555470274
 20
-277.1136520641
 30
0.0
 11
2713.7060845294
 21
-278.2558551853
 31
0.0
  0
LINE
  5
37F
100
AcDbEntity
  8
____
  6
CONTINUOUS
 62
         4
100
AcDbLine
 10
2716.2427052166
 20
-277.128178429
 30
0.0
 11
2713.7060845294
 21
-278.3110240812
 31
0.0
  0
LINE
  5
380
100
AcDbEntity
  8
____
  6
CONTINUOUS
 62
         4
100
AcDbLine
 10
2716.3298634058
 20
-277.1427047938
 30
0.0
 11
2713.7060845294
 21
-278.3661929772
 31
0.0
  0
LINE
  5
381
100
AcDbEntity
  8
____
  6
CONTINUOUS
 62
         4
100
AcDbLine
 10
2716.417021595
 20
-277.1572311587
 30
0.0
 11
2713.8705710097
 21
-278.3446605677
 31
0.0
  0
LINE
  5
382
100
AcDbEntity
  8
____
  6
CONTINUOUS
 62
         4
100
AcDbLine
 10
2716.5041797841
 20
-277.1717575235
 30
0.0
 11
2714.054687661
 21
-278.3139744591
 31
0.0
  0
LINE
  5
383
100
AcDbEntity
  8
____
  6
CONTINUOUS
 62
         4
100
AcDbLine
 10
2716.5913379733
 20
-277.1862838884
 30
0.0
 11
2714.2388043123
 21
-278.2832883506
 31
0.0
  0
LINE
  5
384
100
AcDbEntity
  8
____
  6
CONTINUOUS
 62
         4
100
AcDbLine
 10
2716.6784961625
 20
-277.2008102533
 30
0.0
 11
2714.4229209636
 21
-278.252602242
 31
0.0
  0
LINE
  5
385
100
AcDbEntity
  8
____
  6
CONTINUOUS
 62
         4
100
AcDbLine
 10
2716.7656543517
 20
-277.2153366181
 30
0.0
 11
2714.6070376149
 21
-278.2219161335
 31
0.0
  0
LINE
  5
386
100
AcDbEntity
  8
____
  6
CONTINUOUS
 62
         4
100
AcDbLine
 10
2716.8528125408
 20
-277.229862983
 30
0.0
 11
2714.7911542663
 21
-278.1912300249
 31
0.0
  0
LINE
  5
387
100
AcDbEntity
  8
____
  6
CONTINUOUS
 62
         4
100
AcDbLine
 10
2716.93997073
 20
-277.2443893479
 30
0.0
 11
2714.9752709176
 21
-278.1605439164
 31
0.0
  0
LINE
  5
388
100
AcDbEntity
  8
____
  6
CONTINUOUS
 62
         4
100
AcDbLine
 10
2717.0271289192
 20
-277.2589157127
 30
0.0
 11
2715.1593875689
 21
-278.1298578078
 31
0.0
  0
LINE
  5
389
100
AcDbEntity
  8
____
  6
CONTINUOUS
 62
         4
100
AcDbLine
 10
2717.1142871084
 20
-277.2734420776
 30
0.0
 11
2715.3435042202
 21
-278.0991716993
 31
0.0
  0
LINE
  5
38A
100
AcDbEntity
  8
____
  6
CONTINUOUS
 62
         4
100
AcDbLine
 10
2717.2014452976
 20
-277.2879684424
 30
0.0
 11
2715.5276208715
 21
-278.0684855907
 31
0.0
  0
LINE
  5
38B
100
AcDbEntity
  8
____
  6
CONTINUOUS
 62
         4
100
AcDbLine
 10
2717.2886034867
 20
-277.3024948073
 30
0.0
 11
2715.7117375228
 21
-278.0377994822
 31
0.0
  0
LINE
  5
38C
100
AcDbEntity
  8
____
  6
CONTINUOUS
 62
         4
100
AcDbLine
 10
2717.3757616759
 20
-277.3170211722
 30
0.0
 11
2715.8958541741
 21
-278.0071133736
 31
0.0
  0
LINE
  5
38D
100
AcDbEntity
  8
____
  6
CONTINUOUS
 62
         4
100
AcDbLine
 10
2717.4629198651
 20
-277.331547537
 30
0.0
 11
2716.0799708254
 21
-277.9764272651
 31
0.0
  0
LINE
  5
38E
100
AcDbEntity
  8
____
  6
CONTINUOUS
 62
         4
100
AcDbLine
 10
2717.5500780543
 20
-277.3460739019
 30
0.0
 11
2716.2640874767
 21
-277.9457411565
 31
0.0
  0
LINE
  5
38F
100
AcDbEntity
  8
____
  6
CONTINUOUS
 62
         4
100
AcDbLine
 10
2717.6372362435
 20
-277.3606002668
 30
0.0
 11
2716.448204128
 21
-277.915055048
 31
0.0
  0
LINE
  5
390
100
AcDbEntity
  8
____
  6
CONTINUOUS
 62
         4
100
AcDbLine
 10
2717.7243944326
 20
-277.3751266316
 30
0.0
 11
2716.6323207793
 21
-277.8843689394
 31
0.0
  0
LINE
  5
391
100
AcDbEntity
  8
____
  6
CONTINUOUS
 62
         4
100
AcDbLine
 10
2717.8115526218
 20
-277.3896529965
 30
0.0
 11
2716.8164374307
 21
-277.8536828309
 31
0.0
  0
LINE
  5
392
100
AcDbEntity
  8
____
  6
CONTINUOUS
 62
         4
100
AcDbLine
 10
2717.898710811
 20
-277.4041793614
 30
0.0
 11
2717.000554082
 21
-277.8229967223
 31
0.0
  0
LINE
  5
393
100
AcDbEntity
  8
____
  6
CONTINUOUS
 62
         4
100
AcDbLine
 10
2717.9858690002
 20
-277.4187057262
 30
0.0
 11
2717.1846707333
 21
-277.7923106138
 31
0.0
  0
LINE
  5
394
100
AcDbEntity
  8
____
  6
CONTINUOUS
 62
         4
100
AcDbLine
 10
2718.0730271893
 20
-277.4332320911
 30
0.0
 11
2717.3687873846
 21
-277.7616245052
 31
0.0
  0
LINE
  5
395
100
AcDbEntity
  8
____
  6
CONTINUOUS
 62
         4
100
AcDbLine
 10
2718.1601853785
 20
-277.4477584559
 30
0.0
 11
2717.5529040359
 21
-277.7309383967
 31
0.0
  0
LINE
  5
396
100
AcDbEntity
  8
____
  6
CONTINUOUS
 62
         4
100
AcDbLine
 10
2718.2473435677
 20
-277.4622848208
 30
0.0
 11
2717.7370206872
 21
-277.7002522881
 31
0.0
  0
LINE
  5
397
100
AcDbEntity
  8
____
  6
CONTINUOUS
 62
         4
100
AcDbLine
 10
2718.3345017569
 20
-277.4768111857
 30
0.0
 11
2717.9211373385
 21
-277.6695661796
 31
0.0
  0
LINE
  5
398
100
AcDbEntity
  8
____
  6
CONTINUOUS
 62
         4
100
AcDbLine
 10
2718.4216599461
 20
-277.4913375505
 30
0.0
 11
2718.1052539898
 21
-277.638880071
 31
0.0
  0
LINE
  5
399
100
AcDbEntity
  8
____
  6
CONTINUOUS
 62
         4
100
AcDbLine
 10
2718.5088181352
 20
-277.5058639154
 30
0.0
 11
2718.2893706411
 21
-277.6081939625
 31
0.0
  0
LINE
  5
39A
100
AcDbEntity
  8
____
  6
CONTINUOUS
 62
         4
100
AcDbLine
 10
2718.5959763244
 20
-277.5203902803
 30
0.0
 11
2718.4734872924
 21
-277.5775078539
 31
0.0
  0
LINE
  5
39B
100
AcDbEntity
  8
____
  6
CONTINUOUS
 62
         4
100
AcDbLine
 10
2718.6831345136
 20
-277.5349166451
 30
0.0
 11
2718.6576039437
 21
-277.5468217454
 31
0.0
  0
ENDBLK
  5
39C
100
AcDbEntity
  8
0
  6
CONTINUOUS
100
AcDbBlockEnd
  0
BLOCK
  5
3A7
100
AcDbEntity
  8
0
100
AcDbBlockBegin
  2
*X40
 70
        65
 10
0.0
 20
0.0
 30
0.0
  3
*X40
  1

  0
LINE
  5
3A8
100
AcDbEntity
  8
____
  6
CONTINUOUS
 62
         4
100
AcDbLine
 10
2713.788679118
 20
-352.6741012078
 30
0.0
 11
2713.7796459169
 21
-352.6783134586
 31
0.0
  0
LINE
  5
3A9
100
AcDbEntity
  8
____
  6
CONTINUOUS
 62
         4
100
AcDbLine
 10
2713.8758373072
 20
-352.6886275727
 30
0.0
 11
2713.7796459169
 21
-352.7334823546
 31
0.0
  0
LINE
  5
3AA
100
AcDbEntity
  8
____
  6
CONTINUOUS
 62
         4
100
AcDbLine
 10
2713.9629954963
 20
-352.7031539375
 30
0.0
 11
2713.7796459169
 21
-352.7886512505
 31
0.0
  0
LINE
  5
3AB
100
AcDbEntity
  8
____
  6
CONTINUOUS
 62
         4
100
AcDbLine
 10
2714.0501536855
 20
-352.7176803024
 30
0.0
 11
2713.7796459169
 21
-352.8438201465
 31
0.0
  0
LINE
  5
3AC
100
AcDbEntity
  8
____
  6
CONTINUOUS
 62
         4
100
AcDbLine
 10
2714.1373118747
 20
-352.7322066673
 30
0.0
 11
2713.7796459169
 21
-352.8989890424
 31
0.0
  0
LINE
  5
3AD
100
AcDbEntity
  8
____
  6
CONTINUOUS
 62
         4
100
AcDbLine
 10
2714.2244700639
 20
-352.7467330321
 30
0.0
 11
2713.7796459169
 21
-352.9541579384
 31
0.0
  0
LINE
  5
3AE
100
AcDbEntity
  8
____
  6
CONTINUOUS
 62
         4
100
AcDbLine
 10
2714.311628253
 20
-352.761259397
 30
0.0
 11
2713.7796459169
 21
-353.0093268343
 31
0.0
  0
LINE
  5
3AF
100
AcDbEntity
  8
____
  6
CONTINUOUS
 62
         4
100
AcDbLine
 10
2714.3987864422
 20
-352.7757857618
 30
0.0
 11
2713.7796459169
 21
-353.0644957303
 31
0.0
  0
LINE
  5
3B0
100
AcDbEntity
  8
____
  6
CONTINUOUS
 62
         4
100
AcDbLine
 10
2714.4859446314
 20
-352.7903121267
 30
0.0
 11
2713.7796459169
 21
-353.1196646262
 31
0.0
  0
LINE
  5
3B1
100
AcDbEntity
  8
____
  6
CONTINUOUS
 62
         4
100
AcDbLine
 10
2714.5731028206
 20
-352.8048384916
 30
0.0
 11
2713.7796459169
 21
-353.1748335222
 31
0.0
  0
LINE
  5
3B2
100
AcDbEntity
  8
____
  6
CONTINUOUS
 62
         4
100
AcDbLine
 10
2714.6602610098
 20
-352.8193648564
 30
0.0
 11
2713.7796459169
 21
-353.2300024181
 31
0.0
  0
LINE
  5
3B3
100
AcDbEntity
  8
____
  6
CONTINUOUS
 62
         4
100
AcDbLine
 10
2714.7474191989
 20
-352.8338912213
 30
0.0
 11
2713.7796459169
 21
-353.285171314
 31
0.0
  0
LINE
  5
3B4
100
AcDbEntity
  8
____
  6
CONTINUOUS
 62
         4
100
AcDbLine
 10
2714.8345773881
 20
-352.8484175862
 30
0.0
 11
2713.7796459169
 21
-353.34034021
 31
0.0
  0
LINE
  5
3B5
100
AcDbEntity
  8
____
  6
CONTINUOUS
 62
         4
100
AcDbLine
 10
2714.9217355773
 20
-352.862943951
 30
0.0
 11
2713.7796459169
 21
-353.3955091059
 31
0.0
  0
LINE
  5
3B6
100
AcDbEntity
  8
____
  6
CONTINUOUS
 62
         4
100
AcDbLine
 10
2715.0088937665
 20
-352.8774703159
 30
0.0
 11
2713.7796459169
 21
-353.4506780019
 31
0.0
  0
LINE
  5
3B7
100
AcDbEntity
  8
____
  6
CONTINUOUS
 62
         4
100
AcDbLine
 10
2715.0960519557
 20
-352.8919966807
 30
0.0
 11
2713.7796459169
 21
-353.5058468978
 31
0.0
  0
LINE
  5
3B8
100
AcDbEntity
  8
____
  6
CONTINUOUS
 62
         4
100
AcDbLine
 10
2715.1832101448
 20
-352.9065230456
 30
0.0
 11
2713.7796459169
 21
-353.5610157938
 31
0.0
  0
LINE
  5
3B9
100
AcDbEntity
  8
____
  6
CONTINUOUS
 62
         4
100
AcDbLine
 10
2715.270368334
 20
-352.9210494105
 30
0.0
 11
2713.7796459169
 21
-353.6161846897
 31
0.0
  0
LINE
  5
3BA
100
AcDbEntity
  8
____
  6
CONTINUOUS
 62
         4
100
AcDbLine
 10
2715.3575265232
 20
-352.9355757753
 30
0.0
 11
2713.7796459169
 21
-353.6713535857
 31
0.0
  0
LINE
  5
3BB
100
AcDbEntity
  8
____
  6
CONTINUOUS
 62
         4
100
AcDbLine
 10
2715.4446847124
 20
-352.9501021402
 30
0.0
 11
2713.7796459169
 21
-353.7265224816
 31
0.0
  0
LINE
  5
3BC
100
AcDbEntity
  8
____
  6
CONTINUOUS
 62
         4
100
AcDbLine
 10
2715.5318429015
 20
-352.9646285051
 30
0.0
 11
2713.7796459169
 21
-353.7816913776
 31
0.0
  0
LINE
  5
3BD
100
AcDbEntity
  8
____
  6
CONTINUOUS
 62
         4
100
AcDbLine
 10
2715.6190010907
 20
-352.9791548699
 30
0.0
 11
2713.7796459169
 21
-353.8368602735
 31
0.0
  0
LINE
  5
3BE
100
AcDbEntity
  8
____
  6
CONTINUOUS
 62
         4
100
AcDbLine
 10
2715.7061592799
 20
-352.9936812348
 30
0.0
 11
2713.7796459169
 21
-353.8920291695
 31
0.0
  0
LINE
  5
3BF
100
AcDbEntity
  8
____
  6
CONTINUOUS
 62
         4
100
AcDbLine
 10
2715.7933174691
 20
-353.0082075996
 30
0.0
 11
2713.7796459169
 21
-353.9471980654
 31
0.0
  0
LINE
  5
3C0
100
AcDbEntity
  8
____
  6
CONTINUOUS
 62
         4
100
AcDbLine
 10
2715.8804756583
 20
-353.0227339645
 30
0.0
 11
2713.7796459169
 21
-354.0023669614
 31
0.0
  0
LINE
  5
3C1
100
AcDbEntity
  8
____
  6
CONTINUOUS
 62
         4
100
AcDbLine
 10
2715.9676338474
 20
-353.0372603294
 30
0.0
 11
2713.7796459169
 21
-354.0575358573
 31
0.0
  0
LINE
  5
3C2
100
AcDbEntity
  8
____
  6
CONTINUOUS
 62
         4
100
AcDbLine
 10
2716.0547920366
 20
-353.0517866942
 30
0.0
 11
2713.7796459169
 21
-354.1127047533
 31
0.0
  0
LINE
  5
3C3
100
AcDbEntity
  8
____
  6
CONTINUOUS
 62
         4
100
AcDbLine
 10
2716.1419502258
 20
-353.0663130591
 30
0.0
 11
2713.7796459169
 21
-354.1678736492
 31
0.0
  0
LINE
  5
3C4
100
AcDbEntity
  8
____
  6
CONTINUOUS
 62
         4
100
AcDbLine
 10
2716.229108415
 20
-353.080839424
 30
0.0
 11
2713.7796459169
 21
-354.2230425452
 31
0.0
  0
LINE
  5
3C5
100
AcDbEntity
  8
____
  6
CONTINUOUS
 62
         4
100
AcDbLine
 10
2716.3162666042
 20
-353.0953657888
 30
0.0
 11
2713.7796459169
 21
-354.2782114411
 31
0.0
  0
LINE
  5
3C6
100
AcDbEntity
  8
____
  6
CONTINUOUS
 62
         4
100
AcDbLine
 10
2716.4034247933
 20
-353.1098921537
 30
0.0
 11
2713.7796459169
 21
-354.3333803371
 31
0.0
  0
LINE
  5
3C7
100
AcDbEntity
  8
____
  6
CONTINUOUS
 62
         4
100
AcDbLine
 10
2716.4905829825
 20
-353.1244185186
 30
0.0
 11
2713.9441323973
 21
-354.3118479276
 31
0.0
  0
LINE
  5
3C8
100
AcDbEntity
  8
____
  6
CONTINUOUS
 62
         4
100
AcDbLine
 10
2716.5777411717
 20
-353.1389448834
 30
0.0
 11
2714.1282490486
 21
-354.281161819
 31
0.0
  0
LINE
  5
3C9
100
AcDbEntity
  8
____
  6
CONTINUOUS
 62
         4
100
AcDbLine
 10
2716.6648993609
 20
-353.1534712483
 30
0.0
 11
2714.3123656999
 21
-354.2504757105
 31
0.0
  0
LINE
  5
3CA
100
AcDbEntity
  8
____
  6
CONTINUOUS
 62
         4
100
AcDbLine
 10
2716.75205755
 20
-353.1679976131
 30
0.0
 11
2714.4964823512
 21
-354.2197896019
 31
0.0
  0
LINE
  5
3CB
100
AcDbEntity
  8
____
  6
CONTINUOUS
 62
         4
100
AcDbLine
 10
2716.8392157392
 20
-353.182523978
 30
0.0
 11
2714.6805990025
 21
-354.1891034934
 31
0.0
  0
LINE
  5
3CC
100
AcDbEntity
  8
____
  6
CONTINUOUS
 62
         4
100
AcDbLine
 10
2716.9263739284
 20
-353.1970503429
 30
0.0
 11
2714.8647156538
 21
-354.1584173848
 31
0.0
  0
LINE
  5
3CD
100
AcDbEntity
  8
____
  6
CONTINUOUS
 62
         4
100
AcDbLine
 10
2717.0135321176
 20
-353.2115767077
 30
0.0
 11
2715.0488323051
 21
-354.1277312763
 31
0.0
  0
LINE
  5
3CE
100
AcDbEntity
  8
____
  6
CONTINUOUS
 62
         4
100
AcDbLine
 10
2717.1006903068
 20
-353.2261030726
 30
0.0
 11
2715.2329489564
 21
-354.0970451677
 31
0.0
  0
LINE
  5
3CF
100
AcDbEntity
  8
____
  6
CONTINUOUS
 62
         4
100
AcDbLine
 10
2717.1878484959
 20
-353.2406294375
 30
0.0
 11
2715.4170656077
 21
-354.0663590592
 31
0.0
  0
LINE
  5
3D0
100
AcDbEntity
  8
____
  6
CONTINUOUS
 62
         4
100
AcDbLine
 10
2717.2750066851
 20
-353.2551558023
 30
0.0
 11
2715.601182259
 21
-354.0356729506
 31
0.0
  0
LINE
  5
3D1
100
AcDbEntity
  8
____
  6
CONTINUOUS
 62
         4
100
AcDbLine
 10
2717.3621648743
 20
-353.2696821672
 30
0.0
 11
2715.7852989104
 21
-354.0049868421
 31
0.0
  0
LINE
  5
3D2
100
AcDbEntity
  8
____
  6
CONTINUOUS
 62
         4
100
AcDbLine
 10
2717.4493230635
 20
-353.284208532
 30
0.0
 11
2715.9694155617
 21
-353.9743007335
 31
0.0
  0
LINE
  5
3D3
100
AcDbEntity
  8
____
  6
CONTINUOUS
 62
         4
100
AcDbLine
 10
2717.5364812527
 20
-353.2987348969
 30
0.0
 11
2716.153532213
 21
-353.943614625
 31
0.0
  0
LINE
  5
3D4
100
AcDbEntity
  8
____
  6
CONTINUOUS
 62
         4
100
AcDbLine
 10
2717.6236394418
 20
-353.3132612618
 30
0.0
 11
2716.3376488643
 21
-353.9129285164
 31
0.0
  0
LINE
  5
3D5
100
AcDbEntity
  8
____
  6
CONTINUOUS
 62
         4
100
AcDbLine
 10
2717.710797631
 20
-353.3277876266
 30
0.0
 11
2716.5217655156
 21
-353.8822424079
 31
0.0
  0
LINE
  5
3D6
100
AcDbEntity
  8
____
  6
CONTINUOUS
 62
         4
100
AcDbLine
 10
2717.7979558202
 20
-353.3423139915
 30
0.0
 11
2716.7058821669
 21
-353.8515562993
 31
0.0
  0
LINE
  5
3D7
100
AcDbEntity
  8
____
  6
CONTINUOUS
 62
         4
100
AcDbLine
 10
2717.8851140094
 20
-353.3568403564
 30
0.0
 11
2716.8899988182
 21
-353.8208701907
 31
0.0
  0
LINE
  5
3D8
100
AcDbEntity
  8
____
  6
CONTINUOUS
 62
         4
100
AcDbLine
 10
2717.9722721985
 20
-353.3713667212
 30
0.0
 11
2717.0741154695
 21
-353.7901840822
 31
0.0
  0
LINE
  5
3D9
100
AcDbEntity
  8
____
  6
CONTINUOUS
 62
         4
100
AcDbLine
 10
2718.0594303877
 20
-353.3858930861
 30
0.0
 11
2717.2582321208
 21
-353.7594979736
 31
0.0
  0
LINE
  5
3DA
100
AcDbEntity
  8
____
  6
CONTINUOUS
 62
         4
100
AcDbLine
 10
2718.1465885769
 20
-353.400419451
 30
0.0
 11
2717.4423487721
 21
-353.7288118651
 31
0.0
  0
LINE
  5
3DB
100
AcDbEntity
  8
____
  6
CONTINUOUS
 62
         4
100
AcDbLine
 10
2718.2337467661
 20
-353.4149458158
 30
0.0
 11
2717.6264654234
 21
-353.6981257565
 31
0.0
  0
LINE
  5
3DC
100
AcDbEntity
  8
____
  6
CONTINUOUS
 62
         4
100
AcDbLine
 10
2718.3209049553
 20
-353.4294721807
 30
0.0
 11
2717.8105820748
 21
-353.667439648
 31
0.0
  0
LINE
  5
3DD
100
AcDbEntity
  8
____
  6
CONTINUOUS
 62
         4
100
AcDbLine
 10
2718.4080631444
 20
-353.4439985455
 30
0.0
 11
2717.9946987261
 21
-353.6367535394
 31
0.0
  0
LINE
  5
3DE
100
AcDbEntity
  8
____
  6
CONTINUOUS
 62
         4
100
AcDbLine
 10
2718.4952213336
 20
-353.4585249104
 30
0.0
 11
2718.1788153774
 21
-353.6060674309
 31
0.0
  0
LINE
  5
3DF
100
AcDbEntity
  8
____
  6
CONTINUOUS
 62
         4
100
AcDbLine
 10
2718.5823795228
 20
-353.4730512753
 30
0.0
 11
2718.3629320287
 21
-353.5753813223
 31
0.0
  0
LINE
  5
3E0
100
AcDbEntity
  8
____
  6
CONTINUOUS
 62
         4
100
AcDbLine
 10
2718.669537712
 20
-353.4875776401
 30
0.0
 11
2718.54704868
 21
-353.5446952138
 31
0.0
  0
LINE
  5
3E1
100
AcDbEntity
  8
____
  6
CONTINUOUS
 62
         4
100
AcDbLine
 10
2718.7566959012
 20
-353.502104005
 30
0.0
 11
2718.7311653313
 21
-353.5140091052
 31
0.0
  0
ENDBLK
  5
3E2
100
AcDbEntity
  8
0
  6
CONTINUOUS
100
AcDbBlockEnd
  0
BLOCK
  5
455
100
AcDbEntity
  8
0
100
AcDbBlockBegin
  2
*X41
 70
        65
 10
0.0
 20
0.0
 30
0.0
  3
*X41
  1

  0
LINE
  5
456
100
AcDbEntity
  8
____
  6
CONTINUOUS
 62
         4
100
AcDbLine
 10
2621.6160318207
 20
-444.2446485016
 30
0.0
 11
2622.3210765205
 21
-443.5396038018
 31
0.0
  0
LINE
  5
457
100
AcDbEntity
  8
____
  6
CONTINUOUS
 62
         4
100
AcDbLine
 10
2616.8177375661
 20
-444.800302069
 30
0.0
 11
2622.8767300879
 21
-438.7413095472
 31
0.0
  0
LINE
  5
458
100
AcDbEntity
  8
____
  6
CONTINUOUS
 62
         4
100
AcDbLine
 10
2612.575096879
 20
-444.800302069
 30
0.0
 11
2622.8767300879
 21
-434.4986688601
 31
0.0
  0
LINE
  5
459
100
AcDbEntity
  8
____
  6
CONTINUOUS
 62
         4
100
AcDbLine
 10
2608.3324561919
 20
-444.800302069
 30
0.0
 11
2622.2752071867
 21
-430.8575510742
 31
0.0
  0
LINE
  5
45A
100
AcDbEntity
  8
____
  6
CONTINUOUS
 62
         4
100
AcDbLine
 10
2604.0898155048
 20
-444.800302069
 30
0.0
 11
2619.4567707866
 21
-429.4333467872
 31
0.0
  0
LINE
  5
45B
100
AcDbEntity
  8
____
  6
CONTINUOUS
 62
         4
100
AcDbLine
 10
2621.2716748386
 20
-427.6184427352
 30
0.0
 11
2622.8767300879
 21
-426.0133874859
 31
0.0
  0
LINE
  5
45C
100
AcDbEntity
  8
____
  6
CONTINUOUS
 62
         4
100
AcDbLine
 10
2599.8471748177
 20
-444.800302069
 30
0.0
 11
2622.8767300879
 21
-421.7707467988
 31
0.0
  0
LINE
  5
45D
100
AcDbEntity
  8
____
  6
CONTINUOUS
 62
         4
100
AcDbLine
 10
2597.0815341305
 20
-443.323302069
 30
0.0
 11
2622.8767300879
 21
-417.5281061116
 31
0.0
  0
LINE
  5
45E
100
AcDbEntity
  8
____
  6
CONTINUOUS
 62
         4
100
AcDbLine
 10
2591.3388934434
 20
-444.823302069
 30
0.0
 11
2622.0905225401
 21
-414.0716729724
 31
0.0
  0
LINE
  5
45F
100
AcDbEntity
  8
____
  6
CONTINUOUS
 62
         4
100
AcDbLine
 10
2587.0962527563
 20
-444.823302069
 30
0.0
 11
2618.8232527563
 21
-413.096302069
 31
0.0
  0
LINE
  5
460
100
AcDbEntity
  8
____
  6
CONTINUOUS
 62
         4
100
AcDbLine
 10
2582.8536120692
 20
-444.823302069
 30
0.0
 11
2614.5806120692
 21
-413.096302069
 31
0.0
  0
LINE
  5
461
100
AcDbEntity
  8
____
  6
CONTINUOUS
 62
         4
100
AcDbLine
 10
2578.6109713821
 20
-444.823302069
 30
0.0
 11
2610.3379713821
 21
-413.096302069
 31
0.0
  0
LINE
  5
462
100
AcDbEntity
  8
____
  6
CONTINUOUS
 62
         4
100
AcDbLine
 10
2574.3683306949
 20
-444.823302069
 30
0.0
 11
2606.0953306949
 21
-413.096302069
 31
0.0
  0
LINE
  5
463
100
AcDbEntity
  8
____
  6
CONTINUOUS
 62
         4
100
AcDbLine
 10
2570.1256900078
 20
-444.823302069
 30
0.0
 11
2601.8526900078
 21
-413.096302069
 31
0.0
  0
LINE
  5
464
100
AcDbEntity
  8
____
  6
CONTINUOUS
 62
         4
100
AcDbLine
 10
2559.5330493207
 20
-451.173302069
 30
0.0
 11
2564.4567300879
 21
-446.2496213018
 31
0.0
  0
LINE
  5
465
100
AcDbEntity
  8
____
  6
CONTINUOUS
 62
         4
100
AcDbLine
 10
2566.0763016661
 20
-444.6300497237
 30
0.0
 11
2596.1330493207
 21
-414.573302069
 31
0.0
  0
LINE
  5
466
100
AcDbEntity
  8
____
  6
CONTINUOUS
 62
         4
100
AcDbLine
 10
2555.2904086336
 20
-451.173302069
 30
0.0
 11
2588.6404086336
 21
-417.823302069
 31
0.0
  0
LINE
  5
467
100
AcDbEntity
  8
____
  6
CONTINUOUS
 62
         4
100
AcDbLine
 10
2590.4567300879
 20
-416.0069806147
 30
0.0
 11
2593.3904086336
 21
-413.073302069
 31
0.0
  0
LINE
  5
468
100
AcDbEntity
  8
____
  6
CONTINUOUS
 62
         4
100
AcDbLine
 10
2551.0477679465
 20
-451.173302069
 30
0.0
 11
2584.3977679465
 21
-417.823302069
 31
0.0
  0
LINE
  5
469
100
AcDbEntity
  8
____
  6
CONTINUOUS
 62
         4
100
AcDbLine
 10
2546.8051272594
 20
-451.173302069
 30
0.0
 11
2580.1551272594
 21
-417.823302069
 31
0.0
  0
LINE
  5
46A
100
AcDbEntity
  8
____
  6
CONTINUOUS
 62
         4
100
AcDbLine
 10
2542.5624865722
 20
-451.173302069
 30
0.0
 11
2575.9124865722
 21
-417.823302069
 31
0.0
  0
LINE
  5
46B
100
AcDbEntity
  8
____
  6
CONTINUOUS
 62
         4
100
AcDbLine
 10
2538.3198458851
 20
-451.173302069
 30
0.0
 11
2571.6698458851
 21
-417.823302069
 31
0.0
  0
LINE
  5
46C
100
AcDbEntity
  8
____
  6
CONTINUOUS
 62
         4
100
AcDbLine
 10
2534.077205198
 20
-451.173302069
 30
0.0
 11
2567.427205198
 21
-417.823302069
 31
0.0
  0
LINE
  5
46D
100
AcDbEntity
  8
____
  6
CONTINUOUS
 62
         4
100
AcDbLine
 10
2529.8345645109
 20
-451.173302069
 30
0.0
 11
2565.4567300879
 21
-415.551136492
 31
0.0
  0
LINE
  5
46E
100
AcDbEntity
  8
____
  6
CONTINUOUS
 62
         4
100
AcDbLine
 10
2525.5919238238
 20
-451.173302069
 30
0.0
 11
2564.4567300879
 21
-412.3084958048
 31
0.0
  0
LINE
  5
46F
100
AcDbEntity
  8
____
  6
CONTINUOUS
 62
         4
100
AcDbLine
 10
2521.3492831366
 20
-451.173302069
 30
0.0
 11
2564.4492178079
 21
-408.0733673977
 31
0.0
  0
LINE
  5
470
100
AcDbEntity
  8
____
  6
CONTINUOUS
 62
         4
100
AcDbLine
 10
2517.1066424495
 20
-451.173302069
 30
0.0
 11
2561.5566424495
 21
-406.723302069
 31
0.0
  0
LINE
  5
471
100
AcDbEntity
  8
____
  6
CONTINUOUS
 62
         4
100
AcDbLine
 10
2512.8640017624
 20
-451.173302069
 30
0.0
 11
2557.3140017624
 21
-406.723302069
 31
0.0
  0
LINE
  5
472
100
AcDbEntity
  8
____
  6
CONTINUOUS
 62
         4
100
AcDbLine
 10
2508.6213610753
 20
-451.173302069
 30
0.0
 11
2553.0713610753
 21
-406.723302069
 31
0.0
  0
LINE
  5
473
100
AcDbEntity
  8
____
  6
CONTINUOUS
 62
         4
100
AcDbLine
 10
2504.3787203882
 20
-451.173302069
 30
0.0
 11
2548.8287203882
 21
-406.723302069
 31
0.0
  0
LINE
  5
474
100
AcDbEntity
  8
____
  6
CONTINUOUS
 62
         4
100
AcDbLine
 10
2500.136079701
 20
-451.173302069
 30
0.0
 11
2544.586079701
 21
-406.723302069
 31
0.0
  0
LINE
  5
475
100
AcDbEntity
  8
____
  6
CONTINUOUS
 62
         4
100
AcDbLine
 10
2495.8934390139
 20
-451.173302069
 30
0.0
 11
2540.3434390139
 21
-406.723302069
 31
0.0
  0
LINE
  5
476
100
AcDbEntity
  8
____
  6
CONTINUOUS
 62
         4
100
AcDbLine
 10
2491.6507983268
 20
-451.173302069
 30
0.0
 11
2536.1007983268
 21
-406.723302069
 31
0.0
  0
LINE
  5
477
100
AcDbEntity
  8
____
  6
CONTINUOUS
 62
         4
100
AcDbLine
 10
2477.8581576395
 20
-460.7233020692
 30
0.0
 11
2482.1267300879
 21
-456.4547296208
 31
0.0
  0
LINE
  5
478
100
AcDbEntity
  8
____
  6
CONTINUOUS
 62
         4
100
AcDbLine
 10
2487.4081576397
 20
-451.173302069
 30
0.0
 11
2531.8581576397
 21
-406.723302069
 31
0.0
  0
LINE
  5
479
100
AcDbEntity
  8
____
  6
CONTINUOUS
 62
         4
100
AcDbLine
 10
2476.1815186918
 20
-458.1573003298
 30
0.0
 11
2482.1267300879
 21
-452.2120889337
 31
0.0
  0
LINE
  5
47A
100
AcDbEntity
  8
____
  6
CONTINUOUS
 62
         4
100
AcDbLine
 10
2483.1655169526
 20
-451.173302069
 30
0.0
 11
2527.6155169526
 21
-406.723302069
 31
0.0
  0
LINE
  5
47B
100
AcDbEntity
  8
____
  6
CONTINUOUS
 62
         4
100
AcDbLine
 10
2469.3728762653
 20
-460.7233020692
 30
0.0
 11
2472.2521741148
 21
-457.8440042197
 31
0.0
  0
LINE
  5
47C
100
AcDbEntity
  8
____
  6
CONTINUOUS
 62
         4
100
AcDbLine
 10
2472.9962325703
 20
-457.0999457641
 30
0.0
 11
2523.3728762654
 21
-406.723302069
 31
0.0
  0
LINE
  5
47D
100
AcDbEntity
  8
____
  6
CONTINUOUS
 62
         4
100
AcDbLine
 10
2466.2267300879
 20
-459.6268075594
 30
0.0
 11
2519.1302355783
 21
-406.723302069
 31
0.0
  0
LINE
  5
47E
100
AcDbEntity
  8
____
  6
CONTINUOUS
 62
         4
100
AcDbLine
 10
2466.2267300879
 20
-455.3841668723
 30
0.0
 11
2514.8875948912
 21
-406.723302069
 31
0.0
  0
LINE
  5
47F
100
AcDbEntity
  8
____
  6
CONTINUOUS
 62
         4
100
AcDbLine
 10
2466.0475926874
 20
-451.3206635857
 30
0.0
 11
2510.6449542041
 21
-406.723302069
 31
0.0
  0
LINE
  5
480
100
AcDbEntity
  8
____
  6
CONTINUOUS
 62
         4
100
AcDbLine
 10
2462.0890574442
 20
-451.0365581418
 30
0.0
 11
2506.402313517
 21
-406.723302069
 31
0.0
  0
LINE
  5
481
100
AcDbEntity
  8
____
  6
CONTINUOUS
 62
         4
100
AcDbLine
 10
2458.3863892081
 20
-450.4965856907
 30
0.0
 11
2502.1596728298
 21
-406.723302069
 31
0.0
  0
LINE
  5
482
100
AcDbEntity
  8
____
  6
CONTINUOUS
 62
         4
100
AcDbLine
 10
2454.6837209721
 20
-449.9566132396
 30
0.0
 11
2497.9170321427
 21
-406.723302069
 31
0.0
  0
LINE
  5
483
100
AcDbEntity
  8
____
  6
CONTINUOUS
 62
         4
100
AcDbLine
 10
2450.9810527361
 20
-449.4166407885
 30
0.0
 11
2493.6743914556
 21
-406.723302069
 31
0.0
  0
LINE
  5
484
100
AcDbEntity
  8
____
  6
CONTINUOUS
 62
         4
100
AcDbLine
 10
2447.2783845001
 20
-448.8766683375
 30
0.0
 11
2489.4317507685
 21
-406.723302069
 31
0.0
  0
LINE
  5
485
100
AcDbEntity
  8
____
  6
CONTINUOUS
 62
         4
100
AcDbLine
 10
2443.575716264
 20
-448.3366958864
 30
0.0
 11
2485.1891100814
 21
-406.723302069
 31
0.0
  0
LINE
  5
486
100
AcDbEntity
  8
____
  6
CONTINUOUS
 62
         4
100
AcDbLine
 10
2439.873048028
 20
-447.7967234353
 30
0.0
 11
2482.1267300879
 21
-405.5430413753
 31
0.0
  0
LINE
  5
487
100
AcDbEntity
  8
____
  6
CONTINUOUS
 62
         4
100
AcDbLine
 10
2436.170379792
 20
-447.2567509842
 30
0.0
 11
2482.1267300879
 21
-401.3004006882
 31
0.0
  0
LINE
  5
488
100
AcDbEntity
  8
____
  6
CONTINUOUS
 62
         4
100
AcDbLine
 10
2432.4677115559
 20
-446.7167785331
 30
0.0
 11
2481.7737019204
 21
-397.4107881686
 31
0.0
  0
LINE
  5
489
100
AcDbEntity
  8
____
  6
CONTINUOUS
 62
         4
100
AcDbLine
 10
2428.7650433199
 20
-446.176806082
 30
0.0
 11
2474.1185473331
 21
-400.8233020688
 31
0.0
  0
LINE
  5
48A
100
AcDbEntity
  8
____
  6
CONTINUOUS
 62
         4
100
AcDbLine
 10
2477.5188208133
 20
-397.4230285886
 30
0.0
 11
2477.7685473331
 21
-397.1733020688
 31
0.0
  0
LINE
  5
48B
100
AcDbEntity
  8
____
  6
CONTINUOUS
 62
         4
100
AcDbLine
 10
2425.0623750839
 20
-445.6368336309
 30
0.0
 11
2434.7509066458
 21
-435.948302069
 31
0.0
  0
LINE
  5
48C
100
AcDbEntity
  8
____
  6
CONTINUOUS
 62
         4
100
AcDbLine
 10
2440.3721652648
 20
-430.32704345
 30
0.0
 11
2464.13796118
 21
-406.5612475347
 31
0.0
  0
LINE
  5
48D
100
AcDbEntity
  8
____
  6
CONTINUOUS
 62
         4
100
AcDbLine
 10
2466.2267300879
 20
-404.4724786269
 30
0.0
 11
2471.6649078467
 21
-399.0343008681
 31
0.0
  0
LINE
  5
48E
100
AcDbEntity
  8
____
  6
CONTINUOUS
 62
         4
100
AcDbLine
 10
2421.3597068478
 20
-445.0968611798
 30
0.0
 11
2430.5082659587
 21
-435.948302069
 31
0.0
  0
LINE
  5
48F
100
AcDbEntity
  8
____
  6
CONTINUOUS
 62
         4
100
AcDbLine
 10
2439.8285597356
 20
-426.6280082921
 30
0.0
 11
2459.1709672049
 21
-407.2856008228
 31
0.0
  0
LINE
  5
490
100
AcDbEntity
  8
____
  6
CONTINUOUS
 62
         4
100
AcDbLine
 10
2466.2267300879
 20
-400.2298379397
 30
0.0
 11
2469.2832659588
 21
-397.1733020688
 31
0.0
  0
LINE
  5
491
100
AcDbEntity
  8
____
  6
CONTINUOUS
 62
         4
100
AcDbLine
 10
2417.6570386118
 20
-444.5568887287
 30
0.0
 11
2426.2656252715
 21
-435.948302069
 31
0.0
  0
LINE
  5
492
100
AcDbEntity
  8
____
  6
CONTINUOUS
 62
         4
100
AcDbLine
 10
2438.2756454649
 20
-423.9382818756
 30
0.0
 11
2454.2039732297
 21
-408.0099541108
 31
0.0
  0
LINE
  5
493
100
AcDbEntity
  8
____
  6
CONTINUOUS
 62
         4
100
AcDbLine
 10
2413.9543703758
 20
-444.0169162777
 30
0.0
 11
2422.0229845844
 21
-435.948302069
 31
0.0
  0
LINE
  5
494
100
AcDbEntity
  8
____
  6
CONTINUOUS
 62
         4
100
AcDbLine
 10
2436.0229845844
 20
-421.948302069
 30
0.0
 11
2449.2369792545
 21
-408.7343073989
 31
0.0
  0
LINE
  5
495
100
AcDbEntity
  8
____
  6
CONTINUOUS
 62
         4
100
AcDbLine
 10
2410.2517021397
 20
-443.4769438266
 30
0.0
 11
2417.7803438973
 21
-435.948302069
 31
0.0
  0
LINE
  5
496
100
AcDbEntity
  8
____
  6
CONTINUOUS
 62
         4
100
AcDbLine
 10
2431.7803438973
 20
-421.948302069
 30
0.0
 11
2444.2699852794
 21
-409.4586606869
 31
0.0
  0
LINE
  5
497
100
AcDbEntity
  8
____
  6
CONTINUOUS
 62
         4
100
AcDbLine
 10
2406.5490339037
 20
-442.9369713755
 30
0.0
 11
2413.5377032102
 21
-435.948302069
 31
0.0
  0
LINE
  5
498
100
AcDbEntity
  8
____
  6
CONTINUOUS
 62
         4
100
AcDbLine
 10
2427.5377032102
 20
-421.948302069
 30
0.0
 11
2439.3029913042
 21
-410.183013975
 31
0.0
  0
LINE
  5
499
100
AcDbEntity
  8
____
  6
CONTINUOUS
 62
         4
100
AcDbLine
 10
2402.8463656677
 20
-442.3969989244
 30
0.0
 11
2409.2950625231
 21
-435.948302069
 31
0.0
  0
LINE
  5
49A
100
AcDbEntity
  8
____
  6
CONTINUOUS
 62
         4
100
AcDbLine
 10
2423.2950625231
 20
-421.948302069
 30
0.0
 11
2434.3359973291
 21
-410.907367263
 31
0.0
  0
LINE
  5
49B
100
AcDbEntity
  8
____
  6
CONTINUOUS
 62
         4
100
AcDbLine
 10
2399.1436974316
 20
-441.8570264733
 30
0.0
 11
2405.0524218359
 21
-435.948302069
 31
0.0
  0
LINE
  5
49C
100
AcDbEntity
  8
____
  6
CONTINUOUS
 62
         4
100
AcDbLine
 10
2419.0524218359
 20
-421.948302069
 30
0.0
 11
2429.3690033539
 21
-411.6317205511
 31
0.0
  0
LINE
  5
49D
100
AcDbEntity
  8
____
  6
CONTINUOUS
 62
         4
100
AcDbLine
 10
2395.4561338158
 20
-441.301949402
 30
0.0
 11
2400.8097811488
 21
-435.948302069
 31
0.0
  0
LINE
  5
49E
100
AcDbEntity
  8
____
  6
CONTINUOUS
 62
         4
100
AcDbLine
 10
2414.8097811488
 20
-421.948302069
 30
0.0
 11
2424.4020093787
 21
-412.3560738391
 31
0.0
  0
LINE
  5
49F
100
AcDbEntity
  8
____
  6
CONTINUOUS
 62
         4
100
AcDbLine
 10
2394.6555703829
 20
-437.8598721478
 30
0.0
 11
2395.3883001667
 21
-437.127142364
 31
0.0
  0
LINE
  5
4A0
100
AcDbEntity
  8
____
  6
CONTINUOUS
 62
         4
100
AcDbLine
 10
2410.5671404617
 20
-421.948302069
 30
0.0
 11
2419.4350154036
 21
-413.0804271272
 31
0.0
  0
LINE
  5
4A1
100
AcDbEntity
  8
____
  6
CONTINUOUS
 62
         4
100
AcDbLine
 10
2406.3244997746
 20
-421.948302069
 30
0.0
 11
2414.4680214284
 21
-413.8047804152
 31
0.0
  0
LINE
  5
4A2
100
AcDbEntity
  8
____
  6
CONTINUOUS
 62
         4
100
AcDbLine
 10
2402.0818590875
 20
-421.948302069
 30
0.0
 11
2409.5010274532
 21
-414.5291337032
 31
0.0
  0
LINE
  5
4A3
100
AcDbEntity
  8
____
  6
CONTINUOUS
 62
         4
100
AcDbLine
 10
2399.0892184003
 20
-420.698302069
 30
0.0
 11
2404.5340334781
 21
-415.2534869913
 31
0.0
  0
LINE
  5
4A4
100
AcDbEntity
  8
____
  6
CONTINUOUS
 62
         4
100
AcDbLine
 10
2394.9820908185
 20
-420.5627889638
 30
0.0
 11
2399.5670395029
 21
-415.9778402793
 31
0.0
  0
ENDBLK
  5
4A5
100
AcDbEntity
  8
0
  6
CONTINUOUS
100
AcDbBlockEnd
  0
ENDSEC
  0
SECTION
  2
ENTITIES
  0
LINE
  5
2B
100
AcDbEntity
  8
____
  6
CONTINUOUS
 62
         7
100
AcDbLine
 10
2564.4567300879
 20
-413.2035634058
 30
0.0
 11
2564.4567300879
 21
-408.223302069
 31
0.0
  0
LINE
  5
2C
100
AcDbEntity
  8
____
  6
CONTINUOUS
 62
         7
100
AcDbLine
 10
2595.9567300879
 20
-443.323302069
 30
0.0
 11
2595.9567300879
 21
-443.823302069
 31
0.0
  0
DIMENSION
  5
30
100
AcDbEntity
  8
____
  6
CONTINUOUS
 62
         4
100
AcDbDimension
  2
*D0
 10
2622.8767300879
 20
-213.1626928834
 30
0.0
 11
2500.6517300879
 21
-211.1376928834
 31
0.0
  3
DIMSTYLE1
100
AcDbAlignedDimension
 13
2622.8767300879
 23
-300.9896562505
 33
0.0
 14
2394.6267300879
 24
-302.629349534
 34
0.0
100
AcDbRotatedDimension
  0
DIMENSION
  5
3F
100
AcDbEntity
  8
____
  6
CONTINUOUS
 62
         4
100
AcDbDimension
  2
*D1
 10
2622.8767300879
 20
-220.8698770826
 30
0.0
 11
2538.9017300879
 21
-218.8448770826
 31
0.0
  3
DIMSTYLE1
100
AcDbAlignedDimension
 13
2622.8767300879
 23
-300.9896562505
 33
0.0
 14
2463.0267300879
 24
-291.6166562505
 34
0.0
100
AcDbRotatedDimension
  0
LINE
  5
4B
100
AcDbEntity
  8
____
  6
CONTINUOUS
 62
         7
100
AcDbLine
 10
2437.1267300879
 20
-435.948302069
 30
0.0
 11
2441.1681819722
 21
-428.948302069
 31
0.0
  0
LINE
  5
4C
100
AcDbEntity
  8
____
  6
CONTINUOUS
 62
         7
100
AcDbLine
 10
2437.1267300879
 20
-421.948302069
 30
0.0
 11
2441.1681819722
 21
-428.948302069
 31
0.0
  0
LINE
  5
4D
100
AcDbEntity
  8
____
  6
CONTINUOUS
 62
         7
100
AcDbLine
 10
2437.1267300879
 20
-421.948302069
 30
0.0
 11
2437.1267300879
 21
-435.948302069
 31
0.0
  0
ARC
  5
4E
100
AcDbEntity
  8
____
  6
CONTINUOUS
 62
         7
100
AcDbCircle
 10
2562.9567300879
 20
-408.223302069
 30
0.0
 40
1.5
100
AcDbArc
 50
0.0
 51
90.0
  0
ARC
  5
4F
100
AcDbEntity
  8
____
  6
CONTINUOUS
 62
         7
100
AcDbCircle
 10
2562.9567300879
 20
-449.673302069
 30
0.0
 40
1.5
100
AcDbArc
 50
270.0
 51
360.0
  0
ARC
  5
50
100
AcDbEntity
  8
____
  6
CONTINUOUS
 62
         7
100
AcDbCircle
 10
2562.9567300879
 20
-293.0566562505
 30
0.0
 40
1.5
100
AcDbArc
 50
0.0
 51
90.0
  0
ARC
  5
51
100
AcDbEntity
  8
____
  6
CONTINUOUS
 62
         7
100
AcDbCircle
 10
2562.9567300879
 20
-334.6266562505
 30
0.0
 40
1.5
100
AcDbArc
 50
270.0
 51
360.0
  0
INSERT
  5
5E
100
AcDbEntity
  8
0
  6
CONTINUOUS
100
AcDbBlockReference
  2
*X2
 10
0.0
 20
0.0
 30
0.0
  0
INSERT
  5
6C
100
AcDbEntity
  8
0
  6
CONTINUOUS
100
AcDbBlockReference
  2
*X3
 10
0.0
 20
0.0
 30
0.0
  0
INSERT
  5
78
100
AcDbEntity
  8
0
  6
CONTINUOUS
100
AcDbBlockReference
  2
*X4
 10
0.0
 20
0.0
 30
0.0
  0
INSERT
  5
82
100
AcDbEntity
  8
0
  6
CONTINUOUS
100
AcDbBlockReference
  2
*X5
 10
0.0
 20
0.0
 30
0.0
  0
INSERT
  5
8E
100
AcDbEntity
  8
0
  6
CONTINUOUS
100
AcDbBlockReference
  2
*X6
 10
0.0
 20
0.0
 30
0.0
  0
INSERT
  5
99
100
AcDbEntity
  8
0
  6
CONTINUOUS
100
AcDbBlockReference
  2
*X7
 10
0.0
 20
0.0
 30
0.0
  0
DIMENSION
  5
9C
100
AcDbEntity
  8
____
  6
CONTINUOUS
 62
         4
100
AcDbDimension
  2
*D8
 10
2774.063815982
 20
-294.7966562505
 30
0.0
 11
2772.038815982
 21
-322.2447113502
 31
0.0
  3
DIMSTYLE1
100
AcDbAlignedDimension
 13
2789.9710917635
 23
-294.7966562505
 33
0.0
 14
2793.9310917635
 24
-329.7166562505
 34
0.0
 50
90.0
100
AcDbRotatedDimension
  0
ARC
  5
A8
100
AcDbEntity
  8
____
  6
CONTINUOUS
 62
         7
100
AcDbCircle
 10
2793.9310917635
 20
-313.8416562505
 30
0.0
 40
15.875
100
AcDbArc
 50
104.4448985346
 51
435.5551014654
  0
LINE
  5
A9
100
AcDbEntity
  8
____
  6
CONTINUOUS
 62
         7
100
AcDbLine
 10
2789.9710917635
 20
-302.7166562505
 30
0.0
 11
2789.9710917635
 21
-294.7966562505
 31
0.0
  0
LINE
  5
AA
100
AcDbEntity
  8
____
  6
CONTINUOUS
 62
         7
100
AcDbLine
 10
2797.8910917635
 20
-302.7166562505
 30
0.0
 11
2797.8910917635
 21
-294.7966562505
 31
0.0
  0
LINE
  5
AB
100
AcDbEntity
  8
____
  6
CONTINUOUS
 62
         7
100
AcDbLine
 10
2797.8910917635
 20
-294.7966562505
 30
0.0
 11
2789.9710917635
 21
-294.7966562505
 31
0.0
  0
LINE
  5
AC
100
AcDbEntity
  8
____
  6
CONTINUOUS
 62
         7
100
AcDbLine
 10
2797.8910917635
 20
-302.7166562505
 30
0.0
 11
2789.9710917635
 21
-302.7166562505
 31
0.0
  0
LINE
  5
AD
100
AcDbEntity
  8
____
  6
CENTER
 62
         1
100
AcDbLine
 10
2793.9310917635
 20
-333.4760778251
 30
0.0
 11
2793.9310917635
 21
-293.4079812635
 31
0.0
  0
CIRCLE
  5
AE
100
AcDbEntity
  8
____
  6
CONTINUOUS
 62
         7
100
AcDbCircle
 10
2718.817522022
 20
-313.8416562505
 30
0.0
 40
15.875
  0
LINE
  5
AF
100
AcDbEntity
  8
____
  6
DASHED
 62
         2
100
AcDbLine
 10
2714.857522022
 20
-302.7166562505
 30
0.0
 11
2714.857522022
 21
-298.4684970111
 31
0.0
  0
LINE
  5
B0
100
AcDbEntity
  8
____
  6
DASHED
 62
         2
100
AcDbLine
 10
2722.777522022
 20
-302.7166562505
 30
0.0
 11
2722.777522022
 21
-298.4684970111
 31
0.0
  0
LINE
  5
B1
100
AcDbEntity
  8
____
  6
DASHED
 62
         2
100
AcDbLine
 10
2722.777522022
 20
-302.7166562505
 30
0.0
 11
2714.857522022
 21
-302.7166562505
 31
0.0
  0
CIRCLE
  5
B2
100
AcDbEntity
  8
____
  6
CONTINUOUS
 62
         7
100
AcDbCircle
 10
2718.817522022
 20
-313.8416562505
 30
0.0
 40
22.25
  0
LINE
  5
B3
100
AcDbEntity
  8
____
  6
CENTER
 62
         1
100
AcDbLine
 10
2718.817522022
 20
-340.6381813655
 30
0.0
 11
2718.817522022
 21
-286.887177382
 31
0.0
  0
ARC
  5
B4
100
AcDbEntity
  8
____
  6
CONTINUOUS
 62
         4
100
AcDbCircle
 10
2718.817522022
 20
-313.8416562505
 30
0.0
 40
14.554
100
AcDbArc
 50
257.6262033344
 51
540.0
  0
DIMENSION
  5
B7
100
AcDbEntity
  8
____
  6
CONTINUOUS
 62
         4
100
AcDbDimension
  2
*D9
 10
2510.3620982519
 20
-485.0680784891
 30
0.0
 11
2517.4620982519
 21
-483.0430784891
 31
0.0
  3
DIMSTYLE1
100
AcDbAlignedDimension
 13
2510.3620982519
 23
-500.1361186158
 33
0.0
 14
2535.3620982519
 24
-500.1361186158
 34
0.0
100
AcDbRotatedDimension
  0
DIMENSION
  5
C5
100
AcDbEntity
  8
____
  6
CONTINUOUS
 62
         4
100
AcDbDimension
  2
*D10
 10
2477.0009363401
 20
-496.1761186158
 30
0.0
 11
2474.9759363401
 21
-505.5361186158
 31
0.0
  3
DIMSTYLE1
100
AcDbAlignedDimension
 13
2485.5666734468
 23
-496.1761186158
 33
0.0
 14
2485.5666734468
 24
-504.0961186158
 34
0.0
 50
90.0
100
AcDbRotatedDimension
  0
DIMENSION
  5
D3
100
AcDbEntity
  8
____
  6
CONTINUOUS
 62
         4
100
AcDbDimension
  2
*D11
 10
2492.4866734468
 20
-488.9376641298
 30
0.0
 11
2483.1266734468
 21
-486.9126641298
 31
0.0
  3
DIMSTYLE1
100
AcDbAlignedDimension
 13
2492.4866734468
 23
-497.1761186158
 33
0.0
 14
2484.5666734468
 24
-497.1761186158
 34
0.0
100
AcDbRotatedDimension
  0
ARC
  5
DF
100
AcDbEntity
  8
____
  6
CONTINUOUS
 62
         7
100
AcDbCircle
 10
2531.4020982519
 20
-500.1361186158
 30
0.0
 40
3.96
100
AcDbArc
 50
270.0
 51
360.0
  0
ARC
  5
E0
100
AcDbEntity
  8
____
  6
CONTINUOUS
 62
         7
100
AcDbCircle
 10
2514.3220982519
 20
-500.1361186158
 30
0.0
 40
3.96
100
AcDbArc
 50
180.0000000001
 51
270.0
  0
ARC
  5
E1
100
AcDbEntity
  8
____
  6
CONTINUOUS
 62
         7
100
AcDbCircle
 10
2531.4020982519
 20
-500.1361186158
 30
0.0
 40
3.96
100
AcDbArc
 50
0.0
 51
90.0
  0
ARC
  5
E2
100
AcDbEntity
  8
____
  6
CONTINUOUS
 62
         7
100
AcDbCircle
 10
2514.3220982519
 20
-500.1361186158
 30
0.0
 40
3.96
100
AcDbArc
 50
90.0
 51
180.0000000001
  0
LINE
  5
E3
100
AcDbEntity
  8
____
  6
CONTINUOUS
 62
         7
100
AcDbLine
 10
2531.4020982519
 20
-504.0961186158
 30
0.0
 11
2514.3220982519
 21
-504.0961186158
 31
0.0
  0
LINE
  5
E4
100
AcDbEntity
  8
____
  6
CONTINUOUS
 62
         7
100
AcDbLine
 10
2531.4020982519
 20
-496.1761186158
 30
0.0
 11
2514.3220982519
 21
-496.1761186158
 31
0.0
  0
ARC
  5
E5
100
AcDbEntity
  8
____
  6
CONTINUOUS
 62
         7
100
AcDbCircle
 10
2491.4866734468
 20
-503.0961186158
 30
0.0
 40
1.0
100
AcDbArc
 50
270.0
 51
360.0
  0
ARC
  5
E6
100
AcDbEntity
  8
____
  6
CONTINUOUS
 62
         7
100
AcDbCircle
 10
2485.5666734468
 20
-503.0961186158
 30
0.0
 40
1.0
100
AcDbArc
 50
180.0
 51
270.0
  0
ARC
  5
E7
100
AcDbEntity
  8
____
  6
CONTINUOUS
 62
         7
100
AcDbCircle
 10
2485.5666734468
 20
-497.1761186158
 30
0.0
 40
1.0
100
AcDbArc
 50
90.0
 51
180.0
  0
ARC
  5
E8
100
AcDbEntity
  8
____
  6
CONTINUOUS
 62
         7
100
AcDbCircle
 10
2491.4866734468
 20
-497.1761186158
 30
0.0
 40
1.0
100
AcDbArc
 50
0.0
 51
90.0
  0
LINE
  5
E9
100
AcDbEntity
  8
____
  6
CONTINUOUS
 62
         7
100
AcDbLine
 10
2491.4866734468
 20
-504.0961186158
 30
0.0
 11
2485.5666734468
 21
-504.0961186158
 31
0.0
  0
LINE
  5
EA
100
AcDbEntity
  8
____
  6
CONTINUOUS
 62
         7
100
AcDbLine
 10
2491.4866734468
 20
-496.1761186158
 30
0.0
 11
2485.5666734468
 21
-496.1761186158
 31
0.0
  0
LINE
  5
EB
100
AcDbEntity
  8
____
  6
CONTINUOUS
 62
         7
100
AcDbLine
 10
2492.4866734468
 20
-503.0961186158
 30
0.0
 11
2492.4866734468
 21
-497.1761186158
 31
0.0
  0
LINE
  5
EC
100
AcDbEntity
  8
____
  6
CONTINUOUS
 62
         7
100
AcDbLine
 10
2484.5666734468
 20
-503.0961186158
 30
0.0
 11
2484.5666734468
 21
-497.1761186158
 31
0.0
  0
LINE
  5
ED
100
AcDbEntity
  8
____
  6
CENTER
 62
         1
100
AcDbLine
 10
2540.727664443
 20
-500.1361186158
 30
0.0
 11
2480.264506523
 21
-500.1361186158
 31
0.0
  0
DIMENSION
  5
F0
100
AcDbEntity
  8
____
  6
CONTINUOUS
 62
         4
100
AcDbDimension
  2
*D12
 10
2531.4020982519
 20
-500.1361186158
 30
0.0
 11
2537.1196755143
 21
-503.7340059233
 31
0.0
 70
         4
  3
DIMSTYLE1
100
AcDbRadialDimension
 15
2534.2857877425
 25
-502.8501442093
 35
0.0
 40
0.0
  0
LINE
  5
F9
100
AcDbEntity
  8
____
  6
CENTER
 62
         1
100
AcDbLine
 10
2793.9832356803
 20
-405.7565021661
 30
0.0
 11
2652.8625186772
 21
-405.7565021661
 31
0.0
  0
INSERT
  5
105
100
AcDbEntity
  8
0
  6
CONTINUOUS
100
AcDbBlockReference
  2
GENDIML15
 10
0.0
 20
0.0
 30
0.0
  0
DIMENSION
  5
108
100
AcDbEntity
  8
____
  6
CONTINUOUS
 62
         4
100
AcDbDimension
  2
*D14
 10
2662.9132848189
 20
-400.3760251514
 30
0.0
 11
2663.0359539956
 21
-399.1690183583
 31
0.0
 70
         3
  3
DIMSTYLE1
100
AcDbDiametricDimension
 15
2692.7840793911
 25
-411.1369791808
 35
0.0
 40
0.0
  0
INSERT
  5
11D
100
AcDbEntity
  8
0
  6
CONTINUOUS
100
AcDbBlockReference
  2
*X15
 10
0.0
 20
0.0
 30
0.0
  0
INSERT
  5
126
100
AcDbEntity
  8
0
  6
CONTINUOUS
100
AcDbBlockReference
  2
*X16
 10
0.0
 20
0.0
 30
0.0
  0
INSERT
  5
133
100
AcDbEntity
  8
0
  6
CONTINUOUS
100
AcDbBlockReference
  2
*X17
 10
0.0
 20
0.0
 30
0.0
  0
INSERT
  5
13E
100
AcDbEntity
  8
0
  6
CONTINUOUS
100
AcDbBlockReference
  2
*X18
 10
0.0
 20
0.0
 30
0.0
  0
INSERT
  5
14F
100
AcDbEntity
  8
0
  6
CONTINUOUS
100
AcDbBlockReference
  2
*X19
 10
0.0
 20
0.0
 30
0.0
  0
INSERT
  5
15F
100
AcDbEntity
  8
0
  6
CONTINUOUS
100
AcDbBlockReference
  2
*X20
 10
0.0
 20
0.0
 30
0.0
  0
INSERT
  5
16F
100
AcDbEntity
  8
0
  6
CONTINUOUS
100
AcDbBlockReference
  2
*X21
 10
0.0
 20
0.0
 30
0.0
  0
INSERT
  5
17D
100
AcDbEntity
  8
0
  6
CONTINUOUS
100
AcDbBlockReference
  2
*X22
 10
0.0
 20
0.0
 30
0.0
  0
LINE
  5
17E
100
AcDbEntity
  8
____
  6
CONTINUOUS
 62
         7
100
AcDbLine
 10
2711.6456621564
 20
-390.3833429267
 30
0.0
 11
2709.4964300547
 21
-390.3833429267
 31
0.0
  0
LINE
  5
17F
100
AcDbEntity
  8
____
  6
CONTINUOUS
 62
         7
100
AcDbLine
 10
2712.1585461055
 20
-422.1395021661
 30
0.0
 11
2711.6585461055
 21
-421.6395021661
 31
0.0
  0
LINE
  5
180
100
AcDbEntity
  8
____
  6
CONTINUOUS
 62
         7
100
AcDbLine
 10
2712.1585461055
 20
-389.8704589776
 30
0.0
 11
2711.6456621564
 21
-390.3833429267
 31
0.0
  0
LINE
  5
181
100
AcDbEntity
  8
____
  6
CONTINUOUS
 62
         7
100
AcDbLine
 10
2709.4835461055
 20
-421.6395021661
 30
0.0
 11
2708.9835461055
 21
-422.1395021661
 31
0.0
  0
LINE
  5
182
100
AcDbEntity
  8
____
  6
CONTINUOUS
 62
         7
100
AcDbLine
 10
2709.4964300547
 20
-390.3833429267
 30
0.0
 11
2708.9835461055
 21
-389.8704589776
 31
0.0
  0
LINE
  5
183
100
AcDbEntity
  8
____
  6
CONTINUOUS
 62
         7
100
AcDbLine
 10
2711.6585461055
 20
-421.6395021661
 30
0.0
 11
2709.4835461055
 21
-421.6395021661
 31
0.0
  0
LINE
  5
184
100
AcDbEntity
  8
____
  6
CONTINUOUS
 62
         7
100
AcDbLine
 10
2712.1585461055
 20
-386.7195021661
 30
0.0
 11
2708.9835461055
 21
-386.7195021661
 31
0.0
  0
ARC
  5
185
100
AcDbEntity
  8
____
  6
CONTINUOUS
 62
         7
100
AcDbCircle
 10
2709.9835461055
 20
-426.0065021661
 30
0.0
 40
1.0
100
AcDbArc
 50
180.0
 51
270.0
  0
ARC
  5
186
100
AcDbEntity
  8
____
  6
CONTINUOUS
 62
         7
100
AcDbCircle
 10
2711.1585461055
 20
-426.0065021661
 30
0.0
 40
1.0
100
AcDbArc
 50
270.0
 51
360.0
  0
ARC
  5
187
100
AcDbEntity
  8
____
  6
CONTINUOUS
 62
         7
100
AcDbCircle
 10
2709.9835461055
 20
-385.5065021661
 30
0.0
 40
1.0
100
AcDbArc
 50
90.0
 51
180.0
  0
ARC
  5
188
100
AcDbEntity
  8
____
  6
CONTINUOUS
 62
         7
100
AcDbCircle
 10
2711.1585461055
 20
-385.5065021661
 30
0.0
 40
1.0
100
AcDbArc
 50
0.0
 51
90.0
  0
LINE
  5
189
100
AcDbEntity
  8
____
  6
CONTINUOUS
 62
         7
100
AcDbLine
 10
2709.9835461055
 20
-427.0065021661
 30
0.0
 11
2711.1585461055
 21
-427.0065021661
 31
0.0
  0
LINE
  5
18A
100
AcDbEntity
  8
____
  6
CONTINUOUS
 62
         7
100
AcDbLine
 10
2711.1585461055
 20
-384.5065021661
 30
0.0
 11
2709.9835461055
 21
-384.5065021661
 31
0.0
  0
DIMENSION
  5
18D
100
AcDbEntity
  8
____
  6
CONTINUOUS
 62
         4
100
AcDbDimension
  2
*D23
 10
2708.9835461055
 20
-376.4838111424
 30
0.0
 11
2705.1710461055
 21
-374.4588111424
 31
0.0
  3
DIMSTYLE1
100
AcDbAlignedDimension
 13
2708.9835461055
 23
-383.5065021661
 33
0.0
 14
2712.1585461055
 24
-383.5065021661
 34
0.0
100
AcDbRotatedDimension
  0
TEXT
  5
19A
100
AcDbEntity
  8
____
  6
CONTINUOUS
 62
         2
100
AcDbText
 10
2707.7485934186
 20
-369.2328746974
 30
0.0
 40
2.1
  1
1/8
  7
BOX
100
AcDbText
  0
LINE
  5
19B
100
AcDbEntity
  8
____
  6
CONTINUOUS
 62
         7
100
AcDbLine
 10
2712.1585461055
 20
-426.0065021661
 30
0.0
 11
2712.1585461055
 21
-385.5065021661
 31
0.0
  0
LINE
  5
19C
100
AcDbEntity
  8
____
  6
CONTINUOUS
 62
         7
100
AcDbLine
 10
2708.9835461055
 20
-426.0065021661
 30
0.0
 11
2708.9835461055
 21
-385.5065021661
 31
0.0
  0
LINE
  5
19D
100
AcDbEntity
  8
____
  6
CONTINUOUS
 62
         7
100
AcDbLine
 10
2732.9956621564
 20
-390.3833429267
 30
0.0
 11
2727.6714300547
 21
-390.3833429267
 31
0.0
  0
LINE
  5
19E
100
AcDbEntity
  8
____
  6
CONTINUOUS
 62
         7
100
AcDbLine
 10
2733.5085461055
 20
-422.1395021661
 30
0.0
 11
2733.0085461055
 21
-421.6395021661
 31
0.0
  0
LINE
  5
19F
100
AcDbEntity
  8
____
  6
CONTINUOUS
 62
         7
100
AcDbLine
 10
2733.5085461055
 20
-389.8704589776
 30
0.0
 11
2732.9956621564
 21
-390.3833429267
 31
0.0
  0
LINE
  5
1A0
100
AcDbEntity
  8
____
  6
CONTINUOUS
 62
         7
100
AcDbLine
 10
2727.6585461055
 20
-421.6395021661
 30
0.0
 11
2727.1585461055
 21
-422.1395021661
 31
0.0
  0
LINE
  5
1A1
100
AcDbEntity
  8
____
  6
CONTINUOUS
 62
         7
100
AcDbLine
 10
2727.6714300547
 20
-390.3833429267
 30
0.0
 11
2727.1585461055
 21
-389.8704589776
 31
0.0
  0
LINE
  5
1A2
100
AcDbEntity
  8
____
  6
CONTINUOUS
 62
         7
100
AcDbLine
 10
2733.0085461055
 20
-421.6395021661
 30
0.0
 11
2727.6585461055
 21
-421.6395021661
 31
0.0
  0
LINE
  5
1A3
100
AcDbEntity
  8
____
  6
CONTINUOUS
 62
         7
100
AcDbLine
 10
2733.5085461055
 20
-386.7195021661
 30
0.0
 11
2727.1585461055
 21
-386.7195021661
 31
0.0
  0
ARC
  5
1A4
100
AcDbEntity
  8
____
  6
CONTINUOUS
 62
         7
100
AcDbCircle
 10
2732.5085461055
 20
-385.5065021661
 30
0.0
 40
1.0
100
AcDbArc
 50
0.0
 51
90.0
  0
ARC
  5
1A5
100
AcDbEntity
  8
____
  6
CONTINUOUS
 62
         7
100
AcDbCircle
 10
2728.1585461055
 20
-385.5065021661
 30
0.0
 40
1.0
100
AcDbArc
 50
90.0
 51
180.0
  0
ARC
  5
1A6
100
AcDbEntity
  8
____
  6
CONTINUOUS
 62
         7
100
AcDbCircle
 10
2728.1585461055
 20
-426.0065021661
 30
0.0
 40
1.0
100
AcDbArc
 50
180.0
 51
270.0
  0
ARC
  5
1A7
100
AcDbEntity
  8
____
  6
CONTINUOUS
 62
         7
100
AcDbCircle
 10
2732.5085461055
 20
-426.0065021661
 30
0.0
 40
1.0
100
AcDbArc
 50
270.0
 51
360.0
  0
LINE
  5
1A8
100
AcDbEntity
  8
____
  6
CONTINUOUS
 62
         7
100
AcDbLine
 10
2732.5085461055
 20
-384.5065021661
 30
0.0
 11
2728.1585461055
 21
-384.5065021661
 31
0.0
  0
LINE
  5
1A9
100
AcDbEntity
  8
____
  6
CONTINUOUS
 62
         7
100
AcDbLine
 10
2728.1585461055
 20
-427.0065021661
 30
0.0
 11
2732.5085461055
 21
-427.0065021661
 31
0.0
  0
TEXT
  5
1AB
100
AcDbEntity
  8
____
  6
CONTINUOUS
 62
         2
100
AcDbText
 10
2727.2168994252
 20
-369.9936151016
 30
0.0
 40
2.1
  1
1/4
  7
BOX
100
AcDbText
  0
LINE
  5
1AC
100
AcDbEntity
  8
____
  6
CONTINUOUS
 62
         7
100
AcDbLine
 10
2727.1585461055
 20
-426.0065021661
 30
0.0
 11
2727.1585461055
 21
-385.5065021661
 31
0.0
  0
LINE
  5
1AD
100
AcDbEntity
  8
____
  6
CONTINUOUS
 62
         7
100
AcDbLine
 10
2733.5085461055
 20
-426.0065021661
 30
0.0
 11
2733.5085461055
 21
-385.5065021661
 31
0.0
  0
DIMENSION
  5
1B0
100
AcDbEntity
  8
____
  6
CONTINUOUS
 62
         4
100
AcDbDimension
  2
*D24
 10
2727.1585461055
 20
-376.3796156029
 30
0.0
 11
2724.9335461055
 21
-374.3546156029
 31
0.0
  3
DIMSTYLE1
100
AcDbAlignedDimension
 13
2727.1585461055
 23
-383.5065021661
 33
0.0
 14
2733.5085461055
 24
-383.5065021661
 34
0.0
100
AcDbRotatedDimension
  0
LINE
  5
1BC
100
AcDbEntity
  8
____
  6
CONTINUOUS
 62
         7
100
AcDbLine
 10
2785.2206621564
 20
-390.3833429267
 30
0.0
 11
2773.5464300547
 21
-390.3833429267
 31
0.0
  0
LINE
  5
1BD
100
AcDbEntity
  8
____
  6
CONTINUOUS
 62
         7
100
AcDbLine
 10
2785.7335461055
 20
-422.1395021661
 30
0.0
 11
2785.2335461055
 21
-421.6395021661
 31
0.0
  0
LINE
  5
1BE
100
AcDbEntity
  8
____
  6
CONTINUOUS
 62
         7
100
AcDbLine
 10
2785.7335461055
 20
-389.8704589776
 30
0.0
 11
2785.2206621564
 21
-390.3833429267
 31
0.0
  0
LINE
  5
1BF
100
AcDbEntity
  8
____
  6
CONTINUOUS
 62
         7
100
AcDbLine
 10
2773.5335461055
 20
-421.6395021661
 30
0.0
 11
2773.0335461055
 21
-422.1395021661
 31
0.0
  0
LINE
  5
1C0
100
AcDbEntity
  8
____
  6
CONTINUOUS
 62
         7
100
AcDbLine
 10
2773.5464300547
 20
-390.3833429267
 30
0.0
 11
2773.0335461055
 21
-389.8704589776
 31
0.0
  0
LINE
  5
1C1
100
AcDbEntity
  8
____
  6
CONTINUOUS
 62
         7
100
AcDbLine
 10
2785.2335461055
 20
-421.6395021661
 30
0.0
 11
2773.5335461055
 21
-421.6395021661
 31
0.0
  0
LINE
  5
1C2
100
AcDbEntity
  8
____
  6
CONTINUOUS
 62
         7
100
AcDbLine
 10
2785.7335461055
 20
-386.7195021661
 30
0.0
 11
2773.0335461055
 21
-386.7195021661
 31
0.0
  0
ARC
  5
1C3
100
AcDbEntity
  8
____
  6
CONTINUOUS
 62
         7
100
AcDbCircle
 10
2784.7335461055
 20
-385.5065021661
 30
0.0
 40
1.0
100
AcDbArc
 50
0.0
 51
90.0
  0
ARC
  5
1C4
100
AcDbEntity
  8
____
  6
CONTINUOUS
 62
         7
100
AcDbCircle
 10
2774.0335461055
 20
-385.5065021661
 30
0.0
 40
1.0
100
AcDbArc
 50
90.0
 51
180.0
  0
ARC
  5
1C5
100
AcDbEntity
  8
____
  6
CONTINUOUS
 62
         7
100
AcDbCircle
 10
2774.0335461055
 20
-426.0065021661
 30
0.0
 40
1.0
100
AcDbArc
 50
180.0
 51
270.0
  0
ARC
  5
1C6
100
AcDbEntity
  8
____
  6
CONTINUOUS
 62
         7
100
AcDbCircle
 10
2784.7335461055
 20
-426.0065021661
 30
0.0
 40
1.0
100
AcDbArc
 50
270.0
 51
360.0
  0
LINE
  5
1C7
100
AcDbEntity
  8
____
  6
CONTINUOUS
 62
         7
100
AcDbLine
 10
2774.0335461055
 20
-427.0065021661
 30
0.0
 11
2784.7335461055
 21
-427.0065021661
 31
0.0
  0
LINE
  5
1C8
100
AcDbEntity
  8
____
  6
CONTINUOUS
 62
         7
100
AcDbLine
 10
2784.7335461055
 20
-384.5065021661
 30
0.0
 11
2774.0335461055
 21
-384.5065021661
 31
0.0
  0
TEXT
  5
1CA
100
AcDbEntity
  8
____
  6
CONTINUOUS
 62
         2
100
AcDbText
 10
2776.1547292253
 20
-369.0991900139
 30
0.0
 40
2.1
  1
1/2
  7
BOX
100
AcDbText
  0
DIMENSION
  5
1CD
100
AcDbEntity
  8
____
  6
CONTINUOUS
 62
         4
100
AcDbDimension
  2
*D25
 10
2773.0335461055
 20
-375.6129655277
 30
0.0
 11
2773.9835461055
 21
-373.5879655277
 31
0.0
  3
DIMSTYLE1
100
AcDbAlignedDimension
 13
2773.0335461055
 23
-383.5065021661
 33
0.0
 14
2785.7335461055
 24
-383.5065021661
 34
0.0
100
AcDbRotatedDimension
  0
LINE
  5
1D9
100
AcDbEntity
  8
____
  6
CONTINUOUS
 62
         7
100
AcDbLine
 10
2773.0335461055
 20
-426.0065021661
 30
0.0
 11
2773.0335461055
 21
-385.5065021661
 31
0.0
  0
LINE
  5
1DA
100
AcDbEntity
  8
____
  6
CONTINUOUS
 62
         7
100
AcDbLine
 10
2785.7335461055
 20
-426.0065021661
 30
0.0
 11
2785.7335461055
 21
-385.5065021661
 31
0.0
  0
LINE
  5
1DB
100
AcDbEntity
  8
____
  6
CONTINUOUS
 62
         7
100
AcDbLine
 10
2757.5206621564
 20
-390.3833429267
 30
0.0
 11
2749.0214300547
 21
-390.3833429267
 31
0.0
  0
LINE
  5
1DC
100
AcDbEntity
  8
____
  6
CONTINUOUS
 62
         7
100
AcDbLine
 10
2748.5085461055
 20
-427.0065021661
 30
0.0
 11
2748.5085461055
 21
-384.5065021661
 31
0.0
  0
LINE
  5
1DD
100
AcDbEntity
  8
____
  6
CONTINUOUS
 62
         7
100
AcDbLine
 10
2758.0335461055
 20
-384.5065021661
 30
0.0
 11
2758.0335461055
 21
-427.0065021661
 31
0.0
  0
LINE
  5
1DE
100
AcDbEntity
  8
____
  6
CONTINUOUS
 62
         7
100
AcDbLine
 10
2749.0214300547
 20
-390.3833429267
 30
0.0
 11
2748.5085461055
 21
-389.8704589776
 31
0.0
  0
LINE
  5
1DF
100
AcDbEntity
  8
____
  6
CONTINUOUS
 62
         7
100
AcDbLine
 10
2758.0335461055
 20
-389.8704589776
 30
0.0
 11
2757.5206621564
 21
-390.3833429267
 31
0.0
  0
LINE
  5
1E0
100
AcDbEntity
  8
____
  6
CONTINUOUS
 62
         7
100
AcDbLine
 10
2749.0085461055
 20
-421.6395021661
 30
0.0
 11
2748.5085461055
 21
-422.1395021661
 31
0.0
  0
LINE
  5
1E1
100
AcDbEntity
  8
____
  6
CONTINUOUS
 62
         7
100
AcDbLine
 10
2758.0335461055
 20
-422.1395021661
 30
0.0
 11
2757.5335461055
 21
-421.6395021661
 31
0.0
  0
LINE
  5
1E2
100
AcDbEntity
  8
____
  6
CONTINUOUS
 62
         7
100
AcDbLine
 10
2757.5335461055
 20
-421.6395021661
 30
0.0
 11
2749.0085461055
 21
-421.6395021661
 31
0.0
  0
LINE
  5
1E3
100
AcDbEntity
  8
____
  6
CONTINUOUS
 62
         7
100
AcDbLine
 10
2758.0335461055
 20
-386.7195021661
 30
0.0
 11
2748.5085461055
 21
-386.7195021661
 31
0.0
  0
ARC
  5
1E4
100
AcDbEntity
  8
____
  6
CONTINUOUS
 62
         7
100
AcDbCircle
 10
2757.0335461055
 20
-427.0065021661
 30
0.0
 40
1.0
100
AcDbArc
 50
270.0
 51
360.0
  0
ARC
  5
1E5
100
AcDbEntity
  8
____
  6
CONTINUOUS
 62
         7
100
AcDbCircle
 10
2749.5085461055
 20
-427.0065021661
 30
0.0
 40
1.0
100
AcDbArc
 50
180.0
 51
270.0
  0
ARC
  5
1E6
100
AcDbEntity
  8
____
  6
CONTINUOUS
 62
         7
100
AcDbCircle
 10
2749.5085461055
 20
-384.5065021661
 30
0.0
 40
1.0
100
AcDbArc
 50
90.0
 51
180.0
  0
ARC
  5
1E7
100
AcDbEntity
  8
____
  6
CONTINUOUS
 62
         7
100
AcDbCircle
 10
2757.0335461055
 20
-384.5065021661
 30
0.0
 40
1.0
100
AcDbArc
 50
0.0
 51
90.0
  0
LINE
  5
1E8
100
AcDbEntity
  8
____
  6
CONTINUOUS
 62
         7
100
AcDbLine
 10
2757.0335461055
 20
-428.0065021661
 30
0.0
 11
2749.5085461055
 21
-428.0065021661
 31
0.0
  0
LINE
  5
1E9
100
AcDbEntity
  8
____
  6
CONTINUOUS
 62
         7
100
AcDbLine
 10
2757.0335461055
 20
-383.5065021661
 30
0.0
 11
2749.5085461055
 21
-383.5065021661
 31
0.0
  0
DIMENSION
  5
1EC
100
AcDbEntity
  8
____
  6
CONTINUOUS
 62
         4
100
AcDbDimension
  2
*D26
 10
2748.5085461055
 20
-376.1240655779
 30
0.0
 11
2747.8710461055
 21
-374.0990655779
 31
0.0
  3
DIMSTYLE1
100
AcDbAlignedDimension
 13
2748.5085461055
 23
-383.5065021661
 33
0.0
 14
2758.0335461055
 24
-383.5065021661
 34
0.0
100
AcDbRotatedDimension
  0
TEXT
  5
1F9
100
AcDbEntity
  8
____
  6
CONTINUOUS
 62
         2
100
AcDbText
 10
2749.5775266185
 20
-368.7158649763
 30
0.0
 40
2.1
  1
3/8
  7
BOX
100
AcDbText
  0
LINE
  5
1FA
100
AcDbEntity
  8
____
  6
CONTINUOUS
 62
         7
100
AcDbLine
 10
2681.808682105
 20
-386.7115021661
 30
0.0
 11
2673.888682105
 21
-386.7115021661
 31
0.0
  0
ARC
  5
1FB
100
AcDbEntity
  8
____
  6
CONTINUOUS
 62
         7
100
AcDbCircle
 10
2677.848682105
 20
-405.7565021661
 30
0.0
 40
15.875
100
AcDbArc
 50
104.4448985346
 51
435.5551014654
  0
DIMENSION
  5
1FE
100
AcDbEntity
  8
____
  6
CONTINUOUS
 62
         4
100
AcDbDimension
  2
*D27
 10
2681.808682105
 20
-376.9472559744
 30
0.0
 11
2672.448682105
 21
-374.9222559744
 31
0.0
  3
DIMSTYLE1
100
AcDbAlignedDimension
 13
2681.808682105
 23
-386.7195021661
 33
0.0
 14
2673.888682105
 24
-386.7195021661
 34
0.0
100
AcDbRotatedDimension
  0
LINE
  5
20A
100
AcDbEntity
  8
____
  6
CONTINUOUS
 62
         7
100
AcDbLine
 10
2673.888682105
 20
-390.3833429267
 30
0.0
 11
2673.888682105
 21
-386.7115021661
 31
0.0
  0
LINE
  5
20B
100
AcDbEntity
  8
____
  6
CONTINUOUS
 62
         7
100
AcDbLine
 10
2681.808682105
 20
-390.3833429267
 30
0.0
 11
2681.808682105
 21
-386.7115021661
 31
0.0
  0
CIRCLE
  5
20C
100
AcDbEntity
  8
____
  6
CONTINUOUS
 62
         7
100
AcDbCircle
 10
2677.848682105
 20
-405.7565021661
 30
0.0
 40
22.25
  0
LINE
  5
20D
100
AcDbEntity
  8
____
  6
CENTER
 62
         1
100
AcDbLine
 10
2677.848682105
 20
-430.4184608633
 30
0.0
 11
2677.848682105
 21
-379.6164991077
 31
0.0
  0
INSERT
  5
219
100
AcDbEntity
  8
0
  6
CONTINUOUS
100
AcDbBlockReference
  2
GENDIML30
 10
0.0
 20
0.0
 30
0.0
  0
DIMENSION
  5
21C
100
AcDbEntity
  8
____
  6
CONTINUOUS
 62
         4
100
AcDbDimension
  2
*D29
 10
2753.3115782493
 20
-441.5836427893
 30
0.0
 11
2727.6615782493
 21
-439.5586427893
 31
0.0
  3
DIMSTYLE1
100
AcDbAlignedDimension
 13
2753.3115782493
 23
-463.7589814807
 33
0.0
 14
2712.8115782493
 24
-463.7589814807
 34
0.0
100
AcDbRotatedDimension
  0
LINE
  5
228
100
AcDbEntity
  8
____
  6
CONTINUOUS
 62
         4
100
AcDbLine
 10
2683.9429721879
 20
-463.7589814807
 30
0.0
 11
2700.4429721879
 21
-482.1980703953
 31
0.0
  0
LINE
  5
229
100
AcDbEntity
  8
____
  6
CONTINUOUS
 62
         4
100
AcDbLine
 10
2700.4429721879
 20
-463.7589814807
 30
0.0
 11
2683.9429721879
 21
-482.1980703953
 31
0.0
  0
LINE
  5
22A
100
AcDbEntity
  8
____
  6
CONTINUOUS
 62
         7
100
AcDbLine
 10
2700.4429721879
 20
-482.1980703953
 30
0.0
 11
2683.9429721879
 21
-482.1980703953
 31
0.0
  0
LINE
  5
22B
100
AcDbEntity
  8
____
  6
CONTINUOUS
 62
         7
100
AcDbLine
 10
2700.4429721879
 20
-463.7589814807
 30
0.0
 11
2683.9429721879
 21
-463.7589814807
 31
0.0
  0
LINE
  5
22C
100
AcDbEntity
  8
____
  6
CONTINUOUS
 62
         7
100
AcDbLine
 10
2683.9429721879
 20
-482.1980703953
 30
0.0
 11
2683.9429721879
 21
-463.7589814807
 31
0.0
  0
DIMENSION
  5
22F
100
AcDbEntity
  8
____
  6
CONTINUOUS
 62
         4
100
AcDbDimension
  2
*D30
 10
2674.4429721879
 20
-442.6082251941
 30
0.0
 11
2675.1429721879
 21
-440.5832251941
 31
0.0
  3
DIMSTYLE1
100
AcDbAlignedDimension
 13
2674.4429721879
 23
-457.478525938
 33
0.0
 14
2683.9429721879
 24
-463.5976944184
 34
0.0
100
AcDbRotatedDimension
  0
DIMENSION
  5
23D
100
AcDbEntity
  8
____
  6
CONTINUOUS
 62
         4
100
AcDbDimension
  2
*D31
 10
2674.4429721879
 20
-503.673336523
 30
0.0
 11
2684.7429721879
 21
-501.648336523
 31
0.0
  3
DIMSTYLE1
100
AcDbAlignedDimension
 13
2674.4429721879
 23
-495.978525938
 33
0.0
 14
2700.4429721879
 24
-495.978525938
 34
0.0
100
AcDbRotatedDimension
  0
LINE
  5
249
100
AcDbEntity
  8
____
  6
CONTINUOUS
 62
         7
100
AcDbLine
 10
2698.4429721879
 20
-450.728525938
 30
0.0
 11
2675.9429721879
 21
-450.728525938
 31
0.0
  0
LINE
  5
24A
100
AcDbEntity
  8
____
  6
CONTINUOUS
 62
         7
100
AcDbLine
 10
2698.4429721879
 20
-495.228525938
 30
0.0
 11
2675.9429721879
 21
-495.228525938
 31
0.0
  0
ARC
  5
24B
100
AcDbEntity
  8
____
  6
CONTINUOUS
 62
         7
100
AcDbCircle
 10
2698.4429721879
 20
-493.228525938
 30
0.0
 40
2.0
100
AcDbArc
 50
270.0
 51
360.0
  0
ARC
  5
24C
100
AcDbEntity
  8
____
  6
CONTINUOUS
 62
         7
100
AcDbCircle
 10
2698.4429721879
 20
-452.728525938
 30
0.0
 40
2.0
100
AcDbArc
 50
0.0
 51
90.0
  0
ARC
  5
24D
100
AcDbEntity
  8
____
  6
CONTINUOUS
 62
         7
100
AcDbCircle
 10
2675.9429721879
 20
-452.228525938
 30
0.0
 40
1.5
100
AcDbArc
 50
90.0
 51
180.0
  0
INSERT
  5
259
100
AcDbEntity
  8
0
  6
CONTINUOUS
100
AcDbBlockReference
  2
GENDIML34
 10
0.0
 20
0.0
 30
0.0
  0
LINE
  5
25A
100
AcDbEntity
  8
____
  6
CONTINUOUS
 62
         7
100
AcDbLine
 10
2674.4429721879
 20
-493.728525938
 30
0.0
 11
2674.4429721879
 21
-452.228525938
 31
0.0
  0
LINE
  5
25B
100
AcDbEntity
  8
____
  6
CONTINUOUS
 62
         7
100
AcDbLine
 10
2700.4429721879
 20
-452.728525938
 30
0.0
 11
2700.4429721879
 21
-493.228525938
 31
0.0
  0
LINE
  5
25C
100
AcDbEntity
  8
____
  6
CENTER
 62
         1
100
AcDbLine
 10
2759.8331004549
 20
-472.978525938
 30
0.0
 11
2670.7030835607
 21
-472.978525938
 31
0.0
  0
LINE
  5
25D
100
AcDbEntity
  8
____
  6
CONTINUOUS
 62
         7
100
AcDbLine
 10
2753.3115782493
 20
-482.1980703953
 30
0.0
 11
2753.3115782493
 21
-463.7589814807
 31
0.0
  0
LINE
  5
25E
100
AcDbEntity
  8
____
  6
CONTINUOUS
 62
         7
100
AcDbLine
 10
2712.8115782493
 20
-482.1980703953
 30
0.0
 11
2712.8115782493
 21
-463.7589814807
 31
0.0
  0
LINE
  5
25F
100
AcDbEntity
  8
____
  6
CENTER
 62
         1
100
AcDbLine
 10
2733.0615782493
 20
-501.6470362411
 30
0.0
 11
2733.0615782493
 21
-443.7111379108
 31
0.0
  0
CIRCLE
  5
260
100
AcDbEntity
  8
____
  6
CONTINUOUS
 62
         7
100
AcDbCircle
 10
2733.0615782493
 20
-472.978525938
 30
0.0
 40
22.25
  0
ARC
  5
261
100
AcDbEntity
  8
____
  6
CONTINUOUS
 62
         7
100
AcDbCircle
 10
2733.0615782493
 20
-472.978525938
 30
0.0
 40
20.25
100
AcDbArc
 50
180.0
 51
360.0
  0
ARC
  5
262
100
AcDbEntity
  8
____
  6
CONTINUOUS
 62
         7
100
AcDbCircle
 10
2733.0615782493
 20
-472.978525938
 30
0.0
 40
20.25
100
AcDbArc
 50
0.0
 51
180.0
  0
CIRCLE
  5
263
100
AcDbEntity
  8
____
  6
CONTINUOUS
 62
         7
100
AcDbCircle
 10
2733.0615782493
 20
-472.978525938
 30
0.0
 40
15.852
  0
ARC
  5
264
100
AcDbEntity
  8
____
  6
CONTINUOUS
 62
         4
100
AcDbCircle
 10
2733.0615782493
 20
-472.978525938
 30
0.0
 40
14.554
100
AcDbArc
 50
270.0
 51
540.0
  0
ARC
  5
265
100
AcDbEntity
  8
____
  6
CONTINUOUS
 62
         7
100
AcDbCircle
 10
2594.9567300879
 20
-414.073302069
 30
0.0
 40
1.0
100
AcDbArc
 50
0.0
 51
90.0
  0
ARC
  5
266
100
AcDbEntity
  8
____
  6
CONTINUOUS
 62
         7
100
AcDbCircle
 10
2594.9567300879
 20
-443.823302069
 30
0.0
 40
1.0
100
AcDbArc
 50
270.0
 51
360.0
  0
LINE
  5
267
100
AcDbEntity
  8
____
  6
CONTINUOUS
 62
         4
100
AcDbLine
 10
2622.3471948215
 20
-443.502302069
 30
0.0
 11
2598.1587300879
 21
-443.502302069
 31
0.0
  0
LINE
  5
268
100
AcDbEntity
  8
____
  6
CONTINUOUS
 62
         4
100
AcDbLine
 10
2622.3471948215
 20
-414.394302069
 30
0.0
 11
2598.1587300879
 21
-414.394302069
 31
0.0
  0
INSERT
  5
274
100
AcDbEntity
  8
0
  6
CONTINUOUS
100
AcDbBlockReference
  2
GENDIML35
 10
0.0
 20
0.0
 30
0.0
  0
LINE
  5
275
100
AcDbEntity
  8
____
  6
CONTINUOUS
 62
         7
100
AcDbLine
 10
2566.4567300879
 20
-444.823302069
 30
0.0
 11
2566.2031402494
 21
-444.6768919075
 31
0.0
  0
LINE
  5
276
100
AcDbEntity
  8
____
  6
CONTINUOUS
 62
         7
100
AcDbLine
 10
2564.6824011969
 20
-444.623302069
 30
0.0
 11
2566.0031402494
 21
-444.623302069
 31
0.0
  0
ARC
  5
277
100
AcDbEntity
  8
____
  6
CONTINUOUS
 62
         7
100
AcDbCircle
 10
2566.0031402494
 20
-445.023302069
 30
0.0
 40
0.4
100
AcDbArc
 50
60.0
 51
90.0
  0
ARC
  5
278
100
AcDbEntity
  8
____
  6
CONTINUOUS
 62
         7
100
AcDbCircle
 10
2564.6824011969
 20
-445.023302069
 30
0.0
 40
0.4
100
AcDbArc
 50
90.0
 51
124.3452138268
  0
LINE
  5
279
100
AcDbEntity
  8
____
  6
CONTINUOUS
 62
         7
100
AcDbLine
 10
2564.6824011969
 20
-413.273302069
 30
0.0
 11
2566.0031402494
 21
-413.273302069
 31
0.0
  0
LINE
  5
27A
100
AcDbEntity
  8
____
  6
CONTINUOUS
 62
         7
100
AcDbLine
 10
2566.4567300879
 20
-413.073302069
 30
0.0
 11
2566.2031402494
 21
-413.2197122305
 31
0.0
  0
ARC
  5
27B
100
AcDbEntity
  8
____
  6
CONTINUOUS
 62
         7
100
AcDbCircle
 10
2566.0031402494
 20
-412.873302069
 30
0.0
 40
0.4
100
AcDbArc
 50
270.0
 51
300.0
  0
ARC
  5
27C
100
AcDbEntity
  8
____
  6
CONTINUOUS
 62
         7
100
AcDbCircle
 10
2564.6824011969
 20
-412.873302069
 30
0.0
 40
0.4
100
AcDbArc
 50
235.6547861732
 51
270.0
  0
INSERT
  5
289
100
AcDbEntity
  8
0
  6
CONTINUOUS
100
AcDbBlockReference
  2
GENDIML36
 10
0.0
 20
0.0
 30
0.0
  0
TEXT
  5
28B
100
AcDbEntity
  8
____
  6
CONTINUOUS
 62
         4
100
AcDbText
 10
2576.6993253425
 20
-453.1285243443
 30
0.0
 40
1.7
  1
h6
 50
90.0
  7
STSL
100
AcDbText
  0
INSERT
  5
298
100
AcDbEntity
  8
0
  6
CONTINUOUS
100
AcDbBlockReference
  2
GENDIML37
 10
0.0
 20
0.0
 30
0.0
  0
LINE
  5
299
100
AcDbEntity
  8
____
  6
CONTINUOUS
 62
         7
100
AcDbLine
 10
2597.9567300879
 20
-443.323302069
 30
0.0
 11
2595.9567300879
 21
-443.323302069
 31
0.0
  0
LINE
  5
29A
100
AcDbEntity
  8
____
  6
CONTINUOUS
 62
         7
100
AcDbLine
 10
2597.9567300879
 20
-443.300302069
 30
0.0
 11
2599.4567300879
 21
-444.800302069
 31
0.0
  0
LINE
  5
29B
100
AcDbEntity
  8
____
  6
CONTINUOUS
 62
         7
100
AcDbLine
 10
2597.9567300879
 20
-414.596302069
 30
0.0
 11
2599.4567300879
 21
-413.096302069
 31
0.0
  0
LINE
  5
29C
100
AcDbEntity
  8
____
  6
CONTINUOUS
 62
         7
100
AcDbLine
 10
2595.9567300879
 20
-414.073302069
 30
0.0
 11
2595.9567300879
 21
-414.573302069
 31
0.0
  0
LINE
  5
29D
100
AcDbEntity
  8
____
  6
CONTINUOUS
 62
         7
100
AcDbLine
 10
2597.9567300879
 20
-414.573302069
 30
0.0
 11
2595.9567300879
 21
-414.573302069
 31
0.0
  0
ARC
  5
29E
100
AcDbEntity
  8
____
  6
CONTINUOUS
 62
         7
100
AcDbCircle
 10
2619.8767300879
 20
-441.800302069
 30
0.0
 40
3.0
100
AcDbArc
 50
270.0
 51
360.0
  0
ARC
  5
29F
100
AcDbEntity
  8
____
  6
CONTINUOUS
 62
         7
100
AcDbCircle
 10
2619.8767300879
 20
-416.096302069
 30
0.0
 40
3.0
100
AcDbArc
 50
0.0
 51
90.0
  0
LINE
  5
2A0
100
AcDbEntity
  8
____
  6
CONTINUOUS
 62
         7
100
AcDbLine
 10
2619.8767300879
 20
-444.800302069
 30
0.0
 11
2599.4567300879
 21
-444.800302069
 31
0.0
  0
LINE
  5
2A1
100
AcDbEntity
  8
____
  6
CONTINUOUS
 62
         7
100
AcDbLine
 10
2619.8767300879
 20
-413.096302069
 30
0.0
 11
2599.4567300879
 21
-413.096302069
 31
0.0
  0
LINE
  5
2A2
100
AcDbEntity
  8
____
  6
CONTINUOUS
 62
         7
100
AcDbLine
 10
2564.4567300879
 20
-449.673302069
 30
0.0
 11
2564.4567300879
 21
-444.6930407322
 31
0.0
  0
LINE
  5
2A3
100
AcDbEntity
  8
____
  6
CONTINUOUS
 62
         7
100
AcDbLine
 10
2594.9567300879
 20
-413.073302069
 30
0.0
 11
2566.4567300879
 21
-413.073302069
 31
0.0
  0
LINE
  5
2A4
100
AcDbEntity
  8
____
  6
CONTINUOUS
 62
         7
100
AcDbLine
 10
2594.9567300879
 20
-444.823302069
 30
0.0
 11
2566.4567300879
 21
-444.823302069
 31
0.0
  0
LINE
  5
2A5
100
AcDbEntity
  8
____
  6
CONTINUOUS
 62
         7
100
AcDbLine
 10
2622.8767300879
 20
-441.800302069
 30
0.0
 11
2622.8767300879
 21
-416.096302069
 31
0.0
  0
LINE
  5
2A6
100
AcDbEntity
  8
____
  6
CENTER
 62
         1
100
AcDbLine
 10
2629.0620047657
 20
-428.948302069
 30
0.0
 11
2514.6501002487
 21
-428.948302069
 31
0.0
  0
ARC
  5
2A7
100
AcDbEntity
  8
____
  6
CONTINUOUS
 62
         7
100
AcDbCircle
 10
2594.9567300879
 20
-328.7166562505
 30
0.0
 40
1.0
100
AcDbArc
 50
270.0
 51
360.0
  0
ARC
  5
2A8
100
AcDbEntity
  8
____
  6
CONTINUOUS
 62
         7
100
AcDbCircle
 10
2594.9567300879
 20
-298.9666562505
 30
0.0
 40
1.0
100
AcDbArc
 50
0.0
 51
90.0
  0
LINE
  5
2A9
100
AcDbEntity
  8
____
  6
CONTINUOUS
 62
         4
100
AcDbLine
 10
2564.6824011969
 20
-329.5166562505
 30
0.0
 11
2564.6824011969
 21
-298.1666562505
 31
0.0
  0
LINE
  5
2AA
100
AcDbEntity
  8
____
  6
CONTINUOUS
 62
         4
100
AcDbLine
 10
2566.1103199264
 20
-298.1666562505
 30
0.0
 11
2566.1103199264
 21
-329.5166562505
 31
0.0
  0
LINE
  5
2AB
100
AcDbEntity
  8
____
  6
CONTINUOUS
 62
         4
100
AcDbLine
 10
2566.4567300879
 20
-297.9666562505
 30
0.0
 11
2566.4567300879
 21
-329.7166562505
 31
0.0
  0
LINE
  5
2AC
100
AcDbEntity
  8
____
  6
CONTINUOUS
 62
         7
100
AcDbLine
 10
2566.4567300879
 20
-329.7166562505
 30
0.0
 11
2566.2031402494
 21
-329.5702460889
 31
0.0
  0
LINE
  5
2AD
100
AcDbEntity
  8
____
  6
CONTINUOUS
 62
         7
100
AcDbLine
 10
2564.6824011969
 20
-329.5166562505
 30
0.0
 11
2566.0031402494
 21
-329.5166562505
 31
0.0
  0
ARC
  5
2AE
100
AcDbEntity
  8
____
  6
CONTINUOUS
 62
         7
100
AcDbCircle
 10
2566.0031402494
 20
-329.9166562505
 30
0.0
 40
0.4
100
AcDbArc
 50
60.0
 51
90.0
  0
ARC
  5
2AF
100
AcDbEntity
  8
____
  6
CONTINUOUS
 62
         7
100
AcDbCircle
 10
2564.6824011969
 20
-329.9166562505
 30
0.0
 40
0.4
100
AcDbArc
 50
90.0
 51
124.3452138268
  0
LINE
  5
2B0
100
AcDbEntity
  8
____
  6
CONTINUOUS
 62
         7
100
AcDbLine
 10
2564.6824011969
 20
-298.1666562505
 30
0.0
 11
2566.0031402494
 21
-298.1666562505
 31
0.0
  0
LINE
  5
2B1
100
AcDbEntity
  8
____
  6
CONTINUOUS
 62
         7
100
AcDbLine
 10
2566.4567300879
 20
-297.9666562505
 30
0.0
 11
2566.2031402494
 21
-298.113066412
 31
0.0
  0
ARC
  5
2B2
100
AcDbEntity
  8
____
  6
CONTINUOUS
 62
         7
100
AcDbCircle
 10
2566.0031402494
 20
-297.7666562505
 30
0.0
 40
0.4
100
AcDbArc
 50
270.0
 51
300.0
  0
ARC
  5
2B3
100
AcDbEntity
  8
____
  6
CONTINUOUS
 62
         7
100
AcDbCircle
 10
2564.6824011969
 20
-297.7666562505
 30
0.0
 40
0.4
100
AcDbArc
 50
235.6547861732
 51
270.0
  0
DIMENSION
  5
2B6
100
AcDbEntity
  8
____
  6
CONTINUOUS
 62
         4
100
AcDbDimension
  2
*D36
 10
2622.8767300879
 20
-249.7718178297
 30
0.0
 11
2592.6050643557
 21
-247.7468178297
 31
0.0
  3
DIMSTYLE1
100
AcDbAlignedDimension
 13
2622.8767300879
 23
-300.9896562505
 33
0.0
 14
2564.4567300879
 24
-293.0916562505
 34
0.0
100
AcDbRotatedDimension
  0
DIMENSION
  5
2C4
100
AcDbEntity
  8
____
  6
CONTINUOUS
 62
         4
100
AcDbDimension
  2
*D37
 10
2595.9567300879
 20
-338.5470751486
 30
0.0
 11
2603.9288840375
 21
-336.5220751486
 31
0.0
  3
DIMSTYLE1
100
AcDbAlignedDimension
 13
2595.9567300879
 23
-328.2166562505
 33
0.0
 14
2597.9567300879
 24
-328.1936562505
 34
0.0
100
AcDbRotatedDimension
  0
LINE
  5
2D2
100
AcDbEntity
  8
____
  6
CONTINUOUS
 62
         7
100
AcDbLine
 10
2622.8767300879
 20
-326.6936562505
 30
0.0
 11
2622.8767300879
 21
-300.9896562505
 31
0.0
  0
LINE
  5
2D3
100
AcDbEntity
  8
____
  6
CONTINUOUS
 62
         7
100
AcDbLine
 10
2594.9567300879
 20
-329.7166562505
 30
0.0
 11
2566.4567300879
 21
-329.7166562505
 31
0.0
  0
LINE
  5
2D4
100
AcDbEntity
  8
____
  6
CONTINUOUS
 62
         7
100
AcDbLine
 10
2594.9567300879
 20
-297.9666562505
 30
0.0
 11
2566.4567300879
 21
-297.9666562505
 31
0.0
  0
LINE
  5
2D5
100
AcDbEntity
  8
____
  6
CONTINUOUS
 62
         7
100
AcDbLine
 10
2564.4567300879
 20
-334.6266562505
 30
0.0
 11
2564.4567300879
 21
-293.0566562505
 31
0.0
  0
LINE
  5
2D6
100
AcDbEntity
  8
____
  6
CONTINUOUS
 62
         7
100
AcDbLine
 10
2619.8767300879
 20
-297.9896562505
 30
0.0
 11
2599.4567300879
 21
-297.9896562505
 31
0.0
  0
LINE
  5
2D7
100
AcDbEntity
  8
____
  6
CONTINUOUS
 62
         7
100
AcDbLine
 10
2619.8767300879
 20
-329.6936562505
 30
0.0
 11
2599.4567300879
 21
-329.6936562505
 31
0.0
  0
LINE
  5
2D8
100
AcDbEntity
  8
____
  6
CONTINUOUS
 62
         4
100
AcDbLine
 10
2622.3471948215
 20
-299.2876562505
 30
0.0
 11
2598.1587300879
 21
-299.2876562505
 31
0.0
  0
LINE
  5
2D9
100
AcDbEntity
  8
____
  6
CONTINUOUS
 62
         4
100
AcDbLine
 10
2622.3471948215
 20
-328.3956562505
 30
0.0
 11
2598.1587300879
 21
-328.3956562505
 31
0.0
  0
ARC
  5
2DA
100
AcDbEntity
  8
____
  6
CONTINUOUS
 62
         7
100
AcDbCircle
 10
2619.8767300879
 20
-300.9896562505
 30
0.0
 40
3.0
100
AcDbArc
 50
0.0
 51
90.0
  0
ARC
  5
2DB
100
AcDbEntity
  8
____
  6
CONTINUOUS
 62
         7
100
AcDbCircle
 10
2619.8767300879
 20
-326.6936562505
 30
0.0
 40
3.0
100
AcDbArc
 50
270.0
 51
360.0
  0
LINE
  5
2DC
100
AcDbEntity
  8
____
  6
CONTINUOUS
 62
         7
100
AcDbLine
 10
2597.9567300879
 20
-299.4666562505
 30
0.0
 11
2595.9567300879
 21
-299.4666562505
 31
0.0
  0
LINE
  5
2DD
100
AcDbEntity
  8
____
  6
CONTINUOUS
 62
         7
100
AcDbLine
 10
2595.9567300879
 20
-298.9666562505
 30
0.0
 11
2595.9567300879
 21
-328.7166562505
 31
0.0
  0
LINE
  5
2DE
100
AcDbEntity
  8
____
  6
CONTINUOUS
 62
         7
100
AcDbLine
 10
2597.9567300879
 20
-299.4896562505
 30
0.0
 11
2597.9567300879
 21
-328.1936562505
 31
0.0
  0
LINE
  5
2DF
100
AcDbEntity
  8
____
  6
CONTINUOUS
 62
         7
100
AcDbLine
 10
2597.9567300879
 20
-299.4896562505
 30
0.0
 11
2599.4567300879
 21
-297.9896562505
 31
0.0
  0
LINE
  5
2E0
100
AcDbEntity
  8
____
  6
CONTINUOUS
 62
         7
100
AcDbLine
 10
2597.9567300879
 20
-328.1936562505
 30
0.0
 11
2599.4567300879
 21
-329.6936562505
 31
0.0
  0
LINE
  5
2E1
100
AcDbEntity
  8
____
  6
CONTINUOUS
 62
         7
100
AcDbLine
 10
2597.9567300879
 20
-328.2166562505
 30
0.0
 11
2595.9567300879
 21
-328.2166562505
 31
0.0
  0
TEXT
  5
2E3
100
AcDbEntity
  8
____
  6
CONTINUOUS
 62
         4
100
AcDbText
 10
2490.8095321427
 20
-312.7871316023
 30
0.0
 40
1.7
  1
 0
 50
90.0
  7
BOX
100
AcDbText
  0
TEXT
  5
2E5
100
AcDbEntity
  8
____
  6
CONTINUOUS
 62
         4
100
AcDbText
 10
2493.5295321427
 20
-312.7871316023
 30
0.0
 40
1.7
  1
-0.24
 50
90.0
  7
BOX
100
AcDbText
  0
LINE
  5
2E6
100
AcDbEntity
  8
____
  6
DASHED
 62
         2
100
AcDbLine
 10
2694.317522022
 20
-318.8416562505
 30
0.0
 11
2693.817522022
 21
-319.3416562505
 31
0.0
  0
LINE
  5
2E7
100
AcDbEntity
  8
____
  6
DASHED
 62
         2
100
AcDbLine
 10
2694.317522022
 20
-308.8416562505
 30
0.0
 11
2693.817522022
 21
-308.3416562505
 31
0.0
  0
LINE
  5
2E8
100
AcDbEntity
  8
____
  6
DASHED
 62
         2
100
AcDbLine
 10
2694.317522022
 20
-308.8416562505
 30
0.0
 11
2694.317522022
 21
-318.8416562505
 31
0.0
  0
LINE
  5
2E9
100
AcDbEntity
  8
____
  6
DASHED
 62
         2
100
AcDbLine
 10
2694.317522022
 20
-318.8416562505
 30
0.0
 11
2700.491522022
 21
-318.8416562505
 31
0.0
  0
LINE
  5
2EA
100
AcDbEntity
  8
____
  6
DASHED
 62
         2
100
AcDbLine
 10
2703.3782733679
 20
-313.8416562505
 30
0.0
 11
2700.491522022
 21
-318.8416562505
 31
0.0
  0
LINE
  5
2EB
100
AcDbEntity
  8
____
  6
DASHED
 62
         2
100
AcDbLine
 10
2700.491522022
 20
-308.8416562505
 30
0.0
 11
2703.3782733679
 21
-313.8416562505
 31
0.0
  0
LINE
  5
2EC
100
AcDbEntity
  8
____
  6
DASHED
 62
         2
100
AcDbLine
 10
2700.491522022
 20
-308.8416562505
 30
0.0
 11
2700.491522022
 21
-318.8416562505
 31
0.0
  0
LINE
  5
2ED
100
AcDbEntity
  8
____
  6
DASHED
 62
         2
100
AcDbLine
 10
2694.317522022
 20
-308.8416562505
 30
0.0
 11
2700.491522022
 21
-308.8416562505
 31
0.0
  0
ARC
  5
2EE
100
AcDbEntity
  8
____
  6
CONTINUOUS
 62
         7
100
AcDbCircle
 10
2482.6267300879
 20
-291.0566562505
 30
0.0
 40
0.5
100
AcDbArc
 50
180.0
 51
270.0
  0
ARC
  5
2EF
100
AcDbEntity
  8
____
  6
CONTINUOUS
 62
         7
100
AcDbCircle
 10
2482.6267300879
 20
-336.6266562505
 30
0.0
 40
0.5
100
AcDbArc
 50
90.0
 51
180.0
  0
LINE
  5
2F0
100
AcDbEntity
  8
____
  6
CONTINUOUS
 62
         7
100
AcDbLine
 10
2482.6267300879
 20
-336.1266562505
 30
0.0
 11
2562.9567300879
 21
-336.1266562505
 31
0.0
  0
LINE
  5
2F1
100
AcDbEntity
  8
____
  6
CONTINUOUS
 62
         7
100
AcDbLine
 10
2482.6267300879
 20
-291.5566562505
 30
0.0
 11
2562.9567300879
 21
-291.5566562505
 31
0.0
  0
LINE
  5
2F2
100
AcDbEntity
  8
____
  6
CENTER
 62
         1
100
AcDbLine
 10
2692.3251344407
 20
-313.8416562505
 30
0.0
 11
2746.3035914213
 21
-313.8416562505
 31
0.0
  0
LINE
  5
2F3
100
AcDbEntity
  8
____
  6
CONTINUOUS
 62
         7
100
AcDbLine
 10
2694.217522022
 20
-321.7857415316
 30
0.0
 11
2693.717522022
 21
-322.2857415316
 31
0.0
  0
LINE
  5
2F4
100
AcDbEntity
  8
____
  6
CONTINUOUS
 62
         7
100
AcDbLine
 10
2688.1850547893
 20
-322.2857415316
 30
0.0
 11
2693.717522022
 21
-322.2857415316
 31
0.0
  0
LINE
  5
2F5
100
AcDbEntity
  8
____
  6
CONTINUOUS
 62
         7
100
AcDbLine
 10
2688.5791400704
 20
-321.8916562505
 30
0.0
 11
2693.317522022
 21
-321.8916562505
 31
0.0
  0
LINE
  5
2F6
100
AcDbEntity
  8
____
  6
CONTINUOUS
 62
         7
100
AcDbLine
 10
2688.1850547893
 20
-322.2857415316
 30
0.0
 11
2688.5791400704
 21
-321.8916562505
 31
0.0
  0
LINE
  5
2F7
100
AcDbEntity
  8
____
  6
CONTINUOUS
 62
         7
100
AcDbLine
 10
2693.817522022
 20
-321.3916562505
 30
0.0
 11
2693.317522022
 21
-321.8916562505
 31
0.0
  0
LINE
  5
2F8
100
AcDbEntity
  8
____
  6
CONTINUOUS
 62
         7
100
AcDbLine
 10
2694.217522022
 20
-305.8975709693
 30
0.0
 11
2693.717522022
 21
-305.3975709693
 31
0.0
  0
LINE
  5
2F9
100
AcDbEntity
  8
____
  6
CONTINUOUS
 62
         7
100
AcDbLine
 10
2688.1850547893
 20
-305.3975709693
 30
0.0
 11
2688.5791400704
 21
-305.7916562505
 31
0.0
  0
LINE
  5
2FA
100
AcDbEntity
  8
____
  6
CONTINUOUS
 62
         7
100
AcDbLine
 10
2693.817522022
 20
-306.2916562505
 30
0.0
 11
2693.317522022
 21
-305.7916562505
 31
0.0
  0
LINE
  5
2FB
100
AcDbEntity
  8
____
  6
CONTINUOUS
 62
         7
100
AcDbLine
 10
2693.817522022
 20
-306.2916562505
 30
0.0
 11
2693.817522022
 21
-321.3916562505
 31
0.0
  0
LINE
  5
2FC
100
AcDbEntity
  8
____
  6
CONTINUOUS
 62
         7
100
AcDbLine
 10
2688.5791400704
 20
-305.7916562505
 30
0.0
 11
2693.317522022
 21
-305.7916562505
 31
0.0
  0
LINE
  5
2FD
100
AcDbEntity
  8
____
  6
CONTINUOUS
 62
         7
100
AcDbLine
 10
2688.1850547893
 20
-305.3975709693
 30
0.0
 11
2693.717522022
 21
-305.3975709693
 31
0.0
  0
LINE
  5
2FE
100
AcDbEntity
  8
____
  6
CONTINUOUS
 62
         7
100
AcDbLine
 10
2741.217522022
 20
-305.8975709693
 30
0.0
 11
2741.717522022
 21
-305.3975709693
 31
0.0
  0
LINE
  5
2FF
100
AcDbEntity
  8
____
  6
CONTINUOUS
 62
         7
100
AcDbLine
 10
2741.217522022
 20
-321.7857415316
 30
0.0
 11
2741.717522022
 21
-322.2857415316
 31
0.0
  0
LINE
  5
300
100
AcDbEntity
  8
____
  6
CONTINUOUS
 62
         7
100
AcDbLine
 10
2749.4499892547
 20
-322.2857415316
 30
0.0
 11
2749.0559039736
 21
-321.8916562505
 31
0.0
  0
LINE
  5
301
100
AcDbEntity
  8
____
  6
CONTINUOUS
 62
         7
100
AcDbLine
 10
2741.617522022
 20
-321.3916562505
 30
0.0
 11
2742.117522022
 21
-321.8916562505
 31
0.0
  0
LINE
  5
302
100
AcDbEntity
  8
____
  6
CONTINUOUS
 62
         7
100
AcDbLine
 10
2742.117522022
 20
-321.8916562505
 30
0.0
 11
2749.0559039736
 21
-321.8916562505
 31
0.0
  0
LINE
  5
303
100
AcDbEntity
  8
____
  6
CONTINUOUS
 62
         7
100
AcDbLine
 10
2749.4499892547
 20
-322.2857415316
 30
0.0
 11
2741.717522022
 21
-322.2857415316
 31
0.0
  0
LINE
  5
304
100
AcDbEntity
  8
____
  6
CONTINUOUS
 62
         7
100
AcDbLine
 10
2741.217522022
 20
-305.8975709693
 30
0.0
 11
2741.217522022
 21
-321.7857415316
 31
0.0
  0
LINE
  5
305
100
AcDbEntity
  8
____
  6
CONTINUOUS
 62
         7
100
AcDbLine
 10
2749.4499892547
 20
-305.3975709693
 30
0.0
 11
2749.0559039736
 21
-305.7916562505
 31
0.0
  0
LINE
  5
306
100
AcDbEntity
  8
____
  6
CONTINUOUS
 62
         7
100
AcDbLine
 10
2742.117522022
 20
-305.7916562505
 30
0.0
 11
2749.0559039736
 21
-305.7916562505
 31
0.0
  0
LINE
  5
307
100
AcDbEntity
  8
____
  6
CONTINUOUS
 62
         7
100
AcDbLine
 10
2749.4499892547
 20
-305.3975709693
 30
0.0
 11
2741.717522022
 21
-305.3975709693
 31
0.0
  0
LINE
  5
308
100
AcDbEntity
  8
____
  6
CONTINUOUS
 62
         7
100
AcDbLine
 10
2741.617522022
 20
-306.2916562505
 30
0.0
 11
2742.117522022
 21
-305.7916562505
 31
0.0
  0
LINE
  5
309
100
AcDbEntity
  8
____
  6
CONTINUOUS
 62
         7
100
AcDbLine
 10
2741.617522022
 20
-306.2916562505
 30
0.0
 11
2741.617522022
 21
-321.3916562505
 31
0.0
  0
LINE
  5
30A
100
AcDbEntity
  8
____
  6
CONTINUOUS
 62
         7
100
AcDbLine
 10
2694.217522022
 20
-305.8975709693
 30
0.0
 11
2694.217522022
 21
-321.7857415316
 31
0.0
  0
ARC
  5
30B
100
AcDbEntity
  8
____
  6
DASHED
 62
         2
100
AcDbCircle
 10
2718.817522022
 20
-313.8416562505
 30
0.0
 40
28.125
100
AcDbArc
 50
198.3406919436
 51
343.3680794645
  0
ARC
  5
30C
100
AcDbEntity
  8
____
  6
DASHED
 62
         2
100
AcDbCircle
 10
2718.817522022
 20
-313.8416562505
 30
0.0
 40
28.125
100
AcDbArc
 50
16.6319205355
 51
163.3680794645
  0
LINE
  5
30D
100
AcDbEntity
  8
____
  6
CENTER
 62
         1
100
AcDbLine
 10
2718.817522022
 20
-279.0666562505
 30
0.0
 11
2718.817522022
 21
-348.6166562505
 31
0.0
  0
ARC
  5
30E
100
AcDbEntity
  8
____
  6
CONTINUOUS
 62
         7
100
AcDbCircle
 10
2718.817522022
 20
-313.8416562505
 30
0.0
 40
30.775
100
AcDbArc
 50
195.9251485826
 51
344.0748514174
  0
ARC
  5
30F
100
AcDbEntity
  8
____
  6
CONTINUOUS
 62
         7
100
AcDbCircle
 10
2718.817522022
 20
-313.8416562505
 30
0.0
 40
31.775
100
AcDbArc
 50
15.411296411
 51
164.588703589
  0
ARC
  5
310
100
AcDbEntity
  8
____
  6
CONTINUOUS
 62
         7
100
AcDbCircle
 10
2718.817522022
 20
-313.8416562505
 30
0.0
 40
30.775
100
AcDbArc
 50
15.9251485826
 51
164.0748514174
  0
CIRCLE
  5
311
100
AcDbEntity
  8
____
  6
CENTER
 62
         1
100
AcDbCircle
 10
2474.1267300879
 20
-281.1916562505
 30
0.0
 40
3.5
  0
LINE
  5
312
100
AcDbEntity
  8
____
  6
CONTINUOUS
 62
         7
100
AcDbLine
 10
2472.2517300879
 20
-284.9440609863
 30
0.0
 11
2470.5904596891
 21
-282.0666562505
 31
0.0
  0
LINE
  5
313
100
AcDbEntity
  8
____
  6
CENTER
 62
         1
100
AcDbLine
 10
2469.8157248293
 20
-281.1916562505
 30
0.0
 11
2478.2245593978
 21
-281.1916562505
 31
0.0
  0
LINE
  5
314
100
AcDbEntity
  8
____
  6
CONTINUOUS
 62
         7
100
AcDbLine
 10
2481.3267300879
 20
-305.7916562505
 30
0.0
 11
2467.0267300879
 21
-305.7916562505
 31
0.0
  0
LINE
  5
315
100
AcDbEntity
  8
____
  6
CONTINUOUS
 62
         7
100
AcDbLine
 10
2481.3267300879
 20
-321.8916562505
 30
0.0
 11
2467.0267300879
 21
-321.8916562505
 31
0.0
  0
LINE
  5
316
100
AcDbEntity
  8
____
  6
CONTINUOUS
 62
         7
100
AcDbLine
 10
2470.5904596891
 20
-304.9916562505
 30
0.0
 11
2472.2517300879
 21
-305.7916562505
 31
0.0
  0
LINE
  5
317
100
AcDbEntity
  8
____
  6
CENTER
 62
         1
100
AcDbLine
 10
2469.8157248293
 20
-346.4916562505
 30
0.0
 11
2478.2245593978
 21
-346.4916562505
 31
0.0
  0
LINE
  5
318
100
AcDbEntity
  8
____
  6
CONTINUOUS
 62
         7
100
AcDbLine
 10
2472.2517300879
 20
-342.7392515146
 30
0.0
 11
2470.5904596891
 21
-345.6166562505
 31
0.0
  0
LINE
  5
319
100
AcDbEntity
  8
____
  6
CONTINUOUS
 62
         7
100
AcDbLine
 10
2470.5904596891
 20
-322.6916562505
 30
0.0
 11
2472.2517300879
 21
-321.8916562505
 31
0.0
  0
LINE
  5
31A
100
AcDbEntity
  8
____
  6
CONTINUOUS
 62
         7
100
AcDbLine
 10
2467.0267300879
 20
-305.7916562505
 30
0.0
 11
2467.0267300879
 21
-321.8916562505
 31
0.0
  0
LINE
  5
31B
100
AcDbEntity
  8
____
  6
CONTINUOUS
 62
         7
100
AcDbLine
 10
2466.2267300879
 20
-283.0666562505
 30
0.0
 11
2466.2267300879
 21
-344.6166562505
 31
0.0
  0
LINE
  5
31C
100
AcDbEntity
  8
____
  6
CENTER
 62
         1
100
AcDbLine
 10
2463.0267300879
 20
-291.6166562505
 30
0.0
 11
2463.0267300879
 21
-336.0666562505
 31
0.0
  0
LINE
  5
31D
100
AcDbEntity
  8
____
  6
CONTINUOUS
 62
         7
100
AcDbLine
 10
2470.5904596891
 20
-322.6916562505
 30
0.0
 11
2470.5904596891
 21
-345.6166562505
 31
0.0
  0
LINE
  5
31E
100
AcDbEntity
  8
____
  6
CONTINUOUS
 62
         7
100
AcDbLine
 10
2467.2267300879
 20
-345.6166562505
 30
0.0
 11
2470.5904596891
 21
-345.6166562505
 31
0.0
  0
LINE
  5
31F
100
AcDbEntity
  8
____
  6
CONTINUOUS
 62
         7
100
AcDbLine
 10
2470.5904596891
 20
-322.6916562505
 30
0.0
 11
2466.2267300879
 21
-322.6916562505
 31
0.0
  0
LINE
  5
320
100
AcDbEntity
  8
____
  6
CONTINUOUS
 62
         7
100
AcDbLine
 10
2467.0267300879
 20
-321.8916562505
 30
0.0
 11
2466.2267300879
 21
-322.6916562505
 31
0.0
  0
LINE
  5
321
100
AcDbEntity
  8
____
  6
CONTINUOUS
 62
         7
100
AcDbLine
 10
2467.2267300879
 20
-282.0666562505
 30
0.0
 11
2470.5904596891
 21
-282.0666562505
 31
0.0
  0
LINE
  5
322
100
AcDbEntity
  8
____
  6
CONTINUOUS
 62
         7
100
AcDbLine
 10
2466.2267300879
 20
-304.9916562505
 30
0.0
 11
2467.0267300879
 21
-305.7916562505
 31
0.0
  0
LINE
  5
323
100
AcDbEntity
  8
____
  6
CONTINUOUS
 62
         7
100
AcDbLine
 10
2470.5904596891
 20
-304.9916562505
 30
0.0
 11
2466.2267300879
 21
-304.9916562505
 31
0.0
  0
LINE
  5
324
100
AcDbEntity
  8
____
  6
CONTINUOUS
 62
         7
100
AcDbLine
 10
2470.5904596891
 20
-282.0666562505
 30
0.0
 11
2470.5904596891
 21
-304.9916562505
 31
0.0
  0
LINE
  5
325
100
AcDbEntity
  8
____
  6
CONTINUOUS
 62
         7
100
AcDbLine
 10
2481.3267300879
 20
-305.7916562505
 30
0.0
 11
2481.3267300879
 21
-321.8916562505
 31
0.0
  0
LINE
  5
326
100
AcDbEntity
  8
____
  6
CONTINUOUS
 62
         7
100
AcDbLine
 10
2482.1267300879
 20
-283.0666562505
 30
0.0
 11
2482.1267300879
 21
-344.6166562505
 31
0.0
  0
LINE
  5
327
100
AcDbEntity
  8
____
  6
CONTINUOUS
 62
         7
100
AcDbLine
 10
2482.1267300879
 20
-283.0666562505
 30
0.0
 11
2482.1267300879
 21
-294.8416562505
 31
0.0
  0
LINE
  5
328
100
AcDbEntity
  8
____
  6
CONTINUOUS
 62
         7
100
AcDbLine
 10
2477.6630004867
 20
-322.6916562505
 30
0.0
 11
2477.6630004867
 21
-345.6166562505
 31
0.0
  0
LINE
  5
329
100
AcDbEntity
  8
____
  6
CONTINUOUS
 62
         7
100
AcDbLine
 10
2476.0017300879
 20
-321.8916562505
 30
0.0
 11
2476.0017300879
 21
-342.7392515146
 31
0.0
  0
LINE
  5
32A
100
AcDbEntity
  8
____
  6
CONTINUOUS
 62
         7
100
AcDbLine
 10
2472.2517300879
 20
-321.8916562505
 30
0.0
 11
2472.2517300879
 21
-342.7392515146
 31
0.0
  0
LINE
  5
32B
100
AcDbEntity
  8
____
  6
CONTINUOUS
 62
         7
100
AcDbLine
 10
2473.2255304197
 20
-341.9666562505
 30
0.0
 11
2475.0279297562
 21
-341.9666562505
 31
0.0
  0
ARC
  5
32C
100
AcDbEntity
  8
____
  6
CONTINUOUS
 62
         7
100
AcDbCircle
 10
2473.2255304197
 20
-342.9666562505
 30
0.0
 40
1.0
100
AcDbArc
 50
90.0
 51
166.8556743105
  0
LINE
  5
32D
100
AcDbEntity
  8
____
  6
CONTINUOUS
 62
         7
100
AcDbLine
 10
2476.0017300879
 20
-342.7392515146
 30
0.0
 11
2477.6630004867
 21
-345.6166562505
 31
0.0
  0
ARC
  5
32E
100
AcDbEntity
  8
____
  6
CONTINUOUS
 62
         7
100
AcDbCircle
 10
2475.0279297562
 20
-342.9666562505
 30
0.0
 40
1.0
100
AcDbArc
 50
13.1443256895
 51
90.0
  0
LINE
  5
32F
100
AcDbEntity
  8
____
  6
CONTINUOUS
 62
         7
100
AcDbLine
 10
2477.6630004867
 20
-345.6166562505
 30
0.0
 11
2481.1267300879
 21
-345.6166562505
 31
0.0
  0
LINE
  5
330
100
AcDbEntity
  8
____
  6
CONTINUOUS
 62
         7
100
AcDbLine
 10
2482.1267300879
 20
-322.6916562505
 30
0.0
 11
2477.6630004867
 21
-322.6916562505
 31
0.0
  0
LINE
  5
331
100
AcDbEntity
  8
____
  6
CONTINUOUS
 62
         7
100
AcDbLine
 10
2481.3267300879
 20
-321.8916562505
 30
0.0
 11
2482.1267300879
 21
-322.6916562505
 31
0.0
  0
LINE
  5
332
100
AcDbEntity
  8
____
  6
CONTINUOUS
 62
         7
100
AcDbLine
 10
2476.0017300879
 20
-321.8916562505
 30
0.0
 11
2477.6630004867
 21
-322.6916562505
 31
0.0
  0
LINE
  5
333
100
AcDbEntity
  8
____
  6
CONTINUOUS
 62
         7
100
AcDbLine
 10
2476.0017300879
 20
-284.9440609863
 30
0.0
 11
2477.6630004867
 21
-282.0666562505
 31
0.0
  0
LINE
  5
334
100
AcDbEntity
  8
____
  6
CONTINUOUS
 62
         7
100
AcDbLine
 10
2477.6630004867
 20
-282.0666562505
 30
0.0
 11
2481.1267300879
 21
-282.0666562505
 31
0.0
  0
LINE
  5
335
100
AcDbEntity
  8
____
  6
CONTINUOUS
 62
         7
100
AcDbLine
 10
2473.2255304197
 20
-285.7166562505
 30
0.0
 11
2475.0279297562
 21
-285.7166562505
 31
0.0
  0
ARC
  5
336
100
AcDbEntity
  8
____
  6
CONTINUOUS
 62
         7
100
AcDbCircle
 10
2473.2255304197
 20
-284.7166562505
 30
0.0
 40
1.0
100
AcDbArc
 50
193.1443256895
 51
270.0
  0
ARC
  5
337
100
AcDbEntity
  8
____
  6
CONTINUOUS
 62
         7
100
AcDbCircle
 10
2475.0279297562
 20
-284.7166562505
 30
0.0
 40
1.0
100
AcDbArc
 50
270.0
 51
346.8556743105
  0
LINE
  5
338
100
AcDbEntity
  8
____
  6
CONTINUOUS
 62
         7
100
AcDbLine
 10
2482.1267300879
 20
-304.9916562505
 30
0.0
 11
2481.3267300879
 21
-305.7916562505
 31
0.0
  0
LINE
  5
339
100
AcDbEntity
  8
____
  6
CONTINUOUS
 62
         7
100
AcDbLine
 10
2476.0017300879
 20
-305.7916562505
 30
0.0
 11
2477.6630004867
 21
-304.9916562505
 31
0.0
  0
LINE
  5
33A
100
AcDbEntity
  8
____
  6
CONTINUOUS
 62
         7
100
AcDbLine
 10
2482.1267300879
 20
-304.9916562505
 30
0.0
 11
2477.6630004867
 21
-304.9916562505
 31
0.0
  0
LINE
  5
33B
100
AcDbEntity
  8
____
  6
CONTINUOUS
 62
         7
100
AcDbLine
 10
2476.0017300879
 20
-284.9440609863
 30
0.0
 11
2476.0017300879
 21
-305.7916562505
 31
0.0
  0
LINE
  5
33C
100
AcDbEntity
  8
____
  6
CONTINUOUS
 62
         7
100
AcDbLine
 10
2477.6630004867
 20
-282.0666562505
 30
0.0
 11
2477.6630004867
 21
-304.9916562505
 31
0.0
  0
LINE
  5
33D
100
AcDbEntity
  8
____
  6
CONTINUOUS
 62
         7
100
AcDbLine
 10
2472.2517300879
 20
-284.9440609863
 30
0.0
 11
2472.2517300879
 21
-305.7916562505
 31
0.0
  0
CIRCLE
  5
33E
100
AcDbEntity
  8
____
  6
CENTER
 62
         1
100
AcDbCircle
 10
2474.1267300879
 20
-346.4916562505
 30
0.0
 40
3.5
  0
LINE
  5
33F
100
AcDbEntity
  8
____
  6
CENTER
 62
         1
100
AcDbLine
 10
2474.1267300879
 20
-276.3363929497
 30
0.0
 11
2474.1267300879
 21
-351.3392125015
 31
0.0
  0
LINE
  5
340
100
AcDbEntity
  8
____
  6
CONTINUOUS
 62
         7
100
AcDbLine
 10
2394.6267300879
 20
-302.629349534
 30
0.0
 11
2394.6267300879
 21
-325.0539629669
 31
0.0
  0
ARC
  5
341
100
AcDbEntity
  8
____
  6
CONTINUOUS
 62
         7
100
AcDbCircle
 10
2395.8267300879
 20
-325.0539629669
 30
0.0
 40
1.2
100
AcDbArc
 50
180.0
 51
261.7028550302
  0
ARC
  5
342
100
AcDbEntity
  8
____
  6
CONTINUOUS
 62
         7
100
AcDbCircle
 10
2395.8267300879
 20
-302.629349534
 30
0.0
 40
1.2
100
AcDbArc
 50
98.2971449698
 51
180.0
  0
LINE
  5
343
100
AcDbEntity
  8
____
  6
CONTINUOUS
 62
         7
100
AcDbLine
 10
2395.6535618162
 20
-326.2414025442
 30
0.0
 11
2464.2267300879
 21
-336.2416562505
 31
0.0
  0
LINE
  5
344
100
AcDbEntity
  8
____
  6
CENTER
 62
         1
100
AcDbLine
 10
2392.383228357
 20
-313.8416562505
 30
0.0
 11
2441.489343226
 21
-313.8416562505
 31
0.0
  0
ARC
  5
345
100
AcDbEntity
  8
____
  6
CONTINUOUS
 62
         7
100
AcDbCircle
 10
2718.817522022
 20
-313.8416562505
 30
0.0
 40
31.775
100
AcDbArc
 50
195.411296411
 51
344.588703589
  0
LINE
  5
346
100
AcDbEntity
  8
____
  6
CONTINUOUS
 62
         7
100
AcDbLine
 10
2464.9731402494
 20
-336.0416562505
 30
0.0
 11
2465.6267300879
 21
-336.0416562505
 31
0.0
  0
LINE
  5
347
100
AcDbEntity
  8
____
  6
CONTINUOUS
 62
         7
100
AcDbLine
 10
2464.2267300879
 20
-336.2416562505
 30
0.0
 11
2464.9731402494
 21
-336.0416562505
 31
0.0
  0
ARC
  5
348
100
AcDbEntity
  8
____
  6
CONTINUOUS
 62
         7
100
AcDbCircle
 10
2465.6267300879
 20
-336.6416562505
 30
0.0
 40
0.6
100
AcDbArc
 50
0.0
 51
90.0
  0
LINE
  5
349
100
AcDbEntity
  8
____
  6
CONTINUOUS
 62
         7
100
AcDbLine
 10
2464.9731402494
 20
-336.0416562505
 30
0.0
 11
2464.9731402494
 21
-291.6416562505
 31
0.0
  0
LINE
  5
34A
100
AcDbEntity
  8
____
  6
CONTINUOUS
 62
         7
100
AcDbLine
 10
2464.2267300879
 20
-336.2416562505
 30
0.0
 11
2464.2267300879
 21
-291.4416562505
 31
0.0
  0
LINE
  5
34B
100
AcDbEntity
  8
____
  6
CONTINUOUS
 62
         7
100
AcDbLine
 10
2464.9731402494
 20
-291.6416562505
 30
0.0
 11
2465.6267300879
 21
-291.6416562505
 31
0.0
  0
LINE
  5
34C
100
AcDbEntity
  8
____
  6
CONTINUOUS
 62
         7
100
AcDbLine
 10
2464.2267300879
 20
-291.4416562505
 30
0.0
 11
2464.9731402494
 21
-291.6416562505
 31
0.0
  0
ARC
  5
34D
100
AcDbEntity
  8
____
  6
CONTINUOUS
 62
         7
100
AcDbCircle
 10
2465.6267300879
 20
-291.0416562505
 30
0.0
 40
0.6
100
AcDbArc
 50
270.0
 51
360.0
  0
TEXT
  5
34F
100
AcDbEntity
  8
____
  6
CONTINUOUS
 62
         4
100
AcDbText
 10
2762.1996487019
 20
-304.7123958289
 30
0.0
 40
1.7
  1
+0.5
 50
90.0
  7
BOX
100
AcDbText
  0
TEXT
  5
351
100
AcDbEntity
  8
____
  6
CONTINUOUS
 62
         4
100
AcDbText
 10
2764.9196487019
 20
-304.7123958289
 30
0.0
 40
1.7
  1
 0
 50
90.0
  7
BOX
100
AcDbText
  0
DIMENSION
  5
354
100
AcDbEntity
  8
____
  6
CONTINUOUS
 62
         4
100
AcDbDimension
  2
*D38
 10
2494.1845321427
 20
-291.6166562505
 30
0.0
 11
2492.1595321427
 21
-331.6871316023
 31
0.0
  3
DIMSTYLE1
100
AcDbAlignedDimension
 13
2498.0787300879
 23
-291.6166562505
 33
0.0
 14
2498.0787300879
 24
-336.0666562505
 34
0.0
 50
90.0
100
AcDbRotatedDimension
  0
INSERT
  5
39E
100
AcDbEntity
  8
0
  6
CONTINUOUS
100
AcDbBlockReference
  2
*X39
 10
0.0
 20
0.0
 30
0.0
  0
LINE
  5
39F
100
AcDbEntity
  8
____
  6
CONTINUOUS
 62
         7
100
AcDbLine
 10
2718.817522022
 20
-279.0666562505
 30
0.0
 11
2718.817522022
 21
-273.7771708934
 31
0.0
  0
TEXT
  5
3A1
100
AcDbEntity
  8
____
  6
CONTINUOUS
 62
         4
100
AcDbText
 10
2705.046331709
 20
-350.3659425265
 30
0.0
 40
4.0
  1
A'
  7
BOX
100
AcDbText
  0
TEXT
  5
3A3
100
AcDbEntity
  8
____
  6
CONTINUOUS
 62
         4
100
AcDbText
 10
2708.6511213396
 20
-275.6093976725
 30
0.0
 40
4.0
  1
A
  7
BOX
100
AcDbText
  0
CIRCLE
  5
3A4
100
AcDbEntity
  8
____
  6
CONTINUOUS
 62
         7
100
AcDbCircle
 10
2474.1267300879
 20
-313.8416562505
 30
0.0
 40
5.0
  0
LINE
  5
3A5
100
AcDbEntity
  8
____
  6
CONTINUOUS
 62
         7
100
AcDbLine
 10
2718.8910834096
 20
-349.0338436103
 30
0.0
 11
2718.8910834096
 21
-355.0338436103
 31
0.0
  0
INSERT
  5
3E4
100
AcDbEntity
  8
0
  6
CONTINUOUS
100
AcDbBlockReference
  2
*X40
 10
0.0
 20
0.0
 30
0.0
  0
LINE
  5
3E5
100
AcDbEntity
  8
____
  6
CONTINUOUS
 62
         4
100
AcDbLine
 10
2713.7796459169
 20
-353.5059290076
 30
0.0
 11
2705.7207323789
 21
-353.5059290076
 31
0.0
  0
LINE
  5
3E6
100
AcDbEntity
  8
____
  6
CONTINUOUS
 62
         7
100
AcDbLine
 10
2482.9267300879
 20
-451.173302069
 30
0.0
 11
2562.9567300879
 21
-451.173302069
 31
0.0
  0
ARC
  5
3E7
100
AcDbEntity
  8
____
  6
CONTINUOUS
 62
         7
100
AcDbCircle
 10
2482.9267300879
 20
-451.973302069
 30
0.0
 40
0.8
100
AcDbArc
 50
90.0
 51
180.0
  0
LINE
  5
3E8
100
AcDbEntity
  8
____
  6
CONTINUOUS
 62
         7
100
AcDbLine
 10
2482.1267300879
 20
-451.973302069
 30
0.0
 11
2482.1267300879
 21
-459.7233020692
 31
0.0
  0
LINE
  5
3E9
100
AcDbEntity
  8
____
  6
CONTINUOUS
 62
         7
100
AcDbLine
 10
2477.6630004867
 20
-460.7233020692
 30
0.0
 11
2481.1267300879
 21
-460.7233020692
 31
0.0
  0
LINE
  5
3EA
100
AcDbEntity
  8
____
  6
CONTINUOUS
 62
         7
100
AcDbLine
 10
2476.0017300879
 20
-457.8458973332
 30
0.0
 11
2477.6630004867
 21
-460.723302069
 31
0.0
  0
ARC
  5
3EB
100
AcDbEntity
  8
____
  6
CONTINUOUS
 62
         7
100
AcDbCircle
 10
2475.0279297562
 20
-458.0733020692
 30
0.0
 40
1.0
100
AcDbArc
 50
13.1443256895
 51
90.0
  0
LINE
  5
3EC
100
AcDbEntity
  8
____
  6
CONTINUOUS
 62
         7
100
AcDbLine
 10
2473.2255304197
 20
-457.073302069
 30
0.0
 11
2475.0279297562
 21
-457.073302069
 31
0.0
  0
ARC
  5
3ED
100
AcDbEntity
  8
____
  6
CONTINUOUS
 62
         7
100
AcDbCircle
 10
2473.2255304197
 20
-458.073302069
 30
0.0
 40
1.0
100
AcDbArc
 50
90.0
 51
166.8556743105
  0
LINE
  5
3EE
100
AcDbEntity
  8
____
  6
CONTINUOUS
 62
         7
100
AcDbLine
 10
2472.2517300879
 20
-457.8458973332
 30
0.0
 11
2470.5904596891
 21
-460.723302069
 31
0.0
  0
LINE
  5
3EF
100
AcDbEntity
  8
____
  6
CONTINUOUS
 62
         7
100
AcDbLine
 10
2466.2267300879
 20
-451.7483020692
 30
0.0
 11
2466.2267300879
 21
-459.7233020692
 31
0.0
  0
LINE
  5
3F0
100
AcDbEntity
  8
____
  6
CONTINUOUS
 62
         7
100
AcDbLine
 10
2467.2267300879
 20
-460.7233020692
 30
0.0
 11
2470.5904596891
 21
-460.7233020692
 31
0.0
  0
ARC
  5
3F1
100
AcDbEntity
  8
____
  6
CONTINUOUS
 62
         7
100
AcDbCircle
 10
2465.6267300879
 20
-451.748302069
 30
0.0
 40
0.6
100
AcDbArc
 50
0.0
 51
90.0
  0
LINE
  5
3F2
100
AcDbEntity
  8
____
  6
CONTINUOUS
 62
         7
100
AcDbLine
 10
2464.9731402494
 20
-451.148302069
 30
0.0
 11
2465.6267300879
 21
-451.148302069
 31
0.0
  0
LINE
  5
3F3
100
AcDbEntity
  8
____
  6
CONTINUOUS
 62
         7
100
AcDbLine
 10
2464.2267300879
 20
-451.3483020692
 30
0.0
 11
2464.9731402494
 21
-451.1483020692
 31
0.0
  0
LINE
  5
3F4
100
AcDbEntity
  8
____
  6
CENTER
 62
         1
100
AcDbLine
 10
2391.5789971125
 20
-428.948302069
 30
0.0
 11
2631.7980096507
 21
-428.948302069
 31
0.0
  0
LINE
  5
3F5
100
AcDbEntity
  8
____
  6
CONTINUOUS
 62
         7
100
AcDbLine
 10
2423.0767300879
 20
-420.948302069
 30
0.0
 11
2423.0767300879
 21
-436.948302069
 31
0.0
  0
LINE
  5
3F6
100
AcDbEntity
  8
____
  6
CONTINUOUS
 62
         5
100
AcDbLine
 10
2399.5295728004
 20
-436.948302069
 30
0.0
 11
2423.0767300879
 21
-436.948302069
 31
0.0
  0
ARC
  5
3F7
100
AcDbEntity
  8
____
  6
CONTINUOUS
 62
         7
100
AcDbCircle
 10
2395.8267300879
 20
-440.1606087855
 30
0.0
 40
1.2
100
AcDbArc
 50
180.0
 51
261.7028550302
  0
ARC
  5
3F8
100
AcDbEntity
  8
____
  6
CONTINUOUS
 62
         7
100
AcDbCircle
 10
2395.6267300879
 20
-438.098302069
 30
0.0
 40
1.0
100
AcDbArc
 50
90.0
 51
180.0
  0
LINE
  5
3F9
100
AcDbEntity
  8
____
  6
CONTINUOUS
 62
         7
100
AcDbLine
 10
2395.6267300879
 20
-437.098302069
 30
0.0
 11
2398.3967300879
 21
-437.098302069
 31
0.0
  0
LINE
  5
3FA
100
AcDbEntity
  8
____
  6
CONTINUOUS
 62
         7
100
AcDbLine
 10
2398.7445018592
 20
-437.1914872343
 30
0.0
 11
2398.3967300879
 21
-437.098302069
 31
0.0
  0
LINE
  5
3FB
100
AcDbEntity
  8
____
  6
CONTINUOUS
 62
         7
100
AcDbLine
 10
2398.7962656682
 20
-437.198302069
 30
0.0
 11
2399.1967300879
 21
-437.198302069
 31
0.0
  0
ARC
  5
3FC
100
AcDbEntity
  8
____
  6
CONTINUOUS
 62
         7
100
AcDbCircle
 10
2399.1967300879
 20
-436.998302069
 30
0.0
 40
0.2
100
AcDbArc
 50
270.0
 51
314.9999999962
  0
LINE
  5
3FD
100
AcDbEntity
  8
____
  6
CONTINUOUS
 62
         7
100
AcDbLine
 10
2399.3381514441
 20
-437.1397234253
 30
0.0
 11
2400.5295728004
 21
-435.948302069
 31
0.0
  0
LINE
  5
3FE
100
AcDbEntity
  8
____
  6
CONTINUOUS
 62
         7
100
AcDbLine
 10
2400.5295728004
 20
-435.948302069
 30
0.0
 11
2437.1267300879
 21
-435.948302069
 31
0.0
  0
LINE
  5
3FF
100
AcDbEntity
  8
____
  6
CONTINUOUS
 62
         7
100
AcDbLine
 10
2400.5295728004
 20
-421.948302069
 30
0.0
 11
2400.5295728004
 21
-435.948302069
 31
0.0
  0
LINE
  5
400
100
AcDbEntity
  8
____
  6
CONTINUOUS
 62
         7
100
AcDbLine
 10
2400.5295728004
 20
-421.948302069
 30
0.0
 11
2437.1267300879
 21
-421.948302069
 31
0.0
  0
LINE
  5
401
100
AcDbEntity
  8
____
  6
CONTINUOUS
 62
         5
100
AcDbLine
 10
2399.5295728004
 20
-420.948302069
 30
0.0
 11
2423.0767300879
 21
-420.948302069
 31
0.0
  0
LINE
  5
402
100
AcDbEntity
  8
____
  6
CONTINUOUS
 62
         7
100
AcDbLine
 10
2398.3967300879
 20
-420.798302069
 30
0.0
 11
2398.3967300879
 21
-437.098302069
 31
0.0
  0
LINE
  5
403
100
AcDbEntity
  8
____
  6
CONTINUOUS
 62
         7
100
AcDbLine
 10
2399.3967300879
 20
-421.1547792283
 30
0.0
 11
2399.3967300879
 21
-436.6270554045
 31
0.0
  0
ARC
  5
404
100
AcDbEntity
  8
____
  6
CONTINUOUS
 62
         7
100
AcDbCircle
 10
2399.1967300879
 20
-420.898302069
 30
0.0
 40
0.2
100
AcDbArc
 50
45.0000000038
 51
90.0
  0
LINE
  5
405
100
AcDbEntity
  8
____
  6
CONTINUOUS
 62
         7
100
AcDbLine
 10
2399.3381514441
 20
-420.7568807128
 30
0.0
 11
2400.5295728004
 21
-421.948302069
 31
0.0
  0
LINE
  5
406
100
AcDbEntity
  8
____
  6
CONTINUOUS
 62
         7
100
AcDbLine
 10
2398.7962656682
 20
-420.698302069
 30
0.0
 11
2399.1967300879
 21
-420.698302069
 31
0.0
  0
LINE
  5
407
100
AcDbEntity
  8
____
  6
CONTINUOUS
 62
         7
100
AcDbLine
 10
2398.7445018592
 20
-420.7051169038
 30
0.0
 11
2398.3967300879
 21
-420.798302069
 31
0.0
  0
ARC
  5
408
100
AcDbEntity
  8
____
  6
CONTINUOUS
 62
         7
100
AcDbCircle
 10
2398.7962656682
 20
-420.898302069
 30
0.0
 40
0.2
100
AcDbArc
 50
90.0
 51
105.0
  0
LINE
  5
409
100
AcDbEntity
  8
____
  6
CONTINUOUS
 62
         7
100
AcDbLine
 10
2395.6267300879
 20
-420.798302069
 30
0.0
 11
2398.3967300879
 21
-420.798302069
 31
0.0
  0
ARC
  5
40A
100
AcDbEntity
  8
____
  6
CONTINUOUS
 62
         7
100
AcDbCircle
 10
2395.6267300879
 20
-419.798302069
 30
0.0
 40
1.0
100
AcDbArc
 50
180.0
 51
270.0
  0
LINE
  5
40B
100
AcDbEntity
  8
____
  6
CONTINUOUS
 62
         7
100
AcDbLine
 10
2394.6267300879
 20
-417.7359953526
 30
0.0
 11
2394.6267300879
 21
-440.1606087855
 31
0.0
  0
ARC
  5
40C
100
AcDbEntity
  8
____
  6
CONTINUOUS
 62
         7
100
AcDbCircle
 10
2395.8267300879
 20
-417.7359953526
 30
0.0
 40
1.2
100
AcDbArc
 50
98.2971449698
 51
180.0
  0
LINE
  5
40D
100
AcDbEntity
  8
____
  6
CONTINUOUS
 62
         7
100
AcDbLine
 10
2464.2267300879
 20
-406.548302069
 30
0.0
 11
2464.9731402494
 21
-406.748302069
 31
0.0
  0
LINE
  5
40E
100
AcDbEntity
  8
____
  6
CONTINUOUS
 62
         7
100
AcDbLine
 10
2395.6535618162
 20
-416.5485557753
 30
0.0
 11
2464.2267300879
 21
-406.548302069
 31
0.0
  0
LINE
  5
40F
100
AcDbEntity
  8
____
  6
CONTINUOUS
 62
         7
100
AcDbLine
 10
2464.9731402494
 20
-406.748302069
 30
0.0
 11
2465.6267300879
 21
-406.748302069
 31
0.0
  0
ARC
  5
410
100
AcDbEntity
  8
____
  6
CONTINUOUS
 62
         7
100
AcDbCircle
 10
2465.6267300879
 20
-406.148302069
 30
0.0
 40
0.6
100
AcDbArc
 50
270.0
 51
360.0
  0
LINE
  5
411
100
AcDbEntity
  8
____
  6
CONTINUOUS
 62
         7
100
AcDbLine
 10
2466.2267300879
 20
-406.148302069
 30
0.0
 11
2466.2267300879
 21
-398.1733020688
 31
0.0
  0
LINE
  5
412
100
AcDbEntity
  8
____
  6
CONTINUOUS
 62
         7
100
AcDbLine
 10
2467.2267300879
 20
-397.1733020688
 30
0.0
 11
2470.5904596891
 21
-397.1733020688
 31
0.0
  0
LINE
  5
413
100
AcDbEntity
  8
____
  6
CONTINUOUS
 62
         7
100
AcDbLine
 10
2472.2517300879
 20
-400.0507068048
 30
0.0
 11
2470.5904596891
 21
-397.173302069
 31
0.0
  0
ARC
  5
414
100
AcDbEntity
  8
____
  6
CONTINUOUS
 62
         7
100
AcDbCircle
 10
2473.2255304197
 20
-399.8233020688
 30
0.0
 40
1.0
100
AcDbArc
 50
193.1443256895
 51
270.0
  0
LINE
  5
415
100
AcDbEntity
  8
____
  6
CONTINUOUS
 62
         7
100
AcDbLine
 10
2473.2255304197
 20
-400.8233020688
 30
0.0
 11
2475.0279297562
 21
-400.8233020688
 31
0.0
  0
ARC
  5
416
100
AcDbEntity
  8
____
  6
CONTINUOUS
 62
         7
100
AcDbCircle
 10
2475.0279297562
 20
-399.8233020688
 30
0.0
 40
1.0
100
AcDbArc
 50
270.0
 51
346.8556743105
  0
LINE
  5
417
100
AcDbEntity
  8
____
  6
CONTINUOUS
 62
         7
100
AcDbLine
 10
2476.0017300879
 20
-400.0507068046
 30
0.0
 11
2477.6630004867
 21
-397.1733020688
 31
0.0
  0
LINE
  5
418
100
AcDbEntity
  8
____
  6
CONTINUOUS
 62
         7
100
AcDbLine
 10
2482.1267300879
 20
-398.1733020688
 30
0.0
 11
2482.1267300879
 21
-405.923302069
 31
0.0
  0
LINE
  5
419
100
AcDbEntity
  8
____
  6
CONTINUOUS
 62
         7
100
AcDbLine
 10
2477.6630004867
 20
-397.1733020688
 30
0.0
 11
2481.1267300879
 21
-397.1733020688
 31
0.0
  0
ARC
  5
41A
100
AcDbEntity
  8
____
  6
CONTINUOUS
 62
         7
100
AcDbCircle
 10
2482.9267300879
 20
-405.923302069
 30
0.0
 40
0.8
100
AcDbArc
 50
180.0
 51
270.0
  0
LINE
  5
41B
100
AcDbEntity
  8
____
  6
CONTINUOUS
 62
         7
100
AcDbLine
 10
2482.9267300879
 20
-406.723302069
 30
0.0
 11
2562.9567300879
 21
-406.723302069
 31
0.0
  0
LINE
  5
41C
100
AcDbEntity
  8
____
  6
CONTINUOUS
 62
         7
100
AcDbLine
 10
2371.983228357
 20
-321.7857415316
 30
0.0
 11
2371.983228357
 21
-305.8975709693
 31
0.0
  0
LINE
  5
41D
100
AcDbEntity
  8
____
  6
CONTINUOUS
 62
         7
100
AcDbLine
 10
2324.583228357
 20
-321.3916562505
 30
0.0
 11
2324.583228357
 21
-306.2916562505
 31
0.0
  0
LINE
  5
41E
100
AcDbEntity
  8
____
  6
CONTINUOUS
 62
         7
100
AcDbLine
 10
2324.583228357
 20
-321.3916562505
 30
0.0
 11
2324.083228357
 21
-321.8916562505
 31
0.0
  0
LINE
  5
41F
100
AcDbEntity
  8
____
  6
CONTINUOUS
 62
         7
100
AcDbLine
 10
2316.7507611242
 20
-322.2857415316
 30
0.0
 11
2324.483228357
 21
-322.2857415316
 31
0.0
  0
LINE
  5
420
100
AcDbEntity
  8
____
  6
CONTINUOUS
 62
         7
100
AcDbLine
 10
2324.083228357
 20
-321.8916562505
 30
0.0
 11
2317.1448464054
 21
-321.8916562505
 31
0.0
  0
LINE
  5
421
100
AcDbEntity
  8
____
  6
CONTINUOUS
 62
         7
100
AcDbLine
 10
2316.7507611242
 20
-322.2857415316
 30
0.0
 11
2317.1448464054
 21
-321.8916562505
 31
0.0
  0
LINE
  5
422
100
AcDbEntity
  8
____
  6
CONTINUOUS
 62
         7
100
AcDbLine
 10
2324.983228357
 20
-321.7857415316
 30
0.0
 11
2324.983228357
 21
-305.8975709693
 31
0.0
  0
LINE
  5
423
100
AcDbEntity
  8
____
  6
CONTINUOUS
 62
         7
100
AcDbLine
 10
2316.7507611242
 20
-305.3975709693
 30
0.0
 11
2324.483228357
 21
-305.3975709693
 31
0.0
  0
LINE
  5
424
100
AcDbEntity
  8
____
  6
CONTINUOUS
 62
         7
100
AcDbLine
 10
2324.083228357
 20
-305.7916562505
 30
0.0
 11
2317.1448464054
 21
-305.7916562505
 31
0.0
  0
LINE
  5
425
100
AcDbEntity
  8
____
  6
CONTINUOUS
 62
         7
100
AcDbLine
 10
2324.583228357
 20
-306.2916562505
 30
0.0
 11
2324.083228357
 21
-305.7916562505
 31
0.0
  0
LINE
  5
426
100
AcDbEntity
  8
____
  6
CONTINUOUS
 62
         7
100
AcDbLine
 10
2316.7507611242
 20
-305.3975709693
 30
0.0
 11
2317.1448464054
 21
-305.7916562505
 31
0.0
  0
LINE
  5
427
100
AcDbEntity
  8
____
  6
CONTINUOUS
 62
         7
100
AcDbLine
 10
2324.983228357
 20
-305.8975709693
 30
0.0
 11
2324.483228357
 21
-305.3975709693
 31
0.0
  0
LINE
  5
428
100
AcDbEntity
  8
____
  6
CONTINUOUS
 62
         7
100
AcDbLine
 10
2324.983228357
 20
-321.7857415316
 30
0.0
 11
2324.483228357
 21
-322.2857415316
 31
0.0
  0
LINE
  5
429
100
AcDbEntity
  8
____
  6
CONTINUOUS
 62
         7
100
AcDbLine
 10
2378.0156955897
 20
-322.2857415316
 30
0.0
 11
2372.483228357
 21
-322.2857415316
 31
0.0
  0
LINE
  5
42A
100
AcDbEntity
  8
____
  6
CONTINUOUS
 62
         7
100
AcDbLine
 10
2377.6216103085
 20
-321.8916562505
 30
0.0
 11
2372.883228357
 21
-321.8916562505
 31
0.0
  0
LINE
  5
42B
100
AcDbEntity
  8
____
  6
CONTINUOUS
 62
         7
100
AcDbLine
 10
2372.383228357
 20
-321.3916562505
 30
0.0
 11
2372.383228357
 21
-306.2916562505
 31
0.0
  0
LINE
  5
42C
100
AcDbEntity
  8
____
  6
CONTINUOUS
 62
         7
100
AcDbLine
 10
2372.383228357
 20
-321.3916562505
 30
0.0
 11
2372.883228357
 21
-321.8916562505
 31
0.0
  0
LINE
  5
42D
100
AcDbEntity
  8
____
  6
CONTINUOUS
 62
         7
100
AcDbLine
 10
2378.0156955897
 20
-322.2857415316
 30
0.0
 11
2377.6216103085
 21
-321.8916562505
 31
0.0
  0
LINE
  5
42E
100
AcDbEntity
  8
____
  6
CONTINUOUS
 62
         7
100
AcDbLine
 10
2371.983228357
 20
-321.7857415316
 30
0.0
 11
2372.483228357
 21
-322.2857415316
 31
0.0
  0
LINE
  5
42F
100
AcDbEntity
  8
____
  6
CONTINUOUS
 62
         7
100
AcDbLine
 10
2372.383228357
 20
-306.2916562505
 30
0.0
 11
2372.883228357
 21
-305.7916562505
 31
0.0
  0
LINE
  5
430
100
AcDbEntity
  8
____
  6
CONTINUOUS
 62
         7
100
AcDbLine
 10
2378.0156955897
 20
-305.3975709693
 30
0.0
 11
2377.6216103085
 21
-305.7916562505
 31
0.0
  0
LINE
  5
431
100
AcDbEntity
  8
____
  6
CONTINUOUS
 62
         7
100
AcDbLine
 10
2377.6216103085
 20
-305.7916562505
 30
0.0
 11
2372.883228357
 21
-305.7916562505
 31
0.0
  0
LINE
  5
432
100
AcDbEntity
  8
____
  6
CONTINUOUS
 62
         7
100
AcDbLine
 10
2378.0156955897
 20
-305.3975709693
 30
0.0
 11
2372.483228357
 21
-305.3975709693
 31
0.0
  0
LINE
  5
433
100
AcDbEntity
  8
____
  6
CONTINUOUS
 62
         7
100
AcDbLine
 10
2371.983228357
 20
-305.8975709693
 30
0.0
 11
2372.483228357
 21
-305.3975709693
 31
0.0
  0
CIRCLE
  5
434
100
AcDbEntity
  8
____
  6
CONTINUOUS
 62
         7
100
AcDbCircle
 10
2347.383228357
 20
-313.8416562505
 30
0.0
 40
22.225
  0
CIRCLE
  5
435
100
AcDbEntity
  8
____
  6
CONTINUOUS
 62
         7
100
AcDbCircle
 10
2347.383228357
 20
-313.8416562505
 30
0.0
 40
8.5
  0
CIRCLE
  5
436
100
AcDbEntity
  8
____
  6
CONTINUOUS
 62
         7
100
AcDbCircle
 10
2347.383228357
 20
-313.8416562505
 30
0.0
 40
9.5
  0
ARC
  5
437
100
AcDbEntity
  8
____
  6
CONTINUOUS
 62
         5
100
AcDbCircle
 10
2347.383228357
 20
-313.8416562505
 30
0.0
 40
8.0
100
AcDbArc
 50
352.9901372228
 51
621.2264515101
  0
CIRCLE
  5
438
100
AcDbEntity
  8
____
  6
CONTINUOUS
 62
         7
100
AcDbCircle
 10
2347.383228357
 20
-313.8416562505
 30
0.0
 40
7.0
  0
CIRCLE
  5
439
100
AcDbEntity
  8
____
  6
CONTINUOUS
 62
         7
100
AcDbCircle
 10
2347.383228357
 20
-313.8416562505
 30
0.0
 40
12.7165768873
  0
LINE
  5
43A
100
AcDbEntity
  8
____
  6
CENTER
 62
         1
100
AcDbLine
 10
2347.383228357
 20
-349.4530084833
 30
0.0
 11
2347.383228357
 21
-278.6089481519
 31
0.0
  0
ARC
  5
43B
100
AcDbEntity
  8
____
  6
CONTINUOUS
 62
         7
100
AcDbCircle
 10
2347.383228357
 20
-313.8416562505
 30
0.0
 40
31.775
100
AcDbArc
 50
15.411296411
 51
164.588703589
  0
ARC
  5
43C
100
AcDbEntity
  8
____
  6
CONTINUOUS
 62
         7
100
AcDbCircle
 10
2347.383228357
 20
-313.8416562505
 30
0.0
 40
31.775
100
AcDbArc
 50
195.411296411
 51
344.588703589
  0
ARC
  5
43D
100
AcDbEntity
  8
____
  6
CONTINUOUS
 62
         7
100
AcDbCircle
 10
2467.2267300879
 20
-398.1733020688
 30
0.0
 40
1.0
100
AcDbArc
 50
90.0
 51
180.0
  0
ARC
  5
43E
100
AcDbEntity
  8
____
  6
CONTINUOUS
 62
         7
100
AcDbCircle
 10
2481.1267300879
 20
-398.1733020688
 30
0.0
 40
1.0
100
AcDbArc
 50
0.0
 51
90.0
  0
ARC
  5
43F
100
AcDbEntity
  8
____
  6
CONTINUOUS
 62
         7
100
AcDbCircle
 10
2481.1267300879
 20
-459.7233020692
 30
0.0
 40
1.0
100
AcDbArc
 50
270.0
 51
360.0
  0
ARC
  5
440
100
AcDbEntity
  8
____
  6
CONTINUOUS
 62
         7
100
AcDbCircle
 10
2467.2267300879
 20
-459.7233020692
 30
0.0
 40
1.0
100
AcDbArc
 50
180.0
 51
270.0
  0
LINE
  5
441
100
AcDbEntity
  8
____
  6
CONTINUOUS
 62
         4
100
AcDbLine
 10
2467.2267300879
 20
-282.0666562505
 30
0.0
 11
2467.2267300879
 21
-304.9916562505
 31
0.0
  0
ARC
  5
442
100
AcDbEntity
  8
____
  6
CONTINUOUS
 62
         7
100
AcDbCircle
 10
2467.2267300879
 20
-283.0666562505
 30
0.0
 40
1.0
100
AcDbArc
 50
90.0
 51
180.0
  0
LINE
  5
443
100
AcDbEntity
  8
____
  6
CONTINUOUS
 62
         4
100
AcDbLine
 10
2481.1267300879
 20
-282.0666562505
 30
0.0
 11
2481.1267300879
 21
-304.9916562505
 31
0.0
  0
ARC
  5
444
100
AcDbEntity
  8
____
  6
CONTINUOUS
 62
         7
100
AcDbCircle
 10
2481.1267300879
 20
-283.0666562505
 30
0.0
 40
1.0
100
AcDbArc
 50
0.0
 51
90.0
  0
ARC
  5
445
100
AcDbEntity
  8
____
  6
CONTINUOUS
 62
         7
100
AcDbCircle
 10
2467.2267300879
 20
-344.6166562505
 30
0.0
 40
1.0
100
AcDbArc
 50
180.0
 51
270.0
  0
LINE
  5
446
100
AcDbEntity
  8
____
  6
CONTINUOUS
 62
         4
100
AcDbLine
 10
2467.2267300879
 20
-322.6916562505
 30
0.0
 11
2467.2267300879
 21
-345.6166562505
 31
0.0
  0
ARC
  5
447
100
AcDbEntity
  8
____
  6
CONTINUOUS
 62
         7
100
AcDbCircle
 10
2481.1267300879
 20
-344.6166562505
 30
0.0
 40
1.0
100
AcDbArc
 50
270.0
 51
360.0
  0
LINE
  5
448
100
AcDbEntity
  8
____
  6
CONTINUOUS
 62
         4
100
AcDbLine
 10
2481.1267300879
 20
-322.6916562505
 30
0.0
 11
2481.1267300879
 21
-345.6166562505
 31
0.0
  0
LINE
  5
449
100
AcDbEntity
  8
____
  6
CONTINUOUS
 62
         7
100
AcDbLine
 10
2565.4567300879
 20
-417.823302069
 30
0.0
 11
2565.4567300879
 21
-413.273302069
 31
0.0
  0
LINE
  5
44A
100
AcDbEntity
  8
____
  6
CONTINUOUS
 62
         7
100
AcDbLine
 10
2590.4567300879
 20
-417.823302069
 30
0.0
 11
2565.4567300879
 21
-417.823302069
 31
0.0
  0
LINE
  5
44B
100
AcDbEntity
  8
____
  6
CONTINUOUS
 62
         7
100
AcDbLine
 10
2590.4567300879
 20
-417.823302069
 30
0.0
 11
2590.4567300879
 21
-413.073302069
 31
0.0
  0
LINE
  5
44C
100
AcDbEntity
  8
____
  6
CONTINUOUS
 62
         7
100
AcDbLine
 10
2622.8767300879
 20
-431.2048404831
 30
0.0
 11
2620.7003417131
 21
-429.948302069
 31
0.0
  0
LINE
  5
44D
100
AcDbEntity
  8
____
  6
CONTINUOUS
 62
         7
100
AcDbLine
 10
2622.8767300879
 20
-426.6917636549
 30
0.0
 11
2620.7003417131
 21
-427.948302069
 31
0.0
  0
LINE
  5
44E
100
AcDbEntity
  8
____
  6
CONTINUOUS
 62
         7
100
AcDbLine
 10
2620.7003417131
 20
-427.948302069
 30
0.0
 11
2620.7003417131
 21
-429.948302069
 31
0.0
  0
LINE
  5
44F
100
AcDbEntity
  8
____
  6
CONTINUOUS
 62
         7
100
AcDbLine
 10
2619.7540803571
 20
-429.948302069
 30
0.0
 11
2620.7003417131
 21
-429.948302069
 31
0.0
  0
LINE
  5
450
100
AcDbEntity
  8
____
  6
CONTINUOUS
 62
         7
100
AcDbLine
 10
2619.7540803571
 20
-427.948302069
 30
0.0
 11
2620.7003417131
 21
-427.948302069
 31
0.0
  0
LINE
  5
451
100
AcDbEntity
  8
____
  6
CONTINUOUS
 62
         7
100
AcDbLine
 10
2619.7540803571
 20
-427.948302069
 30
0.0
 11
2619.7540803571
 21
-429.948302069
 31
0.0
  0
LINE
  5
452
100
AcDbEntity
  8
____
  6
CONTINUOUS
 62
         7
100
AcDbLine
 10
2619.7540803571
 20
-429.948302069
 30
0.0
 11
2619.1767300879
 21
-428.948302069
 31
0.0
  0
LINE
  5
453
100
AcDbEntity
  8
____
  6
CONTINUOUS
 62
         7
100
AcDbLine
 10
2619.7540803571
 20
-427.948302069
 30
0.0
 11
2619.1767300879
 21
-428.948302069
 31
0.0
  0
INSERT
  5
4A7
100
AcDbEntity
  8
0
  6
CONTINUOUS
100
AcDbBlockReference
  2
*X41
 10
0.0
 20
0.0
 30
0.0
  0
LINE
  5
4A8
100
AcDbEntity
  8
____
  6
CENTER
 62
         1
100
AcDbLine
 10
2319.189366549
 20
-313.8416562505
 30
0.0
 11
2376.5298805703
 21
-313.8416562505
 31
0.0
  0
LINE
  5
4A9
100
AcDbEntity
  8
____
  6
CONTINUOUS
 62
         7
100
AcDbLine
 10
2395.6535618162
 20
-301.4419099567
 30
0.0
 11
2464.2267300879
 21
-291.4416562505
 31
0.0
  0
LINE
  5
4AA
100
AcDbEntity
  8
____
  6
CENTER
 62
         1
100
AcDbLine
 10
2626.4002039795
 20
-313.8416562505
 30
0.0
 11
2459.0521366495
 21
-313.8416562505
 31
0.0
  0
LINE
  5
4AB
100
AcDbEntity
  8
____
  6
CONTINUOUS
 62
         4
100
AcDbLine
 10
2713.7060845294
 20
-277.5387416478
 30
0.0
 11
2705.6471709914
 21
-277.5387416478
 31
0.0
  0
LINE
  5
4AC
100
AcDbEntity
  8
____
  6
CONTINUOUS
 62
         7
100
AcDbLine
 10
2395.6535618162
 20
-441.3480483627
 30
0.0
 11
2464.2267300884
 21
-451.3483020691
 31
0.0
  0
ENDSEC
  0
SECTION
  2
OBJECTS
  0
DICTIONARY
  5
19
100
AcDbDictionary
  3
ACAD_GROUP
350
1A
  3
ACAD_MLINESTYLE
350
1B
  0
DICTIONARY
  5
1A
102
{ACAD_REACTORS
330
19
102
}
100
AcDbDictionary
  0
DICTIONARY
  5
1B
102
{ACAD_REACTORS
330
19
102
}
100
AcDbDictionary
  3
STANDARD
350
1C
  0
MLINESTYLE
  5
1C
102
{ACAD_REACTORS
330
1B
102
}
100
AcDbMlineStyle
  2
STANDARD
 70
         0
  3

 62
         0
 51
90.0
 52
90.0
 71
         2
 49
0.5
 62
       256
  6
BYLAYER
 49
-0.5
 62
       256
  6
BYLAYER
  0
ENDSEC
  0
EOF
