  0
SECTION
  2
HEADER
  9
$ACADVER
  1
AC1014
  9
$ACADMAINTVER
 70
         0
  9
$DWGCODEPAGE
  3
BIG5
  9
$INSBASE
 10
0.0
 20
0.0
 30
0.0
  9
$EXTMIN
 10
-180.8869997138
 20
-105.8236926522
 30
0.0
  9
$EXTMAX
 10
584.8610488715
 20
280.2427220598
 30
0.0
  9
$LIMMIN
 10
0.0
 20
0.0
  9
$LIMMAX
 10
0.0
 20
0.0
  9
$ORTHOMODE
 70
         0
  9
$REGENMODE
 70
         1
  9
$FILLMODE
 70
         1
  9
$QTEXTMODE
 70
         0
  9
$MIRRTEXT
 70
         1
  9
$DRAGMODE
 70
         2
  9
$LTSCALE
 40
1.0
  9
$OSMODE
 70
         0
  9
$ATTMODE
 70
         1
  9
$TEXTSIZE
 40
5.0
  9
$TRACEWID
 40
0.05
  9
$TEXTSTYLE
  7
STANDARD
  9
$CLAYER
  8
0
  9
$CELTYPE
  6
CONTINUOUS
  9
$CECOLOR
 62
         3
  9
$CELTSCALE
 40
1.0
  9
$DELOBJ
 70
         1
  9
$DISPSILH
 70
         0
  9
$DIMSCALE
 40
1.0
  9
$DIMASZ
 40
0.18
  9
$DIMEXO
 40
0.0625
  9
$DIMDLI
 40
0.38
  9
$DIMRND
 40
0.0
  9
$DIMDLE
 40
0.0
  9
$DIMEXE
 40
0.25
  9
$DIMTP
 40
0.01
  9
$DIMTM
 40
-0.01
  9
$DIMTXT
 40
5.0
  9
$DIMCEN
 40
0.09
  9
$DIMTSZ
 40
0.0
  9
$DIMTOL
 70
         0
  9
$DIMLIM
 70
         0
  9
$DIMTIH
 70
         1
  9
$DIMTOH
 70
         1
  9
$DIMSE1
 70
         0
  9
$DIMSE2
 70
         0
  9
$DIMTAD
 70
         0
  9
$DIMZIN
 70
         0
  9
$DIMBLK
  1

  9
$DIMASO
 70
         1
  9
$DIMSHO
 70
         1
  9
$DIMPOST
  1

  9
$DIMAPOST
  1

  9
$DIMALT
 70
         0
  9
$DIMALTD
 70
         2
  9
$DIMALTF
 40
25.4
  9
$DIMLFAC
 40
1.0
  9
$DIMTOFL
 70
         0
  9
$DIMTVP
 40
0.0
  9
$DIMTIX
 70
         0
  9
$DIMSOXD
 70
         0
  9
$DIMSAH
 70
         0
  9
$DIMBLK1
  1

  9
$DIMBLK2
  1

  9
$DIMSTYLE
  2
STANDARD
  9
$DIMCLRD
 70
         0
  9
$DIMCLRE
 70
         0
  9
$DIMCLRT
 70
         3
  9
$DIMTFAC
 40
1.0
  9
$DIMGAP
 40
0.09
  9
$DIMJUST
 70
         0
  9
$DIMSD1
 70
         0
  9
$DIMSD2
 70
         0
  9
$DIMTOLJ
 70
         1
  9
$DIMTZIN
 70
         0
  9
$DIMALTZ
 70
         0
  9
$DIMALTTZ
 70
         0
  9
$DIMFIT
 70
         3
  9
$DIMUPT
 70
         0
  9
$DIMUNIT
 70
         2
  9
$DIMDEC
 70
         4
  9
$DIMTDEC
 70
         4
  9
$DIMALTU
 70
         2
  9
$DIMALTTD
 70
         2
  9
$DIMTXSTY
  7
STANDARD
  9
$DIMAUNIT
 70
         0
  9
$LUNITS
 70
         2
  9
$LUPREC
 70
        10
  9
$SKETCHINC
 40
0.1
  9
$FILLETRAD
 40
0.0
  9
$AUNITS
 70
         0
  9
$AUPREC
 70
         0
  9
$MENU
  1
acad
  9
$ELEVATION
 40
0.0
  9
$PELEVATION
 40
0.0
  9
$THICKNESS
 40
0.0
  9
$LIMCHECK
 70
         0
  9
$BLIPMODE
 70
         1
  9
$CHAMFERA
 40
0.0
  9
$CHAMFERB
 40
0.0
  9
$CHAMFERC
 40
0.0
  9
$CHAMFERD
 40
0.0
  9
$SKPOLY
 70
         0
  9
$TDCREATE
 40
0.000000000
  9
$TDUPDATE
 40
0.000000000
  9
$TDINDWG
 40
0.0000000000
  9
$TDUSRTIMER
 40
0.0000000000
  9
$USRTIMER
 70
         1
  9
$ANGBASE
 50
0.0
  9
$ANGDIR
 70
         0
  9
$PDMODE
 70
         2
  9
$PDSIZE
 40
0.0
  9
$PLINEWID
 40
0.0
  9
$COORDS
 70
         1
  9
$SPLFRAME
 70
         0
  9
$SPLINETYPE
 70
         6
  9
$SPLINESEGS
 70
         8
  9
$ATTDIA
 70
         0
  9
$ATTREQ
 70
         1
  9
$HANDLING
 70
         1
  9
$HANDSEED
  5
216
  9
$SURFTAB1
 70
         6
  9
$SURFTAB2
 70
         6
  9
$SURFTYPE
 70
         6
  9
$SURFU
 70
         6
  9
$SURFV
 70
         6
  9
$UCSNAME
  2

  9
$UCSORG
 10
0.0
 20
0.0
 30
0.0
  9
$UCSXDIR
 10
1.0
 20
0.0
 30
0.0
  9
$UCSYDIR
 10
0.0
 20
1.0
 30
0.0
  9
$PUCSNAME
  2

  9
$PUCSORG
 10
0.0
 20
0.0
 30
0.0
  9
$PUCSXDIR
 10
1.0
 20
0.0
 30
0.0
  9
$PUCSYDIR
 10
0.0
 20
1.0
 30
0.0
  9
$USERI1
 70
         0
  9
$USERI2
 70
         0
  9
$USERI3
 70
         0
  9
$USERI4
 70
         0
  9
$USERI5
 70
         0
  9
$USERR1
 40
0.0
  9
$USERR2
 40
0.0
  9
$USERR3
 40
0.0
  9
$USERR4
 40
0.0
  9
$USERR5
 40
0.0
  9
$WORLDVIEW
 70
         1
  9
$SHADEDGE
 70
         3
  9
$SHADEDIF
 70
        70
  9
$TILEMODE
 70
         1
  9
$MAXACTVP
 70
        16
  9
$PINSBASE
 10
0.0
 20
0.0
 30
0.0
  9
$PLIMCHECK
 70
         0
  9
$PEXTMIN
 10
1.0000000000E+20
 20
1.0000000000E+20
 30
1.0000000000E+20
  9
$PEXTMAX
 10
-1.0000000000E+20
 20
-1.0000000000E+20
 30
-1.0000000000E+20
  9
$PLIMMIN
 10
0.0
 20
0.0
  9
$PLIMMAX
 10
12.0
 20
9.0
  9
$UNITMODE
 70
         0
  9
$VISRETAIN
 70
         0
  9
$PLINEGEN
 70
         1
  9
$PSLTSCALE
 70
         0
  9
$TREEDEPTH
 70
      3020
  9
$PICKSTYLE
 70
         1
  9
$CMLSTYLE
  2
STANDARD
  9
$CMLJUST
 70
         0
  9
$CMLSCALE
 40
1.0
  9
$PROXYGRAPHICS
 70
         0
  9
$MEASUREMENT
 70
         0
  0
ENDSEC
  0
SECTION
  2
CLASSES
  0
CLASS
  1
LWPOLYLINE
  2
AcDbPolyline
  3
"AutoCAD"
 90
        0
280
         0
281
         1
  0
CLASS
  1
IMAGE
  2
AcDbRasterImage
  3
ISM
 90
      127
280
         0
281
         1
  0
CLASS
  1
OLE2FRAME
  2
AcDbOle2Frame
  3
""
 90
        0
280
         0
281
         1
  0
CLASS
  1
HATCH
  2
AcDbHatch
  3
"ACAD_SEDONA"
 90
        0
280
         0
281
         1
  0
CLASS
  1
DICTIONARYVAR
  2
AcDbDictionaryVar
  3
"AutoCAD"
 90
        0
280
         0
281
         0
  0
CLASS
  1
RASTERVARIABLES
  2
AcDbRasterVariables
  3
ISM
 90
        0
280
         0
281
         0
  0
CLASS
  1
IMAGEDEF
  2
AcDbRasterImageDef
  3
ISM
 90
        0
280
         0
281
         0
  0
CLASS
  1
IMAGEDEF_REACTOR
  2
AcDbRasterImageDefReactor
  3
ISM
 90
        1
280
         0
281
         0
  0
CLASS
  1
IDBUFFER
  2
AcDbIdBuffer
  3
"Acad"
 90
        0
280
         0
281
         0
  0
CLASS
  1
SPATIAL_FILTER
  2
AcDbSpatialFilter
  3
"Acad"
 90
        0
280
         0
281
         0
  0
CLASS
  1
XRECORD
  2
AcDbXrecord
  3
"<Built In>"
 90
        0
280
         0
281
         0
  0
CLASS
  1
SORTENTSTABLE
  2
AcDbSortentsTable
  3
"AutoCAD"
 90
        0
280
         0
281
         0
  0
CLASS
  1
LAYER_INDEX
  2
AcDbLayerIndex
  3
"Acad"
 90
        0
280
         0
281
         0
  0
CLASS
  1
SPATIAL_INDEX
  2
AcDbSpatialIndex
  3
"Acad"
 90
        0
280
         0
281
         0
  0
CLASS
  1
OBJECT_PTR
  2
CAseDLPNTableRecord
  3
"ASE-LPNTableRecord"
 90
        1
280
         0
281
         0
  0
CLASS
  1
LAYOUT
  2
AcDbLayout
  3
"AutoCAD 2000"
 90
        1
280
         0
281
         0
  0
CLASS
  1
PLOTSETTINGS
  2
AcDbPlotSettings
  3
"AutoCAD 2000"
 90
        1
280
         0
281
         0
  0
CLASS
  1
ACDBDICTIONARYWDFLT
  2
AcDbDictionaryWithDefault
  3
"AutoCAD 2000"
 90
        1
280
         0
281
         0
  0
CLASS
  1
ACDBPLACEHOLDER
  2
AcDbPlaceHolder
  3
"AutoCAD 2000"
 90
        1
280
         0
281
         0
  0
CLASS
  1
VBA_PROJECT
  2
AcDbVbaProject
  3
"acadvba"
 90
        1
280
         0
281
         0
  0
CLASS
  1
WIPEOUT
  2
AcDbWipeout
  3
WipeOut|AutoCAD Express Tool|expresstools@autodesk.com
 90
      127
280
         0
281
         1
  0
CLASS
  1
WIPEOUTVARIABLES
  2
AcDbWipeoutVariables
  3
WipeOut|AutoCAD Express Tool|expresstools@autodesk.com
 90
        0
280
         0
281
         0
  0
CLASS
  1
RTEXT
  2
RText
  3
RText|AutoCAD Express Tool|expresstools@autodesk.com
 90
        0
280
         0
281
         1
  0
CLASS
  1
ARCALIGNEDTEXT
  2
AcDbArcAlignedText
  3
ATEXT|AutoCAD Express Tool|expresstools@autodesk.com
 90
        0
280
         0
281
         1
  0
ENDSEC
  0
SECTION
  2
TABLES
  0
TABLE
  2
VPORT
  5
7
100
AcDbSymbolTable
 70
         1
  0
VPORT
  5
15
100
AcDbSymbolTableRecord
100
AcDbViewportTableRecord
  2
*ACTIVE
 70
         0
 10
0.0
 20
0.0
 11
1.0
 21
1.0
 12
201.9870245788
 22
87.2095147038
 13
0.0
 23
0.0
 14
1.0
 24
1.0
 15
0.0
 25
0.0
 16
0.0
 26
0.0
 36
1.0
 17
0.0
 27
0.0
 37
0.0
 40
386.066414712
 41
1.9834619625
 42
50.0
 43
0.0
 44
0.0
 50
0.0
 51
0.0
 71
         0
 72
       100
 73
         1
 74
         1
 75
         0
 76
         0
 77
         0
 78
         0
  0
ENDTAB
  0
TABLE
  2
LTYPE
  5
4
100
AcDbSymbolTable
 70
         6
  0
LTYPE
  5
11
100
AcDbSymbolTableRecord
100
AcDbLinetypeTableRecord
  2
BYBLOCK
 70
        64
  3

 72
        65
 73
         0
 40
0.0
  0
LTYPE
  5
12
100
AcDbSymbolTableRecord
100
AcDbLinetypeTableRecord
  2
BYLAYER
 70
        64
  3

 72
        65
 73
         0
 40
0.0
  0
LTYPE
  5
13
100
AcDbSymbolTableRecord
100
AcDbLinetypeTableRecord
  2
CONTINUOUS
 70
        64
  3
Solid line
 72
        65
 73
         0
 40
0.0
  0
LTYPE
  5
1D
100
AcDbSymbolTableRecord
100
AcDbLinetypeTableRecord
  2
DASHED
 70
        64
  3
_ _ _ _ _ _ _ _ _ _ _ _ _ _ _ _
 72
        65
 73
         2
 40
0.2
 49
0.1
 74
         0
 49
-0.1
 74
         0
  0
LTYPE
  5
1E
100
AcDbSymbolTableRecord
100
AcDbLinetypeTableRecord
  2
CENTER
 70
        64
  3
___ _ ___ _ ___ _ ___ _ ___ _ ___ _ ___ _ ___ _
 72
        65
 73
         4
 40
0.95
 49
0.625
 74
         0
 49
-0.125
 74
         0
 49
0.075
 74
         0
 49
-0.125
 74
         0
  0
LTYPE
  5
1F
100
AcDbSymbolTableRecord
100
AcDbLinetypeTableRecord
  2
PHANTOM
 70
        64
  3
______  __  __  ______  __  __  ______  __  __  
 72
        65
 73
         6
 40
1.025
 49
0.625
 74
         0
 49
-0.125
 74
         0
 49
0.075
 74
         0
 49
-0.125
 74
         0
 49
0.075
 74
         0
 49
-0.125
 74
         0
  0
ENDTAB
  0
TABLE
  2
LAYER
  5
2
100
AcDbSymbolTable
 70
         3
  0
LAYER
  5
14
100
AcDbSymbolTableRecord
100
AcDbLayerTableRecord
  2
0
 70
         0
 62
         7
  6
CONTINUOUS
  0
LAYER
  5
21
100
AcDbSymbolTableRecord
100
AcDbLayerTableRecord
  2
CK_LEVEL_1
 70
         0
 62
         7
  6
CONTINUOUS
  0
LAYER
  5
2F
100
AcDbSymbolTableRecord
100
AcDbLayerTableRecord
  2
DEFPOINTS
 70
         0
 62
        -7
  6
CONTINUOUS
  0
ENDTAB
  0
TABLE
  2
STYLE
  5
3
100
AcDbSymbolTable
 70
         6
  0
STYLE
  5
17
100
AcDbSymbolTableRecord
100
AcDbTextStyleTableRecord
  2
STANDARD
 70
         0
 40
0.0
 41
1.0
 50
0.0
 71
         0
 42
0.0
  3
txt
  4

  0
STYLE
  5
39
100
AcDbSymbolTableRecord
100
AcDbTextStyleTableRecord
  2
BOX
 70
         0
 40
1.0
 41
1.0
 50
0.0
 71
         0
 42
0.2
  3
txt.shx
  4

  0
STYLE
  5
12B
100
AcDbSymbolTableRecord
100
AcDbTextStyleTableRecord
  2
BOX
 70
         0
 40
1.0
 41
1.0
 50
0.0
 71
         0
 42
0.2
  3
txt.shx
  4

  0
STYLE
  5
1F2
100
AcDbSymbolTableRecord
100
AcDbTextStyleTableRecord
  2
BOX
 70
         0
 40
1.0
 41
1.0
 50
0.0
 71
         0
 42
0.2
  3
txt.shx
  4

  0
STYLE
  5
211
100
AcDbSymbolTableRecord
100
AcDbTextStyleTableRecord
  2
BOX
 70
         0
 40
1.0
 41
1.0
 50
0.0
 71
         0
 42
0.2
  3
txt.shx
  4

  0
STYLE
  5
214
100
AcDbSymbolTableRecord
100
AcDbTextStyleTableRecord
  2
BOX
 70
         0
 40
1.0
 41
1.0
 50
0.0
 71
         0
 42
0.2
  3
txt.shx
  4

  0
ENDTAB
  0
TABLE
  2
VIEW
  5
5
100
AcDbSymbolTable
 70
         0
  0
ENDTAB
  0
TABLE
  2
UCS
  5
6
100
AcDbSymbolTable
 70
         1
  0
UCS
  5
20
100
AcDbSymbolTableRecord
100
AcDbUCSTableRecord
  2
CK_VIEW_1
 70
         0
 10
0.0
 20
0.0
 30
1.0
 11
1.0
 21
0.0
 31
0.0
 12
0.0
 22
1.0
 32
0.0
  0
ENDTAB
  0
TABLE
  2
APPID
  5
8
100
AcDbSymbolTable
 70
         1
  0
APPID
  5
16
100
AcDbSymbolTableRecord
100
AcDbRegAppTableRecord
  2
ACAD
 70
         0
  0
ENDTAB
  0
TABLE
  2
DIMSTYLE
  5
9
100
AcDbSymbolTable
 70
         2
  0
DIMSTYLE
105
18
100
AcDbSymbolTableRecord
100
AcDbDimStyleTableRecord
  2
STANDARD
 70
         0
  3

  4

  5

  6

  7

 40
1.0
 41
0.18
 42
0.0625
 43
0.38
 44
0.18
 45
0.0
 46
0.0
 47
0.0
 48
0.0
 71
         0
 72
         0
 73
         1
 74
         1
 75
         0
 76
         0
 77
         0
 78
         0
140
0.18
141
0.09
142
0.0
143
25.4
144
1.0
145
0.0
146
1.0
147
0.09
170
         0
171
         2
172
         0
173
         0
174
         0
175
         0
176
         0
177
         0
178
         0
270
         2
271
         4
272
         4
273
         2
274
         2
275
         0
280
         0
281
         0
282
         0
283
         1
284
         0
285
         0
286
         0
287
         0
288
         0
340
17
  0
DIMSTYLE
105
2B
100
AcDbSymbolTableRecord
100
AcDbDimStyleTableRecord
  2
DIMSTYLE1
 70
         0
  3

  4

  5

  6

  7

 40
1.0
 41
3.5
 42
0.0625
 43
0.38
 44
3.5
 45
0.0
 46
0.0
 47
0.0
 48
0.0
 71
         0
 72
         0
 73
         1
 74
         1
 75
         0
 76
         0
 77
         0
 78
         0
140
3.5
141
0.09
142
0.0
143
25.4
144
1.0
145
0.0
146
1.0
147
0.09
170
         0
171
         2
172
         0
173
         0
174
         0
175
         0
176
         0
177
         0
178
         0
270
         2
271
         4
272
         4
273
         2
274
         2
275
         0
280
         0
281
         0
282
         0
283
         1
284
         0
285
         0
286
         0
287
         0
288
         0
340
17
  0
ENDTAB
  0
TABLE
  2
BLOCK_RECORD
  5
1
100
AcDbSymbolTable
 70
         6
  0
BLOCK_RECORD
  5
A
100
AcDbSymbolTableRecord
100
AcDbBlockTableRecord
  2
*MODEL_SPACE
  0
BLOCK_RECORD
  5
B
100
AcDbSymbolTableRecord
100
AcDbBlockTableRecord
  2
*PAPER_SPACE
  0
BLOCK_RECORD
  5
2C
100
AcDbSymbolTableRecord
100
AcDbBlockTableRecord
  2
*D0
  0
BLOCK_RECORD
  5
B9
100
AcDbSymbolTableRecord
100
AcDbBlockTableRecord
  2
*X1
  0
BLOCK_RECORD
  5
120
100
AcDbSymbolTableRecord
100
AcDbBlockTableRecord
  2
*D2
  0
BLOCK_RECORD
  5
1CF
100
AcDbSymbolTableRecord
100
AcDbBlockTableRecord
  2
CKCOLL314
  0
BLOCK_RECORD
  5
1E7
100
AcDbSymbolTableRecord
100
AcDbBlockTableRecord
  2
*D4
  0
BLOCK_RECORD
  5
206
100
AcDbSymbolTableRecord
100
AcDbBlockTableRecord
  2
*D5
  0
ENDTAB
  0
ENDSEC
  0
SECTION
  2
BLOCKS
  0
BLOCK
  5
D
100
AcDbEntity
  8
0
100
AcDbBlockBegin
  2
*MODEL_SPACE
 70
         0
 10
0.0
 20
0.0
 30
0.0
  3
*MODEL_SPACE
  1

  0
ENDBLK
  5
E
100
AcDbEntity
  8
0
100
AcDbBlockEnd
  0
BLOCK
  5
F
100
AcDbEntity
 67
         1
  8
0
100
AcDbBlockBegin
  2
*PAPER_SPACE
 70
         0
 10
0.0
 20
0.0
 30
0.0
  3
*PAPER_SPACE
  1

  0
ENDBLK
  5
10
100
AcDbEntity
 67
         1
  8
0
100
AcDbBlockEnd
  0
BLOCK
  5
2D
100
AcDbEntity
  8
0
100
AcDbBlockBegin
  2
*D0
 70
        65
 10
0.0
 20
0.0
 30
0.0
  3
*D0
  1

  0
POINT
  5
30
100
AcDbEntity
  8
DEFPOINTS
  6
CONTINUOUS
 62
         0
100
AcDbPoint
 10
319.2611485066
 20
72.3889272003
 30
0.0
  0
POINT
  5
31
100
AcDbEntity
  8
DEFPOINTS
  6
CONTINUOUS
 62
         0
100
AcDbPoint
 10
294.3505691078
 20
72.3889272003
 30
0.0
  0
POINT
  5
32
100
AcDbEntity
  8
DEFPOINTS
  6
CONTINUOUS
 62
         0
100
AcDbPoint
 10
294.3505691078
 20
62.8689272003
 30
0.0
  0
LINE
  5
33
100
AcDbEntity
  8
CK_LEVEL_1
  6
CONTINUOUS
 62
         4
100
AcDbLine
 10
296.1005691078
 20
72.3889272003
 30
0.0
 11
320.1361485066
 21
72.3889272003
 31
0.0
  0
LINE
  5
34
100
AcDbEntity
  8
CK_LEVEL_1
  6
CONTINUOUS
 62
         4
100
AcDbLine
 10
296.1005691078
 20
62.8689272003
 30
0.0
 11
320.1361485066
 21
62.8689272003
 31
0.0
  0
LINE
  5
35
100
AcDbEntity
  8
CK_LEVEL_1
  6
CONTINUOUS
 62
         4
100
AcDbLine
 10
319.2611485066
 20
72.3889272003
 30
0.0
 11
319.2611485066
 21
62.8689272003
 31
0.0
  0
SOLID
  5
36
100
AcDbEntity
  8
CK_LEVEL_1
  6
CONTINUOUS
 62
         4
100
AcDbTrace
 10
319.2611485066
 20
72.3889272003
 30
0.0
 11
319.7861485066
 21
68.8889272003
 31
0.0
 12
318.7361485066
 22
68.8889272003
 32
0.0
 13
319.2611485066
 23
72.3889272003
 33
0.0
  0
LINE
  5
37
100
AcDbEntity
  8
CK_LEVEL_1
  6
CONTINUOUS
 62
         4
100
AcDbLine
 10
319.2611485066
 20
72.3889272003
 30
0.0
 11
319.2611485066
 21
92.4363881204
 31
0.0
  0
SOLID
  5
38
100
AcDbEntity
  8
CK_LEVEL_1
  6
CONTINUOUS
 62
         4
100
AcDbTrace
 10
319.2611485066
 20
62.8689272003
 30
0.0
 11
318.7361485066
 21
66.3689272003
 31
0.0
 12
319.7861485066
 22
66.3689272003
 32
0.0
 13
319.2611485066
 23
62.8689272003
 33
0.0
  0
TEXT
  5
3A
100
AcDbEntity
  8
CK_LEVEL_1
  6
CONTINUOUS
 62
         4
100
AcDbText
 10
316.6361485066
 20
76.6863881204
 30
0.0
 40
3.5
  1
9.52
 50
90.0
  7
BOX
100
AcDbText
  0
ENDBLK
  5
3B
100
AcDbEntity
  8
0
  6
CONTINUOUS
100
AcDbBlockEnd
  0
BLOCK
  5
BA
100
AcDbEntity
  8
0
100
AcDbBlockBegin
  2
*X1
 70
        65
 10
0.0
 20
0.0
 30
0.0
  3
*X1
  1

  0
LINE
  5
BB
100
AcDbEntity
  8
CK_LEVEL_1
  6
CONTINUOUS
 62
         4
100
AcDbLine
 10
336.2533197401
 20
-32.6083307952
 30
0.0
 11
339.1488089761
 21
-29.7128415593
 31
0.0
  0
LINE
  5
BC
100
AcDbEntity
  8
CK_LEVEL_1
  6
CONTINUOUS
 62
         4
100
AcDbLine
 10
332.0089189212
 20
-32.610090927
 30
0.0
 11
339.1505691078
 21
-25.4684407404
 31
0.0
  0
LINE
  5
BD
100
AcDbEntity
  8
CK_LEVEL_1
  6
CONTINUOUS
 62
         4
100
AcDbLine
 10
327.7662782341
 20
-32.610090927
 30
0.0
 11
339.1505691078
 21
-21.2258000533
 31
0.0
  0
LINE
  5
BE
100
AcDbEntity
  8
CK_LEVEL_1
  6
CONTINUOUS
 62
         4
100
AcDbLine
 10
323.523637547
 20
-32.610090927
 30
0.0
 11
339.1505691078
 21
-16.9831593661
 31
0.0
  0
LINE
  5
BF
100
AcDbEntity
  8
CK_LEVEL_1
  6
CONTINUOUS
 62
         4
100
AcDbLine
 10
319.2809968599
 20
-32.610090927
 30
0.0
 11
337.1848607153
 21
-14.7062270715
 31
0.0
  0
LINE
  5
C0
100
AcDbEntity
  8
CK_LEVEL_1
  6
CONTINUOUS
 62
         4
100
AcDbLine
 10
315.0383561727
 20
-32.610090927
 30
0.0
 11
339.1505691078
 21
-8.4978779919
 31
0.0
  0
LINE
  5
C1
100
AcDbEntity
  8
CK_LEVEL_1
  6
CONTINUOUS
 62
         4
100
AcDbLine
 10
310.7957154856
 20
-32.610090927
 30
0.0
 11
339.1505691078
 21
-4.2552373048
 31
0.0
  0
LINE
  5
C2
100
AcDbEntity
  8
CK_LEVEL_1
  6
CONTINUOUS
 62
         4
100
AcDbLine
 10
307.3318219532
 20
-31.8313437723
 30
0.0
 11
339.1505691078
 21
-0.0125966177
 31
0.0
  0
LINE
  5
C3
100
AcDbEntity
  8
CK_LEVEL_1
  6
CONTINUOUS
 62
         4
100
AcDbLine
 10
302.2859341114
 20
-32.634590927
 30
0.0
 11
338.7890907581
 21
3.8685657197
 31
0.0
  0
LINE
  5
C4
100
AcDbEntity
  8
CK_LEVEL_1
  6
CONTINUOUS
 62
         4
100
AcDbLine
 10
298.0432934243
 20
-32.634590927
 30
0.0
 11
336.1187934243
 21
5.440909073
 31
0.0
  0
LINE
  5
C5
100
AcDbEntity
  8
CK_LEVEL_1
  6
CONTINUOUS
 62
         4
100
AcDbLine
 10
293.8006527371
 20
-32.634590927
 30
0.0
 11
331.8761527371
 21
5.440909073
 31
0.0
  0
LINE
  5
C6
100
AcDbEntity
  8
CK_LEVEL_1
  6
CONTINUOUS
 62
         4
100
AcDbLine
 10
289.55801205
 20
-32.634590927
 30
0.0
 11
327.63351205
 21
5.440909073
 31
0.0
  0
LINE
  5
C7
100
AcDbEntity
  8
CK_LEVEL_1
  6
CONTINUOUS
 62
         4
100
AcDbLine
 10
285.3153713629
 20
-32.634590927
 30
0.0
 11
323.3908713629
 21
5.440909073
 31
0.0
  0
LINE
  5
C8
100
AcDbEntity
  8
CK_LEVEL_1
  6
CONTINUOUS
 62
         4
100
AcDbLine
 10
281.0727306758
 20
-32.634590927
 30
0.0
 11
319.1482306758
 21
5.440909073
 31
0.0
  0
LINE
  5
C9
100
AcDbEntity
  8
CK_LEVEL_1
  6
CONTINUOUS
 62
         4
100
AcDbLine
 10
268.9800899887
 20
-40.484590927
 30
0.0
 11
273.1105691078
 21
-36.3541118078
 31
0.0
  0
LINE
  5
CA
100
AcDbEntity
  8
CK_LEVEL_1
  6
CONTINUOUS
 62
         4
100
AcDbLine
 10
276.8300899887
 20
-32.634590927
 30
0.0
 11
314.9055899887
 21
5.440909073
 31
0.0
  0
LINE
  5
CB
100
AcDbEntity
  8
CK_LEVEL_1
  6
CONTINUOUS
 62
         4
100
AcDbLine
 10
264.7374493016
 20
-40.484590927
 30
0.0
 11
310.6629493016
 21
5.440909073
 31
0.0
  0
LINE
  5
CC
100
AcDbEntity
  8
CK_LEVEL_1
  6
CONTINUOUS
 62
         4
100
AcDbLine
 10
260.4948086144
 20
-40.484590927
 30
0.0
 11
304.9448086144
 21
3.965409073
 31
0.0
  0
LINE
  5
CD
100
AcDbEntity
  8
CK_LEVEL_1
  6
CONTINUOUS
 62
         4
100
AcDbLine
 10
256.2521679273
 20
-40.484590927
 30
0.0
 11
297.4521679273
 21
0.715409073
 31
0.0
  0
LINE
  5
CE
100
AcDbEntity
  8
CK_LEVEL_1
  6
CONTINUOUS
 62
         4
100
AcDbLine
 10
299.1105691078
 20
2.3738102535
 30
0.0
 11
302.2021679273
 21
5.465409073
 31
0.0
  0
LINE
  5
CF
100
AcDbEntity
  8
CK_LEVEL_1
  6
CONTINUOUS
 62
         4
100
AcDbLine
 10
252.0095272402
 20
-40.484590927
 30
0.0
 11
293.2095272402
 21
0.715409073
 31
0.0
  0
LINE
  5
D0
100
AcDbEntity
  8
CK_LEVEL_1
  6
CONTINUOUS
 62
         4
100
AcDbLine
 10
247.7668865531
 20
-40.484590927
 30
0.0
 11
288.9668865531
 21
0.715409073
 31
0.0
  0
LINE
  5
D1
100
AcDbEntity
  8
CK_LEVEL_1
  6
CONTINUOUS
 62
         4
100
AcDbLine
 10
243.524245866
 20
-40.484590927
 30
0.0
 11
284.724245866
 21
0.715409073
 31
0.0
  0
LINE
  5
D2
100
AcDbEntity
  8
CK_LEVEL_1
  6
CONTINUOUS
 62
         4
100
AcDbLine
 10
239.2816051788
 20
-40.484590927
 30
0.0
 11
280.4816051788
 21
0.715409073
 31
0.0
  0
LINE
  5
D3
100
AcDbEntity
  8
CK_LEVEL_1
  6
CONTINUOUS
 62
         4
100
AcDbLine
 10
235.0389644917
 20
-40.484590927
 30
0.0
 11
276.2389644917
 21
0.715409073
 31
0.0
  0
LINE
  5
D4
100
AcDbEntity
  8
CK_LEVEL_1
  6
CONTINUOUS
 62
         4
100
AcDbLine
 10
230.7963238046
 20
-40.484590927
 30
0.0
 11
274.1105691078
 21
2.8296543762
 31
0.0
  0
LINE
  5
D5
100
AcDbEntity
  8
CK_LEVEL_1
  6
CONTINUOUS
 62
         4
100
AcDbLine
 10
226.5536831175
 20
-40.484590927
 30
0.0
 11
273.1105691078
 21
6.0722950634
 31
0.0
  0
LINE
  5
D6
100
AcDbEntity
  8
CK_LEVEL_1
  6
CONTINUOUS
 62
         4
100
AcDbLine
 10
222.3110424304
 20
-40.484590927
 30
0.0
 11
273.1105691078
 21
10.3149357505
 31
0.0
  0
LINE
  5
D7
100
AcDbEntity
  8
CK_LEVEL_1
  6
CONTINUOUS
 62
         4
100
AcDbLine
 10
218.0684017432
 20
-40.484590927
 30
0.0
 11
271.8492848554
 21
13.2962921852
 31
0.0
  0
LINE
  5
D8
100
AcDbEntity
  8
CK_LEVEL_1
  6
CONTINUOUS
 62
         4
100
AcDbLine
 10
213.8257610561
 20
-40.484590927
 30
0.0
 11
267.6257610561
 21
13.315409073
 31
0.0
  0
LINE
  5
D9
100
AcDbEntity
  8
CK_LEVEL_1
  6
CONTINUOUS
 62
         4
100
AcDbLine
 10
201.558120369
 20
-48.509590927
 30
0.0
 11
204.3525691078
 21
-45.7151421882
 31
0.0
  0
LINE
  5
DA
100
AcDbEntity
  8
CK_LEVEL_1
  6
CONTINUOUS
 62
         4
100
AcDbLine
 10
209.583120369
 20
-40.484590927
 30
0.0
 11
263.383120369
 21
13.315409073
 31
0.0
  0
LINE
  5
DB
100
AcDbEntity
  8
CK_LEVEL_1
  6
CONTINUOUS
 62
         4
100
AcDbLine
 10
183.7734604715
 20
-62.0516101373
 30
0.0
 11
188.4005691078
 21
-57.424501501
 31
0.0
  0
LINE
  5
DC
100
AcDbEntity
  8
CK_LEVEL_1
  6
CONTINUOUS
 62
         4
100
AcDbLine
 10
197.3154796819
 20
-48.509590927
 30
0.0
 11
259.1404796819
 21
13.315409073
 31
0.0
  0
LINE
  5
DD
100
AcDbEntity
  8
CK_LEVEL_1
  6
CONTINUOUS
 62
         4
100
AcDbLine
 10
182.1652531256
 20
-59.4171767961
 30
0.0
 11
188.4005691078
 21
-53.1818608139
 31
0.0
  0
LINE
  5
DE
100
AcDbEntity
  8
CK_LEVEL_1
  6
CONTINUOUS
 62
         4
100
AcDbLine
 10
193.0728389948
 20
-48.509590927
 30
0.0
 11
254.8978389948
 21
13.315409073
 31
0.0
  0
LINE
  5
DF
100
AcDbEntity
  8
CK_LEVEL_1
  6
CONTINUOUS
 62
         4
100
AcDbLine
 10
175.0051983076
 20
-62.334590927
 30
0.0
 11
188.4064117298
 21
-48.9333775049
 31
0.0
  0
LINE
  5
E0
100
AcDbEntity
  8
CK_LEVEL_1
  6
CONTINUOUS
 62
         4
100
AcDbLine
 10
188.8243556857
 20
-48.5154335489
 30
0.0
 11
250.6551983076
 21
13.315409073
 31
0.0
  0
LINE
  5
E1
100
AcDbEntity
  8
CK_LEVEL_1
  6
CONTINUOUS
 62
         4
100
AcDbLine
 10
172.5005691078
 20
-60.5965794397
 30
0.0
 11
246.4125576205
 21
13.315409073
 31
0.0
  0
LINE
  5
E2
100
AcDbEntity
  8
CK_LEVEL_1
  6
CONTINUOUS
 62
         4
100
AcDbLine
 10
172.5005691078
 20
-56.3539387526
 30
0.0
 11
242.1699169334
 21
13.315409073
 31
0.0
  0
LINE
  5
E3
100
AcDbEntity
  8
CK_LEVEL_1
  6
CONTINUOUS
 62
         4
100
AcDbLine
 10
172.5005691078
 20
-52.1112980654
 30
0.0
 11
237.9272762463
 21
13.315409073
 31
0.0
  0
LINE
  5
E4
100
AcDbEntity
  8
CK_LEVEL_1
  6
CONTINUOUS
 62
         4
100
AcDbLine
 10
172.2484735009
 20
-48.1207529852
 30
0.0
 11
233.6846355592
 21
13.315409073
 31
0.0
  0
LINE
  5
E5
100
AcDbEntity
  8
CK_LEVEL_1
  6
CONTINUOUS
 62
         4
100
AcDbLine
 10
167.8312697172
 20
-48.2953160818
 30
0.0
 11
229.441994872
 21
13.315409073
 31
0.0
  0
LINE
  5
E6
100
AcDbEntity
  8
CK_LEVEL_1
  6
CONTINUOUS
 62
         4
100
AcDbLine
 10
164.128605918
 20
-47.7553391939
 30
0.0
 11
225.1993541849
 21
13.315409073
 31
0.0
  0
LINE
  5
E7
100
AcDbEntity
  8
CK_LEVEL_1
  6
CONTINUOUS
 62
         4
100
AcDbLine
 10
160.4259421188
 20
-47.215362306
 30
0.0
 11
220.9567134978
 21
13.315409073
 31
0.0
  0
LINE
  5
E8
100
AcDbEntity
  8
CK_LEVEL_1
  6
CONTINUOUS
 62
         4
100
AcDbLine
 10
156.7232783195
 20
-46.6753854181
 30
0.0
 11
216.7140728107
 21
13.315409073
 31
0.0
  0
LINE
  5
E9
100
AcDbEntity
  8
CK_LEVEL_1
  6
CONTINUOUS
 62
         4
100
AcDbLine
 10
153.0206145203
 20
-46.1354085302
 30
0.0
 11
212.4714321236
 21
13.315409073
 31
0.0
  0
LINE
  5
EA
100
AcDbEntity
  8
CK_LEVEL_1
  6
CONTINUOUS
 62
         4
100
AcDbLine
 10
149.3179507211
 20
-45.5954316423
 30
0.0
 11
208.2287914364
 21
13.315409073
 31
0.0
  0
LINE
  5
EB
100
AcDbEntity
  8
CK_LEVEL_1
  6
CONTINUOUS
 62
         4
100
AcDbLine
 10
145.6152869219
 20
-45.0554547544
 30
0.0
 11
205.0559658819
 21
14.3852242056
 31
0.0
  0
LINE
  5
EC
100
AcDbEntity
  8
CK_LEVEL_1
  6
CONTINUOUS
 62
         4
100
AcDbLine
 10
141.9126231227
 20
-44.5154778665
 30
0.0
 11
204.3525691078
 21
17.9244681186
 31
0.0
  0
LINE
  5
ED
100
AcDbEntity
  8
CK_LEVEL_1
  6
CONTINUOUS
 62
         4
100
AcDbLine
 10
138.2099593234
 20
-43.9755009786
 30
0.0
 11
203.5258693751
 21
21.340409073
 31
0.0
  0
LINE
  5
EE
100
AcDbEntity
  8
CK_LEVEL_1
  6
CONTINUOUS
 62
         4
100
AcDbLine
 10
134.5072955242
 20
-43.4355240907
 30
0.0
 11
199.283228688
 21
21.340409073
 31
0.0
  0
LINE
  5
EF
100
AcDbEntity
  8
CK_LEVEL_1
  6
CONTINUOUS
 62
         4
100
AcDbLine
 10
130.804631725
 20
-42.8955472029
 30
0.0
 11
195.0405880009
 21
21.340409073
 31
0.0
  0
LINE
  5
F0
100
AcDbEntity
  8
CK_LEVEL_1
  6
CONTINUOUS
 62
         4
100
AcDbLine
 10
127.1019679258
 20
-42.355570315
 30
0.0
 11
190.7979473137
 21
21.340409073
 31
0.0
  0
LINE
  5
F1
100
AcDbEntity
  8
CK_LEVEL_1
  6
CONTINUOUS
 62
         4
100
AcDbLine
 10
123.3993041265
 20
-41.8155934271
 30
0.0
 11
188.4005691078
 21
23.1856715542
 31
0.0
  0
LINE
  5
F2
100
AcDbEntity
  8
CK_LEVEL_1
  6
CONTINUOUS
 62
         4
100
AcDbLine
 10
119.6966403273
 20
-41.2756165392
 30
0.0
 11
188.4005691078
 21
27.4283122413
 31
0.0
  0
LINE
  5
F3
100
AcDbEntity
  8
CK_LEVEL_1
  6
CONTINUOUS
 62
         4
100
AcDbLine
 10
115.9939765281
 20
-40.7356396513
 30
0.0
 11
188.4005691078
 21
31.6709529285
 31
0.0
  0
LINE
  5
F4
100
AcDbEntity
  8
CK_LEVEL_1
  6
CONTINUOUS
 62
         4
100
AcDbLine
 10
112.2913127289
 20
-40.1956627634
 30
0.0
 11
128.5060431018
 21
-23.9809323904
 31
0.0
  0
LINE
  5
F5
100
AcDbEntity
  8
CK_LEVEL_1
  6
CONTINUOUS
 62
         4
100
AcDbLine
 10
129.7944054651
 20
-22.6925700271
 30
0.0
 11
187.518976193
 21
35.0320007008
 31
0.0
  0
LINE
  5
F6
100
AcDbEntity
  8
CK_LEVEL_1
  6
CONTINUOUS
 62
         4
100
AcDbLine
 10
108.5886489296
 20
-39.6556858755
 30
0.0
 11
124.2634024147
 21
-23.9809323904
 31
0.0
  0
LINE
  5
F7
100
AcDbEntity
  8
CK_LEVEL_1
  6
CONTINUOUS
 62
         4
100
AcDbLine
 10
134.90899465
 20
-13.3353401551
 30
0.0
 11
169.526663926
 21
21.2823291209
 31
0.0
  0
LINE
  5
F8
100
AcDbEntity
  8
CK_LEVEL_1
  6
CONTINUOUS
 62
         4
100
AcDbLine
 10
172.5005691078
 20
24.2562343027
 30
0.0
 11
180.2847438781
 21
32.040409073
 31
0.0
  0
LINE
  5
F9
100
AcDbEntity
  8
CK_LEVEL_1
  6
CONTINUOUS
 62
         4
100
AcDbLine
 10
104.8859851304
 20
-39.1157089876
 30
0.0
 11
120.0207617276
 21
-23.9809323904
 31
0.0
  0
LINE
  5
FA
100
AcDbEntity
  8
CK_LEVEL_1
  6
CONTINUOUS
 62
         4
100
AcDbLine
 10
133.3560803794
 20
-10.6456137386
 30
0.0
 11
164.6662600973
 21
20.6645659793
 31
0.0
  0
LINE
  5
FB
100
AcDbEntity
  8
CK_LEVEL_1
  6
CONTINUOUS
 62
         4
100
AcDbLine
 10
172.5005691078
 20
28.4988749898
 30
0.0
 11
177.7071836494
 21
33.7054895314
 31
0.0
  0
LINE
  5
FC
100
AcDbEntity
  8
CK_LEVEL_1
  6
CONTINUOUS
 62
         4
100
AcDbLine
 10
101.1833213312
 20
-38.5757320997
 30
0.0
 11
115.7781210405
 21
-23.9809323904
 31
0.0
  0
LINE
  5
FD
100
AcDbEntity
  8
CK_LEVEL_1
  6
CONTINUOUS
 62
         4
100
AcDbLine
 10
131.8031661088
 20
-7.9558873221
 30
0.0
 11
159.699258138
 21
19.9402047071
 31
0.0
  0
LINE
  5
FE
100
AcDbEntity
  8
CK_LEVEL_1
  6
CONTINUOUS
 62
         4
100
AcDbLine
 10
172.5005691078
 20
32.7415156769
 30
0.0
 11
174.9244625039
 21
35.165409073
 31
0.0
  0
LINE
  5
FF
100
AcDbEntity
  8
CK_LEVEL_1
  6
CONTINUOUS
 62
         4
100
AcDbLine
 10
97.480657532
 20
-38.0357552118
 30
0.0
 11
111.5354803534
 21
-23.9809323904
 31
0.0
  0
LINE
  5
100
100
AcDbEntity
  8
CK_LEVEL_1
  6
CONTINUOUS
 62
         4
100
AcDbLine
 10
130.2502518382
 20
-5.2661609056
 30
0.0
 11
154.7322561787
 21
19.2158434349
 31
0.0
  0
LINE
  5
101
100
AcDbEntity
  8
CK_LEVEL_1
  6
CONTINUOUS
 62
         4
100
AcDbLine
 10
93.7779937327
 20
-37.4957783239
 30
0.0
 11
107.2928396662
 21
-23.9809323904
 31
0.0
  0
LINE
  5
102
100
AcDbEntity
  8
CK_LEVEL_1
  6
CONTINUOUS
 62
         4
100
AcDbLine
 10
128.0855225931
 20
-3.1882494636
 30
0.0
 11
149.7652542193
 21
18.4914821627
 31
0.0
  0
LINE
  5
103
100
AcDbEntity
  8
CK_LEVEL_1
  6
CONTINUOUS
 62
         4
100
AcDbLine
 10
90.0753299335
 20
-36.955801436
 30
0.0
 11
103.0501989791
 21
-23.9809323904
 31
0.0
  0
LINE
  5
104
100
AcDbEntity
  8
CK_LEVEL_1
  6
CONTINUOUS
 62
         4
100
AcDbLine
 10
123.842881906
 20
-3.1882494636
 30
0.0
 11
144.79825226
 21
17.7671208905
 31
0.0
  0
LINE
  5
105
100
AcDbEntity
  8
CK_LEVEL_1
  6
CONTINUOUS
 62
         4
100
AcDbLine
 10
86.3726661343
 20
-36.4158245481
 30
0.0
 11
98.807558292
 21
-23.9809323904
 31
0.0
  0
LINE
  5
106
100
AcDbEntity
  8
CK_LEVEL_1
  6
CONTINUOUS
 62
         4
100
AcDbLine
 10
119.6002412188
 20
-3.1882494636
 30
0.0
 11
139.8312503007
 21
17.0427596183
 31
0.0
  0
LINE
  5
107
100
AcDbEntity
  8
CK_LEVEL_1
  6
CONTINUOUS
 62
         4
100
AcDbLine
 10
82.6700023351
 20
-35.8758476602
 30
0.0
 11
94.5649176049
 21
-23.9809323904
 31
0.0
  0
LINE
  5
108
100
AcDbEntity
  8
CK_LEVEL_1
  6
CONTINUOUS
 62
         4
100
AcDbLine
 10
115.3576005317
 20
-3.1882494636
 30
0.0
 11
134.8642483413
 21
16.3183983461
 31
0.0
  0
LINE
  5
109
100
AcDbEntity
  8
CK_LEVEL_1
  6
CONTINUOUS
 62
         4
100
AcDbLine
 10
78.9673385358
 20
-35.3358707723
 30
0.0
 11
90.3222769178
 21
-23.9809323904
 31
0.0
  0
LINE
  5
10A
100
AcDbEntity
  8
CK_LEVEL_1
  6
CONTINUOUS
 62
         4
100
AcDbLine
 10
111.1149598446
 20
-3.1882494636
 30
0.0
 11
129.897246382
 21
15.5940370738
 31
0.0
  0
LINE
  5
10B
100
AcDbEntity
  8
CK_LEVEL_1
  6
CONTINUOUS
 62
         4
100
AcDbLine
 10
75.2646747366
 20
-34.7958938844
 30
0.0
 11
86.0796362306
 21
-23.9809323904
 31
0.0
  0
LINE
  5
10C
100
AcDbEntity
  8
CK_LEVEL_1
  6
CONTINUOUS
 62
         4
100
AcDbLine
 10
106.8723191575
 20
-3.1882494636
 30
0.0
 11
124.9302444227
 21
14.8696758016
 31
0.0
  0
LINE
  5
10D
100
AcDbEntity
  8
CK_LEVEL_1
  6
CONTINUOUS
 62
         4
100
AcDbLine
 10
71.5620109374
 20
-34.2559169965
 30
0.0
 11
81.8369955435
 21
-23.9809323904
 31
0.0
  0
LINE
  5
10E
100
AcDbEntity
  8
CK_LEVEL_1
  6
CONTINUOUS
 62
         4
100
AcDbLine
 10
102.6296784704
 20
-3.1882494636
 30
0.0
 11
119.9632424634
 21
14.1453145294
 31
0.0
  0
LINE
  5
10F
100
AcDbEntity
  8
CK_LEVEL_1
  6
CONTINUOUS
 62
         4
100
AcDbLine
 10
68.2906528374
 20
-33.2846344094
 30
0.0
 11
77.5943548564
 21
-23.9809323904
 31
0.0
  0
LINE
  5
110
100
AcDbEntity
  8
CK_LEVEL_1
  6
CONTINUOUS
 62
         4
100
AcDbLine
 10
98.3870377832
 20
-3.1882494636
 30
0.0
 11
114.996240504
 21
13.4209532572
 31
0.0
  0
LINE
  5
111
100
AcDbEntity
  8
CK_LEVEL_1
  6
CONTINUOUS
 62
         4
100
AcDbLine
 10
67.5505691078
 20
-29.7820774519
 30
0.0
 11
71.2480556327
 21
-26.084590927
 31
0.0
  0
LINE
  5
112
100
AcDbEntity
  8
CK_LEVEL_1
  6
CONTINUOUS
 62
         4
100
AcDbLine
 10
94.1443970961
 20
-3.1882494636
 30
0.0
 11
110.0292385447
 21
12.696591985
 31
0.0
  0
LINE
  5
113
100
AcDbEntity
  8
CK_LEVEL_1
  6
CONTINUOUS
 62
         4
100
AcDbLine
 10
89.901756409
 20
-3.1882494636
 30
0.0
 11
105.0622365854
 21
11.9722307128
 31
0.0
  0
LINE
  5
114
100
AcDbEntity
  8
CK_LEVEL_1
  6
CONTINUOUS
 62
         4
100
AcDbLine
 10
85.6591157219
 20
-3.1882494636
 30
0.0
 11
100.095234626
 21
11.2478694406
 31
0.0
  0
LINE
  5
115
100
AcDbEntity
  8
CK_LEVEL_1
  6
CONTINUOUS
 62
         4
100
AcDbLine
 10
81.4164750348
 20
-3.1882494636
 30
0.0
 11
95.1282326667
 21
10.5235081684
 31
0.0
  0
LINE
  5
116
100
AcDbEntity
  8
CK_LEVEL_1
  6
CONTINUOUS
 62
         4
100
AcDbLine
 10
77.1738343476
 20
-3.1882494636
 30
0.0
 11
90.1612307074
 21
9.7991468962
 31
0.0
  0
LINE
  5
117
100
AcDbEntity
  8
CK_LEVEL_1
  6
CONTINUOUS
 62
         4
100
AcDbLine
 10
74.4505533649
 20
-1.6688897591
 30
0.0
 11
85.1942287481
 21
9.074785624
 31
0.0
  0
LINE
  5
118
100
AcDbEntity
  8
CK_LEVEL_1
  6
CONTINUOUS
 62
         4
100
AcDbLine
 10
70.79221151
 20
-1.084590927
 30
0.0
 11
80.2272267887
 21
8.3504243518
 31
0.0
  0
LINE
  5
119
100
AcDbEntity
  8
CK_LEVEL_1
  6
CONTINUOUS
 62
         4
100
AcDbLine
 10
67.6149225928
 20
-0.019239157
 30
0.0
 11
75.2602248294
 21
7.6260630796
 31
0.0
  0
LINE
  5
11A
100
AcDbEntity
  8
CK_LEVEL_1
  6
CONTINUOUS
 62
         4
100
AcDbLine
 10
67.5505691078
 20
4.1590480451
 30
0.0
 11
70.2932228701
 21
6.9017018073
 31
0.0
  0
ENDBLK
  5
11B
100
AcDbEntity
  8
0
  6
CONTINUOUS
100
AcDbBlockEnd
  0
BLOCK
  5
121
100
AcDbEntity
  8
0
100
AcDbBlockBegin
  2
*D2
 70
        65
 10
0.0
 20
0.0
 30
0.0
  3
*D2
  1

  0
POINT
  5
123
100
AcDbEntity
  8
DEFPOINTS
  6
CONTINUOUS
 62
         0
100
AcDbPoint
 10
339.1505691078
 20
256.5692486638
 30
0.0
  0
POINT
  5
124
100
AcDbEntity
  8
DEFPOINTS
  6
CONTINUOUS
 62
         0
100
AcDbPoint
 10
339.1505691078
 20
191.8485011241
 30
0.0
  0
POINT
  5
125
100
AcDbEntity
  8
DEFPOINTS
  6
CONTINUOUS
 62
         0
100
AcDbPoint
 10
67.5505691078
 20
193.7474616822
 30
0.0
  0
LINE
  5
126
100
AcDbEntity
  8
CK_LEVEL_1
  6
CONTINUOUS
 62
         4
100
AcDbLine
 10
339.1505691078
 20
193.5985011241
 30
0.0
 11
339.1505691078
 21
257.4442486638
 31
0.0
  0
LINE
  5
127
100
AcDbEntity
  8
CK_LEVEL_1
  6
CONTINUOUS
 62
         4
100
AcDbLine
 10
67.5505691078
 20
195.4974616822
 30
0.0
 11
67.5505691078
 21
257.4442486638
 31
0.0
  0
LINE
  5
128
100
AcDbEntity
  8
CK_LEVEL_1
  6
CONTINUOUS
 62
         4
100
AcDbLine
 10
339.1505691078
 20
256.5692486638
 30
0.0
 11
67.5505691078
 21
256.5692486638
 31
0.0
  0
SOLID
  5
129
100
AcDbEntity
  8
CK_LEVEL_1
  6
CONTINUOUS
 62
         4
100
AcDbTrace
 10
339.1505691078
 20
256.5692486638
 30
0.0
 11
335.6505691078
 21
256.0442486638
 31
0.0
 12
335.6505691078
 22
257.0942486638
 32
0.0
 13
339.1505691078
 23
256.5692486638
 33
0.0
  0
SOLID
  5
12A
100
AcDbEntity
  8
CK_LEVEL_1
  6
CONTINUOUS
 62
         4
100
AcDbTrace
 10
67.5505691078
 20
256.5692486638
 30
0.0
 11
71.0505691078
 21
257.0942486638
 31
0.0
 12
71.0505691078
 22
256.0442486638
 32
0.0
 13
67.5505691078
 23
256.5692486638
 33
0.0
  0
TEXT
  5
12C
100
AcDbEntity
  8
CK_LEVEL_1
  6
CONTINUOUS
 62
         4
100
AcDbText
 10
192.8505691078
 20
259.1942486638
 30
0.0
 40
3.5
  1
271.64
  7
BOX
100
AcDbText
  0
ENDBLK
  5
12D
100
AcDbEntity
  8
0
  6
CONTINUOUS
100
AcDbBlockEnd
  0
BLOCK
  5
1D0
100
AcDbEntity
  8
0
100
AcDbBlockBegin
  2
CKCOLL314
 70
        64
 10
0.0
 20
0.0
 30
0.0
  3
CKCOLL314
  1

  0
LINE
  5
1D1
100
AcDbEntity
  8
CK_LEVEL_1
  6
CONTINUOUS
 62
         4
100
AcDbLine
 10
169.5505691078
 20
175.8230011241
 30
0.0
 11
175.4505691078
 21
175.8230011241
 31
0.0
  0
CIRCLE
  5
1D2
100
AcDbEntity
  8
CK_LEVEL_1
  6
CONTINUOUS
 62
         4
100
AcDbCircle
 10
172.5005691078
 20
175.8230011241
 30
0.0
 40
2.5
  0
LINE
  5
1D3
100
AcDbEntity
  8
CK_LEVEL_1
  6
CONTINUOUS
 62
         4
100
AcDbLine
 10
172.5005691078
 20
175.8230011241
 30
0.0
 11
170.0005691078
 21
175.8230011241
 31
0.0
  0
LINE
  5
1D4
100
AcDbEntity
  8
CK_LEVEL_1
  6
CONTINUOUS
 62
         4
100
AcDbLine
 10
170.0005691078
 20
175.8230011241
 30
0.0
 11
170.0767441078
 21
175.1759511241
 31
0.0
  0
LINE
  5
1D5
100
AcDbEntity
  8
CK_LEVEL_1
  6
CONTINUOUS
 62
         4
100
AcDbLine
 10
170.0767441078
 20
175.1759511241
 30
0.0
 11
170.3354941078
 21
174.5730011241
 31
0.0
  0
LINE
  5
1D6
100
AcDbEntity
  8
CK_LEVEL_1
  6
CONTINUOUS
 62
         4
100
AcDbLine
 10
170.3354941078
 20
174.5730011241
 30
0.0
 11
170.7327941078
 21
174.0552261241
 31
0.0
  0
LINE
  5
1D7
100
AcDbEntity
  8
CK_LEVEL_1
  6
CONTINUOUS
 62
         4
100
AcDbLine
 10
170.7327941078
 20
174.0552261241
 30
0.0
 11
171.2505691078
 21
173.6579261241
 31
0.0
  0
LINE
  5
1D8
100
AcDbEntity
  8
CK_LEVEL_1
  6
CONTINUOUS
 62
         4
100
AcDbLine
 10
171.2505691078
 20
173.6579261241
 30
0.0
 11
171.8535191078
 21
173.4081761241
 31
0.0
  0
LINE
  5
1D9
100
AcDbEntity
  8
CK_LEVEL_1
  6
CONTINUOUS
 62
         4
100
AcDbLine
 10
171.8535191078
 20
173.4081761241
 30
0.0
 11
172.5005691078
 21
173.3230011241
 31
0.0
  0
LINE
  5
1DA
100
AcDbEntity
  8
CK_LEVEL_1
  6
CONTINUOUS
 62
         4
100
AcDbLine
 10
172.5005691078
 20
173.3230011241
 30
0.0
 11
172.5005691078
 21
175.8230011241
 31
0.0
  0
LINE
  5
1DB
100
AcDbEntity
  8
CK_LEVEL_1
  6
CONTINUOUS
 62
         4
100
AcDbLine
 10
172.5005691078
 20
175.8230011241
 30
0.0
 11
175.0005691078
 21
175.8230011241
 31
0.0
  0
LINE
  5
1DC
100
AcDbEntity
  8
CK_LEVEL_1
  6
CONTINUOUS
 62
         4
100
AcDbLine
 10
175.0005691078
 20
175.8230011241
 30
0.0
 11
174.9243941078
 21
176.4700511241
 31
0.0
  0
LINE
  5
1DD
100
AcDbEntity
  8
CK_LEVEL_1
  6
CONTINUOUS
 62
         4
100
AcDbLine
 10
174.9243941078
 20
176.4700511241
 30
0.0
 11
174.6656441078
 21
177.0730011241
 31
0.0
  0
LINE
  5
1DE
100
AcDbEntity
  8
CK_LEVEL_1
  6
CONTINUOUS
 62
         4
100
AcDbLine
 10
174.6656441078
 20
177.0730011241
 30
0.0
 11
174.2683441078
 21
177.5907761241
 31
0.0
  0
LINE
  5
1DF
100
AcDbEntity
  8
CK_LEVEL_1
  6
CONTINUOUS
 62
         4
100
AcDbLine
 10
174.2683441078
 20
177.5907761241
 30
0.0
 11
173.7505691078
 21
177.9880761241
 31
0.0
  0
LINE
  5
1E0
100
AcDbEntity
  8
CK_LEVEL_1
  6
CONTINUOUS
 62
         4
100
AcDbLine
 10
173.7505691078
 20
177.9880761241
 30
0.0
 11
173.1476191078
 21
178.2378261241
 31
0.0
  0
LINE
  5
1E1
100
AcDbEntity
  8
CK_LEVEL_1
  6
CONTINUOUS
 62
         4
100
AcDbLine
 10
173.1476191078
 20
178.2378261241
 30
0.0
 11
172.5005691078
 21
178.3230011241
 31
0.0
  0
LINE
  5
1E2
100
AcDbEntity
  8
CK_LEVEL_1
  6
CONTINUOUS
 62
         4
100
AcDbLine
 10
172.5005691078
 20
178.3230011241
 30
0.0
 11
172.5005691078
 21
175.8230011241
 31
0.0
  0
LINE
  5
1E3
100
AcDbEntity
  8
CK_LEVEL_1
  6
CONTINUOUS
 62
         4
100
AcDbLine
 10
172.5005691078
 20
178.7730011241
 30
0.0
 11
172.5005691078
 21
172.8730011241
 31
0.0
  0
ENDBLK
  5
1E4
100
AcDbEntity
  8
0
  6
CONTINUOUS
100
AcDbBlockEnd
  0
BLOCK
  5
1E8
100
AcDbEntity
  8
0
100
AcDbBlockBegin
  2
*D4
 70
        65
 10
0.0
 20
0.0
 30
0.0
  3
*D4
  1

  0
POINT
  5
1EA
100
AcDbEntity
  8
DEFPOINTS
  6
CONTINUOUS
 62
         0
100
AcDbPoint
 10
371.3096724465
 20
127.0730011241
 30
0.0
  0
POINT
  5
1EB
100
AcDbEntity
  8
DEFPOINTS
  6
CONTINUOUS
 62
         0
100
AcDbPoint
 10
186.9005691078
 20
127.0730011241
 30
0.0
  0
POINT
  5
1EC
100
AcDbEntity
  8
DEFPOINTS
  6
CONTINUOUS
 62
         0
100
AcDbPoint
 10
186.9005691078
 20
224.5730011241
 30
0.0
  0
LINE
  5
1ED
100
AcDbEntity
  8
CK_LEVEL_1
  6
CONTINUOUS
 62
         4
100
AcDbLine
 10
188.6505691078
 20
127.0730011241
 30
0.0
 11
372.1846724465
 21
127.0730011241
 31
0.0
  0
LINE
  5
1EE
100
AcDbEntity
  8
CK_LEVEL_1
  6
CONTINUOUS
 62
         4
100
AcDbLine
 10
188.6505691078
 20
224.5730011241
 30
0.0
 11
372.1846724465
 21
224.5730011241
 31
0.0
  0
LINE
  5
1EF
100
AcDbEntity
  8
CK_LEVEL_1
  6
CONTINUOUS
 62
         4
100
AcDbLine
 10
371.3096724465
 20
127.0730011241
 30
0.0
 11
371.3096724465
 21
224.5730011241
 31
0.0
  0
SOLID
  5
1F0
100
AcDbEntity
  8
CK_LEVEL_1
  6
CONTINUOUS
 62
         4
100
AcDbTrace
 10
371.3096724465
 20
127.0730011241
 30
0.0
 11
370.7846724465
 21
130.5730011241
 31
0.0
 12
371.8346724465
 22
130.5730011241
 32
0.0
 13
371.3096724465
 23
127.0730011241
 33
0.0
  0
SOLID
  5
1F1
100
AcDbEntity
  8
CK_LEVEL_1
  6
CONTINUOUS
 62
         4
100
AcDbTrace
 10
371.3096724465
 20
224.5730011241
 30
0.0
 11
371.8346724465
 21
221.0730011241
 31
0.0
 12
370.7846724465
 22
221.0730011241
 32
0.0
 13
371.3096724465
 23
224.5730011241
 33
0.0
  0
TEXT
  5
1F3
100
AcDbEntity
  8
CK_LEVEL_1
  6
CONTINUOUS
 62
         4
100
AcDbText
 10
368.6846724465
 20
166.233035606
 30
0.0
 40
3.5
  1
崷97.77
 50
90.0
  7
BOX
100
AcDbText
  0
ENDBLK
  5
1F4
100
AcDbEntity
  8
0
  6
CONTINUOUS
100
AcDbBlockEnd
  0
BLOCK
  5
207
100
AcDbEntity
  8
0
100
AcDbBlockBegin
  2
*D5
 70
        65
 10
0.0
 20
0.0
 30
0.0
  3
*D5
  1

  0
POINT
  5
209
100
AcDbEntity
  8
DEFPOINTS
  6
CONTINUOUS
 62
         0
100
AcDbPoint
 10
339.1505691078
 20
-87.4002192562
 30
0.0
  0
POINT
  5
20A
100
AcDbEntity
  8
DEFPOINTS
  6
CONTINUOUS
 62
         0
100
AcDbPoint
 10
339.1505691078
 20
-29.610090927
 30
0.0
  0
POINT
  5
20B
100
AcDbEntity
  8
DEFPOINTS
  6
CONTINUOUS
 62
         0
100
AcDbPoint
 10
172.5005691078
 20
-60.834590927
 30
0.0
  0
LINE
  5
20C
100
AcDbEntity
  8
CK_LEVEL_1
  6
CONTINUOUS
 62
         4
100
AcDbLine
 10
339.1505691078
 20
-31.360090927
 30
0.0
 11
339.1505691078
 21
-88.2752192562
 31
0.0
  0
LINE
  5
20D
100
AcDbEntity
  8
CK_LEVEL_1
  6
CONTINUOUS
 62
         4
100
AcDbLine
 10
172.5005691078
 20
-62.584590927
 30
0.0
 11
172.5005691078
 21
-88.2752192562
 31
0.0
  0
LINE
  5
20E
100
AcDbEntity
  8
CK_LEVEL_1
  6
CONTINUOUS
 62
         4
100
AcDbLine
 10
339.1505691078
 20
-87.4002192562
 30
0.0
 11
172.5005691078
 21
-87.4002192562
 31
0.0
  0
SOLID
  5
20F
100
AcDbEntity
  8
CK_LEVEL_1
  6
CONTINUOUS
 62
         4
100
AcDbTrace
 10
339.1505691078
 20
-87.4002192562
 30
0.0
 11
335.6505691078
 21
-87.9252192562
 31
0.0
 12
335.6505691078
 22
-86.8752192562
 32
0.0
 13
339.1505691078
 23
-87.4002192562
 33
0.0
  0
SOLID
  5
210
100
AcDbEntity
  8
CK_LEVEL_1
  6
CONTINUOUS
 62
         4
100
AcDbTrace
 10
172.5005691078
 20
-87.4002192562
 30
0.0
 11
176.0005691078
 21
-86.8752192562
 31
0.0
 12
176.0005691078
 22
-87.9252192562
 32
0.0
 13
172.5005691078
 23
-87.4002192562
 33
0.0
  0
TEXT
  5
212
100
AcDbEntity
  8
CK_LEVEL_1
  6
CONTINUOUS
 62
         4
100
AcDbText
 10
245.3255691078
 20
-84.7752192562
 30
0.0
 40
3.5
  1
166.88
  7
BOX
100
AcDbText
  0
ENDBLK
  5
213
100
AcDbEntity
  8
0
  6
CONTINUOUS
100
AcDbBlockEnd
  0
ENDSEC
  0
SECTION
  2
ENTITIES
  0
CIRCLE
  5
22
100
AcDbEntity
  8
CK_LEVEL_1
  6
CONTINUOUS
 62
         7
100
AcDbCircle
 10
180.4005691078
 20
175.826854649
 30
0.0
 40
4.76
  0
LINE
  5
23
100
AcDbEntity
  8
CK_LEVEL_1
  6
DASHED
 62
         2
100
AcDbLine
 10
440.1555745479
 20
180.8230011241
 30
0.0
 11
440.1555745479
 21
170.8230011241
 31
0.0
  0
LINE
  5
24
100
AcDbEntity
  8
CK_LEVEL_1
  6
DASHED
 62
         2
100
AcDbLine
 10
440.1555745479
 20
180.8230011241
 30
0.0
 11
439.6555745479
 21
181.3230011241
 31
0.0
  0
LINE
  5
25
100
AcDbEntity
  8
CK_LEVEL_1
  6
DASHED
 62
         2
100
AcDbLine
 10
440.1555745479
 20
170.8230011241
 30
0.0
 11
439.6555745479
 21
170.3230011241
 31
0.0
  0
LINE
  5
26
100
AcDbEntity
  8
CK_LEVEL_1
  6
DASHED
 62
         2
100
AcDbLine
 10
453.3695745479
 20
180.8230011241
 30
0.0
 11
456.2563258939
 21
175.8230011241
 31
0.0
  0
LINE
  5
27
100
AcDbEntity
  8
CK_LEVEL_1
  6
DASHED
 62
         2
100
AcDbLine
 10
456.2563258939
 20
175.8230011241
 30
0.0
 11
453.3695745479
 21
170.8230011241
 31
0.0
  0
LINE
  5
28
100
AcDbEntity
  8
CK_LEVEL_1
  6
DASHED
 62
         2
100
AcDbLine
 10
453.3695745479
 20
180.8230011241
 30
0.0
 11
453.3695745479
 21
170.8230011241
 31
0.0
  0
LINE
  5
29
100
AcDbEntity
  8
CK_LEVEL_1
  6
DASHED
 62
         2
100
AcDbLine
 10
440.1555745479
 20
170.8230011241
 30
0.0
 11
453.3695745479
 21
170.8230011241
 31
0.0
  0
LINE
  5
2A
100
AcDbEntity
  8
CK_LEVEL_1
  6
DASHED
 62
         2
100
AcDbLine
 10
440.1555745479
 20
180.8230011241
 30
0.0
 11
453.3695745479
 21
180.8230011241
 31
0.0
  0
DIMENSION
  5
2E
100
AcDbEntity
  8
CK_LEVEL_1
  6
CONTINUOUS
 62
         4
100
AcDbDimension
  2
*D0
 10
319.2611485066
 20
72.3889272003
 30
0.0
 11
316.6361485066
 21
76.6863881204
 31
0.0
  3
DIMSTYLE1
100
AcDbAlignedDimension
 13
294.3505691078
 23
72.3889272003
 33
0.0
 14
294.3505691078
 24
62.8689272003
 34
0.0
 50
90.0
100
AcDbRotatedDimension
  0
LINE
  5
3C
100
AcDbEntity
  8
CK_LEVEL_1
  6
CENTER
 62
         1
100
AcDbLine
 10
306.1974555185
 20
67.6289272003
 30
0.0
 11
268.1062218686
 21
67.6289272003
 31
0.0
  0
ARC
  5
3D
100
AcDbEntity
  8
CK_LEVEL_1
  6
CONTINUOUS
 62
         7
100
AcDbCircle
 10
294.3505691078
 20
67.6289272003
 30
0.0
 40
4.76
100
AcDbArc
 50
0.0
 51
90.0
  0
ARC
  5
3E
100
AcDbEntity
  8
CK_LEVEL_1
  6
CONTINUOUS
 62
         7
100
AcDbCircle
 10
294.3505691078
 20
67.6289272003
 30
0.0
 40
4.76
100
AcDbArc
 50
270.0
 51
360.0
  0
LINE
  5
3F
100
AcDbEntity
  8
CK_LEVEL_1
  6
CONTINUOUS
 62
         7
100
AcDbLine
 10
294.3505691078
 20
62.8689272003
 30
0.0
 11
278.8705691078
 21
62.8689272003
 31
0.0
  0
ARC
  5
40
100
AcDbEntity
  8
CK_LEVEL_1
  6
CONTINUOUS
 62
         7
100
AcDbCircle
 10
278.8705691078
 20
67.6289272003
 30
0.0
 40
4.76
100
AcDbArc
 50
180.0
 51
270.0
  0
ARC
  5
41
100
AcDbEntity
  8
CK_LEVEL_1
  6
CONTINUOUS
 62
         7
100
AcDbCircle
 10
278.8705691078
 20
67.6289272003
 30
0.0
 40
4.76
100
AcDbArc
 50
90.0
 51
180.0
  0
LINE
  5
42
100
AcDbEntity
  8
CK_LEVEL_1
  6
CONTINUOUS
 62
         7
100
AcDbLine
 10
294.3505691078
 20
72.3889272003
 30
0.0
 11
278.8705691078
 21
72.3889272003
 31
0.0
  0
CIRCLE
  5
43
100
AcDbEntity
  8
CK_LEVEL_1
  6
CONTINUOUS
 62
         7
100
AcDbCircle
 10
476.3555745479
 20
175.8230011241
 30
0.0
 40
19.0255
  0
ARC
  5
44
100
AcDbEntity
  8
CK_LEVEL_1
  6
CONTINUOUS
 62
         4
100
AcDbCircle
 10
476.3555745479
 20
175.8230011241
 30
0.0
 40
17.7275
100
AcDbArc
 50
270.0
 51
465.5755854023
  0
LINE
  5
45
100
AcDbEntity
  8
CK_LEVEL_1
  6
DASHED
 62
         2
100
AcDbLine
 10
481.1155745479
 20
190.0985011241
 30
0.0
 11
471.5955745479
 21
190.0985011241
 31
0.0
  0
LINE
  5
46
100
AcDbEntity
  8
CK_LEVEL_1
  6
DASHED
 62
         2
100
AcDbLine
 10
481.1155745479
 20
190.0985011241
 30
0.0
 11
481.1155745479
 21
194.243425936
 31
0.0
  0
LINE
  5
47
100
AcDbEntity
  8
CK_LEVEL_1
  6
DASHED
 62
         2
100
AcDbLine
 10
471.5955745479
 20
190.0985011241
 30
0.0
 11
471.5955745479
 21
194.243425936
 31
0.0
  0
ARC
  5
48
100
AcDbEntity
  8
CK_LEVEL_1
  6
CONTINUOUS
 62
         4
100
AcDbCircle
 10
476.3555745479
 20
175.8230011241
 30
0.0
 40
17.7275
100
AcDbArc
 50
105.5755854023
 51
180.0
  0
CIRCLE
  5
49
100
AcDbEntity
  8
CK_LEVEL_1
  6
CONTINUOUS
 62
         7
100
AcDbCircle
 10
476.3555745479
 20
175.8230011241
 30
0.0
 40
26.9
  0
LINE
  5
4A
100
AcDbEntity
  8
CK_LEVEL_1
  6
DASHED
 62
         4
100
AcDbLine
 10
289.9125691078
 20
7.2320021855
 30
0.0
 11
289.9125691078
 21
-34.9244614221
 31
0.0
  0
ARC
  5
4B
100
AcDbEntity
  8
CK_LEVEL_1
  6
CONTINUOUS
 62
         7
100
AcDbCircle
 10
188.9005691078
 20
21.840409073
 30
0.0
 40
0.5
100
AcDbArc
 50
180.0
 51
270.0
  0
ARC
  5
4C
100
AcDbEntity
  8
CK_LEVEL_1
  6
CONTINUOUS
 62
         7
100
AcDbCircle
 10
188.9005691078
 20
-49.009590927
 30
0.0
 40
0.5
100
AcDbArc
 50
90.0
 51
180.0
  0
LINE
  5
4D
100
AcDbEntity
  8
CK_LEVEL_1
  6
CONTINUOUS
 62
         7
100
AcDbLine
 10
67.5505691078
 20
-31.509051485
 30
0.0
 11
67.5505691078
 21
4.3398696311
 31
0.0
  0
LINE
  5
4E
100
AcDbEntity
  8
CK_LEVEL_1
  6
CONTINUOUS
 62
         7
100
AcDbLine
 10
169.3005691078
 20
21.340409073
 30
0.0
 11
171.2469792693
 21
20.840409073
 31
0.0
  0
ARC
  5
4F
100
AcDbEntity
  8
CK_LEVEL_1
  6
CONTINUOUS
 62
         7
100
AcDbCircle
 10
181.8439447808
 20
32.540409073
 30
0.0
 40
0.5
100
AcDbArc
 50
270.0
 51
330.0
  0
ARC
  5
50
100
AcDbEntity
  8
CK_LEVEL_1
  6
CONTINUOUS
 62
         7
100
AcDbCircle
 10
178.9571934348
 20
32.540409073
 30
0.0
 40
0.5
100
AcDbArc
 50
210.0
 51
270.0
  0
ARC
  5
51
100
AcDbEntity
  8
CK_LEVEL_1
  6
CONTINUOUS
 62
         7
100
AcDbCircle
 10
171.9005691078
 20
21.440409073
 30
0.0
 40
0.6
100
AcDbArc
 50
270.0
 51
360.0
  0
LINE
  5
52
100
AcDbEntity
  8
CK_LEVEL_1
  6
CONTINUOUS
 62
         7
100
AcDbLine
 10
171.2469792693
 20
20.840409073
 30
0.0
 11
171.9005691078
 21
20.840409073
 31
0.0
  0
LINE
  5
53
100
AcDbEntity
  8
CK_LEVEL_1
  6
CONTINUOUS
 62
         7
100
AcDbLine
 10
172.5005691078
 20
33.665409073
 30
0.0
 11
172.5005691078
 21
21.440409073
 31
0.0
  0
LINE
  5
54
100
AcDbEntity
  8
CK_LEVEL_1
  6
CONTINUOUS
 62
         7
100
AcDbLine
 10
178.9571934348
 20
32.040409073
 30
0.0
 11
181.8439447808
 21
32.040409073
 31
0.0
  0
LINE
  5
55
100
AcDbEntity
  8
CK_LEVEL_1
  6
CONTINUOUS
 62
         7
100
AcDbLine
 10
182.2769574827
 20
32.290409073
 30
0.0
 11
183.9368395066
 21
35.165409073
 31
0.0
  0
LINE
  5
56
100
AcDbEntity
  8
CK_LEVEL_1
  6
CONTINUOUS
 62
         7
100
AcDbLine
 10
174.0005691078
 20
35.165409073
 30
0.0
 11
176.864298709
 21
35.165409073
 31
0.0
  0
LINE
  5
57
100
AcDbEntity
  8
CK_LEVEL_1
  6
CONTINUOUS
 62
         7
100
AcDbLine
 10
178.9571934348
 20
32.040409073
 30
0.0
 11
181.8439447808
 21
32.040409073
 31
0.0
  0
LINE
  5
58
100
AcDbEntity
  8
CK_LEVEL_1
  6
CONTINUOUS
 62
         7
100
AcDbLine
 10
172.5005691078
 20
33.665409073
 30
0.0
 11
172.5005691078
 21
21.440409073
 31
0.0
  0
LINE
  5
59
100
AcDbEntity
  8
CK_LEVEL_1
  6
CONTINUOUS
 62
         7
100
AcDbLine
 10
171.2469792693
 20
20.840409073
 30
0.0
 11
171.9005691078
 21
20.840409073
 31
0.0
  0
ARC
  5
5A
100
AcDbEntity
  8
CK_LEVEL_1
  6
CONTINUOUS
 62
         7
100
AcDbCircle
 10
171.9005691078
 20
21.440409073
 30
0.0
 40
0.6
100
AcDbArc
 50
270.0
 51
360.0
  0
ARC
  5
5B
100
AcDbEntity
  8
CK_LEVEL_1
  6
CONTINUOUS
 62
         7
100
AcDbCircle
 10
178.9571934348
 20
32.540409073
 30
0.0
 40
0.5
100
AcDbArc
 50
210.0
 51
270.0
  0
ARC
  5
5C
100
AcDbEntity
  8
CK_LEVEL_1
  6
CONTINUOUS
 62
         7
100
AcDbCircle
 10
181.8439447808
 20
32.540409073
 30
0.0
 40
0.5
100
AcDbArc
 50
270.0
 51
330.0
  0
ARC
  5
5D
100
AcDbEntity
  8
CK_LEVEL_1
  6
CONTINUOUS
 62
         7
100
AcDbCircle
 10
174.0005691078
 20
33.665409073
 30
0.0
 40
1.5
100
AcDbArc
 50
90.0
 51
180.0
  0
LINE
  5
5E
100
AcDbEntity
  8
CK_LEVEL_1
  6
CONTINUOUS
 62
         7
100
AcDbLine
 10
178.524180733
 20
32.290409073
 30
0.0
 11
176.864298709
 21
35.165409073
 31
0.0
  0
LINE
  5
5F
100
AcDbEntity
  8
CK_LEVEL_1
  6
CONTINUOUS
 62
         7
100
AcDbLine
 10
183.9368395066
 20
35.165409073
 30
0.0
 11
186.9005691078
 21
35.165409073
 31
0.0
  0
LINE
  5
60
100
AcDbEntity
  8
CK_LEVEL_1
  6
CONTINUOUS
 62
         7
100
AcDbLine
 10
188.4005691078
 20
33.665409073
 30
0.0
 11
188.4005691078
 21
21.840409073
 31
0.0
  0
ARC
  5
61
100
AcDbEntity
  8
CK_LEVEL_1
  6
CONTINUOUS
 62
         7
100
AcDbCircle
 10
186.9005691078
 20
33.665409073
 30
0.0
 40
1.5
100
AcDbArc
 50
0.0
 51
90.0
  0
LINE
  5
62
100
AcDbEntity
  8
CK_LEVEL_1
  6
CONTINUOUS
 62
         7
100
AcDbLine
 10
182.42129505
 20
-59.709590927
 30
0.0
 11
183.9368395066
 21
-62.334590927
 31
0.0
  0
LINE
  5
63
100
AcDbEntity
  8
CK_LEVEL_1
  6
CONTINUOUS
 62
         7
100
AcDbLine
 10
172.5005691078
 20
-48.609590927
 30
0.0
 11
172.5005691078
 21
-60.834590927
 31
0.0
  0
LINE
  5
64
100
AcDbEntity
  8
CK_LEVEL_1
  6
CONTINUOUS
 62
         7
100
AcDbLine
 10
178.9571934348
 20
-59.209590927
 30
0.0
 11
181.5552696462
 21
-59.209590927
 31
0.0
  0
LINE
  5
65
100
AcDbEntity
  8
CK_LEVEL_1
  6
CONTINUOUS
 62
         7
100
AcDbLine
 10
174.0005691078
 20
-62.334590927
 30
0.0
 11
176.864298709
 21
-62.334590927
 31
0.0
  0
ARC
  5
66
100
AcDbEntity
  8
CK_LEVEL_1
  6
CONTINUOUS
 62
         7
100
AcDbCircle
 10
174.0005691078
 20
-60.834590927
 30
0.0
 40
1.5
100
AcDbArc
 50
180.0
 51
270.0
  0
LINE
  5
67
100
AcDbEntity
  8
CK_LEVEL_1
  6
CONTINUOUS
 62
         7
100
AcDbLine
 10
178.524180733
 20
-59.459590927
 30
0.0
 11
176.864298709
 21
-62.334590927
 31
0.0
  0
ARC
  5
68
100
AcDbEntity
  8
CK_LEVEL_1
  6
CONTINUOUS
 62
         7
100
AcDbCircle
 10
178.9571934348
 20
-59.709590927
 30
0.0
 40
0.5
100
AcDbArc
 50
90.0
 51
150.0
  0
LINE
  5
69
100
AcDbEntity
  8
CK_LEVEL_1
  6
CONTINUOUS
 62
         7
100
AcDbLine
 10
171.2469792693
 20
-48.009590927
 30
0.0
 11
171.9005691078
 21
-48.009590927
 31
0.0
  0
ARC
  5
6A
100
AcDbEntity
  8
CK_LEVEL_1
  6
CONTINUOUS
 62
         7
100
AcDbCircle
 10
171.9005691078
 20
-48.609590927
 30
0.0
 40
0.6
100
AcDbArc
 50
0.0
 51
90.0
  0
LINE
  5
6B
100
AcDbEntity
  8
CK_LEVEL_1
  6
CONTINUOUS
 62
         7
100
AcDbLine
 10
188.4005691078
 20
-49.009590927
 30
0.0
 11
188.4005691078
 21
-60.834590927
 31
0.0
  0
ARC
  5
6C
100
AcDbEntity
  8
CK_LEVEL_1
  6
CONTINUOUS
 62
         7
100
AcDbCircle
 10
186.9005691078
 20
-60.834590927
 30
0.0
 40
1.5
100
AcDbArc
 50
270.0
 51
360.0
  0
LINE
  5
6D
100
AcDbEntity
  8
CK_LEVEL_1
  6
CONTINUOUS
 62
         7
100
AcDbLine
 10
183.9368395066
 20
-62.334590927
 30
0.0
 11
186.9005691078
 21
-62.334590927
 31
0.0
  0
ARC
  5
6E
100
AcDbEntity
  8
CK_LEVEL_1
  6
CONTINUOUS
 62
         7
100
AcDbCircle
 10
70.0505691078
 20
4.3398696311
 30
0.0
 40
2.5
100
AcDbArc
 50
98.297222
 51
180.0
  0
ARC
  5
6F
100
AcDbEntity
  8
CK_LEVEL_1
  6
CONTINUOUS
 62
         7
100
AcDbCircle
 10
70.0505691078
 20
-31.509051485
 30
0.0
 40
2.5
100
AcDbArc
 50
180.0
 51
261.702778
  0
LINE
  5
70
100
AcDbEntity
  8
CK_LEVEL_1
  6
CONTINUOUS
 62
         7
100
AcDbLine
 10
67.5505691078
 20
4.3398696311
 30
0.0
 11
67.5505691078
 21
-31.509051485
 31
0.0
  0
LINE
  5
71
100
AcDbEntity
  8
CK_LEVEL_1
  6
CONTINUOUS
 62
         7
100
AcDbLine
 10
169.3005691078
 20
-48.509590927
 30
0.0
 11
69.6897985492
 21
-33.9828834527
 31
0.0
  0
LINE
  5
72
100
AcDbEntity
  8
CK_LEVEL_1
  6
CONTINUOUS
 62
         7
100
AcDbLine
 10
169.3005691078
 20
21.340409073
 30
0.0
 11
69.6897985492
 21
6.8137015987
 31
0.0
  0
LINE
  5
73
100
AcDbEntity
  8
CK_LEVEL_1
  6
CONTINUOUS
 62
         7
100
AcDbLine
 10
169.3005691078
 20
-48.509590927
 30
0.0
 11
171.2469792693
 21
-48.009590927
 31
0.0
  0
LINE
  5
74
100
AcDbEntity
  8
CK_LEVEL_1
  6
CONTINUOUS
 62
         7
100
AcDbLine
 10
169.3005691078
 20
21.340409073
 30
0.0
 11
171.2469792693
 21
20.840409073
 31
0.0
  0
ARC
  5
75
100
AcDbEntity
  8
CK_LEVEL_1
  6
CONTINUOUS
 62
         7
100
AcDbCircle
 10
181.5552696462
 20
-60.209590927
 30
0.0
 40
1.0
100
AcDbArc
 50
30.0
 51
90.0
  0
LINE
  5
76
100
AcDbEntity
  8
CK_LEVEL_1
  6
CONTINUOUS
 62
         7
100
AcDbLine
 10
188.9005691078
 20
21.340409073
 30
0.0
 11
203.5525691078
 21
21.340409073
 31
0.0
  0
LINE
  5
77
100
AcDbEntity
  8
CK_LEVEL_1
  6
CONTINUOUS
 62
         7
100
AcDbLine
 10
188.9005691078
 20
-48.509590927
 30
0.0
 11
203.5525691078
 21
-48.509590927
 31
0.0
  0
ARC
  5
78
100
AcDbEntity
  8
CK_LEVEL_1
  6
CONTINUOUS
 62
         7
100
AcDbCircle
 10
69.0505691078
 20
0.415409073
 30
0.0
 40
1.5
100
AcDbArc
 50
180.0
 51
270.0
  0
LINE
  5
79
100
AcDbEntity
  8
CK_LEVEL_1
  6
CONTINUOUS
 62
         7
100
AcDbLine
 10
69.0505691078
 20
-1.084590927
 30
0.0
 11
71.9005691078
 21
-1.084590927
 31
0.0
  0
LINE
  5
7A
100
AcDbEntity
  8
CK_LEVEL_1
  6
CONTINUOUS
 62
         7
100
AcDbLine
 10
71.9005691078
 20
-26.084590927
 30
0.0
 11
71.9005691078
 21
-1.084590927
 31
0.0
  0
LINE
  5
7B
100
AcDbEntity
  8
CK_LEVEL_1
  6
CONTINUOUS
 62
         7
100
AcDbLine
 10
72.6469792693
 20
-0.884590927
 30
0.0
 11
71.9005691078
 21
-1.084590927
 31
0.0
  0
ARC
  5
7C
100
AcDbEntity
  8
CK_LEVEL_1
  6
CONTINUOUS
 62
         7
100
AcDbCircle
 10
73.5005691078
 20
-1.284590927
 30
0.0
 40
0.4
100
AcDbArc
 50
45.0
 51
90.0
  0
LINE
  5
7D
100
AcDbEntity
  8
CK_LEVEL_1
  6
CONTINUOUS
 62
         7
100
AcDbLine
 10
72.6469792693
 20
-0.884590927
 30
0.0
 11
73.5005691078
 21
-0.884590927
 31
0.0
  0
LINE
  5
7E
100
AcDbEntity
  8
CK_LEVEL_1
  6
CONTINUOUS
 62
         7
100
AcDbLine
 10
73.9005691078
 20
-26.0502763519
 30
0.0
 11
73.9005691078
 21
-1.118905502
 31
0.0
  0
LINE
  5
7F
100
AcDbEntity
  8
CK_LEVEL_1
  6
CONTINUOUS
 62
         7
100
AcDbLine
 10
73.7834118203
 20
-1.0017482145
 30
0.0
 11
75.9699130694
 21
-3.1882494636
 31
0.0
  0
LINE
  5
80
100
AcDbEntity
  8
CK_LEVEL_1
  6
CONTINUOUS
 62
         7
100
AcDbLine
 10
75.9699130694
 20
-23.9809323904
 30
0.0
 11
75.9699130694
 21
-3.1882494636
 31
0.0
  0
LINE
  5
81
100
AcDbEntity
  8
CK_LEVEL_1
  6
CONTINUOUS
 62
         7
100
AcDbLine
 10
112.0005691078
 20
-1.584590927
 30
0.0
 11
112.0005691078
 21
-25.584590927
 31
0.0
  0
LINE
  5
82
100
AcDbEntity
  8
CK_LEVEL_1
  6
CONTINUOUS
 62
         7
100
AcDbLine
 10
73.7834118203
 20
-26.1674336395
 30
0.0
 11
75.9699130694
 21
-23.9809323904
 31
0.0
  0
ARC
  5
83
100
AcDbEntity
  8
CK_LEVEL_1
  6
CONTINUOUS
 62
         7
100
AcDbCircle
 10
73.5005691078
 20
-25.884590927
 30
0.0
 40
0.4
100
AcDbArc
 50
270.0
 51
315.0
  0
LINE
  5
84
100
AcDbEntity
  8
CK_LEVEL_1
  6
CONTINUOUS
 62
         7
100
AcDbLine
 10
72.6469792693
 20
-26.284590927
 30
0.0
 11
73.5005691078
 21
-26.284590927
 31
0.0
  0
LINE
  5
85
100
AcDbEntity
  8
CK_LEVEL_1
  6
CONTINUOUS
 62
         7
100
AcDbLine
 10
72.6469792693
 20
-26.284590927
 30
0.0
 11
71.9005691078
 21
-26.084590927
 31
0.0
  0
LINE
  5
86
100
AcDbEntity
  8
CK_LEVEL_1
  6
CONTINUOUS
 62
         7
100
AcDbLine
 10
69.0505691078
 20
-26.084590927
 30
0.0
 11
71.9005691078
 21
-26.084590927
 31
0.0
  0
ARC
  5
87
100
AcDbEntity
  8
CK_LEVEL_1
  6
CONTINUOUS
 62
         7
100
AcDbCircle
 10
69.0505691078
 20
-27.584590927
 30
0.0
 40
1.5
100
AcDbArc
 50
90.0
 51
180.0
  0
LINE
  5
88
100
AcDbEntity
  8
CK_LEVEL_1
  6
CONTINUOUS
 62
         7
100
AcDbLine
 10
204.3525691078
 20
16.315409073
 30
0.0
 11
204.3525691078
 21
20.540409073
 31
0.0
  0
ARC
  5
89
100
AcDbEntity
  8
CK_LEVEL_1
  6
CONTINUOUS
 62
         7
100
AcDbCircle
 10
203.5525691078
 20
20.540409073
 30
0.0
 40
0.8
100
AcDbArc
 50
0.0
 51
90.0
  0
ARC
  5
8A
100
AcDbEntity
  8
CK_LEVEL_1
  6
CONTINUOUS
 62
         7
100
AcDbCircle
 10
203.5525691078
 20
-47.709590927
 30
0.0
 40
0.8
100
AcDbArc
 50
270.0
 51
360.0
  0
LINE
  5
8B
100
AcDbEntity
  8
CK_LEVEL_1
  6
CONTINUOUS
 62
         7
100
AcDbLine
 10
129.0505691078
 20
-3.1882494636
 30
0.0
 11
129.0505691078
 21
-23.9809323904
 31
0.0
  0
LINE
  5
8C
100
AcDbEntity
  8
CK_LEVEL_1
  6
CONTINUOUS
 62
         7
100
AcDbLine
 10
129.0505691078
 20
-23.9809323905
 30
0.0
 11
135.0528996503
 21
-13.584590927
 31
0.0
  0
LINE
  5
8D
100
AcDbEntity
  8
CK_LEVEL_1
  6
CONTINUOUS
 62
         7
100
AcDbLine
 10
129.0505691078
 20
-3.1882494636
 30
0.0
 11
135.0528996503
 21
-13.584590927
 31
0.0
  0
LINE
  5
8E
100
AcDbEntity
  8
CK_LEVEL_1
  6
CONTINUOUS
 62
         7
100
AcDbLine
 10
75.9699130694
 20
-3.1882494636
 30
0.0
 11
129.0505691078
 21
-3.1882494636
 31
0.0
  0
LINE
  5
8F
100
AcDbEntity
  8
CK_LEVEL_1
  6
CONTINUOUS
 62
         7
100
AcDbLine
 10
75.9699130694
 20
-23.9809323904
 30
0.0
 11
129.0505691078
 21
-23.9809323904
 31
0.0
  0
LINE
  5
90
100
AcDbEntity
  8
CK_LEVEL_1
  6
CONTINUOUS
 62
         7
100
AcDbLine
 10
273.3362402168
 20
5.265409073
 30
0.0
 11
274.6569792693
 21
5.265409073
 31
0.0
  0
LINE
  5
91
100
AcDbEntity
  8
CK_LEVEL_1
  6
CONTINUOUS
 62
         7
100
AcDbLine
 10
275.1105691078
 20
-32.634590927
 30
0.0
 11
274.8569792693
 21
-32.4881807655
 31
0.0
  0
LINE
  5
92
100
AcDbEntity
  8
CK_LEVEL_1
  6
CONTINUOUS
 62
         7
100
AcDbLine
 10
273.3362402168
 20
-32.434590927
 30
0.0
 11
274.6569792693
 21
-32.434590927
 31
0.0
  0
ARC
  5
93
100
AcDbEntity
  8
CK_LEVEL_1
  6
CONTINUOUS
 62
         7
100
AcDbCircle
 10
274.6569792693
 20
-32.834590927
 30
0.0
 40
0.4
100
AcDbArc
 50
60.0
 51
90.0
  0
ARC
  5
94
100
AcDbEntity
  8
CK_LEVEL_1
  6
CONTINUOUS
 62
         7
100
AcDbCircle
 10
273.3362402168
 20
-32.834590927
 30
0.0
 40
0.4
100
AcDbArc
 50
90.0
 51
124.3452138268
  0
LINE
  5
95
100
AcDbEntity
  8
CK_LEVEL_1
  6
CONTINUOUS
 62
         7
100
AcDbLine
 10
275.1105691078
 20
5.465409073
 30
0.0
 11
274.8569792693
 21
5.3189989115
 31
0.0
  0
ARC
  5
96
100
AcDbEntity
  8
CK_LEVEL_1
  6
CONTINUOUS
 62
         7
100
AcDbCircle
 10
274.6569792693
 20
5.665409073
 30
0.0
 40
0.4
100
AcDbArc
 50
270.0
 51
300.0
  0
ARC
  5
97
100
AcDbEntity
  8
CK_LEVEL_1
  6
CONTINUOUS
 62
         7
100
AcDbCircle
 10
273.3362402168
 20
5.665409073
 30
0.0
 40
0.4
100
AcDbArc
 50
235.6547861732
 51
270.0
  0
LINE
  5
98
100
AcDbEntity
  8
CK_LEVEL_1
  6
CONTINUOUS
 62
         7
100
AcDbLine
 10
339.1505691078
 20
-15.8411293411
 30
0.0
 11
336.974180733
 21
-14.584590927
 31
0.0
  0
LINE
  5
99
100
AcDbEntity
  8
CK_LEVEL_1
  6
CONTINUOUS
 62
         7
100
AcDbLine
 10
339.1505691078
 20
-11.3280525129
 30
0.0
 11
336.974180733
 21
-12.584590927
 31
0.0
  0
LINE
  5
9A
100
AcDbEntity
  8
CK_LEVEL_1
  6
CONTINUOUS
 62
         7
100
AcDbLine
 10
336.974180733
 20
-12.584590927
 30
0.0
 11
336.974180733
 21
-14.584590927
 31
0.0
  0
LINE
  5
9B
100
AcDbEntity
  8
CK_LEVEL_1
  6
CONTINUOUS
 62
         7
100
AcDbLine
 10
336.027919377
 20
-14.584590927
 30
0.0
 11
336.974180733
 21
-14.584590927
 31
0.0
  0
LINE
  5
9C
100
AcDbEntity
  8
CK_LEVEL_1
  6
CONTINUOUS
 62
         7
100
AcDbLine
 10
336.027919377
 20
-12.584590927
 30
0.0
 11
336.974180733
 21
-12.584590927
 31
0.0
  0
LINE
  5
9D
100
AcDbEntity
  8
CK_LEVEL_1
  6
CONTINUOUS
 62
         7
100
AcDbLine
 10
336.027919377
 20
-12.584590927
 30
0.0
 11
336.027919377
 21
-14.584590927
 31
0.0
  0
LINE
  5
9E
100
AcDbEntity
  8
CK_LEVEL_1
  6
CONTINUOUS
 62
         7
100
AcDbLine
 10
336.027919377
 20
-14.584590927
 30
0.0
 11
335.4505691078
 21
-13.584590927
 31
0.0
  0
LINE
  5
9F
100
AcDbEntity
  8
CK_LEVEL_1
  6
CONTINUOUS
 62
         7
100
AcDbLine
 10
336.027919377
 20
-12.584590927
 30
0.0
 11
335.4505691078
 21
-13.584590927
 31
0.0
  0
LINE
  5
A0
100
AcDbEntity
  8
CK_LEVEL_1
  6
CONTINUOUS
 62
         7
100
AcDbLine
 10
306.6105691078
 20
-31.110090927
 30
0.0
 11
308.1105691078
 21
-32.610090927
 31
0.0
  0
LINE
  5
A1
100
AcDbEntity
  8
CK_LEVEL_1
  6
CONTINUOUS
 62
         7
100
AcDbLine
 10
303.1105691078
 20
5.465409073
 30
0.0
 11
304.6105691078
 21
3.965409073
 31
0.0
  0
LINE
  5
A2
100
AcDbEntity
  8
CK_LEVEL_1
  6
CONTINUOUS
 62
         7
100
AcDbLine
 10
308.1105691078
 20
5.440909073
 30
0.0
 11
306.6105691078
 21
3.940909073
 31
0.0
  0
LINE
  5
A3
100
AcDbEntity
  8
CK_LEVEL_1
  6
CONTINUOUS
 62
         7
100
AcDbLine
 10
306.6105691078
 20
-31.134590927
 30
0.0
 11
304.6105691078
 21
-31.134590927
 31
0.0
  0
LINE
  5
A4
100
AcDbEntity
  8
CK_LEVEL_1
  6
CONTINUOUS
 62
         7
100
AcDbLine
 10
306.6105691078
 20
3.965409073
 30
0.0
 11
304.6105691078
 21
3.965409073
 31
0.0
  0
LINE
  5
A5
100
AcDbEntity
  8
CK_LEVEL_1
  6
CONTINUOUS
 62
         7
100
AcDbLine
 10
273.1105691078
 20
-38.984590927
 30
0.0
 11
273.1105691078
 21
-32.5043295902
 31
0.0
  0
LINE
  5
A6
100
AcDbEntity
  8
CK_LEVEL_1
  6
CONTINUOUS
 62
         7
100
AcDbLine
 10
271.6105691078
 20
13.315409073
 30
0.0
 11
207.3525691078
 21
13.315409073
 31
0.0
  0
LINE
  5
A7
100
AcDbEntity
  8
CK_LEVEL_1
  6
CONTINUOUS
 62
         7
100
AcDbLine
 10
271.6105691078
 20
-40.484590927
 30
0.0
 11
207.3525691078
 21
-40.484590927
 31
0.0
  0
ARC
  5
A8
100
AcDbEntity
  8
CK_LEVEL_1
  6
CONTINUOUS
 62
         7
100
AcDbCircle
 10
271.6105691078
 20
11.815409073
 30
0.0
 40
1.5
100
AcDbArc
 50
0.0
 51
90.0
  0
ARC
  5
A9
100
AcDbEntity
  8
CK_LEVEL_1
  6
CONTINUOUS
 62
         7
100
AcDbCircle
 10
271.6105691078
 20
-38.984590927
 30
0.0
 40
1.5
100
AcDbArc
 50
270.0
 51
360.0
  0
LINE
  5
AA
100
AcDbEntity
  8
CK_LEVEL_1
  6
CONTINUOUS
 62
         7
100
AcDbLine
 10
303.1105691078
 20
5.465409073
 30
0.0
 11
275.1105691078
 21
5.465409073
 31
0.0
  0
LINE
  5
AB
100
AcDbEntity
  8
CK_LEVEL_1
  6
CONTINUOUS
 62
         7
100
AcDbLine
 10
303.1105691078
 20
-32.634590927
 30
0.0
 11
275.1105691078
 21
-32.634590927
 31
0.0
  0
LINE
  5
AC
100
AcDbEntity
  8
CK_LEVEL_1
  6
CONTINUOUS
 62
         7
100
AcDbLine
 10
303.1105691078
 20
-32.634590927
 30
0.0
 11
304.6105691078
 21
-31.134590927
 31
0.0
  0
LINE
  5
AD
100
AcDbEntity
  8
CK_LEVEL_1
  6
CONTINUOUS
 62
         7
100
AcDbLine
 10
339.1505691078
 20
-29.610090927
 30
0.0
 11
339.1505691078
 21
2.440909073
 31
0.0
  0
LINE
  5
AE
100
AcDbEntity
  8
CK_LEVEL_1
  6
CONTINUOUS
 62
         7
100
AcDbLine
 10
336.1505691078
 20
5.440909073
 30
0.0
 11
308.1105691078
 21
5.440909073
 31
0.0
  0
LINE
  5
AF
100
AcDbEntity
  8
CK_LEVEL_1
  6
CONTINUOUS
 62
         7
100
AcDbLine
 10
336.1505691078
 20
-32.610090927
 30
0.0
 11
308.1105691078
 21
-32.610090927
 31
0.0
  0
ARC
  5
B0
100
AcDbEntity
  8
CK_LEVEL_1
  6
CONTINUOUS
 62
         7
100
AcDbCircle
 10
336.1505691078
 20
2.440909073
 30
0.0
 40
3.0
100
AcDbArc
 50
0.0
 51
90.0
  0
ARC
  5
B1
100
AcDbEntity
  8
CK_LEVEL_1
  6
CONTINUOUS
 62
         7
100
AcDbCircle
 10
336.1505691078
 20
-29.610090927
 30
0.0
 40
3.0
100
AcDbArc
 50
270.0
 51
360.0
  0
ARC
  5
B2
100
AcDbEntity
  8
CK_LEVEL_1
  6
CONTINUOUS
 62
         7
100
AcDbCircle
 10
207.3525691078
 20
16.315409073
 30
0.0
 40
3.0
100
AcDbArc
 50
180.0
 51
270.0
  0
LINE
  5
B3
100
AcDbEntity
  8
CK_LEVEL_1
  6
CONTINUOUS
 62
         7
100
AcDbLine
 10
204.3525691078
 20
-43.484590927
 30
0.0
 11
204.3525691078
 21
-47.709590927
 31
0.0
  0
ARC
  5
B4
100
AcDbEntity
  8
CK_LEVEL_1
  6
CONTINUOUS
 62
         7
100
AcDbCircle
 10
207.3525691078
 20
-43.484590927
 30
0.0
 40
3.0
100
AcDbArc
 50
90.0
 51
180.0
  0
LINE
  5
B5
100
AcDbEntity
  8
CK_LEVEL_1
  6
CONTINUOUS
 62
         7
100
AcDbLine
 10
273.1105691078
 20
5.3351477362
 30
0.0
 11
273.1105691078
 21
11.815409073
 31
0.0
  0
LINE
  5
B6
100
AcDbEntity
  8
CK_LEVEL_1
  6
CONTINUOUS
 62
         7
100
AcDbLine
 10
299.1105691078
 20
0.715409073
 30
0.0
 11
299.1105691078
 21
5.465409073
 31
0.0
  0
LINE
  5
B7
100
AcDbEntity
  8
CK_LEVEL_1
  6
CONTINUOUS
 62
         7
100
AcDbLine
 10
299.1105691078
 20
0.715409073
 30
0.0
 11
274.1105691078
 21
0.715409073
 31
0.0
  0
LINE
  5
B8
100
AcDbEntity
  8
CK_LEVEL_1
  6
CONTINUOUS
 62
         7
100
AcDbLine
 10
274.1105691078
 20
0.715409073
 30
0.0
 11
274.1105691078
 21
5.265409073
 31
0.0
  0
INSERT
  5
11D
100
AcDbEntity
  8
0
  6
CONTINUOUS
100
AcDbBlockReference
  2
*X1
 10
0.0
 20
0.0
 30
0.0
  0
LINE
  5
11E
100
AcDbEntity
  8
CK_LEVEL_1
  6
CONTINUOUS
 62
         4
100
AcDbLine
 10
338.6210338414
 20
-31.312090927
 30
0.0
 11
306.7880691078
 21
-31.312090927
 31
0.0
  0
LINE
  5
11F
100
AcDbEntity
  8
CK_LEVEL_1
  6
CONTINUOUS
 62
         4
100
AcDbLine
 10
338.6210338414
 20
4.142909073
 30
0.0
 11
306.7880691078
 21
4.142909073
 31
0.0
  0
DIMENSION
  5
122
100
AcDbEntity
  8
CK_LEVEL_1
  6
CONTINUOUS
 62
         4
100
AcDbDimension
  2
*D2
 10
339.1505691078
 20
256.5692486638
 30
0.0
 11
192.8505691078
 21
259.1942486638
 31
0.0
  3
DIMSTYLE1
100
AcDbAlignedDimension
 13
339.1505691078
 23
191.8485011241
 33
0.0
 14
67.5505691078
 24
193.7474616822
 34
0.0
100
AcDbRotatedDimension
  0
LINE
  5
12E
100
AcDbEntity
  8
CK_LEVEL_1
  6
CONTINUOUS
 62
         4
100
AcDbLine
 10
186.9005691078
 20
127.0730011241
 30
0.0
 11
186.9005691078
 21
161.9730011241
 31
0.0
  0
LINE
  5
12F
100
AcDbEntity
  8
CK_LEVEL_1
  6
CONTINUOUS
 62
         4
100
AcDbLine
 10
174.0005691078
 20
127.0730011241
 30
0.0
 11
174.0005691078
 21
161.9730011241
 31
0.0
  0
LINE
  5
130
100
AcDbEntity
  8
CK_LEVEL_1
  6
CONTINUOUS
 62
         4
100
AcDbLine
 10
186.9005691078
 20
224.5807081739
 30
0.0
 11
186.9005691078
 21
189.6807081739
 31
0.0
  0
LINE
  5
131
100
AcDbEntity
  8
CK_LEVEL_1
  6
CONTINUOUS
 62
         4
100
AcDbLine
 10
174.0005691078
 20
224.5807081739
 30
0.0
 11
174.0005691078
 21
189.6807081739
 31
0.0
  0
LINE
  5
132
100
AcDbEntity
  8
CK_LEVEL_1
  6
CONTINUOUS
 62
         7
100
AcDbLine
 10
303.6105691078
 20
194.8730011241
 30
0.0
 11
275.1105691078
 21
194.8730011241
 31
0.0
  0
LINE
  5
133
100
AcDbEntity
  8
CK_LEVEL_1
  6
CONTINUOUS
 62
         7
100
AcDbLine
 10
303.6105691078
 20
156.7730011241
 30
0.0
 11
275.1105691078
 21
156.7730011241
 31
0.0
  0
ARC
  5
134
100
AcDbEntity
  8
CK_LEVEL_1
  6
CONTINUOUS
 62
         7
100
AcDbCircle
 10
303.6105691078
 20
157.7730011241
 30
0.0
 40
1.0
100
AcDbArc
 50
270.0
 51
360.0
  0
LINE
  5
135
100
AcDbEntity
  8
CK_LEVEL_1
  6
CONTINUOUS
 62
         7
100
AcDbLine
 10
304.6105691078
 20
193.8730011241
 30
0.0
 11
304.6105691078
 21
157.7730011241
 31
0.0
  0
ARC
  5
136
100
AcDbEntity
  8
CK_LEVEL_1
  6
CONTINUOUS
 62
         7
100
AcDbCircle
 10
303.6105691078
 20
193.8730011241
 30
0.0
 40
1.0
100
AcDbArc
 50
0.0
 51
90.0
  0
ARC
  5
137
100
AcDbEntity
  8
CK_LEVEL_1
  6
CONTINUOUS
 62
         7
100
AcDbCircle
 10
188.9005691078
 20
140.3980011241
 30
0.0
 40
0.5
100
AcDbArc
 50
90.0
 51
180.0
  0
ARC
  5
138
100
AcDbEntity
  8
CK_LEVEL_1
  6
CONTINUOUS
 62
         7
100
AcDbCircle
 10
188.9005691078
 20
211.2480011241
 30
0.0
 40
0.5
100
AcDbArc
 50
180.0
 51
270.0
  0
LINE
  5
139
100
AcDbEntity
  8
CK_LEVEL_1
  6
CONTINUOUS
 62
         7
100
AcDbLine
 10
188.4005691078
 20
223.0730011241
 30
0.0
 11
188.4005691078
 21
128.5730011241
 31
0.0
  0
LINE
  5
13A
100
AcDbEntity
  8
CK_LEVEL_1
  6
CONTINUOUS
 62
         7
100
AcDbLine
 10
188.3005691078
 20
161.9730011241
 30
0.0
 11
187.2804749429
 21
162.9930952891
 31
0.0
  0
LINE
  5
13B
100
AcDbEntity
  8
CK_LEVEL_1
  6
CONTINUOUS
 62
         7
100
AcDbLine
 10
188.3005691078
 20
189.6730011241
 30
0.0
 11
187.2804749429
 21
188.6529069592
 31
0.0
  0
LINE
  5
13C
100
AcDbEntity
  8
CK_LEVEL_1
  6
CONTINUOUS
 62
         7
100
AcDbLine
 10
182.2769574827
 20
221.6980011241
 30
0.0
 11
183.9368395066
 21
224.5730011241
 31
0.0
  0
LINE
  5
13D
100
AcDbEntity
  8
CK_LEVEL_1
  6
CONTINUOUS
 62
         7
100
AcDbLine
 10
182.2755691078
 20
188.6529069592
 30
0.0
 11
183.9368395066
 21
189.6730011241
 31
0.0
  0
LINE
  5
13E
100
AcDbEntity
  8
CK_LEVEL_1
  6
CONTINUOUS
 62
         7
100
AcDbLine
 10
187.2804749429
 20
188.6529069592
 30
0.0
 11
173.5206632727
 21
188.6529069592
 31
0.0
  0
LINE
  5
13F
100
AcDbEntity
  8
CK_LEVEL_1
  6
CONTINUOUS
 62
         7
100
AcDbLine
 10
187.2804749429
 20
188.6529069592
 30
0.0
 11
173.5206632727
 21
188.6529069592
 31
0.0
  0
LINE
  5
140
100
AcDbEntity
  8
CK_LEVEL_1
  6
CONTINUOUS
 62
         7
100
AcDbLine
 10
178.9571934348
 20
221.4480011241
 30
0.0
 11
181.8439447808
 21
221.4480011241
 31
0.0
  0
LINE
  5
141
100
AcDbEntity
  8
CK_LEVEL_1
  6
CONTINUOUS
 62
         7
100
AcDbLine
 10
174.0005691078
 20
224.5730011241
 30
0.0
 11
176.864298709
 21
224.5730011241
 31
0.0
  0
ARC
  5
142
100
AcDbEntity
  8
CK_LEVEL_1
  6
CONTINUOUS
 62
         7
100
AcDbCircle
 10
178.9571934348
 20
221.9480011241
 30
0.0
 40
0.5
100
AcDbArc
 50
210.0
 51
270.0
  0
LINE
  5
143
100
AcDbEntity
  8
CK_LEVEL_1
  6
CONTINUOUS
 62
         7
100
AcDbLine
 10
171.2469792693
 20
210.2480011241
 30
0.0
 11
171.9005691078
 21
210.2480011241
 31
0.0
  0
ARC
  5
144
100
AcDbEntity
  8
CK_LEVEL_1
  6
CONTINUOUS
 62
         7
100
AcDbCircle
 10
171.9005691078
 20
210.8480011241
 30
0.0
 40
0.6
100
AcDbArc
 50
270.0
 51
360.0
  0
LINE
  5
145
100
AcDbEntity
  8
CK_LEVEL_1
  6
CONTINUOUS
 62
         7
100
AcDbLine
 10
178.524180733
 20
221.6980011241
 30
0.0
 11
176.864298709
 21
224.5730011241
 31
0.0
  0
ARC
  5
146
100
AcDbEntity
  8
CK_LEVEL_1
  6
CONTINUOUS
 62
         7
100
AcDbCircle
 10
174.0005691078
 20
223.0730011241
 30
0.0
 40
1.5
100
AcDbArc
 50
90.0
 51
180.0
  0
ARC
  5
147
100
AcDbEntity
  8
CK_LEVEL_1
  6
CONTINUOUS
 62
         7
100
AcDbCircle
 10
181.8439447808
 20
221.9480011241
 30
0.0
 40
0.5
100
AcDbArc
 50
270.0
 51
330.0
  0
LINE
  5
148
100
AcDbEntity
  8
CK_LEVEL_1
  6
CONTINUOUS
 62
         7
100
AcDbLine
 10
176.864298709
 20
189.6730011241
 30
0.0
 11
172.5005691078
 21
189.6730011241
 31
0.0
  0
LINE
  5
149
100
AcDbEntity
  8
CK_LEVEL_1
  6
CONTINUOUS
 62
         7
100
AcDbLine
 10
172.5005691078
 20
189.6730011241
 30
0.0
 11
173.5206632727
 21
188.6529069592
 31
0.0
  0
LINE
  5
14A
100
AcDbEntity
  8
CK_LEVEL_1
  6
CONTINUOUS
 62
         7
100
AcDbLine
 10
176.864298709
 20
189.6730011241
 30
0.0
 11
178.5255691078
 21
188.6529069592
 31
0.0
  0
LINE
  5
14B
100
AcDbEntity
  8
CK_LEVEL_1
  6
CONTINUOUS
 62
         7
100
AcDbLine
 10
178.5255691078
 20
221.6956116626
 30
0.0
 11
178.5255691078
 21
188.6529069592
 31
0.0
  0
LINE
  5
14C
100
AcDbEntity
  8
CK_LEVEL_1
  6
CONTINUOUS
 62
         7
100
AcDbLine
 10
176.864298709
 20
224.5730011241
 30
0.0
 11
176.864298709
 21
189.6730011241
 31
0.0
  0
LINE
  5
14D
100
AcDbEntity
  8
CK_LEVEL_1
  6
CONTINUOUS
 62
         7
100
AcDbLine
 10
182.2755691078
 20
221.6956116626
 30
0.0
 11
182.2755691078
 21
188.6529069592
 31
0.0
  0
ARC
  5
14E
100
AcDbEntity
  8
CK_LEVEL_1
  6
CONTINUOUS
 62
         7
100
AcDbCircle
 10
186.9005691078
 20
223.0730011241
 30
0.0
 40
1.5
100
AcDbArc
 50
0.0
 51
90.0
  0
LINE
  5
14F
100
AcDbEntity
  8
CK_LEVEL_1
  6
CONTINUOUS
 62
         7
100
AcDbLine
 10
183.9368395066
 20
224.5730011241
 30
0.0
 11
186.9005691078
 21
224.5730011241
 31
0.0
  0
LINE
  5
150
100
AcDbEntity
  8
CK_LEVEL_1
  6
CONTINUOUS
 62
         7
100
AcDbLine
 10
188.4005691078
 20
189.6730011241
 30
0.0
 11
183.9368395066
 21
189.6730011241
 31
0.0
  0
LINE
  5
151
100
AcDbEntity
  8
CK_LEVEL_1
  6
CONTINUOUS
 62
         7
100
AcDbLine
 10
183.9368395066
 20
224.5730011241
 30
0.0
 11
183.9368395066
 21
189.6730011241
 31
0.0
  0
LINE
  5
152
100
AcDbEntity
  8
CK_LEVEL_1
  6
CONTINUOUS
 62
         7
100
AcDbLine
 10
182.2755691078
 20
162.9930952891
 30
0.0
 11
183.9368395066
 21
161.9730011241
 31
0.0
  0
LINE
  5
153
100
AcDbEntity
  8
CK_LEVEL_1
  6
CONTINUOUS
 62
         7
100
AcDbLine
 10
187.2804749429
 20
162.9930952891
 30
0.0
 11
173.5206632727
 21
162.9930952891
 31
0.0
  0
LINE
  5
154
100
AcDbEntity
  8
CK_LEVEL_1
  6
CONTINUOUS
 62
         7
100
AcDbLine
 10
187.2804749429
 20
162.9930952891
 30
0.0
 11
173.5206632727
 21
162.9930952891
 31
0.0
  0
LINE
  5
155
100
AcDbEntity
  8
CK_LEVEL_1
  6
CONTINUOUS
 62
         7
100
AcDbLine
 10
182.2769574827
 20
129.9480011241
 30
0.0
 11
183.9368395066
 21
127.0730011241
 31
0.0
  0
LINE
  5
156
100
AcDbEntity
  8
CK_LEVEL_1
  6
CONTINUOUS
 62
         7
100
AcDbLine
 10
176.864298709
 20
161.9730011241
 30
0.0
 11
178.5255691078
 21
162.9930952891
 31
0.0
  0
LINE
  5
157
100
AcDbEntity
  8
CK_LEVEL_1
  6
CONTINUOUS
 62
         7
100
AcDbLine
 10
172.5005691078
 20
161.9730011241
 30
0.0
 11
173.5206632727
 21
162.9930952891
 31
0.0
  0
LINE
  5
158
100
AcDbEntity
  8
CK_LEVEL_1
  6
CONTINUOUS
 62
         7
100
AcDbLine
 10
176.864298709
 20
161.9730011241
 30
0.0
 11
172.5005691078
 21
161.9730011241
 31
0.0
  0
LINE
  5
159
100
AcDbEntity
  8
CK_LEVEL_1
  6
CONTINUOUS
 62
         7
100
AcDbLine
 10
178.5255691078
 20
162.9930952891
 30
0.0
 11
178.5255691078
 21
129.9503905857
 31
0.0
  0
LINE
  5
15A
100
AcDbEntity
  8
CK_LEVEL_1
  6
CONTINUOUS
 62
         7
100
AcDbLine
 10
182.2755691078
 20
162.9930952891
 30
0.0
 11
182.2755691078
 21
129.9503905857
 31
0.0
  0
LINE
  5
15B
100
AcDbEntity
  8
CK_LEVEL_1
  6
CONTINUOUS
 62
         7
100
AcDbLine
 10
176.864298709
 20
161.9730011241
 30
0.0
 11
176.864298709
 21
127.0730011241
 31
0.0
  0
LINE
  5
15C
100
AcDbEntity
  8
CK_LEVEL_1
  6
CONTINUOUS
 62
         7
100
AcDbLine
 10
178.9571934348
 20
130.1980011241
 30
0.0
 11
181.8439447808
 21
130.1980011241
 31
0.0
  0
ARC
  5
15D
100
AcDbEntity
  8
CK_LEVEL_1
  6
CONTINUOUS
 62
         7
100
AcDbCircle
 10
178.9571934348
 20
129.6980011241
 30
0.0
 40
0.5
100
AcDbArc
 50
90.0
 51
150.0
  0
LINE
  5
15E
100
AcDbEntity
  8
CK_LEVEL_1
  6
CONTINUOUS
 62
         7
100
AcDbLine
 10
174.0005691078
 20
127.0730011241
 30
0.0
 11
176.864298709
 21
127.0730011241
 31
0.0
  0
LINE
  5
15F
100
AcDbEntity
  8
CK_LEVEL_1
  6
CONTINUOUS
 62
         7
100
AcDbLine
 10
178.524180733
 20
129.9480011241
 30
0.0
 11
176.864298709
 21
127.0730011241
 31
0.0
  0
ARC
  5
160
100
AcDbEntity
  8
CK_LEVEL_1
  6
CONTINUOUS
 62
         7
100
AcDbCircle
 10
174.0005691078
 20
128.5730011241
 30
0.0
 40
1.5
100
AcDbArc
 50
180.0
 51
270.0
  0
ARC
  5
161
100
AcDbEntity
  8
CK_LEVEL_1
  6
CONTINUOUS
 62
         7
100
AcDbCircle
 10
181.8439447808
 20
129.6980011241
 30
0.0
 40
0.5
100
AcDbArc
 50
30.0
 51
90.0
  0
ARC
  5
162
100
AcDbEntity
  8
CK_LEVEL_1
  6
CONTINUOUS
 62
         7
100
AcDbCircle
 10
171.9005691078
 20
140.7980011241
 30
0.0
 40
0.6
100
AcDbArc
 50
0.0
 51
90.0
  0
LINE
  5
163
100
AcDbEntity
  8
CK_LEVEL_1
  6
CONTINUOUS
 62
         7
100
AcDbLine
 10
171.2469792693
 20
141.3980011241
 30
0.0
 11
171.9005691078
 21
141.3980011241
 31
0.0
  0
ARC
  5
164
100
AcDbEntity
  8
CK_LEVEL_1
  6
CONTINUOUS
 62
         7
100
AcDbCircle
 10
171.9005691078
 20
140.7980011241
 30
0.0
 40
0.6
100
AcDbArc
 50
0.0
 51
90.0
  0
LINE
  5
165
100
AcDbEntity
  8
CK_LEVEL_1
  6
CONTINUOUS
 62
         7
100
AcDbLine
 10
188.4005691078
 20
161.9730011241
 30
0.0
 11
183.9368395066
 21
161.9730011241
 31
0.0
  0
ARC
  5
166
100
AcDbEntity
  8
CK_LEVEL_1
  6
CONTINUOUS
 62
         7
100
AcDbCircle
 10
186.9005691078
 20
128.5730011241
 30
0.0
 40
1.5
100
AcDbArc
 50
270.0
 51
360.0
  0
LINE
  5
167
100
AcDbEntity
  8
CK_LEVEL_1
  6
CONTINUOUS
 62
         7
100
AcDbLine
 10
183.9368395066
 20
161.9730011241
 30
0.0
 11
183.9368395066
 21
127.0730011241
 31
0.0
  0
LINE
  5
168
100
AcDbEntity
  8
CK_LEVEL_1
  6
CONTINUOUS
 62
         7
100
AcDbLine
 10
183.9368395066
 20
127.0730011241
 30
0.0
 11
186.9005691078
 21
127.0730011241
 31
0.0
  0
LINE
  5
169
100
AcDbEntity
  8
CK_LEVEL_1
  6
CONTINUOUS
 62
         7
100
AcDbLine
 10
172.5005691078
 20
223.0730011241
 30
0.0
 11
172.5005691078
 21
128.5730011241
 31
0.0
  0
LINE
  5
16A
100
AcDbEntity
  8
CK_LEVEL_1
  6
CONTINUOUS
 62
         7
100
AcDbLine
 10
171.2469792693
 20
210.2480011241
 30
0.0
 11
171.2469792693
 21
141.3980011241
 31
0.0
  0
LINE
  5
16B
100
AcDbEntity
  8
CK_LEVEL_1
  6
CONTINUOUS
 62
         7
100
AcDbLine
 10
170.5005691078
 20
210.4397413278
 30
0.0
 11
170.5005691078
 21
141.2062609205
 31
0.0
  0
ARC
  5
16C
100
AcDbEntity
  8
CK_LEVEL_1
  6
CONTINUOUS
 62
         7
100
AcDbCircle
 10
70.0505691078
 20
193.7474616822
 30
0.0
 40
2.5
100
AcDbArc
 50
98.297222
 51
180.0
  0
ARC
  5
16D
100
AcDbEntity
  8
CK_LEVEL_1
  6
CONTINUOUS
 62
         7
100
AcDbCircle
 10
70.0505691078
 20
157.8985405661
 30
0.0
 40
2.5
100
AcDbArc
 50
180.0
 51
261.702778
  0
LINE
  5
16E
100
AcDbEntity
  8
CK_LEVEL_1
  6
CONTINUOUS
 62
         7
100
AcDbLine
 10
67.5505691078
 20
193.7474616822
 30
0.0
 11
67.5505691078
 21
157.8985405661
 31
0.0
  0
LINE
  5
16F
100
AcDbEntity
  8
CK_LEVEL_1
  6
CONTINUOUS
 62
         7
100
AcDbLine
 10
169.3005691078
 20
140.8980011241
 30
0.0
 11
69.6897985492
 21
155.4247085985
 31
0.0
  0
LINE
  5
170
100
AcDbEntity
  8
CK_LEVEL_1
  6
CONTINUOUS
 62
         7
100
AcDbLine
 10
169.3005691078
 20
210.7480011241
 30
0.0
 11
69.6897985492
 21
196.2212936498
 31
0.0
  0
LINE
  5
171
100
AcDbEntity
  8
CK_LEVEL_1
  6
CONTINUOUS
 62
         7
100
AcDbLine
 10
169.3005691078
 20
140.8980011241
 30
0.0
 11
171.2469792693
 21
141.3980011241
 31
0.0
  0
LINE
  5
172
100
AcDbEntity
  8
CK_LEVEL_1
  6
CONTINUOUS
 62
         7
100
AcDbLine
 10
169.3005691078
 20
210.7480011241
 30
0.0
 11
171.2469792693
 21
210.2480011241
 31
0.0
  0
LINE
  5
173
100
AcDbEntity
  8
CK_LEVEL_1
  6
CONTINUOUS
 62
         7
100
AcDbLine
 10
188.9005691078
 20
210.7480011241
 30
0.0
 11
203.5525691078
 21
210.7480011241
 31
0.0
  0
LINE
  5
174
100
AcDbEntity
  8
CK_LEVEL_1
  6
CONTINUOUS
 62
         7
100
AcDbLine
 10
188.9005691078
 20
140.8980011241
 30
0.0
 11
203.5525691078
 21
140.8980011241
 31
0.0
  0
LINE
  5
175
100
AcDbEntity
  8
CK_LEVEL_1
  6
CONTINUOUS
 62
         7
100
AcDbLine
 10
204.3525691078
 20
209.9480011241
 30
0.0
 11
204.3525691078
 21
141.6980011241
 31
0.0
  0
ARC
  5
176
100
AcDbEntity
  8
CK_LEVEL_1
  6
CONTINUOUS
 62
         7
100
AcDbCircle
 10
203.5525691078
 20
209.9480011241
 30
0.0
 40
0.8
100
AcDbArc
 50
0.0
 51
90.0
  0
ARC
  5
177
100
AcDbEntity
  8
CK_LEVEL_1
  6
CONTINUOUS
 62
         7
100
AcDbCircle
 10
203.5525691078
 20
141.6980011241
 30
0.0
 40
0.8
100
AcDbArc
 50
270.0
 51
360.0
  0
LINE
  5
178
100
AcDbEntity
  8
CK_LEVEL_1
  6
CONTINUOUS
 62
         4
100
AcDbLine
 10
273.3362402168
 20
156.9730011241
 30
0.0
 11
273.3362402168
 21
194.6730011241
 31
0.0
  0
LINE
  5
179
100
AcDbEntity
  8
CK_LEVEL_1
  6
CONTINUOUS
 62
         4
100
AcDbLine
 10
274.7641589463
 20
194.6730011241
 30
0.0
 11
274.7641589463
 21
156.9730011241
 31
0.0
  0
LINE
  5
17A
100
AcDbEntity
  8
CK_LEVEL_1
  6
CONTINUOUS
 62
         4
100
AcDbLine
 10
275.1105691078
 20
194.8730011241
 30
0.0
 11
275.1105691078
 21
156.7730011241
 31
0.0
  0
LINE
  5
17B
100
AcDbEntity
  8
CK_LEVEL_1
  6
CONTINUOUS
 62
         7
100
AcDbLine
 10
275.1105691078
 20
156.7730011241
 30
0.0
 11
274.8569792693
 21
156.9194112857
 31
0.0
  0
LINE
  5
17C
100
AcDbEntity
  8
CK_LEVEL_1
  6
CONTINUOUS
 62
         7
100
AcDbLine
 10
273.3362402168
 20
156.9730011241
 30
0.0
 11
274.6569792693
 21
156.9730011241
 31
0.0
  0
ARC
  5
17D
100
AcDbEntity
  8
CK_LEVEL_1
  6
CONTINUOUS
 62
         7
100
AcDbCircle
 10
274.6569792693
 20
156.5730011241
 30
0.0
 40
0.4
100
AcDbArc
 50
60.0
 51
90.0
  0
ARC
  5
17E
100
AcDbEntity
  8
CK_LEVEL_1
  6
CONTINUOUS
 62
         7
100
AcDbCircle
 10
273.3362402168
 20
156.5730011241
 30
0.0
 40
0.4
100
AcDbArc
 50
90.0
 51
124.3452138268
  0
LINE
  5
17F
100
AcDbEntity
  8
CK_LEVEL_1
  6
CONTINUOUS
 62
         7
100
AcDbLine
 10
273.3362402168
 20
194.6730011241
 30
0.0
 11
274.6569792693
 21
194.6730011241
 31
0.0
  0
LINE
  5
180
100
AcDbEntity
  8
CK_LEVEL_1
  6
CONTINUOUS
 62
         7
100
AcDbLine
 10
275.1105691078
 20
194.8730011241
 30
0.0
 11
274.8569792693
 21
194.7265909626
 31
0.0
  0
ARC
  5
181
100
AcDbEntity
  8
CK_LEVEL_1
  6
CONTINUOUS
 62
         7
100
AcDbCircle
 10
274.6569792693
 20
195.0730011241
 30
0.0
 40
0.4
100
AcDbArc
 50
270.0
 51
300.0
  0
ARC
  5
182
100
AcDbEntity
  8
CK_LEVEL_1
  6
CONTINUOUS
 62
         7
100
AcDbCircle
 10
273.3362402168
 20
195.0730011241
 30
0.0
 40
0.4
100
AcDbArc
 50
235.6547861732
 51
270.0
  0
ARC
  5
183
100
AcDbEntity
  8
CK_LEVEL_1
  6
CONTINUOUS
 62
         7
100
AcDbCircle
 10
336.1505691078
 20
159.7975011241
 30
0.0
 40
3.0
100
AcDbArc
 50
270.0
 51
360.0
  0
ARC
  5
184
100
AcDbEntity
  8
CK_LEVEL_1
  6
CONTINUOUS
 62
         7
100
AcDbCircle
 10
336.1505691078
 20
191.8485011241
 30
0.0
 40
3.0
100
AcDbArc
 50
0.0
 51
90.0
  0
LINE
  5
185
100
AcDbEntity
  8
CK_LEVEL_1
  6
CONTINUOUS
 62
         7
100
AcDbLine
 10
336.1505691078
 20
156.7975011241
 30
0.0
 11
308.1105691078
 21
156.7975011241
 31
0.0
  0
LINE
  5
186
100
AcDbEntity
  8
CK_LEVEL_1
  6
CONTINUOUS
 62
         7
100
AcDbLine
 10
336.1505691078
 20
194.8485011241
 30
0.0
 11
308.1105691078
 21
194.8485011241
 31
0.0
  0
LINE
  5
187
100
AcDbEntity
  8
CK_LEVEL_1
  6
CONTINUOUS
 62
         7
100
AcDbLine
 10
339.1505691078
 20
159.7975011241
 30
0.0
 11
339.1505691078
 21
191.8485011241
 31
0.0
  0
ARC
  5
188
100
AcDbEntity
  8
CK_LEVEL_1
  6
CONTINUOUS
 62
         7
100
AcDbCircle
 10
271.6105691078
 20
150.4230011241
 30
0.0
 40
1.5
100
AcDbArc
 50
270.0
 51
360.0
  0
ARC
  5
189
100
AcDbEntity
  8
CK_LEVEL_1
  6
CONTINUOUS
 62
         7
100
AcDbCircle
 10
271.6105691078
 20
201.2230011241
 30
0.0
 40
1.5
100
AcDbArc
 50
0.0
 51
90.0
  0
LINE
  5
18A
100
AcDbEntity
  8
CK_LEVEL_1
  6
CONTINUOUS
 62
         7
100
AcDbLine
 10
271.6105691078
 20
148.9230011241
 30
0.0
 11
207.3525691078
 21
148.9230011241
 31
0.0
  0
LINE
  5
18B
100
AcDbEntity
  8
CK_LEVEL_1
  6
CONTINUOUS
 62
         7
100
AcDbLine
 10
271.6105691078
 20
202.7230011241
 30
0.0
 11
207.3525691078
 21
202.7230011241
 31
0.0
  0
LINE
  5
18C
100
AcDbEntity
  8
CK_LEVEL_1
  6
CONTINUOUS
 62
         7
100
AcDbLine
 10
273.1105691078
 20
150.4230011241
 30
0.0
 11
273.1105691078
 21
201.2230011241
 31
0.0
  0
LINE
  5
18D
100
AcDbEntity
  8
CK_LEVEL_1
  6
CONTINUOUS
 62
         4
100
AcDbLine
 10
338.6210338414
 20
193.5505011241
 30
0.0
 11
306.7880691078
 21
193.5505011241
 31
0.0
  0
LINE
  5
18E
100
AcDbEntity
  8
CK_LEVEL_1
  6
CONTINUOUS
 62
         4
100
AcDbLine
 10
338.6210338414
 20
158.0955011241
 30
0.0
 11
306.7880691078
 21
158.0955011241
 31
0.0
  0
LINE
  5
18F
100
AcDbEntity
  8
CK_LEVEL_1
  6
CONTINUOUS
 62
         7
100
AcDbLine
 10
306.6105691078
 20
193.3730011241
 30
0.0
 11
304.6105691078
 21
193.3730011241
 31
0.0
  0
LINE
  5
190
100
AcDbEntity
  8
CK_LEVEL_1
  6
CONTINUOUS
 62
         7
100
AcDbLine
 10
306.6105691078
 20
158.2975011241
 30
0.0
 11
306.6105691078
 21
193.3485011241
 31
0.0
  0
LINE
  5
191
100
AcDbEntity
  8
CK_LEVEL_1
  6
CONTINUOUS
 62
         7
100
AcDbLine
 10
306.6105691078
 20
158.2730011241
 30
0.0
 11
304.6105691078
 21
158.2730011241
 31
0.0
  0
LINE
  5
192
100
AcDbEntity
  8
CK_LEVEL_1
  6
CONTINUOUS
 62
         7
100
AcDbLine
 10
304.6105691078
 20
193.3730011241
 30
0.0
 11
304.6105691078
 21
158.2730011241
 31
0.0
  0
LINE
  5
193
100
AcDbEntity
  8
CK_LEVEL_1
  6
CONTINUOUS
 62
         7
100
AcDbLine
 10
308.1105691078
 20
194.8485011241
 30
0.0
 11
306.6105691078
 21
193.3485011241
 31
0.0
  0
LINE
  5
194
100
AcDbEntity
  8
CK_LEVEL_1
  6
CONTINUOUS
 62
         7
100
AcDbLine
 10
306.6105691078
 20
158.2975011241
 30
0.0
 11
308.1105691078
 21
156.7975011241
 31
0.0
  0
ARC
  5
195
100
AcDbEntity
  8
CK_LEVEL_1
  6
CONTINUOUS
 62
         7
100
AcDbCircle
 10
207.3525691078
 20
205.7230011241
 30
0.0
 40
3.0
100
AcDbArc
 50
180.0
 51
270.0
  0
ARC
  5
196
100
AcDbEntity
  8
CK_LEVEL_1
  6
CONTINUOUS
 62
         7
100
AcDbCircle
 10
207.3525691078
 20
145.9230011241
 30
0.0
 40
3.0
100
AcDbArc
 50
90.0
 51
180.0
  0
LINE
  5
197
100
AcDbEntity
  8
CK_LEVEL_1
  6
CENTER
 62
         1
100
AcDbLine
 10
2.8602490266
 20
175.8230011241
 30
0.0
 11
-87.0697063057
 21
175.8230011241
 31
0.0
  0
CIRCLE
  5
198
100
AcDbEntity
  8
CK_LEVEL_1
  6
CONTINUOUS
 62
         7
100
AcDbCircle
 10
-40.5051607103
 20
175.8230011241
 30
0.0
 40
10.3963414634
  0
ARC
  5
199
100
AcDbEntity
  8
CK_LEVEL_1
  6
CONTINUOUS
 62
         4
100
AcDbCircle
 10
-40.5051607103
 20
175.8230011241
 30
0.0
 40
12.0
100
AcDbArc
 50
278.1340859252
 51
549.6704111119
  0
CIRCLE
  5
19A
100
AcDbEntity
  8
CK_LEVEL_1
  6
CONTINUOUS
 62
         7
100
AcDbCircle
 10
-40.5051607103
 20
175.8230011241
 30
0.0
 40
12.6589889012
  0
LINE
  5
19B
100
AcDbEntity
  8
CK_LEVEL_1
  6
CONTINUOUS
 62
         7
100
AcDbLine
 10
-76.5051607103
 20
163.4730011241
 30
0.0
 11
-76.5051607103
 21
188.1730011241
 31
0.0
  0
LINE
  5
19C
100
AcDbEntity
  8
CK_LEVEL_1
  6
CONTINUOUS
 62
         7
100
AcDbLine
 10
-75.5051607103
 20
162.9730011241
 30
0.0
 11
-75.5051607103
 21
188.6730011241
 31
0.0
  0
LINE
  5
19D
100
AcDbEntity
  8
CK_LEVEL_1
  6
CONTINUOUS
 62
         7
100
AcDbLine
 10
-86.2463630911
 20
162.9730011241
 30
0.0
 11
-77.0051607103
 21
162.9730011241
 31
0.0
  0
LINE
  5
19E
100
AcDbEntity
  8
CK_LEVEL_1
  6
CONTINUOUS
 62
         7
100
AcDbLine
 10
-87.2463630911
 20
161.9730011241
 30
0.0
 11
-76.5051607103
 21
161.9730011241
 31
0.0
  0
LINE
  5
19F
100
AcDbEntity
  8
CK_LEVEL_1
  6
CONTINUOUS
 62
         7
100
AcDbLine
 10
-87.2463630911
 20
161.9730011241
 30
0.0
 11
-86.2463630911
 21
162.9730011241
 31
0.0
  0
LINE
  5
1A0
100
AcDbEntity
  8
CK_LEVEL_1
  6
CONTINUOUS
 62
         7
100
AcDbLine
 10
-87.2463630911
 20
189.6730011241
 30
0.0
 11
-86.2463630911
 21
188.6730011241
 31
0.0
  0
LINE
  5
1A1
100
AcDbEntity
  8
CK_LEVEL_1
  6
CONTINUOUS
 62
         7
100
AcDbLine
 10
-86.2463630911
 20
188.6730011241
 30
0.0
 11
-77.0051607103
 21
188.6730011241
 31
0.0
  0
LINE
  5
1A2
100
AcDbEntity
  8
CK_LEVEL_1
  6
CONTINUOUS
 62
         7
100
AcDbLine
 10
-87.2463630911
 20
189.6730011241
 30
0.0
 11
-76.5051607103
 21
189.6730011241
 31
0.0
  0
LINE
  5
1A3
100
AcDbEntity
  8
CK_LEVEL_1
  6
CONTINUOUS
 62
         7
100
AcDbLine
 10
-2.8051607103
 20
163.4730011241
 30
0.0
 11
-2.8051607103
 21
188.1730011241
 31
0.0
  0
LINE
  5
1A4
100
AcDbEntity
  8
CK_LEVEL_1
  6
CONTINUOUS
 62
         7
100
AcDbLine
 10
5.2360416704
 20
188.6730011241
 30
0.0
 11
-2.3051607103
 21
188.6730011241
 31
0.0
  0
LINE
  5
1A5
100
AcDbEntity
  8
CK_LEVEL_1
  6
CONTINUOUS
 62
         7
100
AcDbLine
 10
6.2360416704
 20
189.6730011241
 30
0.0
 11
-2.8051607103
 21
189.6730011241
 31
0.0
  0
LINE
  5
1A6
100
AcDbEntity
  8
CK_LEVEL_1
  6
CONTINUOUS
 62
         7
100
AcDbLine
 10
6.2360416704
 20
189.6730011241
 30
0.0
 11
5.2360416704
 21
188.6730011241
 31
0.0
  0
LINE
  5
1A7
100
AcDbEntity
  8
CK_LEVEL_1
  6
CONTINUOUS
 62
         7
100
AcDbLine
 10
5.2360416704
 20
162.9730011241
 30
0.0
 11
-2.3051607103
 21
162.9730011241
 31
0.0
  0
LINE
  5
1A8
100
AcDbEntity
  8
CK_LEVEL_1
  6
CONTINUOUS
 62
         7
100
AcDbLine
 10
6.2360416704
 20
161.9730011241
 30
0.0
 11
-2.8051607103
 21
161.9730011241
 31
0.0
  0
LINE
  5
1A9
100
AcDbEntity
  8
CK_LEVEL_1
  6
CONTINUOUS
 62
         7
100
AcDbLine
 10
6.2360416704
 20
161.9730011241
 30
0.0
 11
5.2360416704
 21
162.9730011241
 31
0.0
  0
LINE
  5
1AA
100
AcDbEntity
  8
CK_LEVEL_1
  6
CONTINUOUS
 62
         7
100
AcDbLine
 10
-3.8051607103
 20
162.9730011241
 30
0.0
 11
-3.8051607103
 21
188.6730011241
 31
0.0
  0
LINE
  5
1AB
100
AcDbEntity
  8
CK_LEVEL_1
  6
CONTINUOUS
 62
         7
100
AcDbLine
 10
-76.5051607103
 20
189.6730011241
 30
0.0
 11
-75.5051607103
 21
188.6730011241
 31
0.0
  0
LINE
  5
1AC
100
AcDbEntity
  8
CK_LEVEL_1
  6
CONTINUOUS
 62
         7
100
AcDbLine
 10
-75.5051607103
 20
162.9730011241
 30
0.0
 11
-76.5051607103
 21
161.9730011241
 31
0.0
  0
LINE
  5
1AD
100
AcDbEntity
  8
CK_LEVEL_1
  6
CONTINUOUS
 62
         7
100
AcDbLine
 10
-77.0051607103
 20
162.9730011241
 30
0.0
 11
-76.5051607103
 21
163.4730011241
 31
0.0
  0
LINE
  5
1AE
100
AcDbEntity
  8
CK_LEVEL_1
  6
CONTINUOUS
 62
         7
100
AcDbLine
 10
-76.5051607103
 20
188.1730011241
 30
0.0
 11
-77.0051607103
 21
188.6730011241
 31
0.0
  0
LINE
  5
1AF
100
AcDbEntity
  8
CK_LEVEL_1
  6
CONTINUOUS
 62
         7
100
AcDbLine
 10
-2.3051607103
 20
188.6730011241
 30
0.0
 11
-2.8051607103
 21
188.1730011241
 31
0.0
  0
LINE
  5
1B0
100
AcDbEntity
  8
CK_LEVEL_1
  6
CONTINUOUS
 62
         7
100
AcDbLine
 10
-2.8051607103
 20
163.4730011241
 30
0.0
 11
-2.3051607103
 21
162.9730011241
 31
0.0
  0
LINE
  5
1B1
100
AcDbEntity
  8
CK_LEVEL_1
  6
CONTINUOUS
 62
         7
100
AcDbLine
 10
-2.8051607103
 20
161.9730011241
 30
0.0
 11
-3.8051607103
 21
162.9730011241
 31
0.0
  0
LINE
  5
1B2
100
AcDbEntity
  8
CK_LEVEL_1
  6
CONTINUOUS
 62
         7
100
AcDbLine
 10
-3.8051607103
 20
188.6730011241
 30
0.0
 11
-2.8051607103
 21
189.6730011241
 31
0.0
  0
LINE
  5
1B3
100
AcDbEntity
  8
CK_LEVEL_1
  6
CENTER
 62
         1
100
AcDbLine
 10
521.0957317989
 20
175.8230011241
 30
0.0
 11
429.4788529822
 21
175.8230011241
 31
0.0
  0
LINE
  5
1B4
100
AcDbEntity
  8
CK_LEVEL_1
  6
CONTINUOUS
 62
         7
100
AcDbLine
 10
439.6555745479
 20
162.9730011241
 30
0.0
 11
438.6555745479
 21
161.9730011241
 31
0.0
  0
LINE
  5
1B5
100
AcDbEntity
  8
CK_LEVEL_1
  6
CONTINUOUS
 62
         7
100
AcDbLine
 10
439.6555745479
 20
188.6730011241
 30
0.0
 11
438.6555745479
 21
189.6730011241
 31
0.0
  0
LINE
  5
1B6
100
AcDbEntity
  8
CK_LEVEL_1
  6
CONTINUOUS
 62
         7
100
AcDbLine
 10
438.6555745479
 20
163.4730011241
 30
0.0
 11
438.1555745479
 21
162.9730011241
 31
0.0
  0
LINE
  5
1B7
100
AcDbEntity
  8
CK_LEVEL_1
  6
CONTINUOUS
 62
         7
100
AcDbLine
 10
438.1555745479
 20
188.6730011241
 30
0.0
 11
438.6555745479
 21
188.1730011241
 31
0.0
  0
LINE
  5
1B8
100
AcDbEntity
  8
CK_LEVEL_1
  6
CONTINUOUS
 62
         7
100
AcDbLine
 10
439.6555745479
 20
188.6730011241
 30
0.0
 11
439.6555745479
 21
162.9730011241
 31
0.0
  0
LINE
  5
1B9
100
AcDbEntity
  8
CK_LEVEL_1
  6
CONTINUOUS
 62
         7
100
AcDbLine
 10
438.6555745479
 20
188.1730011241
 30
0.0
 11
438.6555745479
 21
163.4730011241
 31
0.0
  0
LINE
  5
1BA
100
AcDbEntity
  8
CK_LEVEL_1
  6
CONTINUOUS
 62
         7
100
AcDbLine
 10
511.8555745479
 20
163.4730011241
 30
0.0
 11
512.3555745479
 21
162.9730011241
 31
0.0
  0
LINE
  5
1BB
100
AcDbEntity
  8
CK_LEVEL_1
  6
CONTINUOUS
 62
         7
100
AcDbLine
 10
510.8555745479
 20
162.9730011241
 30
0.0
 11
511.8555745479
 21
161.9730011241
 31
0.0
  0
LINE
  5
1BC
100
AcDbEntity
  8
CK_LEVEL_1
  6
CONTINUOUS
 62
         7
100
AcDbLine
 10
511.8555745479
 20
189.6730011241
 30
0.0
 11
510.8555745479
 21
188.6730011241
 31
0.0
  0
LINE
  5
1BD
100
AcDbEntity
  8
CK_LEVEL_1
  6
CONTINUOUS
 62
         7
100
AcDbLine
 10
511.8555745479
 20
188.1730011241
 30
0.0
 11
512.3555745479
 21
188.6730011241
 31
0.0
  0
LINE
  5
1BE
100
AcDbEntity
  8
CK_LEVEL_1
  6
CONTINUOUS
 62
         7
100
AcDbLine
 10
429.6143721672
 20
189.6730011241
 30
0.0
 11
430.6143721672
 21
188.6730011241
 31
0.0
  0
LINE
  5
1BF
100
AcDbEntity
  8
CK_LEVEL_1
  6
CONTINUOUS
 62
         7
100
AcDbLine
 10
429.6143721672
 20
189.6730011241
 30
0.0
 11
438.6555745479
 21
189.6730011241
 31
0.0
  0
LINE
  5
1C0
100
AcDbEntity
  8
CK_LEVEL_1
  6
CONTINUOUS
 62
         7
100
AcDbLine
 10
430.6143721672
 20
188.6730011241
 30
0.0
 11
438.1555745479
 21
188.6730011241
 31
0.0
  0
LINE
  5
1C1
100
AcDbEntity
  8
CK_LEVEL_1
  6
CONTINUOUS
 62
         7
100
AcDbLine
 10
429.6143721672
 20
161.9730011241
 30
0.0
 11
430.6143721672
 21
162.9730011241
 31
0.0
  0
LINE
  5
1C2
100
AcDbEntity
  8
CK_LEVEL_1
  6
CONTINUOUS
 62
         7
100
AcDbLine
 10
429.6143721672
 20
161.9730011241
 30
0.0
 11
438.6555745479
 21
161.9730011241
 31
0.0
  0
LINE
  5
1C3
100
AcDbEntity
  8
CK_LEVEL_1
  6
CONTINUOUS
 62
         7
100
AcDbLine
 10
430.6143721672
 20
162.9730011241
 30
0.0
 11
438.1555745479
 21
162.9730011241
 31
0.0
  0
LINE
  5
1C4
100
AcDbEntity
  8
CK_LEVEL_1
  6
CONTINUOUS
 62
         7
100
AcDbLine
 10
523.0967769287
 20
161.9730011241
 30
0.0
 11
511.8555745479
 21
161.9730011241
 31
0.0
  0
LINE
  5
1C5
100
AcDbEntity
  8
CK_LEVEL_1
  6
CONTINUOUS
 62
         7
100
AcDbLine
 10
522.0967769287
 20
162.9730011241
 30
0.0
 11
512.3555745479
 21
162.9730011241
 31
0.0
  0
LINE
  5
1C6
100
AcDbEntity
  8
CK_LEVEL_1
  6
CONTINUOUS
 62
         7
100
AcDbLine
 10
523.0967769287
 20
161.9730011241
 30
0.0
 11
522.0967769287
 21
162.9730011241
 31
0.0
  0
LINE
  5
1C7
100
AcDbEntity
  8
CK_LEVEL_1
  6
CONTINUOUS
 62
         7
100
AcDbLine
 10
523.0967769287
 20
189.6730011241
 30
0.0
 11
522.0967769287
 21
188.6730011241
 31
0.0
  0
LINE
  5
1C8
100
AcDbEntity
  8
CK_LEVEL_1
  6
CONTINUOUS
 62
         7
100
AcDbLine
 10
523.0967769287
 20
189.6730011241
 30
0.0
 11
511.8555745479
 21
189.6730011241
 31
0.0
  0
LINE
  5
1C9
100
AcDbEntity
  8
CK_LEVEL_1
  6
CONTINUOUS
 62
         7
100
AcDbLine
 10
522.0967769287
 20
188.6730011241
 30
0.0
 11
512.3555745479
 21
188.6730011241
 31
0.0
  0
LINE
  5
1CA
100
AcDbEntity
  8
CK_LEVEL_1
  6
CONTINUOUS
 62
         7
100
AcDbLine
 10
510.8555745479
 20
188.6730011241
 30
0.0
 11
510.8555745479
 21
162.9730011241
 31
0.0
  0
LINE
  5
1CB
100
AcDbEntity
  8
CK_LEVEL_1
  6
CONTINUOUS
 62
         7
100
AcDbLine
 10
511.8555745479
 20
188.1730011241
 30
0.0
 11
511.8555745479
 21
163.4730011241
 31
0.0
  0
LINE
  5
1CC
100
AcDbEntity
  8
CK_LEVEL_1
  6
CONTINUOUS
 62
         5
100
AcDbLine
 10
74.3662545328
 20
-25.584590927
 30
0.0
 11
112.0005691078
 21
-25.584590927
 31
0.0
  0
LINE
  5
1CD
100
AcDbEntity
  8
CK_LEVEL_1
  6
CONTINUOUS
 62
         5
100
AcDbLine
 10
74.3662545328
 20
-1.584590927
 30
0.0
 11
112.0005691078
 21
-1.584590927
 31
0.0
  0
LINE
  5
1CE
100
AcDbEntity
  8
CK_LEVEL_1
  6
CONTINUOUS
 62
         4
100
AcDbLine
 10
69.0505691078
 20
-26.084590927
 30
0.0
 11
69.0505691078
 21
-1.084590927
 31
0.0
  0
INSERT
  5
1E6
100
AcDbEntity
  8
0
  6
CONTINUOUS
100
AcDbBlockReference
  2
CKCOLL314
 10
0.0
 20
0.0
 30
0.0
  0
DIMENSION
  5
1E9
100
AcDbEntity
  8
CK_LEVEL_1
  6
CONTINUOUS
 62
         4
100
AcDbDimension
  2
*D4
 10
371.3096724465
 20
127.0730011241
 30
0.0
 11
368.6846724465
 21
166.233035606
 31
0.0
  3
DIMSTYLE1
100
AcDbAlignedDimension
 13
186.9005691078
 23
127.0730011241
 33
0.0
 14
186.9005691078
 24
224.5730011241
 34
0.0
 50
90.0
100
AcDbRotatedDimension
  0
LINE
  5
1F5
100
AcDbEntity
  8
CK_LEVEL_1
  6
CENTER
 62
         1
100
AcDbLine
 10
62.1143133805
 20
-13.584590927
 30
0.0
 11
346.0552442971
 21
-13.584590927
 31
0.0
  0
LINE
  5
1F6
100
AcDbEntity
  8
CK_LEVEL_1
  6
CENTER
 62
         1
100
AcDbLine
 10
163.0455107032
 20
175.8230011241
 30
0.0
 11
345.8294591931
 21
175.8230011241
 31
0.0
  0
LINE
  5
1F7
100
AcDbEntity
  8
CK_LEVEL_1
  6
CENTER
 62
         1
100
AcDbLine
 10
64.6005691078
 20
175.8230011241
 30
0.0
 11
149.9450614732
 21
175.8230011241
 31
0.0
  0
LINE
  5
1F8
100
AcDbEntity
  8
CK_LEVEL_1
  6
CENTER
 62
         1
100
AcDbLine
 10
169.3005691078
 20
215.5480011241
 30
0.0
 11
169.3005691078
 21
137.5519467786
 31
0.0
  0
LINE
  5
1F9
100
AcDbEntity
  8
CK_LEVEL_1
  6
CENTER
 62
         1
100
AcDbLine
 10
180.4005691078
 20
230.8282644249
 30
0.0
 11
180.4005691078
 21
120.8254448731
 31
0.0
  0
ARC
  5
1FA
100
AcDbEntity
  8
CK_LEVEL_1
  6
DASHED
 62
         2
100
AcDbCircle
 10
476.3555745479
 20
175.8230011241
 30
0.0
 40
45.625
100
AcDbArc
 50
197.6716498685
 51
343.6416615206
  0
ARC
  5
1FB
100
AcDbEntity
  8
CK_LEVEL_1
  6
CONTINUOUS
 62
         7
100
AcDbCircle
 10
476.3555745479
 20
175.8230011241
 30
0.0
 40
47.25
100
AcDbArc
 50
197.0449399911
 51
342.9550600089
  0
ARC
  5
1FC
100
AcDbEntity
  8
CK_LEVEL_1
  6
CONTINUOUS
 62
         7
100
AcDbCircle
 10
476.3555745479
 20
175.8230011241
 30
0.0
 40
47.25
100
AcDbArc
 50
17.0449399911
 51
162.9550600089
  0
ARC
  5
1FD
100
AcDbEntity
  8
CK_LEVEL_1
  6
CONTINUOUS
 62
         7
100
AcDbCircle
 10
476.3555745479
 20
175.8230011241
 30
0.0
 40
48.75
100
AcDbArc
 50
16.5052120024
 51
163.4947879976
  0
ARC
  5
1FE
100
AcDbEntity
  8
CK_LEVEL_1
  6
DASHED
 62
         2
100
AcDbCircle
 10
476.3555745479
 20
175.8230011241
 30
0.0
 40
45.625
100
AcDbArc
 50
16.3583384794
 51
163.6416615206
  0
ARC
  5
1FF
100
AcDbEntity
  8
CK_LEVEL_1
  6
CONTINUOUS
 62
         7
100
AcDbCircle
 10
476.3555745479
 20
175.8230011241
 30
0.0
 40
48.75
100
AcDbArc
 50
196.5052120024
 51
343.4947879976
  0
LINE
  5
200
100
AcDbEntity
  8
CK_LEVEL_1
  6
CENTER
 62
         1
100
AcDbLine
 10
476.3555745479
 20
229.2628684761
 30
0.0
 11
476.3555745479
 21
114.1729703952
 31
0.0
  0
ARC
  5
201
100
AcDbEntity
  8
CK_LEVEL_1
  6
CONTINUOUS
 62
         7
100
AcDbCircle
 10
-40.5051607103
 20
175.8230011241
 30
0.0
 40
48.75
100
AcDbArc
 50
16.5052120024
 51
163.4947879976
  0
CIRCLE
  5
202
100
AcDbEntity
  8
CK_LEVEL_1
  6
CONTINUOUS
 62
         7
100
AcDbCircle
 10
-40.5051607103
 20
175.8230011241
 30
0.0
 40
20.3982925257
  0
CIRCLE
  5
203
100
AcDbEntity
  8
CK_LEVEL_1
  6
CONTINUOUS
 62
         7
100
AcDbCircle
 10
-40.5051607103
 20
175.8230011241
 30
0.0
 40
34.925
  0
ARC
  5
204
100
AcDbEntity
  8
CK_LEVEL_1
  6
CONTINUOUS
 62
         7
100
AcDbCircle
 10
-40.5051607103
 20
175.8230011241
 30
0.0
 40
48.75
100
AcDbArc
 50
196.5052120024
 51
343.4947879976
  0
LINE
  5
205
100
AcDbEntity
  8
CK_LEVEL_1
  6
CENTER
 62
         1
100
AcDbLine
 10
-40.5051607103
 20
229.2628684761
 30
0.0
 11
-40.5051607103
 21
114.1729703952
 31
0.0
  0
DIMENSION
  5
208
100
AcDbEntity
  8
CK_LEVEL_1
  6
CONTINUOUS
 62
         4
100
AcDbDimension
  2
*D5
 10
339.1505691078
 20
-87.4002192562
 30
0.0
 11
245.3255691078
 21
-84.7752192562
 31
0.0
  3
DIMSTYLE1
100
AcDbAlignedDimension
 13
339.1505691078
 23
-29.610090927
 33
0.0
 14
172.5005691078
 24
-60.834590927
 34
0.0
100
AcDbRotatedDimension
  0
TEXT
  5
215
100
AcDbEntity
  8
CK_LEVEL_1
  6
CONTINUOUS
 62
         2
100
AcDbText
 10
460.9273523306
 20
250.0088378029
 30
0.0
 40
4.5
  1
531590
 41
0.98
  7
BOX
100
AcDbText
  0
ENDSEC
  0
SECTION
  2
OBJECTS
  0
DICTIONARY
  5
19
100
AcDbDictionary
  3
ACAD_GROUP
350
1A
  3
ACAD_MLINESTYLE
350
1B
  0
DICTIONARY
  5
1A
102
{ACAD_REACTORS
330
19
102
}
100
AcDbDictionary
  0
DICTIONARY
  5
1B
102
{ACAD_REACTORS
330
19
102
}
100
AcDbDictionary
  3
STANDARD
350
1C
  0
MLINESTYLE
  5
1C
102
{ACAD_REACTORS
330
1B
102
}
100
AcDbMlineStyle
  2
STANDARD
 70
         0
  3

 62
         0
 51
90.0
 52
90.0
 71
         2
 49
0.5
 62
       256
  6
BYLAYER
 49
-0.5
 62
       256
  6
BYLAYER
  0
ENDSEC
  0
EOF
