  0
SECTION
  2
HEADER
  9
$ACADVER
  1
AC1014
  9
$ACADMAINTVER
 70
         0
  9
$DWGCODEPAGE
  3
BIG5
  9
$INSBASE
 10
0.0
 20
0.0
 30
0.0
  9
$EXTMIN
 10
-10333.9584068874
 20
11670.3406505416
 30
0.0
  9
$EXTMAX
 10
-9449.5738925472
 20
12116.2198915125
 30
0.0
  9
$LIMMIN
 10
0.0
 20
0.0
  9
$LIMMAX
 10
0.0
 20
0.0
  9
$ORTHOMODE
 70
         0
  9
$REGENMODE
 70
         1
  9
$FILLMODE
 70
         1
  9
$QTEXTMODE
 70
         0
  9
$MIRRTEXT
 70
         1
  9
$DRAGMODE
 70
         2
  9
$LTSCALE
 40
1.0
  9
$OSMODE
 70
         0
  9
$ATTMODE
 70
         1
  9
$TEXTSIZE
 40
2.1
  9
$TRACEWID
 40
0.05
  9
$TEXTSTYLE
  7
STANDARD
  9
$CLAYER
  8
0
  9
$CELTYPE
  6
CONTINUOUS
  9
$CECOLOR
 62
         4
  9
$CELTSCALE
 40
1.0
  9
$DELOBJ
 70
         1
  9
$DISPSILH
 70
         0
  9
$DIMSCALE
 40
1.0
  9
$DIMASZ
 40
0.18
  9
$DIMEXO
 40
0.0625
  9
$DIMDLI
 40
0.38
  9
$DIMRND
 40
0.0
  9
$DIMDLE
 40
0.0
  9
$DIMEXE
 40
0.25
  9
$DIMTP
 40
0.0
  9
$DIMTM
 40
0.0
  9
$DIMTXT
 40
3.5
  9
$DIMCEN
 40
0.09
  9
$DIMTSZ
 40
0.0
  9
$DIMTOL
 70
         0
  9
$DIMLIM
 70
         0
  9
$DIMTIH
 70
         1
  9
$DIMTOH
 70
         1
  9
$DIMSE1
 70
         0
  9
$DIMSE2
 70
         0
  9
$DIMTAD
 70
         0
  9
$DIMZIN
 70
         0
  9
$DIMBLK
  1

  9
$DIMASO
 70
         1
  9
$DIMSHO
 70
         1
  9
$DIMPOST
  1

  9
$DIMAPOST
  1

  9
$DIMALT
 70
         0
  9
$DIMALTD
 70
         2
  9
$DIMALTF
 40
25.4
  9
$DIMLFAC
 40
1.0
  9
$DIMTOFL
 70
         0
  9
$DIMTVP
 40
0.0
  9
$DIMTIX
 70
         0
  9
$DIMSOXD
 70
         0
  9
$DIMSAH
 70
         0
  9
$DIMBLK1
  1

  9
$DIMBLK2
  1

  9
$DIMSTYLE
  2
STANDARD
  9
$DIMCLRD
 70
         0
  9
$DIMCLRE
 70
         0
  9
$DIMCLRT
 70
         4
  9
$DIMTFAC
 40
0.7
  9
$DIMGAP
 40
0.09
  9
$DIMJUST
 70
         0
  9
$DIMSD1
 70
         0
  9
$DIMSD2
 70
         0
  9
$DIMTOLJ
 70
         1
  9
$DIMTZIN
 70
         0
  9
$DIMALTZ
 70
         0
  9
$DIMALTTZ
 70
         0
  9
$DIMFIT
 70
         3
  9
$DIMUPT
 70
         0
  9
$DIMUNIT
 70
         2
  9
$DIMDEC
 70
         4
  9
$DIMTDEC
 70
         4
  9
$DIMALTU
 70
         2
  9
$DIMALTTD
 70
         2
  9
$DIMTXSTY
  7
STANDARD
  9
$DIMAUNIT
 70
         0
  9
$LUNITS
 70
         2
  9
$LUPREC
 70
        10
  9
$SKETCHINC
 40
0.1
  9
$FILLETRAD
 40
0.0
  9
$AUNITS
 70
         0
  9
$AUPREC
 70
         0
  9
$MENU
  1
acad
  9
$ELEVATION
 40
0.0
  9
$PELEVATION
 40
0.0
  9
$THICKNESS
 40
0.0
  9
$LIMCHECK
 70
         0
  9
$BLIPMODE
 70
         1
  9
$CHAMFERA
 40
0.0
  9
$CHAMFERB
 40
0.0
  9
$CHAMFERC
 40
0.0
  9
$CHAMFERD
 40
0.0
  9
$SKPOLY
 70
         0
  9
$TDCREATE
 40
0.000000000
  9
$TDUPDATE
 40
0.000000000
  9
$TDINDWG
 40
0.0000000000
  9
$TDUSRTIMER
 40
0.0000000000
  9
$USRTIMER
 70
         1
  9
$ANGBASE
 50
0.0
  9
$ANGDIR
 70
         0
  9
$PDMODE
 70
         2
  9
$PDSIZE
 40
0.0
  9
$PLINEWID
 40
0.0
  9
$COORDS
 70
         1
  9
$SPLFRAME
 70
         0
  9
$SPLINETYPE
 70
         6
  9
$SPLINESEGS
 70
         8
  9
$ATTDIA
 70
         0
  9
$ATTREQ
 70
         1
  9
$HANDLING
 70
         1
  9
$HANDSEED
  5
556
  9
$SURFTAB1
 70
         6
  9
$SURFTAB2
 70
         6
  9
$SURFTYPE
 70
         6
  9
$SURFU
 70
         6
  9
$SURFV
 70
         6
  9
$UCSNAME
  2

  9
$UCSORG
 10
0.0
 20
0.0
 30
0.0
  9
$UCSXDIR
 10
1.0
 20
0.0
 30
0.0
  9
$UCSYDIR
 10
0.0
 20
1.0
 30
0.0
  9
$PUCSNAME
  2

  9
$PUCSORG
 10
0.0
 20
0.0
 30
0.0
  9
$PUCSXDIR
 10
1.0
 20
0.0
 30
0.0
  9
$PUCSYDIR
 10
0.0
 20
1.0
 30
0.0
  9
$USERI1
 70
         0
  9
$USERI2
 70
         0
  9
$USERI3
 70
         0
  9
$USERI4
 70
         0
  9
$USERI5
 70
         0
  9
$USERR1
 40
0.0
  9
$USERR2
 40
0.0
  9
$USERR3
 40
0.0
  9
$USERR4
 40
0.0
  9
$USERR5
 40
0.0
  9
$WORLDVIEW
 70
         1
  9
$SHADEDGE
 70
         3
  9
$SHADEDIF
 70
        70
  9
$TILEMODE
 70
         1
  9
$MAXACTVP
 70
        16
  9
$PINSBASE
 10
0.0
 20
0.0
 30
0.0
  9
$PLIMCHECK
 70
         0
  9
$PEXTMIN
 10
1.0000000000E+20
 20
1.0000000000E+20
 30
1.0000000000E+20
  9
$PEXTMAX
 10
-1.0000000000E+20
 20
-1.0000000000E+20
 30
-1.0000000000E+20
  9
$PLIMMIN
 10
0.0
 20
0.0
  9
$PLIMMAX
 10
12.0
 20
9.0
  9
$UNITMODE
 70
         0
  9
$VISRETAIN
 70
         0
  9
$PLINEGEN
 70
         1
  9
$PSLTSCALE
 70
         0
  9
$TREEDEPTH
 70
      3020
  9
$PICKSTYLE
 70
         1
  9
$CMLSTYLE
  2
STANDARD
  9
$CMLJUST
 70
         0
  9
$CMLSCALE
 40
1.0
  9
$PROXYGRAPHICS
 70
         0
  9
$MEASUREMENT
 70
         0
  0
ENDSEC
  0
SECTION
  2
CLASSES
  0
CLASS
  1
LWPOLYLINE
  2
AcDbPolyline
  3
"AutoCAD"
 90
        0
280
         0
281
         1
  0
CLASS
  1
IMAGE
  2
AcDbRasterImage
  3
ISM
 90
      127
280
         0
281
         1
  0
CLASS
  1
OLE2FRAME
  2
AcDbOle2Frame
  3
""
 90
        0
280
         0
281
         1
  0
CLASS
  1
HATCH
  2
AcDbHatch
  3
"ACAD_SEDONA"
 90
        0
280
         0
281
         1
  0
CLASS
  1
DICTIONARYVAR
  2
AcDbDictionaryVar
  3
"AutoCAD"
 90
        0
280
         0
281
         0
  0
CLASS
  1
RASTERVARIABLES
  2
AcDbRasterVariables
  3
ISM
 90
        0
280
         0
281
         0
  0
CLASS
  1
IMAGEDEF
  2
AcDbRasterImageDef
  3
ISM
 90
        0
280
         0
281
         0
  0
CLASS
  1
IMAGEDEF_REACTOR
  2
AcDbRasterImageDefReactor
  3
ISM
 90
        1
280
         0
281
         0
  0
CLASS
  1
IDBUFFER
  2
AcDbIdBuffer
  3
"Acad"
 90
        0
280
         0
281
         0
  0
CLASS
  1
SPATIAL_FILTER
  2
AcDbSpatialFilter
  3
"Acad"
 90
        0
280
         0
281
         0
  0
CLASS
  1
XRECORD
  2
AcDbXrecord
  3
"<Built In>"
 90
        0
280
         0
281
         0
  0
CLASS
  1
SORTENTSTABLE
  2
AcDbSortentsTable
  3
"AutoCAD"
 90
        0
280
         0
281
         0
  0
CLASS
  1
LAYER_INDEX
  2
AcDbLayerIndex
  3
"Acad"
 90
        0
280
         0
281
         0
  0
CLASS
  1
SPATIAL_INDEX
  2
AcDbSpatialIndex
  3
"Acad"
 90
        0
280
         0
281
         0
  0
CLASS
  1
OBJECT_PTR
  2
CAseDLPNTableRecord
  3
"ASE-LPNTableRecord"
 90
        1
280
         0
281
         0
  0
CLASS
  1
LAYOUT
  2
AcDbLayout
  3
"AutoCAD 2000"
 90
        1
280
         0
281
         0
  0
CLASS
  1
PLOTSETTINGS
  2
AcDbPlotSettings
  3
"AutoCAD 2000"
 90
        1
280
         0
281
         0
  0
CLASS
  1
ACDBDICTIONARYWDFLT
  2
AcDbDictionaryWithDefault
  3
"AutoCAD 2000"
 90
        1
280
         0
281
         0
  0
CLASS
  1
ACDBPLACEHOLDER
  2
AcDbPlaceHolder
  3
"AutoCAD 2000"
 90
        1
280
         0
281
         0
  0
CLASS
  1
VBA_PROJECT
  2
AcDbVbaProject
  3
"acadvba"
 90
        1
280
         0
281
         0
  0
CLASS
  1
WIPEOUT
  2
AcDbWipeout
  3
WipeOut|AutoCAD Express Tool|expresstools@autodesk.com
 90
      127
280
         0
281
         1
  0
CLASS
  1
WIPEOUTVARIABLES
  2
AcDbWipeoutVariables
  3
WipeOut|AutoCAD Express Tool|expresstools@autodesk.com
 90
        0
280
         0
281
         0
  0
CLASS
  1
RTEXT
  2
RText
  3
RText|AutoCAD Express Tool|expresstools@autodesk.com
 90
        0
280
         0
281
         1
  0
CLASS
  1
ARCALIGNEDTEXT
  2
AcDbArcAlignedText
  3
ATEXT|AutoCAD Express Tool|expresstools@autodesk.com
 90
        0
280
         0
281
         1
  0
ENDSEC
  0
SECTION
  2
TABLES
  0
TABLE
  2
VPORT
  5
7
100
AcDbSymbolTable
 70
         1
  0
VPORT
  5
15
100
AcDbSymbolTableRecord
100
AcDbViewportTableRecord
  2
*ACTIVE
 70
         0
 10
0.0
 20
0.0
 11
1.0
 21
1.0
 12
-9891.7661497173
 22
11893.2802710271
 13
0.0
 23
0.0
 14
1.0
 24
1.0
 15
0.0
 25
0.0
 16
0.0
 26
0.0
 36
1.0
 17
0.0
 27
0.0
 37
0.0
 40
445.8792409709
 41
1.9834619625
 42
50.0
 43
0.0
 44
0.0
 50
0.0
 51
0.0
 71
         0
 72
       100
 73
         1
 74
         1
 75
         0
 76
         0
 77
         0
 78
         0
  0
ENDTAB
  0
TABLE
  2
LTYPE
  5
4
100
AcDbSymbolTable
 70
         6
  0
LTYPE
  5
11
100
AcDbSymbolTableRecord
100
AcDbLinetypeTableRecord
  2
BYBLOCK
 70
        64
  3

 72
        65
 73
         0
 40
0.0
  0
LTYPE
  5
12
100
AcDbSymbolTableRecord
100
AcDbLinetypeTableRecord
  2
BYLAYER
 70
        64
  3

 72
        65
 73
         0
 40
0.0
  0
LTYPE
  5
13
100
AcDbSymbolTableRecord
100
AcDbLinetypeTableRecord
  2
CONTINUOUS
 70
        64
  3
Solid line
 72
        65
 73
         0
 40
0.0
  0
LTYPE
  5
1D
100
AcDbSymbolTableRecord
100
AcDbLinetypeTableRecord
  2
DASHED
 70
        64
  3
_ _ _ _ _ _ _ _ _ _ _ _ _ _ _ _
 72
        65
 73
         2
 40
0.2
 49
0.1
 74
         0
 49
-0.1
 74
         0
  0
LTYPE
  5
1E
100
AcDbSymbolTableRecord
100
AcDbLinetypeTableRecord
  2
CENTER
 70
        64
  3
___ _ ___ _ ___ _ ___ _ ___ _ ___ _ ___ _ ___ _
 72
        65
 73
         4
 40
0.95
 49
0.625
 74
         0
 49
-0.125
 74
         0
 49
0.075
 74
         0
 49
-0.125
 74
         0
  0
LTYPE
  5
1F
100
AcDbSymbolTableRecord
100
AcDbLinetypeTableRecord
  2
PHANTOM
 70
        64
  3
______  __  __  ______  __  __  ______  __  __  
 72
        65
 73
         6
 40
1.025
 49
0.625
 74
         0
 49
-0.125
 74
         0
 49
0.075
 74
         0
 49
-0.125
 74
         0
 49
0.075
 74
         0
 49
-0.125
 74
         0
  0
ENDTAB
  0
TABLE
  2
LAYER
  5
2
100
AcDbSymbolTable
 70
         6
  0
LAYER
  5
14
100
AcDbSymbolTableRecord
100
AcDbLayerTableRecord
  2
0
 70
         0
 62
         7
  6
CONTINUOUS
  0
LAYER
  5
21
100
AcDbSymbolTableRecord
100
AcDbLayerTableRecord
  2
_____U
 70
         1
 62
         7
  6
CONTINUOUS
  0
LAYER
  5
22
100
AcDbSymbolTableRecord
100
AcDbLayerTableRecord
  2
ERP__________T_____
 70
         1
 62
         7
  6
CONTINUOUS
  0
LAYER
  5
23
100
AcDbSymbolTableRecord
100
AcDbLayerTableRecord
  2
ERP______L________
 70
         1
 62
         7
  6
CONTINUOUS
  0
LAYER
  5
24
100
AcDbSymbolTableRecord
100
AcDbLayerTableRecord
  2
L1_
 70
         0
 62
         7
  6
CONTINUOUS
  0
LAYER
  5
109
100
AcDbSymbolTableRecord
100
AcDbLayerTableRecord
  2
DEFPOINTS
 70
         0
 62
        -7
  6
CONTINUOUS
  0
ENDTAB
  0
TABLE
  2
STYLE
  5
3
100
AcDbSymbolTable
 70
        22
  0
STYLE
  5
17
100
AcDbSymbolTableRecord
100
AcDbTextStyleTableRecord
  2
STANDARD
 70
         0
 40
0.0
 41
1.0
 50
0.0
 71
         0
 42
0.0
  3
txt
  4

  0
STYLE
  5
31
100
AcDbSymbolTableRecord
100
AcDbTextStyleTableRecord
  2
STSL
 70
         0
 40
1.0
 41
1.0
 50
0.0
 71
         0
 42
0.2
  3

  4
Stsl
  0
STYLE
  5
112
100
AcDbSymbolTableRecord
100
AcDbTextStyleTableRecord
  2
BOX
 70
         0
 40
1.0
 41
1.0
 50
0.0
 71
         0
 42
0.2
  3
txt.shx
  4

  0
STYLE
  5
16E
100
AcDbSymbolTableRecord
100
AcDbTextStyleTableRecord
  2
BOX
 70
         0
 40
1.0
 41
1.0
 50
0.0
 71
         0
 42
0.2
  3
txt.shx
  4

  0
STYLE
  5
17C
100
AcDbSymbolTableRecord
100
AcDbTextStyleTableRecord
  2
BOX
 70
         0
 40
1.0
 41
1.0
 50
0.0
 71
         0
 42
0.2
  3
txt.shx
  4

  0
STYLE
  5
18B
100
AcDbSymbolTableRecord
100
AcDbTextStyleTableRecord
  2
BOX
 70
         0
 40
1.0
 41
1.0
 50
0.0
 71
         0
 42
0.2
  3
txt.shx
  4

  0
STYLE
  5
199
100
AcDbSymbolTableRecord
100
AcDbTextStyleTableRecord
  2
BOX
 70
         0
 40
1.0
 41
1.0
 50
0.0
 71
         0
 42
0.2
  3
txt.shx
  4

  0
STYLE
  5
1CB
100
AcDbSymbolTableRecord
100
AcDbTextStyleTableRecord
  2
BOX
 70
         0
 40
1.0
 41
1.0
 50
0.0
 71
         0
 42
0.2
  3
txt.shx
  4

  0
STYLE
  5
1DB
100
AcDbSymbolTableRecord
100
AcDbTextStyleTableRecord
  2
BOX
 70
         0
 40
1.0
 41
1.0
 50
0.0
 71
         0
 42
0.2
  3
txt.shx
  4

  0
STYLE
  5
1E9
100
AcDbSymbolTableRecord
100
AcDbTextStyleTableRecord
  2
BOX
 70
         0
 40
1.0
 41
1.0
 50
0.0
 71
         0
 42
0.2
  3
txt.shx
  4

  0
STYLE
  5
202
100
AcDbSymbolTableRecord
100
AcDbTextStyleTableRecord
  2
BOX
 70
         0
 40
1.0
 41
1.0
 50
0.0
 71
         0
 42
0.2
  3
txt.shx
  4

  0
STYLE
  5
222
100
AcDbSymbolTableRecord
100
AcDbTextStyleTableRecord
  2
BOX
 70
         0
 40
1.0
 41
1.0
 50
0.0
 71
         0
 42
0.2
  3
txt.shx
  4

  0
STYLE
  5
230
100
AcDbSymbolTableRecord
100
AcDbTextStyleTableRecord
  2
BOX
 70
         0
 40
1.0
 41
1.0
 50
0.0
 71
         0
 42
0.2
  3
txt.shx
  4

  0
STYLE
  5
240
100
AcDbSymbolTableRecord
100
AcDbTextStyleTableRecord
  2
BOX
 70
         0
 40
1.0
 41
1.0
 50
0.0
 71
         0
 42
0.2
  3
txt.shx
  4

  0
STYLE
  5
256
100
AcDbSymbolTableRecord
100
AcDbTextStyleTableRecord
  2
BOX
 70
         0
 40
1.0
 41
1.0
 50
0.0
 71
         0
 42
0.2
  3
txt.shx
  4

  0
STYLE
  5
264
100
AcDbSymbolTableRecord
100
AcDbTextStyleTableRecord
  2
BOX
 70
         0
 40
1.0
 41
1.0
 50
0.0
 71
         0
 42
0.2
  3
txt.shx
  4

  0
STYLE
  5
2C6
100
AcDbSymbolTableRecord
100
AcDbTextStyleTableRecord
  2
BOX
 70
         0
 40
1.0
 41
1.0
 50
0.0
 71
         0
 42
0.2
  3
txt.shx
  4

  0
STYLE
  5
2D4
100
AcDbSymbolTableRecord
100
AcDbTextStyleTableRecord
  2
BOX
 70
         0
 40
1.0
 41
1.0
 50
0.0
 71
         0
 42
0.2
  3
txt.shx
  4

  0
STYLE
  5
534
100
AcDbSymbolTableRecord
100
AcDbTextStyleTableRecord
  2
BOX
 70
         0
 40
1.0
 41
1.0
 50
0.0
 71
         0
 42
0.2
  3
txt.shx
  4

  0
STYLE
  5
542
100
AcDbSymbolTableRecord
100
AcDbTextStyleTableRecord
  2
BOX
 70
         0
 40
1.0
 41
1.0
 50
0.0
 71
         0
 42
0.2
  3
txt.shx
  4

  0
STYLE
  5
550
100
AcDbSymbolTableRecord
100
AcDbTextStyleTableRecord
  2
BOX
 70
         0
 40
1.0
 41
1.0
 50
0.0
 71
         0
 42
0.2
  3
txt.shx
  4

  0
STYLE
  5
554
100
AcDbSymbolTableRecord
100
AcDbTextStyleTableRecord
  2
BOX
 70
         0
 40
1.0
 41
1.0
 50
0.0
 71
         0
 42
0.2
  3
txt.shx
  4

  0
ENDTAB
  0
TABLE
  2
VIEW
  5
5
100
AcDbSymbolTable
 70
         0
  0
ENDTAB
  0
TABLE
  2
UCS
  5
6
100
AcDbSymbolTable
 70
         1
  0
UCS
  5
20
100
AcDbSymbolTableRecord
100
AcDbUCSTableRecord
  2
CK_VIEW_1
 70
         0
 10
0.0
 20
0.0
 30
1.0
 11
1.0
 21
0.0
 31
0.0
 12
0.0
 22
1.0
 32
0.0
  0
ENDTAB
  0
TABLE
  2
APPID
  5
8
100
AcDbSymbolTable
 70
         1
  0
APPID
  5
16
100
AcDbSymbolTableRecord
100
AcDbRegAppTableRecord
  2
ACAD
 70
         0
  0
ENDTAB
  0
TABLE
  2
DIMSTYLE
  5
9
100
AcDbSymbolTable
 70
         2
  0
DIMSTYLE
105
18
100
AcDbSymbolTableRecord
100
AcDbDimStyleTableRecord
  2
STANDARD
 70
         0
  3

  4

  5

  6

  7

 40
1.0
 41
0.18
 42
0.0625
 43
0.38
 44
0.18
 45
0.0
 46
0.0
 47
0.0
 48
0.0
 71
         0
 72
         0
 73
         1
 74
         1
 75
         0
 76
         0
 77
         0
 78
         0
140
0.18
141
0.09
142
0.0
143
25.4
144
1.0
145
0.0
146
1.0
147
0.09
170
         0
171
         2
172
         0
173
         0
174
         0
175
         0
176
         0
177
         0
178
         0
270
         2
271
         4
272
         4
273
         2
274
         2
275
         0
280
         0
281
         0
282
         0
283
         1
284
         0
285
         0
286
         0
287
         0
288
         0
340
17
  0
DIMSTYLE
105
105
100
AcDbSymbolTableRecord
100
AcDbDimStyleTableRecord
  2
DIMSTYLE1
 70
         0
  3

  4

  5

  6

  7

 40
1.0
 41
3.5
 42
0.0625
 43
0.38
 44
3.5
 45
0.0
 46
0.0
 47
0.0
 48
0.0
 71
         0
 72
         0
 73
         1
 74
         1
 75
         0
 76
         0
 77
         0
 78
         0
140
3.5
141
0.09
142
0.0
143
25.4
144
1.0
145
0.0
146
1.0
147
0.09
170
         0
171
         2
172
         0
173
         0
174
         0
175
         0
176
         0
177
         0
178
         0
270
         2
271
         4
272
         4
273
         2
274
         2
275
         0
280
         0
281
         0
282
         0
283
         1
284
         0
285
         0
286
         0
287
         0
288
         0
340
17
  0
ENDTAB
  0
TABLE
  2
BLOCK_RECORD
  5
1
100
AcDbSymbolTable
 70
        24
  0
BLOCK_RECORD
  5
A
100
AcDbSymbolTableRecord
100
AcDbBlockTableRecord
  2
*MODEL_SPACE
  0
BLOCK_RECORD
  5
B
100
AcDbSymbolTableRecord
100
AcDbBlockTableRecord
  2
*PAPER_SPACE
  0
BLOCK_RECORD
  5
33
100
AcDbSymbolTableRecord
100
AcDbBlockTableRecord
  2
*X0
  0
BLOCK_RECORD
  5
BC
100
AcDbSymbolTableRecord
100
AcDbBlockTableRecord
  2
*X1
  0
BLOCK_RECORD
  5
DE
100
AcDbSymbolTableRecord
100
AcDbBlockTableRecord
  2
*X2
  0
BLOCK_RECORD
  5
106
100
AcDbSymbolTableRecord
100
AcDbBlockTableRecord
  2
*D3
  0
BLOCK_RECORD
  5
115
100
AcDbSymbolTableRecord
100
AcDbBlockTableRecord
  2
*X4
  0
BLOCK_RECORD
  5
163
100
AcDbSymbolTableRecord
100
AcDbBlockTableRecord
  2
*D5
  0
BLOCK_RECORD
  5
171
100
AcDbSymbolTableRecord
100
AcDbBlockTableRecord
  2
*D6
  0
BLOCK_RECORD
  5
17F
100
AcDbSymbolTableRecord
100
AcDbBlockTableRecord
  2
*D7
  0
BLOCK_RECORD
  5
18E
100
AcDbSymbolTableRecord
100
AcDbBlockTableRecord
  2
*D8
  0
BLOCK_RECORD
  5
1BE
100
AcDbSymbolTableRecord
100
AcDbBlockTableRecord
  2
*D9
  0
BLOCK_RECORD
  5
1CE
100
AcDbSymbolTableRecord
100
AcDbBlockTableRecord
  2
*D10
  0
BLOCK_RECORD
  5
1DE
100
AcDbSymbolTableRecord
100
AcDbBlockTableRecord
  2
*D11
  0
BLOCK_RECORD
  5
1F7
100
AcDbSymbolTableRecord
100
AcDbBlockTableRecord
  2
*D12
  0
BLOCK_RECORD
  5
217
100
AcDbSymbolTableRecord
100
AcDbBlockTableRecord
  2
*D13
  0
BLOCK_RECORD
  5
225
100
AcDbSymbolTableRecord
100
AcDbBlockTableRecord
  2
*D14
  0
BLOCK_RECORD
  5
235
100
AcDbSymbolTableRecord
100
AcDbBlockTableRecord
  2
*D15
  0
BLOCK_RECORD
  5
24B
100
AcDbSymbolTableRecord
100
AcDbBlockTableRecord
  2
*D16
  0
BLOCK_RECORD
  5
259
100
AcDbSymbolTableRecord
100
AcDbBlockTableRecord
  2
*D17
  0
BLOCK_RECORD
  5
26E
100
AcDbSymbolTableRecord
100
AcDbBlockTableRecord
  2
*X18
  0
BLOCK_RECORD
  5
2B9
100
AcDbSymbolTableRecord
100
AcDbBlockTableRecord
  2
*D19
  0
BLOCK_RECORD
  5
2C9
100
AcDbSymbolTableRecord
100
AcDbBlockTableRecord
  2
*D20
  0
BLOCK_RECORD
  5
529
100
AcDbSymbolTableRecord
100
AcDbBlockTableRecord
  2
*D21
  0
BLOCK_RECORD
  5
537
100
AcDbSymbolTableRecord
100
AcDbBlockTableRecord
  2
*D22
  0
BLOCK_RECORD
  5
545
100
AcDbSymbolTableRecord
100
AcDbBlockTableRecord
  2
*D23
  0
ENDTAB
  0
ENDSEC
  0
SECTION
  2
BLOCKS
  0
BLOCK
  5
D
100
AcDbEntity
  8
0
100
AcDbBlockBegin
  2
*MODEL_SPACE
 70
         0
 10
0.0
 20
0.0
 30
0.0
  3
*MODEL_SPACE
  1

  0
ENDBLK
  5
E
100
AcDbEntity
  8
0
100
AcDbBlockEnd
  0
BLOCK
  5
F
100
AcDbEntity
 67
         1
  8
0
100
AcDbBlockBegin
  2
*PAPER_SPACE
 70
         0
 10
0.0
 20
0.0
 30
0.0
  3
*PAPER_SPACE
  1

  0
ENDBLK
  5
10
100
AcDbEntity
 67
         1
  8
0
100
AcDbBlockEnd
  0
BLOCK
  5
34
100
AcDbEntity
  8
0
100
AcDbBlockBegin
  2
*X0
 70
        65
 10
0.0
 20
0.0
 30
0.0
  3
*X0
  1

  0
LINE
  5
35
100
AcDbEntity
  8
L1_
  6
CONTINUOUS
 62
         4
100
AcDbLine
 10
-9817.1526027729
 20
11728.6478887676
 30
0.0
 11
-9814.0323193405
 21
11731.7681722
 31
0.0
  0
LINE
  5
36
100
AcDbEntity
  8
L1_
  6
CONTINUOUS
 62
         4
100
AcDbLine
 10
-9821.39524346
 20
11728.6478887676
 30
0.0
 11
-9817.8836425457
 21
11732.1594896819
 31
0.0
  0
LINE
  5
37
100
AcDbEntity
  8
L1_
  6
CONTINUOUS
 62
         4
100
AcDbLine
 10
-9828.6778841471
 20
11725.6078887676
 30
0.0
 11
-9827.5705485269
 21
11726.7152243878
 31
0.0
  0
LINE
  5
38
100
AcDbEntity
  8
L1_
  6
CONTINUOUS
 62
         4
100
AcDbLine
 10
-9825.6378841471
 20
11728.6478887676
 30
0.0
 11
-9821.8489985305
 21
11732.4367743842
 31
0.0
  0
LINE
  5
39
100
AcDbEntity
  8
L1_
  6
CONTINUOUS
 62
         4
100
AcDbLine
 10
-9832.9205248342
 20
11725.6078887676
 30
0.0
 11
-9825.8143545154
 21
11732.7140590864
 31
0.0
  0
LINE
  5
3A
100
AcDbEntity
  8
L1_
  6
CONTINUOUS
 62
         4
100
AcDbLine
 10
-9837.1631655214
 20
11725.6078887676
 30
0.0
 11
-9829.7797105003
 21
11732.9913437887
 31
0.0
  0
LINE
  5
3B
100
AcDbEntity
  8
L1_
  6
CONTINUOUS
 62
         4
100
AcDbLine
 10
-9816.0892933145
 20
11746.6817609745
 30
0.0
 11
-9813.7107562489
 21
11749.0602980401
 31
0.0
  0
LINE
  5
3C
100
AcDbEntity
  8
L1_
  6
CONTINUOUS
 62
         4
100
AcDbLine
 10
-9841.4058062085
 20
11725.6078887676
 30
0.0
 11
-9833.7558062085
 21
11733.2578887676
 31
0.0
  0
LINE
  5
3D
100
AcDbEntity
  8
L1_
  6
CONTINUOUS
 62
         4
100
AcDbLine
 10
-9820.6509135628
 20
11746.3627814132
 30
0.0
 11
-9816.9458062085
 21
11750.0678887676
 31
0.0
  0
LINE
  5
3E
100
AcDbEntity
  8
L1_
  6
CONTINUOUS
 62
         4
100
AcDbLine
 10
-9845.6484468956
 20
11725.6078887676
 30
0.0
 11
-9837.9984468956
 21
11733.2578887676
 31
0.0
  0
LINE
  5
3F
100
AcDbEntity
  8
L1_
  6
CONTINUOUS
 62
         4
100
AcDbLine
 10
-9825.2125338112
 20
11746.043801852
 30
0.0
 11
-9821.1884468956
 21
11750.0678887676
 31
0.0
  0
LINE
  5
40
100
AcDbEntity
  8
L1_
  6
CONTINUOUS
 62
         4
100
AcDbLine
 10
-9849.8910875827
 20
11725.6078887676
 30
0.0
 11
-9841.5710875827
 21
11733.9278887676
 31
0.0
  0
LINE
  5
41
100
AcDbEntity
  8
L1_
  6
CONTINUOUS
 62
         4
100
AcDbLine
 10
-9829.7741540596
 20
11745.7248222907
 30
0.0
 11
-9825.4310875827
 21
11750.0678887676
 31
0.0
  0
LINE
  5
42
100
AcDbEntity
  8
L1_
  6
CONTINUOUS
 62
         4
100
AcDbLine
 10
-9854.1337282698
 20
11725.6078887676
 30
0.0
 11
-9845.8137282698
 21
11733.9278887676
 31
0.0
  0
LINE
  5
43
100
AcDbEntity
  8
L1_
  6
CONTINUOUS
 62
         4
100
AcDbLine
 10
-9834.2837282698
 20
11745.4578887676
 30
0.0
 11
-9827.5705485269
 21
11752.1710685105
 31
0.0
  0
LINE
  5
44
100
AcDbEntity
  8
L1_
  6
CONTINUOUS
 62
         4
100
AcDbLine
 10
-9858.376368957
 20
11725.6078887676
 30
0.0
 11
-9850.056368957
 21
11733.9278887676
 31
0.0
  0
LINE
  5
45
100
AcDbEntity
  8
L1_
  6
CONTINUOUS
 62
         4
100
AcDbLine
 10
-9838.526368957
 20
11745.4578887676
 30
0.0
 11
-9830.876368957
 21
11753.1078887676
 31
0.0
  0
LINE
  5
46
100
AcDbEntity
  8
L1_
  6
CONTINUOUS
 62
         4
100
AcDbLine
 10
-9897.6190096441
 20
11690.6078887676
 30
0.0
 11
-9895.7705485269
 21
11692.4563498848
 31
0.0
  0
LINE
  5
47
100
AcDbEntity
  8
L1_
  6
CONTINUOUS
 62
         4
100
AcDbLine
 10
-9883.7940096441
 20
11704.4328887676
 30
0.0
 11
-9879.8185485269
 21
11708.4083498848
 31
0.0
  0
LINE
  5
48
100
AcDbEntity
  8
L1_
  6
CONTINUOUS
 62
         4
100
AcDbLine
 10
-9862.6190096441
 20
11725.6078887676
 30
0.0
 11
-9854.2990096441
 21
11733.9278887676
 31
0.0
  0
LINE
  5
49
100
AcDbEntity
  8
L1_
  6
CONTINUOUS
 62
         4
100
AcDbLine
 10
-9843.4390096441
 20
11744.7878887676
 30
0.0
 11
-9835.1190096441
 21
11753.1078887676
 31
0.0
  0
LINE
  5
4A
100
AcDbEntity
  8
L1_
  6
CONTINUOUS
 62
         4
100
AcDbLine
 10
-9900.8299376958
 20
11691.6396014029
 30
0.0
 11
-9895.7705485269
 21
11696.6989905719
 31
0.0
  0
LINE
  5
4B
100
AcDbEntity
  8
L1_
  6
CONTINUOUS
 62
         4
100
AcDbLine
 10
-9888.0366503312
 20
11704.4328887676
 30
0.0
 11
-9879.8185485269
 21
11712.6509905719
 31
0.0
  0
LINE
  5
4C
100
AcDbEntity
  8
L1_
  6
CONTINUOUS
 62
         4
100
AcDbLine
 10
-9866.8616503312
 20
11725.6078887676
 30
0.0
 11
-9858.5416503312
 21
11733.9278887676
 31
0.0
  0
LINE
  5
4D
100
AcDbEntity
  8
L1_
  6
CONTINUOUS
 62
         4
100
AcDbLine
 10
-9847.6816503312
 20
11744.7878887676
 30
0.0
 11
-9839.3616503312
 21
11753.1078887676
 31
0.0
  0
LINE
  5
4E
100
AcDbEntity
  8
L1_
  6
CONTINUOUS
 62
         4
100
AcDbLine
 10
-9902.9792910183
 20
11693.7328887676
 30
0.0
 11
-9895.7705485269
 21
11700.941631259
 31
0.0
  0
LINE
  5
4F
100
AcDbEntity
  8
L1_
  6
CONTINUOUS
 62
         4
100
AcDbLine
 10
-9892.2792910183
 20
11704.4328887676
 30
0.0
 11
-9879.8185485269
 21
11716.893631259
 31
0.0
  0
LINE
  5
50
100
AcDbEntity
  8
L1_
  6
CONTINUOUS
 62
         4
100
AcDbLine
 10
-9871.1042910183
 20
11725.6078887676
 30
0.0
 11
-9862.7842910183
 21
11733.9278887676
 31
0.0
  0
LINE
  5
51
100
AcDbEntity
  8
L1_
  6
CONTINUOUS
 62
         4
100
AcDbLine
 10
-9851.9242910183
 20
11744.7878887676
 30
0.0
 11
-9843.6042910183
 21
11753.1078887676
 31
0.0
  0
LINE
  5
52
100
AcDbEntity
  8
L1_
  6
CONTINUOUS
 62
         4
100
AcDbLine
 10
-9910.3376005552
 20
11690.6172199178
 30
0.0
 11
-9879.8185485269
 21
11721.1362719461
 31
0.0
  0
LINE
  5
53
100
AcDbEntity
  8
L1_
  6
CONTINUOUS
 62
         4
100
AcDbLine
 10
-9875.3469317054
 20
11725.6078887676
 30
0.0
 11
-9867.0269317054
 21
11733.9278887676
 31
0.0
  0
LINE
  5
54
100
AcDbEntity
  8
L1_
  6
CONTINUOUS
 62
         4
100
AcDbLine
 10
-9856.1669317054
 20
11744.7878887676
 30
0.0
 11
-9847.8469317054
 21
11753.1078887676
 31
0.0
  0
LINE
  5
55
100
AcDbEntity
  8
L1_
  6
CONTINUOUS
 62
         4
100
AcDbLine
 10
-9911.6705485269
 20
11693.5269126332
 30
0.0
 11
-9871.2695723926
 21
11733.9278887676
 31
0.0
  0
LINE
  5
56
100
AcDbEntity
  8
L1_
  6
CONTINUOUS
 62
         4
100
AcDbLine
 10
-9860.4095723925
 20
11744.7878887676
 30
0.0
 11
-9852.0895723925
 21
11753.1078887676
 31
0.0
  0
LINE
  5
57
100
AcDbEntity
  8
L1_
  6
CONTINUOUS
 62
         4
100
AcDbLine
 10
-9911.6705485269
 20
11697.7695533204
 30
0.0
 11
-9875.5122130797
 21
11733.9278887676
 31
0.0
  0
LINE
  5
58
100
AcDbEntity
  8
L1_
  6
CONTINUOUS
 62
         4
100
AcDbLine
 10
-9864.6522130797
 20
11744.7878887676
 30
0.0
 11
-9856.3322130797
 21
11753.1078887676
 31
0.0
  0
LINE
  5
59
100
AcDbEntity
  8
L1_
  6
CONTINUOUS
 62
         4
100
AcDbLine
 10
-9911.6705485269
 20
11702.0121940075
 30
0.0
 11
-9879.7548537668
 21
11733.9278887676
 31
0.0
  0
LINE
  5
5A
100
AcDbEntity
  8
L1_
  6
CONTINUOUS
 62
         4
100
AcDbLine
 10
-9868.8948537668
 20
11744.7878887676
 30
0.0
 11
-9860.5748537668
 21
11753.1078887676
 31
0.0
  0
LINE
  5
5B
100
AcDbEntity
  8
L1_
  6
CONTINUOUS
 62
         4
100
AcDbLine
 10
-9913.6674961015
 20
11704.25788712
 30
0.0
 11
-9883.9974944539
 21
11733.9278887676
 31
0.0
  0
LINE
  5
5C
100
AcDbEntity
  8
L1_
  6
CONTINUOUS
 62
         4
100
AcDbLine
 10
-9873.1374944539
 20
11744.7878887676
 30
0.0
 11
-9864.8174944539
 21
11753.1078887676
 31
0.0
  0
LINE
  5
5D
100
AcDbEntity
  8
L1_
  6
CONTINUOUS
 62
         4
100
AcDbLine
 10
-9917.3705483944
 20
11704.7974755142
 30
0.0
 11
-9888.240135141
 21
11733.9278887676
 31
0.0
  0
LINE
  5
5E
100
AcDbEntity
  8
L1_
  6
CONTINUOUS
 62
         4
100
AcDbLine
 10
-9877.380135141
 20
11744.7878887676
 30
0.0
 11
-9869.060135141
 21
11753.1078887676
 31
0.0
  0
LINE
  5
5F
100
AcDbEntity
  8
L1_
  6
CONTINUOUS
 62
         4
100
AcDbLine
 10
-9921.0732121937
 20
11705.3374524021
 30
0.0
 11
-9892.4827758281
 21
11733.9278887676
 31
0.0
  0
LINE
  5
60
100
AcDbEntity
  8
L1_
  6
CONTINUOUS
 62
         4
100
AcDbLine
 10
-9881.6227758281
 20
11744.7878887676
 30
0.0
 11
-9873.3027758281
 21
11753.1078887676
 31
0.0
  0
LINE
  5
61
100
AcDbEntity
  8
L1_
  6
CONTINUOUS
 62
         4
100
AcDbLine
 10
-9924.7758759929
 20
11705.8774292899
 30
0.0
 11
-9901.6917579787
 21
11728.9615473042
 31
0.0
  0
LINE
  5
62
100
AcDbEntity
  8
L1_
  6
CONTINUOUS
 62
         4
100
AcDbLine
 10
-9901.1620264902
 20
11729.4912787926
 30
0.0
 11
-9896.7254165153
 21
11733.9278887676
 31
0.0
  0
LINE
  5
63
100
AcDbEntity
  8
L1_
  6
CONTINUOUS
 62
         4
100
AcDbLine
 10
-9885.8654165153
 20
11744.7878887676
 30
0.0
 11
-9877.4731323513
 21
11753.1801729315
 31
0.0
  0
LINE
  5
64
100
AcDbEntity
  8
L1_
  6
CONTINUOUS
 62
         4
100
AcDbLine
 10
-9928.4785397921
 20
11706.4174061778
 30
0.0
 11
-9905.9343986658
 21
11728.9615473042
 31
0.0
  0
LINE
  5
65
100
AcDbEntity
  8
L1_
  6
CONTINUOUS
 62
         4
100
AcDbLine
 10
-9890.1080572024
 20
11744.7878887676
 30
0.0
 11
-9879.6822011839
 21
11755.213744786
 31
0.0
  0
LINE
  5
66
100
AcDbEntity
  8
L1_
  6
CONTINUOUS
 62
         4
100
AcDbLine
 10
-9932.1812035913
 20
11706.9573830657
 30
0.0
 11
-9910.1770393529
 21
11728.9615473042
 31
0.0
  0
LINE
  5
67
100
AcDbEntity
  8
L1_
  6
CONTINUOUS
 62
         4
100
AcDbLine
 10
-9894.3506978895
 20
11744.7878887676
 30
0.0
 11
-9879.8185485269
 21
11759.3200381302
 31
0.0
  0
LINE
  5
68
100
AcDbEntity
  8
L1_
  6
CONTINUOUS
 62
         4
100
AcDbLine
 10
-9935.8838673906
 20
11707.4973599536
 30
0.0
 11
-9914.41968004
 21
11728.9615473042
 31
0.0
  0
LINE
  5
69
100
AcDbEntity
  8
L1_
  6
CONTINUOUS
 62
         4
100
AcDbLine
 10
-9898.5933385766
 20
11744.7878887676
 30
0.0
 11
-9879.8185485269
 21
11763.5626788173
 31
0.0
  0
LINE
  5
6A
100
AcDbEntity
  8
L1_
  6
CONTINUOUS
 62
         4
100
AcDbLine
 10
-9939.5865311898
 20
11708.0373368415
 30
0.0
 11
-9918.6623207272
 21
11728.9615473042
 31
0.0
  0
LINE
  5
6B
100
AcDbEntity
  8
L1_
  6
CONTINUOUS
 62
         4
100
AcDbLine
 10
-9900.1508237725
 20
11747.4730442588
 30
0.0
 11
-9879.8185485269
 21
11767.8053195044
 31
0.0
  0
LINE
  5
6C
100
AcDbEntity
  8
L1_
  6
CONTINUOUS
 62
         4
100
AcDbLine
 10
-9943.289194989
 20
11708.5773137294
 30
0.0
 11
-9922.9049614143
 21
11728.9615473042
 31
0.0
  0
LINE
  5
6D
100
AcDbEntity
  8
L1_
  6
CONTINUOUS
 62
         4
100
AcDbLine
 10
-9902.1122784874
 20
11749.754230231
 30
0.0
 11
-9879.8185485269
 21
11772.0479601916
 31
0.0
  0
LINE
  5
6E
100
AcDbEntity
  8
L1_
  6
CONTINUOUS
 62
         4
100
AcDbLine
 10
-9946.9918587882
 20
11709.1172906173
 30
0.0
 11
-9927.1476021014
 21
11728.9615473042
 31
0.0
  0
LINE
  5
6F
100
AcDbEntity
  8
L1_
  6
CONTINUOUS
 62
         4
100
AcDbLine
 10
-9906.3549191746
 20
11749.754230231
 30
0.0
 11
-9905.4205485269
 21
11750.6886008787
 31
0.0
  0
LINE
  5
70
100
AcDbEntity
  8
L1_
  6
CONTINUOUS
 62
         4
100
AcDbLine
 10
-9902.1205485269
 20
11753.9886008787
 30
0.0
 11
-9881.826260638
 21
11774.2828887676
 31
0.0
  0
LINE
  5
71
100
AcDbEntity
  8
L1_
  6
CONTINUOUS
 62
         4
100
AcDbLine
 10
-9950.6945225875
 20
11709.6572675052
 30
0.0
 11
-9931.3902427885
 21
11728.9615473042
 31
0.0
  0
LINE
  5
72
100
AcDbEntity
  8
L1_
  6
CONTINUOUS
 62
         4
100
AcDbLine
 10
-9910.5975598617
 20
11749.754230231
 30
0.0
 11
-9905.4205485269
 21
11754.9312415658
 31
0.0
  0
LINE
  5
73
100
AcDbEntity
  8
L1_
  6
CONTINUOUS
 62
         4
100
AcDbLine
 10
-9902.1205485269
 20
11758.2312415658
 30
0.0
 11
-9886.0689013251
 21
11774.2828887676
 31
0.0
  0
LINE
  5
74
100
AcDbEntity
  8
L1_
  6
CONTINUOUS
 62
         4
100
AcDbLine
 10
-9954.3971863867
 20
11710.1972443931
 30
0.0
 11
-9935.6328834756
 21
11728.9615473042
 31
0.0
  0
LINE
  5
75
100
AcDbEntity
  8
L1_
  6
CONTINUOUS
 62
         4
100
AcDbLine
 10
-9914.8402005488
 20
11749.754230231
 30
0.0
 11
-9905.4205485269
 21
11759.1738822529
 31
0.0
  0
LINE
  5
76
100
AcDbEntity
  8
L1_
  6
CONTINUOUS
 62
         4
100
AcDbLine
 10
-9902.1205485269
 20
11762.4738822529
 30
0.0
 11
-9890.3115420122
 21
11774.2828887676
 31
0.0
  0
LINE
  5
77
100
AcDbEntity
  8
L1_
  6
CONTINUOUS
 62
         4
100
AcDbLine
 10
-9958.0998501859
 20
11710.737221281
 30
0.0
 11
-9939.8755241628
 21
11728.9615473042
 31
0.0
  0
LINE
  5
78
100
AcDbEntity
  8
L1_
  6
CONTINUOUS
 62
         4
100
AcDbLine
 10
-9919.0828412359
 20
11749.754230231
 30
0.0
 11
-9905.4205485269
 21
11763.41652294
 31
0.0
  0
LINE
  5
79
100
AcDbEntity
  8
L1_
  6
CONTINUOUS
 62
         4
100
AcDbLine
 10
-9902.1205485269
 20
11766.71652294
 30
0.0
 11
-9894.5541826993
 21
11774.2828887676
 31
0.0
  0
LINE
  5
7A
100
AcDbEntity
  8
L1_
  6
CONTINUOUS
 62
         4
100
AcDbLine
 10
-9961.8025139851
 20
11711.2771981689
 30
0.0
 11
-9944.1181648499
 21
11728.9615473042
 31
0.0
  0
LINE
  5
7B
100
AcDbEntity
  8
L1_
  6
CONTINUOUS
 62
         4
100
AcDbLine
 10
-9923.325481923
 20
11749.754230231
 30
0.0
 11
-9905.4205485269
 21
11767.6591636272
 31
0.0
  0
LINE
  5
7C
100
AcDbEntity
  8
L1_
  6
CONTINUOUS
 62
         4
100
AcDbLine
 10
-9902.1205485269
 20
11770.9591636272
 30
0.0
 11
-9900.3949413749
 21
11772.6847707791
 31
0.0
  0
LINE
  5
7D
100
AcDbEntity
  8
L1_
  6
CONTINUOUS
 62
         4
100
AcDbLine
 10
-9899.694003578
 20
11773.3857085761
 30
0.0
 11
-9895.7705485269
 21
11777.3091636272
 31
0.0
  0
LINE
  5
7E
100
AcDbEntity
  8
L1_
  6
CONTINUOUS
 62
         4
100
AcDbLine
 10
-9965.5051777844
 20
11711.8171750568
 30
0.0
 11
-9948.360805537
 21
11728.9615473042
 31
0.0
  0
LINE
  5
7F
100
AcDbEntity
  8
L1_
  6
CONTINUOUS
 62
         4
100
AcDbLine
 10
-9927.5681226102
 20
11749.754230231
 30
0.0
 11
-9905.4205485269
 21
11771.9018043143
 31
0.0
  0
LINE
  5
80
100
AcDbEntity
  8
L1_
  6
CONTINUOUS
 62
         4
100
AcDbLine
 10
-9900.6377654674
 20
11776.6845873738
 30
0.0
 11
-9895.7705485269
 21
11781.5518043143
 31
0.0
  0
LINE
  5
81
100
AcDbEntity
  8
L1_
  6
CONTINUOUS
 62
         4
100
AcDbLine
 10
-9969.2078415836
 20
11712.3571519447
 30
0.0
 11
-9952.6034462241
 21
11728.9615473042
 31
0.0
  0
LINE
  5
82
100
AcDbEntity
  8
L1_
  6
CONTINUOUS
 62
         4
100
AcDbLine
 10
-9931.8107632973
 20
11749.754230231
 30
0.0
 11
-9906.7232070375
 21
11774.8417864907
 31
0.0
  0
LINE
  5
83
100
AcDbEntity
  8
L1_
  6
CONTINUOUS
 62
         4
100
AcDbLine
 10
-9902.1205485269
 20
11779.4444450014
 30
0.0
 11
-9895.7705485269
 21
11785.7944450014
 31
0.0
  0
LINE
  5
84
100
AcDbEntity
  8
L1_
  6
CONTINUOUS
 62
         4
100
AcDbLine
 10
-9972.9105053828
 20
11712.8971288326
 30
0.0
 11
-9956.8460869112
 21
11728.9615473042
 31
0.0
  0
LINE
  5
85
100
AcDbEntity
  8
L1_
  6
CONTINUOUS
 62
         4
100
AcDbLine
 10
-9936.0534039844
 20
11749.754230231
 30
0.0
 11
-9909.2185733924
 21
11776.589060823
 31
0.0
  0
LINE
  5
86
100
AcDbEntity
  8
L1_
  6
CONTINUOUS
 62
         4
100
AcDbLine
 10
-9905.6284981771
 20
11780.1791360383
 30
0.0
 11
-9905.4205485269
 21
11780.3870856885
 31
0.0
  0
LINE
  5
87
100
AcDbEntity
  8
L1_
  6
CONTINUOUS
 62
         4
100
AcDbLine
 10
-9901.7705485269
 20
11784.0370856885
 30
0.0
 11
-9897.6997454478
 21
11788.1078887676
 31
0.0
  0
LINE
  5
88
100
AcDbEntity
  8
L1_
  6
CONTINUOUS
 62
         4
100
AcDbLine
 10
-9976.613169182
 20
11713.4371057205
 30
0.0
 11
-9961.0887275983
 21
11728.9615473042
 31
0.0
  0
LINE
  5
89
100
AcDbEntity
  8
L1_
  6
CONTINUOUS
 62
         4
100
AcDbLine
 10
-9940.2960446715
 20
11749.754230231
 30
0.0
 11
-9915.9205064387
 21
11774.1297684638
 31
0.0
  0
LINE
  5
8A
100
AcDbEntity
  8
L1_
  6
CONTINUOUS
 62
         4
100
AcDbLine
 10
-9908.1238645319
 20
11781.9264103706
 30
0.0
 11
-9905.7705485269
 21
11784.2797263756
 31
0.0
  0
LINE
  5
8B
100
AcDbEntity
  8
L1_
  6
CONTINUOUS
 62
         4
100
AcDbLine
 10
-9980.3158329813
 20
11713.9770826084
 30
0.0
 11
-9965.3313682855
 21
11728.9615473042
 31
0.0
  0
LINE
  5
8C
100
AcDbEntity
  8
L1_
  6
CONTINUOUS
 62
         4
100
AcDbLine
 10
-9944.5386853586
 20
11749.754230231
 30
0.0
 11
-9920.887508398
 21
11773.4054071916
 31
0.0
  0
LINE
  5
8D
100
AcDbEntity
  8
L1_
  6
CONTINUOUS
 62
         4
100
AcDbLine
 10
-9910.2243226131
 20
11784.0685929765
 30
0.0
 11
-9906.896214518
 21
11787.3967010717
 31
0.0
  0
LINE
  5
8E
100
AcDbEntity
  8
L1_
  6
CONTINUOUS
 62
         4
100
AcDbLine
 10
-9984.0184967805
 20
11714.5170594963
 30
0.0
 11
-9969.5740089726
 21
11728.9615473042
 31
0.0
  0
LINE
  5
8F
100
AcDbEntity
  8
L1_
  6
CONTINUOUS
 62
         4
100
AcDbLine
 10
-9948.7813260458
 20
11749.754230231
 30
0.0
 11
-9925.8545103573
 21
11772.6810459194
 31
0.0
  0
LINE
  5
90
100
AcDbEntity
  8
L1_
  6
CONTINUOUS
 62
         4
100
AcDbLine
 10
-9911.643358151
 20
11786.8921981258
 30
0.0
 11
-9910.4548578851
 21
11788.0806983917
 31
0.0
  0
LINE
  5
91
100
AcDbEntity
  8
L1_
  6
CONTINUOUS
 62
         4
100
AcDbLine
 10
-9987.7211605797
 20
11715.0570363842
 30
0.0
 11
-9973.8166496597
 21
11728.9615473042
 31
0.0
  0
LINE
  5
92
100
AcDbEntity
  8
L1_
  6
CONTINUOUS
 62
         4
100
AcDbLine
 10
-9953.0239667329
 20
11749.754230231
 30
0.0
 11
-9930.8215123167
 21
11771.9566846472
 31
0.0
  0
LINE
  5
93
100
AcDbEntity
  8
L1_
  6
CONTINUOUS
 62
         4
100
AcDbLine
 10
-9991.4238243789
 20
11715.5970132721
 30
0.0
 11
-9978.0592903468
 21
11728.9615473042
 31
0.0
  0
LINE
  5
94
100
AcDbEntity
  8
L1_
  6
CONTINUOUS
 62
         4
100
AcDbLine
 10
-9957.26660742
 20
11749.754230231
 30
0.0
 11
-9935.788514276
 21
11771.232323375
 31
0.0
  0
LINE
  5
95
100
AcDbEntity
  8
L1_
  6
CONTINUOUS
 62
         4
100
AcDbLine
 10
-9995.1264881782
 20
11716.13699016
 30
0.0
 11
-9982.3019310339
 21
11728.9615473042
 31
0.0
  0
LINE
  5
96
100
AcDbEntity
  8
L1_
  6
CONTINUOUS
 62
         4
100
AcDbLine
 10
-9961.5092481071
 20
11749.754230231
 30
0.0
 11
-9940.7555162353
 21
11770.5079621028
 31
0.0
  0
LINE
  5
97
100
AcDbEntity
  8
L1_
  6
CONTINUOUS
 62
         4
100
AcDbLine
 10
-9998.8291519774
 20
11716.6769670478
 30
0.0
 11
-9986.5445717211
 21
11728.9615473042
 31
0.0
  0
LINE
  5
98
100
AcDbEntity
  8
L1_
  6
CONTINUOUS
 62
         4
100
AcDbLine
 10
-9965.7518887942
 20
11749.754230231
 30
0.0
 11
-9945.7225181947
 21
11769.7836008306
 31
0.0
  0
LINE
  5
99
100
AcDbEntity
  8
L1_
  6
CONTINUOUS
 62
         4
100
AcDbLine
 10
-10002.5318157766
 20
11717.2169439357
 30
0.0
 11
-9990.7872124082
 21
11728.9615473042
 31
0.0
  0
LINE
  5
9A
100
AcDbEntity
  8
L1_
  6
CONTINUOUS
 62
         4
100
AcDbLine
 10
-9969.9945294814
 20
11749.754230231
 30
0.0
 11
-9950.689520154
 21
11769.0592395584
 31
0.0
  0
LINE
  5
9B
100
AcDbEntity
  8
L1_
  6
CONTINUOUS
 62
         4
100
AcDbLine
 10
-10006.2344795758
 20
11717.7569208236
 30
0.0
 11
-9995.0298530953
 21
11728.9615473042
 31
0.0
  0
LINE
  5
9C
100
AcDbEntity
  8
L1_
  6
CONTINUOUS
 62
         4
100
AcDbLine
 10
-9974.2371701685
 20
11749.754230231
 30
0.0
 11
-9955.6565221133
 21
11768.3348782862
 31
0.0
  0
LINE
  5
9D
100
AcDbEntity
  8
L1_
  6
CONTINUOUS
 62
         4
100
AcDbLine
 10
-10009.9371433751
 20
11718.2968977115
 30
0.0
 11
-9999.2724937824
 21
11728.9615473042
 31
0.0
  0
LINE
  5
9E
100
AcDbEntity
  8
L1_
  6
CONTINUOUS
 62
         4
100
AcDbLine
 10
-9978.4798108556
 20
11749.754230231
 30
0.0
 11
-9960.6235240726
 21
11767.610517014
 31
0.0
  0
LINE
  5
9F
100
AcDbEntity
  8
L1_
  6
CONTINUOUS
 62
         4
100
AcDbLine
 10
-10013.6398071743
 20
11718.8368745994
 30
0.0
 11
-10003.5151344695
 21
11728.9615473042
 31
0.0
  0
LINE
  5
A0
100
AcDbEntity
  8
L1_
  6
CONTINUOUS
 62
         4
100
AcDbLine
 10
-9982.7224515427
 20
11749.754230231
 30
0.0
 11
-9965.590526032
 21
11766.8861557417
 31
0.0
  0
LINE
  5
A1
100
AcDbEntity
  8
L1_
  6
CONTINUOUS
 62
         4
100
AcDbLine
 10
-10016.2756063777
 20
11720.4437160832
 30
0.0
 11
-10007.7577751567
 21
11728.9615473042
 31
0.0
  0
LINE
  5
A2
100
AcDbEntity
  8
L1_
  6
CONTINUOUS
 62
         4
100
AcDbLine
 10
-9986.9650922298
 20
11749.754230231
 30
0.0
 11
-9970.5575279913
 21
11766.1617944695
 31
0.0
  0
LINE
  5
A3
100
AcDbEntity
  8
L1_
  6
CONTINUOUS
 62
         4
100
AcDbLine
 10
-10016.4705485269
 20
11724.4914146211
 30
0.0
 11
-10014.1040743804
 21
11726.8578887676
 31
0.0
  0
LINE
  5
A4
100
AcDbEntity
  8
L1_
  6
CONTINUOUS
 62
         4
100
AcDbLine
 10
-9991.207732917
 20
11749.754230231
 30
0.0
 11
-9975.5245299506
 21
11765.4374331973
 31
0.0
  0
LINE
  5
A5
100
AcDbEntity
  8
L1_
  6
CONTINUOUS
 62
         4
100
AcDbLine
 10
-9995.4503736041
 20
11749.754230231
 30
0.0
 11
-9980.4915319099
 21
11764.7130719251
 31
0.0
  0
LINE
  5
A6
100
AcDbEntity
  8
L1_
  6
CONTINUOUS
 62
         4
100
AcDbLine
 10
-9999.6930142912
 20
11749.754230231
 30
0.0
 11
-9985.4585338693
 21
11763.9887106529
 31
0.0
  0
LINE
  5
A7
100
AcDbEntity
  8
L1_
  6
CONTINUOUS
 62
         4
100
AcDbLine
 10
-10003.9356549783
 20
11749.754230231
 30
0.0
 11
-9990.4255358286
 21
11763.2643493807
 31
0.0
  0
LINE
  5
A8
100
AcDbEntity
  8
L1_
  6
CONTINUOUS
 62
         4
100
AcDbLine
 10
-10008.1782956654
 20
11749.754230231
 30
0.0
 11
-9995.3925377879
 21
11762.5399881085
 31
0.0
  0
LINE
  5
A9
100
AcDbEntity
  8
L1_
  6
CONTINUOUS
 62
         4
100
AcDbLine
 10
-10010.3110704589
 20
11751.8640961246
 30
0.0
 11
-10000.3595397473
 21
11761.8156268363
 31
0.0
  0
LINE
  5
AA
100
AcDbEntity
  8
L1_
  6
CONTINUOUS
 62
         4
100
AcDbLine
 10
-10014.5599185031
 20
11751.8578887676
 30
0.0
 11
-10005.3265417066
 21
11761.0912655641
 31
0.0
  0
LINE
  5
AB
100
AcDbEntity
  8
L1_
  6
CONTINUOUS
 62
         4
100
AcDbLine
 10
-10016.4705485269
 20
11754.1898994309
 30
0.0
 11
-10010.2935436659
 21
11760.3669042919
 31
0.0
  0
ENDBLK
  5
AC
100
AcDbEntity
  8
0
  6
CONTINUOUS
100
AcDbBlockEnd
  0
BLOCK
  5
BD
100
AcDbEntity
  8
0
100
AcDbBlockBegin
  2
*X1
 70
        65
 10
0.0
 20
0.0
 30
0.0
  3
*X1
  1

  0
LINE
  5
BE
100
AcDbEntity
  8
L1_
  6
CONTINUOUS
 62
         4
100
AcDbLine
 10
-9609.4885972199
 20
11785.2183345909
 30
0.0
 11
-9609.4233996054
 21
11785.2835322054
 31
0.0
  0
LINE
  5
BF
100
AcDbEntity
  8
L1_
  6
CONTINUOUS
 62
         4
100
AcDbLine
 10
-9609.6300185761
 20
11785.2183345909
 30
0.0
 11
-9609.4233996054
 21
11785.4249535616
 31
0.0
  0
LINE
  5
C0
100
AcDbEntity
  8
L1_
  6
CONTINUOUS
 62
         4
100
AcDbLine
 10
-9609.7233996054
 20
11785.2663749179
 30
0.0
 11
-9609.4233996054
 21
11785.5663749179
 31
0.0
  0
LINE
  5
C1
100
AcDbEntity
  8
L1_
  6
CONTINUOUS
 62
         4
100
AcDbLine
 10
-9609.7233996054
 20
11785.4077962741
 30
0.0
 11
-9609.4233996054
 21
11785.7077962741
 31
0.0
  0
LINE
  5
C2
100
AcDbEntity
  8
L1_
  6
CONTINUOUS
 62
         4
100
AcDbLine
 10
-9609.7233996054
 20
11785.5492176303
 30
0.0
 11
-9609.4233996054
 21
11785.8492176303
 31
0.0
  0
LINE
  5
C3
100
AcDbEntity
  8
L1_
  6
CONTINUOUS
 62
         4
100
AcDbLine
 10
-9609.7233996054
 20
11785.6906389866
 30
0.0
 11
-9609.4233996054
 21
11785.9906389866
 31
0.0
  0
LINE
  5
C4
100
AcDbEntity
  8
L1_
  6
CONTINUOUS
 62
         4
100
AcDbLine
 10
-9609.7233996054
 20
11785.8320603428
 30
0.0
 11
-9609.4233996054
 21
11786.1320603428
 31
0.0
  0
LINE
  5
C5
100
AcDbEntity
  8
L1_
  6
CONTINUOUS
 62
         4
100
AcDbLine
 10
-9609.7233996054
 20
11785.973481699
 30
0.0
 11
-9609.4233996054
 21
11786.273481699
 31
0.0
  0
LINE
  5
C6
100
AcDbEntity
  8
L1_
  6
CONTINUOUS
 62
         4
100
AcDbLine
 10
-9609.7233996054
 20
11786.1149030553
 30
0.0
 11
-9609.4233996054
 21
11786.4149030553
 31
0.0
  0
LINE
  5
C7
100
AcDbEntity
  8
L1_
  6
CONTINUOUS
 62
         4
100
AcDbLine
 10
-9609.7233996054
 20
11786.2563244115
 30
0.0
 11
-9609.4233996054
 21
11786.5563244115
 31
0.0
  0
LINE
  5
C8
100
AcDbEntity
  8
L1_
  6
CONTINUOUS
 62
         4
100
AcDbLine
 10
-9609.7233996054
 20
11786.3977457678
 30
0.0
 11
-9609.4233996054
 21
11786.6977457677
 31
0.0
  0
LINE
  5
C9
100
AcDbEntity
  8
L1_
  6
CONTINUOUS
 62
         4
100
AcDbLine
 10
-9609.7233996054
 20
11786.539167124
 30
0.0
 11
-9609.4233996054
 21
11786.839167124
 31
0.0
  0
LINE
  5
CA
100
AcDbEntity
  8
L1_
  6
CONTINUOUS
 62
         4
100
AcDbLine
 10
-9609.7233996054
 20
11786.6805884802
 30
0.0
 11
-9609.4233996054
 21
11786.9805884802
 31
0.0
  0
LINE
  5
CB
100
AcDbEntity
  8
L1_
  6
CONTINUOUS
 62
         4
100
AcDbLine
 10
-9609.7233996054
 20
11786.8220098365
 30
0.0
 11
-9609.4233996054
 21
11787.1220098365
 31
0.0
  0
LINE
  5
CC
100
AcDbEntity
  8
L1_
  6
CONTINUOUS
 62
         4
100
AcDbLine
 10
-9609.7233996054
 20
11786.9634311927
 30
0.0
 11
-9609.4233996054
 21
11787.2634311927
 31
0.0
  0
LINE
  5
CD
100
AcDbEntity
  8
L1_
  6
CONTINUOUS
 62
         4
100
AcDbLine
 10
-9609.7233996054
 20
11787.1048525489
 30
0.0
 11
-9609.4233996054
 21
11787.4048525489
 31
0.0
  0
LINE
  5
CE
100
AcDbEntity
  8
L1_
  6
CONTINUOUS
 62
         4
100
AcDbLine
 10
-9609.7233996054
 20
11787.2462739052
 30
0.0
 11
-9609.4233996054
 21
11787.5462739052
 31
0.0
  0
LINE
  5
CF
100
AcDbEntity
  8
L1_
  6
CONTINUOUS
 62
         4
100
AcDbLine
 10
-9609.7233996054
 20
11787.3876952614
 30
0.0
 11
-9609.4233996054
 21
11787.6876952614
 31
0.0
  0
LINE
  5
D0
100
AcDbEntity
  8
L1_
  6
CONTINUOUS
 62
         4
100
AcDbLine
 10
-9609.7233996054
 20
11787.5291166176
 30
0.0
 11
-9609.4233996054
 21
11787.8291166177
 31
0.0
  0
LINE
  5
D1
100
AcDbEntity
  8
L1_
  6
CONTINUOUS
 62
         4
100
AcDbLine
 10
-9609.7233996054
 20
11787.6705379739
 30
0.0
 11
-9609.4233996054
 21
11787.9705379739
 31
0.0
  0
LINE
  5
D2
100
AcDbEntity
  8
L1_
  6
CONTINUOUS
 62
         4
100
AcDbLine
 10
-9609.7233996054
 20
11787.8119593301
 30
0.0
 11
-9609.4233996054
 21
11788.1119593301
 31
0.0
  0
LINE
  5
D3
100
AcDbEntity
  8
L1_
  6
CONTINUOUS
 62
         4
100
AcDbLine
 10
-9609.7233996054
 20
11787.9533806864
 30
0.0
 11
-9609.4233996054
 21
11788.2533806864
 31
0.0
  0
LINE
  5
D4
100
AcDbEntity
  8
L1_
  6
CONTINUOUS
 62
         4
100
AcDbLine
 10
-9609.7233996054
 20
11788.0948020426
 30
0.0
 11
-9609.4233996054
 21
11788.3948020426
 31
0.0
  0
LINE
  5
D5
100
AcDbEntity
  8
L1_
  6
CONTINUOUS
 62
         4
100
AcDbLine
 10
-9609.7233996054
 20
11788.2362233988
 30
0.0
 11
-9609.4233996054
 21
11788.5362233988
 31
0.0
  0
LINE
  5
D6
100
AcDbEntity
  8
L1_
  6
CONTINUOUS
 62
         4
100
AcDbLine
 10
-9609.7233996054
 20
11788.3776447551
 30
0.0
 11
-9609.4233996054
 21
11788.6776447551
 31
0.0
  0
LINE
  5
D7
100
AcDbEntity
  8
L1_
  6
CONTINUOUS
 62
         4
100
AcDbLine
 10
-9609.7233996054
 20
11788.5190661113
 30
0.0
 11
-9609.4233996054
 21
11788.8190661113
 31
0.0
  0
LINE
  5
D8
100
AcDbEntity
  8
L1_
  6
CONTINUOUS
 62
         4
100
AcDbLine
 10
-9609.7233996054
 20
11788.6604874675
 30
0.0
 11
-9609.4305524821
 21
11788.9533345909
 31
0.0
  0
LINE
  5
D9
100
AcDbEntity
  8
L1_
  6
CONTINUOUS
 62
         4
100
AcDbLine
 10
-9609.7233996054
 20
11788.8019088238
 30
0.0
 11
-9609.5719738383
 21
11788.9533345909
 31
0.0
  0
LINE
  5
DA
100
AcDbEntity
  8
L1_
  6
CONTINUOUS
 62
         4
100
AcDbLine
 10
-9609.7233996054
 20
11788.94333018
 30
0.0
 11
-9609.7133951945
 21
11788.9533345909
 31
0.0
  0
ENDBLK
  5
DB
100
AcDbEntity
  8
0
  6
CONTINUOUS
100
AcDbBlockEnd
  0
BLOCK
  5
DF
100
AcDbEntity
  8
0
100
AcDbBlockBegin
  2
*X2
 70
        65
 10
0.0
 20
0.0
 30
0.0
  3
*X2
  1

  0
LINE
  5
E0
100
AcDbEntity
  8
L1_
  6
CONTINUOUS
 62
         4
100
AcDbLine
 10
-9609.5441599684
 20
11802.1333345909
 30
0.0
 11
-9609.4233996054
 21
11802.2540949539
 31
0.0
  0
LINE
  5
E1
100
AcDbEntity
  8
L1_
  6
CONTINUOUS
 62
         4
100
AcDbLine
 10
-9609.6855813246
 20
11802.1333345909
 30
0.0
 11
-9609.4233996054
 21
11802.3955163101
 31
0.0
  0
LINE
  5
E2
100
AcDbEntity
  8
L1_
  6
CONTINUOUS
 62
         4
100
AcDbLine
 10
-9609.7233996054
 20
11802.2369376663
 30
0.0
 11
-9609.4233996054
 21
11802.5369376663
 31
0.0
  0
LINE
  5
E3
100
AcDbEntity
  8
L1_
  6
CONTINUOUS
 62
         4
100
AcDbLine
 10
-9609.7233996054
 20
11802.3783590226
 30
0.0
 11
-9609.4233996054
 21
11802.6783590226
 31
0.0
  0
LINE
  5
E4
100
AcDbEntity
  8
L1_
  6
CONTINUOUS
 62
         4
100
AcDbLine
 10
-9609.7233996054
 20
11802.5197803788
 30
0.0
 11
-9609.4233996054
 21
11802.8197803788
 31
0.0
  0
LINE
  5
E5
100
AcDbEntity
  8
L1_
  6
CONTINUOUS
 62
         4
100
AcDbLine
 10
-9609.7233996054
 20
11802.661201735
 30
0.0
 11
-9609.4233996054
 21
11802.961201735
 31
0.0
  0
LINE
  5
E6
100
AcDbEntity
  8
L1_
  6
CONTINUOUS
 62
         4
100
AcDbLine
 10
-9609.7233996054
 20
11802.8026230913
 30
0.0
 11
-9609.4233996054
 21
11803.1026230913
 31
0.0
  0
LINE
  5
E7
100
AcDbEntity
  8
L1_
  6
CONTINUOUS
 62
         4
100
AcDbLine
 10
-9609.7233996054
 20
11802.9440444475
 30
0.0
 11
-9609.4233996054
 21
11803.2440444475
 31
0.0
  0
LINE
  5
E8
100
AcDbEntity
  8
L1_
  6
CONTINUOUS
 62
         4
100
AcDbLine
 10
-9609.7233996054
 20
11803.0854658038
 30
0.0
 11
-9609.4233996054
 21
11803.3854658038
 31
0.0
  0
LINE
  5
E9
100
AcDbEntity
  8
L1_
  6
CONTINUOUS
 62
         4
100
AcDbLine
 10
-9609.7233996054
 20
11803.22688716
 30
0.0
 11
-9609.4233996054
 21
11803.52688716
 31
0.0
  0
LINE
  5
EA
100
AcDbEntity
  8
L1_
  6
CONTINUOUS
 62
         4
100
AcDbLine
 10
-9609.7233996054
 20
11803.3683085162
 30
0.0
 11
-9609.4233996054
 21
11803.6683085162
 31
0.0
  0
LINE
  5
EB
100
AcDbEntity
  8
L1_
  6
CONTINUOUS
 62
         4
100
AcDbLine
 10
-9609.7233996054
 20
11803.5097298725
 30
0.0
 11
-9609.4233996054
 21
11803.8097298725
 31
0.0
  0
LINE
  5
EC
100
AcDbEntity
  8
L1_
  6
CONTINUOUS
 62
         4
100
AcDbLine
 10
-9609.7233996054
 20
11803.6511512287
 30
0.0
 11
-9609.4233996054
 21
11803.9511512287
 31
0.0
  0
LINE
  5
ED
100
AcDbEntity
  8
L1_
  6
CONTINUOUS
 62
         4
100
AcDbLine
 10
-9609.7233996054
 20
11803.7925725849
 30
0.0
 11
-9609.4233996054
 21
11804.0925725849
 31
0.0
  0
LINE
  5
EE
100
AcDbEntity
  8
L1_
  6
CONTINUOUS
 62
         4
100
AcDbLine
 10
-9609.7233996054
 20
11803.9339939412
 30
0.0
 11
-9609.4233996054
 21
11804.2339939412
 31
0.0
  0
LINE
  5
EF
100
AcDbEntity
  8
L1_
  6
CONTINUOUS
 62
         4
100
AcDbLine
 10
-9609.7233996054
 20
11804.0754152974
 30
0.0
 11
-9609.4233996054
 21
11804.3754152974
 31
0.0
  0
LINE
  5
F0
100
AcDbEntity
  8
L1_
  6
CONTINUOUS
 62
         4
100
AcDbLine
 10
-9609.7233996054
 20
11804.2168366537
 30
0.0
 11
-9609.4233996054
 21
11804.5168366537
 31
0.0
  0
LINE
  5
F1
100
AcDbEntity
  8
L1_
  6
CONTINUOUS
 62
         4
100
AcDbLine
 10
-9609.7233996054
 20
11804.3582580099
 30
0.0
 11
-9609.4233996054
 21
11804.6582580099
 31
0.0
  0
LINE
  5
F2
100
AcDbEntity
  8
L1_
  6
CONTINUOUS
 62
         4
100
AcDbLine
 10
-9609.7233996054
 20
11804.4996793661
 30
0.0
 11
-9609.4233996054
 21
11804.7996793661
 31
0.0
  0
LINE
  5
F3
100
AcDbEntity
  8
L1_
  6
CONTINUOUS
 62
         4
100
AcDbLine
 10
-9609.7233996054
 20
11804.6411007224
 30
0.0
 11
-9609.4233996054
 21
11804.9411007224
 31
0.0
  0
LINE
  5
F4
100
AcDbEntity
  8
L1_
  6
CONTINUOUS
 62
         4
100
AcDbLine
 10
-9609.7233996054
 20
11804.7825220786
 30
0.0
 11
-9609.4233996054
 21
11805.0825220786
 31
0.0
  0
LINE
  5
F5
100
AcDbEntity
  8
L1_
  6
CONTINUOUS
 62
         4
100
AcDbLine
 10
-9609.7233996054
 20
11804.9239434348
 30
0.0
 11
-9609.4233996054
 21
11805.2239434348
 31
0.0
  0
LINE
  5
F6
100
AcDbEntity
  8
L1_
  6
CONTINUOUS
 62
         4
100
AcDbLine
 10
-9609.7233996054
 20
11805.0653647911
 30
0.0
 11
-9609.4233996054
 21
11805.3653647911
 31
0.0
  0
LINE
  5
F7
100
AcDbEntity
  8
L1_
  6
CONTINUOUS
 62
         4
100
AcDbLine
 10
-9609.7233996054
 20
11805.2067861473
 30
0.0
 11
-9609.4233996054
 21
11805.5067861473
 31
0.0
  0
LINE
  5
F8
100
AcDbEntity
  8
L1_
  6
CONTINUOUS
 62
         4
100
AcDbLine
 10
-9609.7233996054
 20
11805.3482075036
 30
0.0
 11
-9609.4233996054
 21
11805.6482075035
 31
0.0
  0
LINE
  5
F9
100
AcDbEntity
  8
L1_
  6
CONTINUOUS
 62
         4
100
AcDbLine
 10
-9609.7233996054
 20
11805.4896288598
 30
0.0
 11
-9609.4233996054
 21
11805.7896288598
 31
0.0
  0
LINE
  5
FA
100
AcDbEntity
  8
L1_
  6
CONTINUOUS
 62
         4
100
AcDbLine
 10
-9609.7233996054
 20
11805.631050216
 30
0.0
 11
-9609.4861152305
 21
11805.8683345909
 31
0.0
  0
LINE
  5
FB
100
AcDbEntity
  8
L1_
  6
CONTINUOUS
 62
         4
100
AcDbLine
 10
-9609.7233996054
 20
11805.7724715723
 30
0.0
 11
-9609.6275365868
 21
11805.8683345909
 31
0.0
  0
ENDBLK
  5
FC
100
AcDbEntity
  8
0
  6
CONTINUOUS
100
AcDbBlockEnd
  0
BLOCK
  5
107
100
AcDbEntity
  8
0
100
AcDbBlockBegin
  2
*D3
 70
        65
 10
0.0
 20
0.0
 30
0.0
  3
*D3
  1

  0
POINT
  5
10A
100
AcDbEntity
  8
DEFPOINTS
  6
CONTINUOUS
 62
         0
100
AcDbPoint
 10
-9633.1202481639
 20
11806.2933345909
 30
0.0
  0
POINT
  5
10B
100
AcDbEntity
  8
DEFPOINTS
  6
CONTINUOUS
 62
         0
100
AcDbPoint
 10
-9622.8233996054
 20
11806.2933345909
 30
0.0
  0
POINT
  5
10C
100
AcDbEntity
  8
DEFPOINTS
  6
CONTINUOUS
 62
         0
100
AcDbPoint
 10
-9622.8233996054
 20
11784.7933345909
 30
0.0
  0
LINE
  5
10D
100
AcDbEntity
  8
L1_
  6
CONTINUOUS
 62
         4
100
AcDbLine
 10
-9624.5733996054
 20
11806.2933345909
 30
0.0
 11
-9633.9952481639
 21
11806.2933345909
 31
0.0
  0
LINE
  5
10E
100
AcDbEntity
  8
L1_
  6
CONTINUOUS
 62
         4
100
AcDbLine
 10
-9624.5733996054
 20
11784.7933345909
 30
0.0
 11
-9633.9952481639
 21
11784.7933345909
 31
0.0
  0
LINE
  5
10F
100
AcDbEntity
  8
L1_
  6
CONTINUOUS
 62
         4
100
AcDbLine
 10
-9633.1202481639
 20
11806.2933345909
 30
0.0
 11
-9633.1202481639
 21
11784.7933345909
 31
0.0
  0
SOLID
  5
110
100
AcDbEntity
  8
L1_
  6
CONTINUOUS
 62
         4
100
AcDbTrace
 10
-9633.1202481639
 20
11806.2933345909
 30
0.0
 11
-9632.5952481639
 21
11802.7933345909
 31
0.0
 12
-9633.6452481639
 22
11802.7933345909
 32
0.0
 13
-9633.1202481639
 23
11806.2933345909
 33
0.0
  0
SOLID
  5
111
100
AcDbEntity
  8
L1_
  6
CONTINUOUS
 62
         4
100
AcDbTrace
 10
-9633.1202481639
 20
11784.7933345909
 30
0.0
 11
-9633.6452481639
 21
11788.2933345909
 31
0.0
 12
-9632.5952481639
 22
11788.2933345909
 32
0.0
 13
-9633.1202481639
 23
11784.7933345909
 33
0.0
  0
TEXT
  5
113
100
AcDbEntity
  8
L1_
  6
CONTINUOUS
 62
         4
100
AcDbText
 10
-9635.7452481639
 20
11775.6725883574
 30
0.0
 40
3.5
  1
M21.5xP1-5H
 50
90.0
  7
BOX
100
AcDbText
  0
ENDBLK
  5
114
100
AcDbEntity
  8
0
  6
CONTINUOUS
100
AcDbBlockEnd
  0
BLOCK
  5
116
100
AcDbEntity
  8
0
100
AcDbBlockBegin
  2
*X4
 70
        65
 10
0.0
 20
0.0
 30
0.0
  3
*X4
  1

  0
LINE
  5
117
100
AcDbEntity
  8
L1_
  6
CONTINUOUS
 62
         4
100
AcDbLine
 10
-9608.0065799256
 20
11781.7933345909
 30
0.0
 11
-9606.3233996054
 21
11783.4765149111
 31
0.0
  0
LINE
  5
118
100
AcDbEntity
  8
L1_
  6
CONTINUOUS
 62
         4
100
AcDbLine
 10
-9610.1279002692
 20
11781.7933345909
 30
0.0
 11
-9605.8233996054
 21
11786.0978352547
 31
0.0
  0
LINE
  5
119
100
AcDbEntity
  8
L1_
  6
CONTINUOUS
 62
         4
100
AcDbLine
 10
-9612.2492206127
 20
11781.7933345909
 30
0.0
 11
-9605.8492206127
 21
11788.1933345909
 31
0.0
  0
LINE
  5
11A
100
AcDbEntity
  8
L1_
  6
CONTINUOUS
 62
         4
100
AcDbLine
 10
-9614.3705409563
 20
11781.7933345909
 30
0.0
 11
-9611.6205409563
 21
11784.5433345909
 31
0.0
  0
LINE
  5
11B
100
AcDbEntity
  8
L1_
  6
CONTINUOUS
 62
         4
100
AcDbLine
 10
-9609.4233996054
 20
11786.7404759418
 30
0.0
 11
-9607.8233996054
 21
11788.3404759418
 31
0.0
  0
LINE
  5
11C
100
AcDbEntity
  8
L1_
  6
CONTINUOUS
 62
         4
100
AcDbLine
 10
-9616.4918612999
 20
11781.7933345909
 30
0.0
 11
-9613.6577788271
 21
11784.6274170636
 31
0.0
  0
LINE
  5
11D
100
AcDbEntity
  8
L1_
  6
CONTINUOUS
 62
         4
100
AcDbLine
 10
-9609.4233996054
 20
11788.8617962853
 30
0.0
 11
-9609.0168612999
 21
11789.2683345909
 31
0.0
  0
LINE
  5
11E
100
AcDbEntity
  8
L1_
  6
CONTINUOUS
 62
         4
100
AcDbLine
 10
-9618.6131816434
 20
11781.7933345909
 30
0.0
 11
-9615.1131816434
 21
11785.2933345909
 31
0.0
  0
LINE
  5
11F
100
AcDbEntity
  8
L1_
  6
CONTINUOUS
 62
         4
100
AcDbLine
 10
-9620.734501987
 20
11781.7933345909
 30
0.0
 11
-9617.234501987
 21
11785.2933345909
 31
0.0
  0
LINE
  5
120
100
AcDbEntity
  8
L1_
  6
CONTINUOUS
 62
         4
100
AcDbLine
 10
-9622.5465318912
 20
11782.1026250302
 30
0.0
 11
-9619.3558223305
 21
11785.2933345909
 31
0.0
  0
LINE
  5
121
100
AcDbEntity
  8
L1_
  6
CONTINUOUS
 62
         4
100
AcDbLine
 10
-9622.8233996054
 20
11783.9470776596
 30
0.0
 11
-9621.4771426741
 21
11785.2933345909
 31
0.0
  0
LINE
  5
122
100
AcDbEntity
  8
L1_
  6
CONTINUOUS
 62
         4
100
AcDbLine
 10
-9605.9984630177
 20
11802.8933345909
 30
0.0
 11
-9605.8233996054
 21
11803.0683980031
 31
0.0
  0
LINE
  5
123
100
AcDbEntity
  8
L1_
  6
CONTINUOUS
 62
         4
100
AcDbLine
 10
-9609.1947833612
 20
11801.8183345909
 30
0.0
 11
-9605.8233996054
 21
11805.1897183467
 31
0.0
  0
LINE
  5
124
100
AcDbEntity
  8
L1_
  6
CONTINUOUS
 62
         4
100
AcDbLine
 10
-9609.4233996054
 20
11803.7110386903
 30
0.0
 11
-9606.3233996054
 21
11806.8110386903
 31
0.0
  0
LINE
  5
125
100
AcDbEntity
  8
L1_
  6
CONTINUOUS
 62
         4
100
AcDbLine
 10
-9609.4233996054
 20
11805.8323590338
 30
0.0
 11
-9606.4592275709
 21
11808.7965310683
 31
0.0
  0
LINE
  5
126
100
AcDbEntity
  8
L1_
  6
CONTINUOUS
 62
         4
100
AcDbLine
 10
-9610.9363611597
 20
11806.4407178231
 30
0.0
 11
-9608.0837443919
 21
11809.2933345909
 31
0.0
  0
LINE
  5
127
100
AcDbEntity
  8
L1_
  6
CONTINUOUS
 62
         4
100
AcDbLine
 10
-9612.9550647354
 20
11806.5433345909
 30
0.0
 11
-9610.2050647354
 21
11809.2933345909
 31
0.0
  0
LINE
  5
128
100
AcDbEntity
  8
L1_
  6
CONTINUOUS
 62
         4
100
AcDbLine
 10
-9615.826385079
 20
11805.7933345909
 30
0.0
 11
-9612.326385079
 21
11809.2933345909
 31
0.0
  0
LINE
  5
129
100
AcDbEntity
  8
L1_
  6
CONTINUOUS
 62
         4
100
AcDbLine
 10
-9617.9477054226
 20
11805.7933345909
 30
0.0
 11
-9614.4477054226
 21
11809.2933345909
 31
0.0
  0
LINE
  5
12A
100
AcDbEntity
  8
L1_
  6
CONTINUOUS
 62
         4
100
AcDbLine
 10
-9620.0690257661
 20
11805.7933345909
 30
0.0
 11
-9616.5690257661
 21
11809.2933345909
 31
0.0
  0
LINE
  5
12B
100
AcDbEntity
  8
L1_
  6
CONTINUOUS
 62
         4
100
AcDbLine
 10
-9622.1391788103
 20
11805.8445018903
 30
0.0
 11
-9618.6903461097
 21
11809.2933345909
 31
0.0
  0
LINE
  5
12C
100
AcDbEntity
  8
L1_
  6
CONTINUOUS
 62
         4
100
AcDbLine
 10
-9622.8233996054
 20
11807.2816014387
 30
0.0
 11
-9620.8116664532
 21
11809.2933345909
 31
0.0
  0
ENDBLK
  5
12D
100
AcDbEntity
  8
0
  6
CONTINUOUS
100
AcDbBlockEnd
  0
BLOCK
  5
164
100
AcDbEntity
  8
0
100
AcDbBlockBegin
  2
*D5
 70
        65
 10
0.0
 20
0.0
 30
0.0
  3
*D5
  1

  0
POINT
  5
166
100
AcDbEntity
  8
DEFPOINTS
  6
CONTINUOUS
 62
         0
100
AcDbPoint
 10
-9622.8233996054
 20
11814.7632053418
 30
0.0
  0
POINT
  5
167
100
AcDbEntity
  8
DEFPOINTS
  6
CONTINUOUS
 62
         0
100
AcDbPoint
 10
-9622.8233996054
 20
11808.2933345909
 30
0.0
  0
POINT
  5
168
100
AcDbEntity
  8
DEFPOINTS
  6
CONTINUOUS
 62
         0
100
AcDbPoint
 10
-9605.8233996054
 20
11805.7933345909
 30
0.0
  0
LINE
  5
169
100
AcDbEntity
  8
L1_
  6
CONTINUOUS
 62
         4
100
AcDbLine
 10
-9622.8233996054
 20
11810.0433345909
 30
0.0
 11
-9622.8233996054
 21
11815.6382053418
 31
0.0
  0
LINE
  5
16A
100
AcDbEntity
  8
L1_
  6
CONTINUOUS
 62
         4
100
AcDbLine
 10
-9605.8233996054
 20
11807.5433345909
 30
0.0
 11
-9605.8233996054
 21
11815.6382053418
 31
0.0
  0
LINE
  5
16B
100
AcDbEntity
  8
L1_
  6
CONTINUOUS
 62
         4
100
AcDbLine
 10
-9622.8233996054
 20
11814.7632053418
 30
0.0
 11
-9605.8233996054
 21
11814.7632053418
 31
0.0
  0
SOLID
  5
16C
100
AcDbEntity
  8
L1_
  6
CONTINUOUS
 62
         4
100
AcDbTrace
 10
-9622.8233996054
 20
11814.7632053418
 30
0.0
 11
-9619.3233996054
 21
11815.2882053418
 31
0.0
 12
-9619.3233996054
 22
11814.2382053418
 32
0.0
 13
-9622.8233996054
 23
11814.7632053418
 33
0.0
  0
SOLID
  5
16D
100
AcDbEntity
  8
L1_
  6
CONTINUOUS
 62
         4
100
AcDbTrace
 10
-9605.8233996054
 20
11814.7632053418
 30
0.0
 11
-9609.3233996054
 21
11814.2382053418
 31
0.0
 12
-9609.3233996054
 22
11815.2882053418
 32
0.0
 13
-9605.8233996054
 23
11814.7632053418
 33
0.0
  0
TEXT
  5
16F
100
AcDbEntity
  8
L1_
  6
CONTINUOUS
 62
         4
100
AcDbText
 10
-9617.8233996054
 20
11817.3882053418
 30
0.0
 40
3.5
  1
17
  7
BOX
100
AcDbText
  0
ENDBLK
  5
170
100
AcDbEntity
  8
0
  6
CONTINUOUS
100
AcDbBlockEnd
  0
BLOCK
  5
172
100
AcDbEntity
  8
0
100
AcDbBlockBegin
  2
*D6
 70
        65
 10
0.0
 20
0.0
 30
0.0
  3
*D6
  1

  0
POINT
  5
174
100
AcDbEntity
  8
DEFPOINTS
  6
CONTINUOUS
 62
         0
100
AcDbPoint
 10
-9647.4378350282
 20
11809.2933345909
 30
0.0
  0
POINT
  5
175
100
AcDbEntity
  8
DEFPOINTS
  6
CONTINUOUS
 62
         0
100
AcDbPoint
 10
-9621.8233996054
 20
11809.2933345909
 30
0.0
  0
POINT
  5
176
100
AcDbEntity
  8
DEFPOINTS
  6
CONTINUOUS
 62
         0
100
AcDbPoint
 10
-9621.8233996054
 20
11781.7933345909
 30
0.0
  0
LINE
  5
177
100
AcDbEntity
  8
L1_
  6
CONTINUOUS
 62
         4
100
AcDbLine
 10
-9623.5733996054
 20
11809.2933345909
 30
0.0
 11
-9648.3128350282
 21
11809.2933345909
 31
0.0
  0
LINE
  5
178
100
AcDbEntity
  8
L1_
  6
CONTINUOUS
 62
         4
100
AcDbLine
 10
-9623.5733996054
 20
11781.7933345909
 30
0.0
 11
-9648.3128350282
 21
11781.7933345909
 31
0.0
  0
LINE
  5
179
100
AcDbEntity
  8
L1_
  6
CONTINUOUS
 62
         4
100
AcDbLine
 10
-9647.4378350282
 20
11809.2933345909
 30
0.0
 11
-9647.4378350282
 21
11781.7933345909
 31
0.0
  0
SOLID
  5
17A
100
AcDbEntity
  8
L1_
  6
CONTINUOUS
 62
         4
100
AcDbTrace
 10
-9647.4378350282
 20
11809.2933345909
 30
0.0
 11
-9646.9128350282
 21
11805.7933345909
 31
0.0
 12
-9647.9628350282
 22
11805.7933345909
 32
0.0
 13
-9647.4378350282
 23
11809.2933345909
 33
0.0
  0
SOLID
  5
17B
100
AcDbEntity
  8
L1_
  6
CONTINUOUS
 62
         4
100
AcDbTrace
 10
-9647.4378350282
 20
11781.7933345909
 30
0.0
 11
-9647.9628350282
 21
11785.2933345909
 31
0.0
 12
-9646.9128350282
 22
11785.2933345909
 32
0.0
 13
-9647.4378350282
 23
11781.7933345909
 33
0.0
  0
TEXT
  5
17D
100
AcDbEntity
  8
L1_
  6
CONTINUOUS
 62
         4
100
AcDbText
 10
-9650.0628350282
 20
11784.6829081186
 30
0.0
 40
3.5
  1
崷27.5
 50
90.0
  7
BOX
100
AcDbText
  0
ENDBLK
  5
17E
100
AcDbEntity
  8
0
  6
CONTINUOUS
100
AcDbBlockEnd
  0
BLOCK
  5
180
100
AcDbEntity
  8
0
100
AcDbBlockBegin
  2
*D7
 70
        65
 10
0.0
 20
0.0
 30
0.0
  3
*D7
  1

  0
POINT
  5
182
100
AcDbEntity
  8
DEFPOINTS
  6
CONTINUOUS
 62
         0
100
AcDbPoint
 10
-9639.1726826111
 20
11740.0210531796
 30
0.0
  0
POINT
  5
183
100
AcDbEntity
  8
DEFPOINTS
  6
CONTINUOUS
 62
         0
100
AcDbPoint
 10
-9660.1126097454
 20
11740.0210531796
 30
0.0
  0
POINT
  5
184
100
AcDbEntity
  8
DEFPOINTS
  6
CONTINUOUS
 62
         0
100
AcDbPoint
 10
-9660.1126097454
 20
11728.9110531796
 30
0.0
  0
LINE
  5
185
100
AcDbEntity
  8
L1_
  6
CONTINUOUS
 62
         4
100
AcDbLine
 10
-9658.3626097454
 20
11740.0210531796
 30
0.0
 11
-9638.2976826111
 21
11740.0210531796
 31
0.0
  0
LINE
  5
186
100
AcDbEntity
  8
L1_
  6
CONTINUOUS
 62
         4
100
AcDbLine
 10
-9658.3626097454
 20
11728.9110531796
 30
0.0
 11
-9638.2976826111
 21
11728.9110531796
 31
0.0
  0
LINE
  5
187
100
AcDbEntity
  8
L1_
  6
CONTINUOUS
 62
         4
100
AcDbLine
 10
-9639.1726826111
 20
11740.0210531796
 30
0.0
 11
-9639.1726826111
 21
11728.9110531796
 31
0.0
  0
SOLID
  5
188
100
AcDbEntity
  8
L1_
  6
CONTINUOUS
 62
         4
100
AcDbTrace
 10
-9639.1726826111
 20
11740.0210531796
 30
0.0
 11
-9638.6476826111
 21
11736.5210531796
 31
0.0
 12
-9639.6976826111
 22
11736.5210531796
 32
0.0
 13
-9639.1726826111
 23
11740.0210531796
 33
0.0
  0
LINE
  5
189
100
AcDbEntity
  8
L1_
  6
CONTINUOUS
 62
         4
100
AcDbLine
 10
-9639.1726826111
 20
11728.9110531796
 30
0.0
 11
-9639.1726826111
 21
11696.8464638879
 31
0.0
  0
SOLID
  5
18A
100
AcDbEntity
  8
L1_
  6
CONTINUOUS
 62
         4
100
AcDbTrace
 10
-9639.1726826111
 20
11728.9110531796
 30
0.0
 11
-9639.6976826111
 21
11732.4110531796
 31
0.0
 12
-9638.6476826111
 22
11732.4110531796
 32
0.0
 13
-9639.1726826111
 23
11728.9110531796
 33
0.0
  0
TEXT
  5
18C
100
AcDbEntity
  8
L1_
  6
CONTINUOUS
 62
         4
100
AcDbText
 10
-9641.7976826111
 20
11698.5964638879
 30
0.0
 40
3.5
  1
M12xP1.5
 50
90.0
  7
BOX
100
AcDbText
  0
ENDBLK
  5
18D
100
AcDbEntity
  8
0
  6
CONTINUOUS
100
AcDbBlockEnd
  0
BLOCK
  5
18F
100
AcDbEntity
  8
0
100
AcDbBlockBegin
  2
*D8
 70
        65
 10
0.0
 20
0.0
 30
0.0
  3
*D8
  1

  0
POINT
  5
191
100
AcDbEntity
  8
DEFPOINTS
  6
CONTINUOUS
 62
         0
100
AcDbPoint
 10
-9669.6376097454
 20
11745.1394544916
 30
0.0
  0
POINT
  5
192
100
AcDbEntity
  8
DEFPOINTS
  6
CONTINUOUS
 62
         0
100
AcDbPoint
 10
-9669.6376097454
 20
11738.0460531796
 30
0.0
  0
POINT
  5
193
100
AcDbEntity
  8
DEFPOINTS
  6
CONTINUOUS
 62
         0
100
AcDbPoint
 10
-9656.6376097454
 20
11738.0460531796
 30
0.0
  0
LINE
  5
194
100
AcDbEntity
  8
L1_
  6
CONTINUOUS
 62
         4
100
AcDbLine
 10
-9669.6376097454
 20
11739.7960531796
 30
0.0
 11
-9669.6376097454
 21
11746.0144544916
 31
0.0
  0
LINE
  5
195
100
AcDbEntity
  8
L1_
  6
CONTINUOUS
 62
         4
100
AcDbLine
 10
-9656.6376097454
 20
11739.7960531796
 30
0.0
 11
-9656.6376097454
 21
11746.0144544916
 31
0.0
  0
LINE
  5
196
100
AcDbEntity
  8
L1_
  6
CONTINUOUS
 62
         4
100
AcDbLine
 10
-9669.6376097454
 20
11745.1394544916
 30
0.0
 11
-9656.6376097454
 21
11745.1394544916
 31
0.0
  0
SOLID
  5
197
100
AcDbEntity
  8
L1_
  6
CONTINUOUS
 62
         4
100
AcDbTrace
 10
-9669.6376097454
 20
11745.1394544916
 30
0.0
 11
-9666.1376097454
 21
11745.6644544916
 31
0.0
 12
-9666.1376097454
 22
11744.6144544916
 32
0.0
 13
-9669.6376097454
 23
11745.1394544916
 33
0.0
  0
SOLID
  5
198
100
AcDbEntity
  8
L1_
  6
CONTINUOUS
 62
         4
100
AcDbTrace
 10
-9656.6376097454
 20
11745.1394544916
 30
0.0
 11
-9660.1376097454
 21
11744.6144544916
 31
0.0
 12
-9660.1376097454
 22
11745.6644544916
 32
0.0
 13
-9656.6376097454
 23
11745.1394544916
 33
0.0
  0
TEXT
  5
19A
100
AcDbEntity
  8
L1_
  6
CONTINUOUS
 62
         4
100
AcDbText
 10
-9666.6376097454
 20
11747.7644544916
 30
0.0
 40
3.5
  1
13
  7
BOX
100
AcDbText
  0
ENDBLK
  5
19B
100
AcDbEntity
  8
0
  6
CONTINUOUS
100
AcDbBlockEnd
  0
BLOCK
  5
1BF
100
AcDbEntity
  8
0
100
AcDbBlockBegin
  2
*D9
 70
        65
 10
0.0
 20
0.0
 30
0.0
  3
*D9
  1

  0
POINT
  5
1C1
100
AcDbEntity
  8
DEFPOINTS
  6
CONTINUOUS
 62
         0
100
AcDbPoint
 10
-9688.0335954223
 20
11744.6662304515
 30
0.0
  0
POINT
  5
1C2
100
AcDbEntity
  8
DEFPOINTS
  6
CONTINUOUS
 62
         0
100
AcDbPoint
 10
-9688.0335954223
 20
11738.4216062382
 30
0.0
  0
POINT
  5
1C3
100
AcDbEntity
  8
DEFPOINTS
  6
CONTINUOUS
 62
         0
100
AcDbPoint
 10
-9686.0335954223
 20
11738.4216062382
 30
0.0
  0
LINE
  5
1C4
100
AcDbEntity
  8
L1_
  6
CONTINUOUS
 62
         4
100
AcDbLine
 10
-9688.0335954223
 20
11740.1716062382
 30
0.0
 11
-9688.0335954223
 21
11745.5412304515
 31
0.0
  0
LINE
  5
1C5
100
AcDbEntity
  8
L1_
  6
CONTINUOUS
 62
         4
100
AcDbLine
 10
-9686.0335954223
 20
11740.1716062382
 30
0.0
 11
-9686.0335954223
 21
11745.5412304515
 31
0.0
  0
LINE
  5
1C6
100
AcDbEntity
  8
L1_
  6
CONTINUOUS
 62
         4
100
AcDbLine
 10
-9688.0335954223
 20
11744.6662304515
 30
0.0
 11
-9699.8925941283
 21
11744.6662304515
 31
0.0
  0
SOLID
  5
1C7
100
AcDbEntity
  8
L1_
  6
CONTINUOUS
 62
         4
100
AcDbTrace
 10
-9688.0335954223
 20
11744.6662304515
 30
0.0
 11
-9691.5335954223
 21
11744.1412304515
 31
0.0
 12
-9691.5335954223
 22
11745.1912304515
 32
0.0
 13
-9688.0335954223
 23
11744.6662304515
 33
0.0
  0
LINE
  5
1C8
100
AcDbEntity
  8
L1_
  6
CONTINUOUS
 62
         4
100
AcDbLine
 10
-9686.0335954223
 20
11744.6662304515
 30
0.0
 11
-9679.0335954223
 21
11744.6662304515
 31
0.0
  0
SOLID
  5
1C9
100
AcDbEntity
  8
L1_
  6
CONTINUOUS
 62
         4
100
AcDbTrace
 10
-9686.0335954223
 20
11744.6662304515
 30
0.0
 11
-9682.5335954223
 21
11745.1912304515
 31
0.0
 12
-9682.5335954223
 22
11744.1412304515
 32
0.0
 13
-9686.0335954223
 23
11744.6662304515
 33
0.0
  0
LINE
  5
1CA
100
AcDbEntity
  8
L1_
  6
CONTINUOUS
 62
         4
100
AcDbLine
 10
-9688.0335954223
 20
11744.6662304515
 30
0.0
 11
-9686.0335954223
 21
11744.6662304515
 31
0.0
  0
TEXT
  5
1CC
100
AcDbEntity
  8
L1_
  6
CONTINUOUS
 62
         4
100
AcDbText
 10
-9698.1425941283
 20
11747.2912304515
 30
0.0
 40
3.5
  1
2
  7
BOX
100
AcDbText
  0
ENDBLK
  5
1CD
100
AcDbEntity
  8
0
  6
CONTINUOUS
100
AcDbBlockEnd
  0
BLOCK
  5
1CF
100
AcDbEntity
  8
0
100
AcDbBlockBegin
  2
*D10
 70
        65
 10
0.0
 20
0.0
 30
0.0
  3
*D10
  1

  0
POINT
  5
1D1
100
AcDbEntity
  8
DEFPOINTS
  6
CONTINUOUS
 62
         0
100
AcDbPoint
 10
-9673.2745713242
 20
11735.9660531796
 30
0.0
  0
POINT
  5
1D2
100
AcDbEntity
  8
DEFPOINTS
  6
CONTINUOUS
 62
         0
100
AcDbPoint
 10
-9669.6376097454
 20
11735.9660531796
 30
0.0
  0
POINT
  5
1D3
100
AcDbEntity
  8
DEFPOINTS
  6
CONTINUOUS
 62
         0
100
AcDbPoint
 10
-9669.6376097454
 20
11732.9660531796
 30
0.0
  0
LINE
  5
1D4
100
AcDbEntity
  8
L1_
  6
CONTINUOUS
 62
         4
100
AcDbLine
 10
-9671.3876097454
 20
11735.9660531796
 30
0.0
 11
-9674.1495713242
 21
11735.9660531796
 31
0.0
  0
LINE
  5
1D5
100
AcDbEntity
  8
L1_
  6
CONTINUOUS
 62
         4
100
AcDbLine
 10
-9671.3876097454
 20
11732.9660531796
 30
0.0
 11
-9674.1495713242
 21
11732.9660531796
 31
0.0
  0
LINE
  5
1D6
100
AcDbEntity
  8
L1_
  6
CONTINUOUS
 62
         4
100
AcDbLine
 10
-9673.2745713242
 20
11735.9660531796
 30
0.0
 11
-9673.2745713242
 21
11757.0825094962
 31
0.0
  0
SOLID
  5
1D7
100
AcDbEntity
  8
L1_
  6
CONTINUOUS
 62
         4
100
AcDbTrace
 10
-9673.2745713242
 20
11735.9660531796
 30
0.0
 11
-9673.7995713242
 21
11739.4660531796
 31
0.0
 12
-9672.7495713242
 22
11739.4660531796
 32
0.0
 13
-9673.2745713242
 23
11735.9660531796
 33
0.0
  0
LINE
  5
1D8
100
AcDbEntity
  8
L1_
  6
CONTINUOUS
 62
         4
100
AcDbLine
 10
-9673.2745713242
 20
11732.9660531796
 30
0.0
 11
-9673.2745713242
 21
11725.9660531796
 31
0.0
  0
SOLID
  5
1D9
100
AcDbEntity
  8
L1_
  6
CONTINUOUS
 62
         4
100
AcDbTrace
 10
-9673.2745713242
 20
11732.9660531796
 30
0.0
 11
-9672.7495713242
 21
11729.4660531796
 31
0.0
 12
-9673.7995713242
 22
11729.4660531796
 32
0.0
 13
-9673.2745713242
 23
11732.9660531796
 33
0.0
  0
LINE
  5
1DA
100
AcDbEntity
  8
L1_
  6
CONTINUOUS
 62
         4
100
AcDbLine
 10
-9673.2745713242
 20
11735.9660531796
 30
0.0
 11
-9673.2745713242
 21
11732.9660531796
 31
0.0
  0
TEXT
  5
1DC
100
AcDbEntity
  8
L1_
  6
CONTINUOUS
 62
         4
100
AcDbText
 10
-9675.8995713242
 20
11744.8325094962
 30
0.0
 40
3.5
  1
崷3
 50
90.0
  7
BOX
100
AcDbText
  0
ENDBLK
  5
1DD
100
AcDbEntity
  8
0
  6
CONTINUOUS
100
AcDbBlockEnd
  0
BLOCK
  5
1DF
100
AcDbEntity
  8
0
100
AcDbBlockBegin
  2
*D11
 70
        65
 10
0.0
 20
0.0
 30
0.0
  3
*D11
  1

  0
POINT
  5
1E1
100
AcDbEntity
  8
DEFPOINTS
  6
CONTINUOUS
 62
         0
100
AcDbPoint
 10
-9813.5705485269
 20
11693.8855081076
 30
0.0
  0
POINT
  5
1E2
100
AcDbEntity
  8
DEFPOINTS
  6
CONTINUOUS
 62
         0
100
AcDbPoint
 10
-9813.5705485269
 20
11730.1078887676
 30
0.0
  0
POINT
  5
1E3
100
AcDbEntity
  8
DEFPOINTS
  6
CONTINUOUS
 62
         0
100
AcDbPoint
 10
-9893.5705485269
 20
11733.3578887676
 30
0.0
  0
LINE
  5
1E4
100
AcDbEntity
  8
L1_
  6
CONTINUOUS
 62
         4
100
AcDbLine
 10
-9813.5705485269
 20
11728.3578887676
 30
0.0
 11
-9813.5705485269
 21
11693.0105081076
 31
0.0
  0
LINE
  5
1E5
100
AcDbEntity
  8
L1_
  6
CONTINUOUS
 62
         4
100
AcDbLine
 10
-9893.5705485269
 20
11731.6078887676
 30
0.0
 11
-9893.5705485269
 21
11693.0105081076
 31
0.0
  0
LINE
  5
1E6
100
AcDbEntity
  8
L1_
  6
CONTINUOUS
 62
         4
100
AcDbLine
 10
-9813.5705485269
 20
11693.8855081076
 30
0.0
 11
-9893.5705485269
 21
11693.8855081076
 31
0.0
  0
SOLID
  5
1E7
100
AcDbEntity
  8
L1_
  6
CONTINUOUS
 62
         4
100
AcDbTrace
 10
-9813.5705485269
 20
11693.8855081076
 30
0.0
 11
-9817.0705485269
 21
11693.3605081076
 31
0.0
 12
-9817.0705485269
 22
11694.4105081076
 32
0.0
 13
-9813.5705485269
 23
11693.8855081076
 33
0.0
  0
SOLID
  5
1E8
100
AcDbEntity
  8
L1_
  6
CONTINUOUS
 62
         4
100
AcDbTrace
 10
-9893.5705485269
 20
11693.8855081076
 30
0.0
 11
-9890.0705485269
 21
11694.4105081076
 31
0.0
 12
-9890.0705485269
 22
11693.3605081076
 32
0.0
 13
-9893.5705485269
 23
11693.8855081076
 33
0.0
  0
TEXT
  5
1EA
100
AcDbEntity
  8
L1_
  6
CONTINUOUS
 62
         4
100
AcDbText
 10
-9857.3622151936
 20
11697.4205081076
 30
0.0
 40
3.5
  1
80
  7
BOX
100
AcDbText
  0
ENDBLK
  5
1EB
100
AcDbEntity
  8
0
  6
CONTINUOUS
100
AcDbBlockEnd
  0
BLOCK
  5
1F8
100
AcDbEntity
  8
0
100
AcDbBlockBegin
  2
*D12
 70
        65
 10
0.0
 20
0.0
 30
0.0
  3
*D12
  1

  0
POINT
  5
1FA
100
AcDbEntity
  8
DEFPOINTS
  6
CONTINUOUS
 62
         0
100
AcDbPoint
 10
-9833.5914812863
 20
11712.4967750237
 30
0.0
  0
POINT
  5
1FB
100
AcDbEntity
  8
DEFPOINTS
  6
CONTINUOUS
 62
         0
100
AcDbPoint
 10
-9833.5914812863
 20
11733.2578887676
 30
0.0
  0
POINT
  5
1FC
100
AcDbEntity
  8
DEFPOINTS
  6
CONTINUOUS
 62
         0
100
AcDbPoint
 10
-9813.5705485269
 20
11729.6478887676
 30
0.0
  0
LINE
  5
1FD
100
AcDbEntity
  8
L1_
  6
CONTINUOUS
 62
         4
100
AcDbLine
 10
-9833.5914812863
 20
11731.5078887676
 30
0.0
 11
-9833.5914812863
 21
11711.6217750237
 31
0.0
  0
LINE
  5
1FE
100
AcDbEntity
  8
L1_
  6
CONTINUOUS
 62
         4
100
AcDbLine
 10
-9813.5705485269
 20
11727.8978887676
 30
0.0
 11
-9813.5705485269
 21
11711.6217750237
 31
0.0
  0
LINE
  5
1FF
100
AcDbEntity
  8
L1_
  6
CONTINUOUS
 62
         4
100
AcDbLine
 10
-9833.5914812863
 20
11712.4967750237
 30
0.0
 11
-9813.5705485269
 21
11712.4967750237
 31
0.0
  0
SOLID
  5
200
100
AcDbEntity
  8
L1_
  6
CONTINUOUS
 62
         4
100
AcDbTrace
 10
-9833.5914812863
 20
11712.4967750237
 30
0.0
 11
-9830.0914812863
 21
11713.0217750237
 31
0.0
 12
-9830.0914812863
 22
11711.9717750237
 32
0.0
 13
-9833.5914812863
 23
11712.4967750237
 33
0.0
  0
SOLID
  5
201
100
AcDbEntity
  8
L1_
  6
CONTINUOUS
 62
         4
100
AcDbTrace
 10
-9813.5705485269
 20
11712.4967750237
 30
0.0
 11
-9817.0705485269
 21
11711.9717750237
 31
0.0
 12
-9817.0705485269
 22
11713.0217750237
 32
0.0
 13
-9813.5705485269
 23
11712.4967750237
 33
0.0
  0
TEXT
  5
203
100
AcDbEntity
  8
L1_
  6
CONTINUOUS
 62
         4
100
AcDbText
 10
-9832.6226815732
 20
11716.0317750237
 30
0.0
 40
3.5
  1
20.02
  7
BOX
100
AcDbText
  0
ENDBLK
  5
204
100
AcDbEntity
  8
0
  6
CONTINUOUS
100
AcDbBlockEnd
  0
BLOCK
  5
218
100
AcDbEntity
  8
0
100
AcDbBlockBegin
  2
*D13
 70
        65
 10
0.0
 20
0.0
 30
0.0
  3
*D13
  1

  0
POINT
  5
21A
100
AcDbEntity
  8
DEFPOINTS
  6
CONTINUOUS
 62
         0
100
AcDbPoint
 10
-9795.2003548505
 20
11746.8578887676
 30
0.0
  0
POINT
  5
21B
100
AcDbEntity
  8
DEFPOINTS
  6
CONTINUOUS
 62
         0
100
AcDbPoint
 10
-9813.5705485269
 20
11746.8578887676
 30
0.0
  0
POINT
  5
21C
100
AcDbEntity
  8
DEFPOINTS
  6
CONTINUOUS
 62
         0
100
AcDbPoint
 10
-9813.5705485269
 20
11731.8578887676
 30
0.0
  0
LINE
  5
21D
100
AcDbEntity
  8
L1_
  6
CONTINUOUS
 62
         4
100
AcDbLine
 10
-9811.8205485269
 20
11746.8578887676
 30
0.0
 11
-9794.3253548505
 21
11746.8578887676
 31
0.0
  0
LINE
  5
21E
100
AcDbEntity
  8
L1_
  6
CONTINUOUS
 62
         4
100
AcDbLine
 10
-9811.8205485269
 20
11731.8578887676
 30
0.0
 11
-9794.3253548505
 21
11731.8578887676
 31
0.0
  0
LINE
  5
21F
100
AcDbEntity
  8
L1_
  6
CONTINUOUS
 62
         4
100
AcDbLine
 10
-9795.2003548505
 20
11746.8578887676
 30
0.0
 11
-9795.2003548505
 21
11731.8578887676
 31
0.0
  0
SOLID
  5
220
100
AcDbEntity
  8
L1_
  6
CONTINUOUS
 62
         4
100
AcDbTrace
 10
-9795.2003548505
 20
11746.8578887676
 30
0.0
 11
-9794.6753548505
 21
11743.3578887676
 31
0.0
 12
-9795.7253548505
 22
11743.3578887676
 32
0.0
 13
-9795.2003548505
 23
11746.8578887676
 33
0.0
  0
SOLID
  5
221
100
AcDbEntity
  8
L1_
  6
CONTINUOUS
 62
         4
100
AcDbTrace
 10
-9795.2003548505
 20
11731.8578887676
 30
0.0
 11
-9795.7253548505
 21
11735.3578887676
 31
0.0
 12
-9794.6753548505
 22
11735.3578887676
 32
0.0
 13
-9795.2003548505
 23
11731.8578887676
 33
0.0
  0
TEXT
  5
223
100
AcDbEntity
  8
L1_
  6
CONTINUOUS
 62
         4
100
AcDbText
 10
-9798.7353548505
 20
11732.0662221009
 30
0.0
 40
3.5
  1
崷15
 50
90.0
  7
BOX
100
AcDbText
  0
ENDBLK
  5
224
100
AcDbEntity
  8
0
  6
CONTINUOUS
100
AcDbBlockEnd
  0
BLOCK
  5
226
100
AcDbEntity
  8
0
100
AcDbBlockBegin
  2
*D14
 70
        65
 10
0.0
 20
0.0
 30
0.0
  3
*D14
  1

  0
POINT
  5
228
100
AcDbEntity
  8
DEFPOINTS
  6
CONTINUOUS
 62
         0
100
AcDbPoint
 10
-9840.5705485269
 20
11702.3248972914
 30
0.0
  0
POINT
  5
229
100
AcDbEntity
  8
DEFPOINTS
  6
CONTINUOUS
 62
         0
100
AcDbPoint
 10
-9840.5705485269
 20
11732.9578887676
 30
0.0
  0
POINT
  5
22A
100
AcDbEntity
  8
DEFPOINTS
  6
CONTINUOUS
 62
         0
100
AcDbPoint
 10
-9813.5705485269
 20
11729.6478887676
 30
0.0
  0
LINE
  5
22B
100
AcDbEntity
  8
L1_
  6
CONTINUOUS
 62
         4
100
AcDbLine
 10
-9840.5705485269
 20
11731.2078887676
 30
0.0
 11
-9840.5705485269
 21
11701.4498972914
 31
0.0
  0
LINE
  5
22C
100
AcDbEntity
  8
L1_
  6
CONTINUOUS
 62
         4
100
AcDbLine
 10
-9813.5705485269
 20
11727.8978887676
 30
0.0
 11
-9813.5705485269
 21
11701.4498972914
 31
0.0
  0
LINE
  5
22D
100
AcDbEntity
  8
L1_
  6
CONTINUOUS
 62
         4
100
AcDbLine
 10
-9840.5705485269
 20
11702.3248972914
 30
0.0
 11
-9813.5705485269
 21
11702.3248972914
 31
0.0
  0
SOLID
  5
22E
100
AcDbEntity
  8
L1_
  6
CONTINUOUS
 62
         4
100
AcDbTrace
 10
-9840.5705485269
 20
11702.3248972914
 30
0.0
 11
-9837.0705485269
 21
11702.8498972914
 31
0.0
 12
-9837.0705485269
 22
11701.7998972914
 32
0.0
 13
-9840.5705485269
 23
11702.3248972914
 33
0.0
  0
SOLID
  5
22F
100
AcDbEntity
  8
L1_
  6
CONTINUOUS
 62
         4
100
AcDbTrace
 10
-9813.5705485269
 20
11702.3248972914
 30
0.0
 11
-9817.0705485269
 21
11701.7998972914
 31
0.0
 12
-9817.0705485269
 22
11702.8498972914
 32
0.0
 13
-9813.5705485269
 23
11702.3248972914
 33
0.0
  0
TEXT
  5
231
100
AcDbEntity
  8
L1_
  6
CONTINUOUS
 62
         4
100
AcDbText
 10
-9832.7000961403
 20
11705.8598972914
 30
0.0
 40
3.5
  1
27
  7
BOX
100
AcDbText
  0
ENDBLK
  5
232
100
AcDbEntity
  8
0
  6
CONTINUOUS
100
AcDbBlockEnd
  0
BLOCK
  5
236
100
AcDbEntity
  8
0
100
AcDbBlockBegin
  2
*D15
 70
        65
 10
0.0
 20
0.0
 30
0.0
  3
*D15
  1

  0
POINT
  5
238
100
AcDbEntity
  8
DEFPOINTS
  6
CONTINUOUS
 62
         0
100
AcDbPoint
 10
-9826.5705485269
 20
11755.8824543314
 30
0.0
  0
POINT
  5
239
100
AcDbEntity
  8
DEFPOINTS
  6
CONTINUOUS
 62
         0
100
AcDbPoint
 10
-9826.5705485269
 20
11750.0678887676
 30
0.0
  0
POINT
  5
23A
100
AcDbEntity
  8
DEFPOINTS
  6
CONTINUOUS
 62
         0
100
AcDbPoint
 10
-9813.5705485269
 20
11749.0678887676
 30
0.0
  0
LINE
  5
23B
100
AcDbEntity
  8
L1_
  6
CONTINUOUS
 62
         4
100
AcDbLine
 10
-9826.5705485269
 20
11751.8178887676
 30
0.0
 11
-9826.5705485269
 21
11756.7574543314
 31
0.0
  0
LINE
  5
23C
100
AcDbEntity
  8
L1_
  6
CONTINUOUS
 62
         4
100
AcDbLine
 10
-9813.5705485269
 20
11750.8178887676
 30
0.0
 11
-9813.5705485269
 21
11756.7574543314
 31
0.0
  0
LINE
  5
23D
100
AcDbEntity
  8
L1_
  6
CONTINUOUS
 62
         4
100
AcDbLine
 10
-9826.5705485269
 20
11755.8824543314
 30
0.0
 11
-9813.5705485269
 21
11755.8824543314
 31
0.0
  0
SOLID
  5
23E
100
AcDbEntity
  8
L1_
  6
CONTINUOUS
 62
         4
100
AcDbTrace
 10
-9826.5705485269
 20
11755.8824543314
 30
0.0
 11
-9823.0705485269
 21
11756.4074543314
 31
0.0
 12
-9823.0705485269
 22
11755.3574543314
 32
0.0
 13
-9826.5705485269
 23
11755.8824543314
 33
0.0
  0
SOLID
  5
23F
100
AcDbEntity
  8
L1_
  6
CONTINUOUS
 62
         4
100
AcDbTrace
 10
-9813.5705485269
 20
11755.8824543314
 30
0.0
 11
-9817.0705485269
 21
11755.3574543314
 31
0.0
 12
-9817.0705485269
 22
11756.4074543314
 32
0.0
 13
-9813.5705485269
 23
11755.8824543314
 33
0.0
  0
TEXT
  5
241
100
AcDbEntity
  8
L1_
  6
CONTINUOUS
 62
         4
100
AcDbText
 10
-9823.8622151936
 20
11759.4174543314
 30
0.0
 40
3.5
  1
13
  7
BOX
100
AcDbText
  0
ENDBLK
  5
242
100
AcDbEntity
  8
0
  6
CONTINUOUS
100
AcDbBlockEnd
  0
BLOCK
  5
24C
100
AcDbEntity
  8
0
100
AcDbBlockBegin
  2
*D16
 70
        65
 10
0.0
 20
0.0
 30
0.0
  3
*D16
  1

  0
POINT
  5
24E
100
AcDbEntity
  8
DEFPOINTS
  6
CONTINUOUS
 62
         0
100
AcDbPoint
 10
-9813.5705485269
 20
12089.8276532865
 30
0.0
  0
POINT
  5
24F
100
AcDbEntity
  8
DEFPOINTS
  6
CONTINUOUS
 62
         0
100
AcDbPoint
 10
-9813.5705485269
 20
11987.6003198193
 30
0.0
  0
POINT
  5
250
100
AcDbEntity
  8
DEFPOINTS
  6
CONTINUOUS
 62
         0
100
AcDbPoint
 10
-10016.4705485269
 20
11996.2966555833
 30
0.0
  0
LINE
  5
251
100
AcDbEntity
  8
L1_
  6
CONTINUOUS
 62
         4
100
AcDbLine
 10
-9813.5705485269
 20
11989.3503198193
 30
0.0
 11
-9813.5705485269
 21
12090.7026532865
 31
0.0
  0
LINE
  5
252
100
AcDbEntity
  8
L1_
  6
CONTINUOUS
 62
         4
100
AcDbLine
 10
-10016.4705485269
 20
11998.0466555833
 30
0.0
 11
-10016.4705485269
 21
12090.7026532865
 31
0.0
  0
LINE
  5
253
100
AcDbEntity
  8
L1_
  6
CONTINUOUS
 62
         4
100
AcDbLine
 10
-9813.5705485269
 20
12089.8276532865
 30
0.0
 11
-10016.4705485269
 21
12089.8276532865
 31
0.0
  0
SOLID
  5
254
100
AcDbEntity
  8
L1_
  6
CONTINUOUS
 62
         4
100
AcDbTrace
 10
-9813.5705485269
 20
12089.8276532865
 30
0.0
 11
-9817.0705485269
 21
12089.3026532865
 31
0.0
 12
-9817.0705485269
 22
12090.3526532865
 32
0.0
 13
-9813.5705485269
 23
12089.8276532865
 33
0.0
  0
SOLID
  5
255
100
AcDbEntity
  8
L1_
  6
CONTINUOUS
 62
         4
100
AcDbTrace
 10
-10016.4705485269
 20
12089.8276532865
 30
0.0
 11
-10012.9705485269
 21
12090.3526532865
 31
0.0
 12
-10012.9705485269
 22
12089.3026532865
 32
0.0
 13
-10016.4705485269
 23
12089.8276532865
 33
0.0
  0
TEXT
  5
257
100
AcDbEntity
  8
L1_
  6
CONTINUOUS
 62
         4
100
AcDbText
 10
-9922.6160818871
 20
12092.4526532865
 30
0.0
 40
3.5
  1
202.9
  7
BOX
100
AcDbText
  0
ENDBLK
  5
258
100
AcDbEntity
  8
0
  6
CONTINUOUS
100
AcDbBlockEnd
  0
BLOCK
  5
25A
100
AcDbEntity
  8
0
100
AcDbBlockBegin
  2
*D17
 70
        65
 10
0.0
 20
0.0
 30
0.0
  3
*D17
  1

  0
POINT
  5
25C
100
AcDbEntity
  8
DEFPOINTS
  6
CONTINUOUS
 62
         0
100
AcDbPoint
 10
-9914.8705485269
 20
12075.1847706212
 30
0.0
  0
POINT
  5
25D
100
AcDbEntity
  8
DEFPOINTS
  6
CONTINUOUS
 62
         0
100
AcDbPoint
 10
-9914.8705485269
 20
12018.0753198193
 30
0.0
  0
POINT
  5
25E
100
AcDbEntity
  8
DEFPOINTS
  6
CONTINUOUS
 62
         0
100
AcDbPoint
 10
-9813.5705485269
 20
11987.6003198193
 30
0.0
  0
LINE
  5
25F
100
AcDbEntity
  8
L1_
  6
CONTINUOUS
 62
         4
100
AcDbLine
 10
-9914.8705485269
 20
12019.8253198193
 30
0.0
 11
-9914.8705485269
 21
12076.0597706212
 31
0.0
  0
LINE
  5
260
100
AcDbEntity
  8
L1_
  6
CONTINUOUS
 62
         4
100
AcDbLine
 10
-9813.5705485269
 20
11989.3503198193
 30
0.0
 11
-9813.5705485269
 21
12076.0597706212
 31
0.0
  0
LINE
  5
261
100
AcDbEntity
  8
L1_
  6
CONTINUOUS
 62
         4
100
AcDbLine
 10
-9914.8705485269
 20
12075.1847706212
 30
0.0
 11
-9813.5705485269
 21
12075.1847706212
 31
0.0
  0
SOLID
  5
262
100
AcDbEntity
  8
L1_
  6
CONTINUOUS
 62
         4
100
AcDbTrace
 10
-9914.8705485269
 20
12075.1847706212
 30
0.0
 11
-9911.3705485269
 21
12075.7097706212
 31
0.0
 12
-9911.3705485269
 22
12074.6597706212
 32
0.0
 13
-9914.8705485269
 23
12075.1847706212
 33
0.0
  0
SOLID
  5
263
100
AcDbEntity
  8
L1_
  6
CONTINUOUS
 62
         4
100
AcDbTrace
 10
-9813.5705485269
 20
12075.1847706212
 30
0.0
 11
-9817.0705485269
 21
12074.6597706212
 31
0.0
 12
-9817.0705485269
 22
12075.7097706212
 32
0.0
 13
-9813.5705485269
 23
12075.1847706212
 33
0.0
  0
TEXT
  5
265
100
AcDbEntity
  8
L1_
  6
CONTINUOUS
 62
         4
100
AcDbText
 10
-9875.9757889532
 20
12077.8097706212
 30
0.0
 40
3.5
  1
101.3
  7
BOX
100
AcDbText
  0
ENDBLK
  5
266
100
AcDbEntity
  8
0
  6
CONTINUOUS
100
AcDbBlockEnd
  0
BLOCK
  5
26F
100
AcDbEntity
  8
0
100
AcDbBlockBegin
  2
*X18
 70
        65
 10
0.0
 20
0.0
 30
0.0
  3
*X18
  1

  0
LINE
  5
270
100
AcDbEntity
  8
L1_
  6
CONTINUOUS
 62
         1
100
AcDbLine
 10
-9812.1537288471
 20
11964.6003198193
 30
0.0
 11
-9810.4705485269
 21
11966.2835001395
 31
0.0
  0
LINE
  5
271
100
AcDbEntity
  8
L1_
  6
CONTINUOUS
 62
         1
100
AcDbLine
 10
-9814.2750491907
 20
11964.6003198193
 30
0.0
 11
-9809.9705485269
 21
11968.9048204831
 31
0.0
  0
LINE
  5
272
100
AcDbEntity
  8
L1_
  6
CONTINUOUS
 62
         1
100
AcDbLine
 10
-9816.3963695342
 20
11964.6003198193
 30
0.0
 11
-9809.9963695342
 21
11971.0003198193
 31
0.0
  0
LINE
  5
273
100
AcDbEntity
  8
L1_
  6
CONTINUOUS
 62
         1
100
AcDbLine
 10
-9818.5176898778
 20
11964.6003198193
 30
0.0
 11
-9815.7676898778
 21
11967.3503198193
 31
0.0
  0
LINE
  5
274
100
AcDbEntity
  8
L1_
  6
CONTINUOUS
 62
         1
100
AcDbLine
 10
-9813.5705485269
 20
11969.5474611702
 30
0.0
 11
-9811.9705485269
 21
11971.1474611702
 31
0.0
  0
LINE
  5
275
100
AcDbEntity
  8
L1_
  6
CONTINUOUS
 62
         1
100
AcDbLine
 10
-9820.6390102213
 20
11964.6003198193
 30
0.0
 11
-9817.8049277486
 21
11967.4344022921
 31
0.0
  0
LINE
  5
276
100
AcDbEntity
  8
L1_
  6
CONTINUOUS
 62
         1
100
AcDbLine
 10
-9813.5705485269
 20
11971.6687815138
 30
0.0
 11
-9813.1640102213
 21
11972.0753198193
 31
0.0
  0
LINE
  5
277
100
AcDbEntity
  8
L1_
  6
CONTINUOUS
 62
         1
100
AcDbLine
 10
-9822.7603305649
 20
11964.6003198193
 30
0.0
 11
-9819.2603305649
 21
11968.1003198193
 31
0.0
  0
LINE
  5
278
100
AcDbEntity
  8
L1_
  6
CONTINUOUS
 62
         1
100
AcDbLine
 10
-9824.8816509085
 20
11964.6003198193
 30
0.0
 11
-9821.3816509085
 21
11968.1003198193
 31
0.0
  0
LINE
  5
279
100
AcDbEntity
  8
L1_
  6
CONTINUOUS
 62
         1
100
AcDbLine
 10
-9826.6936808127
 20
11964.9096102586
 30
0.0
 11
-9823.502971252
 21
11968.1003198193
 31
0.0
  0
LINE
  5
27A
100
AcDbEntity
  8
L1_
  6
CONTINUOUS
 62
         1
100
AcDbLine
 10
-9826.9705485269
 20
11966.754062888
 30
0.0
 11
-9825.6242915956
 21
11968.1003198193
 31
0.0
  0
LINE
  5
27B
100
AcDbEntity
  8
L1_
  6
CONTINUOUS
 62
         1
100
AcDbLine
 10
-9810.1456119391
 20
11985.7003198193
 30
0.0
 11
-9809.9705485269
 21
11985.8753832316
 31
0.0
  0
LINE
  5
27C
100
AcDbEntity
  8
L1_
  6
CONTINUOUS
 62
         1
100
AcDbLine
 10
-9813.3419322827
 20
11984.6253198193
 30
0.0
 11
-9809.9705485269
 21
11987.9967035751
 31
0.0
  0
LINE
  5
27D
100
AcDbEntity
  8
L1_
  6
CONTINUOUS
 62
         1
100
AcDbLine
 10
-9813.5705485269
 20
11986.5180239187
 30
0.0
 11
-9810.4705485269
 21
11989.6180239187
 31
0.0
  0
LINE
  5
27E
100
AcDbEntity
  8
L1_
  6
CONTINUOUS
 62
         1
100
AcDbLine
 10
-9813.5705485269
 20
11988.6393442623
 30
0.0
 11
-9810.6063764924
 21
11991.6035162967
 31
0.0
  0
LINE
  5
27F
100
AcDbEntity
  8
L1_
  6
CONTINUOUS
 62
         1
100
AcDbLine
 10
-9815.0835100812
 20
11989.2477030515
 30
0.0
 11
-9812.2308933134
 21
11992.1003198193
 31
0.0
  0
LINE
  5
280
100
AcDbEntity
  8
L1_
  6
CONTINUOUS
 62
         1
100
AcDbLine
 10
-9817.1022136569
 20
11989.3503198193
 30
0.0
 11
-9814.3522136569
 21
11992.1003198193
 31
0.0
  0
LINE
  5
281
100
AcDbEntity
  8
L1_
  6
CONTINUOUS
 62
         1
100
AcDbLine
 10
-9819.9735340005
 20
11988.6003198193
 30
0.0
 11
-9816.4735340005
 21
11992.1003198193
 31
0.0
  0
LINE
  5
282
100
AcDbEntity
  8
L1_
  6
CONTINUOUS
 62
         1
100
AcDbLine
 10
-9822.0948543441
 20
11988.6003198193
 30
0.0
 11
-9818.5948543441
 21
11992.1003198193
 31
0.0
  0
LINE
  5
283
100
AcDbEntity
  8
L1_
  6
CONTINUOUS
 62
         1
100
AcDbLine
 10
-9824.2161746876
 20
11988.6003198193
 30
0.0
 11
-9820.7161746876
 21
11992.1003198193
 31
0.0
  0
LINE
  5
284
100
AcDbEntity
  8
L1_
  6
CONTINUOUS
 62
         1
100
AcDbLine
 10
-9826.2863277318
 20
11988.6514871187
 30
0.0
 11
-9822.8374950312
 21
11992.1003198193
 31
0.0
  0
LINE
  5
285
100
AcDbEntity
  8
L1_
  6
CONTINUOUS
 62
         1
100
AcDbLine
 10
-9826.9705485269
 20
11990.0885866672
 30
0.0
 11
-9824.9588153747
 21
11992.1003198193
 31
0.0
  0
ENDBLK
  5
286
100
AcDbEntity
  8
0
  6
CONTINUOUS
100
AcDbBlockEnd
  0
BLOCK
  5
2BA
100
AcDbEntity
  8
0
100
AcDbBlockBegin
  2
*D19
 70
        65
 10
0.0
 20
0.0
 30
0.0
  3
*D19
  1

  0
POINT
  5
2BC
100
AcDbEntity
  8
DEFPOINTS
  6
CONTINUOUS
 62
         0
100
AcDbPoint
 10
-9815.5705485269
 20
11948.3349732576
 30
0.0
  0
POINT
  5
2BD
100
AcDbEntity
  8
DEFPOINTS
  6
CONTINUOUS
 62
         0
100
AcDbPoint
 10
-9815.5705485269
 20
11968.3003198193
 30
0.0
  0
POINT
  5
2BE
100
AcDbEntity
  8
DEFPOINTS
  6
CONTINUOUS
 62
         0
100
AcDbPoint
 10
-9813.5705485269
 20
11969.1003198193
 30
0.0
  0
LINE
  5
2BF
100
AcDbEntity
  8
L1_
  6
CONTINUOUS
 62
         4
100
AcDbLine
 10
-9815.5705485269
 20
11966.5503198193
 30
0.0
 11
-9815.5705485269
 21
11947.4599732576
 31
0.0
  0
LINE
  5
2C0
100
AcDbEntity
  8
L1_
  6
CONTINUOUS
 62
         4
100
AcDbLine
 10
-9813.5705485269
 20
11967.3503198193
 30
0.0
 11
-9813.5705485269
 21
11947.4599732576
 31
0.0
  0
LINE
  5
2C1
100
AcDbEntity
  8
L1_
  6
CONTINUOUS
 62
         4
100
AcDbLine
 10
-9815.5705485269
 20
11948.3349732576
 30
0.0
 11
-9822.5705485269
 21
11948.3349732576
 31
0.0
  0
SOLID
  5
2C2
100
AcDbEntity
  8
L1_
  6
CONTINUOUS
 62
         4
100
AcDbTrace
 10
-9815.5705485269
 20
11948.3349732576
 30
0.0
 11
-9819.0705485269
 21
11947.8099732576
 31
0.0
 12
-9819.0705485269
 22
11948.8599732576
 32
0.0
 13
-9815.5705485269
 23
11948.3349732576
 33
0.0
  0
LINE
  5
2C3
100
AcDbEntity
  8
L1_
  6
CONTINUOUS
 62
         4
100
AcDbLine
 10
-9813.5705485269
 20
11948.3349732576
 30
0.0
 11
-9805.0636272552
 21
11948.3349732576
 31
0.0
  0
SOLID
  5
2C4
100
AcDbEntity
  8
L1_
  6
CONTINUOUS
 62
         4
100
AcDbTrace
 10
-9813.5705485269
 20
11948.3349732576
 30
0.0
 11
-9810.0705485269
 21
11948.8599732576
 31
0.0
 12
-9810.0705485269
 22
11947.8099732576
 32
0.0
 13
-9813.5705485269
 23
11948.3349732576
 33
0.0
  0
LINE
  5
2C5
100
AcDbEntity
  8
L1_
  6
CONTINUOUS
 62
         4
100
AcDbLine
 10
-9815.5705485269
 20
11948.3349732576
 30
0.0
 11
-9813.5705485269
 21
11948.3349732576
 31
0.0
  0
TEXT
  5
2C7
100
AcDbEntity
  8
L1_
  6
CONTINUOUS
 62
         4
100
AcDbText
 10
-9810.3136272552
 20
11950.9599732576
 30
0.0
 40
3.5
  1
2
  7
BOX
100
AcDbText
  0
ENDBLK
  5
2C8
100
AcDbEntity
  8
0
  6
CONTINUOUS
100
AcDbBlockEnd
  0
BLOCK
  5
2CA
100
AcDbEntity
  8
0
100
AcDbBlockBegin
  2
*D20
 70
        65
 10
0.0
 20
0.0
 30
0.0
  3
*D20
  1

  0
POINT
  5
2CC
100
AcDbEntity
  8
DEFPOINTS
  6
CONTINUOUS
 62
         0
100
AcDbPoint
 10
-9813.5705485269
 20
11936.9943498744
 30
0.0
  0
POINT
  5
2CD
100
AcDbEntity
  8
DEFPOINTS
  6
CONTINUOUS
 62
         0
100
AcDbPoint
 10
-9813.5705485269
 20
11969.1003198193
 30
0.0
  0
POINT
  5
2CE
100
AcDbEntity
  8
DEFPOINTS
  6
CONTINUOUS
 62
         0
100
AcDbPoint
 10
-9827.5705485269
 20
11965.1003198193
 30
0.0
  0
LINE
  5
2CF
100
AcDbEntity
  8
L1_
  6
CONTINUOUS
 62
         4
100
AcDbLine
 10
-9813.5705485269
 20
11967.3503198193
 30
0.0
 11
-9813.5705485269
 21
11936.1193498744
 31
0.0
  0
LINE
  5
2D0
100
AcDbEntity
  8
L1_
  6
CONTINUOUS
 62
         4
100
AcDbLine
 10
-9827.5705485269
 20
11963.3503198193
 30
0.0
 11
-9827.5705485269
 21
11936.1193498744
 31
0.0
  0
LINE
  5
2D1
100
AcDbEntity
  8
L1_
  6
CONTINUOUS
 62
         4
100
AcDbLine
 10
-9813.5705485269
 20
11936.9943498744
 30
0.0
 11
-9827.5705485269
 21
11936.9943498744
 31
0.0
  0
SOLID
  5
2D2
100
AcDbEntity
  8
L1_
  6
CONTINUOUS
 62
         4
100
AcDbTrace
 10
-9813.5705485269
 20
11936.9943498744
 30
0.0
 11
-9817.0705485269
 21
11936.4693498744
 31
0.0
 12
-9817.0705485269
 22
11937.5193498744
 32
0.0
 13
-9813.5705485269
 23
11936.9943498744
 33
0.0
  0
SOLID
  5
2D3
100
AcDbEntity
  8
L1_
  6
CONTINUOUS
 62
         4
100
AcDbTrace
 10
-9827.5705485269
 20
11936.9943498744
 30
0.0
 11
-9824.0705485269
 21
11937.5193498744
 31
0.0
 12
-9824.0705485269
 22
11936.4693498744
 32
0.0
 13
-9827.5705485269
 23
11936.9943498744
 33
0.0
  0
TEXT
  5
2D5
100
AcDbEntity
  8
L1_
  6
CONTINUOUS
 62
         4
100
AcDbText
 10
-9824.3903918021
 20
11939.6193498744
 30
0.0
 40
3.5
  1
14
  7
BOX
100
AcDbText
  0
ENDBLK
  5
2D6
100
AcDbEntity
  8
0
  6
CONTINUOUS
100
AcDbBlockEnd
  0
BLOCK
  5
52A
100
AcDbEntity
  8
0
100
AcDbBlockBegin
  2
*D21
 70
        65
 10
0.0
 20
0.0
 30
0.0
  3
*D21
  1

  0
POINT
  5
52C
100
AcDbEntity
  8
DEFPOINTS
  6
CONTINUOUS
 62
         0
100
AcDbPoint
 10
-9914.8705485269
 20
12083.0312119539
 30
0.0
  0
POINT
  5
52D
100
AcDbEntity
  8
DEFPOINTS
  6
CONTINUOUS
 62
         0
100
AcDbPoint
 10
-9914.8705485269
 20
12018.0753198193
 30
0.0
  0
POINT
  5
52E
100
AcDbEntity
  8
DEFPOINTS
  6
CONTINUOUS
 62
         0
100
AcDbPoint
 10
-9809.9705485269
 20
11988.6003198193
 30
0.0
  0
LINE
  5
52F
100
AcDbEntity
  8
L1_
  6
CONTINUOUS
 62
         4
100
AcDbLine
 10
-9914.8705485269
 20
12019.8253198193
 30
0.0
 11
-9914.8705485269
 21
12083.9062119539
 31
0.0
  0
LINE
  5
530
100
AcDbEntity
  8
L1_
  6
CONTINUOUS
 62
         4
100
AcDbLine
 10
-9809.9705485269
 20
11990.3503198193
 30
0.0
 11
-9809.9705485269
 21
12083.9062119539
 31
0.0
  0
LINE
  5
531
100
AcDbEntity
  8
L1_
  6
CONTINUOUS
 62
         4
100
AcDbLine
 10
-9914.8705485269
 20
12083.0312119539
 30
0.0
 11
-9809.9705485269
 21
12083.0312119539
 31
0.0
  0
SOLID
  5
532
100
AcDbEntity
  8
L1_
  6
CONTINUOUS
 62
         4
100
AcDbTrace
 10
-9914.8705485269
 20
12083.0312119539
 30
0.0
 11
-9911.3705485269
 21
12083.5562119539
 31
0.0
 12
-9911.3705485269
 22
12082.5062119539
 32
0.0
 13
-9914.8705485269
 23
12083.0312119539
 33
0.0
  0
SOLID
  5
533
100
AcDbEntity
  8
L1_
  6
CONTINUOUS
 62
         4
100
AcDbTrace
 10
-9809.9705485269
 20
12083.0312119539
 30
0.0
 11
-9813.4705485269
 21
12082.5062119539
 31
0.0
 12
-9813.4705485269
 22
12083.5562119539
 32
0.0
 13
-9809.9705485269
 23
12083.0312119539
 33
0.0
  0
TEXT
  5
535
100
AcDbEntity
  8
L1_
  6
CONTINUOUS
 62
         4
100
AcDbText
 10
-9874.0776374965
 20
12085.1312119539
 30
0.0
 40
3.5
  1
104.9
  7
BOX
100
AcDbText
  0
ENDBLK
  5
536
100
AcDbEntity
  8
0
  6
CONTINUOUS
100
AcDbBlockEnd
  0
BLOCK
  5
538
100
AcDbEntity
  8
0
100
AcDbBlockBegin
  2
*D22
 70
        65
 10
0.0
 20
0.0
 30
0.0
  3
*D22
  1

  0
POINT
  5
53A
100
AcDbEntity
  8
DEFPOINTS
  6
CONTINUOUS
 62
         0
100
AcDbPoint
 10
-9794.158345878
 20
11988.4003198193
 30
0.0
  0
POINT
  5
53B
100
AcDbEntity
  8
DEFPOINTS
  6
CONTINUOUS
 62
         0
100
AcDbPoint
 10
-9814.3705485269
 20
11988.4003198193
 30
0.0
  0
POINT
  5
53C
100
AcDbEntity
  8
DEFPOINTS
  6
CONTINUOUS
 62
         0
100
AcDbPoint
 10
-9814.3705485269
 20
11968.3003198193
 30
0.0
  0
LINE
  5
53D
100
AcDbEntity
  8
L1_
  6
CONTINUOUS
 62
         4
100
AcDbLine
 10
-9812.6205485269
 20
11988.4003198193
 30
0.0
 11
-9793.283345878
 21
11988.4003198193
 31
0.0
  0
LINE
  5
53E
100
AcDbEntity
  8
L1_
  6
CONTINUOUS
 62
         4
100
AcDbLine
 10
-9812.6205485269
 20
11968.3003198193
 30
0.0
 11
-9793.283345878
 21
11968.3003198193
 31
0.0
  0
LINE
  5
53F
100
AcDbEntity
  8
L1_
  6
CONTINUOUS
 62
         4
100
AcDbLine
 10
-9794.158345878
 20
11988.4003198193
 30
0.0
 11
-9794.158345878
 21
11968.3003198193
 31
0.0
  0
SOLID
  5
540
100
AcDbEntity
  8
L1_
  6
CONTINUOUS
 62
         4
100
AcDbTrace
 10
-9794.158345878
 20
11988.4003198193
 30
0.0
 11
-9793.633345878
 21
11984.9003198193
 31
0.0
 12
-9794.683345878
 22
11984.9003198193
 32
0.0
 13
-9794.158345878
 23
11988.4003198193
 33
0.0
  0
SOLID
  5
541
100
AcDbEntity
  8
L1_
  6
CONTINUOUS
 62
         4
100
AcDbTrace
 10
-9794.158345878
 20
11968.3003198193
 30
0.0
 11
-9794.683345878
 21
11971.8003198193
 31
0.0
 12
-9793.633345878
 22
11971.8003198193
 32
0.0
 13
-9794.158345878
 23
11968.3003198193
 33
0.0
  0
TEXT
  5
543
100
AcDbEntity
  8
L1_
  6
CONTINUOUS
 62
         4
100
AcDbText
 10
-9796.258345878
 20
11964.2847829737
 30
0.0
 40
3.5
  1
崷20.1
 50
90.0
  7
BOX
100
AcDbText
  0
ENDBLK
  5
544
100
AcDbEntity
  8
0
  6
CONTINUOUS
100
AcDbBlockEnd
  0
BLOCK
  5
546
100
AcDbEntity
  8
0
100
AcDbBlockBegin
  2
*D23
 70
        65
 10
0.0
 20
0.0
 30
0.0
  3
*D23
  1

  0
POINT
  5
548
100
AcDbEntity
  8
DEFPOINTS
  6
CONTINUOUS
 62
         0
100
AcDbPoint
 10
-9779.5267488447
 20
11964.6003198193
 30
0.0
  0
POINT
  5
549
100
AcDbEntity
  8
DEFPOINTS
  6
CONTINUOUS
 62
         0
100
AcDbPoint
 10
-9828.0705485269
 20
11964.6003198193
 30
0.0
  0
POINT
  5
54A
100
AcDbEntity
  8
DEFPOINTS
  6
CONTINUOUS
 62
         0
100
AcDbPoint
 10
-9828.0705485269
 20
11992.1003198193
 30
0.0
  0
LINE
  5
54B
100
AcDbEntity
  8
L1_
  6
CONTINUOUS
 62
         4
100
AcDbLine
 10
-9826.3205485269
 20
11964.6003198193
 30
0.0
 11
-9778.6517488447
 21
11964.6003198193
 31
0.0
  0
LINE
  5
54C
100
AcDbEntity
  8
L1_
  6
CONTINUOUS
 62
         4
100
AcDbLine
 10
-9826.3205485269
 20
11992.1003198193
 30
0.0
 11
-9778.6517488447
 21
11992.1003198193
 31
0.0
  0
LINE
  5
54D
100
AcDbEntity
  8
L1_
  6
CONTINUOUS
 62
         4
100
AcDbLine
 10
-9779.5267488447
 20
11964.6003198193
 30
0.0
 11
-9779.5267488447
 21
11992.1003198193
 31
0.0
  0
SOLID
  5
54E
100
AcDbEntity
  8
L1_
  6
CONTINUOUS
 62
         4
100
AcDbTrace
 10
-9779.5267488447
 20
11964.6003198193
 30
0.0
 11
-9780.0517488447
 21
11968.1003198193
 31
0.0
 12
-9779.0017488447
 22
11968.1003198193
 32
0.0
 13
-9779.5267488447
 23
11964.6003198193
 33
0.0
  0
SOLID
  5
54F
100
AcDbEntity
  8
L1_
  6
CONTINUOUS
 62
         4
100
AcDbTrace
 10
-9779.5267488447
 20
11992.1003198193
 30
0.0
 11
-9779.0017488447
 21
11988.6003198193
 31
0.0
 12
-9780.0517488447
 22
11988.6003198193
 32
0.0
 13
-9779.5267488447
 23
11992.1003198193
 33
0.0
  0
TEXT
  5
551
100
AcDbEntity
  8
L1_
  6
CONTINUOUS
 62
         4
100
AcDbText
 10
-9781.6267488447
 20
11967.1167049802
 30
0.0
 40
3.5
  1
崷27.5
 50
90.0
  7
BOX
100
AcDbText
  0
ENDBLK
  5
552
100
AcDbEntity
  8
0
  6
CONTINUOUS
100
AcDbBlockEnd
  0
ENDSEC
  0
SECTION
  2
ENTITIES
  0
LINE
  5
25
100
AcDbEntity
  8
L1_
  6
CONTINUOUS
 62
         7
100
AcDbLine
 10
-9896.2705485269
 20
11690.6078887676
 30
0.0
 11
-9895.7705485269
 21
11691.1078887676
 31
0.0
  0
LINE
  5
26
100
AcDbEntity
  8
L1_
  6
CONTINUOUS
 62
         7
100
AcDbLine
 10
-9911.6705485269
 20
11691.1078887676
 30
0.0
 11
-9911.1705485269
 21
11690.6078887676
 31
0.0
  0
LINE
  5
27
100
AcDbEntity
  8
L1_
  6
CONTINUOUS
 62
         7
100
AcDbLine
 10
-9896.2705485269
 20
11788.1078887676
 30
0.0
 11
-9895.7705485269
 21
11787.6078887676
 31
0.0
  0
LINE
  5
28
100
AcDbEntity
  8
L1_
  6
CONTINUOUS
 62
         7
100
AcDbLine
 10
-9911.1705485269
 20
11788.1078887676
 30
0.0
 11
-9911.6705485269
 21
11787.6078887676
 31
0.0
  0
LINE
  5
29
100
AcDbEntity
  8
L1_
  6
CONTINUOUS
 62
         7
100
AcDbLine
 10
-9911.6705485269
 20
11930.1003198193
 30
0.0
 11
-9911.1705485269
 21
11929.6003198193
 31
0.0
  0
LINE
  5
2A
100
AcDbEntity
  8
L1_
  6
CONTINUOUS
 62
         7
100
AcDbLine
 10
-9895.7705485269
 20
11930.1003198193
 30
0.0
 11
-9896.2705485269
 21
11929.6003198193
 31
0.0
  0
LINE
  5
2B
100
AcDbEntity
  8
L1_
  6
CONTINUOUS
 62
         4
100
AcDbLine
 10
-9896.2705485269
 20
11929.6003198193
 30
0.0
 11
-9896.2705485269
 21
11964.5003198193
 31
0.0
  0
LINE
  5
2C
100
AcDbEntity
  8
L1_
  6
CONTINUOUS
 62
         4
100
AcDbLine
 10
-9911.1705485269
 20
11929.6003198193
 30
0.0
 11
-9911.1705485269
 21
11964.5003198193
 31
0.0
  0
LINE
  5
2D
100
AcDbEntity
  8
L1_
  6
CONTINUOUS
 62
         7
100
AcDbLine
 10
-9911.6705485269
 20
12026.6003198193
 30
0.0
 11
-9911.1705485269
 21
12027.1003198193
 31
0.0
  0
LINE
  5
2E
100
AcDbEntity
  8
L1_
  6
CONTINUOUS
 62
         7
100
AcDbLine
 10
-9896.2705485269
 20
12027.1003198193
 30
0.0
 11
-9895.7705485269
 21
12026.6003198193
 31
0.0
  0
LINE
  5
2F
100
AcDbEntity
  8
L1_
  6
CONTINUOUS
 62
         4
100
AcDbLine
 10
-9896.2705485269
 20
11992.2003198193
 30
0.0
 11
-9896.2705485269
 21
12027.1003198193
 31
0.0
  0
LINE
  5
30
100
AcDbEntity
  8
L1_
  6
CONTINUOUS
 62
         4
100
AcDbLine
 10
-9911.1705485269
 20
11992.2003198193
 30
0.0
 11
-9911.1705485269
 21
12027.1003198193
 31
0.0
  0
TEXT
  5
32
100
AcDbEntity
  8
L1_
  6
CONTINUOUS
 62
         4
100
AcDbText
 10
-9623.0427206712
 20
11769.4091458004
 30
0.0
 40
5.25
  1
NO.A
 41
0.6
  7
STSL
100
AcDbText
  0
INSERT
  5
AE
100
AcDbEntity
  8
0
  6
CONTINUOUS
100
AcDbBlockReference
  2
*X0
 10
0.0
 20
0.0
 30
0.0
  0
LINE
  5
AF
100
AcDbEntity
  8
L1_
  6
CONTINUOUS
 62
         7
100
AcDbLine
 10
-9901.4678671077
 20
11749.754230231
 30
0.0
 11
-9901.4678671077
 21
11728.9615473042
 31
0.0
  0
LINE
  5
B0
100
AcDbEntity
  8
L1_
  6
CONTINUOUS
 62
         7
100
AcDbLine
 10
-9901.4678671077
 20
11728.9615473042
 30
0.0
 11
-9898.6005485269
 21
11733.9278887676
 31
0.0
  0
LINE
  5
B1
100
AcDbEntity
  8
L1_
  6
CONTINUOUS
 62
         7
100
AcDbLine
 10
-9901.4678671077
 20
11749.754230231
 30
0.0
 11
-9898.6005485269
 21
11744.7878887676
 31
0.0
  0
LINE
  5
B2
100
AcDbEntity
  8
L1_
  6
CONTINUOUS
 62
         7
100
AcDbLine
 10
-9898.6005485269
 20
11744.7878887676
 30
0.0
 11
-9898.6005485269
 21
11733.9278887676
 31
0.0
  0
LINE
  5
B3
100
AcDbEntity
  8
L1_
  6
CONTINUOUS
 62
         7
100
AcDbLine
 10
-9898.6005485269
 20
11733.9278887676
 30
0.0
 11
-9840.5705485269
 21
11733.9278887676
 31
0.0
  0
LINE
  5
B4
100
AcDbEntity
  8
L1_
  6
CONTINUOUS
 62
         7
100
AcDbLine
 10
-9898.6005485269
 20
11744.7878887676
 30
0.0
 11
-9840.5705485269
 21
11744.7878887676
 31
0.0
  0
ARC
  5
B5
100
AcDbEntity
  8
L1_
  6
CONTINUOUS
 62
         7
100
AcDbCircle
 10
-9876.8185485269
 20
11722.6078887676
 30
0.0
 40
3.0
100
AcDbArc
 50
90.0
 51
180.0
  0
ARC
  5
B6
100
AcDbEntity
  8
L1_
  6
CONTINUOUS
 62
         7
100
AcDbCircle
 10
-9876.8185485269
 20
11756.1078887676
 30
0.0
 40
3.0
100
AcDbArc
 50
180.0
 51
270.0
  0
ARC
  5
B7
100
AcDbEntity
  8
L1_
  6
CONTINUOUS
 62
         7
100
AcDbCircle
 10
-9880.6185485269
 20
11705.2328887676
 30
0.0
 40
0.8
100
AcDbArc
 50
269.9999999999
 51
360.0
  0
ARC
  5
B8
100
AcDbEntity
  8
L1_
  6
CONTINUOUS
 62
         7
100
AcDbCircle
 10
-9880.6185485269
 20
11773.4828887676
 30
0.0
 40
0.8
100
AcDbArc
 50
0.0
 51
90.0000000003
  0
LINE
  5
B9
100
AcDbEntity
  8
L1_
  6
CONTINUOUS
 62
         7
100
AcDbLine
 10
-9879.8185485269
 20
11756.1078887676
 30
0.0
 11
-9879.8185485269
 21
11773.4828887676
 31
0.0
  0
LINE
  5
BA
100
AcDbEntity
  8
L1_
  6
CONTINUOUS
 62
         7
100
AcDbLine
 10
-9879.8185485269
 20
11705.2328887676
 30
0.0
 11
-9879.8185485269
 21
11722.6078887676
 31
0.0
  0
LINE
  5
BB
100
AcDbEntity
  8
L1_
  6
CONTINUOUS
 62
         7
100
AcDbLine
 10
-9828.0705485269
 20
11725.6078887676
 30
0.0
 11
-9876.8185485269
 21
11725.6078887676
 31
0.0
  0
INSERT
  5
DD
100
AcDbEntity
  8
0
  6
CONTINUOUS
100
AcDbBlockReference
  2
*X1
 10
0.0
 20
0.0
 30
0.0
  0
INSERT
  5
FE
100
AcDbEntity
  8
0
  6
CONTINUOUS
100
AcDbBlockReference
  2
*X2
 10
0.0
 20
0.0
 30
0.0
  0
LINE
  5
FF
100
AcDbEntity
  8
L1_
  6
CONTINUOUS
 62
         2
100
AcDbLine
 10
-9609.4233996054
 20
11785.2183345909
 30
0.0
 11
-9609.7233996054
 21
11785.2183345909
 31
0.0
  0
LINE
  5
100
100
AcDbEntity
  8
L1_
  6
CONTINUOUS
 62
         2
100
AcDbLine
 10
-9609.4233996054
 20
11788.9533345909
 30
0.0
 11
-9609.7233996054
 21
11788.9533345909
 31
0.0
  0
LINE
  5
101
100
AcDbEntity
  8
L1_
  6
CONTINUOUS
 62
         2
100
AcDbLine
 10
-9609.4233996054
 20
11802.1333345909
 30
0.0
 11
-9609.7233996054
 21
11802.1333345909
 31
0.0
  0
LINE
  5
102
100
AcDbEntity
  8
L1_
  6
CONTINUOUS
 62
         2
100
AcDbLine
 10
-9609.4233996054
 20
11805.8683345909
 30
0.0
 11
-9609.7233996054
 21
11805.8683345909
 31
0.0
  0
LINE
  5
103
100
AcDbEntity
  8
L1_
  6
CONTINUOUS
 62
         2
100
AcDbLine
 10
-9609.4233996054
 20
11785.2183345909
 30
0.0
 11
-9609.4233996054
 21
11805.8683345909
 31
0.0
  0
LINE
  5
104
100
AcDbEntity
  8
L1_
  6
CONTINUOUS
 62
         2
100
AcDbLine
 10
-9609.7233996054
 20
11785.2183345909
 30
0.0
 11
-9609.7233996054
 21
11805.8683345909
 31
0.0
  0
DIMENSION
  5
108
100
AcDbEntity
  8
L1_
  6
CONTINUOUS
 62
         4
100
AcDbDimension
  2
*D3
 10
-9633.1202481639
 20
11806.2933345909
 30
0.0
 11
-9635.7452481639
 21
11775.6725883574
 31
0.0
  3
DIMSTYLE1
100
AcDbAlignedDimension
 13
-9622.8233996054
 23
11806.2933345909
 33
0.0
 14
-9622.8233996054
 24
11784.7933345909
 34
0.0
 50
90.0
100
AcDbRotatedDimension
  0
INSERT
  5
12F
100
AcDbEntity
  8
0
  6
CONTINUOUS
100
AcDbBlockReference
  2
*X4
 10
0.0
 20
0.0
 30
0.0
  0
LINE
  5
130
100
AcDbEntity
  8
L1_
  6
CONTINUOUS
 62
         4
100
AcDbLine
 10
-9613.9573742016
 20
11784.7933345909
 30
0.0
 11
-9622.6894250092
 21
11784.7933345909
 31
0.0
  0
LINE
  5
131
100
AcDbEntity
  8
L1_
  6
CONTINUOUS
 62
         7
100
AcDbLine
 10
-9614.8233996054
 20
11785.2933345909
 30
0.0
 11
-9621.8233996054
 21
11785.2933345909
 31
0.0
  0
LINE
  5
132
100
AcDbEntity
  8
L1_
  6
CONTINUOUS
 62
         7
100
AcDbLine
 10
-9613.7564123073
 20
11784.6773091871
 30
0.0
 11
-9614.8233996054
 21
11785.2933345909
 31
0.0
  0
LINE
  5
133
100
AcDbEntity
  8
L1_
  6
CONTINUOUS
 62
         7
100
AcDbLine
 10
-9611.3776131678
 20
11784.5433345909
 30
0.0
 11
-9613.2564123073
 21
11784.5433345909
 31
0.0
  0
ARC
  5
134
100
AcDbEntity
  8
L1_
  6
CONTINUOUS
 62
         7
100
AcDbCircle
 10
-9613.2564123073
 20
11785.5433345909
 30
0.0
 40
1.0
100
AcDbArc
 50
240.0
 51
270.0
  0
ARC
  5
135
100
AcDbEntity
  8
L1_
  6
CONTINUOUS
 62
         7
100
AcDbCircle
 10
-9611.3776131678
 20
11785.5433345909
 30
0.0
 40
1.0
100
AcDbArc
 50
270.0
 51
315.0
  0
ARC
  5
136
100
AcDbEntity
  8
L1_
  6
CONTINUOUS
 62
         7
100
AcDbCircle
 10
-9611.3776131678
 20
11805.5433345909
 30
0.0
 40
1.0
100
AcDbArc
 50
45.0
 51
90.0
  0
ARC
  5
137
100
AcDbEntity
  8
L1_
  6
CONTINUOUS
 62
         7
100
AcDbCircle
 10
-9613.2564123073
 20
11805.5433345909
 30
0.0
 40
1.0
100
AcDbArc
 50
90.0
 51
120.0
  0
LINE
  5
138
100
AcDbEntity
  8
L1_
  6
CONTINUOUS
 62
         4
100
AcDbLine
 10
-9610.9633996054
 20
11784.6433345909
 30
0.0
 11
-9610.9633996054
 21
11806.453514312
 31
0.0
  0
LINE
  5
139
100
AcDbEntity
  8
L1_
  6
CONTINUOUS
 62
         4
100
AcDbLine
 10
-9613.5243614997
 20
11784.5799015469
 30
0.0
 11
-9613.5243614997
 21
11806.5067676349
 31
0.0
  0
LINE
  5
13A
100
AcDbEntity
  8
L1_
  6
CONTINUOUS
 62
         7
100
AcDbLine
 10
-9611.3776131678
 20
11806.5433345909
 30
0.0
 11
-9613.2564123073
 21
11806.5433345909
 31
0.0
  0
LINE
  5
13B
100
AcDbEntity
  8
L1_
  6
CONTINUOUS
 62
         7
100
AcDbLine
 10
-9613.7564123073
 20
11806.4093599947
 30
0.0
 11
-9614.8233996054
 21
11805.7933345909
 31
0.0
  0
LINE
  5
13C
100
AcDbEntity
  8
L1_
  6
CONTINUOUS
 62
         7
100
AcDbLine
 10
-9614.8233996054
 20
11805.7933345909
 30
0.0
 11
-9621.8233996054
 21
11805.7933345909
 31
0.0
  0
LINE
  5
13D
100
AcDbEntity
  8
L1_
  6
CONTINUOUS
 62
         4
100
AcDbLine
 10
-9613.9573742016
 20
11806.2933345909
 30
0.0
 11
-9622.6894250092
 21
11806.2933345909
 31
0.0
  0
LINE
  5
13E
100
AcDbEntity
  8
L1_
  6
CONTINUOUS
 62
         4
100
AcDbLine
 10
-9614.8233996054
 20
11785.2933345909
 30
0.0
 11
-9614.8233996054
 21
11805.7933345909
 31
0.0
  0
LINE
  5
13F
100
AcDbEntity
  8
L1_
  6
CONTINUOUS
 62
         7
100
AcDbLine
 10
-9610.1233996054
 20
11785.3833345909
 30
0.0
 11
-9610.6705063866
 21
11784.8362278097
 31
0.0
  0
LINE
  5
140
100
AcDbEntity
  8
L1_
  6
CONTINUOUS
 62
         7
100
AcDbLine
 10
-9610.1233996054
 20
11805.7033345909
 30
0.0
 11
-9610.6705063866
 21
11806.2504413721
 31
0.0
  0
ARC
  5
141
100
AcDbEntity
  8
L1_
  6
CONTINUOUS
 62
         7
100
AcDbCircle
 10
-9621.8233996054
 20
11806.7933345909
 30
0.0
 40
1.0
100
AcDbArc
 50
180.0
 51
270.0
  0
ARC
  5
142
100
AcDbEntity
  8
L1_
  6
CONTINUOUS
 62
         7
100
AcDbCircle
 10
-9621.8233996054
 20
11784.2933345909
 30
0.0
 40
1.0
100
AcDbArc
 50
90.0
 51
180.0
  0
ARC
  5
143
100
AcDbEntity
  8
L1_
  6
CONTINUOUS
 62
         7
100
AcDbCircle
 10
-9607.3233996054
 20
11782.7933345909
 30
0.0
 40
1.0
100
AcDbArc
 50
270.0
 51
360.0
  0
ARC
  5
144
100
AcDbEntity
  8
L1_
  6
CONTINUOUS
 62
         7
100
AcDbCircle
 10
-9621.8233996054
 20
11782.7933345909
 30
0.0
 40
1.0
100
AcDbArc
 50
180.0
 51
270.0
  0
ARC
  5
145
100
AcDbEntity
  8
L1_
  6
CONTINUOUS
 62
         7
100
AcDbCircle
 10
-9621.8233996054
 20
11808.2933345909
 30
0.0
 40
1.0
100
AcDbArc
 50
90.0
 51
180.0
  0
ARC
  5
146
100
AcDbEntity
  8
L1_
  6
CONTINUOUS
 62
         7
100
AcDbCircle
 10
-9607.3233996054
 20
11808.2933345909
 30
0.0
 40
1.0
100
AcDbArc
 50
0.0
 51
90.0
  0
LINE
  5
147
100
AcDbEntity
  8
L1_
  6
CONTINUOUS
 62
         4
100
AcDbLine
 10
-9609.9233996054
 20
11785.3833345909
 30
0.0
 11
-9609.9233996054
 21
11805.7033345909
 31
0.0
  0
LINE
  5
148
100
AcDbEntity
  8
L1_
  6
CONTINUOUS
 62
         7
100
AcDbLine
 10
-9609.9233996054
 20
11785.3833345909
 30
0.0
 11
-9609.9233996054
 21
11785.1833345909
 31
0.0
  0
LINE
  5
149
100
AcDbEntity
  8
L1_
  6
CONTINUOUS
 62
         7
100
AcDbLine
 10
-9609.4233996054
 20
11785.1833345909
 30
0.0
 11
-9609.9233996054
 21
11785.1833345909
 31
0.0
  0
LINE
  5
14A
100
AcDbEntity
  8
L1_
  6
CONTINUOUS
 62
         7
100
AcDbLine
 10
-9609.9233996054
 20
11785.3833345909
 30
0.0
 11
-9610.1233996054
 21
11785.3833345909
 31
0.0
  0
LINE
  5
14B
100
AcDbEntity
  8
L1_
  6
CONTINUOUS
 62
         7
100
AcDbLine
 10
-9609.9233996054
 20
11805.7033345909
 30
0.0
 11
-9609.9233996054
 21
11805.9033345909
 31
0.0
  0
LINE
  5
14C
100
AcDbEntity
  8
L1_
  6
CONTINUOUS
 62
         7
100
AcDbLine
 10
-9609.4233996054
 20
11805.9033345909
 30
0.0
 11
-9609.9233996054
 21
11805.9033345909
 31
0.0
  0
LINE
  5
14D
100
AcDbEntity
  8
L1_
  6
CONTINUOUS
 62
         7
100
AcDbLine
 10
-9609.9233996054
 20
11805.7033345909
 30
0.0
 11
-9610.1233996054
 21
11805.7033345909
 31
0.0
  0
LINE
  5
14E
100
AcDbEntity
  8
L1_
  6
CONTINUOUS
 62
         7
100
AcDbLine
 10
-9609.4233996054
 20
11785.1833345909
 30
0.0
 11
-9609.4233996054
 21
11805.9033345909
 31
0.0
  0
LINE
  5
14F
100
AcDbEntity
  8
L1_
  6
CONTINUOUS
 62
         7
100
AcDbLine
 10
-9607.8233996054
 20
11789.2683345909
 30
0.0
 11
-9609.4233996054
 21
11789.2683345909
 31
0.0
  0
LINE
  5
150
100
AcDbEntity
  8
L1_
  6
CONTINUOUS
 62
         7
100
AcDbLine
 10
-9607.8233996054
 20
11801.8183345909
 30
0.0
 11
-9609.4233996054
 21
11801.8183345909
 31
0.0
  0
LINE
  5
151
100
AcDbEntity
  8
L1_
  6
CONTINUOUS
 62
         7
100
AcDbLine
 10
-9607.8233996054
 20
11788.1933345909
 30
0.0
 11
-9607.8233996054
 21
11802.8933345909
 31
0.0
  0
LINE
  5
152
100
AcDbEntity
  8
L1_
  6
CONTINUOUS
 62
         7
100
AcDbLine
 10
-9605.8233996054
 20
11788.1933345909
 30
0.0
 11
-9607.8233996054
 21
11788.1933345909
 31
0.0
  0
LINE
  5
153
100
AcDbEntity
  8
L1_
  6
CONTINUOUS
 62
         7
100
AcDbLine
 10
-9605.8233996054
 20
11802.8933345909
 30
0.0
 11
-9607.8233996054
 21
11802.8933345909
 31
0.0
  0
LINE
  5
154
100
AcDbEntity
  8
L1_
  6
CONTINUOUS
 62
         7
100
AcDbLine
 10
-9606.3233996054
 20
11805.7933345909
 30
0.0
 11
-9606.3233996054
 21
11808.2933345909
 31
0.0
  0
LINE
  5
155
100
AcDbEntity
  8
L1_
  6
CONTINUOUS
 62
         7
100
AcDbLine
 10
-9606.3233996054
 20
11782.7933345909
 30
0.0
 11
-9606.3233996054
 21
11785.2933345909
 31
0.0
  0
LINE
  5
156
100
AcDbEntity
  8
L1_
  6
CONTINUOUS
 62
         7
100
AcDbLine
 10
-9605.8233996054
 20
11785.2933345909
 30
0.0
 11
-9606.3233996054
 21
11785.2933345909
 31
0.0
  0
LINE
  5
157
100
AcDbEntity
  8
L1_
  6
CONTINUOUS
 62
         7
100
AcDbLine
 10
-9605.8233996054
 20
11805.7933345909
 30
0.0
 11
-9606.3233996054
 21
11805.7933345909
 31
0.0
  0
LINE
  5
158
100
AcDbEntity
  8
L1_
  6
CONTINUOUS
 62
         7
100
AcDbLine
 10
-9605.8233996054
 20
11785.2933345909
 30
0.0
 11
-9605.8233996054
 21
11805.7933345909
 31
0.0
  0
LINE
  5
159
100
AcDbEntity
  8
L1_
  6
CONTINUOUS
 62
         7
100
AcDbLine
 10
-9607.3233996054
 20
11781.7933345909
 30
0.0
 11
-9621.8233996054
 21
11781.7933345909
 31
0.0
  0
LINE
  5
15A
100
AcDbEntity
  8
L1_
  6
CONTINUOUS
 62
         7
100
AcDbLine
 10
-9607.3233996054
 20
11809.2933345909
 30
0.0
 11
-9621.8233996054
 21
11809.2933345909
 31
0.0
  0
LINE
  5
15B
100
AcDbEntity
  8
L1_
  6
CONTINUOUS
 62
         7
100
AcDbLine
 10
-9622.8233996054
 20
11782.7933345909
 30
0.0
 11
-9622.8233996054
 21
11808.2933345909
 31
0.0
  0
LINE
  5
15C
100
AcDbEntity
  8
L1_
  6
CENTER
 62
         1
100
AcDbLine
 10
-9604.1227834055
 20
11795.5433345909
 30
0.0
 11
-9624.8972938695
 21
11795.5433345909
 31
0.0
  0
LINE
  5
15D
100
AcDbEntity
  8
L1_
  6
DASHED
 62
         2
100
AcDbLine
 10
-9606.3233996054
 20
11808.0433345909
 30
0.0
 11
-9614.7460493362
 21
11808.0433345909
 31
0.0
  0
LINE
  5
15E
100
AcDbEntity
  8
L1_
  6
DASHED
 62
         2
100
AcDbLine
 10
-9616.0450874419
 20
11809.2933345909
 30
0.0
 11
-9615.61207474
 21
11808.5433345909
 31
0.0
  0
ARC
  5
15F
100
AcDbEntity
  8
L1_
  6
DASHED
 62
         2
100
AcDbCircle
 10
-9614.7460493362
 20
11809.0433345909
 30
0.0
 40
1.0
100
AcDbArc
 50
210.0
 51
270.0
  0
ARC
  5
160
100
AcDbEntity
  8
L1_
  6
DASHED
 62
         2
100
AcDbCircle
 10
-9614.7460493362
 20
11782.0433345909
 30
0.0
 40
1.0
100
AcDbArc
 50
90.0
 51
150.0
  0
LINE
  5
161
100
AcDbEntity
  8
L1_
  6
DASHED
 62
         2
100
AcDbLine
 10
-9616.0450874419
 20
11781.7933345909
 30
0.0
 11
-9615.61207474
 21
11782.5433345909
 31
0.0
  0
LINE
  5
162
100
AcDbEntity
  8
L1_
  6
DASHED
 62
         2
100
AcDbLine
 10
-9606.3233996054
 20
11783.0433345909
 30
0.0
 11
-9614.7460493362
 21
11783.0433345909
 31
0.0
  0
DIMENSION
  5
165
100
AcDbEntity
  8
L1_
  6
CONTINUOUS
 62
         4
100
AcDbDimension
  2
*D5
 10
-9622.8233996054
 20
11814.7632053418
 30
0.0
 11
-9617.8233996054
 21
11817.3882053418
 31
0.0
  3
DIMSTYLE1
100
AcDbAlignedDimension
 13
-9622.8233996054
 23
11808.2933345909
 33
0.0
 14
-9605.8233996054
 24
11805.7933345909
 34
0.0
100
AcDbRotatedDimension
  0
DIMENSION
  5
173
100
AcDbEntity
  8
L1_
  6
CONTINUOUS
 62
         4
100
AcDbDimension
  2
*D6
 10
-9647.4378350282
 20
11809.2933345909
 30
0.0
 11
-9650.0628350282
 21
11784.6829081186
 31
0.0
  3
DIMSTYLE1
100
AcDbAlignedDimension
 13
-9621.8233996054
 23
11809.2933345909
 33
0.0
 14
-9621.8233996054
 24
11781.7933345909
 34
0.0
 50
90.0
100
AcDbRotatedDimension
  0
DIMENSION
  5
181
100
AcDbEntity
  8
L1_
  6
CONTINUOUS
 62
         4
100
AcDbDimension
  2
*D7
 10
-9639.1726826111
 20
11740.0210531796
 30
0.0
 11
-9641.7976826111
 21
11698.5964638879
 31
0.0
  3
DIMSTYLE1
100
AcDbAlignedDimension
 13
-9660.1126097454
 23
11740.0210531796
 33
0.0
 14
-9660.1126097454
 24
11728.9110531796
 34
0.0
 50
90.0
100
AcDbRotatedDimension
  0
DIMENSION
  5
190
100
AcDbEntity
  8
L1_
  6
CONTINUOUS
 62
         4
100
AcDbDimension
  2
*D8
 10
-9669.6376097454
 20
11745.1394544916
 30
0.0
 11
-9666.6376097454
 21
11747.7644544916
 31
0.0
  3
DIMSTYLE1
100
AcDbAlignedDimension
 13
-9669.6376097454
 23
11738.0460531796
 33
0.0
 14
-9656.6376097454
 24
11738.0460531796
 34
0.0
100
AcDbRotatedDimension
  0
LINE
  5
19C
100
AcDbEntity
  8
L1_
  6
CENTER
 62
         1
100
AcDbLine
 10
-9679.2924927216
 20
11734.4660531796
 30
0.0
 11
-9694.9771261125
 21
11734.4660531796
 31
0.0
  0
LINE
  5
19D
100
AcDbEntity
  8
L1_
  6
CENTER
 62
         1
100
AcDbLine
 10
-9687.0335954223
 20
11726.1913728663
 30
0.0
 11
-9687.0335954223
 21
11742.7077671189
 31
0.0
  0
LINE
  5
19E
100
AcDbEntity
  8
L1_
  6
CENTER
 62
         1
100
AcDbLine
 10
-9670.9395665807
 20
11734.4660531796
 30
0.0
 11
-9655.4400378332
 21
11734.4660531796
 31
0.0
  0
LINE
  5
19F
100
AcDbEntity
  8
L1_
  6
CONTINUOUS
 62
         7
100
AcDbLine
 10
-9669.6376097454
 20
11730.8860531796
 30
0.0
 11
-9669.6376097454
 21
11738.0460531796
 31
0.0
  0
LINE
  5
1A0
100
AcDbEntity
  8
L1_
  6
CONTINUOUS
 62
         7
100
AcDbLine
 10
-9667.6376097454
 20
11730.3860531796
 30
0.0
 11
-9667.6376097454
 21
11738.5460531796
 31
0.0
  0
LINE
  5
1A1
100
AcDbEntity
  8
L1_
  6
CONTINUOUS
 62
         7
100
AcDbLine
 10
-9656.6376097454
 20
11730.8860531796
 30
0.0
 11
-9656.6376097454
 21
11738.0460531796
 31
0.0
  0
LINE
  5
1A2
100
AcDbEntity
  8
L1_
  6
CONTINUOUS
 62
         7
100
AcDbLine
 10
-9658.6376097454
 20
11730.3860531796
 30
0.0
 11
-9658.6376097454
 21
11738.5460531796
 31
0.0
  0
LINE
  5
1A3
100
AcDbEntity
  8
L1_
  6
CONTINUOUS
 62
         7
100
AcDbLine
 10
-9669.1376097454
 20
11738.5460531796
 30
0.0
 11
-9667.6376097454
 21
11738.5460531796
 31
0.0
  0
LINE
  5
1A4
100
AcDbEntity
  8
L1_
  6
CONTINUOUS
 62
         7
100
AcDbLine
 10
-9666.1626097454
 20
11740.0210531796
 30
0.0
 11
-9660.1126097454
 21
11740.0210531796
 31
0.0
  0
LINE
  5
1A5
100
AcDbEntity
  8
L1_
  6
CONTINUOUS
 62
         7
100
AcDbLine
 10
-9658.6376097454
 20
11738.5460531796
 30
0.0
 11
-9657.1376097454
 21
11738.5460531796
 31
0.0
  0
LINE
  5
1A6
100
AcDbEntity
  8
L1_
  6
CONTINUOUS
 62
         7
100
AcDbLine
 10
-9660.1126097454
 20
11740.0210531796
 30
0.0
 11
-9658.6376097454
 21
11738.5460531796
 31
0.0
  0
LINE
  5
1A7
100
AcDbEntity
  8
L1_
  6
CONTINUOUS
 62
         7
100
AcDbLine
 10
-9666.1626097454
 20
11740.0210531796
 30
0.0
 11
-9667.6376097454
 21
11738.5460531796
 31
0.0
  0
LINE
  5
1A8
100
AcDbEntity
  8
L1_
  6
CONTINUOUS
 62
         7
100
AcDbLine
 10
-9657.1376097454
 20
11738.5460531796
 30
0.0
 11
-9656.6376097454
 21
11738.0460531796
 31
0.0
  0
LINE
  5
1A9
100
AcDbEntity
  8
L1_
  6
CONTINUOUS
 62
         7
100
AcDbLine
 10
-9669.1376097454
 20
11738.5460531796
 30
0.0
 11
-9669.6376097454
 21
11738.0460531796
 31
0.0
  0
LINE
  5
1AA
100
AcDbEntity
  8
L1_
  6
CONTINUOUS
 62
         7
100
AcDbLine
 10
-9669.1376097454
 20
11730.3860531796
 30
0.0
 11
-9669.1376097454
 21
11738.5460531796
 31
0.0
  0
LINE
  5
1AB
100
AcDbEntity
  8
L1_
  6
CONTINUOUS
 62
         7
100
AcDbLine
 10
-9657.1376097454
 20
11730.3860531796
 30
0.0
 11
-9657.1376097454
 21
11738.5460531796
 31
0.0
  0
LINE
  5
1AC
100
AcDbEntity
  8
L1_
  6
CONTINUOUS
 62
         7
100
AcDbLine
 10
-9666.1626097454
 20
11728.9110531796
 30
0.0
 11
-9660.1126097454
 21
11728.9110531796
 31
0.0
  0
LINE
  5
1AD
100
AcDbEntity
  8
L1_
  6
CONTINUOUS
 62
         7
100
AcDbLine
 10
-9666.1626097454
 20
11728.9110531796
 30
0.0
 11
-9667.6376097454
 21
11730.3860531796
 31
0.0
  0
LINE
  5
1AE
100
AcDbEntity
  8
L1_
  6
CONTINUOUS
 62
         7
100
AcDbLine
 10
-9660.1126097454
 20
11728.9110531796
 30
0.0
 11
-9658.6376097454
 21
11730.3860531796
 31
0.0
  0
LINE
  5
1AF
100
AcDbEntity
  8
L1_
  6
CONTINUOUS
 62
         7
100
AcDbLine
 10
-9658.6376097454
 20
11730.3860531796
 30
0.0
 11
-9657.1376097454
 21
11730.3860531796
 31
0.0
  0
LINE
  5
1B0
100
AcDbEntity
  8
L1_
  6
CONTINUOUS
 62
         7
100
AcDbLine
 10
-9657.1376097454
 20
11730.3860531796
 30
0.0
 11
-9656.6376097454
 21
11730.8860531796
 31
0.0
  0
LINE
  5
1B1
100
AcDbEntity
  8
L1_
  6
CONTINUOUS
 62
         7
100
AcDbLine
 10
-9669.1376097454
 20
11730.3860531796
 30
0.0
 11
-9667.6376097454
 21
11730.3860531796
 31
0.0
  0
LINE
  5
1B2
100
AcDbEntity
  8
L1_
  6
CONTINUOUS
 62
         7
100
AcDbLine
 10
-9669.1376097454
 20
11730.3860531796
 30
0.0
 11
-9669.6376097454
 21
11730.8860531796
 31
0.0
  0
CIRCLE
  5
1B3
100
AcDbEntity
  8
L1_
  6
CONTINUOUS
 62
         7
100
AcDbCircle
 10
-9687.0335954223
 20
11734.4660531796
 30
0.0
 40
4.08
  0
CIRCLE
  5
1B4
100
AcDbEntity
  8
L1_
  6
CONTINUOUS
 62
         7
100
AcDbCircle
 10
-9687.0335954223
 20
11734.4660531796
 30
0.0
 40
5.555
  0
LINE
  5
1B5
100
AcDbEntity
  8
L1_
  6
CONTINUOUS
 62
         4
100
AcDbLine
 10
-9666.9526097454
 20
11739.2310531796
 30
0.0
 11
-9659.3226097454
 21
11739.2310531796
 31
0.0
  0
LINE
  5
1B6
100
AcDbEntity
  8
L1_
  6
CONTINUOUS
 62
         4
100
AcDbLine
 10
-9666.9526097454
 20
11729.7010531796
 30
0.0
 11
-9659.3226097454
 21
11729.7010531796
 31
0.0
  0
CIRCLE
  5
1B7
100
AcDbEntity
  8
L1_
  6
CONTINUOUS
 62
         7
100
AcDbCircle
 10
-9687.0335954223
 20
11734.4660531796
 30
0.0
 40
1.5
  0
LINE
  5
1B8
100
AcDbEntity
  8
L1_
  6
DASHED
 62
         2
100
AcDbLine
 10
-9656.6376097454
 20
11735.9660531796
 30
0.0
 11
-9669.6376097454
 21
11735.9660531796
 31
0.0
  0
LINE
  5
1B9
100
AcDbEntity
  8
L1_
  6
DASHED
 62
         2
100
AcDbLine
 10
-9656.6376097454
 20
11732.9660531796
 30
0.0
 11
-9669.6376097454
 21
11732.9660531796
 31
0.0
  0
LINE
  5
1BA
100
AcDbEntity
  8
L1_
  6
CONTINUOUS
 62
         7
100
AcDbLine
 10
-9686.0335954223
 20
11730.5105001209
 30
0.0
 11
-9686.0335954223
 21
11733.3480191908
 31
0.0
  0
LINE
  5
1BB
100
AcDbEntity
  8
L1_
  6
CONTINUOUS
 62
         7
100
AcDbLine
 10
-9688.0335954223
 20
11730.5105001209
 30
0.0
 11
-9688.0335954223
 21
11733.3480191908
 31
0.0
  0
LINE
  5
1BC
100
AcDbEntity
  8
L1_
  6
CONTINUOUS
 62
         7
100
AcDbLine
 10
-9688.0335954223
 20
11735.5840871683
 30
0.0
 11
-9688.0335954223
 21
11738.4216062382
 31
0.0
  0
LINE
  5
1BD
100
AcDbEntity
  8
L1_
  6
CONTINUOUS
 62
         7
100
AcDbLine
 10
-9686.0335954223
 20
11735.5840871683
 30
0.0
 11
-9686.0335954223
 21
11738.4216062382
 31
0.0
  0
DIMENSION
  5
1C0
100
AcDbEntity
  8
L1_
  6
CONTINUOUS
 62
         4
100
AcDbDimension
  2
*D9
 10
-9688.0335954223
 20
11744.6662304515
 30
0.0
 11
-9698.1425941283
 21
11747.2912304515
 31
0.0
  3
DIMSTYLE1
100
AcDbAlignedDimension
 13
-9688.0335954223
 23
11738.4216062382
 33
0.0
 14
-9686.0335954223
 24
11738.4216062382
 34
0.0
100
AcDbRotatedDimension
  0
DIMENSION
  5
1D0
100
AcDbEntity
  8
L1_
  6
CONTINUOUS
 62
         4
100
AcDbDimension
  2
*D10
 10
-9673.2745713242
 20
11735.9660531796
 30
0.0
 11
-9675.8995713242
 21
11744.8325094962
 31
0.0
  3
DIMSTYLE1
100
AcDbAlignedDimension
 13
-9669.6376097454
 23
11735.9660531796
 33
0.0
 14
-9669.6376097454
 24
11732.9660531796
 34
0.0
 50
90.0
100
AcDbRotatedDimension
  0
DIMENSION
  5
1E0
100
AcDbEntity
  8
L1_
  6
CONTINUOUS
 62
         4
100
AcDbDimension
  2
*D11
 10
-9813.5705485269
 20
11693.8855081076
 30
0.0
 11
-9857.3622151936
 21
11697.4205081076
 31
0.0
  3
DIMSTYLE1
100
AcDbAlignedDimension
 13
-9813.5705485269
 23
11730.1078887676
 33
0.0
 14
-9893.5705485269
 24
11733.3578887676
 34
0.0
100
AcDbRotatedDimension
  0
LINE
  5
1EC
100
AcDbEntity
  8
L1_
  6
CONTINUOUS
 62
         7
100
AcDbLine
 10
-9893.5705485269
 20
11745.3578887676
 30
0.0
 11
-9893.5705485269
 21
11733.3578887676
 31
0.0
  0
LINE
  5
1ED
100
AcDbEntity
  8
L1_
  6
CONTINUOUS
 62
         4
100
AcDbLine
 10
-9893.5705485269
 20
11733.3578887676
 30
0.0
 11
-9840.5705485269
 21
11733.3578887676
 31
0.0
  0
LINE
  5
1EE
100
AcDbEntity
  8
L1_
  6
CONTINUOUS
 62
         4
100
AcDbLine
 10
-9893.5705485269
 20
11745.3578887676
 30
0.0
 11
-9840.5705485269
 21
11745.3578887676
 31
0.0
  0
LINE
  5
1EF
100
AcDbEntity
  8
L1_
  6
CONTINUOUS
 62
         4
100
AcDbLine
 10
-9815.5955485269
 20
11729.2828887676
 30
0.0
 11
-9826.5705485269
 21
11729.2828887676
 31
0.0
  0
LINE
  5
1F0
100
AcDbEntity
  8
L1_
  6
CONTINUOUS
 62
         4
100
AcDbLine
 10
-9815.5955485269
 20
11749.4328887676
 30
0.0
 11
-9826.5705485269
 21
11749.4328887676
 31
0.0
  0
LINE
  5
1F1
100
AcDbEntity
  8
L1_
  6
CONTINUOUS
 62
         7
100
AcDbLine
 10
-9814.3705485269
 20
11729.3078887676
 30
0.0
 11
-9815.5705485269
 21
11729.3078887676
 31
0.0
  0
ARC
  5
1F2
100
AcDbEntity
  8
L1_
  6
CONTINUOUS
 62
         7
100
AcDbCircle
 10
-9814.3705485269
 20
11730.1078887676
 30
0.0
 40
0.8
100
AcDbArc
 50
270.0
 51
360.0
  0
ARC
  5
1F3
100
AcDbEntity
  8
L1_
  6
CONTINUOUS
 62
         7
100
AcDbCircle
 10
-9814.3705485269
 20
11748.6078887676
 30
0.0
 40
0.8
100
AcDbArc
 50
0.0
 51
90.0
  0
LINE
  5
1F4
100
AcDbEntity
  8
L1_
  6
CONTINUOUS
 62
         7
100
AcDbLine
 10
-9814.3705485269
 20
11749.4078887676
 30
0.0
 11
-9815.5705485269
 21
11749.4078887676
 31
0.0
  0
LINE
  5
1F5
100
AcDbEntity
  8
L1_
  6
CONTINUOUS
 62
         7
100
AcDbLine
 10
-9816.2305485269
 20
11750.0678887676
 30
0.0
 11
-9815.5705485269
 21
11749.4078887676
 31
0.0
  0
LINE
  5
1F6
100
AcDbEntity
  8
L1_
  6
CONTINUOUS
 62
         7
100
AcDbLine
 10
-9816.2305485269
 20
11728.6478887676
 30
0.0
 11
-9815.5705485269
 21
11729.3078887676
 31
0.0
  0
DIMENSION
  5
1F9
100
AcDbEntity
  8
L1_
  6
CONTINUOUS
 62
         4
100
AcDbDimension
  2
*D12
 10
-9833.5914812863
 20
11712.4967750237
 30
0.0
 11
-9832.6226815732
 21
11716.0317750237
 31
0.0
  3
DIMSTYLE1
100
AcDbAlignedDimension
 13
-9833.5914812863
 23
11733.2578887676
 33
0.0
 14
-9813.5705485269
 24
11729.6478887676
 34
0.0
100
AcDbRotatedDimension
  0
LINE
  5
205
100
AcDbEntity
  8
L1_
  6
CONTINUOUS
 62
         7
100
AcDbLine
 10
-9833.5914812863
 20
11745.4578887676
 30
0.0
 11
-9833.5914812863
 21
11733.2578887676
 31
0.0
  0
LINE
  5
206
100
AcDbEntity
  8
L1_
  6
CONTINUOUS
 62
         7
100
AcDbLine
 10
-9833.5914812863
 20
11733.2578887676
 30
0.0
 11
-9840.5705485269
 21
11733.2578887676
 31
0.0
  0
LINE
  5
207
100
AcDbEntity
  8
L1_
  6
CONTINUOUS
 62
         7
100
AcDbLine
 10
-9833.5914812863
 20
11745.4578887676
 30
0.0
 11
-9840.5705485269
 21
11745.4578887676
 31
0.0
  0
ARC
  5
208
100
AcDbEntity
  8
L1_
  6
CONTINUOUS
 62
         7
100
AcDbCircle
 10
-9814.5705485269
 20
11730.9253736814
 30
0.0
 40
1.0
100
AcDbArc
 50
0.0
 51
86.0
  0
ARC
  5
209
100
AcDbEntity
  8
L1_
  6
CONTINUOUS
 62
         7
100
AcDbCircle
 10
-9814.5705485269
 20
11747.7904038537
 30
0.0
 40
1.0
100
AcDbArc
 50
274.0
 51
360.0
  0
ARC
  5
20A
100
AcDbEntity
  8
L1_
  6
CONTINUOUS
 62
         7
100
AcDbCircle
 10
-9827.0705485269
 20
11728.1478887676
 30
0.0
 40
0.5
100
AcDbArc
 50
90.0
 51
180.0
  0
ARC
  5
20B
100
AcDbEntity
  8
L1_
  6
CONTINUOUS
 62
         7
100
AcDbCircle
 10
-9827.0705485269
 20
11750.5678887676
 30
0.0
 40
0.5
100
AcDbArc
 50
180.0
 51
270.0
  0
LINE
  5
20C
100
AcDbEntity
  8
L1_
  6
CONTINUOUS
 62
         7
100
AcDbLine
 10
-9827.5705485269
 20
11726.1078887676
 30
0.0
 11
-9828.0705485269
 21
11725.6078887676
 31
0.0
  0
LINE
  5
20D
100
AcDbEntity
  8
L1_
  6
CONTINUOUS
 62
         7
100
AcDbLine
 10
-9828.0705485269
 20
11753.1078887676
 30
0.0
 11
-9827.5705485269
 21
11752.6078887676
 31
0.0
  0
LINE
  5
20E
100
AcDbEntity
  8
L1_
  6
CONTINUOUS
 62
         7
100
AcDbLine
 10
-9813.5705485269
 20
11730.1078887676
 30
0.0
 11
-9813.5705485269
 21
11748.6078887676
 31
0.0
  0
LINE
  5
20F
100
AcDbEntity
  8
L1_
  6
CONTINUOUS
 62
         7
100
AcDbLine
 10
-9840.5705485269
 20
11733.2578887676
 30
0.0
 11
-9840.5705485269
 21
11745.4578887676
 31
0.0
  0
LINE
  5
210
100
AcDbEntity
  8
L1_
  6
CONTINUOUS
 62
         7
100
AcDbLine
 10
-9814.5007920531
 20
11746.7928398035
 30
0.0
 11
-9833.5914812863
 21
11745.4578887676
 31
0.0
  0
LINE
  5
211
100
AcDbEntity
  8
L1_
  6
CONTINUOUS
 62
         7
100
AcDbLine
 10
-9814.5007920531
 20
11731.9229377317
 30
0.0
 11
-9833.5914812863
 21
11733.2578887676
 31
0.0
  0
LINE
  5
212
100
AcDbEntity
  8
L1_
  6
CONTINUOUS
 62
         7
100
AcDbLine
 10
-9816.2305485269
 20
11750.0678887676
 30
0.0
 11
-9827.0705485269
 21
11750.0678887676
 31
0.0
  0
LINE
  5
213
100
AcDbEntity
  8
L1_
  6
CONTINUOUS
 62
         7
100
AcDbLine
 10
-9816.2305485269
 20
11728.6478887676
 30
0.0
 11
-9827.0705485269
 21
11728.6478887676
 31
0.0
  0
LINE
  5
214
100
AcDbEntity
  8
L1_
  6
CONTINUOUS
 62
         7
100
AcDbLine
 10
-9827.5705485269
 20
11726.1078887676
 30
0.0
 11
-9827.5705485269
 21
11728.1478887676
 31
0.0
  0
LINE
  5
215
100
AcDbEntity
  8
L1_
  6
CONTINUOUS
 62
         7
100
AcDbLine
 10
-9827.5705485269
 20
11750.5678887676
 30
0.0
 11
-9827.5705485269
 21
11752.6078887676
 31
0.0
  0
LINE
  5
216
100
AcDbEntity
  8
L1_
  6
CONTINUOUS
 62
         7
100
AcDbLine
 10
-9828.0705485269
 20
11753.1078887676
 30
0.0
 11
-9876.8185485269
 21
11753.1078887676
 31
0.0
  0
DIMENSION
  5
219
100
AcDbEntity
  8
L1_
  6
CONTINUOUS
 62
         4
100
AcDbDimension
  2
*D13
 10
-9795.2003548505
 20
11746.8578887676
 30
0.0
 11
-9798.7353548505
 21
11732.0662221009
 31
0.0
  3
DIMSTYLE1
100
AcDbAlignedDimension
 13
-9813.5705485269
 23
11746.8578887676
 33
0.0
 14
-9813.5705485269
 24
11731.8578887676
 34
0.0
 50
90.0
100
AcDbRotatedDimension
  0
DIMENSION
  5
227
100
AcDbEntity
  8
L1_
  6
CONTINUOUS
 62
         4
100
AcDbDimension
  2
*D14
 10
-9840.5705485269
 20
11702.3248972914
 30
0.0
 11
-9832.7000961403
 21
11705.8598972914
 31
0.0
  3
DIMSTYLE1
100
AcDbAlignedDimension
 13
-9840.5705485269
 23
11732.9578887676
 33
0.0
 14
-9813.5705485269
 24
11729.6478887676
 34
0.0
100
AcDbRotatedDimension
  0
LINE
  5
233
100
AcDbEntity
  8
L1_
  6
CONTINUOUS
 62
         7
100
AcDbLine
 10
-9826.5705485269
 20
11728.6478887676
 30
0.0
 11
-9826.5705485269
 21
11729.2828887676
 31
0.0
  0
LINE
  5
234
100
AcDbEntity
  8
L1_
  6
CONTINUOUS
 62
         7
100
AcDbLine
 10
-9826.5705485269
 20
11749.4328887676
 30
0.0
 11
-9826.5705485269
 21
11750.0678887676
 31
0.0
  0
DIMENSION
  5
237
100
AcDbEntity
  8
L1_
  6
CONTINUOUS
 62
         4
100
AcDbDimension
  2
*D15
 10
-9826.5705485269
 20
11755.8824543314
 30
0.0
 11
-9823.8622151936
 21
11759.4174543314
 31
0.0
  3
DIMSTYLE1
100
AcDbAlignedDimension
 13
-9826.5705485269
 23
11750.0678887676
 33
0.0
 14
-9813.5705485269
 24
11749.0678887676
 34
0.0
100
AcDbRotatedDimension
  0
CIRCLE
  5
243
100
AcDbEntity
  8
L1_
  6
CONTINUOUS
 62
         7
100
AcDbCircle
 10
-9592.8151889697
 20
11978.3503198193
 30
0.0
 40
6.1
  0
CIRCLE
  5
244
100
AcDbEntity
  8
L1_
  6
CONTINUOUS
 62
         7
100
AcDbCircle
 10
-9592.8151889697
 20
11978.3503198193
 30
0.0
 40
7.5
  0
CIRCLE
  5
245
100
AcDbEntity
  8
L1_
  6
CONTINUOUS
 62
         7
100
AcDbCircle
 10
-9592.8151889697
 20
11978.3503198193
 30
0.0
 40
9.8156854126
  0
CIRCLE
  5
246
100
AcDbEntity
  8
L1_
  6
CONTINUOUS
 62
         7
100
AcDbCircle
 10
-9592.8151889697
 20
11978.3503198193
 30
0.0
 40
10.71
  0
CIRCLE
  5
247
100
AcDbEntity
  8
L1_
  6
CONTINUOUS
 62
         7
100
AcDbCircle
 10
-9592.8151889697
 20
11978.3503198193
 30
0.0
 40
13.25
  0
CIRCLE
  5
248
100
AcDbEntity
  8
L1_
  6
CONTINUOUS
 62
         7
100
AcDbCircle
 10
-9592.8151889697
 20
11978.3503198193
 30
0.0
 40
13.75
  0
CIRCLE
  5
249
100
AcDbEntity
  8
L1_
  6
CONTINUOUS
 62
         7
100
AcDbCircle
 10
-9592.8151889697
 20
11978.3503198193
 30
0.0
 40
5.43
  0
ARC
  5
24A
100
AcDbEntity
  8
L1_
  6
CONTINUOUS
 62
         4
100
AcDbCircle
 10
-9592.8151889697
 20
11978.3503198193
 30
0.0
 40
10.375
100
AcDbArc
 50
270.0
 51
540.0
  0
DIMENSION
  5
24D
100
AcDbEntity
  8
L1_
  6
CONTINUOUS
 62
         4
100
AcDbDimension
  2
*D16
 10
-9813.5705485269
 20
12089.8276532865
 30
0.0
 11
-9922.6160818871
 21
12092.4526532865
 31
0.0
  3
DIMSTYLE1
100
AcDbAlignedDimension
 13
-9813.5705485269
 23
11987.6003198193
 33
0.0
 14
-10016.4705485269
 24
11996.2966555833
 34
0.0
100
AcDbRotatedDimension
  0
DIMENSION
  5
25B
100
AcDbEntity
  8
L1_
  6
CONTINUOUS
 62
         4
100
AcDbDimension
  2
*D17
 10
-9914.8705485269
 20
12075.1847706212
 30
0.0
 11
-9875.9757889532
 21
12077.8097706212
 31
0.0
  3
DIMSTYLE1
100
AcDbAlignedDimension
 13
-9914.8705485269
 23
12018.0753198193
 33
0.0
 14
-9813.5705485269
 24
11987.6003198193
 34
0.0
100
AcDbRotatedDimension
  0
ARC
  5
267
100
AcDbEntity
  8
L1_
  6
CONTINUOUS
 62
         7
100
AcDbCircle
 10
-9876.8185485269
 20
11961.6003198193
 30
0.0
 40
3.0
100
AcDbArc
 50
90.0
 51
180.0
  0
ARC
  5
268
100
AcDbEntity
  8
L1_
  6
CONTINUOUS
 62
         7
100
AcDbCircle
 10
-9876.8185485269
 20
11995.1003198193
 30
0.0
 40
3.0
100
AcDbArc
 50
180.0
 51
270.0
  0
LINE
  5
269
100
AcDbEntity
  8
L1_
  6
CONTINUOUS
 62
         7
100
AcDbLine
 10
-9879.8185485269
 20
11961.6003198193
 30
0.0
 11
-9879.8185485269
 21
11944.2253198193
 31
0.0
  0
LINE
  5
26A
100
AcDbEntity
  8
L1_
  6
CENTER
 62
         1
100
AcDbLine
 10
-9813.5705485269
 20
11987.6003198193
 30
0.0
 11
-9813.5705485269
 21
11988.7103198193
 31
0.0
  0
LINE
  5
26B
100
AcDbEntity
  8
L1_
  6
CENTER
 62
         1
100
AcDbLine
 10
-9814.0705485269
 20
11988.4003198193
 30
0.0
 11
-9814.0705485269
 21
11988.5103198193
 31
0.0
  0
LINE
  5
26C
100
AcDbEntity
  8
L1_
  6
CENTER
 62
         1
100
AcDbLine
 10
-9815.1105485269
 20
11988.4003198193
 30
0.0
 11
-9815.1105485269
 21
11989.2604995404
 31
0.0
  0
LINE
  5
26D
100
AcDbEntity
  8
L1_
  6
CENTER
 62
         1
100
AcDbLine
 10
-9826.9705485269
 20
11989.0603198193
 30
0.0
 11
-9826.9705485269
 21
11991.1003198193
 31
0.0
  0
INSERT
  5
288
100
AcDbEntity
  8
0
  6
CONTINUOUS
100
AcDbBlockReference
  2
*X18
 10
0.0
 20
0.0
 30
0.0
  0
LINE
  5
289
100
AcDbEntity
  8
L1_
  6
CENTER
 62
         1
100
AcDbLine
 10
-9818.1045231231
 20
11967.6003198193
 30
0.0
 11
-9826.8365739307
 21
11967.6003198193
 31
0.0
  0
LINE
  5
28A
100
AcDbEntity
  8
L1_
  6
CENTER
 62
         1
100
AcDbLine
 10
-9818.9705485269
 20
11968.1003198193
 30
0.0
 11
-9825.9705485269
 21
11968.1003198193
 31
0.0
  0
LINE
  5
28B
100
AcDbEntity
  8
L1_
  6
CENTER
 62
         1
100
AcDbLine
 10
-9817.9035612288
 20
11967.4842944155
 30
0.0
 11
-9818.9705485269
 21
11968.1003198193
 31
0.0
  0
LINE
  5
28C
100
AcDbEntity
  8
L1_
  6
CENTER
 62
         1
100
AcDbLine
 10
-9815.5247620893
 20
11967.3503198193
 30
0.0
 11
-9817.4035612288
 21
11967.3503198193
 31
0.0
  0
ARC
  5
28D
100
AcDbEntity
  8
L1_
  6
CENTER
 62
         1
100
AcDbCircle
 10
-9817.4035612288
 20
11968.3503198193
 30
0.0
 40
1.0
100
AcDbArc
 50
240.0
 51
270.0
  0
ARC
  5
28E
100
AcDbEntity
  8
L1_
  6
CENTER
 62
         1
100
AcDbCircle
 10
-9815.5247620893
 20
11968.3503198193
 30
0.0
 40
1.0
100
AcDbArc
 50
270.0
 51
315.0
  0
ARC
  5
28F
100
AcDbEntity
  8
L1_
  6
CENTER
 62
         1
100
AcDbCircle
 10
-9815.5247620893
 20
11988.3503198193
 30
0.0
 40
1.0
100
AcDbArc
 50
45.0
 51
90.0
  0
ARC
  5
290
100
AcDbEntity
  8
L1_
  6
CENTER
 62
         1
100
AcDbCircle
 10
-9817.4035612288
 20
11988.3503198193
 30
0.0
 40
1.0
100
AcDbArc
 50
90.0
 51
120.0
  0
LINE
  5
291
100
AcDbEntity
  8
L1_
  6
CENTER
 62
         1
100
AcDbLine
 10
-9815.1105485269
 20
11967.4503198193
 30
0.0
 11
-9815.1105485269
 21
11968.3003198193
 31
0.0
  0
LINE
  5
292
100
AcDbEntity
  8
L1_
  6
CENTER
 62
         1
100
AcDbLine
 10
-9815.5247620893
 20
11989.3503198193
 30
0.0
 11
-9817.4035612288
 21
11989.3503198193
 31
0.0
  0
LINE
  5
293
100
AcDbEntity
  8
L1_
  6
CENTER
 62
         1
100
AcDbLine
 10
-9817.9035612288
 20
11989.2163452231
 30
0.0
 11
-9818.9705485269
 21
11988.6003198193
 31
0.0
  0
LINE
  5
294
100
AcDbEntity
  8
L1_
  6
CENTER
 62
         1
100
AcDbLine
 10
-9818.9705485269
 20
11988.6003198193
 30
0.0
 11
-9825.9705485269
 21
11988.6003198193
 31
0.0
  0
LINE
  5
295
100
AcDbEntity
  8
L1_
  6
CENTER
 62
         1
100
AcDbLine
 10
-9818.1045231231
 20
11989.1003198193
 30
0.0
 11
-9826.8365739307
 21
11989.1003198193
 31
0.0
  0
LINE
  5
296
100
AcDbEntity
  8
L1_
  6
CENTER
 62
         1
100
AcDbLine
 10
-9814.2705485269
 20
11968.1903198193
 30
0.0
 11
-9814.8176553081
 21
11967.6432130381
 31
0.0
  0
LINE
  5
297
100
AcDbEntity
  8
L1_
  6
CENTER
 62
         1
100
AcDbLine
 10
-9814.2705485269
 20
11988.5103198193
 30
0.0
 11
-9814.8176553081
 21
11989.0574266005
 31
0.0
  0
ARC
  5
298
100
AcDbEntity
  8
L1_
  6
CENTER
 62
         1
100
AcDbCircle
 10
-9825.9705485269
 20
11989.6003198193
 30
0.0
 40
1.0
100
AcDbArc
 50
180.0
 51
270.0
  0
ARC
  5
299
100
AcDbEntity
  8
L1_
  6
CENTER
 62
         1
100
AcDbCircle
 10
-9825.9705485269
 20
11967.1003198193
 30
0.0
 40
1.0
100
AcDbArc
 50
90.0
 51
180.0
  0
ARC
  5
29A
100
AcDbEntity
  8
L1_
  6
CENTER
 62
         1
100
AcDbCircle
 10
-9811.4705485269
 20
11965.6003198193
 30
0.0
 40
1.0
100
AcDbArc
 50
270.0
 51
360.0
  0
ARC
  5
29B
100
AcDbEntity
  8
L1_
  6
CENTER
 62
         1
100
AcDbCircle
 10
-9825.9705485269
 20
11965.6003198193
 30
0.0
 40
1.0
100
AcDbArc
 50
180.0
 51
270.0
  0
ARC
  5
29C
100
AcDbEntity
  8
L1_
  6
CENTER
 62
         1
100
AcDbCircle
 10
-9825.9705485269
 20
11991.1003198193
 30
0.0
 40
1.0
100
AcDbArc
 50
90.0
 51
180.0
  0
ARC
  5
29D
100
AcDbEntity
  8
L1_
  6
CENTER
 62
         1
100
AcDbCircle
 10
-9811.4705485269
 20
11991.1003198193
 30
0.0
 40
1.0
100
AcDbArc
 50
0.0
 51
90.0
  0
LINE
  5
29E
100
AcDbEntity
  8
L1_
  6
CENTER
 62
         1
100
AcDbLine
 10
-9814.0705485269
 20
11968.1903198193
 30
0.0
 11
-9814.0705485269
 21
11968.3003198193
 31
0.0
  0
LINE
  5
29F
100
AcDbEntity
  8
L1_
  6
CENTER
 62
         1
100
AcDbLine
 10
-9814.0705485269
 20
11968.1903198193
 30
0.0
 11
-9814.0705485269
 21
11967.9903198193
 31
0.0
  0
LINE
  5
2A0
100
AcDbEntity
  8
L1_
  6
CENTER
 62
         1
100
AcDbLine
 10
-9813.5705485269
 20
11967.9903198193
 30
0.0
 11
-9814.0705485269
 21
11967.9903198193
 31
0.0
  0
LINE
  5
2A1
100
AcDbEntity
  8
L1_
  6
CENTER
 62
         1
100
AcDbLine
 10
-9814.0705485269
 20
11968.1903198193
 30
0.0
 11
-9814.2705485269
 21
11968.1903198193
 31
0.0
  0
LINE
  5
2A2
100
AcDbEntity
  8
L1_
  6
CENTER
 62
         1
100
AcDbLine
 10
-9814.0705485269
 20
11988.5103198193
 30
0.0
 11
-9814.0705485269
 21
11988.7103198193
 31
0.0
  0
LINE
  5
2A3
100
AcDbEntity
  8
L1_
  6
CENTER
 62
         1
100
AcDbLine
 10
-9813.5705485269
 20
11988.7103198193
 30
0.0
 11
-9814.0705485269
 21
11988.7103198193
 31
0.0
  0
LINE
  5
2A4
100
AcDbEntity
  8
L1_
  6
CENTER
 62
         1
100
AcDbLine
 10
-9814.0705485269
 20
11988.5103198193
 30
0.0
 11
-9814.2705485269
 21
11988.5103198193
 31
0.0
  0
LINE
  5
2A5
100
AcDbEntity
  8
L1_
  6
CENTER
 62
         1
100
AcDbLine
 10
-9813.5705485269
 20
11967.9903198193
 30
0.0
 11
-9813.5705485269
 21
11969.1003198193
 31
0.0
  0
LINE
  5
2A6
100
AcDbEntity
  8
L1_
  6
CENTER
 62
         1
100
AcDbLine
 10
-9811.9705485269
 20
11972.0753198193
 30
0.0
 11
-9813.5705485269
 21
11972.0753198193
 31
0.0
  0
LINE
  5
2A7
100
AcDbEntity
  8
L1_
  6
CENTER
 62
         1
100
AcDbLine
 10
-9811.9705485269
 20
11984.6253198193
 30
0.0
 11
-9813.5705485269
 21
11984.6253198193
 31
0.0
  0
LINE
  5
2A8
100
AcDbEntity
  8
L1_
  6
CENTER
 62
         1
100
AcDbLine
 10
-9811.9705485269
 20
11971.0003198193
 30
0.0
 11
-9811.9705485269
 21
11985.7003198193
 31
0.0
  0
LINE
  5
2A9
100
AcDbEntity
  8
L1_
  6
CENTER
 62
         1
100
AcDbLine
 10
-9809.9705485269
 20
11971.0003198193
 30
0.0
 11
-9811.9705485269
 21
11971.0003198193
 31
0.0
  0
LINE
  5
2AA
100
AcDbEntity
  8
L1_
  6
CENTER
 62
         1
100
AcDbLine
 10
-9809.9705485269
 20
11985.7003198193
 30
0.0
 11
-9811.9705485269
 21
11985.7003198193
 31
0.0
  0
LINE
  5
2AB
100
AcDbEntity
  8
L1_
  6
CENTER
 62
         1
100
AcDbLine
 10
-9810.4705485269
 20
11988.6003198193
 30
0.0
 11
-9810.4705485269
 21
11991.1003198193
 31
0.0
  0
LINE
  5
2AC
100
AcDbEntity
  8
L1_
  6
CENTER
 62
         1
100
AcDbLine
 10
-9810.4705485269
 20
11965.6003198193
 30
0.0
 11
-9810.4705485269
 21
11968.1003198193
 31
0.0
  0
LINE
  5
2AD
100
AcDbEntity
  8
L1_
  6
CENTER
 62
         1
100
AcDbLine
 10
-9809.9705485269
 20
11968.1003198193
 30
0.0
 11
-9810.4705485269
 21
11968.1003198193
 31
0.0
  0
LINE
  5
2AE
100
AcDbEntity
  8
L1_
  6
CENTER
 62
         1
100
AcDbLine
 10
-9809.9705485269
 20
11988.6003198193
 30
0.0
 11
-9810.4705485269
 21
11988.6003198193
 31
0.0
  0
LINE
  5
2AF
100
AcDbEntity
  8
L1_
  6
CENTER
 62
         1
100
AcDbLine
 10
-9809.9705485269
 20
11968.1003198193
 30
0.0
 11
-9809.9705485269
 21
11988.6003198193
 31
0.0
  0
LINE
  5
2B0
100
AcDbEntity
  8
L1_
  6
CENTER
 62
         1
100
AcDbLine
 10
-9811.4705485269
 20
11964.6003198193
 30
0.0
 11
-9825.9705485269
 21
11964.6003198193
 31
0.0
  0
LINE
  5
2B1
100
AcDbEntity
  8
L1_
  6
CENTER
 62
         1
100
AcDbLine
 10
-9811.4705485269
 20
11992.1003198193
 30
0.0
 11
-9825.9705485269
 21
11992.1003198193
 31
0.0
  0
LINE
  5
2B2
100
AcDbEntity
  8
L1_
  6
CENTER
 62
         1
100
AcDbLine
 10
-9826.9705485269
 20
11965.6003198193
 30
0.0
 11
-9826.9705485269
 21
11967.6403198193
 31
0.0
  0
LINE
  5
2B3
100
AcDbEntity
  8
L1_
  6
CENTER
 62
         1
100
AcDbLine
 10
-9810.4705485269
 20
11990.8503198193
 30
0.0
 11
-9818.8931982577
 21
11990.8503198193
 31
0.0
  0
LINE
  5
2B4
100
AcDbEntity
  8
L1_
  6
CENTER
 62
         1
100
AcDbLine
 10
-9820.1922363634
 20
11992.1003198193
 30
0.0
 11
-9819.7592236615
 21
11991.3503198193
 31
0.0
  0
ARC
  5
2B5
100
AcDbEntity
  8
L1_
  6
CENTER
 62
         1
100
AcDbCircle
 10
-9818.8931982577
 20
11991.8503198193
 30
0.0
 40
1.0
100
AcDbArc
 50
210.0
 51
270.0
  0
ARC
  5
2B6
100
AcDbEntity
  8
L1_
  6
CENTER
 62
         1
100
AcDbCircle
 10
-9818.8931982577
 20
11964.8503198193
 30
0.0
 40
1.0
100
AcDbArc
 50
90.0
 51
150.0
  0
LINE
  5
2B7
100
AcDbEntity
  8
L1_
  6
CENTER
 62
         1
100
AcDbLine
 10
-9820.1922363634
 20
11964.6003198193
 30
0.0
 11
-9819.7592236615
 21
11965.3503198193
 31
0.0
  0
LINE
  5
2B8
100
AcDbEntity
  8
L1_
  6
CENTER
 62
         1
100
AcDbLine
 10
-9810.4705485269
 20
11965.8503198193
 30
0.0
 11
-9818.8931982577
 21
11965.8503198193
 31
0.0
  0
DIMENSION
  5
2BB
100
AcDbEntity
  8
L1_
  6
CONTINUOUS
 62
         4
100
AcDbDimension
  2
*D19
 10
-9815.5705485269
 20
11948.3349732576
 30
0.0
 11
-9810.3136272552
 21
11950.9599732576
 31
0.0
  3
DIMSTYLE1
100
AcDbAlignedDimension
 13
-9815.5705485269
 23
11968.3003198193
 33
0.0
 14
-9813.5705485269
 24
11969.1003198193
 34
0.0
100
AcDbRotatedDimension
  0
DIMENSION
  5
2CB
100
AcDbEntity
  8
L1_
  6
CONTINUOUS
 62
         4
100
AcDbDimension
  2
*D20
 10
-9813.5705485269
 20
11936.9943498744
 30
0.0
 11
-9824.3903918021
 21
11939.6193498744
 31
0.0
  3
DIMSTYLE1
100
AcDbAlignedDimension
 13
-9813.5705485269
 23
11969.1003198193
 33
0.0
 14
-9827.5705485269
 24
11965.1003198193
 34
0.0
100
AcDbRotatedDimension
  0
LINE
  5
2D7
100
AcDbEntity
  8
L1_
  6
CONTINUOUS
 62
         4
100
AcDbLine
 10
-9816.2305485269
 20
11967.6403198193
 30
0.0
 11
-9816.2305485269
 21
11989.0603198193
 31
0.0
  0
LINE
  5
2D8
100
AcDbEntity
  8
L1_
  6
CONTINUOUS
 62
         4
100
AcDbLine
 10
-9815.5705485269
 20
11988.4003198193
 30
0.0
 11
-9815.5705485269
 21
11968.3003198193
 31
0.0
  0
ARC
  5
2D9
100
AcDbEntity
  8
L1_
  6
CONTINUOUS
 62
         7
100
AcDbCircle
 10
-9814.3705485269
 20
11969.1003198193
 30
0.0
 40
0.8
100
AcDbArc
 50
270.0
 51
360.0
  0
LINE
  5
2DA
100
AcDbEntity
  8
L1_
  6
CONTINUOUS
 62
         7
100
AcDbLine
 10
-9814.3705485269
 20
11968.3003198193
 30
0.0
 11
-9815.5705485269
 21
11968.3003198193
 31
0.0
  0
LINE
  5
2DB
100
AcDbEntity
  8
L1_
  6
CONTINUOUS
 62
         7
100
AcDbLine
 10
-9816.2305485269
 20
11967.6403198193
 30
0.0
 11
-9815.5705485269
 21
11968.3003198193
 31
0.0
  0
LINE
  5
2DC
100
AcDbEntity
  8
L1_
  6
CONTINUOUS
 62
         7
100
AcDbLine
 10
-9816.2305485269
 20
11989.0603198193
 30
0.0
 11
-9815.5705485269
 21
11988.4003198193
 31
0.0
  0
LINE
  5
2DD
100
AcDbEntity
  8
L1_
  6
CONTINUOUS
 62
         7
100
AcDbLine
 10
-9814.3705485269
 20
11988.4003198193
 30
0.0
 11
-9815.5705485269
 21
11988.4003198193
 31
0.0
  0
ARC
  5
2DE
100
AcDbEntity
  8
L1_
  6
CONTINUOUS
 62
         7
100
AcDbCircle
 10
-9814.3705485269
 20
11987.6003198193
 30
0.0
 40
0.8
100
AcDbArc
 50
0.0
 51
90.0
  0
LINE
  5
2DF
100
AcDbEntity
  8
L1_
  6
CONTINUOUS
 62
         4
100
AcDbLine
 10
-9815.5955485269
 20
11968.2753198193
 30
0.0
 11
-9826.5705485269
 21
11968.2753198193
 31
0.0
  0
LINE
  5
2E0
100
AcDbEntity
  8
L1_
  6
CONTINUOUS
 62
         4
100
AcDbLine
 10
-9815.5955485269
 20
11988.4253198193
 30
0.0
 11
-9826.5705485269
 21
11988.4253198193
 31
0.0
  0
ARC
  5
2E1
100
AcDbEntity
  8
L1_
  6
CONTINUOUS
 62
         7
100
AcDbCircle
 10
-9827.0705485269
 20
11967.1403198193
 30
0.0
 40
0.5
100
AcDbArc
 50
90.0
 51
180.0
  0
ARC
  5
2E2
100
AcDbEntity
  8
L1_
  6
CONTINUOUS
 62
         7
100
AcDbCircle
 10
-9827.0705485269
 20
11989.5603198193
 30
0.0
 40
0.5
100
AcDbArc
 50
180.0
 51
270.0
  0
LINE
  5
2E3
100
AcDbEntity
  8
L1_
  6
CONTINUOUS
 62
         4
100
AcDbLine
 10
-9828.0705485269
 20
11964.6003198193
 30
0.0
 11
-9828.0705485269
 21
11992.1003198193
 31
0.0
  0
LINE
  5
2E4
100
AcDbEntity
  8
L1_
  6
CONTINUOUS
 62
         7
100
AcDbLine
 10
-9827.5705485269
 20
11965.1003198193
 30
0.0
 11
-9828.0705485269
 21
11964.6003198193
 31
0.0
  0
LINE
  5
2E5
100
AcDbEntity
  8
L1_
  6
CONTINUOUS
 62
         7
100
AcDbLine
 10
-9827.5705485269
 20
11991.6003198193
 30
0.0
 11
-9828.0705485269
 21
11992.1003198193
 31
0.0
  0
LINE
  5
2E6
100
AcDbEntity
  8
L1_
  6
CONTINUOUS
 62
         7
100
AcDbLine
 10
-9826.5705485269
 20
11967.6403198193
 30
0.0
 11
-9826.5705485269
 21
11989.0603198193
 31
0.0
  0
LINE
  5
2E7
100
AcDbEntity
  8
L1_
  6
CONTINUOUS
 62
         7
100
AcDbLine
 10
-9828.0705485269
 20
11964.6003198193
 30
0.0
 11
-9876.8185485269
 21
11964.6003198193
 31
0.0
  0
LINE
  5
2E8
100
AcDbEntity
  8
L1_
  6
CONTINUOUS
 62
         7
100
AcDbLine
 10
-9828.0705485269
 20
11992.1003198193
 30
0.0
 11
-9876.8185485269
 21
11992.1003198193
 31
0.0
  0
LINE
  5
2E9
100
AcDbEntity
  8
L1_
  6
CONTINUOUS
 62
         7
100
AcDbLine
 10
-9827.5705485269
 20
11965.1003198193
 30
0.0
 11
-9827.5705485269
 21
11991.6003198193
 31
0.0
  0
LINE
  5
2EA
100
AcDbEntity
  8
L1_
  6
CONTINUOUS
 62
         7
100
AcDbLine
 10
-9816.2305485269
 20
11967.6403198193
 30
0.0
 11
-9827.0705485269
 21
11967.6403198193
 31
0.0
  0
LINE
  5
2EB
100
AcDbEntity
  8
L1_
  6
CONTINUOUS
 62
         7
100
AcDbLine
 10
-9816.2305485269
 20
11989.0603198193
 30
0.0
 11
-9827.0705485269
 21
11989.0603198193
 31
0.0
  0
LINE
  5
2EC
100
AcDbEntity
  8
L1_
  6
CONTINUOUS
 62
         7
100
AcDbLine
 10
-9813.5705485269
 20
11969.1003198193
 30
0.0
 11
-9813.5705485269
 21
11987.6003198193
 31
0.0
  0
ARC
  5
2ED
100
AcDbEntity
  8
L1_
  6
CONTINUOUS
 62
         7
100
AcDbCircle
 10
-9912.4705485269
 20
11703.45788712
 30
0.0
 40
0.8
100
AcDbArc
 50
0.0
 51
90.0000000001
  0
LINE
  5
2EE
100
AcDbEntity
  8
L1_
  6
CONTINUOUS
 62
         7
100
AcDbLine
 10
-9912.4705485269
 20
11704.25788712
 30
0.0
 11
-9913.6705485269
 21
11704.25788712
 31
0.0
  0
ARC
  5
2EF
100
AcDbEntity
  8
L1_
  6
CONTINUOUS
 62
         7
100
AcDbCircle
 10
-9912.4705485269
 20
11775.2578904152
 30
0.0
 40
0.8
100
AcDbArc
 50
270.0
 51
360.0
  0
LINE
  5
2F0
100
AcDbEntity
  8
L1_
  6
CONTINUOUS
 62
         7
100
AcDbLine
 10
-9912.4705485269
 20
11774.4578904152
 30
0.0
 11
-9913.6705485269
 21
11774.4578904152
 31
0.0
  0
ARC
  5
2F1
100
AcDbEntity
  8
L1_
  6
CONTINUOUS
 62
         7
100
AcDbCircle
 10
-9912.4705485269
 20
11942.4503181717
 30
0.0
 40
0.8
100
AcDbArc
 50
0.0
 51
90.0000000001
  0
LINE
  5
2F2
100
AcDbEntity
  8
L1_
  6
CONTINUOUS
 62
         7
100
AcDbLine
 10
-9912.4705485269
 20
11943.2503181717
 30
0.0
 11
-9913.6705485269
 21
11943.2503181717
 31
0.0
  0
ARC
  5
2F3
100
AcDbEntity
  8
L1_
  6
CONTINUOUS
 62
         7
100
AcDbCircle
 10
-9912.4705485269
 20
12014.250321467
 30
0.0
 40
0.8
100
AcDbArc
 50
270.0
 51
360.0
  0
LINE
  5
2F4
100
AcDbEntity
  8
L1_
  6
CONTINUOUS
 62
         7
100
AcDbLine
 10
-9912.4705485269
 20
12013.450321467
 30
0.0
 11
-9913.6705485269
 21
12013.450321467
 31
0.0
  0
LINE
  5
2F5
100
AcDbEntity
  8
L1_
  6
DASHED
 62
         2
100
AcDbLine
 10
-9630.3151889697
 20
11973.3503198193
 30
0.0
 11
-9626.0651889697
 21
11973.3503198193
 31
0.0
  0
LINE
  5
2F6
100
AcDbEntity
  8
L1_
  6
DASHED
 62
         2
100
AcDbLine
 10
-9625.8651889697
 20
11983.1503198193
 30
0.0
 11
-9625.8651889697
 21
11973.5503198193
 31
0.0
  0
ARC
  5
2F7
100
AcDbEntity
  8
L1_
  6
DASHED
 62
         2
100
AcDbCircle
 10
-9626.0651889697
 20
11983.1503198193
 30
0.0
 40
0.2
100
AcDbArc
 50
0.0
 51
90.0
  0
ARC
  5
2F8
100
AcDbEntity
  8
L1_
  6
DASHED
 62
         2
100
AcDbCircle
 10
-9626.0651889697
 20
11973.5503198193
 30
0.0
 40
0.2
100
AcDbArc
 50
270.0
 51
360.0
  0
LINE
  5
2F9
100
AcDbEntity
  8
L1_
  6
DASHED
 62
         2
100
AcDbLine
 10
-9630.3151889697
 20
11983.3503198193
 30
0.0
 11
-9630.3151889697
 21
11973.3503198193
 31
0.0
  0
LINE
  5
2FA
100
AcDbEntity
  8
L1_
  6
DASHED
 62
         2
100
AcDbLine
 10
-9630.5151889697
 20
11983.5503198193
 30
0.0
 11
-9630.3151889697
 21
11983.3503198193
 31
0.0
  0
LINE
  5
2FB
100
AcDbEntity
  8
L1_
  6
DASHED
 62
         2
100
AcDbLine
 10
-9630.5151889697
 20
11973.1503198193
 30
0.0
 11
-9630.3151889697
 21
11973.3503198193
 31
0.0
  0
LINE
  5
2FC
100
AcDbEntity
  8
L1_
  6
DASHED
 62
         2
100
AcDbLine
 10
-9630.3151889697
 20
11983.3503198193
 30
0.0
 11
-9626.0651889697
 21
11983.3503198193
 31
0.0
  0
LINE
  5
2FD
100
AcDbEntity
  8
L1_
  6
DASHED
 62
         2
100
AcDbLine
 10
-9630.0151889697
 20
11973.3503198193
 30
0.0
 11
-9630.5151889697
 21
11972.8503198193
 31
0.0
  0
LINE
  5
2FE
100
AcDbEntity
  8
L1_
  6
DASHED
 62
         2
100
AcDbLine
 10
-9630.0151889697
 20
11983.3503198193
 30
0.0
 11
-9630.5151889697
 21
11983.8503198193
 31
0.0
  0
LINE
  5
2FF
100
AcDbEntity
  8
L1_
  6
DASHED
 62
         2
100
AcDbLine
 10
-9630.0151889697
 20
11983.3503198193
 30
0.0
 11
-9630.0151889697
 21
11973.3503198193
 31
0.0
  0
CIRCLE
  5
300
100
AcDbEntity
  8
L1_
  6
CONTINUOUS
 62
         7
100
AcDbCircle
 10
-9903.7705485269
 20
11978.3541733442
 30
0.0
 40
4.76
  0
LINE
  5
301
100
AcDbEntity
  8
L1_
  6
CONTINUOUS
 62
         7
100
AcDbLine
 10
-9895.7705485269
 20
11964.5003198193
 30
0.0
 11
-9900.2342781281
 21
11964.5003198193
 31
0.0
  0
LINE
  5
302
100
AcDbEntity
  8
L1_
  6
CONTINUOUS
 62
         7
100
AcDbLine
 10
-9907.3068189257
 20
11964.5003198193
 30
0.0
 11
-9911.6705485269
 21
11964.5003198193
 31
0.0
  0
LINE
  5
303
100
AcDbEntity
  8
L1_
  6
CONTINUOUS
 62
         7
100
AcDbLine
 10
-9911.6705485269
 20
11964.5003198193
 30
0.0
 11
-9910.650454362
 21
11965.5204139842
 31
0.0
  0
LINE
  5
304
100
AcDbEntity
  8
L1_
  6
CONTINUOUS
 62
         7
100
AcDbLine
 10
-9907.3068189257
 20
11964.5003198193
 30
0.0
 11
-9905.6455485269
 21
11965.5204139842
 31
0.0
  0
LINE
  5
305
100
AcDbEntity
  8
L1_
  6
CONTINUOUS
 62
         7
100
AcDbLine
 10
-9896.8906426918
 20
11965.5204139842
 30
0.0
 11
-9910.650454362
 21
11965.5204139842
 31
0.0
  0
LINE
  5
306
100
AcDbEntity
  8
L1_
  6
CONTINUOUS
 62
         7
100
AcDbLine
 10
-9896.8906426918
 20
11965.5204139842
 30
0.0
 11
-9910.650454362
 21
11965.5204139842
 31
0.0
  0
LINE
  5
307
100
AcDbEntity
  8
L1_
  6
CONTINUOUS
 62
         7
100
AcDbLine
 10
-9901.8955485269
 20
11965.5204139842
 30
0.0
 11
-9900.2342781281
 21
11964.5003198193
 31
0.0
  0
LINE
  5
308
100
AcDbEntity
  8
L1_
  6
CONTINUOUS
 62
         7
100
AcDbLine
 10
-9895.8705485269
 20
11964.5003198193
 30
0.0
 11
-9896.8906426918
 21
11965.5204139842
 31
0.0
  0
LINE
  5
309
100
AcDbEntity
  8
L1_
  6
CONTINUOUS
 62
         7
100
AcDbLine
 10
-9900.2342781281
 20
11964.5003198193
 30
0.0
 11
-9900.2342781281
 21
11929.6003198193
 31
0.0
  0
LINE
  5
30A
100
AcDbEntity
  8
L1_
  6
CONTINUOUS
 62
         7
100
AcDbLine
 10
-9901.8955485269
 20
11965.5204139842
 30
0.0
 11
-9901.8955485269
 21
11932.4777092809
 31
0.0
  0
LINE
  5
30B
100
AcDbEntity
  8
L1_
  6
CONTINUOUS
 62
         7
100
AcDbLine
 10
-9905.6455485269
 20
11965.5204139842
 30
0.0
 11
-9905.6455485269
 21
11932.4777092809
 31
0.0
  0
LINE
  5
30C
100
AcDbEntity
  8
L1_
  6
CONTINUOUS
 62
         7
100
AcDbLine
 10
-9907.3068189257
 20
11964.5003198193
 30
0.0
 11
-9907.3068189257
 21
11929.6003198193
 31
0.0
  0
LINE
  5
30D
100
AcDbEntity
  8
L1_
  6
CONTINUOUS
 62
         7
100
AcDbLine
 10
-9895.7705485269
 20
11992.2003198193
 30
0.0
 11
-9900.2342781281
 21
11992.2003198193
 31
0.0
  0
LINE
  5
30E
100
AcDbEntity
  8
L1_
  6
CONTINUOUS
 62
         7
100
AcDbLine
 10
-9907.3068189257
 20
11992.2003198193
 30
0.0
 11
-9905.6455485269
 21
11991.1802256544
 31
0.0
  0
LINE
  5
30F
100
AcDbEntity
  8
L1_
  6
CONTINUOUS
 62
         7
100
AcDbLine
 10
-9911.6705485269
 20
11992.2003198193
 30
0.0
 11
-9910.650454362
 21
11991.1802256544
 31
0.0
  0
LINE
  5
310
100
AcDbEntity
  8
L1_
  6
CONTINUOUS
 62
         7
100
AcDbLine
 10
-9907.3068189257
 20
11992.2003198193
 30
0.0
 11
-9911.6705485269
 21
11992.2003198193
 31
0.0
  0
LINE
  5
311
100
AcDbEntity
  8
L1_
  6
CONTINUOUS
 62
         7
100
AcDbLine
 10
-9896.8906426918
 20
11991.1802256544
 30
0.0
 11
-9910.650454362
 21
11991.1802256544
 31
0.0
  0
LINE
  5
312
100
AcDbEntity
  8
L1_
  6
CONTINUOUS
 62
         7
100
AcDbLine
 10
-9896.8906426918
 20
11991.1802256544
 30
0.0
 11
-9910.650454362
 21
11991.1802256544
 31
0.0
  0
LINE
  5
313
100
AcDbEntity
  8
L1_
  6
CONTINUOUS
 62
         7
100
AcDbLine
 10
-9901.8955485269
 20
11991.1802256544
 30
0.0
 11
-9900.2342781281
 21
11992.2003198193
 31
0.0
  0
LINE
  5
314
100
AcDbEntity
  8
L1_
  6
CONTINUOUS
 62
         7
100
AcDbLine
 10
-9895.8705485269
 20
11992.2003198193
 30
0.0
 11
-9896.8906426918
 21
11991.1802256544
 31
0.0
  0
LINE
  5
315
100
AcDbEntity
  8
L1_
  6
CONTINUOUS
 62
         7
100
AcDbLine
 10
-9900.2342781281
 20
12027.1003198193
 30
0.0
 11
-9900.2342781281
 21
11992.2003198193
 31
0.0
  0
LINE
  5
316
100
AcDbEntity
  8
L1_
  6
CONTINUOUS
 62
         7
100
AcDbLine
 10
-9901.8955485269
 20
12024.2229303577
 30
0.0
 11
-9901.8955485269
 21
11991.1802256544
 31
0.0
  0
LINE
  5
317
100
AcDbEntity
  8
L1_
  6
CONTINUOUS
 62
         7
100
AcDbLine
 10
-9905.6455485269
 20
12024.2229303577
 30
0.0
 11
-9905.6455485269
 21
11991.1802256544
 31
0.0
  0
LINE
  5
318
100
AcDbEntity
  8
L1_
  6
CONTINUOUS
 62
         7
100
AcDbLine
 10
-9907.3068189257
 20
12027.1003198193
 30
0.0
 11
-9907.3068189257
 21
11992.2003198193
 31
0.0
  0
ARC
  5
319
100
AcDbEntity
  8
L1_
  6
DASHED
 62
         2
100
AcDbCircle
 10
-9592.8151889697
 20
11978.3503198193
 30
0.0
 40
45.625
100
AcDbArc
 50
197.6716498685
 51
343.6416615206
  0
ARC
  5
31A
100
AcDbEntity
  8
L1_
  6
CONTINUOUS
 62
         7
100
AcDbCircle
 10
-9592.8151889697
 20
11978.3503198193
 30
0.0
 40
48.75
100
AcDbArc
 50
16.5052120024
 51
163.4947879976
  0
ARC
  5
31B
100
AcDbEntity
  8
L1_
  6
DASHED
 62
         2
100
AcDbCircle
 10
-9592.8151889697
 20
11978.3503198193
 30
0.0
 40
45.625
100
AcDbArc
 50
16.3583384794
 51
163.6416615206
  0
ARC
  5
31C
100
AcDbEntity
  8
L1_
  6
CONTINUOUS
 62
         7
100
AcDbCircle
 10
-9592.8151889697
 20
11978.3503198193
 30
0.0
 40
48.75
100
AcDbArc
 50
196.5052120024
 51
343.4947879976
  0
LINE
  5
31D
100
AcDbEntity
  8
L1_
  6
CENTER
 62
         1
100
AcDbLine
 10
-9647.5651889697
 20
11978.3503198193
 30
0.0
 11
-9538.0651889697
 21
11978.3503198193
 31
0.0
  0
LINE
  5
31E
100
AcDbEntity
  8
L1_
  6
CENTER
 62
         1
100
AcDbLine
 10
-9592.8151889697
 20
11923.6003198193
 30
0.0
 11
-9592.8151889697
 21
12030.5149426941
 31
0.0
  0
LINE
  5
31F
100
AcDbEntity
  8
L1_
  6
CONTINUOUS
 62
         7
100
AcDbLine
 10
-9557.3151889697
 20
11990.7003198193
 30
0.0
 11
-9557.3151889697
 21
11966.0003198193
 31
0.0
  0
LINE
  5
320
100
AcDbEntity
  8
L1_
  6
CONTINUOUS
 62
         7
100
AcDbLine
 10
-9547.073986589
 20
11991.2003198193
 30
0.0
 11
-9556.8151889697
 21
11991.2003198193
 31
0.0
  0
LINE
  5
321
100
AcDbEntity
  8
L1_
  6
CONTINUOUS
 62
         7
100
AcDbLine
 10
-9546.073986589
 20
11992.2003198193
 30
0.0
 11
-9547.073986589
 21
11991.2003198193
 31
0.0
  0
LINE
  5
322
100
AcDbEntity
  8
L1_
  6
CONTINUOUS
 62
         7
100
AcDbLine
 10
-9546.073986589
 20
11964.5003198193
 30
0.0
 11
-9547.073986589
 21
11965.5003198193
 31
0.0
  0
LINE
  5
323
100
AcDbEntity
  8
L1_
  6
CONTINUOUS
 62
         7
100
AcDbLine
 10
-9547.073986589
 20
11965.5003198193
 30
0.0
 11
-9556.8151889697
 21
11965.5003198193
 31
0.0
  0
LINE
  5
324
100
AcDbEntity
  8
L1_
  6
CONTINUOUS
 62
         7
100
AcDbLine
 10
-9557.3151889697
 20
11990.7003198193
 30
0.0
 11
-9556.8151889697
 21
11991.2003198193
 31
0.0
  0
LINE
  5
325
100
AcDbEntity
  8
L1_
  6
CONTINUOUS
 62
         7
100
AcDbLine
 10
-9557.3151889697
 20
11966.0003198193
 30
0.0
 11
-9556.8151889697
 21
11965.5003198193
 31
0.0
  0
LINE
  5
326
100
AcDbEntity
  8
L1_
  6
CONTINUOUS
 62
         7
100
AcDbLine
 10
-9630.5151889697
 20
11966.0003198193
 30
0.0
 11
-9631.0151889697
 21
11965.5003198193
 31
0.0
  0
LINE
  5
327
100
AcDbEntity
  8
L1_
  6
CONTINUOUS
 62
         7
100
AcDbLine
 10
-9631.0151889697
 20
11991.2003198193
 30
0.0
 11
-9630.5151889697
 21
11990.7003198193
 31
0.0
  0
LINE
  5
328
100
AcDbEntity
  8
L1_
  6
CONTINUOUS
 62
         7
100
AcDbLine
 10
-9630.5151889697
 20
11990.7003198193
 30
0.0
 11
-9630.5151889697
 21
11966.0003198193
 31
0.0
  0
LINE
  5
329
100
AcDbEntity
  8
L1_
  6
CONTINUOUS
 62
         7
100
AcDbLine
 10
-9639.5563913505
 20
11992.2003198193
 30
0.0
 11
-9638.5563913505
 21
11991.2003198193
 31
0.0
  0
LINE
  5
32A
100
AcDbEntity
  8
L1_
  6
CONTINUOUS
 62
         7
100
AcDbLine
 10
-9638.5563913505
 20
11991.2003198193
 30
0.0
 11
-9631.0151889697
 21
11991.2003198193
 31
0.0
  0
LINE
  5
32B
100
AcDbEntity
  8
L1_
  6
CONTINUOUS
 62
         7
100
AcDbLine
 10
-9639.5563913505
 20
11964.5003198193
 30
0.0
 11
-9638.5563913505
 21
11965.5003198193
 31
0.0
  0
LINE
  5
32C
100
AcDbEntity
  8
L1_
  6
CONTINUOUS
 62
         7
100
AcDbLine
 10
-9638.5563913505
 20
11965.5003198193
 30
0.0
 11
-9631.0151889697
 21
11965.5003198193
 31
0.0
  0
LINE
  5
32D
100
AcDbEntity
  8
L1_
  6
CENTER
 62
         1
100
AcDbLine
 10
-10198.725908084
 20
12031.7901871713
 30
0.0
 11
-10198.725908084
 21
11916.7002890904
 31
0.0
  0
ARC
  5
32E
100
AcDbEntity
  8
L1_
  6
CONTINUOUS
 62
         7
100
AcDbCircle
 10
-10198.725908084
 20
11978.3503198193
 30
0.0
 40
48.75
100
AcDbArc
 50
16.5052120024
 51
163.4947879976
  0
LINE
  5
32F
100
AcDbEntity
  8
L1_
  6
CENTER
 62
         1
100
AcDbLine
 10
-10155.3604983471
 20
11978.3503198193
 30
0.0
 11
-10245.2904536794
 21
11978.3503198193
 31
0.0
  0
ARC
  5
330
100
AcDbEntity
  8
L1_
  6
CONTINUOUS
 62
         7
100
AcDbCircle
 10
-10198.725908084
 20
11978.3503198193
 30
0.0
 40
48.75
100
AcDbArc
 50
196.5052120024
 51
343.4947879976
  0
CIRCLE
  5
331
100
AcDbEntity
  8
L1_
  6
CONTINUOUS
 62
         7
100
AcDbCircle
 10
-10198.725908084
 20
11978.3503198193
 30
0.0
 40
34.925
  0
CIRCLE
  5
332
100
AcDbEntity
  8
L1_
  6
CONTINUOUS
 62
         7
100
AcDbCircle
 10
-10198.725908084
 20
11978.3503198193
 30
0.0
 40
20.3982925257
  0
CIRCLE
  5
333
100
AcDbEntity
  8
L1_
  6
CONTINUOUS
 62
         7
100
AcDbCircle
 10
-10198.725908084
 20
11978.3503198193
 30
0.0
 40
10.3963414634
  0
CIRCLE
  5
334
100
AcDbEntity
  8
L1_
  6
CONTINUOUS
 62
         7
100
AcDbCircle
 10
-10198.725908084
 20
11978.3503198193
 30
0.0
 40
12.6589889012
  0
LINE
  5
335
100
AcDbEntity
  8
L1_
  6
CONTINUOUS
 62
         7
100
AcDbLine
 10
-10234.725908084
 20
11966.0003198193
 30
0.0
 11
-10234.725908084
 21
11990.7003198193
 31
0.0
  0
LINE
  5
336
100
AcDbEntity
  8
L1_
  6
CONTINUOUS
 62
         7
100
AcDbLine
 10
-10244.4671104648
 20
11965.5003198193
 30
0.0
 11
-10235.225908084
 21
11965.5003198193
 31
0.0
  0
LINE
  5
337
100
AcDbEntity
  8
L1_
  6
CONTINUOUS
 62
         7
100
AcDbLine
 10
-10245.4671104648
 20
11964.5003198193
 30
0.0
 11
-10244.4671104648
 21
11965.5003198193
 31
0.0
  0
LINE
  5
338
100
AcDbEntity
  8
L1_
  6
CONTINUOUS
 62
         7
100
AcDbLine
 10
-10245.4671104648
 20
11992.2003198193
 30
0.0
 11
-10244.4671104648
 21
11991.2003198193
 31
0.0
  0
LINE
  5
339
100
AcDbEntity
  8
L1_
  6
CONTINUOUS
 62
         7
100
AcDbLine
 10
-10244.4671104648
 20
11991.2003198193
 30
0.0
 11
-10235.225908084
 21
11991.2003198193
 31
0.0
  0
LINE
  5
33A
100
AcDbEntity
  8
L1_
  6
CONTINUOUS
 62
         7
100
AcDbLine
 10
-10161.025908084
 20
11966.0003198193
 30
0.0
 11
-10161.025908084
 21
11990.7003198193
 31
0.0
  0
LINE
  5
33B
100
AcDbEntity
  8
L1_
  6
CONTINUOUS
 62
         7
100
AcDbLine
 10
-10152.9847057033
 20
11991.2003198193
 30
0.0
 11
-10160.525908084
 21
11991.2003198193
 31
0.0
  0
LINE
  5
33C
100
AcDbEntity
  8
L1_
  6
CONTINUOUS
 62
         7
100
AcDbLine
 10
-10151.9847057033
 20
11992.2003198193
 30
0.0
 11
-10152.9847057033
 21
11991.2003198193
 31
0.0
  0
LINE
  5
33D
100
AcDbEntity
  8
L1_
  6
CONTINUOUS
 62
         7
100
AcDbLine
 10
-10152.9847057033
 20
11965.5003198193
 30
0.0
 11
-10160.525908084
 21
11965.5003198193
 31
0.0
  0
LINE
  5
33E
100
AcDbEntity
  8
L1_
  6
CONTINUOUS
 62
         7
100
AcDbLine
 10
-10151.9847057033
 20
11964.5003198193
 30
0.0
 11
-10152.9847057033
 21
11965.5003198193
 31
0.0
  0
LINE
  5
33F
100
AcDbEntity
  8
L1_
  6
CONTINUOUS
 62
         7
100
AcDbLine
 10
-10235.225908084
 20
11965.5003198193
 30
0.0
 11
-10234.725908084
 21
11966.0003198193
 31
0.0
  0
LINE
  5
340
100
AcDbEntity
  8
L1_
  6
CONTINUOUS
 62
         7
100
AcDbLine
 10
-10234.725908084
 20
11990.7003198193
 30
0.0
 11
-10235.225908084
 21
11991.2003198193
 31
0.0
  0
LINE
  5
341
100
AcDbEntity
  8
L1_
  6
CONTINUOUS
 62
         7
100
AcDbLine
 10
-10160.525908084
 20
11991.2003198193
 30
0.0
 11
-10161.025908084
 21
11990.7003198193
 31
0.0
  0
LINE
  5
342
100
AcDbEntity
  8
L1_
  6
CONTINUOUS
 62
         7
100
AcDbLine
 10
-10161.025908084
 20
11966.0003198193
 30
0.0
 11
-10160.525908084
 21
11965.5003198193
 31
0.0
  0
CIRCLE
  5
343
100
AcDbEntity
  8
L1_
  6
CONTINUOUS
 62
         7
100
AcDbCircle
 10
-9592.8151889697
 20
11978.3503198193
 30
0.0
 40
34.925
  0
ARC
  5
344
100
AcDbEntity
  8
L1_
  6
CONTINUOUS
 62
         7
100
AcDbCircle
 10
-9880.6185485269
 20
11944.2253198193
 30
0.0
 40
0.8
100
AcDbArc
 50
269.9999999999
 51
360.0
  0
ARC
  5
345
100
AcDbEntity
  8
L1_
  6
CONTINUOUS
 62
         7
100
AcDbCircle
 10
-9880.6185485269
 20
12012.4753198193
 30
0.0
 40
0.8
100
AcDbArc
 50
0.0
 51
90.0000000003
  0
LINE
  5
346
100
AcDbEntity
  8
L1_
  6
CONTINUOUS
 62
         7
100
AcDbLine
 10
-9879.8185485269
 20
12012.4753198193
 30
0.0
 11
-9879.8185485269
 21
11961.6003198193
 31
0.0
  0
LINE
  5
347
100
AcDbEntity
  8
L1_
  6
CONTINUOUS
 62
         7
100
AcDbLine
 10
-9911.6705485269
 20
11932.1003198193
 30
0.0
 11
-9911.6705485269
 21
11931.1003198193
 31
0.0
  0
LINE
  5
348
100
AcDbEntity
  8
L1_
  6
CONTINUOUS
 62
         7
100
AcDbLine
 10
-9895.7705485269
 20
11942.9253198193
 30
0.0
 11
-9895.7705485269
 21
11930.1003198193
 31
0.0
  0
LINE
  5
349
100
AcDbEntity
  8
L1_
  6
CONTINUOUS
 62
         7
100
AcDbLine
 10
-9898.2705485269
 20
11929.6003198193
 30
0.0
 11
-9896.2705485269
 21
11929.6003198193
 31
0.0
  0
LINE
  5
34A
100
AcDbEntity
  8
L1_
  6
CONTINUOUS
 62
         7
100
AcDbLine
 10
-9911.1705485269
 20
11929.6003198193
 30
0.0
 11
-9909.1705485269
 21
11929.6003198193
 31
0.0
  0
LINE
  5
34B
100
AcDbEntity
  8
L1_
  6
CONTINUOUS
 62
         7
100
AcDbLine
 10
-9895.7705485269
 20
12026.6003198193
 30
0.0
 11
-9895.7705485269
 21
12013.7753198193
 31
0.0
  0
LINE
  5
34C
100
AcDbEntity
  8
L1_
  6
CONTINUOUS
 62
         7
100
AcDbLine
 10
-9898.2705485269
 20
12027.1003198193
 30
0.0
 11
-9896.2705485269
 21
12027.1003198193
 31
0.0
  0
LINE
  5
34D
100
AcDbEntity
  8
L1_
  6
CONTINUOUS
 62
         7
100
AcDbLine
 10
-9910.1705485269
 20
12027.1003198193
 30
0.0
 11
-9909.1705485269
 21
12027.1003198193
 31
0.0
  0
LINE
  5
34E
100
AcDbEntity
  8
L1_
  6
CONTINUOUS
 62
         7
100
AcDbLine
 10
-9911.6705485269
 20
12026.6003198193
 30
0.0
 11
-9911.6705485269
 21
12024.6003198193
 31
0.0
  0
ARC
  5
34F
100
AcDbEntity
  8
L1_
  6
CONTINUOUS
 62
         7
100
AcDbCircle
 10
-9895.2705485269
 20
12013.7753198193
 30
0.0
 40
0.5
100
AcDbArc
 50
180.0
 51
270.0
  0
LINE
  5
350
100
AcDbEntity
  8
L1_
  6
CONTINUOUS
 62
         7
100
AcDbLine
 10
-9895.2705485269
 20
12013.2753198193
 30
0.0
 11
-9880.6185485269
 21
12013.2753198193
 31
0.0
  0
LINE
  5
351
100
AcDbEntity
  8
L1_
  6
CONTINUOUS
 62
         7
100
AcDbLine
 10
-9895.2705485269
 20
11943.4253198193
 30
0.0
 11
-9880.6185485269
 21
11943.4253198193
 31
0.0
  0
ARC
  5
352
100
AcDbEntity
  8
L1_
  6
CONTINUOUS
 62
         7
100
AcDbCircle
 10
-9895.2705485269
 20
11942.9253198193
 30
0.0
 40
0.5
100
AcDbArc
 50
90.0
 51
180.0
  0
ARC
  5
353
100
AcDbEntity
  8
L1_
  6
CONTINUOUS
 62
         7
100
AcDbCircle
 10
-9895.2705485269
 20
11703.9328887676
 30
0.0
 40
0.5
100
AcDbArc
 50
90.0
 51
180.0
  0
ARC
  5
354
100
AcDbEntity
  8
L1_
  6
CONTINUOUS
 62
         7
100
AcDbCircle
 10
-9895.2705485269
 20
11774.7828887676
 30
0.0
 40
0.5
100
AcDbArc
 50
180.0
 51
270.0
  0
LINE
  5
355
100
AcDbEntity
  8
L1_
  6
CONTINUOUS
 62
         7
100
AcDbLine
 10
-9911.6705485269
 20
11787.6078887676
 30
0.0
 11
-9911.6705485269
 21
11785.6078887676
 31
0.0
  0
LINE
  5
356
100
AcDbEntity
  8
L1_
  6
CONTINUOUS
 62
         7
100
AcDbLine
 10
-9910.1705485269
 20
11788.1078887676
 30
0.0
 11
-9909.1705485269
 21
11788.1078887676
 31
0.0
  0
LINE
  5
357
100
AcDbEntity
  8
L1_
  6
CONTINUOUS
 62
         7
100
AcDbLine
 10
-9898.2705485269
 20
11788.1078887676
 30
0.0
 11
-9896.2705485269
 21
11788.1078887676
 31
0.0
  0
LINE
  5
358
100
AcDbEntity
  8
L1_
  6
CONTINUOUS
 62
         7
100
AcDbLine
 10
-9895.7705485269
 20
11787.6078887676
 30
0.0
 11
-9895.7705485269
 21
11774.7828887676
 31
0.0
  0
LINE
  5
359
100
AcDbEntity
  8
L1_
  6
CONTINUOUS
 62
         7
100
AcDbLine
 10
-9911.1705485269
 20
11690.6078887676
 30
0.0
 11
-9909.1705485269
 21
11690.6078887676
 31
0.0
  0
LINE
  5
35A
100
AcDbEntity
  8
L1_
  6
CONTINUOUS
 62
         7
100
AcDbLine
 10
-9898.2705485269
 20
11690.6078887676
 30
0.0
 11
-9896.2705485269
 21
11690.6078887676
 31
0.0
  0
LINE
  5
35B
100
AcDbEntity
  8
L1_
  6
CONTINUOUS
 62
         7
100
AcDbLine
 10
-9895.7705485269
 20
11703.9328887676
 30
0.0
 11
-9895.7705485269
 21
11691.1078887676
 31
0.0
  0
LINE
  5
35C
100
AcDbEntity
  8
L1_
  6
CONTINUOUS
 62
         7
100
AcDbLine
 10
-9911.6705485269
 20
11693.1078887676
 30
0.0
 11
-9911.6705485269
 21
11691.1078887676
 31
0.0
  0
LINE
  5
35D
100
AcDbEntity
  8
L1_
  6
CONTINUOUS
 62
         7
100
AcDbLine
 10
-9895.2705485269
 20
11774.2828887676
 30
0.0
 11
-9880.6185485269
 21
11774.2828887676
 31
0.0
  0
LINE
  5
35E
100
AcDbEntity
  8
L1_
  6
CONTINUOUS
 62
         7
100
AcDbLine
 10
-9895.2705485269
 20
11704.4328887676
 30
0.0
 11
-9880.6185485269
 21
11704.4328887676
 31
0.0
  0
LINE
  5
35F
100
AcDbEntity
  8
L1_
  6
DASHED
 62
         2
100
AcDbLine
 10
-9605.4178807096
 20
12017.8002080593
 30
0.0
 11
-9594.767993047
 21
11988.5398821866
 31
0.0
  0
LINE
  5
360
100
AcDbEntity
  8
L1_
  6
DASHED
 62
         2
100
AcDbLine
 10
-9608.8477587755
 20
12016.5518345362
 30
0.0
 11
-9605.0889882924
 21
12017.9199151095
 31
0.0
  0
LINE
  5
361
100
AcDbEntity
  8
L1_
  6
DASHED
 62
         2
100
AcDbLine
 10
-9606.5254728943
 20
12021.8666241168
 30
0.0
 11
-9605.0889882924
 21
12017.9199151095
 31
0.0
  0
LINE
  5
362
100
AcDbEntity
  8
L1_
  6
DASHED
 62
         2
100
AcDbLine
 10
-9608.5188663582
 20
12016.6715415863
 30
0.0
 11
-9597.8689786956
 21
11987.4112157136
 31
0.0
  0
LINE
  5
363
100
AcDbEntity
  8
L1_
  6
DASHED
 62
         2
100
AcDbLine
 10
-9610.2842433775
 20
12020.4985435435
 30
0.0
 11
-9608.8477587755
 21
12016.5518345362
 31
0.0
  0
LINE
  5
364
100
AcDbEntity
  8
L1_
  6
DASHED
 62
         2
100
AcDbLine
 10
-9587.6453925116
 20
11968.9706980476
 30
0.0
 11
-9577.1115115813
 21
11940.0290980523
 31
0.0
  0
LINE
  5
365
100
AcDbEntity
  8
L1_
  6
DASHED
 62
         2
100
AcDbLine
 10
-9575.346134562
 20
11936.2020960952
 30
0.0
 11
-9576.782619164
 21
11940.1488051025
 31
0.0
  0
LINE
  5
366
100
AcDbEntity
  8
L1_
  6
DASHED
 62
         2
100
AcDbLine
 10
-9576.782619164
 20
11940.1488051025
 30
0.0
 11
-9580.5413896471
 21
11938.7807245292
 31
0.0
  0
LINE
  5
367
100
AcDbEntity
  8
L1_
  6
DASHED
 62
         2
100
AcDbLine
 10
-9579.1049050452
 20
11934.8340155219
 30
0.0
 11
-9580.5413896471
 21
11938.7807245292
 31
0.0
  0
LINE
  5
368
100
AcDbEntity
  8
L1_
  6
DASHED
 62
         2
100
AcDbLine
 10
-9590.7463781602
 20
11967.8420315746
 30
0.0
 11
-9580.2124972298
 21
11938.9004315794
 31
0.0
  0
LINE
  5
369
100
AcDbEntity
  8
L1_
  6
CENTER
 62
         1
100
AcDbLine
 10
-9611.0927000608
 20
12028.5673688257
 30
0.0
 11
-9571.7296366238
 21
11920.4182408721
 31
0.0
  0
POLYLINE
  5
36B
100
AcDbEntity
  8
L1_
  6
CONTINUOUS
 62
         7
100
AcDb2dPolyline
 66
         1
 10
0.0
 20
0.0
 30
0.0
 70
         2
  0
VERTEX
  5
36D
100
AcDbEntity
  8
L1_
  6
CONTINUOUS
 62
         7
100
AcDbVertex
100
AcDb2dVertex
 10
-10183.4716947252
 20
12020.1541337711
 30
0.0
 70
         1
  0
VERTEX
  5
36F
100
AcDbEntity
  8
L1_
  6
CONTINUOUS
 62
         7
100
AcDbVertex
100
AcDb2dVertex
 10
-10183.8516957899
 20
12020.2471051161
 30
0.0
 70
         1
  0
VERTEX
  5
371
100
AcDbEntity
  8
L1_
  6
CONTINUOUS
 62
         7
100
AcDbVertex
100
AcDb2dVertex
 10
-10184.0287644573
 20
12020.262106614
 30
0.0
 70
         1
  0
VERTEX
  5
373
100
AcDbEntity
  8
L1_
  6
CONTINUOUS
 62
         7
100
AcDbVertex
100
AcDb2dVertex
 10
-10184.2133917274
 20
12020.2602734745
 30
0.0
 70
         1
  0
VERTEX
  5
375
100
AcDbEntity
  8
L1_
  6
CONTINUOUS
 62
         7
100
AcDbVertex
100
AcDb2dVertex
 10
-10184.404398577
 20
12020.2404364234
 30
0.0
 70
         1
  0
VERTEX
  5
377
100
AcDbEntity
  8
L1_
  6
CONTINUOUS
 62
         7
100
AcDbVertex
100
AcDb2dVertex
 10
-10184.6003833048
 20
12020.2016801521
 30
0.0
 70
         1
  0
VERTEX
  5
379
100
AcDbEntity
  8
L1_
  6
CONTINUOUS
 62
         7
100
AcDbVertex
100
AcDb2dVertex
 10
-10184.7997459368
 20
12020.1433982929
 30
0.0
 70
         1
  0
VERTEX
  5
37B
100
AcDbEntity
  8
L1_
  6
CONTINUOUS
 62
         7
100
AcDbVertex
100
AcDb2dVertex
 10
-10185.0007251692
 20
12020.0653389324
 30
0.0
 70
         1
  0
VERTEX
  5
37D
100
AcDbEntity
  8
L1_
  6
CONTINUOUS
 62
         7
100
AcDbVertex
100
AcDb2dVertex
 10
-10185.201446696
 20
12019.96763637
 30
0.0
 70
         1
  0
VERTEX
  5
37F
100
AcDbEntity
  8
L1_
  6
CONTINUOUS
 62
         7
100
AcDbVertex
100
AcDb2dVertex
 10
-10185.3999805659
 20
12019.8508256134
 30
0.0
 70
         1
  0
VERTEX
  5
381
100
AcDbEntity
  8
L1_
  6
CONTINUOUS
 62
         7
100
AcDbVertex
100
AcDb2dVertex
 10
-10185.5944041455
 20
12019.7158374
 30
0.0
 70
         1
  0
VERTEX
  5
383
100
AcDbEntity
  8
L1_
  6
CONTINUOUS
 62
         7
100
AcDbVertex
100
AcDb2dVertex
 10
-10185.7828665162
 20
12019.563973217
 30
0.0
 70
         1
  0
VERTEX
  5
385
100
AcDbEntity
  8
L1_
  6
CONTINUOUS
 62
         7
100
AcDbVertex
100
AcDb2dVertex
 10
-10186.0231953166
 20
12019.3367906664
 30
0.0
 70
         1
  0
VERTEX
  5
387
100
AcDbEntity
  8
L1_
  6
CONTINUOUS
 62
         7
100
AcDbVertex
100
AcDb2dVertex
 10
-10186.2461553963
 20
12019.0868819903
 30
0.0
 70
         1
  0
VERTEX
  5
389
100
AcDbEntity
  8
L1_
  6
CONTINUOUS
 62
         7
100
AcDbVertex
100
AcDb2dVertex
 10
-10186.4489337505
 20
12018.8194448782
 30
0.0
 70
         1
  0
VERTEX
  5
38B
100
AcDbEntity
  8
L1_
  6
CONTINUOUS
 62
         7
100
AcDbVertex
100
AcDb2dVertex
 10
-10186.6295933177
 20
12018.5398979431
 30
0.0
 70
         1
  0
VERTEX
  5
38D
100
AcDbEntity
  8
L1_
  6
CONTINUOUS
 62
         7
100
AcDbVertex
100
AcDb2dVertex
 10
-10186.787090592
 20
12018.2535654333
 30
0.0
 70
         1
  0
VERTEX
  5
38F
100
AcDbEntity
  8
L1_
  6
CONTINUOUS
 62
         7
100
AcDbVertex
100
AcDb2dVertex
 10
-10186.921220887
 20
12017.9654105987
 30
0.0
 70
         1
  0
VERTEX
  5
391
100
AcDbEntity
  8
L1_
  6
CONTINUOUS
 62
         7
100
AcDbVertex
100
AcDb2dVertex
 10
-10187.0656199497
 20
12017.5831279227
 30
0.0
 70
         1
  0
VERTEX
  5
393
100
AcDbEntity
  8
L1_
  6
CONTINUOUS
 62
         7
100
AcDbVertex
100
AcDb2dVertex
 10
-10187.1717427753
 20
12017.2141333123
 30
0.0
 70
         1
  0
VERTEX
  5
395
100
AcDbEntity
  8
L1_
  6
CONTINUOUS
 62
         7
100
AcDbVertex
100
AcDb2dVertex
 10
-10187.2436898966
 20
12016.8647702719
 30
0.0
 70
         1
  0
VERTEX
  5
397
100
AcDbEntity
  8
L1_
  6
CONTINUOUS
 62
         7
100
AcDbVertex
100
AcDb2dVertex
 10
-10187.2861844404
 20
12016.5391432339
 30
0.0
 70
         1
  0
VERTEX
  5
399
100
AcDbEntity
  8
L1_
  6
CONTINUOUS
 62
         7
100
AcDbVertex
100
AcDb2dVertex
 10
-10187.3040785633
 20
12016.2394394404
 30
0.0
 70
         1
  0
VERTEX
  5
39B
100
AcDbEntity
  8
L1_
  6
CONTINUOUS
 62
         7
100
AcDbVertex
100
AcDb2dVertex
 10
-10187.3020057216
 20
12015.9663318267
 30
0.0
 70
         1
  0
VERTEX
  5
39D
100
AcDbEntity
  8
L1_
  6
CONTINUOUS
 62
         7
100
AcDbVertex
100
AcDb2dVertex
 10
-10187.2749924495
 20
12015.639683975
 30
0.0
 70
         1
  0
VERTEX
  5
39F
100
AcDbEntity
  8
L1_
  6
CONTINUOUS
 62
         7
100
AcDbVertex
100
AcDb2dVertex
 10
-10187.2280424377
 20
12015.3572995269
 30
0.0
 70
         1
  0
VERTEX
  5
3A1
100
AcDbEntity
  8
L1_
  6
CONTINUOUS
 62
         7
100
AcDbVertex
100
AcDb2dVertex
 10
-10187.1680598845
 20
12015.1148210063
 30
0.0
 70
         1
  0
VERTEX
  5
3A3
100
AcDbEntity
  8
L1_
  6
CONTINUOUS
 62
         7
100
AcDbVertex
100
AcDb2dVertex
 10
-10187.0753914665
 20
12014.842018424
 30
0.0
 70
         1
  0
VERTEX
  5
3A5
100
AcDbEntity
  8
L1_
  6
CONTINUOUS
 62
         7
100
AcDbVertex
100
AcDb2dVertex
 10
-10186.9774367935
 20
12014.6218660807
 30
0.0
 70
         1
  0
VERTEX
  5
3A7
100
AcDbEntity
  8
L1_
  6
CONTINUOUS
 62
         7
100
AcDbVertex
100
AcDb2dVertex
 10
-10186.8799151697
 20
12014.4441783557
 30
0.0
 70
         1
  0
VERTEX
  5
3A9
100
AcDbEntity
  8
L1_
  6
CONTINUOUS
 62
         7
100
AcDbVertex
100
AcDb2dVertex
 10
-10186.7539760743
 20
12014.2558098982
 30
0.0
 70
         1
  0
VERTEX
  5
3AB
100
AcDbEntity
  8
L1_
  6
CONTINUOUS
 62
         7
100
AcDbVertex
100
AcDb2dVertex
 10
-10186.6000376378
 20
12014.0702029584
 30
0.0
 70
         1
  0
VERTEX
  5
3AD
100
AcDbEntity
  8
L1_
  6
CONTINUOUS
 62
         7
100
AcDbVertex
100
AcDb2dVertex
 10
-10186.4694127952
 20
12013.9415436487
 30
0.0
 70
         1
  0
VERTEX
  5
3AF
100
AcDbEntity
  8
L1_
  6
CONTINUOUS
 62
         7
100
AcDbVertex
100
AcDb2dVertex
 10
-10186.3243862967
 20
12013.8231759997
 30
0.0
 70
         1
  0
VERTEX
  5
3B1
100
AcDbEntity
  8
L1_
  6
CONTINUOUS
 62
         7
100
AcDbVertex
100
AcDb2dVertex
 10
-10186.176926372
 20
12013.7247583141
 30
0.0
 70
         1
  0
VERTEX
  5
3B3
100
AcDbEntity
  8
L1_
  6
CONTINUOUS
 62
         7
100
AcDbVertex
100
AcDb2dVertex
 10
-10186.0001406802
 20
12013.6314446646
 30
0.0
 70
         1
  0
VERTEX
  5
3B5
100
AcDbEntity
  8
L1_
  6
CONTINUOUS
 62
         7
100
AcDbVertex
100
AcDb2dVertex
 10
-10185.8658357285
 20
12013.5762854256
 30
0.0
 70
         1
  0
VERTEX
  5
3B7
100
AcDbEntity
  8
L1_
  6
CONTINUOUS
 62
         7
100
AcDbVertex
100
AcDb2dVertex
 10
-10185.8658357285
 20
12013.5762854256
 30
0.0
 70
         1
  0
VERTEX
  5
3B9
100
AcDbEntity
  8
L1_
  6
CONTINUOUS
 62
         7
100
AcDbVertex
100
AcDb2dVertex
 10
-10185.4858346638
 20
12013.4833140807
 30
0.0
 70
         1
  0
VERTEX
  5
3BB
100
AcDbEntity
  8
L1_
  6
CONTINUOUS
 62
         7
100
AcDbVertex
100
AcDb2dVertex
 10
-10185.3087659965
 20
12013.4683125828
 30
0.0
 70
         1
  0
VERTEX
  5
3BD
100
AcDbEntity
  8
L1_
  6
CONTINUOUS
 62
         7
100
AcDbVertex
100
AcDb2dVertex
 10
-10185.1241387264
 20
12013.4701457223
 30
0.0
 70
         1
  0
VERTEX
  5
3BF
100
AcDbEntity
  8
L1_
  6
CONTINUOUS
 62
         7
100
AcDbVertex
100
AcDb2dVertex
 10
-10184.9331318767
 20
12013.4899827734
 30
0.0
 70
         1
  0
VERTEX
  5
3C1
100
AcDbEntity
  8
L1_
  6
CONTINUOUS
 62
         7
100
AcDbVertex
100
AcDb2dVertex
 10
-10184.737147149
 20
12013.5287390447
 30
0.0
 70
         1
  0
VERTEX
  5
3C3
100
AcDbEntity
  8
L1_
  6
CONTINUOUS
 62
         7
100
AcDbVertex
100
AcDb2dVertex
 10
-10184.5377845169
 20
12013.5870209039
 30
0.0
 70
         1
  0
VERTEX
  5
3C5
100
AcDbEntity
  8
L1_
  6
CONTINUOUS
 62
         7
100
AcDbVertex
100
AcDb2dVertex
 10
-10184.3368052845
 20
12013.6650802644
 30
0.0
 70
         1
  0
VERTEX
  5
3C7
100
AcDbEntity
  8
L1_
  6
CONTINUOUS
 62
         7
100
AcDbVertex
100
AcDb2dVertex
 10
-10184.1360837578
 20
12013.7627828268
 30
0.0
 70
         1
  0
VERTEX
  5
3C9
100
AcDbEntity
  8
L1_
  6
CONTINUOUS
 62
         7
100
AcDbVertex
100
AcDb2dVertex
 10
-10183.9375498878
 20
12013.8795935834
 30
0.0
 70
         1
  0
VERTEX
  5
3CB
100
AcDbEntity
  8
L1_
  6
CONTINUOUS
 62
         7
100
AcDbVertex
100
AcDb2dVertex
 10
-10183.7431263083
 20
12014.0145817968
 30
0.0
 70
         1
  0
VERTEX
  5
3CD
100
AcDbEntity
  8
L1_
  6
CONTINUOUS
 62
         7
100
AcDbVertex
100
AcDb2dVertex
 10
-10183.5546639376
 20
12014.1664459797
 30
0.0
 70
         1
  0
VERTEX
  5
3CF
100
AcDbEntity
  8
L1_
  6
CONTINUOUS
 62
         7
100
AcDbVertex
100
AcDb2dVertex
 10
-10183.3143351372
 20
12014.3936285303
 30
0.0
 70
         1
  0
VERTEX
  5
3D1
100
AcDbEntity
  8
L1_
  6
CONTINUOUS
 62
         7
100
AcDbVertex
100
AcDb2dVertex
 10
-10183.0913750575
 20
12014.6435372065
 30
0.0
 70
         1
  0
VERTEX
  5
3D3
100
AcDbEntity
  8
L1_
  6
CONTINUOUS
 62
         7
100
AcDbVertex
100
AcDb2dVertex
 10
-10182.8885967032
 20
12014.9109743186
 30
0.0
 70
         1
  0
VERTEX
  5
3D5
100
AcDbEntity
  8
L1_
  6
CONTINUOUS
 62
         7
100
AcDbVertex
100
AcDb2dVertex
 10
-10182.707937136
 20
12015.1905212537
 30
0.0
 70
         1
  0
VERTEX
  5
3D7
100
AcDbEntity
  8
L1_
  6
CONTINUOUS
 62
         7
100
AcDbVertex
100
AcDb2dVertex
 10
-10182.5504398618
 20
12015.4768537635
 30
0.0
 70
         1
  0
VERTEX
  5
3D9
100
AcDbEntity
  8
L1_
  6
CONTINUOUS
 62
         7
100
AcDbVertex
100
AcDb2dVertex
 10
-10182.4163095667
 20
12015.7650085981
 30
0.0
 70
         1
  0
VERTEX
  5
3DB
100
AcDbEntity
  8
L1_
  6
CONTINUOUS
 62
         7
100
AcDbVertex
100
AcDb2dVertex
 10
-10182.2719105041
 20
12016.1472912741
 30
0.0
 70
         1
  0
VERTEX
  5
3DD
100
AcDbEntity
  8
L1_
  6
CONTINUOUS
 62
         7
100
AcDbVertex
100
AcDb2dVertex
 10
-10182.1657876785
 20
12016.5162858845
 30
0.0
 70
         1
  0
VERTEX
  5
3DF
100
AcDbEntity
  8
L1_
  6
CONTINUOUS
 62
         7
100
AcDbVertex
100
AcDb2dVertex
 10
-10182.0938405572
 20
12016.8656489249
 30
0.0
 70
         1
  0
VERTEX
  5
3E1
100
AcDbEntity
  8
L1_
  6
CONTINUOUS
 62
         7
100
AcDbVertex
100
AcDb2dVertex
 10
-10182.0513460134
 20
12017.1912759629
 30
0.0
 70
         1
  0
VERTEX
  5
3E3
100
AcDbEntity
  8
L1_
  6
CONTINUOUS
 62
         7
100
AcDbVertex
100
AcDb2dVertex
 10
-10182.0334518905
 20
12017.4909797564
 30
0.0
 70
         1
  0
VERTEX
  5
3E5
100
AcDbEntity
  8
L1_
  6
CONTINUOUS
 62
         7
100
AcDbVertex
100
AcDb2dVertex
 10
-10182.0355247321
 20
12017.7640873701
 30
0.0
 70
         1
  0
VERTEX
  5
3E7
100
AcDbEntity
  8
L1_
  6
CONTINUOUS
 62
         7
100
AcDbVertex
100
AcDb2dVertex
 10
-10182.0625380042
 20
12018.0907352218
 30
0.0
 70
         1
  0
VERTEX
  5
3E9
100
AcDbEntity
  8
L1_
  6
CONTINUOUS
 62
         7
100
AcDbVertex
100
AcDb2dVertex
 10
-10182.1094880161
 20
12018.3731196699
 30
0.0
 70
         1
  0
VERTEX
  5
3EB
100
AcDbEntity
  8
L1_
  6
CONTINUOUS
 62
         7
100
AcDbVertex
100
AcDb2dVertex
 10
-10182.1694705693
 20
12018.6155981905
 30
0.0
 70
         1
  0
VERTEX
  5
3ED
100
AcDbEntity
  8
L1_
  6
CONTINUOUS
 62
         7
100
AcDbVertex
100
AcDb2dVertex
 10
-10182.2621389872
 20
12018.8884007728
 30
0.0
 70
         1
  0
VERTEX
  5
3EF
100
AcDbEntity
  8
L1_
  6
CONTINUOUS
 62
         7
100
AcDbVertex
100
AcDb2dVertex
 10
-10182.3600936602
 20
12019.1085531161
 30
0.0
 70
         1
  0
VERTEX
  5
3F1
100
AcDbEntity
  8
L1_
  6
CONTINUOUS
 62
         7
100
AcDbVertex
100
AcDb2dVertex
 10
-10182.4576152841
 20
12019.286240841
 30
0.0
 70
         1
  0
VERTEX
  5
3F3
100
AcDbEntity
  8
L1_
  6
CONTINUOUS
 62
         7
100
AcDbVertex
100
AcDb2dVertex
 10
-10182.5835543794
 20
12019.4746092985
 30
0.0
 70
         1
  0
VERTEX
  5
3F5
100
AcDbEntity
  8
L1_
  6
CONTINUOUS
 62
         7
100
AcDbVertex
100
AcDb2dVertex
 10
-10182.737492816
 20
12019.6602162384
 30
0.0
 70
         1
  0
VERTEX
  5
3F7
100
AcDbEntity
  8
L1_
  6
CONTINUOUS
 62
         7
100
AcDbVertex
100
AcDb2dVertex
 10
-10182.8681176585
 20
12019.7888755481
 30
0.0
 70
         1
  0
VERTEX
  5
3F9
100
AcDbEntity
  8
L1_
  6
CONTINUOUS
 62
         7
100
AcDbVertex
100
AcDb2dVertex
 10
-10183.013144157
 20
12019.9072431971
 30
0.0
 70
         1
  0
VERTEX
  5
3FB
100
AcDbEntity
  8
L1_
  6
CONTINUOUS
 62
         7
100
AcDbVertex
100
AcDb2dVertex
 10
-10183.1606040817
 20
12020.0056608827
 30
0.0
 70
         1
  0
VERTEX
  5
3FD
100
AcDbEntity
  8
L1_
  6
CONTINUOUS
 62
         7
100
AcDbVertex
100
AcDb2dVertex
 10
-10183.3373897735
 20
12020.0989745322
 30
0.0
 70
         1
  0
VERTEX
  5
3FF
100
AcDbEntity
  8
L1_
  6
CONTINUOUS
 62
         7
100
AcDbVertex
100
AcDb2dVertex
 10
-10183.4716947252
 20
12020.1541337711
 30
0.0
 70
         1
  0
SEQEND
  5
401
100
AcDbEntity
  8
L1_
  6
CONTINUOUS
 62
         7
  0
LINE
  5
402
100
AcDbEntity
  8
L1_
  6
CENTER
 62
         1
100
AcDbLine
 10
-10179.970302123
 20
12015.1551088818
 30
0.0
 11
-10189.3672283308
 21
12018.575310315
 31
0.0
  0
POLYLINE
  5
404
100
AcDbEntity
  8
L1_
  6
CONTINUOUS
 62
         7
100
AcDb3dPolyline
 66
         1
 10
0.0
 20
0.0
 30
0.0
 70
         8
  0
VERTEX
  5
406
100
AcDbEntity
  8
L1_
  6
CONTINUOUS
 62
         7
100
AcDbVertex
100
AcDb3dPolylineVertex
 10
-10185.4604815404
 20
12019.4108327284
 30
0.0
 70
        32
  0
VERTEX
  5
408
100
AcDbEntity
  8
L1_
  6
CONTINUOUS
 62
         7
100
AcDbVertex
100
AcDb3dPolylineVertex
 10
-10185.4604815404
 20
12019.4108327284
 30
0.0
 70
        32
  0
SEQEND
  5
40A
100
AcDbEntity
  8
L1_
  6
CONTINUOUS
 62
         7
  0
POLYLINE
  5
40C
100
AcDbEntity
  8
L1_
  6
CONTINUOUS
 62
         7
100
AcDb2dPolyline
 66
         1
 10
0.0
 20
0.0
 30
0.0
 70
         2
  0
VERTEX
  5
40E
100
AcDbEntity
  8
L1_
  6
CONTINUOUS
 62
         7
100
AcDbVertex
100
AcDb2dVertex
 10
-10211.5859804395
 20
11943.124354213
 30
0.0
 70
         1
  0
VERTEX
  5
410
100
AcDbEntity
  8
L1_
  6
CONTINUOUS
 62
         7
100
AcDbVertex
100
AcDb2dVertex
 10
-10211.9659815042
 20
11943.217325558
 30
0.0
 70
         1
  0
VERTEX
  5
412
100
AcDbEntity
  8
L1_
  6
CONTINUOUS
 62
         7
100
AcDbVertex
100
AcDb2dVertex
 10
-10212.1430501716
 20
11943.2323270558
 30
0.0
 70
         1
  0
VERTEX
  5
414
100
AcDbEntity
  8
L1_
  6
CONTINUOUS
 62
         7
100
AcDbVertex
100
AcDb2dVertex
 10
-10212.3276774417
 20
11943.2304939164
 30
0.0
 70
         1
  0
VERTEX
  5
416
100
AcDbEntity
  8
L1_
  6
CONTINUOUS
 62
         7
100
AcDbVertex
100
AcDb2dVertex
 10
-10212.5186842913
 20
11943.2106568653
 30
0.0
 70
         1
  0
VERTEX
  5
418
100
AcDbEntity
  8
L1_
  6
CONTINUOUS
 62
         7
100
AcDbVertex
100
AcDb2dVertex
 10
-10212.714669019
 20
11943.1719005939
 30
0.0
 70
         1
  0
VERTEX
  5
41A
100
AcDbEntity
  8
L1_
  6
CONTINUOUS
 62
         7
100
AcDbVertex
100
AcDb2dVertex
 10
-10212.9140316511
 20
11943.1136187347
 30
0.0
 70
         1
  0
VERTEX
  5
41C
100
AcDbEntity
  8
L1_
  6
CONTINUOUS
 62
         7
100
AcDbVertex
100
AcDb2dVertex
 10
-10213.1150108835
 20
11943.0355593742
 30
0.0
 70
         1
  0
VERTEX
  5
41E
100
AcDbEntity
  8
L1_
  6
CONTINUOUS
 62
         7
100
AcDbVertex
100
AcDb2dVertex
 10
-10213.3157324103
 20
11942.9378568119
 30
0.0
 70
         1
  0
VERTEX
  5
420
100
AcDbEntity
  8
L1_
  6
CONTINUOUS
 62
         7
100
AcDbVertex
100
AcDb2dVertex
 10
-10213.5142662802
 20
11942.8210460553
 30
0.0
 70
         1
  0
VERTEX
  5
422
100
AcDbEntity
  8
L1_
  6
CONTINUOUS
 62
         7
100
AcDbVertex
100
AcDb2dVertex
 10
-10213.7086898598
 20
11942.6860578418
 30
0.0
 70
         1
  0
VERTEX
  5
424
100
AcDbEntity
  8
L1_
  6
CONTINUOUS
 62
         7
100
AcDbVertex
100
AcDb2dVertex
 10
-10213.8971522305
 20
11942.5341936589
 30
0.0
 70
         1
  0
VERTEX
  5
426
100
AcDbEntity
  8
L1_
  6
CONTINUOUS
 62
         7
100
AcDbVertex
100
AcDb2dVertex
 10
-10214.1374810309
 20
11942.3070111083
 30
0.0
 70
         1
  0
VERTEX
  5
428
100
AcDbEntity
  8
L1_
  6
CONTINUOUS
 62
         7
100
AcDbVertex
100
AcDb2dVertex
 10
-10214.3604411106
 20
11942.0571024322
 30
0.0
 70
         1
  0
VERTEX
  5
42A
100
AcDbEntity
  8
L1_
  6
CONTINUOUS
 62
         7
100
AcDbVertex
100
AcDb2dVertex
 10
-10214.5632194648
 20
11941.7896653201
 30
0.0
 70
         1
  0
VERTEX
  5
42C
100
AcDbEntity
  8
L1_
  6
CONTINUOUS
 62
         7
100
AcDbVertex
100
AcDb2dVertex
 10
-10214.743879032
 20
11941.510118385
 30
0.0
 70
         1
  0
VERTEX
  5
42E
100
AcDbEntity
  8
L1_
  6
CONTINUOUS
 62
         7
100
AcDbVertex
100
AcDb2dVertex
 10
-10214.9013763063
 20
11941.2237858751
 30
0.0
 70
         1
  0
VERTEX
  5
430
100
AcDbEntity
  8
L1_
  6
CONTINUOUS
 62
         7
100
AcDbVertex
100
AcDb2dVertex
 10
-10215.0355066013
 20
11940.9356310405
 30
0.0
 70
         1
  0
VERTEX
  5
432
100
AcDbEntity
  8
L1_
  6
CONTINUOUS
 62
         7
100
AcDbVertex
100
AcDb2dVertex
 10
-10215.179905664
 20
11940.5533483646
 30
0.0
 70
         1
  0
VERTEX
  5
434
100
AcDbEntity
  8
L1_
  6
CONTINUOUS
 62
         7
100
AcDbVertex
100
AcDb2dVertex
 10
-10215.2860284896
 20
11940.1843537542
 30
0.0
 70
         1
  0
VERTEX
  5
436
100
AcDbEntity
  8
L1_
  6
CONTINUOUS
 62
         7
100
AcDbVertex
100
AcDb2dVertex
 10
-10215.3579756109
 20
11939.8349907138
 30
0.0
 70
         1
  0
VERTEX
  5
438
100
AcDbEntity
  8
L1_
  6
CONTINUOUS
 62
         7
100
AcDbVertex
100
AcDb2dVertex
 10
-10215.4004701547
 20
11939.5093636757
 30
0.0
 70
         1
  0
VERTEX
  5
43A
100
AcDbEntity
  8
L1_
  6
CONTINUOUS
 62
         7
100
AcDbVertex
100
AcDb2dVertex
 10
-10215.4183642776
 20
11939.2096598823
 30
0.0
 70
         1
  0
VERTEX
  5
43C
100
AcDbEntity
  8
L1_
  6
CONTINUOUS
 62
         7
100
AcDbVertex
100
AcDb2dVertex
 10
-10215.4162914359
 20
11938.9365522686
 30
0.0
 70
         1
  0
VERTEX
  5
43E
100
AcDbEntity
  8
L1_
  6
CONTINUOUS
 62
         7
100
AcDbVertex
100
AcDb2dVertex
 10
-10215.3892781638
 20
11938.6099044168
 30
0.0
 70
         1
  0
VERTEX
  5
440
100
AcDbEntity
  8
L1_
  6
CONTINUOUS
 62
         7
100
AcDbVertex
100
AcDb2dVertex
 10
-10215.342328152
 20
11938.3275199687
 30
0.0
 70
         1
  0
VERTEX
  5
442
100
AcDbEntity
  8
L1_
  6
CONTINUOUS
 62
         7
100
AcDbVertex
100
AcDb2dVertex
 10
-10215.2823455988
 20
11938.0850414482
 30
0.0
 70
         1
  0
VERTEX
  5
444
100
AcDbEntity
  8
L1_
  6
CONTINUOUS
 62
         7
100
AcDbVertex
100
AcDb2dVertex
 10
-10215.1896771808
 20
11937.8122388659
 30
0.0
 70
         1
  0
VERTEX
  5
446
100
AcDbEntity
  8
L1_
  6
CONTINUOUS
 62
         7
100
AcDbVertex
100
AcDb2dVertex
 10
-10215.0917225078
 20
11937.5920865226
 30
0.0
 70
         1
  0
VERTEX
  5
448
100
AcDbEntity
  8
L1_
  6
CONTINUOUS
 62
         7
100
AcDbVertex
100
AcDb2dVertex
 10
-10214.994200884
 20
11937.4143987976
 30
0.0
 70
         1
  0
VERTEX
  5
44A
100
AcDbEntity
  8
L1_
  6
CONTINUOUS
 62
         7
100
AcDbVertex
100
AcDb2dVertex
 10
-10214.8682617886
 20
11937.2260303401
 30
0.0
 70
         1
  0
VERTEX
  5
44C
100
AcDbEntity
  8
L1_
  6
CONTINUOUS
 62
         7
100
AcDbVertex
100
AcDb2dVertex
 10
-10214.714323352
 20
11937.0404234003
 30
0.0
 70
         1
  0
VERTEX
  5
44E
100
AcDbEntity
  8
L1_
  6
CONTINUOUS
 62
         7
100
AcDbVertex
100
AcDb2dVertex
 10
-10214.5836985095
 20
11936.9117640906
 30
0.0
 70
         1
  0
VERTEX
  5
450
100
AcDbEntity
  8
L1_
  6
CONTINUOUS
 62
         7
100
AcDbVertex
100
AcDb2dVertex
 10
-10214.438672011
 20
11936.7933964415
 30
0.0
 70
         1
  0
VERTEX
  5
452
100
AcDbEntity
  8
L1_
  6
CONTINUOUS
 62
         7
100
AcDbVertex
100
AcDb2dVertex
 10
-10214.2912120863
 20
11936.694978756
 30
0.0
 70
         1
  0
VERTEX
  5
454
100
AcDbEntity
  8
L1_
  6
CONTINUOUS
 62
         7
100
AcDbVertex
100
AcDb2dVertex
 10
-10214.1144263945
 20
11936.6016651065
 30
0.0
 70
         1
  0
VERTEX
  5
456
100
AcDbEntity
  8
L1_
  6
CONTINUOUS
 62
         7
100
AcDbVertex
100
AcDb2dVertex
 10
-10213.9801214428
 20
11936.5465058675
 30
0.0
 70
         1
  0
VERTEX
  5
458
100
AcDbEntity
  8
L1_
  6
CONTINUOUS
 62
         7
100
AcDbVertex
100
AcDb2dVertex
 10
-10213.9801214428
 20
11936.5465058675
 30
0.0
 70
         1
  0
VERTEX
  5
45A
100
AcDbEntity
  8
L1_
  6
CONTINUOUS
 62
         7
100
AcDbVertex
100
AcDb2dVertex
 10
-10213.6001203781
 20
11936.4535345225
 30
0.0
 70
         1
  0
VERTEX
  5
45C
100
AcDbEntity
  8
L1_
  6
CONTINUOUS
 62
         7
100
AcDbVertex
100
AcDb2dVertex
 10
-10213.4230517108
 20
11936.4385330247
 30
0.0
 70
         1
  0
VERTEX
  5
45E
100
AcDbEntity
  8
L1_
  6
CONTINUOUS
 62
         7
100
AcDbVertex
100
AcDb2dVertex
 10
-10213.2384244406
 20
11936.4403661641
 30
0.0
 70
         1
  0
VERTEX
  5
460
100
AcDbEntity
  8
L1_
  6
CONTINUOUS
 62
         7
100
AcDbVertex
100
AcDb2dVertex
 10
-10213.047417591
 20
11936.4602032152
 30
0.0
 70
         1
  0
VERTEX
  5
462
100
AcDbEntity
  8
L1_
  6
CONTINUOUS
 62
         7
100
AcDbVertex
100
AcDb2dVertex
 10
-10212.8514328633
 20
11936.4989594866
 30
0.0
 70
         1
  0
VERTEX
  5
464
100
AcDbEntity
  8
L1_
  6
CONTINUOUS
 62
         7
100
AcDbVertex
100
AcDb2dVertex
 10
-10212.6520702312
 20
11936.5572413458
 30
0.0
 70
         1
  0
VERTEX
  5
466
100
AcDbEntity
  8
L1_
  6
CONTINUOUS
 62
         7
100
AcDbVertex
100
AcDb2dVertex
 10
-10212.4510909988
 20
11936.6353007063
 30
0.0
 70
         1
  0
VERTEX
  5
468
100
AcDbEntity
  8
L1_
  6
CONTINUOUS
 62
         7
100
AcDbVertex
100
AcDb2dVertex
 10
-10212.2503694721
 20
11936.7330032686
 30
0.0
 70
         1
  0
VERTEX
  5
46A
100
AcDbEntity
  8
L1_
  6
CONTINUOUS
 62
         7
100
AcDbVertex
100
AcDb2dVertex
 10
-10212.0518356021
 20
11936.8498140253
 30
0.0
 70
         1
  0
VERTEX
  5
46C
100
AcDbEntity
  8
L1_
  6
CONTINUOUS
 62
         7
100
AcDbVertex
100
AcDb2dVertex
 10
-10211.8574120226
 20
11936.9848022387
 30
0.0
 70
         1
  0
VERTEX
  5
46E
100
AcDbEntity
  8
L1_
  6
CONTINUOUS
 62
         7
100
AcDbVertex
100
AcDb2dVertex
 10
-10211.6689496518
 20
11937.1366664216
 30
0.0
 70
         1
  0
VERTEX
  5
470
100
AcDbEntity
  8
L1_
  6
CONTINUOUS
 62
         7
100
AcDbVertex
100
AcDb2dVertex
 10
-10211.4286208515
 20
11937.3638489722
 30
0.0
 70
         1
  0
VERTEX
  5
472
100
AcDbEntity
  8
L1_
  6
CONTINUOUS
 62
         7
100
AcDbVertex
100
AcDb2dVertex
 10
-10211.2056607717
 20
11937.6137576483
 30
0.0
 70
         1
  0
VERTEX
  5
474
100
AcDbEntity
  8
L1_
  6
CONTINUOUS
 62
         7
100
AcDbVertex
100
AcDb2dVertex
 10
-10211.0028824175
 20
11937.8811947604
 30
0.0
 70
         1
  0
VERTEX
  5
476
100
AcDbEntity
  8
L1_
  6
CONTINUOUS
 62
         7
100
AcDbVertex
100
AcDb2dVertex
 10
-10210.8222228503
 20
11938.1607416955
 30
0.0
 70
         1
  0
VERTEX
  5
478
100
AcDbEntity
  8
L1_
  6
CONTINUOUS
 62
         7
100
AcDbVertex
100
AcDb2dVertex
 10
-10210.6647255761
 20
11938.4470742054
 30
0.0
 70
         1
  0
VERTEX
  5
47A
100
AcDbEntity
  8
L1_
  6
CONTINUOUS
 62
         7
100
AcDbVertex
100
AcDb2dVertex
 10
-10210.530595281
 20
11938.73522904
 30
0.0
 70
         1
  0
VERTEX
  5
47C
100
AcDbEntity
  8
L1_
  6
CONTINUOUS
 62
         7
100
AcDbVertex
100
AcDb2dVertex
 10
-10210.3861962184
 20
11939.1175117159
 30
0.0
 70
         1
  0
VERTEX
  5
47E
100
AcDbEntity
  8
L1_
  6
CONTINUOUS
 62
         7
100
AcDbVertex
100
AcDb2dVertex
 10
-10210.2800733928
 20
11939.4865063263
 30
0.0
 70
         1
  0
VERTEX
  5
480
100
AcDbEntity
  8
L1_
  6
CONTINUOUS
 62
         7
100
AcDbVertex
100
AcDb2dVertex
 10
-10210.2081262715
 20
11939.8358693667
 30
0.0
 70
         1
  0
VERTEX
  5
482
100
AcDbEntity
  8
L1_
  6
CONTINUOUS
 62
         7
100
AcDbVertex
100
AcDb2dVertex
 10
-10210.1656317277
 20
11940.1614964048
 30
0.0
 70
         1
  0
VERTEX
  5
484
100
AcDbEntity
  8
L1_
  6
CONTINUOUS
 62
         7
100
AcDbVertex
100
AcDb2dVertex
 10
-10210.1477376048
 20
11940.4612001982
 30
0.0
 70
         1
  0
VERTEX
  5
486
100
AcDbEntity
  8
L1_
  6
CONTINUOUS
 62
         7
100
AcDbVertex
100
AcDb2dVertex
 10
-10210.1498104464
 20
11940.7343078119
 30
0.0
 70
         1
  0
VERTEX
  5
488
100
AcDbEntity
  8
L1_
  6
CONTINUOUS
 62
         7
100
AcDbVertex
100
AcDb2dVertex
 10
-10210.1768237185
 20
11941.0609556637
 30
0.0
 70
         1
  0
VERTEX
  5
48A
100
AcDbEntity
  8
L1_
  6
CONTINUOUS
 62
         7
100
AcDbVertex
100
AcDb2dVertex
 10
-10210.2237737304
 20
11941.3433401118
 30
0.0
 70
         1
  0
VERTEX
  5
48C
100
AcDbEntity
  8
L1_
  6
CONTINUOUS
 62
         7
100
AcDbVertex
100
AcDb2dVertex
 10
-10210.2837562836
 20
11941.5858186323
 30
0.0
 70
         1
  0
VERTEX
  5
48E
100
AcDbEntity
  8
L1_
  6
CONTINUOUS
 62
         7
100
AcDbVertex
100
AcDb2dVertex
 10
-10210.3764247015
 20
11941.8586212146
 30
0.0
 70
         1
  0
VERTEX
  5
490
100
AcDbEntity
  8
L1_
  6
CONTINUOUS
 62
         7
100
AcDbVertex
100
AcDb2dVertex
 10
-10210.4743793745
 20
11942.0787735579
 30
0.0
 70
         1
  0
VERTEX
  5
492
100
AcDbEntity
  8
L1_
  6
CONTINUOUS
 62
         7
100
AcDbVertex
100
AcDb2dVertex
 10
-10210.5719009983
 20
11942.2564612829
 30
0.0
 70
         1
  0
VERTEX
  5
494
100
AcDbEntity
  8
L1_
  6
CONTINUOUS
 62
         7
100
AcDbVertex
100
AcDb2dVertex
 10
-10210.6978400937
 20
11942.4448297404
 30
0.0
 70
         1
  0
VERTEX
  5
496
100
AcDbEntity
  8
L1_
  6
CONTINUOUS
 62
         7
100
AcDbVertex
100
AcDb2dVertex
 10
-10210.8517785303
 20
11942.6304366802
 30
0.0
 70
         1
  0
VERTEX
  5
498
100
AcDbEntity
  8
L1_
  6
CONTINUOUS
 62
         7
100
AcDbVertex
100
AcDb2dVertex
 10
-10210.9824033728
 20
11942.7590959899
 30
0.0
 70
         1
  0
VERTEX
  5
49A
100
AcDbEntity
  8
L1_
  6
CONTINUOUS
 62
         7
100
AcDbVertex
100
AcDb2dVertex
 10
-10211.1274298713
 20
11942.877463639
 30
0.0
 70
         1
  0
VERTEX
  5
49C
100
AcDbEntity
  8
L1_
  6
CONTINUOUS
 62
         7
100
AcDbVertex
100
AcDb2dVertex
 10
-10211.274889796
 20
11942.9758813245
 30
0.0
 70
         1
  0
VERTEX
  5
49E
100
AcDbEntity
  8
L1_
  6
CONTINUOUS
 62
         7
100
AcDbVertex
100
AcDb2dVertex
 10
-10211.4516754878
 20
11943.069194974
 30
0.0
 70
         1
  0
VERTEX
  5
4A0
100
AcDbEntity
  8
L1_
  6
CONTINUOUS
 62
         7
100
AcDbVertex
100
AcDb2dVertex
 10
-10211.5859804395
 20
11943.124354213
 30
0.0
 70
         1
  0
SEQEND
  5
4A2
100
AcDbEntity
  8
L1_
  6
CONTINUOUS
 62
         7
  0
LINE
  5
4A3
100
AcDbEntity
  8
L1_
  6
CENTER
 62
         1
100
AcDbLine
 10
-10208.0845878372
 20
11938.1253293236
 30
0.0
 11
-10217.4815140451
 21
11941.5455307569
 31
0.0
  0
LINE
  5
4A4
100
AcDbEntity
  8
L1_
  6
CENTER
 62
         1
100
AcDbLine
 10
-10181.2852676399
 20
12026.2680856205
 30
0.0
 11
-10218.8326032918
 21
11923.1076287561
 31
0.0
  0
LINE
  5
4A5
100
AcDbEntity
  8
L1_
  6
CENTER
 62
         1
100
AcDbLine
 10
-9903.7705485269
 20
11787.3891100562
 30
0.0
 11
-9903.7705485269
 21
11744.8578887676
 31
0.0
  0
LINE
  5
4A6
100
AcDbEntity
  8
L1_
  6
CONTINUOUS
 62
         7
100
AcDbLine
 10
-9902.1205485269
 20
11771.8801069492
 30
0.0
 11
-9902.1205485269
 21
11749.754230231
 31
0.0
  0
LINE
  5
4A7
100
AcDbEntity
  8
L1_
  6
CONTINUOUS
 62
         7
100
AcDbLine
 10
-9905.4205485269
 20
11749.754230231
 30
0.0
 11
-9905.4205485269
 21
11773.9296551819
 31
0.0
  0
LINE
  5
4A8
100
AcDbEntity
  8
L1_
  6
CONTINUOUS
 62
         7
100
AcDbLine
 10
-9905.4205485269
 20
11780.6439154201
 30
0.0
 11
-9904.1046508655
 21
11779.7225139581
 31
0.0
  0
LINE
  5
4A9
100
AcDbEntity
  8
L1_
  6
CONTINUOUS
 62
         7
100
AcDbLine
 10
-9905.4205485269
 20
11780.0335281257
 30
0.0
 11
-9905.4205485269
 21
11780.6439154201
 31
0.0
  0
LINE
  5
4AA
100
AcDbEntity
  8
L1_
  6
CONTINUOUS
 62
         7
100
AcDbLine
 10
-9907.2593212654
 20
11775.2171777145
 30
0.0
 11
-9905.4205485269
 21
11777.8432173359
 31
0.0
  0
LINE
  5
4AB
100
AcDbEntity
  8
L1_
  6
CONTINUOUS
 62
         7
100
AcDbLine
 10
-9905.4205485269
 20
11780.0335281257
 30
0.0
 11
-9908.4871993051
 21
11782.1808201177
 31
0.0
  0
LINE
  5
4AC
100
AcDbEntity
  8
L1_
  6
CONTINUOUS
 62
         7
100
AcDbLine
 10
-9902.1205485269
 20
11772.0954249844
 30
0.0
 11
-9899.476526818
 21
11775.8714793178
 31
0.0
  0
LINE
  5
4AD
100
AcDbEntity
  8
L1_
  6
CONTINUOUS
 62
         7
100
AcDbLine
 10
-9899.7281237756
 20
11772.9957129323
 30
0.0
 11
-9902.1205485269
 21
11771.8801069492
 31
0.0
  0
LINE
  5
4AE
100
AcDbEntity
  8
L1_
  6
CONTINUOUS
 62
         7
100
AcDbLine
 10
-9899.7281237756
 20
11772.9957129323
 30
0.0
 11
-9899.476526818
 21
11775.8714793178
 31
0.0
  0
LINE
  5
4AF
100
AcDbEntity
  8
L1_
  6
CONTINUOUS
 62
         4
100
AcDbLine
 10
-9908.200411087
 20
11782.5903961398
 30
0.0
 11
-9905.4205485269
 21
11780.6439154201
 31
0.0
  0
LINE
  5
4B0
100
AcDbEntity
  8
L1_
  6
CONTINUOUS
 62
         7
100
AcDbLine
 10
-9907.5461094836
 20
11774.8076016923
 30
0.0
 11
-9907.2593212654
 21
11775.2171777145
 31
0.0
  0
LINE
  5
4B1
100
AcDbEntity
  8
L1_
  6
CONTINUOUS
 62
         7
100
AcDbLine
 10
-9908.200411087
 20
11782.5903961398
 30
0.0
 11
-9908.1717322651
 21
11782.631353742
 31
0.0
  0
LINE
  5
4B2
100
AcDbEntity
  8
L1_
  6
CONTINUOUS
 62
         4
100
AcDbLine
 10
-9905.7705485269
 20
11780.9828887676
 30
0.0
 11
-9901.7705485269
 21
11780.9828887676
 31
0.0
  0
LINE
  5
4B3
100
AcDbEntity
  8
L1_
  6
CONTINUOUS
 62
         7
100
AcDbLine
 10
-9905.7705485269
 20
11780.9828887676
 30
0.0
 11
-9905.4205485269
 21
11780.7808161734
 31
0.0
  0
LINE
  5
4B4
100
AcDbEntity
  8
L1_
  6
CONTINUOUS
 62
         7
100
AcDbLine
 10
-9905.4205485269
 20
11780.7808161734
 30
0.0
 11
-9902.1205485269
 21
11780.7808161734
 31
0.0
  0
LINE
  5
4B5
100
AcDbEntity
  8
L1_
  6
CONTINUOUS
 62
         7
100
AcDbLine
 10
-9901.7705485269
 20
11780.9828887676
 30
0.0
 11
-9902.1205485269
 21
11780.7808161734
 31
0.0
  0
LINE
  5
4B6
100
AcDbEntity
  8
L1_
  6
CONTINUOUS
 62
         7
100
AcDbLine
 10
-9902.1205485269
 20
11780.7808161734
 30
0.0
 11
-9902.1205485269
 21
11777.7228432496
 31
0.0
  0
LINE
  5
4B7
100
AcDbEntity
  8
L1_
  6
CONTINUOUS
 62
         7
100
AcDbLine
 10
-9899.476526818
 20
11775.8714793178
 30
0.0
 11
-9902.1205485269
 21
11777.7228432496
 31
0.0
  0
LINE
  5
4B8
100
AcDbEntity
  8
L1_
  6
CONTINUOUS
 62
         4
100
AcDbLine
 10
-9902.1205485269
 20
11777.7228432496
 30
0.0
 11
-9905.4205485269
 21
11780.0335281257
 31
0.0
  0
LINE
  5
4B9
100
AcDbEntity
  8
L1_
  6
CONTINUOUS
 62
         4
100
AcDbLine
 10
-9902.3444089997
 20
11771.7757190964
 30
0.0
 11
-9905.4205485269
 21
11773.9296551819
 31
0.0
  0
LINE
  5
4BA
100
AcDbEntity
  8
L1_
  6
CONTINUOUS
 62
         4
100
AcDbLine
 10
-9902.3444089997
 20
11771.7757190964
 30
0.0
 11
-9902.1205485269
 21
11772.0954249844
 31
0.0
  0
LINE
  5
4BB
100
AcDbEntity
  8
L1_
  6
CONTINUOUS
 62
         4
100
AcDbLine
 10
-9902.1205485269
 20
11771.8801069492
 30
0.0
 11
-9902.3444089997
 21
11771.7757190964
 31
0.0
  0
LINE
  5
4BC
100
AcDbEntity
  8
L1_
  6
CONTINUOUS
 62
         4
100
AcDbLine
 10
-9905.4205485269
 20
11777.8432173359
 30
0.0
 11
-9904.1046508655
 21
11779.7225139581
 31
0.0
  0
LINE
  5
4BD
100
AcDbEntity
  8
L1_
  6
CONTINUOUS
 62
         7
100
AcDbLine
 10
-9905.4205485269
 20
11780.6439154201
 30
0.0
 11
-9905.4205485269
 21
11780.7808161734
 31
0.0
  0
LINE
  5
4BE
100
AcDbEntity
  8
L1_
  6
CONTINUOUS
 62
         4
100
AcDbLine
 10
-9902.1205485269
 20
11777.7228432496
 30
0.0
 11
-9902.1205485269
 21
11771.8801069492
 31
0.0
  0
LINE
  5
4BF
100
AcDbEntity
  8
L1_
  6
CONTINUOUS
 62
         4
100
AcDbLine
 10
-9905.4205485269
 20
11780.0335281257
 30
0.0
 11
-9905.4205485269
 21
11773.9296551819
 31
0.0
  0
LINE
  5
4C0
100
AcDbEntity
  8
L1_
  6
CENTER
 62
         1
100
AcDbLine
 10
-9899.5847296666
 20
11773.2005009433
 30
0.0
 11
-9911.5271544178
 21
11781.5626767787
 31
0.0
  0
LINE
  5
4C1
100
AcDbEntity
  8
L1_
  6
CONTINUOUS
 62
         7
100
AcDbLine
 10
-9901.7705485269
 20
11785.4469903827
 30
0.0
 11
-9901.7705485269
 21
11780.9828887676
 31
0.0
  0
LINE
  5
4C2
100
AcDbEntity
  8
L1_
  6
CONTINUOUS
 62
         7
100
AcDbLine
 10
-9905.7705485269
 20
11785.4469903827
 30
0.0
 11
-9905.7705485269
 21
11780.9828887676
 31
0.0
  0
LINE
  5
4C3
100
AcDbEntity
  8
L1_
  6
CONTINUOUS
 62
         7
100
AcDbLine
 10
-9908.1717322651
 20
11782.631353742
 30
0.0
 11
-9911.6705485269
 21
11785.0812512633
 31
0.0
  0
LINE
  5
4C4
100
AcDbEntity
  8
L1_
  6
CONTINUOUS
 62
         7
100
AcDbLine
 10
-9911.6418697051
 20
11777.6754838741
 30
0.0
 11
-9908.200411087
 21
11782.5903961398
 31
0.0
  0
LINE
  5
4C5
100
AcDbEntity
  8
L1_
  6
CONTINUOUS
 62
         7
100
AcDbLine
 10
-9905.4205485269
 20
11773.9296551819
 30
0.0
 11
-9911.3550814869
 21
11778.0850598962
 31
0.0
  0
LINE
  5
4C6
100
AcDbEntity
  8
L1_
  6
CONTINUOUS
 62
         4
100
AcDbLine
 10
-9907.5461094836
 20
11774.8076016923
 30
0.0
 11
-9911.6418697051
 21
11777.6754838741
 31
0.0
  0
ARC
  5
4C7
100
AcDbEntity
  8
L1_
  6
CONTINUOUS
 62
         7
100
AcDbCircle
 10
-10013.9705485269
 20
11721.4115530036
 30
0.0
 40
2.5
100
AcDbArc
 50
180.0
 51
261.702778
  0
LINE
  5
4C8
100
AcDbEntity
  8
L1_
  6
CONTINUOUS
 62
         7
100
AcDbLine
 10
-10016.4705485269
 20
11757.3042245316
 30
0.0
 11
-10016.4705485269
 21
11721.4115530036
 31
0.0
  0
ARC
  5
4C9
100
AcDbEntity
  8
L1_
  6
CONTINUOUS
 62
         7
100
AcDbCircle
 10
-10013.9705485269
 20
11757.3042245316
 30
0.0
 40
2.5
100
AcDbArc
 50
98.297222
 51
180.0
  0
ARC
  5
4CA
100
AcDbEntity
  8
L1_
  6
CONTINUOUS
 62
         7
100
AcDbCircle
 10
-10013.9705485269
 20
11960.4039840553
 30
0.0
 40
2.5
100
AcDbArc
 50
180.0
 51
261.702778
  0
ARC
  5
4CB
100
AcDbEntity
  8
L1_
  6
CONTINUOUS
 62
         7
100
AcDbCircle
 10
-10013.9705485269
 20
11996.2966555833
 30
0.0
 40
2.5
100
AcDbArc
 50
98.297222
 51
180.0
  0
LINE
  5
4CC
100
AcDbEntity
  8
L1_
  6
CONTINUOUS
 62
         7
100
AcDbLine
 10
-10016.4705485269
 20
11996.2966555833
 30
0.0
 11
-10016.4705485269
 21
11960.4039840553
 31
0.0
  0
ARC
  5
4CD
100
AcDbEntity
  8
L1_
  6
CONTINUOUS
 62
         7
100
AcDbCircle
 10
-9902.3271728539
 20
11785.4828887676
 30
0.0
 40
0.5
100
AcDbArc
 50
270.0
 51
330.0
  0
ARC
  5
4CE
100
AcDbEntity
  8
L1_
  6
CONTINUOUS
 62
         7
100
AcDbCircle
 10
-9905.2139241999
 20
11785.4828887676
 30
0.0
 40
0.5
100
AcDbArc
 50
210.0
 51
270.0
  0
LINE
  5
4CF
100
AcDbEntity
  8
L1_
  6
CONTINUOUS
 62
         7
100
AcDbLine
 10
-9911.6705485269
 20
11786.6078887676
 30
0.0
 11
-9911.6705485269
 21
11775.2578904152
 31
0.0
  0
LINE
  5
4D0
100
AcDbEntity
  8
L1_
  6
CONTINUOUS
 62
         7
100
AcDbLine
 10
-9905.2139241999
 20
11784.9828887676
 30
0.0
 11
-9902.3271728539
 21
11784.9828887676
 31
0.0
  0
LINE
  5
4D1
100
AcDbEntity
  8
L1_
  6
CONTINUOUS
 62
         7
100
AcDbLine
 10
-9901.894160152
 20
11785.2328887676
 30
0.0
 11
-9900.2342781281
 21
11788.1078887676
 31
0.0
  0
LINE
  5
4D2
100
AcDbEntity
  8
L1_
  6
CONTINUOUS
 62
         7
100
AcDbLine
 10
-9911.1705485269
 20
11788.1078887676
 30
0.0
 11
-9907.3068189257
 21
11788.1078887676
 31
0.0
  0
LINE
  5
4D3
100
AcDbEntity
  8
L1_
  6
CONTINUOUS
 62
         7
100
AcDbLine
 10
-9905.2139241999
 20
11784.9828887676
 30
0.0
 11
-9902.3271728539
 21
11784.9828887676
 31
0.0
  0
ARC
  5
4D4
100
AcDbEntity
  8
L1_
  6
CONTINUOUS
 62
         7
100
AcDbCircle
 10
-9905.2139241999
 20
11785.4828887676
 30
0.0
 40
0.5
100
AcDbArc
 50
210.0
 51
270.0
  0
ARC
  5
4D5
100
AcDbEntity
  8
L1_
  6
CONTINUOUS
 62
         7
100
AcDbCircle
 10
-9902.3271728539
 20
11785.4828887676
 30
0.0
 40
0.5
100
AcDbArc
 50
270.0
 51
330.0
  0
LINE
  5
4D6
100
AcDbEntity
  8
L1_
  6
CONTINUOUS
 62
         7
100
AcDbLine
 10
-9905.6469369018
 20
11785.2328887676
 30
0.0
 11
-9907.3068189257
 21
11788.1078887676
 31
0.0
  0
LINE
  5
4D7
100
AcDbEntity
  8
L1_
  6
CONTINUOUS
 62
         7
100
AcDbLine
 10
-9900.2342781281
 20
11788.1078887676
 30
0.0
 11
-9897.2705485269
 21
11788.1078887676
 31
0.0
  0
LINE
  5
4D8
100
AcDbEntity
  8
L1_
  6
CONTINUOUS
 62
         7
100
AcDbLine
 10
-9901.7498225847
 20
11693.2328887676
 30
0.0
 11
-9900.2342781281
 21
11690.6078887676
 31
0.0
  0
LINE
  5
4D9
100
AcDbEntity
  8
L1_
  6
CONTINUOUS
 62
         7
100
AcDbLine
 10
-9911.6705485269
 20
11703.45788712
 30
0.0
 11
-9911.6705485269
 21
11692.1078887676
 31
0.0
  0
LINE
  5
4DA
100
AcDbEntity
  8
L1_
  6
CONTINUOUS
 62
         7
100
AcDbLine
 10
-9905.2139241999
 20
11693.7328887676
 30
0.0
 11
-9902.6158479885
 21
11693.7328887676
 31
0.0
  0
LINE
  5
4DB
100
AcDbEntity
  8
L1_
  6
CONTINUOUS
 62
         7
100
AcDbLine
 10
-9910.1705485269
 20
11690.6078887676
 30
0.0
 11
-9907.3068189257
 21
11690.6078887676
 31
0.0
  0
LINE
  5
4DC
100
AcDbEntity
  8
L1_
  6
CONTINUOUS
 62
         7
100
AcDbLine
 10
-9905.6469369018
 20
11693.4828887676
 30
0.0
 11
-9907.3068189257
 21
11690.6078887676
 31
0.0
  0
ARC
  5
4DD
100
AcDbEntity
  8
L1_
  6
CONTINUOUS
 62
         7
100
AcDbCircle
 10
-9905.2139241999
 20
11693.2328887676
 30
0.0
 40
0.5
100
AcDbArc
 50
90.0
 51
150.0
  0
LINE
  5
4DE
100
AcDbEntity
  8
L1_
  6
CONTINUOUS
 62
         7
100
AcDbLine
 10
-9900.2342781281
 20
11690.6078887676
 30
0.0
 11
-9897.2705485269
 21
11690.6078887676
 31
0.0
  0
LINE
  5
4DF
100
AcDbEntity
  8
L1_
  6
CONTINUOUS
 62
         7
100
AcDbLine
 10
-9971.9705485269
 20
11751.3578887676
 30
0.0
 11
-9971.9705485269
 21
11727.3578887676
 31
0.0
  0
LINE
  5
4E0
100
AcDbEntity
  8
L1_
  6
CONTINUOUS
 62
         7
100
AcDbLine
 10
-10015.1205485269
 20
11751.8578887676
 30
0.0
 11
-10012.2705485269
 21
11751.8578887676
 31
0.0
  0
LINE
  5
4E1
100
AcDbEntity
  8
L1_
  6
CONTINUOUS
 62
         7
100
AcDbLine
 10
-10008.2012045653
 20
11728.9615473042
 30
0.0
 11
-9901.4678671077
 21
11728.9615473042
 31
0.0
  0
LINE
  5
4E2
100
AcDbEntity
  8
L1_
  6
CONTINUOUS
 62
         5
100
AcDbLine
 10
-10009.8048631019
 20
11727.3578887676
 30
0.0
 11
-9971.9705485269
 21
11727.3578887676
 31
0.0
  0
LINE
  5
4E3
100
AcDbEntity
  8
L1_
  6
CONTINUOUS
 62
         7
100
AcDbLine
 10
-9913.6705485269
 20
11774.4578904152
 30
0.0
 11
-10014.4813190855
 21
11759.7561812933
 31
0.0
  0
LINE
  5
4E4
100
AcDbEntity
  8
L1_
  6
CONTINUOUS
 62
         7
100
AcDbLine
 10
-10008.2012045653
 20
11749.754230231
 30
0.0
 11
-9901.4678671077
 21
11749.754230231
 31
0.0
  0
LINE
  5
4E5
100
AcDbEntity
  8
L1_
  6
CONTINUOUS
 62
         5
100
AcDbLine
 10
-10009.8048631019
 20
11751.3578887676
 30
0.0
 11
-9971.9705485269
 21
11751.3578887676
 31
0.0
  0
LINE
  5
4E6
100
AcDbEntity
  8
L1_
  6
CENTER
 62
         1
100
AcDbLine
 10
-10016.6205485269
 20
11739.3578887676
 30
0.0
 11
-9809.8803858683
 21
11739.3578887676
 31
0.0
  0
ARC
  5
4E7
100
AcDbEntity
  8
L1_
  6
CONTINUOUS
 62
         7
100
AcDbCircle
 10
-9902.6158479885
 20
11692.7328887676
 30
0.0
 40
1.0
100
AcDbArc
 50
30.0
 51
90.0
  0
LINE
  5
4E8
100
AcDbEntity
  8
L1_
  6
CONTINUOUS
 62
         7
100
AcDbLine
 10
-10010.2705485269
 20
11726.8922033426
 30
0.0
 11
-10010.2705485269
 21
11751.8235741925
 31
0.0
  0
LINE
  5
4E9
100
AcDbEntity
  8
L1_
  6
CONTINUOUS
 62
         7
100
AcDbLine
 10
-10011.5241383654
 20
11752.0578887676
 30
0.0
 11
-10010.6705485269
 21
11752.0578887676
 31
0.0
  0
LINE
  5
4EA
100
AcDbEntity
  8
L1_
  6
CONTINUOUS
 62
         7
100
AcDbLine
 10
-10012.2705485269
 20
11726.8578887676
 30
0.0
 11
-10012.2705485269
 21
11751.8578887676
 31
0.0
  0
ARC
  5
4EB
100
AcDbEntity
  8
L1_
  6
CONTINUOUS
 62
         7
100
AcDbCircle
 10
-10010.6705485269
 20
11751.6578887676
 30
0.0
 40
0.4
100
AcDbArc
 50
45.0
 51
90.0
  0
LINE
  5
4EC
100
AcDbEntity
  8
L1_
  6
CONTINUOUS
 62
         7
100
AcDbLine
 10
-10011.5241383654
 20
11752.0578887676
 30
0.0
 11
-10012.2705485269
 21
11751.8578887676
 31
0.0
  0
ARC
  5
4ED
100
AcDbEntity
  8
L1_
  6
CONTINUOUS
 62
         7
100
AcDbCircle
 10
-10015.1205485269
 20
11753.3578887676
 30
0.0
 40
1.5
100
AcDbArc
 50
205.8419327625
 51
270.0
  0
LINE
  5
4EE
100
AcDbEntity
  8
L1_
  6
CONTINUOUS
 62
         7
100
AcDbLine
 10
-10010.3877058144
 20
11751.9407314801
 30
0.0
 11
-10008.2012045653
 21
11749.754230231
 31
0.0
  0
LINE
  5
4EF
100
AcDbEntity
  8
L1_
  6
CONTINUOUS
 62
         7
100
AcDbLine
 10
-10015.1205485269
 20
11726.8578887676
 30
0.0
 11
-10012.2705485269
 21
11726.8578887676
 31
0.0
  0
LINE
  5
4F0
100
AcDbEntity
  8
L1_
  6
CONTINUOUS
 62
         7
100
AcDbLine
 10
-10011.5241383654
 20
11726.6578887676
 30
0.0
 11
-10010.6705485269
 21
11726.6578887676
 31
0.0
  0
LINE
  5
4F1
100
AcDbEntity
  8
L1_
  6
CONTINUOUS
 62
         7
100
AcDbLine
 10
-10011.5241383654
 20
11726.6578887676
 30
0.0
 11
-10012.2705485269
 21
11726.8578887676
 31
0.0
  0
ARC
  5
4F2
100
AcDbEntity
  8
L1_
  6
CONTINUOUS
 62
         7
100
AcDbCircle
 10
-10015.1205485269
 20
11725.3578887676
 30
0.0
 40
1.5
100
AcDbArc
 50
90.0
 51
154.1580672375
  0
ARC
  5
4F3
100
AcDbEntity
  8
L1_
  6
CONTINUOUS
 62
         7
100
AcDbCircle
 10
-10010.6705485269
 20
11727.0578887676
 30
0.0
 40
0.4
100
AcDbArc
 50
270.0
 51
315.0
  0
LINE
  5
4F4
100
AcDbEntity
  8
L1_
  6
CONTINUOUS
 62
         7
100
AcDbLine
 10
-10010.3877058144
 20
11726.7750460551
 30
0.0
 11
-10008.2012045653
 21
11728.9615473042
 31
0.0
  0
LINE
  5
4F5
100
AcDbEntity
  8
L1_
  6
CONTINUOUS
 62
         7
100
AcDbLine
 10
-10008.2012045653
 20
11728.9615473042
 30
0.0
 11
-10008.2012045653
 21
11749.754230231
 31
0.0
  0
LINE
  5
4F6
100
AcDbEntity
  8
L1_
  6
CONTINUOUS
 62
         7
100
AcDbLine
 10
-9895.7705485269
 20
12025.6003198193
 30
0.0
 11
-9895.7705485269
 21
11931.1003198193
 31
0.0
  0
LINE
  5
4F7
100
AcDbEntity
  8
L1_
  6
CONTINUOUS
 62
         7
100
AcDbLine
 10
-9901.894160152
 20
12024.2253198193
 30
0.0
 11
-9900.2342781281
 21
12027.1003198193
 31
0.0
  0
LINE
  5
4F8
100
AcDbEntity
  8
L1_
  6
CONTINUOUS
 62
         7
100
AcDbLine
 10
-9905.2139241999
 20
12023.9753198193
 30
0.0
 11
-9902.3271728539
 21
12023.9753198193
 31
0.0
  0
LINE
  5
4F9
100
AcDbEntity
  8
L1_
  6
CONTINUOUS
 62
         7
100
AcDbLine
 10
-9911.1705485269
 20
12027.1003198193
 30
0.0
 11
-9907.3068189257
 21
12027.1003198193
 31
0.0
  0
ARC
  5
4FA
100
AcDbEntity
  8
L1_
  6
CONTINUOUS
 62
         7
100
AcDbCircle
 10
-9905.2139241999
 20
12024.4753198193
 30
0.0
 40
0.5
100
AcDbArc
 50
210.0
 51
270.0
  0
LINE
  5
4FB
100
AcDbEntity
  8
L1_
  6
CONTINUOUS
 62
         7
100
AcDbLine
 10
-9905.6469369018
 20
12024.2253198193
 30
0.0
 11
-9907.3068189257
 21
12027.1003198193
 31
0.0
  0
ARC
  5
4FC
100
AcDbEntity
  8
L1_
  6
CONTINUOUS
 62
         7
100
AcDbCircle
 10
-9902.3271728539
 20
12024.4753198193
 30
0.0
 40
0.5
100
AcDbArc
 50
270.0
 51
330.0
  0
LINE
  5
4FD
100
AcDbEntity
  8
L1_
  6
CONTINUOUS
 62
         7
100
AcDbLine
 10
-9900.2342781281
 20
12027.1003198193
 30
0.0
 11
-9897.2705485269
 21
12027.1003198193
 31
0.0
  0
LINE
  5
4FE
100
AcDbEntity
  8
L1_
  6
CONTINUOUS
 62
         7
100
AcDbLine
 10
-9901.894160152
 20
11932.4753198193
 30
0.0
 11
-9900.2342781281
 21
11929.6003198193
 31
0.0
  0
LINE
  5
4FF
100
AcDbEntity
  8
L1_
  6
CONTINUOUS
 62
         7
100
AcDbLine
 10
-9905.2139241999
 20
11932.7253198193
 30
0.0
 11
-9902.3271728539
 21
11932.7253198193
 31
0.0
  0
ARC
  5
500
100
AcDbEntity
  8
L1_
  6
CONTINUOUS
 62
         7
100
AcDbCircle
 10
-9905.2139241999
 20
11932.2253198193
 30
0.0
 40
0.5
100
AcDbArc
 50
90.0
 51
150.0
  0
LINE
  5
501
100
AcDbEntity
  8
L1_
  6
CONTINUOUS
 62
         7
100
AcDbLine
 10
-9910.1705485269
 20
11929.6003198193
 30
0.0
 11
-9907.3068189257
 21
11929.6003198193
 31
0.0
  0
LINE
  5
502
100
AcDbEntity
  8
L1_
  6
CONTINUOUS
 62
         7
100
AcDbLine
 10
-9905.6469369018
 20
11932.4753198193
 30
0.0
 11
-9907.3068189257
 21
11929.6003198193
 31
0.0
  0
ARC
  5
503
100
AcDbEntity
  8
L1_
  6
CONTINUOUS
 62
         7
100
AcDbCircle
 10
-9902.3271728539
 20
11932.2253198193
 30
0.0
 40
0.5
100
AcDbArc
 50
30.0
 51
90.0
  0
LINE
  5
504
100
AcDbEntity
  8
L1_
  6
CONTINUOUS
 62
         7
100
AcDbLine
 10
-9900.2342781281
 20
11929.6003198193
 30
0.0
 11
-9897.2705485269
 21
11929.6003198193
 31
0.0
  0
LINE
  5
505
100
AcDbEntity
  8
L1_
  6
CENTER
 62
         1
100
AcDbLine
 10
-9903.7705485269
 20
12033.3555831201
 30
0.0
 11
-9903.7705485269
 21
11923.3527635683
 31
0.0
  0
LINE
  5
506
100
AcDbEntity
  8
L1_
  6
CONTINUOUS
 62
         7
100
AcDbLine
 10
-9911.6705485269
 20
12025.6003198193
 30
0.0
 11
-9911.6705485269
 21
11930.1003198193
 31
0.0
  0
LINE
  5
507
100
AcDbEntity
  8
L1_
  6
CENTER
 62
         1
100
AcDbLine
 10
-9914.8705485269
 20
12018.0753198193
 30
0.0
 11
-9914.8705485269
 21
11940.0792654738
 31
0.0
  0
LINE
  5
508
100
AcDbEntity
  8
L1_
  6
CONTINUOUS
 62
         7
100
AcDbLine
 10
-9913.6705485269
 20
12013.450321467
 30
0.0
 11
-9913.6705485269
 21
11943.2503181717
 31
0.0
  0
LINE
  5
509
100
AcDbEntity
  8
L1_
  6
CONTINUOUS
 62
         7
100
AcDbLine
 10
-9913.6705485269
 20
11943.2503181717
 30
0.0
 11
-10014.3313190855
 21
11957.9301520877
 31
0.0
  0
LINE
  5
50A
100
AcDbEntity
  8
L1_
  6
CONTINUOUS
 62
         7
100
AcDbLine
 10
-9913.6705485269
 20
12013.450321467
 30
0.0
 11
-10014.3313190855
 21
11998.770487551
 31
0.0
  0
LINE
  5
50B
100
AcDbEntity
  8
L1_
  6
CENTER
 62
         1
100
AcDbLine
 10
-10021.4166910949
 20
11978.3503198193
 30
0.0
 11
-9947.4954580991
 21
11978.3503198193
 31
0.0
  0
LINE
  5
50C
100
AcDbEntity
  8
L1_
  6
CENTER
 62
         1
100
AcDbLine
 10
-9925.6264811549
 20
11978.3503198193
 30
0.0
 11
-9806.9814549276
 21
11978.3503198193
 31
0.0
  0
LINE
  5
50D
100
AcDbEntity
  8
L1_
  6
CENTER
 62
         1
100
AcDbLine
 10
-9630.1598555718
 20
12009.6862157915
 30
0.0
 11
-9592.8151889697
 21
11978.3503198193
 31
0.0
  0
LINE
  5
50E
100
AcDbEntity
  8
L1_
  6
CENTER
 62
         1
100
AcDbLine
 10
-9636.9976935878
 20
11998.9529600792
 30
0.0
 11
-9592.8151889697
 21
11978.3503198193
 31
0.0
  0
LINE
  5
50F
100
AcDbEntity
  8
L1_
  6
CENTER
 62
         1
100
AcDbLine
 10
-9636.9976935878
 20
11957.7476795595
 30
0.0
 11
-9592.8151889697
 21
11978.3503198193
 31
0.0
  0
LINE
  5
510
100
AcDbEntity
  8
L1_
  6
CENTER
 62
         1
100
AcDbLine
 10
-9630.1598555718
 20
11947.0144238471
 30
0.0
 11
-9592.8151889697
 21
11978.3503198193
 31
0.0
  0
LINE
  5
511
100
AcDbEntity
  8
L1_
  6
DASHED
 62
         2
100
AcDbLine
 10
-9626.4467952903
 20
12009.1814028574
 30
0.0
 11
-9614.9561286435
 21
11999.5395887121
 31
0.0
  0
LINE
  5
512
100
AcDbEntity
  8
L1_
  6
DASHED
 62
         2
100
AcDbLine
 10
-9629.017945729
 20
12006.117225085
 30
0.0
 11
-9617.5272790822
 21
11996.4754109397
 31
0.0
  0
LINE
  5
513
100
AcDbEntity
  8
L1_
  6
DASHED
 62
         2
100
AcDbLine
 10
-9633.2804975657
 20
11999.4263589452
 30
0.0
 11
-9619.6858807602
 21
11993.087085019
 31
0.0
  0
LINE
  5
514
100
AcDbEntity
  8
L1_
  6
DASHED
 62
         2
100
AcDbLine
 10
-9634.9709706127
 20
11995.801127797
 30
0.0
 11
-9621.3763538071
 21
11989.4618538709
 31
0.0
  0
LINE
  5
515
100
AcDbEntity
  8
L1_
  6
DASHED
 62
         2
100
AcDbLine
 10
-9619.6858807602
 20
11993.087085019
 30
0.0
 11
-9621.3763538071
 21
11989.4618538709
 31
0.0
  0
LINE
  5
516
100
AcDbEntity
  8
L1_
  6
DASHED
 62
         2
100
AcDbLine
 10
-9621.3763538071
 20
11989.4618538709
 30
0.0
 11
-9619.6858807602
 21
11990.8803291811
 31
0.0
  0
LINE
  5
517
100
AcDbEntity
  8
L1_
  6
DASHED
 62
         2
100
AcDbLine
 10
-9619.6858807602
 20
11993.087085019
 30
0.0
 11
-9619.6858807602
 21
11990.8803291811
 31
0.0
  0
LINE
  5
518
100
AcDbEntity
  8
L1_
  6
DASHED
 62
         2
100
AcDbLine
 10
-9617.5272790822
 20
11996.4754109397
 30
0.0
 11
-9615.5272790822
 21
11997.408026256
 31
0.0
  0
LINE
  5
519
100
AcDbEntity
  8
L1_
  6
DASHED
 62
         2
100
AcDbLine
 10
-9614.9561286435
 20
11999.5395887121
 30
0.0
 11
-9617.5272790822
 21
11996.4754109397
 31
0.0
  0
LINE
  5
51A
100
AcDbEntity
  8
L1_
  6
DASHED
 62
         2
100
AcDbLine
 10
-9614.9561286435
 20
11999.5395887121
 30
0.0
 11
-9615.5272790822
 21
11997.408026256
 31
0.0
  0
LINE
  5
51B
100
AcDbEntity
  8
L1_
  6
DASHED
 62
         2
100
AcDbLine
 10
-9634.9709706127
 20
11960.8995118416
 30
0.0
 11
-9621.3763538071
 21
11967.2387857678
 31
0.0
  0
LINE
  5
51C
100
AcDbEntity
  8
L1_
  6
DASHED
 62
         2
100
AcDbLine
 10
-9633.2804975657
 20
11957.2742806935
 30
0.0
 11
-9619.6858807602
 21
11963.6135546196
 31
0.0
  0
LINE
  5
51D
100
AcDbEntity
  8
L1_
  6
DASHED
 62
         2
100
AcDbLine
 10
-9629.017945729
 20
11950.5834145537
 30
0.0
 11
-9617.5272790822
 21
11960.225228699
 31
0.0
  0
LINE
  5
51E
100
AcDbEntity
  8
L1_
  6
DASHED
 62
         2
100
AcDbLine
 10
-9626.4467952903
 20
11947.5192367812
 30
0.0
 11
-9614.9561286435
 21
11957.1610509265
 31
0.0
  0
LINE
  5
51F
100
AcDbEntity
  8
L1_
  6
DASHED
 62
         2
100
AcDbLine
 10
-9619.6858807602
 20
11963.6135546196
 30
0.0
 11
-9621.3763538071
 21
11967.2387857678
 31
0.0
  0
LINE
  5
520
100
AcDbEntity
  8
L1_
  6
DASHED
 62
         2
100
AcDbLine
 10
-9621.3763538071
 20
11967.2387857678
 30
0.0
 11
-9619.6858807602
 21
11965.8203104575
 31
0.0
  0
LINE
  5
521
100
AcDbEntity
  8
L1_
  6
DASHED
 62
         2
100
AcDbLine
 10
-9619.6858807602
 20
11963.6135546196
 30
0.0
 11
-9619.6858807602
 21
11965.8203104575
 31
0.0
  0
LINE
  5
522
100
AcDbEntity
  8
L1_
  6
DASHED
 62
         2
100
AcDbLine
 10
-9614.9561286435
 20
11957.1610509265
 30
0.0
 11
-9617.5272790822
 21
11960.225228699
 31
0.0
  0
LINE
  5
523
100
AcDbEntity
  8
L1_
  6
DASHED
 62
         2
100
AcDbLine
 10
-9617.5272790822
 20
11960.225228699
 30
0.0
 11
-9615.5272790822
 21
11959.2926133827
 31
0.0
  0
LINE
  5
524
100
AcDbEntity
  8
L1_
  6
DASHED
 62
         2
100
AcDbLine
 10
-9614.9561286435
 20
11957.1610509265
 30
0.0
 11
-9615.5272790822
 21
11959.2926133827
 31
0.0
  0
CIRCLE
  5
525
100
AcDbEntity
  8
L1_
  6
CONTINUOUS
 62
         7
100
AcDbCircle
 10
-9903.7705485269
 20
12007.6493139712
 30
0.0
 40
1.5320888862
  0
CIRCLE
  5
526
100
AcDbEntity
  8
L1_
  6
CONTINUOUS
 62
         7
100
AcDbCircle
 10
-9903.7705485269
 20
11997.6137433711
 30
0.0
 40
1.8126155741
  0
CIRCLE
  5
527
100
AcDbEntity
  8
L1_
  6
CONTINUOUS
 62
         7
100
AcDbCircle
 10
-9903.7705485269
 20
11959.0868962676
 30
0.0
 40
1.8126155741
  0
CIRCLE
  5
528
100
AcDbEntity
  8
L1_
  6
CONTINUOUS
 62
         7
100
AcDbCircle
 10
-9903.7705485269
 20
11949.0513256675
 30
0.0
 40
1.5320888862
  0
DIMENSION
  5
52B
100
AcDbEntity
  8
L1_
  6
CONTINUOUS
 62
         4
100
AcDbDimension
  2
*D21
 10
-9914.8705485269
 20
12083.0312119539
 30
0.0
 11
-9874.0776374965
 21
12085.1312119539
 31
0.0
  3
DIMSTYLE1
100
AcDbAlignedDimension
 13
-9914.8705485269
 23
12018.0753198193
 33
0.0
 14
-9809.9705485269
 24
11988.6003198193
 34
0.0
100
AcDbRotatedDimension
  0
DIMENSION
  5
539
100
AcDbEntity
  8
L1_
  6
CONTINUOUS
 62
         4
100
AcDbDimension
  2
*D22
 10
-9794.158345878
 20
11988.4003198193
 30
0.0
 11
-9796.258345878
 21
11964.2847829737
 31
0.0
  3
DIMSTYLE1
100
AcDbAlignedDimension
 13
-9814.3705485269
 23
11988.4003198193
 33
0.0
 14
-9814.3705485269
 24
11968.3003198193
 34
0.0
 50
90.0
100
AcDbRotatedDimension
  0
DIMENSION
  5
547
100
AcDbEntity
  8
L1_
  6
CONTINUOUS
 62
         4
100
AcDbDimension
  2
*D23
 10
-9779.5267488447
 20
11964.6003198193
 30
0.0
 11
-9781.6267488447
 21
11967.1167049802
 31
0.0
  3
DIMSTYLE1
100
AcDbAlignedDimension
 13
-9828.0705485269
 23
11964.6003198193
 33
0.0
 14
-9828.0705485269
 24
11992.1003198193
 34
0.0
 50
90.0
100
AcDbRotatedDimension
  0
LINE
  5
553
100
AcDbEntity
  8
L1_
  6
CONTINUOUS
 62
         7
100
AcDbLine
 10
-9913.6705485269
 20
11704.25788712
 30
0.0
 11
-10014.4813190855
 21
11718.9595962419
 31
0.0
  0
TEXT
  5
555
100
AcDbEntity
  8
L1_
  6
CONTINUOUS
 62
         2
100
AcDbText
 10
-9608.2434111871
 20
12052.5361564981
 30
0.0
 40
4.5
  1
531776
 41
0.98
  7
BOX
100
AcDbText
  0
ENDSEC
  0
SECTION
  2
OBJECTS
  0
DICTIONARY
  5
19
100
AcDbDictionary
  3
ACAD_GROUP
350
1A
  3
ACAD_MLINESTYLE
350
1B
  0
DICTIONARY
  5
1A
102
{ACAD_REACTORS
330
19
102
}
100
AcDbDictionary
  0
DICTIONARY
  5
1B
102
{ACAD_REACTORS
330
19
102
}
100
AcDbDictionary
  3
STANDARD
350
1C
  0
MLINESTYLE
  5
1C
102
{ACAD_REACTORS
330
1B
102
}
100
AcDbMlineStyle
  2
STANDARD
 70
         0
  3

 62
         0
 51
90.0
 52
90.0
 71
         2
 49
0.5
 62
       256
  6
BYLAYER
 49
-0.5
 62
       256
  6
BYLAYER
  0
ENDSEC
  0
EOF
