  0
SECTION
  2
HEADER
  9
$ACADVER
  1
AC1014
  9
$ACADMAINTVER
 70
         0
  9
$DWGCODEPAGE
  3
BIG5
  9
$INSBASE
 10
0.0
 20
0.0
 30
0.0
  9
$EXTMIN
 10
-10343.8027836905
 20
11660.3333751935
 30
0.0
  9
$EXTMAX
 10
-9439.729515744
 20
12116.139075042
 30
0.0
  9
$LIMMIN
 10
0.0
 20
0.0
  9
$LIMMAX
 10
0.0
 20
0.0
  9
$ORTHOMODE
 70
         0
  9
$REGENMODE
 70
         1
  9
$FILLMODE
 70
         1
  9
$QTEXTMODE
 70
         0
  9
$MIRRTEXT
 70
         1
  9
$DRAGMODE
 70
         2
  9
$LTSCALE
 40
1.0
  9
$OSMODE
 70
         0
  9
$ATTMODE
 70
         1
  9
$TEXTSIZE
 40
2.1
  9
$TRACEWID
 40
0.05
  9
$TEXTSTYLE
  7
STANDARD
  9
$CLAYER
  8
0
  9
$CELTYPE
  6
CONTINUOUS
  9
$CECOLOR
 62
         4
  9
$CELTSCALE
 40
1.0
  9
$DELOBJ
 70
         1
  9
$DISPSILH
 70
         0
  9
$DIMSCALE
 40
1.0
  9
$DIMASZ
 40
0.18
  9
$DIMEXO
 40
0.0625
  9
$DIMDLI
 40
0.38
  9
$DIMRND
 40
0.0
  9
$DIMDLE
 40
0.0
  9
$DIMEXE
 40
0.25
  9
$DIMTP
 40
0.0
  9
$DIMTM
 40
0.0
  9
$DIMTXT
 40
3.5
  9
$DIMCEN
 40
0.09
  9
$DIMTSZ
 40
0.0
  9
$DIMTOL
 70
         0
  9
$DIMLIM
 70
         0
  9
$DIMTIH
 70
         1
  9
$DIMTOH
 70
         1
  9
$DIMSE1
 70
         0
  9
$DIMSE2
 70
         0
  9
$DIMTAD
 70
         0
  9
$DIMZIN
 70
         0
  9
$DIMBLK
  1

  9
$DIMASO
 70
         1
  9
$DIMSHO
 70
         1
  9
$DIMPOST
  1

  9
$DIMAPOST
  1

  9
$DIMALT
 70
         0
  9
$DIMALTD
 70
         2
  9
$DIMALTF
 40
25.4
  9
$DIMLFAC
 40
1.0
  9
$DIMTOFL
 70
         0
  9
$DIMTVP
 40
0.0
  9
$DIMTIX
 70
         0
  9
$DIMSOXD
 70
         0
  9
$DIMSAH
 70
         0
  9
$DIMBLK1
  1

  9
$DIMBLK2
  1

  9
$DIMSTYLE
  2
STANDARD
  9
$DIMCLRD
 70
         0
  9
$DIMCLRE
 70
         0
  9
$DIMCLRT
 70
         4
  9
$DIMTFAC
 40
0.7
  9
$DIMGAP
 40
0.09
  9
$DIMJUST
 70
         0
  9
$DIMSD1
 70
         0
  9
$DIMSD2
 70
         0
  9
$DIMTOLJ
 70
         1
  9
$DIMTZIN
 70
         0
  9
$DIMALTZ
 70
         0
  9
$DIMALTTZ
 70
         0
  9
$DIMFIT
 70
         3
  9
$DIMUPT
 70
         0
  9
$DIMUNIT
 70
         2
  9
$DIMDEC
 70
         4
  9
$DIMTDEC
 70
         4
  9
$DIMALTU
 70
         2
  9
$DIMALTTD
 70
         2
  9
$DIMTXSTY
  7
STANDARD
  9
$DIMAUNIT
 70
         0
  9
$LUNITS
 70
         2
  9
$LUPREC
 70
        10
  9
$SKETCHINC
 40
0.1
  9
$FILLETRAD
 40
0.0
  9
$AUNITS
 70
         0
  9
$AUPREC
 70
         0
  9
$MENU
  1
acad
  9
$ELEVATION
 40
0.0
  9
$PELEVATION
 40
0.0
  9
$THICKNESS
 40
0.0
  9
$LIMCHECK
 70
         0
  9
$BLIPMODE
 70
         1
  9
$CHAMFERA
 40
0.0
  9
$CHAMFERB
 40
0.0
  9
$CHAMFERC
 40
0.0
  9
$CHAMFERD
 40
0.0
  9
$SKPOLY
 70
         0
  9
$TDCREATE
 40
0.000000000
  9
$TDUPDATE
 40
0.000000000
  9
$TDINDWG
 40
0.0000000000
  9
$TDUSRTIMER
 40
0.0000000000
  9
$USRTIMER
 70
         1
  9
$ANGBASE
 50
0.0
  9
$ANGDIR
 70
         0
  9
$PDMODE
 70
         2
  9
$PDSIZE
 40
0.0
  9
$PLINEWID
 40
0.0
  9
$COORDS
 70
         1
  9
$SPLFRAME
 70
         0
  9
$SPLINETYPE
 70
         6
  9
$SPLINESEGS
 70
         8
  9
$ATTDIA
 70
         0
  9
$ATTREQ
 70
         1
  9
$HANDLING
 70
         1
  9
$HANDSEED
  5
642
  9
$SURFTAB1
 70
         6
  9
$SURFTAB2
 70
         6
  9
$SURFTYPE
 70
         6
  9
$SURFU
 70
         6
  9
$SURFV
 70
         6
  9
$UCSNAME
  2

  9
$UCSORG
 10
0.0
 20
0.0
 30
0.0
  9
$UCSXDIR
 10
1.0
 20
0.0
 30
0.0
  9
$UCSYDIR
 10
0.0
 20
1.0
 30
0.0
  9
$PUCSNAME
  2

  9
$PUCSORG
 10
0.0
 20
0.0
 30
0.0
  9
$PUCSXDIR
 10
1.0
 20
0.0
 30
0.0
  9
$PUCSYDIR
 10
0.0
 20
1.0
 30
0.0
  9
$USERI1
 70
         0
  9
$USERI2
 70
         0
  9
$USERI3
 70
         0
  9
$USERI4
 70
         0
  9
$USERI5
 70
         0
  9
$USERR1
 40
0.0
  9
$USERR2
 40
0.0
  9
$USERR3
 40
0.0
  9
$USERR4
 40
0.0
  9
$USERR5
 40
0.0
  9
$WORLDVIEW
 70
         1
  9
$SHADEDGE
 70
         3
  9
$SHADEDIF
 70
        70
  9
$TILEMODE
 70
         1
  9
$MAXACTVP
 70
        16
  9
$PINSBASE
 10
0.0
 20
0.0
 30
0.0
  9
$PLIMCHECK
 70
         0
  9
$PEXTMIN
 10
1.0000000000E+20
 20
1.0000000000E+20
 30
1.0000000000E+20
  9
$PEXTMAX
 10
-1.0000000000E+20
 20
-1.0000000000E+20
 30
-1.0000000000E+20
  9
$PLIMMIN
 10
0.0
 20
0.0
  9
$PLIMMAX
 10
12.0
 20
9.0
  9
$UNITMODE
 70
         0
  9
$VISRETAIN
 70
         0
  9
$PLINEGEN
 70
         1
  9
$PSLTSCALE
 70
         0
  9
$TREEDEPTH
 70
      3020
  9
$PICKSTYLE
 70
         1
  9
$CMLSTYLE
  2
STANDARD
  9
$CMLJUST
 70
         0
  9
$CMLSCALE
 40
1.0
  9
$PROXYGRAPHICS
 70
         0
  9
$MEASUREMENT
 70
         0
  0
ENDSEC
  0
SECTION
  2
CLASSES
  0
CLASS
  1
LWPOLYLINE
  2
AcDbPolyline
  3
"AutoCAD"
 90
        0
280
         0
281
         1
  0
CLASS
  1
IMAGE
  2
AcDbRasterImage
  3
ISM
 90
      127
280
         0
281
         1
  0
CLASS
  1
OLE2FRAME
  2
AcDbOle2Frame
  3
""
 90
        0
280
         0
281
         1
  0
CLASS
  1
HATCH
  2
AcDbHatch
  3
"ACAD_SEDONA"
 90
        0
280
         0
281
         1
  0
CLASS
  1
DICTIONARYVAR
  2
AcDbDictionaryVar
  3
"AutoCAD"
 90
        0
280
         0
281
         0
  0
CLASS
  1
RASTERVARIABLES
  2
AcDbRasterVariables
  3
ISM
 90
        0
280
         0
281
         0
  0
CLASS
  1
IMAGEDEF
  2
AcDbRasterImageDef
  3
ISM
 90
        0
280
         0
281
         0
  0
CLASS
  1
IMAGEDEF_REACTOR
  2
AcDbRasterImageDefReactor
  3
ISM
 90
        1
280
         0
281
         0
  0
CLASS
  1
IDBUFFER
  2
AcDbIdBuffer
  3
"Acad"
 90
        0
280
         0
281
         0
  0
CLASS
  1
SPATIAL_FILTER
  2
AcDbSpatialFilter
  3
"Acad"
 90
        0
280
         0
281
         0
  0
CLASS
  1
XRECORD
  2
AcDbXrecord
  3
"<Built In>"
 90
        0
280
         0
281
         0
  0
CLASS
  1
SORTENTSTABLE
  2
AcDbSortentsTable
  3
"AutoCAD"
 90
        0
280
         0
281
         0
  0
CLASS
  1
LAYER_INDEX
  2
AcDbLayerIndex
  3
"Acad"
 90
        0
280
         0
281
         0
  0
CLASS
  1
SPATIAL_INDEX
  2
AcDbSpatialIndex
  3
"Acad"
 90
        0
280
         0
281
         0
  0
CLASS
  1
OBJECT_PTR
  2
CAseDLPNTableRecord
  3
"ASE-LPNTableRecord"
 90
        1
280
         0
281
         0
  0
CLASS
  1
LAYOUT
  2
AcDbLayout
  3
"AutoCAD 2000"
 90
        1
280
         0
281
         0
  0
CLASS
  1
PLOTSETTINGS
  2
AcDbPlotSettings
  3
"AutoCAD 2000"
 90
        1
280
         0
281
         0
  0
CLASS
  1
ACDBDICTIONARYWDFLT
  2
AcDbDictionaryWithDefault
  3
"AutoCAD 2000"
 90
        1
280
         0
281
         0
  0
CLASS
  1
ACDBPLACEHOLDER
  2
AcDbPlaceHolder
  3
"AutoCAD 2000"
 90
        1
280
         0
281
         0
  0
CLASS
  1
VBA_PROJECT
  2
AcDbVbaProject
  3
"acadvba"
 90
        1
280
         0
281
         0
  0
CLASS
  1
WIPEOUT
  2
AcDbWipeout
  3
WipeOut|AutoCAD Express Tool|expresstools@autodesk.com
 90
      127
280
         0
281
         1
  0
CLASS
  1
WIPEOUTVARIABLES
  2
AcDbWipeoutVariables
  3
WipeOut|AutoCAD Express Tool|expresstools@autodesk.com
 90
        0
280
         0
281
         0
  0
CLASS
  1
RTEXT
  2
RText
  3
RText|AutoCAD Express Tool|expresstools@autodesk.com
 90
        0
280
         0
281
         1
  0
CLASS
  1
ARCALIGNEDTEXT
  2
AcDbArcAlignedText
  3
ATEXT|AutoCAD Express Tool|expresstools@autodesk.com
 90
        0
280
         0
281
         1
  0
ENDSEC
  0
SECTION
  2
TABLES
  0
TABLE
  2
VPORT
  5
7
100
AcDbSymbolTable
 70
         1
  0
VPORT
  5
15
100
AcDbSymbolTableRecord
100
AcDbViewportTableRecord
  2
*ACTIVE
 70
         0
 10
0.0
 20
0.0
 11
1.0
 21
1.0
 12
-9891.7661497173
 22
11888.2362251177
 13
0.0
 23
0.0
 14
1.0
 24
1.0
 15
0.0
 25
0.0
 16
0.0
 26
0.0
 36
1.0
 17
0.0
 27
0.0
 37
0.0
 40
455.8056998485
 41
1.9834619625
 42
50.0
 43
0.0
 44
0.0
 50
0.0
 51
0.0
 71
         0
 72
       100
 73
         1
 74
         1
 75
         0
 76
         0
 77
         0
 78
         0
  0
ENDTAB
  0
TABLE
  2
LTYPE
  5
4
100
AcDbSymbolTable
 70
         6
  0
LTYPE
  5
11
100
AcDbSymbolTableRecord
100
AcDbLinetypeTableRecord
  2
BYBLOCK
 70
        64
  3

 72
        65
 73
         0
 40
0.0
  0
LTYPE
  5
12
100
AcDbSymbolTableRecord
100
AcDbLinetypeTableRecord
  2
BYLAYER
 70
        64
  3

 72
        65
 73
         0
 40
0.0
  0
LTYPE
  5
13
100
AcDbSymbolTableRecord
100
AcDbLinetypeTableRecord
  2
CONTINUOUS
 70
        64
  3
Solid line
 72
        65
 73
         0
 40
0.0
  0
LTYPE
  5
1D
100
AcDbSymbolTableRecord
100
AcDbLinetypeTableRecord
  2
DASHED
 70
        64
  3
_ _ _ _ _ _ _ _ _ _ _ _ _ _ _ _
 72
        65
 73
         2
 40
0.2
 49
0.1
 74
         0
 49
-0.1
 74
         0
  0
LTYPE
  5
1E
100
AcDbSymbolTableRecord
100
AcDbLinetypeTableRecord
  2
CENTER
 70
        64
  3
___ _ ___ _ ___ _ ___ _ ___ _ ___ _ ___ _ ___ _
 72
        65
 73
         4
 40
0.95
 49
0.625
 74
         0
 49
-0.125
 74
         0
 49
0.075
 74
         0
 49
-0.125
 74
         0
  0
LTYPE
  5
1F
100
AcDbSymbolTableRecord
100
AcDbLinetypeTableRecord
  2
PHANTOM
 70
        64
  3
______  __  __  ______  __  __  ______  __  __  
 72
        65
 73
         6
 40
1.025
 49
0.625
 74
         0
 49
-0.125
 74
         0
 49
0.075
 74
         0
 49
-0.125
 74
         0
 49
0.075
 74
         0
 49
-0.125
 74
         0
  0
ENDTAB
  0
TABLE
  2
LAYER
  5
2
100
AcDbSymbolTable
 70
         6
  0
LAYER
  5
14
100
AcDbSymbolTableRecord
100
AcDbLayerTableRecord
  2
0
 70
         0
 62
         7
  6
CONTINUOUS
  0
LAYER
  5
21
100
AcDbSymbolTableRecord
100
AcDbLayerTableRecord
  2
_____U
 70
         1
 62
         7
  6
CONTINUOUS
  0
LAYER
  5
22
100
AcDbSymbolTableRecord
100
AcDbLayerTableRecord
  2
ERP__________T_____
 70
         1
 62
         7
  6
CONTINUOUS
  0
LAYER
  5
23
100
AcDbSymbolTableRecord
100
AcDbLayerTableRecord
  2
ERP______L________
 70
         1
 62
         7
  6
CONTINUOUS
  0
LAYER
  5
24
100
AcDbSymbolTableRecord
100
AcDbLayerTableRecord
  2
L1_
 70
         0
 62
         7
  6
CONTINUOUS
  0
LAYER
  5
2B2
100
AcDbSymbolTableRecord
100
AcDbLayerTableRecord
  2
DEFPOINTS
 70
         0
 62
        -7
  6
CONTINUOUS
  0
ENDTAB
  0
TABLE
  2
STYLE
  5
3
100
AcDbSymbolTable
 70
        22
  0
STYLE
  5
17
100
AcDbSymbolTableRecord
100
AcDbTextStyleTableRecord
  2
STANDARD
 70
         0
 40
0.0
 41
1.0
 50
0.0
 71
         0
 42
0.0
  3
txt
  4

  0
STYLE
  5
2BB
100
AcDbSymbolTableRecord
100
AcDbTextStyleTableRecord
  2
BOX
 70
         0
 40
1.0
 41
1.0
 50
0.0
 71
         0
 42
0.2
  3
txt.shx
  4

  0
STYLE
  5
2CB
100
AcDbSymbolTableRecord
100
AcDbTextStyleTableRecord
  2
BOX
 70
         0
 40
1.0
 41
1.0
 50
0.0
 71
         0
 42
0.2
  3
txt.shx
  4

  0
STYLE
  5
2D9
100
AcDbSymbolTableRecord
100
AcDbTextStyleTableRecord
  2
BOX
 70
         0
 40
1.0
 41
1.0
 50
0.0
 71
         0
 42
0.2
  3
txt.shx
  4

  0
STYLE
  5
2E7
100
AcDbSymbolTableRecord
100
AcDbTextStyleTableRecord
  2
BOX
 70
         0
 40
1.0
 41
1.0
 50
0.0
 71
         0
 42
0.2
  3
txt.shx
  4

  0
STYLE
  5
33D
100
AcDbSymbolTableRecord
100
AcDbTextStyleTableRecord
  2
BOX
 70
         0
 40
1.0
 41
1.0
 50
0.0
 71
         0
 42
0.2
  3
txt.shx
  4

  0
STYLE
  5
34B
100
AcDbSymbolTableRecord
100
AcDbTextStyleTableRecord
  2
BOX
 70
         0
 40
1.0
 41
1.0
 50
0.0
 71
         0
 42
0.2
  3
txt.shx
  4

  0
STYLE
  5
359
100
AcDbSymbolTableRecord
100
AcDbTextStyleTableRecord
  2
BOX
 70
         0
 40
1.0
 41
1.0
 50
0.0
 71
         0
 42
0.2
  3
txt.shx
  4

  0
STYLE
  5
38A
100
AcDbSymbolTableRecord
100
AcDbTextStyleTableRecord
  2
BOX
 70
         0
 40
1.0
 41
1.0
 50
0.0
 71
         0
 42
0.2
  3
txt.shx
  4

  0
STYLE
  5
3AF
100
AcDbSymbolTableRecord
100
AcDbTextStyleTableRecord
  2
BOX
 70
         0
 40
1.0
 41
1.0
 50
0.0
 71
         0
 42
0.2
  3
txt.shx
  4

  0
STYLE
  5
3BD
100
AcDbSymbolTableRecord
100
AcDbTextStyleTableRecord
  2
BOX
 70
         0
 40
1.0
 41
1.0
 50
0.0
 71
         0
 42
0.2
  3
txt.shx
  4

  0
STYLE
  5
3D1
100
AcDbSymbolTableRecord
100
AcDbTextStyleTableRecord
  2
BOX
 70
         0
 40
1.0
 41
1.0
 50
0.0
 71
         0
 42
0.2
  3
txt.shx
  4

  0
STYLE
  5
3E8
100
AcDbSymbolTableRecord
100
AcDbTextStyleTableRecord
  2
BOX
 70
         0
 40
1.0
 41
1.0
 50
0.0
 71
         0
 42
0.2
  3
txt.shx
  4

  0
STYLE
  5
3F6
100
AcDbSymbolTableRecord
100
AcDbTextStyleTableRecord
  2
BOX
 70
         0
 40
1.0
 41
1.0
 50
0.0
 71
         0
 42
0.2
  3
txt.shx
  4

  0
STYLE
  5
414
100
AcDbSymbolTableRecord
100
AcDbTextStyleTableRecord
  2
BOX
 70
         0
 40
1.0
 41
1.0
 50
0.0
 71
         0
 42
0.2
  3
txt.shx
  4

  0
STYLE
  5
42D
100
AcDbSymbolTableRecord
100
AcDbTextStyleTableRecord
  2
BOX
 70
         0
 40
1.0
 41
1.0
 50
0.0
 71
         0
 42
0.2
  3
txt.shx
  4

  0
STYLE
  5
43B
100
AcDbSymbolTableRecord
100
AcDbTextStyleTableRecord
  2
BOX
 70
         0
 40
1.0
 41
1.0
 50
0.0
 71
         0
 42
0.2
  3
txt.shx
  4

  0
STYLE
  5
450
100
AcDbSymbolTableRecord
100
AcDbTextStyleTableRecord
  2
BOX
 70
         0
 40
1.0
 41
1.0
 50
0.0
 71
         0
 42
0.2
  3
txt.shx
  4

  0
STYLE
  5
45E
100
AcDbSymbolTableRecord
100
AcDbTextStyleTableRecord
  2
BOX
 70
         0
 40
1.0
 41
1.0
 50
0.0
 71
         0
 42
0.2
  3
txt.shx
  4

  0
STYLE
  5
489
100
AcDbSymbolTableRecord
100
AcDbTextStyleTableRecord
  2
BOX
 70
         0
 40
1.0
 41
1.0
 50
0.0
 71
         0
 42
0.2
  3
txt.shx
  4

  0
STYLE
  5
63D
100
AcDbSymbolTableRecord
100
AcDbTextStyleTableRecord
  2
BOX
 70
         0
 40
1.0
 41
1.0
 50
0.0
 71
         0
 42
0.2
  3
txt.shx
  4

  0
STYLE
  5
640
100
AcDbSymbolTableRecord
100
AcDbTextStyleTableRecord
  2
BOX
 70
         0
 40
1.0
 41
1.0
 50
0.0
 71
         0
 42
0.2
  3
txt.shx
  4

  0
ENDTAB
  0
TABLE
  2
VIEW
  5
5
100
AcDbSymbolTable
 70
         0
  0
ENDTAB
  0
TABLE
  2
UCS
  5
6
100
AcDbSymbolTable
 70
         1
  0
UCS
  5
20
100
AcDbSymbolTableRecord
100
AcDbUCSTableRecord
  2
CK_VIEW_1
 70
         0
 10
0.0
 20
0.0
 30
1.0
 11
1.0
 21
0.0
 31
0.0
 12
0.0
 22
1.0
 32
0.0
  0
ENDTAB
  0
TABLE
  2
APPID
  5
8
100
AcDbSymbolTable
 70
         1
  0
APPID
  5
16
100
AcDbSymbolTableRecord
100
AcDbRegAppTableRecord
  2
ACAD
 70
         0
  0
ENDTAB
  0
TABLE
  2
DIMSTYLE
  5
9
100
AcDbSymbolTable
 70
         2
  0
DIMSTYLE
105
18
100
AcDbSymbolTableRecord
100
AcDbDimStyleTableRecord
  2
STANDARD
 70
         0
  3

  4

  5

  6

  7

 40
1.0
 41
0.18
 42
0.0625
 43
0.38
 44
0.18
 45
0.0
 46
0.0
 47
0.0
 48
0.0
 71
         0
 72
         0
 73
         1
 74
         1
 75
         0
 76
         0
 77
         0
 78
         0
140
0.18
141
0.09
142
0.0
143
25.4
144
1.0
145
0.0
146
1.0
147
0.09
170
         0
171
         2
172
         0
173
         0
174
         0
175
         0
176
         0
177
         0
178
         0
270
         2
271
         4
272
         4
273
         2
274
         2
275
         0
280
         0
281
         0
282
         0
283
         1
284
         0
285
         0
286
         0
287
         0
288
         0
340
17
  0
DIMSTYLE
105
2AE
100
AcDbSymbolTableRecord
100
AcDbDimStyleTableRecord
  2
DIMSTYLE1
 70
         0
  3

  4

  5

  6

  7

 40
1.0
 41
3.5
 42
0.0625
 43
0.38
 44
3.5
 45
0.0
 46
0.0
 47
0.0
 48
0.0
 71
         0
 72
         0
 73
         1
 74
         1
 75
         0
 76
         0
 77
         0
 78
         0
140
3.5
141
0.09
142
0.0
143
25.4
144
1.0
145
0.0
146
1.0
147
0.09
170
         0
171
         2
172
         0
173
         0
174
         0
175
         0
176
         0
177
         0
178
         0
270
         2
271
         4
272
         4
273
         2
274
         2
275
         0
280
         0
281
         0
282
         0
283
         1
284
         0
285
         0
286
         0
287
         0
288
         0
340
17
  0
ENDTAB
  0
TABLE
  2
BLOCK_RECORD
  5
1
100
AcDbSymbolTable
 70
        23
  0
BLOCK_RECORD
  5
A
100
AcDbSymbolTableRecord
100
AcDbBlockTableRecord
  2
*MODEL_SPACE
  0
BLOCK_RECORD
  5
B
100
AcDbSymbolTableRecord
100
AcDbBlockTableRecord
  2
*PAPER_SPACE
  0
BLOCK_RECORD
  5
254
100
AcDbSymbolTableRecord
100
AcDbBlockTableRecord
  2
*X0
  0
BLOCK_RECORD
  5
2AF
100
AcDbSymbolTableRecord
100
AcDbBlockTableRecord
  2
*D1
  0
BLOCK_RECORD
  5
2BE
100
AcDbSymbolTableRecord
100
AcDbBlockTableRecord
  2
*D2
  0
BLOCK_RECORD
  5
2CE
100
AcDbSymbolTableRecord
100
AcDbBlockTableRecord
  2
*D3
  0
BLOCK_RECORD
  5
2DC
100
AcDbSymbolTableRecord
100
AcDbBlockTableRecord
  2
*D4
  0
BLOCK_RECORD
  5
2EB
100
AcDbSymbolTableRecord
100
AcDbBlockTableRecord
  2
*X5
  0
BLOCK_RECORD
  5
332
100
AcDbSymbolTableRecord
100
AcDbBlockTableRecord
  2
*D6
  0
BLOCK_RECORD
  5
340
100
AcDbSymbolTableRecord
100
AcDbBlockTableRecord
  2
*D7
  0
BLOCK_RECORD
  5
34E
100
AcDbSymbolTableRecord
100
AcDbBlockTableRecord
  2
*D8
  0
BLOCK_RECORD
  5
37D
100
AcDbSymbolTableRecord
100
AcDbBlockTableRecord
  2
*D9
  0
BLOCK_RECORD
  5
3A4
100
AcDbSymbolTableRecord
100
AcDbBlockTableRecord
  2
*D10
  0
BLOCK_RECORD
  5
3B2
100
AcDbSymbolTableRecord
100
AcDbBlockTableRecord
  2
*D11
  0
BLOCK_RECORD
  5
3C6
100
AcDbSymbolTableRecord
100
AcDbBlockTableRecord
  2
*D12
  0
BLOCK_RECORD
  5
3DD
100
AcDbSymbolTableRecord
100
AcDbBlockTableRecord
  2
*D13
  0
BLOCK_RECORD
  5
3EB
100
AcDbSymbolTableRecord
100
AcDbBlockTableRecord
  2
*D14
  0
BLOCK_RECORD
  5
409
100
AcDbSymbolTableRecord
100
AcDbBlockTableRecord
  2
*D15
  0
BLOCK_RECORD
  5
421
100
AcDbSymbolTableRecord
100
AcDbBlockTableRecord
  2
*D16
  0
BLOCK_RECORD
  5
430
100
AcDbSymbolTableRecord
100
AcDbBlockTableRecord
  2
*D17
  0
BLOCK_RECORD
  5
445
100
AcDbSymbolTableRecord
100
AcDbBlockTableRecord
  2
*D18
  0
BLOCK_RECORD
  5
453
100
AcDbSymbolTableRecord
100
AcDbBlockTableRecord
  2
*D19
  0
BLOCK_RECORD
  5
47C
100
AcDbSymbolTableRecord
100
AcDbBlockTableRecord
  2
*D20
  0
BLOCK_RECORD
  5
5BD
100
AcDbSymbolTableRecord
100
AcDbBlockTableRecord
  2
*X21
  0
BLOCK_RECORD
  5
632
100
AcDbSymbolTableRecord
100
AcDbBlockTableRecord
  2
*D22
  0
ENDTAB
  0
ENDSEC
  0
SECTION
  2
BLOCKS
  0
BLOCK
  5
D
100
AcDbEntity
  8
0
100
AcDbBlockBegin
  2
*MODEL_SPACE
 70
         0
 10
0.0
 20
0.0
 30
0.0
  3
*MODEL_SPACE
  1

  0
ENDBLK
  5
E
100
AcDbEntity
  8
0
100
AcDbBlockEnd
  0
BLOCK
  5
F
100
AcDbEntity
 67
         1
  8
0
100
AcDbBlockBegin
  2
*PAPER_SPACE
 70
         0
 10
0.0
 20
0.0
 30
0.0
  3
*PAPER_SPACE
  1

  0
ENDBLK
  5
10
100
AcDbEntity
 67
         1
  8
0
100
AcDbBlockEnd
  0
BLOCK
  5
255
100
AcDbEntity
  8
0
100
AcDbBlockBegin
  2
*X0
 70
        65
 10
0.0
 20
0.0
 30
0.0
  3
*X0
  1

  0
LINE
  5
256
100
AcDbEntity
  8
L1_
  6
CONTINUOUS
 62
         1
100
AcDbLine
 10
-9815.0548159961
 20
11958.3503198193
 30
0.0
 11
-9810.4705485269
 21
11962.9345872885
 31
0.0
  0
LINE
  5
257
100
AcDbEntity
  8
L1_
  6
CONTINUOUS
 62
         1
100
AcDbLine
 10
-9810.3048159961
 20
11963.1003198193
 30
0.0
 11
-9809.9705485269
 21
11963.4345872885
 31
0.0
  0
LINE
  5
258
100
AcDbEntity
  8
L1_
  6
CONTINUOUS
 62
         1
100
AcDbLine
 10
-9819.2974566832
 20
11958.3503198193
 30
0.0
 11
-9814.8974566832
 21
11962.7503198193
 31
0.0
  0
LINE
  5
259
100
AcDbEntity
  8
L1_
  6
CONTINUOUS
 62
         1
100
AcDbLine
 10
-9814.7705485269
 20
11962.8772279756
 30
0.0
 11
-9810.3974566832
 21
11967.2503198193
 31
0.0
  0
LINE
  5
25A
100
AcDbEntity
  8
L1_
  6
CONTINUOUS
 62
         1
100
AcDbLine
 10
-9821.7400973703
 20
11960.1503198193
 30
0.0
 11
-9819.6515953449
 21
11962.2388218447
 31
0.0
  0
LINE
  5
25B
100
AcDbEntity
  8
L1_
  6
CONTINUOUS
 62
         1
100
AcDbLine
 10
-9814.7705485269
 20
11967.1198686627
 30
0.0
 11
-9813.4650973703
 21
11968.4253198193
 31
0.0
  0
LINE
  5
25C
100
AcDbEntity
  8
L1_
  6
CONTINUOUS
 62
         1
100
AcDbLine
 10
-9825.9827380574
 20
11960.1503198193
 30
0.0
 11
-9823.1327380574
 21
11963.0003198193
 31
0.0
  0
LINE
  5
25D
100
AcDbEntity
  8
L1_
  6
CONTINUOUS
 62
         1
100
AcDbLine
 10
-9832.0246469508
 20
11958.3510516131
 30
0.0
 11
-9827.3753787445
 21
11963.0003198193
 31
0.0
  0
LINE
  5
25E
100
AcDbEntity
  8
L1_
  6
CONTINUOUS
 62
         1
100
AcDbLine
 10
-9833.9705485269
 20
11960.6477907241
 30
0.0
 11
-9831.6180194316
 21
11963.0003198193
 31
0.0
  0
LINE
  5
25F
100
AcDbEntity
  8
L1_
  6
CONTINUOUS
 62
         1
100
AcDbLine
 10
-9814.7705485269
 20
11988.3330720983
 30
0.0
 11
-9809.9705485269
 21
11993.1330720983
 31
0.0
  0
LINE
  5
260
100
AcDbEntity
  8
L1_
  6
CONTINUOUS
 62
         1
100
AcDbLine
 10
-9814.7705485269
 20
11992.5757127854
 30
0.0
 11
-9810.5264378489
 21
11996.8198234634
 31
0.0
  0
LINE
  5
261
100
AcDbEntity
  8
L1_
  6
CONTINUOUS
 62
         1
100
AcDbLine
 10
-9816.7633922523
 20
11994.8255097471
 30
0.0
 11
-9813.2385821801
 21
11998.3503198193
 31
0.0
  0
LINE
  5
262
100
AcDbEntity
  8
L1_
  6
CONTINUOUS
 62
         1
100
AcDbLine
 10
-9822.1312228672
 20
11993.7003198193
 30
0.0
 11
-9817.4812228672
 21
11998.3503198193
 31
0.0
  0
LINE
  5
263
100
AcDbEntity
  8
L1_
  6
CONTINUOUS
 62
         1
100
AcDbLine
 10
-9826.3738635544
 20
11993.7003198193
 30
0.0
 11
-9823.5238635544
 21
11996.5503198193
 31
0.0
  0
LINE
  5
264
100
AcDbEntity
  8
L1_
  6
CONTINUOUS
 62
         1
100
AcDbLine
 10
-9830.6165042415
 20
11993.7003198193
 30
0.0
 11
-9827.7665042415
 21
11996.5503198193
 31
0.0
  0
LINE
  5
265
100
AcDbEntity
  8
L1_
  6
CONTINUOUS
 62
         1
100
AcDbLine
 10
-9833.7574557955
 20
11994.8020089525
 30
0.0
 11
-9830.2091449286
 21
11998.3503198193
 31
0.0
  0
ENDBLK
  5
266
100
AcDbEntity
  8
0
  6
CONTINUOUS
100
AcDbBlockEnd
  0
BLOCK
  5
2B0
100
AcDbEntity
  8
0
100
AcDbBlockBegin
  2
*D1
 70
        65
 10
0.0
 20
0.0
 30
0.0
  3
*D1
  1

  0
POINT
  5
2B3
100
AcDbEntity
  8
DEFPOINTS
  6
CONTINUOUS
 62
         0
100
AcDbPoint
 10
-9834.7705485269
 20
11933.076250872
 30
0.0
  0
POINT
  5
2B4
100
AcDbEntity
  8
DEFPOINTS
  6
CONTINUOUS
 62
         0
100
AcDbPoint
 10
-9834.7705485269
 20
11958.8503198193
 30
0.0
  0
POINT
  5
2B5
100
AcDbEntity
  8
DEFPOINTS
  6
CONTINUOUS
 62
         0
100
AcDbPoint
 10
-9814.7705485269
 20
11964.4003198193
 30
0.0
  0
LINE
  5
2B6
100
AcDbEntity
  8
L1_
  6
CONTINUOUS
 62
         4
100
AcDbLine
 10
-9834.7705485269
 20
11957.1003198193
 30
0.0
 11
-9834.7705485269
 21
11932.201250872
 31
0.0
  0
LINE
  5
2B7
100
AcDbEntity
  8
L1_
  6
CONTINUOUS
 62
         4
100
AcDbLine
 10
-9814.7705485269
 20
11962.6503198193
 30
0.0
 11
-9814.7705485269
 21
11932.201250872
 31
0.0
  0
LINE
  5
2B8
100
AcDbEntity
  8
L1_
  6
CONTINUOUS
 62
         4
100
AcDbLine
 10
-9834.7705485269
 20
11933.076250872
 30
0.0
 11
-9814.7705485269
 21
11933.076250872
 31
0.0
  0
SOLID
  5
2B9
100
AcDbEntity
  8
L1_
  6
CONTINUOUS
 62
         4
100
AcDbTrace
 10
-9834.7705485269
 20
11933.076250872
 30
0.0
 11
-9831.2705485269
 21
11933.601250872
 31
0.0
 12
-9831.2705485269
 22
11932.551250872
 32
0.0
 13
-9834.7705485269
 23
11933.076250872
 33
0.0
  0
SOLID
  5
2BA
100
AcDbEntity
  8
L1_
  6
CONTINUOUS
 62
         4
100
AcDbTrace
 10
-9814.7705485269
 20
11933.076250872
 30
0.0
 11
-9818.2705485269
 21
11932.551250872
 31
0.0
 12
-9818.2705485269
 22
11933.601250872
 32
0.0
 13
-9814.7705485269
 23
11933.076250872
 33
0.0
  0
TEXT
  5
2BC
100
AcDbEntity
  8
L1_
  6
CONTINUOUS
 62
         4
100
AcDbText
 10
-9831.2913806934
 20
11935.176250872
 30
0.0
 40
3.5
  1
20
  7
BOX
100
AcDbText
  0
ENDBLK
  5
2BD
100
AcDbEntity
  8
0
  6
CONTINUOUS
100
AcDbBlockEnd
  0
BLOCK
  5
2BF
100
AcDbEntity
  8
0
100
AcDbBlockBegin
  2
*D2
 70
        65
 10
0.0
 20
0.0
 30
0.0
  3
*D2
  1

  0
POINT
  5
2C1
100
AcDbEntity
  8
DEFPOINTS
  6
CONTINUOUS
 62
         0
100
AcDbPoint
 10
-9816.7705485269
 20
11944.8399339599
 30
0.0
  0
POINT
  5
2C2
100
AcDbEntity
  8
DEFPOINTS
  6
CONTINUOUS
 62
         0
100
AcDbPoint
 10
-9816.7705485269
 20
11964.4003198193
 30
0.0
  0
POINT
  5
2C3
100
AcDbEntity
  8
DEFPOINTS
  6
CONTINUOUS
 62
         0
100
AcDbPoint
 10
-9814.7705485269
 20
11965.2003198193
 30
0.0
  0
LINE
  5
2C4
100
AcDbEntity
  8
L1_
  6
CONTINUOUS
 62
         4
100
AcDbLine
 10
-9816.7705485269
 20
11962.6503198193
 30
0.0
 11
-9816.7705485269
 21
11943.9649339599
 31
0.0
  0
LINE
  5
2C5
100
AcDbEntity
  8
L1_
  6
CONTINUOUS
 62
         4
100
AcDbLine
 10
-9814.7705485269
 20
11963.4503198193
 30
0.0
 11
-9814.7705485269
 21
11943.9649339599
 31
0.0
  0
LINE
  5
2C6
100
AcDbEntity
  8
L1_
  6
CONTINUOUS
 62
         4
100
AcDbLine
 10
-9816.7705485269
 20
11944.8399339599
 30
0.0
 11
-9823.7705485269
 21
11944.8399339599
 31
0.0
  0
SOLID
  5
2C7
100
AcDbEntity
  8
L1_
  6
CONTINUOUS
 62
         4
100
AcDbTrace
 10
-9816.7705485269
 20
11944.8399339599
 30
0.0
 11
-9820.2705485269
 21
11944.3149339599
 31
0.0
 12
-9820.2705485269
 22
11945.3649339599
 32
0.0
 13
-9816.7705485269
 23
11944.8399339599
 33
0.0
  0
LINE
  5
2C8
100
AcDbEntity
  8
L1_
  6
CONTINUOUS
 62
         4
100
AcDbLine
 10
-9814.7705485269
 20
11944.8399339599
 30
0.0
 11
-9806.9787904886
 21
11944.8399339599
 31
0.0
  0
SOLID
  5
2C9
100
AcDbEntity
  8
L1_
  6
CONTINUOUS
 62
         4
100
AcDbTrace
 10
-9814.7705485269
 20
11944.8399339599
 30
0.0
 11
-9811.2705485269
 21
11945.3649339599
 31
0.0
 12
-9811.2705485269
 22
11944.3149339599
 32
0.0
 13
-9814.7705485269
 23
11944.8399339599
 33
0.0
  0
LINE
  5
2CA
100
AcDbEntity
  8
L1_
  6
CONTINUOUS
 62
         4
100
AcDbLine
 10
-9816.7705485269
 20
11944.8399339599
 30
0.0
 11
-9814.7705485269
 21
11944.8399339599
 31
0.0
  0
TEXT
  5
2CC
100
AcDbEntity
  8
L1_
  6
CONTINUOUS
 62
         4
100
AcDbText
 10
-9812.2287904886
 20
11946.9399339599
 30
0.0
 40
3.5
  1
2
  7
BOX
100
AcDbText
  0
ENDBLK
  5
2CD
100
AcDbEntity
  8
0
  6
CONTINUOUS
100
AcDbBlockEnd
  0
BLOCK
  5
2CF
100
AcDbEntity
  8
0
100
AcDbBlockBegin
  2
*D3
 70
        65
 10
0.0
 20
0.0
 30
0.0
  3
*D3
  1

  0
POINT
  5
2D1
100
AcDbEntity
  8
DEFPOINTS
  6
CONTINUOUS
 62
         0
100
AcDbPoint
 10
-9790.8698942765
 20
11993.3003198193
 30
0.0
  0
POINT
  5
2D2
100
AcDbEntity
  8
DEFPOINTS
  6
CONTINUOUS
 62
         0
100
AcDbPoint
 10
-9815.7705485269
 20
11993.3003198193
 30
0.0
  0
POINT
  5
2D3
100
AcDbEntity
  8
DEFPOINTS
  6
CONTINUOUS
 62
         0
100
AcDbPoint
 10
-9815.7705485269
 20
11963.4003198193
 30
0.0
  0
LINE
  5
2D4
100
AcDbEntity
  8
L1_
  6
CONTINUOUS
 62
         4
100
AcDbLine
 10
-9814.0205485269
 20
11993.3003198193
 30
0.0
 11
-9789.9948942765
 21
11993.3003198193
 31
0.0
  0
LINE
  5
2D5
100
AcDbEntity
  8
L1_
  6
CONTINUOUS
 62
         4
100
AcDbLine
 10
-9814.0205485269
 20
11963.4003198193
 30
0.0
 11
-9789.9948942765
 21
11963.4003198193
 31
0.0
  0
LINE
  5
2D6
100
AcDbEntity
  8
L1_
  6
CONTINUOUS
 62
         4
100
AcDbLine
 10
-9790.8698942765
 20
11993.3003198193
 30
0.0
 11
-9790.8698942765
 21
11963.4003198193
 31
0.0
  0
SOLID
  5
2D7
100
AcDbEntity
  8
L1_
  6
CONTINUOUS
 62
         4
100
AcDbTrace
 10
-9790.8698942765
 20
11993.3003198193
 30
0.0
 11
-9790.3448942765
 21
11989.8003198193
 31
0.0
 12
-9791.3948942765
 22
11989.8003198193
 32
0.0
 13
-9790.8698942765
 23
11993.3003198193
 33
0.0
  0
SOLID
  5
2D8
100
AcDbEntity
  8
L1_
  6
CONTINUOUS
 62
         4
100
AcDbTrace
 10
-9790.8698942765
 20
11963.4003198193
 30
0.0
 11
-9791.3948942765
 21
11966.9003198193
 31
0.0
 12
-9790.3448942765
 22
11966.9003198193
 32
0.0
 13
-9790.8698942765
 23
11963.4003198193
 33
0.0
  0
TEXT
  5
2DA
100
AcDbEntity
  8
L1_
  6
CONTINUOUS
 62
         4
100
AcDbText
 10
-9792.9698942765
 20
11959.4977372889
 30
0.0
 40
3.5
  1
崷29.9
 50
90.0
  7
BOX
100
AcDbText
  0
ENDBLK
  5
2DB
100
AcDbEntity
  8
0
  6
CONTINUOUS
100
AcDbBlockEnd
  0
BLOCK
  5
2DD
100
AcDbEntity
  8
0
100
AcDbBlockBegin
  2
*D4
 70
        65
 10
0.0
 20
0.0
 30
0.0
  3
*D4
  1

  0
POINT
  5
2DF
100
AcDbEntity
  8
DEFPOINTS
  6
CONTINUOUS
 62
         0
100
AcDbPoint
 10
-9777.9964297652
 20
11998.3503198193
 30
0.0
  0
POINT
  5
2E0
100
AcDbEntity
  8
DEFPOINTS
  6
CONTINUOUS
 62
         0
100
AcDbPoint
 10
-9835.2705485269
 20
11998.3503198193
 30
0.0
  0
POINT
  5
2E1
100
AcDbEntity
  8
DEFPOINTS
  6
CONTINUOUS
 62
         0
100
AcDbPoint
 10
-9835.2705485269
 20
11958.3503198193
 30
0.0
  0
LINE
  5
2E2
100
AcDbEntity
  8
L1_
  6
CONTINUOUS
 62
         4
100
AcDbLine
 10
-9833.5205485269
 20
11998.3503198193
 30
0.0
 11
-9777.1214297652
 21
11998.3503198193
 31
0.0
  0
LINE
  5
2E3
100
AcDbEntity
  8
L1_
  6
CONTINUOUS
 62
         4
100
AcDbLine
 10
-9833.5205485269
 20
11958.3503198193
 30
0.0
 11
-9777.1214297652
 21
11958.3503198193
 31
0.0
  0
LINE
  5
2E4
100
AcDbEntity
  8
L1_
  6
CONTINUOUS
 62
         4
100
AcDbLine
 10
-9777.9964297652
 20
11998.3503198193
 30
0.0
 11
-9777.9964297652
 21
11958.3503198193
 31
0.0
  0
SOLID
  5
2E5
100
AcDbEntity
  8
L1_
  6
CONTINUOUS
 62
         4
100
AcDbTrace
 10
-9777.9964297652
 20
11998.3503198193
 30
0.0
 11
-9777.4714297652
 21
11994.8503198193
 31
0.0
 12
-9778.5214297652
 22
11994.8503198193
 32
0.0
 13
-9777.9964297652
 23
11998.3503198193
 33
0.0
  0
SOLID
  5
2E6
100
AcDbEntity
  8
L1_
  6
CONTINUOUS
 62
         4
100
AcDbTrace
 10
-9777.9964297652
 20
11958.3503198193
 30
0.0
 11
-9778.5214297652
 21
11961.8503198193
 31
0.0
 12
-9777.4714297652
 22
11961.8503198193
 32
0.0
 13
-9777.9964297652
 23
11958.3503198193
 33
0.0
  0
TEXT
  5
2E8
100
AcDbEntity
  8
L1_
  6
CONTINUOUS
 62
         4
100
AcDbText
 10
-9780.0964297652
 20
11966.3270815591
 30
0.0
 40
3.5
  1
崷40
 50
90.0
  7
BOX
100
AcDbText
  0
ENDBLK
  5
2E9
100
AcDbEntity
  8
0
  6
CONTINUOUS
100
AcDbBlockEnd
  0
BLOCK
  5
2EC
100
AcDbEntity
  8
0
100
AcDbBlockBegin
  2
*X5
 70
        65
 10
0.0
 20
0.0
 30
0.0
  3
*X5
  1

  0
LINE
  5
2ED
100
AcDbEntity
  8
L1_
  6
CONTINUOUS
 62
         4
100
AcDbLine
 10
-9633.4634078762
 20
11789.6131388425
 30
0.0
 11
-9628.879140407
 21
11794.1974063117
 31
0.0
  0
LINE
  5
2EE
100
AcDbEntity
  8
L1_
  6
CONTINUOUS
 62
         4
100
AcDbLine
 10
-9628.7134078762
 20
11794.3631388425
 30
0.0
 11
-9628.379140407
 21
11794.6974063117
 31
0.0
  0
LINE
  5
2EF
100
AcDbEntity
  8
L1_
  6
CONTINUOUS
 62
         4
100
AcDbLine
 10
-9637.7060485633
 20
11789.6131388425
 30
0.0
 11
-9633.3060485633
 21
11794.0131388425
 31
0.0
  0
LINE
  5
2F0
100
AcDbEntity
  8
L1_
  6
CONTINUOUS
 62
         4
100
AcDbLine
 10
-9633.179140407
 20
11794.1400469988
 30
0.0
 11
-9628.8060485633
 21
11798.5131388425
 31
0.0
  0
LINE
  5
2F1
100
AcDbEntity
  8
L1_
  6
CONTINUOUS
 62
         4
100
AcDbLine
 10
-9640.1486892505
 20
11791.4131388425
 30
0.0
 11
-9638.0601872251
 21
11793.5016408678
 31
0.0
  0
LINE
  5
2F2
100
AcDbEntity
  8
L1_
  6
CONTINUOUS
 62
         4
100
AcDbLine
 10
-9633.179140407
 20
11798.3826876859
 30
0.0
 11
-9631.8736892505
 21
11799.6881388425
 31
0.0
  0
LINE
  5
2F3
100
AcDbEntity
  8
L1_
  6
CONTINUOUS
 62
         4
100
AcDbLine
 10
-9644.3913299376
 20
11791.4131388425
 30
0.0
 11
-9641.5413299376
 21
11794.2631388425
 31
0.0
  0
LINE
  5
2F4
100
AcDbEntity
  8
L1_
  6
CONTINUOUS
 62
         4
100
AcDbLine
 10
-9650.4332388309
 20
11789.6138706362
 30
0.0
 11
-9645.7839706247
 21
11794.2631388425
 31
0.0
  0
LINE
  5
2F5
100
AcDbEntity
  8
L1_
  6
CONTINUOUS
 62
         4
100
AcDbLine
 10
-9652.379140407
 20
11791.9106097473
 30
0.0
 11
-9650.0266113118
 21
11794.2631388425
 31
0.0
  0
LINE
  5
2F6
100
AcDbEntity
  8
L1_
  6
CONTINUOUS
 62
         4
100
AcDbLine
 10
-9633.179140407
 20
11819.5958911215
 30
0.0
 11
-9628.379140407
 21
11824.3958911215
 31
0.0
  0
LINE
  5
2F7
100
AcDbEntity
  8
L1_
  6
CONTINUOUS
 62
         4
100
AcDbLine
 10
-9633.179140407
 20
11823.8385318086
 30
0.0
 11
-9628.9350297291
 21
11828.0826424866
 31
0.0
  0
LINE
  5
2F8
100
AcDbEntity
  8
L1_
  6
CONTINUOUS
 62
         4
100
AcDbLine
 10
-9635.1719841325
 20
11826.0883287703
 30
0.0
 11
-9631.6471740603
 21
11829.6131388425
 31
0.0
  0
LINE
  5
2F9
100
AcDbEntity
  8
L1_
  6
CONTINUOUS
 62
         4
100
AcDbLine
 10
-9640.5398147474
 20
11824.9631388425
 30
0.0
 11
-9635.8898147474
 21
11829.6131388425
 31
0.0
  0
LINE
  5
2FA
100
AcDbEntity
  8
L1_
  6
CONTINUOUS
 62
         4
100
AcDbLine
 10
-9644.7824554345
 20
11824.9631388425
 30
0.0
 11
-9641.9324554345
 21
11827.8131388425
 31
0.0
  0
LINE
  5
2FB
100
AcDbEntity
  8
L1_
  6
CONTINUOUS
 62
         4
100
AcDbLine
 10
-9649.0250961216
 20
11824.9631388425
 30
0.0
 11
-9646.1750961216
 21
11827.8131388425
 31
0.0
  0
LINE
  5
2FC
100
AcDbEntity
  8
L1_
  6
CONTINUOUS
 62
         4
100
AcDbLine
 10
-9652.1660476756
 20
11826.0648279756
 30
0.0
 11
-9648.6177368088
 21
11829.6131388425
 31
0.0
  0
ENDBLK
  5
2FD
100
AcDbEntity
  8
0
  6
CONTINUOUS
100
AcDbBlockEnd
  0
BLOCK
  5
333
100
AcDbEntity
  8
0
100
AcDbBlockBegin
  2
*D6
 70
        65
 10
0.0
 20
0.0
 30
0.0
  3
*D6
  1

  0
POINT
  5
335
100
AcDbEntity
  8
DEFPOINTS
  6
CONTINUOUS
 62
         0
100
AcDbPoint
 10
-9674.8040562504
 20
11829.6131388425
 30
0.0
  0
POINT
  5
336
100
AcDbEntity
  8
DEFPOINTS
  6
CONTINUOUS
 62
         0
100
AcDbPoint
 10
-9650.379140407
 20
11829.6131388425
 30
0.0
  0
POINT
  5
337
100
AcDbEntity
  8
DEFPOINTS
  6
CONTINUOUS
 62
         0
100
AcDbPoint
 10
-9650.379140407
 20
11789.6131388425
 30
0.0
  0
LINE
  5
338
100
AcDbEntity
  8
L1_
  6
CONTINUOUS
 62
         4
100
AcDbLine
 10
-9652.129140407
 20
11829.6131388425
 30
0.0
 11
-9675.6790562504
 21
11829.6131388425
 31
0.0
  0
LINE
  5
339
100
AcDbEntity
  8
L1_
  6
CONTINUOUS
 62
         4
100
AcDbLine
 10
-9652.129140407
 20
11789.6131388425
 30
0.0
 11
-9675.6790562504
 21
11789.6131388425
 31
0.0
  0
LINE
  5
33A
100
AcDbEntity
  8
L1_
  6
CONTINUOUS
 62
         4
100
AcDbLine
 10
-9674.8040562504
 20
11829.6131388425
 30
0.0
 11
-9674.8040562504
 21
11789.6131388425
 31
0.0
  0
SOLID
  5
33B
100
AcDbEntity
  8
L1_
  6
CONTINUOUS
 62
         4
100
AcDbTrace
 10
-9674.8040562504
 20
11829.6131388425
 30
0.0
 11
-9674.2790562504
 21
11826.1131388425
 31
0.0
 12
-9675.3290562503
 22
11826.1131388425
 32
0.0
 13
-9674.8040562504
 23
11829.6131388425
 33
0.0
  0
SOLID
  5
33C
100
AcDbEntity
  8
L1_
  6
CONTINUOUS
 62
         4
100
AcDbTrace
 10
-9674.8040562504
 20
11789.6131388425
 30
0.0
 11
-9675.3290562503
 21
11793.1131388425
 31
0.0
 12
-9674.2790562504
 22
11793.1131388425
 32
0.0
 13
-9674.8040562504
 23
11789.6131388425
 33
0.0
  0
TEXT
  5
33E
100
AcDbEntity
  8
L1_
  6
CONTINUOUS
 62
         4
100
AcDbText
 10
-9676.9040562504
 20
11801.2928698546
 30
0.0
 40
3.5
  1
崷40
 50
90.0
  7
BOX
100
AcDbText
  0
ENDBLK
  5
33F
100
AcDbEntity
  8
0
  6
CONTINUOUS
100
AcDbBlockEnd
  0
BLOCK
  5
341
100
AcDbEntity
  8
0
100
AcDbBlockBegin
  2
*D7
 70
        65
 10
0.0
 20
0.0
 30
0.0
  3
*D7
  1

  0
POINT
  5
343
100
AcDbEntity
  8
DEFPOINTS
  6
CONTINUOUS
 62
         0
100
AcDbPoint
 10
-9663.0519175082
 20
11825.6131388425
 30
0.0
  0
POINT
  5
344
100
AcDbEntity
  8
DEFPOINTS
  6
CONTINUOUS
 62
         0
100
AcDbPoint
 10
-9651.8547758634
 20
11825.6131388425
 30
0.0
  0
POINT
  5
345
100
AcDbEntity
  8
DEFPOINTS
  6
CONTINUOUS
 62
         0
100
AcDbPoint
 10
-9651.8547758634
 20
11793.6131388425
 30
0.0
  0
LINE
  5
346
100
AcDbEntity
  8
L1_
  6
CONTINUOUS
 62
         4
100
AcDbLine
 10
-9653.6047758634
 20
11825.6131388425
 30
0.0
 11
-9663.9269175082
 21
11825.6131388425
 31
0.0
  0
LINE
  5
347
100
AcDbEntity
  8
L1_
  6
CONTINUOUS
 62
         4
100
AcDbLine
 10
-9653.6047758634
 20
11793.6131388425
 30
0.0
 11
-9663.9269175082
 21
11793.6131388425
 31
0.0
  0
LINE
  5
348
100
AcDbEntity
  8
L1_
  6
CONTINUOUS
 62
         4
100
AcDbLine
 10
-9663.0519175082
 20
11825.6131388425
 30
0.0
 11
-9663.0519175082
 21
11793.6131388425
 31
0.0
  0
SOLID
  5
349
100
AcDbEntity
  8
L1_
  6
CONTINUOUS
 62
         4
100
AcDbTrace
 10
-9663.0519175082
 20
11825.6131388425
 30
0.0
 11
-9662.5269175082
 21
11822.1131388425
 31
0.0
 12
-9663.5769175082
 22
11822.1131388425
 32
0.0
 13
-9663.0519175082
 23
11825.6131388425
 33
0.0
  0
SOLID
  5
34A
100
AcDbEntity
  8
L1_
  6
CONTINUOUS
 62
         4
100
AcDbTrace
 10
-9663.0519175082
 20
11793.6131388425
 30
0.0
 11
-9663.5769175082
 21
11797.1131388425
 31
0.0
 12
-9662.5269175082
 22
11797.1131388425
 32
0.0
 13
-9663.0519175082
 23
11793.6131388425
 33
0.0
  0
TEXT
  5
34C
100
AcDbEntity
  8
L1_
  6
CONTINUOUS
 62
         4
100
AcDbText
 10
-9665.1519175082
 20
11790.6454342285
 30
0.0
 40
3.5
  1
M32xP1.5-5H
 50
90.0
  7
BOX
100
AcDbText
  0
ENDBLK
  5
34D
100
AcDbEntity
  8
0
  6
CONTINUOUS
100
AcDbBlockEnd
  0
BLOCK
  5
34F
100
AcDbEntity
  8
0
100
AcDbBlockBegin
  2
*D8
 70
        65
 10
0.0
 20
0.0
 30
0.0
  3
*D8
  1

  0
POINT
  5
351
100
AcDbEntity
  8
DEFPOINTS
  6
CONTINUOUS
 62
         0
100
AcDbPoint
 10
-9652.379140407
 20
11836.0521955494
 30
0.0
  0
POINT
  5
352
100
AcDbEntity
  8
DEFPOINTS
  6
CONTINUOUS
 62
         0
100
AcDbPoint
 10
-9652.379140407
 20
11827.6131388425
 30
0.0
  0
POINT
  5
353
100
AcDbEntity
  8
DEFPOINTS
  6
CONTINUOUS
 62
         0
100
AcDbPoint
 10
-9628.379140407
 20
11824.8631388425
 30
0.0
  0
LINE
  5
354
100
AcDbEntity
  8
L1_
  6
CONTINUOUS
 62
         4
100
AcDbLine
 10
-9652.379140407
 20
11829.3631388425
 30
0.0
 11
-9652.379140407
 21
11836.9271955494
 31
0.0
  0
LINE
  5
355
100
AcDbEntity
  8
L1_
  6
CONTINUOUS
 62
         4
100
AcDbLine
 10
-9628.379140407
 20
11826.6131388425
 30
0.0
 11
-9628.379140407
 21
11836.9271955494
 31
0.0
  0
LINE
  5
356
100
AcDbEntity
  8
L1_
  6
CONTINUOUS
 62
         4
100
AcDbLine
 10
-9652.379140407
 20
11836.0521955494
 30
0.0
 11
-9628.379140407
 21
11836.0521955494
 31
0.0
  0
SOLID
  5
357
100
AcDbEntity
  8
L1_
  6
CONTINUOUS
 62
         4
100
AcDbTrace
 10
-9652.379140407
 20
11836.0521955494
 30
0.0
 11
-9648.879140407
 21
11836.5771955494
 31
0.0
 12
-9648.879140407
 22
11835.5271955494
 32
0.0
 13
-9652.379140407
 23
11836.0521955494
 33
0.0
  0
SOLID
  5
358
100
AcDbEntity
  8
L1_
  6
CONTINUOUS
 62
         4
100
AcDbTrace
 10
-9628.379140407
 20
11836.0521955494
 30
0.0
 11
-9631.879140407
 21
11835.5271955494
 31
0.0
 12
-9631.879140407
 22
11836.5771955494
 32
0.0
 13
-9628.379140407
 23
11836.0521955494
 33
0.0
  0
TEXT
  5
35A
100
AcDbEntity
  8
L1_
  6
CONTINUOUS
 62
         4
100
AcDbText
 10
-9643.879140407
 20
11838.1521955494
 30
0.0
 40
3.5
  1
24
  7
BOX
100
AcDbText
  0
ENDBLK
  5
35B
100
AcDbEntity
  8
0
  6
CONTINUOUS
100
AcDbBlockEnd
  0
BLOCK
  5
37E
100
AcDbEntity
  8
0
100
AcDbBlockBegin
  2
*D9
 70
        65
 10
0.0
 20
0.0
 30
0.0
  3
*D9
  1

  0
POINT
  5
380
100
AcDbEntity
  8
DEFPOINTS
  6
CONTINUOUS
 62
         0
100
AcDbPoint
 10
-9649.7344205126
 20
11743.2806049139
 30
0.0
  0
POINT
  5
381
100
AcDbEntity
  8
DEFPOINTS
  6
CONTINUOUS
 62
         0
100
AcDbPoint
 10
-9649.7344205126
 20
11734.6292975241
 30
0.0
  0
POINT
  5
382
100
AcDbEntity
  8
DEFPOINTS
  6
CONTINUOUS
 62
         0
100
AcDbPoint
 10
-9651.7344205126
 20
11734.6292975241
 30
0.0
  0
LINE
  5
383
100
AcDbEntity
  8
L1_
  6
CONTINUOUS
 62
         4
100
AcDbLine
 10
-9649.7344205126
 20
11736.3792975241
 30
0.0
 11
-9649.7344205126
 21
11744.1556049139
 31
0.0
  0
LINE
  5
384
100
AcDbEntity
  8
L1_
  6
CONTINUOUS
 62
         4
100
AcDbLine
 10
-9651.7344205126
 20
11736.3792975241
 30
0.0
 11
-9651.7344205126
 21
11744.1556049139
 31
0.0
  0
LINE
  5
385
100
AcDbEntity
  8
L1_
  6
CONTINUOUS
 62
         4
100
AcDbLine
 10
-9649.7344205126
 20
11743.2806049139
 30
0.0
 11
-9642.7344205126
 21
11743.2806049139
 31
0.0
  0
SOLID
  5
386
100
AcDbEntity
  8
L1_
  6
CONTINUOUS
 62
         4
100
AcDbTrace
 10
-9649.7344205126
 20
11743.2806049139
 30
0.0
 11
-9646.2344205126
 21
11743.8056049139
 31
0.0
 12
-9646.2344205126
 22
11742.7556049139
 32
0.0
 13
-9649.7344205126
 23
11743.2806049139
 33
0.0
  0
LINE
  5
387
100
AcDbEntity
  8
L1_
  6
CONTINUOUS
 62
         4
100
AcDbLine
 10
-9651.7344205126
 20
11743.2806049139
 30
0.0
 11
-9658.7344205126
 21
11743.2806049139
 31
0.0
  0
SOLID
  5
388
100
AcDbEntity
  8
L1_
  6
CONTINUOUS
 62
         4
100
AcDbTrace
 10
-9651.7344205126
 20
11743.2806049139
 30
0.0
 11
-9655.2344205126
 21
11742.7556049139
 31
0.0
 12
-9655.2344205126
 22
11743.8056049139
 32
0.0
 13
-9651.7344205126
 23
11743.2806049139
 33
0.0
  0
LINE
  5
389
100
AcDbEntity
  8
L1_
  6
CONTINUOUS
 62
         4
100
AcDbLine
 10
-9649.7344205126
 20
11743.2806049139
 30
0.0
 11
-9651.7344205126
 21
11743.2806049139
 31
0.0
  0
TEXT
  5
38B
100
AcDbEntity
  8
L1_
  6
CONTINUOUS
 62
         4
100
AcDbText
 10
-9652.4844205126
 20
11745.3806049139
 30
0.0
 40
3.5
  1
2
  7
BOX
100
AcDbText
  0
ENDBLK
  5
38C
100
AcDbEntity
  8
0
  6
CONTINUOUS
100
AcDbBlockEnd
  0
BLOCK
  5
3A5
100
AcDbEntity
  8
0
100
AcDbBlockBegin
  2
*D10
 70
        65
 10
0.0
 20
0.0
 30
0.0
  3
*D10
  1

  0
POINT
  5
3A7
100
AcDbEntity
  8
DEFPOINTS
  6
CONTINUOUS
 62
         0
100
AcDbPoint
 10
-9606.0207130357
 20
11737.7781775648
 30
0.0
  0
POINT
  5
3A8
100
AcDbEntity
  8
DEFPOINTS
  6
CONTINUOUS
 62
         0
100
AcDbPoint
 10
-9623.8134348357
 20
11737.7781775648
 30
0.0
  0
POINT
  5
3A9
100
AcDbEntity
  8
DEFPOINTS
  6
CONTINUOUS
 62
         0
100
AcDbPoint
 10
-9623.8134348357
 20
11720.3181775648
 30
0.0
  0
LINE
  5
3AA
100
AcDbEntity
  8
L1_
  6
CONTINUOUS
 62
         4
100
AcDbLine
 10
-9622.0634348357
 20
11737.7781775648
 30
0.0
 11
-9605.1457130357
 21
11737.7781775648
 31
0.0
  0
LINE
  5
3AB
100
AcDbEntity
  8
L1_
  6
CONTINUOUS
 62
         4
100
AcDbLine
 10
-9622.0634348357
 20
11720.3181775648
 30
0.0
 11
-9605.1457130357
 21
11720.3181775648
 31
0.0
  0
LINE
  5
3AC
100
AcDbEntity
  8
L1_
  6
CONTINUOUS
 62
         4
100
AcDbLine
 10
-9606.0207130357
 20
11737.7781775648
 30
0.0
 11
-9606.0207130357
 21
11720.3181775648
 31
0.0
  0
SOLID
  5
3AD
100
AcDbEntity
  8
L1_
  6
CONTINUOUS
 62
         4
100
AcDbTrace
 10
-9606.0207130357
 20
11737.7781775648
 30
0.0
 11
-9605.4957130357
 21
11734.2781775648
 31
0.0
 12
-9606.5457130357
 22
11734.2781775648
 32
0.0
 13
-9606.0207130357
 23
11737.7781775648
 33
0.0
  0
SOLID
  5
3AE
100
AcDbEntity
  8
L1_
  6
CONTINUOUS
 62
         4
100
AcDbTrace
 10
-9606.0207130357
 20
11720.3181775648
 30
0.0
 11
-9606.5457130357
 21
11723.8181775648
 31
0.0
 12
-9605.4957130357
 22
11723.8181775648
 32
0.0
 13
-9606.0207130357
 23
11720.3181775648
 33
0.0
  0
TEXT
  5
3B0
100
AcDbEntity
  8
L1_
  6
CONTINUOUS
 62
         4
100
AcDbText
 10
-9608.1207130357
 20
11716.9338205894
 30
0.0
 40
3.5
  1
M18xP1.5
 50
90.0
  7
BOX
100
AcDbText
  0
ENDBLK
  5
3B1
100
AcDbEntity
  8
0
  6
CONTINUOUS
100
AcDbBlockEnd
  0
BLOCK
  5
3B3
100
AcDbEntity
  8
0
100
AcDbBlockBegin
  2
*D11
 70
        65
 10
0.0
 20
0.0
 30
0.0
  3
*D11
  1

  0
POINT
  5
3B5
100
AcDbEntity
  8
DEFPOINTS
  6
CONTINUOUS
 62
         0
100
AcDbPoint
 10
-9633.3384348357
 20
11746.3752874808
 30
0.0
  0
POINT
  5
3B6
100
AcDbEntity
  8
DEFPOINTS
  6
CONTINUOUS
 62
         0
100
AcDbPoint
 10
-9633.3384348357
 20
11732.6281775648
 30
0.0
  0
POINT
  5
3B7
100
AcDbEntity
  8
DEFPOINTS
  6
CONTINUOUS
 62
         0
100
AcDbPoint
 10
-9620.3384348357
 20
11732.6281775648
 30
0.0
  0
LINE
  5
3B8
100
AcDbEntity
  8
L1_
  6
CONTINUOUS
 62
         4
100
AcDbLine
 10
-9633.3384348357
 20
11734.3781775648
 30
0.0
 11
-9633.3384348357
 21
11747.2502874808
 31
0.0
  0
LINE
  5
3B9
100
AcDbEntity
  8
L1_
  6
CONTINUOUS
 62
         4
100
AcDbLine
 10
-9620.3384348357
 20
11734.3781775648
 30
0.0
 11
-9620.3384348357
 21
11747.2502874808
 31
0.0
  0
LINE
  5
3BA
100
AcDbEntity
  8
L1_
  6
CONTINUOUS
 62
         4
100
AcDbLine
 10
-9633.3384348357
 20
11746.3752874808
 30
0.0
 11
-9620.3384348357
 21
11746.3752874808
 31
0.0
  0
SOLID
  5
3BB
100
AcDbEntity
  8
L1_
  6
CONTINUOUS
 62
         4
100
AcDbTrace
 10
-9633.3384348357
 20
11746.3752874808
 30
0.0
 11
-9629.8384348357
 21
11746.9002874808
 31
0.0
 12
-9629.8384348357
 22
11745.8502874808
 32
0.0
 13
-9633.3384348357
 23
11746.3752874808
 33
0.0
  0
SOLID
  5
3BC
100
AcDbEntity
  8
L1_
  6
CONTINUOUS
 62
         4
100
AcDbTrace
 10
-9620.3384348357
 20
11746.3752874808
 30
0.0
 11
-9623.8384348357
 21
11745.8502874808
 31
0.0
 12
-9623.8384348357
 22
11746.9002874808
 32
0.0
 13
-9620.3384348357
 23
11746.3752874808
 33
0.0
  0
TEXT
  5
3BE
100
AcDbEntity
  8
L1_
  6
CONTINUOUS
 62
         4
100
AcDbText
 10
-9630.3384348357
 20
11748.4752874808
 30
0.0
 40
3.5
  1
13
  7
BOX
100
AcDbText
  0
ENDBLK
  5
3BF
100
AcDbEntity
  8
0
  6
CONTINUOUS
100
AcDbBlockEnd
  0
BLOCK
  5
3C7
100
AcDbEntity
  8
0
100
AcDbBlockBegin
  2
*D12
 70
        65
 10
0.0
 20
0.0
 30
0.0
  3
*D12
  1

  0
POINT
  5
3C9
100
AcDbEntity
  8
DEFPOINTS
  6
CONTINUOUS
 62
         0
100
AcDbPoint
 10
-9914.7705485269
 20
11681.9268160957
 30
0.0
  0
POINT
  5
3CA
100
AcDbEntity
  8
DEFPOINTS
  6
CONTINUOUS
 62
         0
100
AcDbPoint
 10
-9914.7705485269
 20
11730.3578887676
 30
0.0
  0
POINT
  5
3CB
100
AcDbEntity
  8
DEFPOINTS
  6
CONTINUOUS
 62
         0
100
AcDbPoint
 10
-9814.7705485269
 20
11725.4078887676
 30
0.0
  0
LINE
  5
3CC
100
AcDbEntity
  8
L1_
  6
CONTINUOUS
 62
         4
100
AcDbLine
 10
-9914.7705485269
 20
11728.6078887676
 30
0.0
 11
-9914.7705485269
 21
11681.0518160957
 31
0.0
  0
LINE
  5
3CD
100
AcDbEntity
  8
L1_
  6
CONTINUOUS
 62
         4
100
AcDbLine
 10
-9814.7705485269
 20
11723.6578887676
 30
0.0
 11
-9814.7705485269
 21
11681.0518160957
 31
0.0
  0
LINE
  5
3CE
100
AcDbEntity
  8
L1_
  6
CONTINUOUS
 62
         4
100
AcDbLine
 10
-9914.7705485269
 20
11681.9268160957
 30
0.0
 11
-9814.7705485269
 21
11681.9268160957
 31
0.0
  0
SOLID
  5
3CF
100
AcDbEntity
  8
L1_
  6
CONTINUOUS
 62
         4
100
AcDbTrace
 10
-9914.7705485269
 20
11681.9268160957
 30
0.0
 11
-9911.2705485269
 21
11682.4518160957
 31
0.0
 12
-9911.2705485269
 22
11681.4018160957
 32
0.0
 13
-9914.7705485269
 23
11681.9268160957
 33
0.0
  0
SOLID
  5
3D0
100
AcDbEntity
  8
L1_
  6
CONTINUOUS
 62
         4
100
AcDbTrace
 10
-9814.7705485269
 20
11681.9268160957
 30
0.0
 11
-9818.2705485269
 21
11681.4018160957
 31
0.0
 12
-9818.2705485269
 22
11682.4518160957
 32
0.0
 13
-9814.7705485269
 23
11681.9268160957
 33
0.0
  0
TEXT
  5
3D2
100
AcDbEntity
  8
L1_
  6
CONTINUOUS
 62
         4
100
AcDbText
 10
-9870.9278528954
 20
11684.0268160957
 30
0.0
 40
3.5
  1
100
  7
BOX
100
AcDbText
  0
ENDBLK
  5
3D3
100
AcDbEntity
  8
0
  6
CONTINUOUS
100
AcDbBlockEnd
  0
BLOCK
  5
3DE
100
AcDbEntity
  8
0
100
AcDbBlockBegin
  2
*D13
 70
        65
 10
0.0
 20
0.0
 30
0.0
  3
*D13
  1

  0
POINT
  5
3E0
100
AcDbEntity
  8
DEFPOINTS
  6
CONTINUOUS
 62
         0
100
AcDbPoint
 10
-9856.7705485269
 20
11695.6689159918
 30
0.0
  0
POINT
  5
3E1
100
AcDbEntity
  8
DEFPOINTS
  6
CONTINUOUS
 62
         0
100
AcDbPoint
 10
-9856.7705485269
 20
11728.9578887676
 30
0.0
  0
POINT
  5
3E2
100
AcDbEntity
  8
DEFPOINTS
  6
CONTINUOUS
 62
         0
100
AcDbPoint
 10
-9814.7705485269
 20
11724.4578887676
 30
0.0
  0
LINE
  5
3E3
100
AcDbEntity
  8
L1_
  6
CONTINUOUS
 62
         4
100
AcDbLine
 10
-9856.7705485269
 20
11727.2078887676
 30
0.0
 11
-9856.7705485269
 21
11694.7939159918
 31
0.0
  0
LINE
  5
3E4
100
AcDbEntity
  8
L1_
  6
CONTINUOUS
 62
         4
100
AcDbLine
 10
-9814.7705485269
 20
11722.7078887676
 30
0.0
 11
-9814.7705485269
 21
11694.7939159918
 31
0.0
  0
LINE
  5
3E5
100
AcDbEntity
  8
L1_
  6
CONTINUOUS
 62
         4
100
AcDbLine
 10
-9856.7705485269
 20
11695.6689159918
 30
0.0
 11
-9814.7705485269
 21
11695.6689159918
 31
0.0
  0
SOLID
  5
3E6
100
AcDbEntity
  8
L1_
  6
CONTINUOUS
 62
         4
100
AcDbTrace
 10
-9856.7705485269
 20
11695.6689159918
 30
0.0
 11
-9853.2705485269
 21
11696.1939159918
 31
0.0
 12
-9853.2705485269
 22
11695.1439159918
 32
0.0
 13
-9856.7705485269
 23
11695.6689159918
 33
0.0
  0
SOLID
  5
3E7
100
AcDbEntity
  8
L1_
  6
CONTINUOUS
 62
         4
100
AcDbTrace
 10
-9814.7705485269
 20
11695.6689159918
 30
0.0
 11
-9818.2705485269
 21
11695.1439159918
 31
0.0
 12
-9818.2705485269
 22
11696.1939159918
 32
0.0
 13
-9814.7705485269
 23
11695.6689159918
 33
0.0
  0
TEXT
  5
3E9
100
AcDbEntity
  8
L1_
  6
CONTINUOUS
 62
         4
100
AcDbText
 10
-9839.2705485269
 20
11697.7689159918
 30
0.0
 40
3.5
  1
42
  7
BOX
100
AcDbText
  0
ENDBLK
  5
3EA
100
AcDbEntity
  8
0
  6
CONTINUOUS
100
AcDbBlockEnd
  0
BLOCK
  5
3EC
100
AcDbEntity
  8
0
100
AcDbBlockBegin
  2
*D14
 70
        65
 10
0.0
 20
0.0
 30
0.0
  3
*D14
  1

  0
POINT
  5
3EE
100
AcDbEntity
  8
DEFPOINTS
  6
CONTINUOUS
 62
         0
100
AcDbPoint
 10
-9793.9454890906
 20
11751.3578887676
 30
0.0
  0
POINT
  5
3EF
100
AcDbEntity
  8
DEFPOINTS
  6
CONTINUOUS
 62
         0
100
AcDbPoint
 10
-9814.7705485269
 20
11751.3578887676
 30
0.0
  0
POINT
  5
3F0
100
AcDbEntity
  8
DEFPOINTS
  6
CONTINUOUS
 62
         0
100
AcDbPoint
 10
-9814.7705485269
 20
11727.3578887676
 30
0.0
  0
LINE
  5
3F1
100
AcDbEntity
  8
L1_
  6
CONTINUOUS
 62
         4
100
AcDbLine
 10
-9813.0205485269
 20
11751.3578887676
 30
0.0
 11
-9793.0704890906
 21
11751.3578887676
 31
0.0
  0
LINE
  5
3F2
100
AcDbEntity
  8
L1_
  6
CONTINUOUS
 62
         4
100
AcDbLine
 10
-9813.0205485269
 20
11727.3578887676
 30
0.0
 11
-9793.0704890906
 21
11727.3578887676
 31
0.0
  0
LINE
  5
3F3
100
AcDbEntity
  8
L1_
  6
CONTINUOUS
 62
         4
100
AcDbLine
 10
-9793.9454890906
 20
11751.3578887676
 30
0.0
 11
-9793.9454890906
 21
11727.3578887676
 31
0.0
  0
SOLID
  5
3F4
100
AcDbEntity
  8
L1_
  6
CONTINUOUS
 62
         4
100
AcDbTrace
 10
-9793.9454890906
 20
11751.3578887676
 30
0.0
 11
-9793.4204890906
 21
11747.8578887676
 31
0.0
 12
-9794.4704890906
 22
11747.8578887676
 32
0.0
 13
-9793.9454890906
 23
11751.3578887676
 33
0.0
  0
SOLID
  5
3F5
100
AcDbEntity
  8
L1_
  6
CONTINUOUS
 62
         4
100
AcDbTrace
 10
-9793.9454890906
 20
11727.3578887676
 30
0.0
 11
-9794.4704890906
 21
11730.8578887676
 31
0.0
 12
-9793.4204890906
 22
11730.8578887676
 32
0.0
 13
-9793.9454890906
 23
11727.3578887676
 33
0.0
  0
TEXT
  5
3F7
100
AcDbEntity
  8
L1_
  6
CONTINUOUS
 62
         4
100
AcDbText
 10
-9796.0454890906
 20
11727.3771822964
 30
0.0
 40
3.5
  1
崷24
 50
90.0
  7
BOX
100
AcDbText
  0
ENDBLK
  5
3F8
100
AcDbEntity
  8
0
  6
CONTINUOUS
100
AcDbBlockEnd
  0
BLOCK
  5
40A
100
AcDbEntity
  8
0
100
AcDbBlockBegin
  2
*D15
 70
        65
 10
0.0
 20
0.0
 30
0.0
  3
*D15
  1

  0
POINT
  5
40C
100
AcDbEntity
  8
DEFPOINTS
  6
CONTINUOUS
 62
         0
100
AcDbPoint
 10
-9846.9470476045
 20
11704.7289622661
 30
0.0
  0
POINT
  5
40D
100
AcDbEntity
  8
DEFPOINTS
  6
CONTINUOUS
 62
         0
100
AcDbPoint
 10
-9846.9470476045
 20
11729.6078887676
 30
0.0
  0
POINT
  5
40E
100
AcDbEntity
  8
DEFPOINTS
  6
CONTINUOUS
 62
         0
100
AcDbPoint
 10
-9814.7705485269
 20
11724.4578887676
 30
0.0
  0
LINE
  5
40F
100
AcDbEntity
  8
L1_
  6
CONTINUOUS
 62
         4
100
AcDbLine
 10
-9846.9470476045
 20
11727.8578887676
 30
0.0
 11
-9846.9470476045
 21
11703.8539622661
 31
0.0
  0
LINE
  5
410
100
AcDbEntity
  8
L1_
  6
CONTINUOUS
 62
         4
100
AcDbLine
 10
-9814.7705485269
 20
11722.7078887676
 30
0.0
 11
-9814.7705485269
 21
11703.8539622661
 31
0.0
  0
LINE
  5
411
100
AcDbEntity
  8
L1_
  6
CONTINUOUS
 62
         4
100
AcDbLine
 10
-9846.9470476045
 20
11704.7289622661
 30
0.0
 11
-9814.7705485269
 21
11704.7289622661
 31
0.0
  0
SOLID
  5
412
100
AcDbEntity
  8
L1_
  6
CONTINUOUS
 62
         4
100
AcDbTrace
 10
-9846.9470476045
 20
11704.7289622661
 30
0.0
 11
-9843.4470476045
 21
11705.2539622661
 31
0.0
 12
-9843.4470476045
 22
11704.2039622661
 32
0.0
 13
-9846.9470476045
 23
11704.7289622661
 33
0.0
  0
SOLID
  5
413
100
AcDbEntity
  8
L1_
  6
CONTINUOUS
 62
         4
100
AcDbTrace
 10
-9814.7705485269
 20
11704.7289622661
 30
0.0
 11
-9818.2705485269
 21
11704.2039622661
 31
0.0
 12
-9818.2705485269
 22
11705.2539622661
 32
0.0
 13
-9814.7705485269
 23
11704.7289622661
 33
0.0
  0
TEXT
  5
415
100
AcDbEntity
  8
L1_
  6
CONTINUOUS
 62
         4
100
AcDbText
 10
-9839.6087980657
 20
11706.8289622661
 30
0.0
 40
3.5
  1
32.18
  7
BOX
100
AcDbText
  0
ENDBLK
  5
416
100
AcDbEntity
  8
0
  6
CONTINUOUS
100
AcDbBlockEnd
  0
BLOCK
  5
422
100
AcDbEntity
  8
0
100
AcDbBlockBegin
  2
*D16
 70
        65
 10
0.0
 20
0.0
 30
0.0
  3
*D16
  1

  0
POINT
  5
424
100
AcDbEntity
  8
DEFPOINTS
  6
CONTINUOUS
 62
         0
100
AcDbPoint
 10
-9849.419248759
 20
11729.6078887676
 30
0.0
  0
POINT
  5
425
100
AcDbEntity
  8
DEFPOINTS
  6
CONTINUOUS
 62
         0
100
AcDbPoint
 10
-9846.9470476045
 20
11729.6078887676
 30
0.0
  0
POINT
  5
426
100
AcDbEntity
  8
DEFPOINTS
  6
CONTINUOUS
 62
         0
100
AcDbPoint
 10
-9846.9470476045
 20
11749.1078887676
 30
0.0
  0
LINE
  5
427
100
AcDbEntity
  8
L1_
  6
CONTINUOUS
 62
         4
100
AcDbLine
 10
-9848.6970476045
 20
11729.6078887676
 30
0.0
 11
-9850.294248759
 21
11729.6078887676
 31
0.0
  0
LINE
  5
428
100
AcDbEntity
  8
L1_
  6
CONTINUOUS
 62
         4
100
AcDbLine
 10
-9848.6970476045
 20
11749.1078887676
 30
0.0
 11
-9850.294248759
 21
11749.1078887676
 31
0.0
  0
LINE
  5
429
100
AcDbEntity
  8
L1_
  6
CONTINUOUS
 62
         4
100
AcDbLine
 10
-9849.419248759
 20
11729.6078887676
 30
0.0
 11
-9849.419248759
 21
11749.1078887676
 31
0.0
  0
SOLID
  5
42A
100
AcDbEntity
  8
L1_
  6
CONTINUOUS
 62
         4
100
AcDbTrace
 10
-9849.419248759
 20
11729.6078887676
 30
0.0
 11
-9849.944248759
 21
11733.1078887676
 31
0.0
 12
-9848.894248759
 22
11733.1078887676
 32
0.0
 13
-9849.419248759
 23
11729.6078887676
 33
0.0
  0
LINE
  5
42B
100
AcDbEntity
  8
L1_
  6
CONTINUOUS
 62
         4
100
AcDbLine
 10
-9849.419248759
 20
11749.1078887676
 30
0.0
 11
-9849.419248759
 21
11784.3396066324
 31
0.0
  0
SOLID
  5
42C
100
AcDbEntity
  8
L1_
  6
CONTINUOUS
 62
         4
100
AcDbTrace
 10
-9849.419248759
 20
11749.1078887676
 30
0.0
 11
-9848.894248759
 21
11745.6078887676
 31
0.0
 12
-9849.944248759
 22
11745.6078887676
 32
0.0
 13
-9849.419248759
 23
11749.1078887676
 33
0.0
  0
TEXT
  5
42E
100
AcDbEntity
  8
L1_
  6
CONTINUOUS
 62
         4
100
AcDbText
 10
-9851.519248759
 20
11761.5896066324
 30
0.0
 40
3.5
  1
崷19.5
 50
90.0
  7
BOX
100
AcDbText
  0
ENDBLK
  5
42F
100
AcDbEntity
  8
0
  6
CONTINUOUS
100
AcDbBlockEnd
  0
BLOCK
  5
431
100
AcDbEntity
  8
0
100
AcDbBlockBegin
  2
*D17
 70
        65
 10
0.0
 20
0.0
 30
0.0
  3
*D17
  1

  0
POINT
  5
433
100
AcDbEntity
  8
DEFPOINTS
  6
CONTINUOUS
 62
         0
100
AcDbPoint
 10
-9833.7705485269
 20
11764.0294427303
 30
0.0
  0
POINT
  5
434
100
AcDbEntity
  8
DEFPOINTS
  6
CONTINUOUS
 62
         0
100
AcDbPoint
 10
-9833.7705485269
 20
11755.2578887676
 30
0.0
  0
POINT
  5
435
100
AcDbEntity
  8
DEFPOINTS
  6
CONTINUOUS
 62
         0
100
AcDbPoint
 10
-9814.7705485269
 20
11753.3078887676
 30
0.0
  0
LINE
  5
436
100
AcDbEntity
  8
L1_
  6
CONTINUOUS
 62
         4
100
AcDbLine
 10
-9833.7705485269
 20
11757.0078887676
 30
0.0
 11
-9833.7705485269
 21
11764.9044427303
 31
0.0
  0
LINE
  5
437
100
AcDbEntity
  8
L1_
  6
CONTINUOUS
 62
         4
100
AcDbLine
 10
-9814.7705485269
 20
11755.0578887676
 30
0.0
 11
-9814.7705485269
 21
11764.9044427303
 31
0.0
  0
LINE
  5
438
100
AcDbEntity
  8
L1_
  6
CONTINUOUS
 62
         4
100
AcDbLine
 10
-9833.7705485269
 20
11764.0294427303
 30
0.0
 11
-9814.7705485269
 21
11764.0294427303
 31
0.0
  0
SOLID
  5
439
100
AcDbEntity
  8
L1_
  6
CONTINUOUS
 62
         4
100
AcDbTrace
 10
-9833.7705485269
 20
11764.0294427303
 30
0.0
 11
-9830.2705485269
 21
11764.5544427303
 31
0.0
 12
-9830.2705485269
 22
11763.5044427303
 32
0.0
 13
-9833.7705485269
 23
11764.0294427303
 33
0.0
  0
SOLID
  5
43A
100
AcDbEntity
  8
L1_
  6
CONTINUOUS
 62
         4
100
AcDbTrace
 10
-9814.7705485269
 20
11764.0294427303
 30
0.0
 11
-9818.2705485269
 21
11763.5044427303
 31
0.0
 12
-9818.2705485269
 22
11764.5544427303
 32
0.0
 13
-9814.7705485269
 23
11764.0294427303
 33
0.0
  0
TEXT
  5
43C
100
AcDbEntity
  8
L1_
  6
CONTINUOUS
 62
         4
100
AcDbText
 10
-9827.7705485269
 20
11766.1294427303
 30
0.0
 40
3.5
  1
19
  7
BOX
100
AcDbText
  0
ENDBLK
  5
43D
100
AcDbEntity
  8
0
  6
CONTINUOUS
100
AcDbBlockEnd
  0
BLOCK
  5
446
100
AcDbEntity
  8
0
100
AcDbBlockBegin
  2
*D18
 70
        65
 10
0.0
 20
0.0
 30
0.0
  3
*D18
  1

  0
POINT
  5
448
100
AcDbEntity
  8
DEFPOINTS
  6
CONTINUOUS
 62
         0
100
AcDbPoint
 10
-10016.4705485269
 20
12089.8206341398
 30
0.0
  0
POINT
  5
449
100
AcDbEntity
  8
DEFPOINTS
  6
CONTINUOUS
 62
         0
100
AcDbPoint
 10
-10016.4705485269
 20
11996.2966555833
 30
0.0
  0
POINT
  5
44A
100
AcDbEntity
  8
DEFPOINTS
  6
CONTINUOUS
 62
         0
100
AcDbPoint
 10
-9814.7705485269
 20
11988.2753198193
 30
0.0
  0
LINE
  5
44B
100
AcDbEntity
  8
L1_
  6
CONTINUOUS
 62
         4
100
AcDbLine
 10
-10016.4705485269
 20
11998.0466555833
 30
0.0
 11
-10016.4705485269
 21
12090.6956341398
 31
0.0
  0
LINE
  5
44C
100
AcDbEntity
  8
L1_
  6
CONTINUOUS
 62
         4
100
AcDbLine
 10
-9814.7705485269
 20
11990.0253198193
 30
0.0
 11
-9814.7705485269
 21
12090.6956341398
 31
0.0
  0
LINE
  5
44D
100
AcDbEntity
  8
L1_
  6
CONTINUOUS
 62
         4
100
AcDbLine
 10
-10016.4705485269
 20
12089.8206341398
 30
0.0
 11
-9814.7705485269
 21
12089.8206341398
 31
0.0
  0
SOLID
  5
44E
100
AcDbEntity
  8
L1_
  6
CONTINUOUS
 62
         4
100
AcDbTrace
 10
-10016.4705485269
 20
12089.8206341398
 30
0.0
 11
-10012.9705485269
 21
12090.3456341398
 31
0.0
 12
-10012.9705485269
 22
12089.2956341398
 32
0.0
 13
-10016.4705485269
 23
12089.8206341398
 33
0.0
  0
SOLID
  5
44F
100
AcDbEntity
  8
L1_
  6
CONTINUOUS
 62
         4
100
AcDbTrace
 10
-9814.7705485269
 20
12089.8206341398
 30
0.0
 11
-9818.2705485269
 21
12089.2956341398
 31
0.0
 12
-9818.2705485269
 22
12090.3456341398
 32
0.0
 13
-9814.7705485269
 23
12089.8206341398
 33
0.0
  0
TEXT
  5
451
100
AcDbEntity
  8
L1_
  6
CONTINUOUS
 62
         4
100
AcDbText
 10
-9924.8269033178
 20
12091.9206341398
 30
0.0
 40
3.5
  1
201.7
  7
BOX
100
AcDbText
  0
ENDBLK
  5
452
100
AcDbEntity
  8
0
  6
CONTINUOUS
100
AcDbBlockEnd
  0
BLOCK
  5
454
100
AcDbEntity
  8
0
100
AcDbBlockBegin
  2
*D19
 70
        65
 10
0.0
 20
0.0
 30
0.0
  3
*D19
  1

  0
POINT
  5
456
100
AcDbEntity
  8
DEFPOINTS
  6
CONTINUOUS
 62
         0
100
AcDbPoint
 10
-9914.8705485269
 20
12074.8721891056
 30
0.0
  0
POINT
  5
457
100
AcDbEntity
  8
DEFPOINTS
  6
CONTINUOUS
 62
         0
100
AcDbPoint
 10
-9914.8705485269
 20
12018.0753198193
 30
0.0
  0
POINT
  5
458
100
AcDbEntity
  8
DEFPOINTS
  6
CONTINUOUS
 62
         0
100
AcDbPoint
 10
-9814.7705485269
 20
11992.3003198193
 30
0.0
  0
LINE
  5
459
100
AcDbEntity
  8
L1_
  6
CONTINUOUS
 62
         4
100
AcDbLine
 10
-9914.8705485269
 20
12019.8253198193
 30
0.0
 11
-9914.8705485269
 21
12075.7471891056
 31
0.0
  0
LINE
  5
45A
100
AcDbEntity
  8
L1_
  6
CONTINUOUS
 62
         4
100
AcDbLine
 10
-9814.7705485269
 20
11994.0503198193
 30
0.0
 11
-9814.7705485269
 21
12075.7471891056
 31
0.0
  0
LINE
  5
45B
100
AcDbEntity
  8
L1_
  6
CONTINUOUS
 62
         4
100
AcDbLine
 10
-9914.8705485269
 20
12074.8721891056
 30
0.0
 11
-9814.7705485269
 21
12074.8721891056
 31
0.0
  0
SOLID
  5
45C
100
AcDbEntity
  8
L1_
  6
CONTINUOUS
 62
         4
100
AcDbTrace
 10
-9914.8705485269
 20
12074.8721891056
 30
0.0
 11
-9911.3705485269
 21
12075.3971891056
 31
0.0
 12
-9911.3705485269
 22
12074.3471891056
 32
0.0
 13
-9914.8705485269
 23
12074.8721891056
 33
0.0
  0
SOLID
  5
45D
100
AcDbEntity
  8
L1_
  6
CONTINUOUS
 62
         4
100
AcDbTrace
 10
-9814.7705485269
 20
12074.8721891056
 30
0.0
 11
-9818.2705485269
 21
12074.3471891056
 31
0.0
 12
-9818.2705485269
 22
12075.3971891056
 32
0.0
 13
-9814.7705485269
 23
12074.8721891056
 33
0.0
  0
TEXT
  5
45F
100
AcDbEntity
  8
L1_
  6
CONTINUOUS
 62
         4
100
AcDbText
 10
-9875.4320414656
 20
12076.9721891056
 30
0.0
 40
3.5
  1
100.1
  7
BOX
100
AcDbText
  0
ENDBLK
  5
460
100
AcDbEntity
  8
0
  6
CONTINUOUS
100
AcDbBlockEnd
  0
BLOCK
  5
47D
100
AcDbEntity
  8
0
100
AcDbBlockBegin
  2
*D20
 70
        65
 10
0.0
 20
0.0
 30
0.0
  3
*D20
  1

  0
POINT
  5
47F
100
AcDbEntity
  8
DEFPOINTS
  6
CONTINUOUS
 62
         0
100
AcDbPoint
 10
-9571.7296366238
 20
11920.4182408721
 30
0.0
  0
POINT
  5
480
100
AcDbEntity
  8
DEFPOINTS
  6
CONTINUOUS
 62
         0
100
AcDbPoint
 10
-9611.0927000608
 20
12028.5673688257
 30
0.0
  0
POINT
  5
481
100
AcDbEntity
  8
DEFPOINTS
  6
CONTINUOUS
 62
         0
100
AcDbPoint
 10
-9592.8151889697
 20
11916.7002890904
 30
0.0
  0
POINT
  5
482
100
AcDbEntity
  8
DEFPOINTS
  6
CONTINUOUS
 62
         0
100
AcDbPoint
 10
-9592.8151889697
 20
12031.7901871713
 30
0.0
  0
LINE
  5
483
100
AcDbEntity
  8
L1_
  6
CONTINUOUS
 62
         4
100
AcDbLine
 10
-9592.8151889697
 20
12033.5401871713
 30
0.0
 11
-9592.8151889697
 21
12037.7624465474
 31
0.0
  0
LINE
  5
484
100
AcDbEntity
  8
L1_
  6
CONTINUOUS
 62
         4
100
AcDbLine
 10
-9611.6912353116
 20
12030.2118309121
 30
0.0
 11
-9613.1353330686
 21
12034.1794568909
 31
0.0
  0
ARC
  5
485
100
AcDbEntity
  8
L1_
  6
CONTINUOUS
 62
         4
100
AcDbCircle
 10
-9592.8151889697
 20
11978.3503198193
 30
0.0
 40
58.537126728
100
AcDbArc
 50
90.0
 51
100.0
  0
SOLID
  5
486
100
AcDbEntity
  8
L1_
  6
CONTINUOUS
 62
         4
100
AcDbTrace
 10
-9592.8151889697
 20
12036.8874465474
 30
0.0
 11
-9596.2979350067
 21
12036.2580777827
 31
0.0
 12
-9596.3293159923
 22
12037.3076087416
 32
0.0
 13
-9592.8151889697
 23
12036.8874465474
 33
0.0
  0
ARC
  5
487
100
AcDbEntity
  8
L1_
  6
CONTINUOUS
 62
         4
100
AcDbCircle
 10
-9592.8151889697
 20
11978.3503198193
 30
0.0
 40
58.537126728
100
AcDbArc
 50
100.0
 51
110.0
  0
SOLID
  5
488
100
AcDbEntity
  8
L1_
  6
CONTINUOUS
 62
         4
100
AcDbTrace
 10
-9612.8360654431
 20
12033.3572258477
 30
0.0
 11
-9609.6775701455
 21
12034.9539513891
 31
0.0
 12
-9609.348097897
 22
12033.9569819625
 32
0.0
 13
-9612.8360654431
 23
12033.3572258477
 33
0.0
  0
TEXT
  5
48A
100
AcDbEntity
  8
L1_
  6
CONTINUOUS
 62
         4
100
AcDbText
 10
-9608.7829159615
 20
12036.9555799769
 30
0.0
 40
3.5
  1
20%%d
 50
7.7836465469
  7
BOX
100
AcDbText
  0
ENDBLK
  5
48B
100
AcDbEntity
  8
0
  6
CONTINUOUS
100
AcDbBlockEnd
  0
BLOCK
  5
5BE
100
AcDbEntity
  8
0
100
AcDbBlockBegin
  2
*X21
 70
        65
 10
0.0
 20
0.0
 30
0.0
  3
*X21
  1

  0
LINE
  5
5BF
100
AcDbEntity
  8
L1_
  6
CONTINUOUS
 62
         4
100
AcDbLine
 10
-9820.2760883799
 20
11723.4578887676
 30
0.0
 11
-9816.271155704
 21
11727.4628214435
 31
0.0
  0
LINE
  5
5C0
100
AcDbEntity
  8
L1_
  6
CONTINUOUS
 62
         4
100
AcDbLine
 10
-9824.518729067
 20
11723.4578887676
 30
0.0
 11
-9820.2365116889
 21
11727.7401061457
 31
0.0
  0
LINE
  5
5C1
100
AcDbEntity
  8
L1_
  6
CONTINUOUS
 62
         4
100
AcDbLine
 10
-9828.7613697541
 20
11723.4578887676
 30
0.0
 11
-9824.2018676738
 21
11728.0173908479
 31
0.0
  0
LINE
  5
5C2
100
AcDbEntity
  8
L1_
  6
CONTINUOUS
 62
         4
100
AcDbLine
 10
-9837.1040104412
 20
11719.3578887676
 30
0.0
 11
-9834.7705485269
 21
11721.6913506819
 31
0.0
  0
LINE
  5
5C3
100
AcDbEntity
  8
L1_
  6
CONTINUOUS
 62
         4
100
AcDbLine
 10
-9833.0040104412
 20
11723.4578887676
 30
0.0
 11
-9828.1672236586
 21
11728.2946755502
 31
0.0
  0
LINE
  5
5C4
100
AcDbEntity
  8
L1_
  6
CONTINUOUS
 62
         4
100
AcDbLine
 10
-9841.3466511284
 20
11719.3578887676
 30
0.0
 11
-9832.1325796435
 21
11728.5719602524
 31
0.0
  0
LINE
  5
5C5
100
AcDbEntity
  8
L1_
  6
CONTINUOUS
 62
         4
100
AcDbLine
 10
-9845.5892918155
 20
11719.3578887676
 30
0.0
 11
-9836.0979356284
 21
11728.8492449547
 31
0.0
  0
LINE
  5
5C6
100
AcDbEntity
  8
L1_
  6
CONTINUOUS
 62
         4
100
AcDbLine
 10
-9849.8319325026
 20
11719.3578887676
 30
0.0
 11
-9840.0632916133
 21
11729.1265296569
 31
0.0
  0
LINE
  5
5C7
100
AcDbEntity
  8
L1_
  6
CONTINUOUS
 62
         4
100
AcDbLine
 10
-9818.0621002188
 20
11751.1277210514
 30
0.0
 11
-9815.1213303059
 21
11754.0684909643
 31
0.0
  0
LINE
  5
5C8
100
AcDbEntity
  8
L1_
  6
CONTINUOUS
 62
         4
100
AcDbLine
 10
-9854.0745731897
 20
11719.3578887676
 30
0.0
 11
-9844.0286475981
 21
11729.4038143592
 31
0.0
  0
LINE
  5
5C9
100
AcDbEntity
  8
L1_
  6
CONTINUOUS
 62
         4
100
AcDbLine
 10
-9822.6237204672
 20
11750.8087414902
 30
0.0
 11
-9818.1745731897
 21
11755.2578887676
 31
0.0
  0
LINE
  5
5CA
100
AcDbEntity
  8
L1_
  6
CONTINUOUS
 62
         4
100
AcDbLine
 10
-9858.3172138768
 20
11719.3578887676
 30
0.0
 11
-9848.0672138768
 21
11729.6078887676
 31
0.0
  0
LINE
  5
5CB
100
AcDbEntity
  8
L1_
  6
CONTINUOUS
 62
         4
100
AcDbLine
 10
-9827.1853407155
 20
11750.4897619289
 30
0.0
 11
-9822.4172138768
 21
11755.2578887676
 31
0.0
  0
LINE
  5
5CC
100
AcDbEntity
  8
L1_
  6
CONTINUOUS
 62
         4
100
AcDbLine
 10
-9862.559854564
 20
11719.3578887676
 30
0.0
 11
-9852.309854564
 21
11729.6078887676
 31
0.0
  0
LINE
  5
5CD
100
AcDbEntity
  8
L1_
  6
CONTINUOUS
 62
         4
100
AcDbLine
 10
-9831.7469609639
 20
11750.1707823676
 30
0.0
 11
-9826.659854564
 21
11755.2578887676
 31
0.0
  0
LINE
  5
5CE
100
AcDbEntity
  8
L1_
  6
CONTINUOUS
 62
         4
100
AcDbLine
 10
-9881.7274952511
 20
11704.4328887676
 30
0.0
 11
-9879.8185485269
 21
11706.3418354918
 31
0.0
  0
LINE
  5
5CF
100
AcDbEntity
  8
L1_
  6
CONTINUOUS
 62
         4
100
AcDbLine
 10
-9866.8024952511
 20
11719.3578887676
 30
0.0
 11
-9856.5524952511
 21
11729.6078887676
 31
0.0
  0
LINE
  5
5D0
100
AcDbEntity
  8
L1_
  6
CONTINUOUS
 62
         4
100
AcDbLine
 10
-9836.3085812123
 20
11749.8518028064
 30
0.0
 11
-9830.9024952511
 21
11755.2578887676
 31
0.0
  0
LINE
  5
5D1
100
AcDbEntity
  8
L1_
  6
CONTINUOUS
 62
         4
100
AcDbLine
 10
-9899.7951359382
 20
11690.6078887676
 30
0.0
 11
-9895.7705485269
 21
11694.6324761789
 31
0.0
  0
LINE
  5
5D2
100
AcDbEntity
  8
L1_
  6
CONTINUOUS
 62
         4
100
AcDbLine
 10
-9885.9701359382
 20
11704.4328887676
 30
0.0
 11
-9879.8185485269
 21
11710.5844761789
 31
0.0
  0
LINE
  5
5D3
100
AcDbEntity
  8
L1_
  6
CONTINUOUS
 62
         4
100
AcDbLine
 10
-9871.0451359382
 20
11719.3578887676
 30
0.0
 11
-9859.4751359382
 21
11730.9278887676
 31
0.0
  0
LINE
  5
5D4
100
AcDbEntity
  8
L1_
  6
CONTINUOUS
 62
         4
100
AcDbLine
 10
-9840.8702014607
 20
11749.5328232451
 30
0.0
 11
-9834.7577106501
 21
11755.6453140557
 31
0.0
  0
LINE
  5
5D5
100
AcDbEntity
  8
L1_
  6
CONTINUOUS
 62
         4
100
AcDbLine
 10
-9901.6264552013
 20
11693.0192101916
 30
0.0
 11
-9895.7705485269
 21
11698.875116866
 31
0.0
  0
LINE
  5
5D6
100
AcDbEntity
  8
L1_
  6
CONTINUOUS
 62
         4
100
AcDbLine
 10
-9890.2127766253
 20
11704.4328887676
 30
0.0
 11
-9879.8185485269
 21
11714.827116866
 31
0.0
  0
LINE
  5
5D7
100
AcDbEntity
  8
L1_
  6
CONTINUOUS
 62
         4
100
AcDbLine
 10
-9875.2877766253
 20
11719.3578887676
 30
0.0
 11
-9863.7177766253
 21
11730.9278887676
 31
0.0
  0
LINE
  5
5D8
100
AcDbEntity
  8
L1_
  6
CONTINUOUS
 62
         4
100
AcDbLine
 10
-9845.4318217091
 20
11749.2138436838
 30
0.0
 11
-9835.2877766253
 21
11759.3578887676
 31
0.0
  0
LINE
  5
5D9
100
AcDbEntity
  8
L1_
  6
CONTINUOUS
 62
         4
100
AcDbLine
 10
-9908.2804173124
 20
11690.6078887676
 30
0.0
 11
-9905.9768587963
 21
11692.9114472838
 31
0.0
  0
LINE
  5
5DA
100
AcDbEntity
  8
L1_
  6
CONTINUOUS
 62
         4
100
AcDbLine
 10
-9905.1554173124
 20
11693.7328887676
 30
0.0
 11
-9895.7705485269
 21
11703.1177575531
 31
0.0
  0
LINE
  5
5DB
100
AcDbEntity
  8
L1_
  6
CONTINUOUS
 62
         4
100
AcDbLine
 10
-9894.4554173124
 20
11704.4328887676
 30
0.0
 11
-9867.9604173124
 21
11730.9278887676
 31
0.0
  0
LINE
  5
5DC
100
AcDbEntity
  8
L1_
  6
CONTINUOUS
 62
         4
100
AcDbLine
 10
-9849.7804173124
 20
11749.1078887676
 30
0.0
 11
-9839.5304173124
 21
11759.3578887676
 31
0.0
  0
LINE
  5
5DD
100
AcDbEntity
  8
L1_
  6
CONTINUOUS
 62
         4
100
AcDbLine
 10
-9911.5680431408
 20
11691.5629036264
 30
0.0
 11
-9872.2030579996
 21
11730.9278887676
 31
0.0
  0
LINE
  5
5DE
100
AcDbEntity
  8
L1_
  6
CONTINUOUS
 62
         4
100
AcDbLine
 10
-9854.0230579996
 20
11749.1078887676
 30
0.0
 11
-9843.7730579996
 21
11759.3578887676
 31
0.0
  0
LINE
  5
5DF
100
AcDbEntity
  8
L1_
  6
CONTINUOUS
 62
         4
100
AcDbLine
 10
-9911.6705485269
 20
11695.7030389274
 30
0.0
 11
-9876.4456986867
 21
11730.9278887676
 31
0.0
  0
LINE
  5
5E0
100
AcDbEntity
  8
L1_
  6
CONTINUOUS
 62
         4
100
AcDbLine
 10
-9859.5856986867
 20
11747.7878887676
 30
0.0
 11
-9848.0156986867
 21
11759.3578887676
 31
0.0
  0
LINE
  5
5E1
100
AcDbEntity
  8
L1_
  6
CONTINUOUS
 62
         4
100
AcDbLine
 10
-9911.6705485269
 20
11699.9456796145
 30
0.0
 11
-9880.6883393738
 21
11730.9278887676
 31
0.0
  0
LINE
  5
5E2
100
AcDbEntity
  8
L1_
  6
CONTINUOUS
 62
         4
100
AcDbLine
 10
-9863.8283393738
 20
11747.7878887676
 30
0.0
 11
-9852.2583393738
 21
11759.3578887676
 31
0.0
  0
LINE
  5
5E3
100
AcDbEntity
  8
L1_
  6
CONTINUOUS
 62
         4
100
AcDbLine
 10
-9911.8711501034
 20
11703.9877187251
 30
0.0
 11
-9884.9309800609
 21
11730.9278887676
 31
0.0
  0
LINE
  5
5E4
100
AcDbEntity
  8
L1_
  6
CONTINUOUS
 62
         4
100
AcDbLine
 10
-9868.0709800609
 20
11747.7878887676
 30
0.0
 11
-9856.5009800609
 21
11759.3578887676
 31
0.0
  0
LINE
  5
5E5
100
AcDbEntity
  8
L1_
  6
CONTINUOUS
 62
         4
100
AcDbLine
 10
-9915.5670470853
 20
11704.5344624303
 30
0.0
 11
-9889.173620748
 21
11730.9278887676
 31
0.0
  0
LINE
  5
5E6
100
AcDbEntity
  8
L1_
  6
CONTINUOUS
 62
         4
100
AcDbLine
 10
-9872.313620748
 20
11747.7878887676
 30
0.0
 11
-9860.743620748
 21
11759.3578887676
 31
0.0
  0
LINE
  5
5E7
100
AcDbEntity
  8
L1_
  6
CONTINUOUS
 62
         4
100
AcDbLine
 10
-9919.2697108845
 20
11705.0744393182
 30
0.0
 11
-9893.4162614352
 21
11730.9278887676
 31
0.0
  0
LINE
  5
5E8
100
AcDbEntity
  8
L1_
  6
CONTINUOUS
 62
         4
100
AcDbLine
 10
-9876.5562614352
 20
11747.7878887676
 30
0.0
 11
-9864.9862614352
 21
11759.3578887676
 31
0.0
  0
LINE
  5
5E9
100
AcDbEntity
  8
L1_
  6
CONTINUOUS
 62
         4
100
AcDbLine
 10
-9922.9723746837
 20
11705.6144162061
 30
0.0
 11
-9897.6589021223
 21
11730.9278887676
 31
0.0
  0
LINE
  5
5EA
100
AcDbEntity
  8
L1_
  6
CONTINUOUS
 62
         4
100
AcDbLine
 10
-9880.7989021223
 20
11747.7878887676
 30
0.0
 11
-9869.2289021223
 21
11759.3578887676
 31
0.0
  0
LINE
  5
5EB
100
AcDbEntity
  8
L1_
  6
CONTINUOUS
 62
         4
100
AcDbLine
 10
-9926.675038483
 20
11706.154393094
 30
0.0
 11
-9901.9015428094
 21
11730.9278887676
 31
0.0
  0
LINE
  5
5EC
100
AcDbEntity
  8
L1_
  6
CONTINUOUS
 62
         4
100
AcDbLine
 10
-9885.0415428094
 20
11747.7878887676
 30
0.0
 11
-9873.4715428094
 21
11759.3578887676
 31
0.0
  0
LINE
  5
5ED
100
AcDbEntity
  8
L1_
  6
CONTINUOUS
 62
         4
100
AcDbLine
 10
-9930.3777022822
 20
11706.6943699819
 30
0.0
 11
-9906.1441834965
 21
11730.9278887676
 31
0.0
  0
LINE
  5
5EE
100
AcDbEntity
  8
L1_
  6
CONTINUOUS
 62
         4
100
AcDbLine
 10
-9889.2841834965
 20
11747.7878887676
 30
0.0
 11
-9877.7141834965
 21
11759.3578887676
 31
0.0
  0
LINE
  5
5EF
100
AcDbEntity
  8
L1_
  6
CONTINUOUS
 62
         4
100
AcDbLine
 10
-9934.0803660814
 20
11707.2343468698
 30
0.0
 11
-9910.3868241836
 21
11730.9278887676
 31
0.0
  0
LINE
  5
5F0
100
AcDbEntity
  8
L1_
  6
CONTINUOUS
 62
         4
100
AcDbLine
 10
-9893.5268241836
 20
11747.7878887676
 30
0.0
 11
-9879.8185485269
 21
11761.4961644243
 31
0.0
  0
LINE
  5
5F1
100
AcDbEntity
  8
L1_
  6
CONTINUOUS
 62
         4
100
AcDbLine
 10
-9937.7830298806
 20
11707.7743237577
 30
0.0
 11
-9914.6294648708
 21
11730.9278887676
 31
0.0
  0
LINE
  5
5F2
100
AcDbEntity
  8
L1_
  6
CONTINUOUS
 62
         4
100
AcDbLine
 10
-9897.7694648708
 20
11747.7878887676
 30
0.0
 11
-9879.8185485269
 21
11765.7388051115
 31
0.0
  0
LINE
  5
5F3
100
AcDbEntity
  8
L1_
  6
CONTINUOUS
 62
         4
100
AcDbLine
 10
-9941.4856936799
 20
11708.3143006456
 30
0.0
 11
-9918.8721055579
 21
11730.9278887676
 31
0.0
  0
LINE
  5
5F4
100
AcDbEntity
  8
L1_
  6
CONTINUOUS
 62
         4
100
AcDbLine
 10
-9902.0121055579
 20
11747.7878887676
 30
0.0
 11
-9879.8185485269
 21
11769.9814457986
 31
0.0
  0
LINE
  5
5F5
100
AcDbEntity
  8
L1_
  6
CONTINUOUS
 62
         4
100
AcDbLine
 10
-9945.1883574791
 20
11708.8542775335
 30
0.0
 11
-9923.114746245
 21
11730.9278887676
 31
0.0
  0
LINE
  5
5F6
100
AcDbEntity
  8
L1_
  6
CONTINUOUS
 62
         4
100
AcDbLine
 10
-9906.254746245
 20
11747.7878887676
 30
0.0
 11
-9880.0242265305
 21
11774.0184084821
 31
0.0
  0
LINE
  5
5F7
100
AcDbEntity
  8
L1_
  6
CONTINUOUS
 62
         4
100
AcDbLine
 10
-9948.8910212783
 20
11709.3942544214
 30
0.0
 11
-9929.3237283955
 21
11728.9615473042
 31
0.0
  0
LINE
  5
5F8
100
AcDbEntity
  8
L1_
  6
CONTINUOUS
 62
         4
100
AcDbLine
 10
-9910.4973869321
 20
11747.7878887676
 30
0.0
 11
-9884.0023869321
 21
11774.2828887676
 31
0.0
  0
LINE
  5
5F9
100
AcDbEntity
  8
L1_
  6
CONTINUOUS
 62
         4
100
AcDbLine
 10
-9952.5936850775
 20
11709.9342313093
 30
0.0
 11
-9933.5663690826
 21
11728.9615473042
 31
0.0
  0
LINE
  5
5FA
100
AcDbEntity
  8
L1_
  6
CONTINUOUS
 62
         4
100
AcDbLine
 10
-9914.7400276192
 20
11747.7878887676
 30
0.0
 11
-9888.2450276192
 21
11774.2828887676
 31
0.0
  0
LINE
  5
5FB
100
AcDbEntity
  8
L1_
  6
CONTINUOUS
 62
         4
100
AcDbLine
 10
-9956.2963488768
 20
11710.4742081972
 30
0.0
 11
-9937.8090097698
 21
11728.9615473042
 31
0.0
  0
LINE
  5
5FC
100
AcDbEntity
  8
L1_
  6
CONTINUOUS
 62
         4
100
AcDbLine
 10
-9918.9826683063
 20
11747.7878887676
 30
0.0
 11
-9892.4876683064
 21
11774.2828887676
 31
0.0
  0
LINE
  5
5FD
100
AcDbEntity
  8
L1_
  6
CONTINUOUS
 62
         4
100
AcDbLine
 10
-9959.999012676
 20
11711.0141850851
 30
0.0
 11
-9942.0516504569
 21
11728.9615473042
 31
0.0
  0
LINE
  5
5FE
100
AcDbEntity
  8
L1_
  6
CONTINUOUS
 62
         4
100
AcDbLine
 10
-9923.2253089935
 20
11747.7878887676
 30
0.0
 11
-9895.7705485269
 21
11775.2426492342
 31
0.0
  0
LINE
  5
5FF
100
AcDbEntity
  8
L1_
  6
CONTINUOUS
 62
         4
100
AcDbLine
 10
-9963.7016764752
 20
11711.554161973
 30
0.0
 11
-9946.294291144
 21
11728.9615473042
 31
0.0
  0
LINE
  5
600
100
AcDbEntity
  8
L1_
  6
CONTINUOUS
 62
         4
100
AcDbLine
 10
-9926.1128916472
 20
11749.142946801
 30
0.0
 11
-9903.0123923644
 21
11772.2434460837
 31
0.0
  0
LINE
  5
601
100
AcDbEntity
  8
L1_
  6
CONTINUOUS
 62
         4
100
AcDbLine
 10
-9899.4223171491
 20
11775.833521299
 30
0.0
 11
-9897.1802493205
 21
11778.0755891277
 31
0.0
  0
LINE
  5
602
100
AcDbEntity
  8
L1_
  6
CONTINUOUS
 62
         4
100
AcDbLine
 10
-9967.4043402744
 20
11712.0941388609
 30
0.0
 11
-9950.5369318311
 21
11728.9615473042
 31
0.0
  0
LINE
  5
603
100
AcDbEntity
  8
L1_
  6
CONTINUOUS
 62
         4
100
AcDbLine
 10
-9929.7442489043
 20
11749.754230231
 30
0.0
 11
-9921.9903157773
 21
11757.508163358
 31
0.0
  0
LINE
  5
604
100
AcDbEntity
  8
L1_
  6
CONTINUOUS
 62
         4
100
AcDbLine
 10
-9971.1070040737
 20
11712.6341157488
 30
0.0
 11
-9954.7795725182
 21
11728.9615473042
 31
0.0
  0
LINE
  5
605
100
AcDbEntity
  8
L1_
  6
CONTINUOUS
 62
         4
100
AcDbLine
 10
-9921.585075142
 20
11762.1560446804
 30
0.0
 11
-9908.0031250741
 21
11775.7379947483
 31
0.0
  0
LINE
  5
606
100
AcDbEntity
  8
L1_
  6
CONTINUOUS
 62
         4
100
AcDbLine
 10
-9904.4130498588
 20
11779.3280699636
 30
0.0
 11
-9896.1434541632
 21
11787.5976656592
 31
0.0
  0
LINE
  5
607
100
AcDbEntity
  8
L1_
  6
CONTINUOUS
 62
         4
100
AcDbLine
 10
-9974.8096678729
 20
11713.1740926366
 30
0.0
 11
-9959.0222132054
 21
11728.9615473042
 31
0.0
  0
LINE
  5
608
100
AcDbEntity
  8
L1_
  6
CONTINUOUS
 62
         4
100
AcDbLine
 10
-9938.2295302785
 20
11749.754230231
 30
0.0
 11
-9913.5258700943
 21
11774.4578904152
 31
0.0
  0
LINE
  5
609
100
AcDbEntity
  8
L1_
  6
CONTINUOUS
 62
         4
100
AcDbLine
 10
-9911.6705485269
 20
11776.3132119826
 30
0.0
 11
-9910.498491429
 21
11777.4852690805
 31
0.0
  0
LINE
  5
60A
100
AcDbEntity
  8
L1_
  6
CONTINUOUS
 62
         4
100
AcDbLine
 10
-9906.9084162137
 20
11781.0753442958
 30
0.0
 11
-9903.0008717419
 21
11784.9828887676
 31
0.0
  0
LINE
  5
60B
100
AcDbEntity
  8
L1_
  6
CONTINUOUS
 62
         4
100
AcDbLine
 10
-9900.7238703565
 20
11787.2598901531
 30
0.0
 11
-9899.8758717419
 21
11788.1078887676
 31
0.0
  0
LINE
  5
60C
100
AcDbEntity
  8
L1_
  6
CONTINUOUS
 62
         4
100
AcDbLine
 10
-9978.5123316721
 20
11713.7140695245
 30
0.0
 11
-9963.2648538925
 21
11728.9615473042
 31
0.0
  0
LINE
  5
60D
100
AcDbEntity
  8
L1_
  6
CONTINUOUS
 62
         4
100
AcDbLine
 10
-9942.4721709657
 20
11749.754230231
 30
0.0
 11
-9918.4681705856
 21
11773.7582306111
 31
0.0
  0
LINE
  5
60E
100
AcDbEntity
  8
L1_
  6
CONTINUOUS
 62
         4
100
AcDbLine
 10
-9909.0088742949
 20
11783.2175269018
 30
0.0
 11
-9906.1398177529
 21
11786.0865834438
 31
0.0
  0
LINE
  5
60F
100
AcDbEntity
  8
L1_
  6
CONTINUOUS
 62
         4
100
AcDbLine
 10
-9982.2149954713
 20
11714.2540464124
 30
0.0
 11
-9967.5074945796
 21
11728.9615473042
 31
0.0
  0
LINE
  5
610
100
AcDbEntity
  8
L1_
  6
CONTINUOUS
 62
         4
100
AcDbLine
 10
-9946.7148116528
 20
11749.754230231
 30
0.0
 11
-9923.4351725449
 21
11773.0338693389
 31
0.0
  0
LINE
  5
611
100
AcDbEntity
  8
L1_
  6
CONTINUOUS
 62
         4
100
AcDbLine
 10
-9911.5042406497
 20
11784.964801234
 30
0.0
 11
-9908.3611531162
 21
11788.1078887676
 31
0.0
  0
LINE
  5
612
100
AcDbEntity
  8
L1_
  6
CONTINUOUS
 62
         4
100
AcDbLine
 10
-9985.9176592706
 20
11714.7940233003
 30
0.0
 11
-9971.7501352667
 21
11728.9615473042
 31
0.0
  0
LINE
  5
613
100
AcDbEntity
  8
L1_
  6
CONTINUOUS
 62
         4
100
AcDbLine
 10
-9950.9574523399
 20
11749.754230231
 30
0.0
 11
-9928.4021745042
 21
11772.3095080667
 31
0.0
  0
LINE
  5
614
100
AcDbEntity
  8
L1_
  6
CONTINUOUS
 62
         4
100
AcDbLine
 10
-9989.6203230698
 20
11715.3340001882
 30
0.0
 11
-9975.9927759538
 21
11728.9615473042
 31
0.0
  0
LINE
  5
615
100
AcDbEntity
  8
L1_
  6
CONTINUOUS
 62
         4
100
AcDbLine
 10
-9955.200093027
 20
11749.754230231
 30
0.0
 11
-9933.3691764636
 21
11771.5851467944
 31
0.0
  0
LINE
  5
616
100
AcDbEntity
  8
L1_
  6
CONTINUOUS
 62
         4
100
AcDbLine
 10
-9993.322986869
 20
11715.8739770761
 30
0.0
 11
-9980.235416641
 21
11728.9615473042
 31
0.0
  0
LINE
  5
617
100
AcDbEntity
  8
L1_
  6
CONTINUOUS
 62
         4
100
AcDbLine
 10
-9959.4427337141
 20
11749.754230231
 30
0.0
 11
-9938.3361784229
 21
11770.8607855222
 31
0.0
  0
LINE
  5
618
100
AcDbEntity
  8
L1_
  6
CONTINUOUS
 62
         4
100
AcDbLine
 10
-9997.0256506682
 20
11716.413953964
 30
0.0
 11
-9984.4780573281
 21
11728.9615473042
 31
0.0
  0
LINE
  5
619
100
AcDbEntity
  8
L1_
  6
CONTINUOUS
 62
         4
100
AcDbLine
 10
-9963.6853744012
 20
11749.754230231
 30
0.0
 11
-9943.3031803822
 21
11770.13642425
 31
0.0
  0
LINE
  5
61A
100
AcDbEntity
  8
L1_
  6
CONTINUOUS
 62
         4
100
AcDbLine
 10
-10000.7283144675
 20
11716.9539308519
 30
0.0
 11
-9988.7206980152
 21
11728.9615473042
 31
0.0
  0
LINE
  5
61B
100
AcDbEntity
  8
L1_
  6
CONTINUOUS
 62
         4
100
AcDbLine
 10
-9967.9280150884
 20
11749.754230231
 30
0.0
 11
-9948.2701823415
 21
11769.4120629778
 31
0.0
  0
LINE
  5
61C
100
AcDbEntity
  8
L1_
  6
CONTINUOUS
 62
         4
100
AcDbLine
 10
-10004.4309782667
 20
11717.4939077398
 30
0.0
 11
-9992.9633387023
 21
11728.9615473042
 31
0.0
  0
LINE
  5
61D
100
AcDbEntity
  8
L1_
  6
CONTINUOUS
 62
         4
100
AcDbLine
 10
-9972.1706557755
 20
11749.754230231
 30
0.0
 11
-9953.2371843009
 21
11768.6877017056
 31
0.0
  0
LINE
  5
61E
100
AcDbEntity
  8
L1_
  6
CONTINUOUS
 62
         4
100
AcDbLine
 10
-10008.1336420659
 20
11718.0338846277
 30
0.0
 11
-9997.2059793894
 21
11728.9615473042
 31
0.0
  0
LINE
  5
61F
100
AcDbEntity
  8
L1_
  6
CONTINUOUS
 62
         4
100
AcDbLine
 10
-9976.4132964626
 20
11749.754230231
 30
0.0
 11
-9958.2041862602
 21
11767.9633404334
 31
0.0
  0
LINE
  5
620
100
AcDbEntity
  8
L1_
  6
CONTINUOUS
 62
         4
100
AcDbLine
 10
-10011.8363058651
 20
11718.5738615156
 30
0.0
 11
-10001.4486200766
 21
11728.9615473042
 31
0.0
  0
LINE
  5
621
100
AcDbEntity
  8
L1_
  6
CONTINUOUS
 62
         4
100
AcDbLine
 10
-9980.6559371497
 20
11749.754230231
 30
0.0
 11
-9963.1711882195
 21
11767.2389791612
 31
0.0
  0
LINE
  5
622
100
AcDbEntity
  8
L1_
  6
CONTINUOUS
 62
         4
100
AcDbLine
 10
-10015.3356511304
 20
11719.3171569374
 30
0.0
 11
-10005.6912607637
 21
11728.9615473042
 31
0.0
  0
LINE
  5
623
100
AcDbEntity
  8
L1_
  6
CONTINUOUS
 62
         4
100
AcDbLine
 10
-9984.8985778368
 20
11749.754230231
 30
0.0
 11
-9968.1381901789
 21
11766.514617889
 31
0.0
  0
LINE
  5
624
100
AcDbEntity
  8
L1_
  6
CONTINUOUS
 62
         4
100
AcDbLine
 10
-10016.4705485269
 20
11722.4249002281
 30
0.0
 11
-10012.0867962591
 21
11726.8086524958
 31
0.0
  0
LINE
  5
625
100
AcDbEntity
  8
L1_
  6
CONTINUOUS
 62
         4
100
AcDbLine
 10
-9989.141218524
 20
11749.754230231
 30
0.0
 11
-9973.1051921382
 21
11765.7902566168
 31
0.0
  0
LINE
  5
626
100
AcDbEntity
  8
L1_
  6
CONTINUOUS
 62
         4
100
AcDbLine
 10
-9993.3838592111
 20
11749.754230231
 30
0.0
 11
-9978.0721940975
 21
11765.0658953446
 31
0.0
  0
LINE
  5
627
100
AcDbEntity
  8
L1_
  6
CONTINUOUS
 62
         4
100
AcDbLine
 10
-9997.6264998982
 20
11749.754230231
 30
0.0
 11
-9983.0391960568
 21
11764.3415340724
 31
0.0
  0
LINE
  5
628
100
AcDbEntity
  8
L1_
  6
CONTINUOUS
 62
         4
100
AcDbLine
 10
-10001.8691405853
 20
11749.754230231
 30
0.0
 11
-9988.0061980162
 21
11763.6171728002
 31
0.0
  0
LINE
  5
629
100
AcDbEntity
  8
L1_
  6
CONTINUOUS
 62
         4
100
AcDbLine
 10
-10006.1117812724
 20
11749.754230231
 30
0.0
 11
-9992.9731999755
 21
11762.8928115279
 31
0.0
  0
LINE
  5
62A
100
AcDbEntity
  8
L1_
  6
CONTINUOUS
 62
         4
100
AcDbLine
 10
-10009.2778132625
 20
11750.8308389281
 30
0.0
 11
-9997.9402019348
 21
11762.1684502557
 31
0.0
  0
LINE
  5
62B
100
AcDbEntity
  8
L1_
  6
CONTINUOUS
 62
         4
100
AcDbLine
 10
-10012.4934041101
 20
11751.8578887676
 30
0.0
 11
-10002.9072038941
 21
11761.4440889835
 31
0.0
  0
LINE
  5
62C
100
AcDbEntity
  8
L1_
  6
CONTINUOUS
 62
         4
100
AcDbLine
 10
-10016.2373836051
 20
11752.3565499597
 30
0.0
 11
-10007.8742058535
 21
11760.7197277113
 31
0.0
  0
LINE
  5
62D
100
AcDbEntity
  8
L1_
  6
CONTINUOUS
 62
         4
100
AcDbLine
 10
-10016.4705485269
 20
11756.366025725
 30
0.0
 11
-10012.8412078128
 21
11759.9953664391
 31
0.0
  0
ENDBLK
  5
62E
100
AcDbEntity
  8
0
  6
CONTINUOUS
100
AcDbBlockEnd
  0
BLOCK
  5
633
100
AcDbEntity
  8
0
100
AcDbBlockBegin
  2
*D22
 70
        65
 10
0.0
 20
0.0
 30
0.0
  3
*D22
  1

  0
POINT
  5
635
100
AcDbEntity
  8
DEFPOINTS
  6
CONTINUOUS
 62
         0
100
AcDbPoint
 10
-9914.8705485269
 20
12082.1964454263
 30
0.0
  0
POINT
  5
636
100
AcDbEntity
  8
DEFPOINTS
  6
CONTINUOUS
 62
         0
100
AcDbPoint
 10
-9914.8705485269
 20
12018.0753198193
 30
0.0
  0
POINT
  5
637
100
AcDbEntity
  8
DEFPOINTS
  6
CONTINUOUS
 62
         0
100
AcDbPoint
 10
-9809.9705485269
 20
11993.6003198193
 30
0.0
  0
LINE
  5
638
100
AcDbEntity
  8
L1_
  6
CONTINUOUS
 62
         4
100
AcDbLine
 10
-9914.8705485269
 20
12019.8253198193
 30
0.0
 11
-9914.8705485269
 21
12083.0714454263
 31
0.0
  0
LINE
  5
639
100
AcDbEntity
  8
L1_
  6
CONTINUOUS
 62
         4
100
AcDbLine
 10
-9809.9705485269
 20
11995.3503198193
 30
0.0
 11
-9809.9705485269
 21
12083.0714454263
 31
0.0
  0
LINE
  5
63A
100
AcDbEntity
  8
L1_
  6
CONTINUOUS
 62
         4
100
AcDbLine
 10
-9914.8705485269
 20
12082.1964454263
 30
0.0
 11
-9809.9705485269
 21
12082.1964454263
 31
0.0
  0
SOLID
  5
63B
100
AcDbEntity
  8
L1_
  6
CONTINUOUS
 62
         4
100
AcDbTrace
 10
-9914.8705485269
 20
12082.1964454263
 30
0.0
 11
-9911.3705485269
 21
12082.7214454263
 31
0.0
 12
-9911.3705485269
 22
12081.6714454263
 32
0.0
 13
-9914.8705485269
 23
12082.1964454263
 33
0.0
  0
SOLID
  5
63C
100
AcDbEntity
  8
L1_
  6
CONTINUOUS
 62
         4
100
AcDbTrace
 10
-9809.9705485269
 20
12082.1964454263
 30
0.0
 11
-9813.4705485269
 21
12081.6714454263
 31
0.0
 12
-9813.4705485269
 22
12082.7214454263
 32
0.0
 13
-9809.9705485269
 23
12082.1964454263
 33
0.0
  0
TEXT
  5
63E
100
AcDbEntity
  8
L1_
  6
CONTINUOUS
 62
         4
100
AcDbText
 10
-9869.9076161269
 20
12084.1214454263
 30
0.0
 40
3.5
  1
104.9
  7
BOX
100
AcDbText
  0
ENDBLK
  5
63F
100
AcDbEntity
  8
0
  6
CONTINUOUS
100
AcDbBlockEnd
  0
ENDSEC
  0
SECTION
  2
ENTITIES
  0
CIRCLE
  5
25
100
AcDbEntity
  8
L1_
  6
CONTINUOUS
 62
         7
100
AcDbCircle
 10
-9592.8151889697
 20
11978.3503198193
 30
0.0
 40
8.43
  0
CIRCLE
  5
26
100
AcDbEntity
  8
L1_
  6
CONTINUOUS
 62
         7
100
AcDbCircle
 10
-9592.8151889697
 20
11978.3503198193
 30
0.0
 40
9.75
  0
CIRCLE
  5
27
100
AcDbEntity
  8
L1_
  6
CONTINUOUS
 62
         7
100
AcDbCircle
 10
-9592.8151889697
 20
11978.3503198193
 30
0.0
 40
12.0
  0
ARC
  5
28
100
AcDbEntity
  8
L1_
  6
CONTINUOUS
 62
         4
100
AcDbCircle
 10
-9592.8151889697
 20
11978.3503198193
 30
0.0
 40
14.95
100
AcDbArc
 50
270.0
 51
540.0
  0
CIRCLE
  5
29
100
AcDbEntity
  8
L1_
  6
CONTINUOUS
 62
         7
100
AcDbCircle
 10
-9592.8151889697
 20
11978.3503198193
 30
0.0
 40
15.9
  0
CIRCLE
  5
2A
100
AcDbEntity
  8
L1_
  6
CONTINUOUS
 62
         7
100
AcDbCircle
 10
-9592.8151889697
 20
11978.3503198193
 30
0.0
 40
20.0
  0
CIRCLE
  5
2B
100
AcDbEntity
  8
L1_
  6
CONTINUOUS
 62
         7
100
AcDbCircle
 10
-9592.8151889697
 20
11978.3503198193
 30
0.0
 40
19.5
  0
ARC
  5
2C
100
AcDbEntity
  8
L1_
  6
CONTINUOUS
 62
         4
100
AcDbCircle
 10
-9592.8151889697
 20
11978.3503198193
 30
0.0
 40
9.0
100
AcDbArc
 50
270.0
 51
540.0
  0
LINE
  5
2D
100
AcDbEntity
  8
L1_
  6
CONTINUOUS
 62
         7
100
AcDbLine
 10
-9879.8185485269
 20
11944.4253198193
 30
0.0
 11
-9880.8185485269
 21
11943.4253198193
 31
0.0
  0
LINE
  5
2E
100
AcDbEntity
  8
L1_
  6
CONTINUOUS
 62
         4
100
AcDbLine
 10
-9880.8185485269
 20
12013.2753198193
 30
0.0
 11
-9880.8185485269
 21
11943.4253198193
 31
0.0
  0
LINE
  5
2F
100
AcDbEntity
  8
L1_
  6
CONTINUOUS
 62
         7
100
AcDbLine
 10
-9880.8185485269
 20
12013.2753198193
 30
0.0
 11
-9879.8185485269
 21
12012.2753198193
 31
0.0
  0
CIRCLE
  5
30
100
AcDbEntity
  8
L1_
  6
CONTINUOUS
 62
         7
100
AcDbCircle
 10
-9903.7705485269
 20
11949.0513256675
 30
0.0
 40
1.5320888862
  0
CIRCLE
  5
31
100
AcDbEntity
  8
L1_
  6
CONTINUOUS
 62
         7
100
AcDbCircle
 10
-9903.7705485269
 20
11959.0868962676
 30
0.0
 40
1.8126155741
  0
CIRCLE
  5
32
100
AcDbEntity
  8
L1_
  6
CONTINUOUS
 62
         7
100
AcDbCircle
 10
-9903.7705485269
 20
11997.6137433711
 30
0.0
 40
1.8126155741
  0
CIRCLE
  5
33
100
AcDbEntity
  8
L1_
  6
CONTINUOUS
 62
         7
100
AcDbCircle
 10
-9903.7705485269
 20
12007.6493139712
 30
0.0
 40
1.5320888862
  0
LINE
  5
34
100
AcDbEntity
  8
L1_
  6
DASHED
 62
         2
100
AcDbLine
 10
-9614.9561286435
 20
11957.1610509265
 30
0.0
 11
-9615.5272790822
 21
11959.2926133827
 31
0.0
  0
LINE
  5
35
100
AcDbEntity
  8
L1_
  6
DASHED
 62
         2
100
AcDbLine
 10
-9617.5272790822
 20
11960.225228699
 30
0.0
 11
-9615.5272790822
 21
11959.2926133827
 31
0.0
  0
LINE
  5
36
100
AcDbEntity
  8
L1_
  6
DASHED
 62
         2
100
AcDbLine
 10
-9614.9561286435
 20
11957.1610509265
 30
0.0
 11
-9617.5272790822
 21
11960.225228699
 31
0.0
  0
LINE
  5
37
100
AcDbEntity
  8
L1_
  6
DASHED
 62
         2
100
AcDbLine
 10
-9619.6858807602
 20
11963.6135546196
 30
0.0
 11
-9619.6858807602
 21
11965.8203104575
 31
0.0
  0
LINE
  5
38
100
AcDbEntity
  8
L1_
  6
DASHED
 62
         2
100
AcDbLine
 10
-9621.3763538071
 20
11967.2387857678
 30
0.0
 11
-9619.6858807602
 21
11965.8203104575
 31
0.0
  0
LINE
  5
39
100
AcDbEntity
  8
L1_
  6
DASHED
 62
         2
100
AcDbLine
 10
-9619.6858807602
 20
11963.6135546196
 30
0.0
 11
-9621.3763538071
 21
11967.2387857678
 31
0.0
  0
LINE
  5
3A
100
AcDbEntity
  8
L1_
  6
DASHED
 62
         2
100
AcDbLine
 10
-9626.4467952903
 20
11947.5192367812
 30
0.0
 11
-9614.9561286435
 21
11957.1610509265
 31
0.0
  0
LINE
  5
3B
100
AcDbEntity
  8
L1_
  6
DASHED
 62
         2
100
AcDbLine
 10
-9629.017945729
 20
11950.5834145537
 30
0.0
 11
-9617.5272790822
 21
11960.225228699
 31
0.0
  0
LINE
  5
3C
100
AcDbEntity
  8
L1_
  6
DASHED
 62
         2
100
AcDbLine
 10
-9633.2804975657
 20
11957.2742806935
 30
0.0
 11
-9619.6858807602
 21
11963.6135546196
 31
0.0
  0
LINE
  5
3D
100
AcDbEntity
  8
L1_
  6
DASHED
 62
         2
100
AcDbLine
 10
-9634.9709706127
 20
11960.8995118416
 30
0.0
 11
-9621.3763538071
 21
11967.2387857678
 31
0.0
  0
LINE
  5
3E
100
AcDbEntity
  8
L1_
  6
DASHED
 62
         2
100
AcDbLine
 10
-9614.9561286435
 20
11999.5395887121
 30
0.0
 11
-9615.5272790822
 21
11997.408026256
 31
0.0
  0
LINE
  5
3F
100
AcDbEntity
  8
L1_
  6
DASHED
 62
         2
100
AcDbLine
 10
-9614.9561286435
 20
11999.5395887121
 30
0.0
 11
-9617.5272790822
 21
11996.4754109397
 31
0.0
  0
LINE
  5
40
100
AcDbEntity
  8
L1_
  6
DASHED
 62
         2
100
AcDbLine
 10
-9617.5272790822
 20
11996.4754109397
 30
0.0
 11
-9615.5272790822
 21
11997.408026256
 31
0.0
  0
LINE
  5
41
100
AcDbEntity
  8
L1_
  6
DASHED
 62
         2
100
AcDbLine
 10
-9619.6858807602
 20
11993.087085019
 30
0.0
 11
-9619.6858807602
 21
11990.8803291811
 31
0.0
  0
LINE
  5
42
100
AcDbEntity
  8
L1_
  6
DASHED
 62
         2
100
AcDbLine
 10
-9621.3763538071
 20
11989.4618538709
 30
0.0
 11
-9619.6858807602
 21
11990.8803291811
 31
0.0
  0
LINE
  5
43
100
AcDbEntity
  8
L1_
  6
DASHED
 62
         2
100
AcDbLine
 10
-9619.6858807602
 20
11993.087085019
 30
0.0
 11
-9621.3763538071
 21
11989.4618538709
 31
0.0
  0
LINE
  5
44
100
AcDbEntity
  8
L1_
  6
DASHED
 62
         2
100
AcDbLine
 10
-9634.9709706127
 20
11995.801127797
 30
0.0
 11
-9621.3763538071
 21
11989.4618538709
 31
0.0
  0
LINE
  5
45
100
AcDbEntity
  8
L1_
  6
DASHED
 62
         2
100
AcDbLine
 10
-9633.2804975657
 20
11999.4263589452
 30
0.0
 11
-9619.6858807602
 21
11993.087085019
 31
0.0
  0
LINE
  5
46
100
AcDbEntity
  8
L1_
  6
DASHED
 62
         2
100
AcDbLine
 10
-9629.017945729
 20
12006.117225085
 30
0.0
 11
-9617.5272790822
 21
11996.4754109397
 31
0.0
  0
LINE
  5
47
100
AcDbEntity
  8
L1_
  6
DASHED
 62
         2
100
AcDbLine
 10
-9626.4467952903
 20
12009.1814028574
 30
0.0
 11
-9614.9561286435
 21
11999.5395887121
 31
0.0
  0
LINE
  5
48
100
AcDbEntity
  8
L1_
  6
CENTER
 62
         1
100
AcDbLine
 10
-9630.1598555718
 20
11947.0144238471
 30
0.0
 11
-9592.8151889697
 21
11978.3503198193
 31
0.0
  0
LINE
  5
49
100
AcDbEntity
  8
L1_
  6
CENTER
 62
         1
100
AcDbLine
 10
-9636.9976935878
 20
11957.7476795595
 30
0.0
 11
-9592.8151889697
 21
11978.3503198193
 31
0.0
  0
LINE
  5
4A
100
AcDbEntity
  8
L1_
  6
CENTER
 62
         1
100
AcDbLine
 10
-9636.9976935878
 20
11998.9529600792
 30
0.0
 11
-9592.8151889697
 21
11978.3503198193
 31
0.0
  0
LINE
  5
4B
100
AcDbEntity
  8
L1_
  6
CENTER
 62
         1
100
AcDbLine
 10
-9630.1598555718
 20
12009.6862157915
 30
0.0
 11
-9592.8151889697
 21
11978.3503198193
 31
0.0
  0
LINE
  5
4C
100
AcDbEntity
  8
L1_
  6
CENTER
 62
         1
100
AcDbLine
 10
-9925.6264811549
 20
11978.3503198193
 30
0.0
 11
-9806.9814549276
 21
11978.3503198193
 31
0.0
  0
LINE
  5
4D
100
AcDbEntity
  8
L1_
  6
CENTER
 62
         1
100
AcDbLine
 10
-10021.4166910949
 20
11978.3503198193
 30
0.0
 11
-9947.4954580991
 21
11978.3503198193
 31
0.0
  0
LINE
  5
4E
100
AcDbEntity
  8
L1_
  6
CONTINUOUS
 62
         7
100
AcDbLine
 10
-9913.6705485269
 20
12013.450321467
 30
0.0
 11
-10014.3313190855
 21
11998.770487551
 31
0.0
  0
LINE
  5
4F
100
AcDbEntity
  8
L1_
  6
CONTINUOUS
 62
         7
100
AcDbLine
 10
-9913.6705485269
 20
11943.2503181717
 30
0.0
 11
-10014.3313190855
 21
11957.9301520877
 31
0.0
  0
LINE
  5
50
100
AcDbEntity
  8
L1_
  6
CONTINUOUS
 62
         7
100
AcDbLine
 10
-9913.6705485269
 20
12013.450321467
 30
0.0
 11
-9913.6705485269
 21
11943.2503181717
 31
0.0
  0
LINE
  5
51
100
AcDbEntity
  8
L1_
  6
CENTER
 62
         1
100
AcDbLine
 10
-9914.8705485269
 20
12018.0753198193
 30
0.0
 11
-9914.8705485269
 21
11940.0792654738
 31
0.0
  0
LINE
  5
52
100
AcDbEntity
  8
L1_
  6
CONTINUOUS
 62
         7
100
AcDbLine
 10
-9911.6705485269
 20
12025.6003198193
 30
0.0
 11
-9911.6705485269
 21
11931.1003198193
 31
0.0
  0
LINE
  5
53
100
AcDbEntity
  8
L1_
  6
CENTER
 62
         1
100
AcDbLine
 10
-9903.7705485269
 20
12033.3555831201
 30
0.0
 11
-9903.7705485269
 21
11923.3527635683
 31
0.0
  0
LINE
  5
54
100
AcDbEntity
  8
L1_
  6
CONTINUOUS
 62
         7
100
AcDbLine
 10
-9900.2342781281
 20
11929.6003198193
 30
0.0
 11
-9897.2705485269
 21
11929.6003198193
 31
0.0
  0
ARC
  5
55
100
AcDbEntity
  8
L1_
  6
CONTINUOUS
 62
         7
100
AcDbCircle
 10
-9902.3271728539
 20
11932.2253198193
 30
0.0
 40
0.5
100
AcDbArc
 50
30.0
 51
90.0
  0
LINE
  5
56
100
AcDbEntity
  8
L1_
  6
CONTINUOUS
 62
         7
100
AcDbLine
 10
-9905.6469369018
 20
11932.4753198193
 30
0.0
 11
-9907.3068189257
 21
11929.6003198193
 31
0.0
  0
LINE
  5
57
100
AcDbEntity
  8
L1_
  6
CONTINUOUS
 62
         7
100
AcDbLine
 10
-9910.1705485269
 20
11929.6003198193
 30
0.0
 11
-9907.3068189257
 21
11929.6003198193
 31
0.0
  0
ARC
  5
58
100
AcDbEntity
  8
L1_
  6
CONTINUOUS
 62
         7
100
AcDbCircle
 10
-9905.2139241999
 20
11932.2253198193
 30
0.0
 40
0.5
100
AcDbArc
 50
90.0
 51
150.0
  0
LINE
  5
59
100
AcDbEntity
  8
L1_
  6
CONTINUOUS
 62
         7
100
AcDbLine
 10
-9905.2139241999
 20
11932.7253198193
 30
0.0
 11
-9902.3271728539
 21
11932.7253198193
 31
0.0
  0
LINE
  5
5A
100
AcDbEntity
  8
L1_
  6
CONTINUOUS
 62
         7
100
AcDbLine
 10
-9901.894160152
 20
11932.4753198193
 30
0.0
 11
-9900.2342781281
 21
11929.6003198193
 31
0.0
  0
LINE
  5
5B
100
AcDbEntity
  8
L1_
  6
CONTINUOUS
 62
         7
100
AcDbLine
 10
-9900.2342781281
 20
12027.1003198193
 30
0.0
 11
-9897.2705485269
 21
12027.1003198193
 31
0.0
  0
ARC
  5
5C
100
AcDbEntity
  8
L1_
  6
CONTINUOUS
 62
         7
100
AcDbCircle
 10
-9902.3271728539
 20
12024.4753198193
 30
0.0
 40
0.5
100
AcDbArc
 50
270.0
 51
330.0
  0
LINE
  5
5D
100
AcDbEntity
  8
L1_
  6
CONTINUOUS
 62
         7
100
AcDbLine
 10
-9905.6469369018
 20
12024.2253198193
 30
0.0
 11
-9907.3068189257
 21
12027.1003198193
 31
0.0
  0
ARC
  5
5E
100
AcDbEntity
  8
L1_
  6
CONTINUOUS
 62
         7
100
AcDbCircle
 10
-9905.2139241999
 20
12024.4753198193
 30
0.0
 40
0.5
100
AcDbArc
 50
210.0
 51
270.0
  0
LINE
  5
5F
100
AcDbEntity
  8
L1_
  6
CONTINUOUS
 62
         7
100
AcDbLine
 10
-9910.1705485269
 20
12027.1003198193
 30
0.0
 11
-9907.3068189257
 21
12027.1003198193
 31
0.0
  0
LINE
  5
60
100
AcDbEntity
  8
L1_
  6
CONTINUOUS
 62
         7
100
AcDbLine
 10
-9905.2139241999
 20
12023.9753198193
 30
0.0
 11
-9902.3271728539
 21
12023.9753198193
 31
0.0
  0
LINE
  5
61
100
AcDbEntity
  8
L1_
  6
CONTINUOUS
 62
         7
100
AcDbLine
 10
-9901.894160152
 20
12024.2253198193
 30
0.0
 11
-9900.2342781281
 21
12027.1003198193
 31
0.0
  0
LINE
  5
62
100
AcDbEntity
  8
L1_
  6
CONTINUOUS
 62
         7
100
AcDbLine
 10
-9895.7705485269
 20
12025.6003198193
 30
0.0
 11
-9895.7705485269
 21
11931.1003198193
 31
0.0
  0
LINE
  5
63
100
AcDbEntity
  8
L1_
  6
CONTINUOUS
 62
         7
100
AcDbLine
 10
-10008.2012045653
 20
11728.9615473042
 30
0.0
 11
-10008.2012045653
 21
11749.754230231
 31
0.0
  0
LINE
  5
64
100
AcDbEntity
  8
L1_
  6
CONTINUOUS
 62
         7
100
AcDbLine
 10
-10010.3877058144
 20
11726.7750460551
 30
0.0
 11
-10008.2012045653
 21
11728.9615473042
 31
0.0
  0
ARC
  5
65
100
AcDbEntity
  8
L1_
  6
CONTINUOUS
 62
         7
100
AcDbCircle
 10
-10010.6705485269
 20
11727.0578887676
 30
0.0
 40
0.4
100
AcDbArc
 50
270.0
 51
315.0
  0
ARC
  5
66
100
AcDbEntity
  8
L1_
  6
CONTINUOUS
 62
         7
100
AcDbCircle
 10
-10015.1205485269
 20
11725.3578887676
 30
0.0
 40
1.5
100
AcDbArc
 50
90.0
 51
154.1580672375
  0
LINE
  5
67
100
AcDbEntity
  8
L1_
  6
CONTINUOUS
 62
         7
100
AcDbLine
 10
-10011.5241383654
 20
11726.6578887676
 30
0.0
 11
-10012.2705485269
 21
11726.8578887676
 31
0.0
  0
LINE
  5
68
100
AcDbEntity
  8
L1_
  6
CONTINUOUS
 62
         7
100
AcDbLine
 10
-10011.5241383654
 20
11726.6578887676
 30
0.0
 11
-10010.6705485269
 21
11726.6578887676
 31
0.0
  0
LINE
  5
69
100
AcDbEntity
  8
L1_
  6
CONTINUOUS
 62
         7
100
AcDbLine
 10
-10015.1205485269
 20
11726.8578887676
 30
0.0
 11
-10012.2705485269
 21
11726.8578887676
 31
0.0
  0
LINE
  5
6A
100
AcDbEntity
  8
L1_
  6
CONTINUOUS
 62
         7
100
AcDbLine
 10
-10010.3877058144
 20
11751.9407314801
 30
0.0
 11
-10008.2012045653
 21
11749.754230231
 31
0.0
  0
ARC
  5
6B
100
AcDbEntity
  8
L1_
  6
CONTINUOUS
 62
         7
100
AcDbCircle
 10
-10015.1205485269
 20
11753.3578887676
 30
0.0
 40
1.5
100
AcDbArc
 50
205.8419327625
 51
270.0
  0
LINE
  5
6C
100
AcDbEntity
  8
L1_
  6
CONTINUOUS
 62
         7
100
AcDbLine
 10
-10011.5241383654
 20
11752.0578887676
 30
0.0
 11
-10012.2705485269
 21
11751.8578887676
 31
0.0
  0
ARC
  5
6D
100
AcDbEntity
  8
L1_
  6
CONTINUOUS
 62
         7
100
AcDbCircle
 10
-10010.6705485269
 20
11751.6578887676
 30
0.0
 40
0.4
100
AcDbArc
 50
45.0
 51
90.0
  0
LINE
  5
6E
100
AcDbEntity
  8
L1_
  6
CONTINUOUS
 62
         7
100
AcDbLine
 10
-10012.2705485269
 20
11726.8578887676
 30
0.0
 11
-10012.2705485269
 21
11751.8578887676
 31
0.0
  0
LINE
  5
6F
100
AcDbEntity
  8
L1_
  6
CONTINUOUS
 62
         7
100
AcDbLine
 10
-10011.5241383654
 20
11752.0578887676
 30
0.0
 11
-10010.6705485269
 21
11752.0578887676
 31
0.0
  0
LINE
  5
70
100
AcDbEntity
  8
L1_
  6
CONTINUOUS
 62
         7
100
AcDbLine
 10
-10010.2705485269
 20
11726.8922033426
 30
0.0
 11
-10010.2705485269
 21
11751.8235741925
 31
0.0
  0
ARC
  5
71
100
AcDbEntity
  8
L1_
  6
CONTINUOUS
 62
         7
100
AcDbCircle
 10
-9902.6158479885
 20
11692.7328887676
 30
0.0
 40
1.0
100
AcDbArc
 50
30.0
 51
90.0
  0
LINE
  5
72
100
AcDbEntity
  8
L1_
  6
CENTER
 62
         1
100
AcDbLine
 10
-10016.6205485269
 20
11739.3578887676
 30
0.0
 11
-9809.8803858683
 21
11739.3578887676
 31
0.0
  0
LINE
  5
73
100
AcDbEntity
  8
L1_
  6
CONTINUOUS
 62
         5
100
AcDbLine
 10
-10009.8048631019
 20
11751.3578887676
 30
0.0
 11
-9971.9705485269
 21
11751.3578887676
 31
0.0
  0
LINE
  5
74
100
AcDbEntity
  8
L1_
  6
CONTINUOUS
 62
         7
100
AcDbLine
 10
-10008.2012045653
 20
11749.754230231
 30
0.0
 11
-9926.4658163001
 21
11749.754230231
 31
0.0
  0
LINE
  5
75
100
AcDbEntity
  8
L1_
  6
CONTINUOUS
 62
         7
100
AcDbLine
 10
-9913.6705485269
 20
11774.4578904152
 30
0.0
 11
-10014.4813190855
 21
11759.7561812933
 31
0.0
  0
LINE
  5
76
100
AcDbEntity
  8
L1_
  6
CONTINUOUS
 62
         5
100
AcDbLine
 10
-10009.8048631019
 20
11727.3578887676
 30
0.0
 11
-9971.9705485269
 21
11727.3578887676
 31
0.0
  0
LINE
  5
77
100
AcDbEntity
  8
L1_
  6
CONTINUOUS
 62
         7
100
AcDbLine
 10
-10008.2012045653
 20
11728.9615473042
 30
0.0
 11
-9926.4658163001
 21
11728.9615473042
 31
0.0
  0
LINE
  5
78
100
AcDbEntity
  8
L1_
  6
CONTINUOUS
 62
         7
100
AcDbLine
 10
-9913.6705485269
 20
11704.25788712
 30
0.0
 11
-10014.4813190855
 21
11718.9595962419
 31
0.0
  0
LINE
  5
79
100
AcDbEntity
  8
L1_
  6
CONTINUOUS
 62
         7
100
AcDbLine
 10
-10015.1205485269
 20
11751.8578887676
 30
0.0
 11
-10012.2705485269
 21
11751.8578887676
 31
0.0
  0
LINE
  5
7A
100
AcDbEntity
  8
L1_
  6
CONTINUOUS
 62
         7
100
AcDbLine
 10
-9971.9705485269
 20
11751.3578887676
 30
0.0
 11
-9971.9705485269
 21
11727.3578887676
 31
0.0
  0
LINE
  5
7B
100
AcDbEntity
  8
L1_
  6
CONTINUOUS
 62
         7
100
AcDbLine
 10
-9900.2342781281
 20
11690.6078887676
 30
0.0
 11
-9897.2705485269
 21
11690.6078887676
 31
0.0
  0
ARC
  5
7C
100
AcDbEntity
  8
L1_
  6
CONTINUOUS
 62
         7
100
AcDbCircle
 10
-9905.2139241999
 20
11693.2328887676
 30
0.0
 40
0.5
100
AcDbArc
 50
90.0
 51
150.0
  0
LINE
  5
7D
100
AcDbEntity
  8
L1_
  6
CONTINUOUS
 62
         7
100
AcDbLine
 10
-9905.6469369018
 20
11693.4828887676
 30
0.0
 11
-9907.3068189257
 21
11690.6078887676
 31
0.0
  0
LINE
  5
7E
100
AcDbEntity
  8
L1_
  6
CONTINUOUS
 62
         7
100
AcDbLine
 10
-9910.1705485269
 20
11690.6078887676
 30
0.0
 11
-9907.3068189257
 21
11690.6078887676
 31
0.0
  0
LINE
  5
7F
100
AcDbEntity
  8
L1_
  6
CONTINUOUS
 62
         7
100
AcDbLine
 10
-9905.2139241999
 20
11693.7328887676
 30
0.0
 11
-9902.6158479885
 21
11693.7328887676
 31
0.0
  0
LINE
  5
80
100
AcDbEntity
  8
L1_
  6
CONTINUOUS
 62
         7
100
AcDbLine
 10
-9911.6705485269
 20
11703.45788712
 30
0.0
 11
-9911.6705485269
 21
11692.1078887676
 31
0.0
  0
LINE
  5
81
100
AcDbEntity
  8
L1_
  6
CONTINUOUS
 62
         7
100
AcDbLine
 10
-9901.7498225847
 20
11693.2328887676
 30
0.0
 11
-9900.2342781281
 21
11690.6078887676
 31
0.0
  0
LINE
  5
82
100
AcDbEntity
  8
L1_
  6
CONTINUOUS
 62
         7
100
AcDbLine
 10
-9900.2342781281
 20
11788.1078887676
 30
0.0
 11
-9897.2705485269
 21
11788.1078887676
 31
0.0
  0
LINE
  5
83
100
AcDbEntity
  8
L1_
  6
CONTINUOUS
 62
         7
100
AcDbLine
 10
-9905.6469369018
 20
11785.2328887676
 30
0.0
 11
-9907.3068189257
 21
11788.1078887676
 31
0.0
  0
LINE
  5
84
100
AcDbEntity
  8
L1_
  6
CONTINUOUS
 62
         7
100
AcDbLine
 10
-9910.1705485269
 20
11788.1078887676
 30
0.0
 11
-9907.3068189257
 21
11788.1078887676
 31
0.0
  0
LINE
  5
85
100
AcDbEntity
  8
L1_
  6
CONTINUOUS
 62
         7
100
AcDbLine
 10
-9901.894160152
 20
11785.2328887676
 30
0.0
 11
-9900.2342781281
 21
11788.1078887676
 31
0.0
  0
LINE
  5
86
100
AcDbEntity
  8
L1_
  6
CONTINUOUS
 62
         7
100
AcDbLine
 10
-9911.6705485269
 20
11786.6078887676
 30
0.0
 11
-9911.6705485269
 21
11775.2578904152
 31
0.0
  0
LINE
  5
87
100
AcDbEntity
  8
L1_
  6
CONTINUOUS
 62
         7
100
AcDbLine
 10
-10016.4705485269
 20
11996.2966555833
 30
0.0
 11
-10016.4705485269
 21
11960.4039840553
 31
0.0
  0
ARC
  5
88
100
AcDbEntity
  8
L1_
  6
CONTINUOUS
 62
         7
100
AcDbCircle
 10
-10013.9705485269
 20
11996.2966555833
 30
0.0
 40
2.5
100
AcDbArc
 50
98.297222
 51
180.0
  0
ARC
  5
89
100
AcDbEntity
  8
L1_
  6
CONTINUOUS
 62
         7
100
AcDbCircle
 10
-10013.9705485269
 20
11960.4039840553
 30
0.0
 40
2.5
100
AcDbArc
 50
180.0
 51
261.702778
  0
ARC
  5
8A
100
AcDbEntity
  8
L1_
  6
CONTINUOUS
 62
         7
100
AcDbCircle
 10
-10013.9705485269
 20
11757.3042245316
 30
0.0
 40
2.5
100
AcDbArc
 50
98.297222
 51
180.0
  0
LINE
  5
8B
100
AcDbEntity
  8
L1_
  6
CONTINUOUS
 62
         7
100
AcDbLine
 10
-10016.4705485269
 20
11757.3042245316
 30
0.0
 11
-10016.4705485269
 21
11721.4115530036
 31
0.0
  0
ARC
  5
8C
100
AcDbEntity
  8
L1_
  6
CONTINUOUS
 62
         7
100
AcDbCircle
 10
-10013.9705485269
 20
11721.4115530036
 30
0.0
 40
2.5
100
AcDbArc
 50
180.0
 51
261.702778
  0
LINE
  5
8D
100
AcDbEntity
  8
L1_
  6
CENTER
 62
         1
100
AcDbLine
 10
-10181.2852676399
 20
12026.2680856205
 30
0.0
 11
-10218.8326032918
 21
11923.1076287561
 31
0.0
  0
LINE
  5
8E
100
AcDbEntity
  8
L1_
  6
CENTER
 62
         1
100
AcDbLine
 10
-10208.0845878372
 20
11938.1253293236
 30
0.0
 11
-10217.4815140451
 21
11941.5455307569
 31
0.0
  0
POLYLINE
  5
90
100
AcDbEntity
  8
L1_
  6
CONTINUOUS
 62
         7
100
AcDb2dPolyline
 66
         1
 10
0.0
 20
0.0
 30
0.0
 70
         2
  0
VERTEX
  5
92
100
AcDbEntity
  8
L1_
  6
CONTINUOUS
 62
         7
100
AcDbVertex
100
AcDb2dVertex
 10
-10211.5859804395
 20
11943.124354213
 30
0.0
 70
         1
  0
VERTEX
  5
94
100
AcDbEntity
  8
L1_
  6
CONTINUOUS
 62
         7
100
AcDbVertex
100
AcDb2dVertex
 10
-10211.9659815042
 20
11943.217325558
 30
0.0
 70
         1
  0
VERTEX
  5
96
100
AcDbEntity
  8
L1_
  6
CONTINUOUS
 62
         7
100
AcDbVertex
100
AcDb2dVertex
 10
-10212.1430501716
 20
11943.2323270558
 30
0.0
 70
         1
  0
VERTEX
  5
98
100
AcDbEntity
  8
L1_
  6
CONTINUOUS
 62
         7
100
AcDbVertex
100
AcDb2dVertex
 10
-10212.3276774417
 20
11943.2304939164
 30
0.0
 70
         1
  0
VERTEX
  5
9A
100
AcDbEntity
  8
L1_
  6
CONTINUOUS
 62
         7
100
AcDbVertex
100
AcDb2dVertex
 10
-10212.5186842913
 20
11943.2106568653
 30
0.0
 70
         1
  0
VERTEX
  5
9C
100
AcDbEntity
  8
L1_
  6
CONTINUOUS
 62
         7
100
AcDbVertex
100
AcDb2dVertex
 10
-10212.714669019
 20
11943.1719005939
 30
0.0
 70
         1
  0
VERTEX
  5
9E
100
AcDbEntity
  8
L1_
  6
CONTINUOUS
 62
         7
100
AcDbVertex
100
AcDb2dVertex
 10
-10212.9140316511
 20
11943.1136187347
 30
0.0
 70
         1
  0
VERTEX
  5
A0
100
AcDbEntity
  8
L1_
  6
CONTINUOUS
 62
         7
100
AcDbVertex
100
AcDb2dVertex
 10
-10213.1150108835
 20
11943.0355593742
 30
0.0
 70
         1
  0
VERTEX
  5
A2
100
AcDbEntity
  8
L1_
  6
CONTINUOUS
 62
         7
100
AcDbVertex
100
AcDb2dVertex
 10
-10213.3157324103
 20
11942.9378568119
 30
0.0
 70
         1
  0
VERTEX
  5
A4
100
AcDbEntity
  8
L1_
  6
CONTINUOUS
 62
         7
100
AcDbVertex
100
AcDb2dVertex
 10
-10213.5142662802
 20
11942.8210460553
 30
0.0
 70
         1
  0
VERTEX
  5
A6
100
AcDbEntity
  8
L1_
  6
CONTINUOUS
 62
         7
100
AcDbVertex
100
AcDb2dVertex
 10
-10213.7086898598
 20
11942.6860578418
 30
0.0
 70
         1
  0
VERTEX
  5
A8
100
AcDbEntity
  8
L1_
  6
CONTINUOUS
 62
         7
100
AcDbVertex
100
AcDb2dVertex
 10
-10213.8971522305
 20
11942.5341936589
 30
0.0
 70
         1
  0
VERTEX
  5
AA
100
AcDbEntity
  8
L1_
  6
CONTINUOUS
 62
         7
100
AcDbVertex
100
AcDb2dVertex
 10
-10214.1374810309
 20
11942.3070111083
 30
0.0
 70
         1
  0
VERTEX
  5
AC
100
AcDbEntity
  8
L1_
  6
CONTINUOUS
 62
         7
100
AcDbVertex
100
AcDb2dVertex
 10
-10214.3604411106
 20
11942.0571024322
 30
0.0
 70
         1
  0
VERTEX
  5
AE
100
AcDbEntity
  8
L1_
  6
CONTINUOUS
 62
         7
100
AcDbVertex
100
AcDb2dVertex
 10
-10214.5632194648
 20
11941.7896653201
 30
0.0
 70
         1
  0
VERTEX
  5
B0
100
AcDbEntity
  8
L1_
  6
CONTINUOUS
 62
         7
100
AcDbVertex
100
AcDb2dVertex
 10
-10214.743879032
 20
11941.510118385
 30
0.0
 70
         1
  0
VERTEX
  5
B2
100
AcDbEntity
  8
L1_
  6
CONTINUOUS
 62
         7
100
AcDbVertex
100
AcDb2dVertex
 10
-10214.9013763063
 20
11941.2237858751
 30
0.0
 70
         1
  0
VERTEX
  5
B4
100
AcDbEntity
  8
L1_
  6
CONTINUOUS
 62
         7
100
AcDbVertex
100
AcDb2dVertex
 10
-10215.0355066013
 20
11940.9356310405
 30
0.0
 70
         1
  0
VERTEX
  5
B6
100
AcDbEntity
  8
L1_
  6
CONTINUOUS
 62
         7
100
AcDbVertex
100
AcDb2dVertex
 10
-10215.179905664
 20
11940.5533483646
 30
0.0
 70
         1
  0
VERTEX
  5
B8
100
AcDbEntity
  8
L1_
  6
CONTINUOUS
 62
         7
100
AcDbVertex
100
AcDb2dVertex
 10
-10215.2860284896
 20
11940.1843537542
 30
0.0
 70
         1
  0
VERTEX
  5
BA
100
AcDbEntity
  8
L1_
  6
CONTINUOUS
 62
         7
100
AcDbVertex
100
AcDb2dVertex
 10
-10215.3579756109
 20
11939.8349907138
 30
0.0
 70
         1
  0
VERTEX
  5
BC
100
AcDbEntity
  8
L1_
  6
CONTINUOUS
 62
         7
100
AcDbVertex
100
AcDb2dVertex
 10
-10215.4004701547
 20
11939.5093636757
 30
0.0
 70
         1
  0
VERTEX
  5
BE
100
AcDbEntity
  8
L1_
  6
CONTINUOUS
 62
         7
100
AcDbVertex
100
AcDb2dVertex
 10
-10215.4183642776
 20
11939.2096598823
 30
0.0
 70
         1
  0
VERTEX
  5
C0
100
AcDbEntity
  8
L1_
  6
CONTINUOUS
 62
         7
100
AcDbVertex
100
AcDb2dVertex
 10
-10215.4162914359
 20
11938.9365522686
 30
0.0
 70
         1
  0
VERTEX
  5
C2
100
AcDbEntity
  8
L1_
  6
CONTINUOUS
 62
         7
100
AcDbVertex
100
AcDb2dVertex
 10
-10215.3892781638
 20
11938.6099044168
 30
0.0
 70
         1
  0
VERTEX
  5
C4
100
AcDbEntity
  8
L1_
  6
CONTINUOUS
 62
         7
100
AcDbVertex
100
AcDb2dVertex
 10
-10215.342328152
 20
11938.3275199687
 30
0.0
 70
         1
  0
VERTEX
  5
C6
100
AcDbEntity
  8
L1_
  6
CONTINUOUS
 62
         7
100
AcDbVertex
100
AcDb2dVertex
 10
-10215.2823455988
 20
11938.0850414482
 30
0.0
 70
         1
  0
VERTEX
  5
C8
100
AcDbEntity
  8
L1_
  6
CONTINUOUS
 62
         7
100
AcDbVertex
100
AcDb2dVertex
 10
-10215.1896771808
 20
11937.8122388659
 30
0.0
 70
         1
  0
VERTEX
  5
CA
100
AcDbEntity
  8
L1_
  6
CONTINUOUS
 62
         7
100
AcDbVertex
100
AcDb2dVertex
 10
-10215.0917225078
 20
11937.5920865226
 30
0.0
 70
         1
  0
VERTEX
  5
CC
100
AcDbEntity
  8
L1_
  6
CONTINUOUS
 62
         7
100
AcDbVertex
100
AcDb2dVertex
 10
-10214.994200884
 20
11937.4143987976
 30
0.0
 70
         1
  0
VERTEX
  5
CE
100
AcDbEntity
  8
L1_
  6
CONTINUOUS
 62
         7
100
AcDbVertex
100
AcDb2dVertex
 10
-10214.8682617886
 20
11937.2260303401
 30
0.0
 70
         1
  0
VERTEX
  5
D0
100
AcDbEntity
  8
L1_
  6
CONTINUOUS
 62
         7
100
AcDbVertex
100
AcDb2dVertex
 10
-10214.714323352
 20
11937.0404234003
 30
0.0
 70
         1
  0
VERTEX
  5
D2
100
AcDbEntity
  8
L1_
  6
CONTINUOUS
 62
         7
100
AcDbVertex
100
AcDb2dVertex
 10
-10214.5836985095
 20
11936.9117640906
 30
0.0
 70
         1
  0
VERTEX
  5
D4
100
AcDbEntity
  8
L1_
  6
CONTINUOUS
 62
         7
100
AcDbVertex
100
AcDb2dVertex
 10
-10214.438672011
 20
11936.7933964415
 30
0.0
 70
         1
  0
VERTEX
  5
D6
100
AcDbEntity
  8
L1_
  6
CONTINUOUS
 62
         7
100
AcDbVertex
100
AcDb2dVertex
 10
-10214.2912120863
 20
11936.694978756
 30
0.0
 70
         1
  0
VERTEX
  5
D8
100
AcDbEntity
  8
L1_
  6
CONTINUOUS
 62
         7
100
AcDbVertex
100
AcDb2dVertex
 10
-10214.1144263945
 20
11936.6016651065
 30
0.0
 70
         1
  0
VERTEX
  5
DA
100
AcDbEntity
  8
L1_
  6
CONTINUOUS
 62
         7
100
AcDbVertex
100
AcDb2dVertex
 10
-10213.9801214428
 20
11936.5465058675
 30
0.0
 70
         1
  0
VERTEX
  5
DC
100
AcDbEntity
  8
L1_
  6
CONTINUOUS
 62
         7
100
AcDbVertex
100
AcDb2dVertex
 10
-10213.9801214428
 20
11936.5465058675
 30
0.0
 70
         1
  0
VERTEX
  5
DE
100
AcDbEntity
  8
L1_
  6
CONTINUOUS
 62
         7
100
AcDbVertex
100
AcDb2dVertex
 10
-10213.6001203781
 20
11936.4535345225
 30
0.0
 70
         1
  0
VERTEX
  5
E0
100
AcDbEntity
  8
L1_
  6
CONTINUOUS
 62
         7
100
AcDbVertex
100
AcDb2dVertex
 10
-10213.4230517108
 20
11936.4385330247
 30
0.0
 70
         1
  0
VERTEX
  5
E2
100
AcDbEntity
  8
L1_
  6
CONTINUOUS
 62
         7
100
AcDbVertex
100
AcDb2dVertex
 10
-10213.2384244406
 20
11936.4403661641
 30
0.0
 70
         1
  0
VERTEX
  5
E4
100
AcDbEntity
  8
L1_
  6
CONTINUOUS
 62
         7
100
AcDbVertex
100
AcDb2dVertex
 10
-10213.047417591
 20
11936.4602032152
 30
0.0
 70
         1
  0
VERTEX
  5
E6
100
AcDbEntity
  8
L1_
  6
CONTINUOUS
 62
         7
100
AcDbVertex
100
AcDb2dVertex
 10
-10212.8514328633
 20
11936.4989594866
 30
0.0
 70
         1
  0
VERTEX
  5
E8
100
AcDbEntity
  8
L1_
  6
CONTINUOUS
 62
         7
100
AcDbVertex
100
AcDb2dVertex
 10
-10212.6520702312
 20
11936.5572413458
 30
0.0
 70
         1
  0
VERTEX
  5
EA
100
AcDbEntity
  8
L1_
  6
CONTINUOUS
 62
         7
100
AcDbVertex
100
AcDb2dVertex
 10
-10212.4510909988
 20
11936.6353007063
 30
0.0
 70
         1
  0
VERTEX
  5
EC
100
AcDbEntity
  8
L1_
  6
CONTINUOUS
 62
         7
100
AcDbVertex
100
AcDb2dVertex
 10
-10212.2503694721
 20
11936.7330032686
 30
0.0
 70
         1
  0
VERTEX
  5
EE
100
AcDbEntity
  8
L1_
  6
CONTINUOUS
 62
         7
100
AcDbVertex
100
AcDb2dVertex
 10
-10212.0518356021
 20
11936.8498140253
 30
0.0
 70
         1
  0
VERTEX
  5
F0
100
AcDbEntity
  8
L1_
  6
CONTINUOUS
 62
         7
100
AcDbVertex
100
AcDb2dVertex
 10
-10211.8574120226
 20
11936.9848022387
 30
0.0
 70
         1
  0
VERTEX
  5
F2
100
AcDbEntity
  8
L1_
  6
CONTINUOUS
 62
         7
100
AcDbVertex
100
AcDb2dVertex
 10
-10211.6689496518
 20
11937.1366664216
 30
0.0
 70
         1
  0
VERTEX
  5
F4
100
AcDbEntity
  8
L1_
  6
CONTINUOUS
 62
         7
100
AcDbVertex
100
AcDb2dVertex
 10
-10211.4286208515
 20
11937.3638489722
 30
0.0
 70
         1
  0
VERTEX
  5
F6
100
AcDbEntity
  8
L1_
  6
CONTINUOUS
 62
         7
100
AcDbVertex
100
AcDb2dVertex
 10
-10211.2056607717
 20
11937.6137576483
 30
0.0
 70
         1
  0
VERTEX
  5
F8
100
AcDbEntity
  8
L1_
  6
CONTINUOUS
 62
         7
100
AcDbVertex
100
AcDb2dVertex
 10
-10211.0028824175
 20
11937.8811947604
 30
0.0
 70
         1
  0
VERTEX
  5
FA
100
AcDbEntity
  8
L1_
  6
CONTINUOUS
 62
         7
100
AcDbVertex
100
AcDb2dVertex
 10
-10210.8222228503
 20
11938.1607416955
 30
0.0
 70
         1
  0
VERTEX
  5
FC
100
AcDbEntity
  8
L1_
  6
CONTINUOUS
 62
         7
100
AcDbVertex
100
AcDb2dVertex
 10
-10210.6647255761
 20
11938.4470742054
 30
0.0
 70
         1
  0
VERTEX
  5
FE
100
AcDbEntity
  8
L1_
  6
CONTINUOUS
 62
         7
100
AcDbVertex
100
AcDb2dVertex
 10
-10210.530595281
 20
11938.73522904
 30
0.0
 70
         1
  0
VERTEX
  5
100
100
AcDbEntity
  8
L1_
  6
CONTINUOUS
 62
         7
100
AcDbVertex
100
AcDb2dVertex
 10
-10210.3861962184
 20
11939.1175117159
 30
0.0
 70
         1
  0
VERTEX
  5
102
100
AcDbEntity
  8
L1_
  6
CONTINUOUS
 62
         7
100
AcDbVertex
100
AcDb2dVertex
 10
-10210.2800733928
 20
11939.4865063263
 30
0.0
 70
         1
  0
VERTEX
  5
104
100
AcDbEntity
  8
L1_
  6
CONTINUOUS
 62
         7
100
AcDbVertex
100
AcDb2dVertex
 10
-10210.2081262715
 20
11939.8358693667
 30
0.0
 70
         1
  0
VERTEX
  5
106
100
AcDbEntity
  8
L1_
  6
CONTINUOUS
 62
         7
100
AcDbVertex
100
AcDb2dVertex
 10
-10210.1656317277
 20
11940.1614964048
 30
0.0
 70
         1
  0
VERTEX
  5
108
100
AcDbEntity
  8
L1_
  6
CONTINUOUS
 62
         7
100
AcDbVertex
100
AcDb2dVertex
 10
-10210.1477376048
 20
11940.4612001982
 30
0.0
 70
         1
  0
VERTEX
  5
10A
100
AcDbEntity
  8
L1_
  6
CONTINUOUS
 62
         7
100
AcDbVertex
100
AcDb2dVertex
 10
-10210.1498104464
 20
11940.7343078119
 30
0.0
 70
         1
  0
VERTEX
  5
10C
100
AcDbEntity
  8
L1_
  6
CONTINUOUS
 62
         7
100
AcDbVertex
100
AcDb2dVertex
 10
-10210.1768237185
 20
11941.0609556637
 30
0.0
 70
         1
  0
VERTEX
  5
10E
100
AcDbEntity
  8
L1_
  6
CONTINUOUS
 62
         7
100
AcDbVertex
100
AcDb2dVertex
 10
-10210.2237737304
 20
11941.3433401118
 30
0.0
 70
         1
  0
VERTEX
  5
110
100
AcDbEntity
  8
L1_
  6
CONTINUOUS
 62
         7
100
AcDbVertex
100
AcDb2dVertex
 10
-10210.2837562836
 20
11941.5858186323
 30
0.0
 70
         1
  0
VERTEX
  5
112
100
AcDbEntity
  8
L1_
  6
CONTINUOUS
 62
         7
100
AcDbVertex
100
AcDb2dVertex
 10
-10210.3764247015
 20
11941.8586212146
 30
0.0
 70
         1
  0
VERTEX
  5
114
100
AcDbEntity
  8
L1_
  6
CONTINUOUS
 62
         7
100
AcDbVertex
100
AcDb2dVertex
 10
-10210.4743793745
 20
11942.0787735579
 30
0.0
 70
         1
  0
VERTEX
  5
116
100
AcDbEntity
  8
L1_
  6
CONTINUOUS
 62
         7
100
AcDbVertex
100
AcDb2dVertex
 10
-10210.5719009983
 20
11942.2564612829
 30
0.0
 70
         1
  0
VERTEX
  5
118
100
AcDbEntity
  8
L1_
  6
CONTINUOUS
 62
         7
100
AcDbVertex
100
AcDb2dVertex
 10
-10210.6978400937
 20
11942.4448297404
 30
0.0
 70
         1
  0
VERTEX
  5
11A
100
AcDbEntity
  8
L1_
  6
CONTINUOUS
 62
         7
100
AcDbVertex
100
AcDb2dVertex
 10
-10210.8517785303
 20
11942.6304366802
 30
0.0
 70
         1
  0
VERTEX
  5
11C
100
AcDbEntity
  8
L1_
  6
CONTINUOUS
 62
         7
100
AcDbVertex
100
AcDb2dVertex
 10
-10210.9824033728
 20
11942.7590959899
 30
0.0
 70
         1
  0
VERTEX
  5
11E
100
AcDbEntity
  8
L1_
  6
CONTINUOUS
 62
         7
100
AcDbVertex
100
AcDb2dVertex
 10
-10211.1274298713
 20
11942.877463639
 30
0.0
 70
         1
  0
VERTEX
  5
120
100
AcDbEntity
  8
L1_
  6
CONTINUOUS
 62
         7
100
AcDbVertex
100
AcDb2dVertex
 10
-10211.274889796
 20
11942.9758813245
 30
0.0
 70
         1
  0
VERTEX
  5
122
100
AcDbEntity
  8
L1_
  6
CONTINUOUS
 62
         7
100
AcDbVertex
100
AcDb2dVertex
 10
-10211.4516754878
 20
11943.069194974
 30
0.0
 70
         1
  0
VERTEX
  5
124
100
AcDbEntity
  8
L1_
  6
CONTINUOUS
 62
         7
100
AcDbVertex
100
AcDb2dVertex
 10
-10211.5859804395
 20
11943.124354213
 30
0.0
 70
         1
  0
SEQEND
  5
126
100
AcDbEntity
  8
L1_
  6
CONTINUOUS
 62
         7
  0
POLYLINE
  5
128
100
AcDbEntity
  8
L1_
  6
CONTINUOUS
 62
         7
100
AcDb3dPolyline
 66
         1
 10
0.0
 20
0.0
 30
0.0
 70
         8
  0
VERTEX
  5
12A
100
AcDbEntity
  8
L1_
  6
CONTINUOUS
 62
         7
100
AcDbVertex
100
AcDb3dPolylineVertex
 10
-10185.4604815404
 20
12019.4108327284
 30
0.0
 70
        32
  0
VERTEX
  5
12C
100
AcDbEntity
  8
L1_
  6
CONTINUOUS
 62
         7
100
AcDbVertex
100
AcDb3dPolylineVertex
 10
-10185.4604815404
 20
12019.4108327284
 30
0.0
 70
        32
  0
SEQEND
  5
12E
100
AcDbEntity
  8
L1_
  6
CONTINUOUS
 62
         7
  0
LINE
  5
12F
100
AcDbEntity
  8
L1_
  6
CENTER
 62
         1
100
AcDbLine
 10
-10179.970302123
 20
12015.1551088818
 30
0.0
 11
-10189.3672283308
 21
12018.575310315
 31
0.0
  0
POLYLINE
  5
131
100
AcDbEntity
  8
L1_
  6
CONTINUOUS
 62
         7
100
AcDb2dPolyline
 66
         1
 10
0.0
 20
0.0
 30
0.0
 70
         2
  0
VERTEX
  5
133
100
AcDbEntity
  8
L1_
  6
CONTINUOUS
 62
         7
100
AcDbVertex
100
AcDb2dVertex
 10
-10183.4716947252
 20
12020.1541337711
 30
0.0
 70
         1
  0
VERTEX
  5
135
100
AcDbEntity
  8
L1_
  6
CONTINUOUS
 62
         7
100
AcDbVertex
100
AcDb2dVertex
 10
-10183.8516957899
 20
12020.2471051161
 30
0.0
 70
         1
  0
VERTEX
  5
137
100
AcDbEntity
  8
L1_
  6
CONTINUOUS
 62
         7
100
AcDbVertex
100
AcDb2dVertex
 10
-10184.0287644573
 20
12020.262106614
 30
0.0
 70
         1
  0
VERTEX
  5
139
100
AcDbEntity
  8
L1_
  6
CONTINUOUS
 62
         7
100
AcDbVertex
100
AcDb2dVertex
 10
-10184.2133917274
 20
12020.2602734745
 30
0.0
 70
         1
  0
VERTEX
  5
13B
100
AcDbEntity
  8
L1_
  6
CONTINUOUS
 62
         7
100
AcDbVertex
100
AcDb2dVertex
 10
-10184.404398577
 20
12020.2404364234
 30
0.0
 70
         1
  0
VERTEX
  5
13D
100
AcDbEntity
  8
L1_
  6
CONTINUOUS
 62
         7
100
AcDbVertex
100
AcDb2dVertex
 10
-10184.6003833048
 20
12020.2016801521
 30
0.0
 70
         1
  0
VERTEX
  5
13F
100
AcDbEntity
  8
L1_
  6
CONTINUOUS
 62
         7
100
AcDbVertex
100
AcDb2dVertex
 10
-10184.7997459368
 20
12020.1433982929
 30
0.0
 70
         1
  0
VERTEX
  5
141
100
AcDbEntity
  8
L1_
  6
CONTINUOUS
 62
         7
100
AcDbVertex
100
AcDb2dVertex
 10
-10185.0007251692
 20
12020.0653389324
 30
0.0
 70
         1
  0
VERTEX
  5
143
100
AcDbEntity
  8
L1_
  6
CONTINUOUS
 62
         7
100
AcDbVertex
100
AcDb2dVertex
 10
-10185.201446696
 20
12019.96763637
 30
0.0
 70
         1
  0
VERTEX
  5
145
100
AcDbEntity
  8
L1_
  6
CONTINUOUS
 62
         7
100
AcDbVertex
100
AcDb2dVertex
 10
-10185.3999805659
 20
12019.8508256134
 30
0.0
 70
         1
  0
VERTEX
  5
147
100
AcDbEntity
  8
L1_
  6
CONTINUOUS
 62
         7
100
AcDbVertex
100
AcDb2dVertex
 10
-10185.5944041455
 20
12019.7158374
 30
0.0
 70
         1
  0
VERTEX
  5
149
100
AcDbEntity
  8
L1_
  6
CONTINUOUS
 62
         7
100
AcDbVertex
100
AcDb2dVertex
 10
-10185.7828665162
 20
12019.563973217
 30
0.0
 70
         1
  0
VERTEX
  5
14B
100
AcDbEntity
  8
L1_
  6
CONTINUOUS
 62
         7
100
AcDbVertex
100
AcDb2dVertex
 10
-10186.0231953166
 20
12019.3367906664
 30
0.0
 70
         1
  0
VERTEX
  5
14D
100
AcDbEntity
  8
L1_
  6
CONTINUOUS
 62
         7
100
AcDbVertex
100
AcDb2dVertex
 10
-10186.2461553963
 20
12019.0868819903
 30
0.0
 70
         1
  0
VERTEX
  5
14F
100
AcDbEntity
  8
L1_
  6
CONTINUOUS
 62
         7
100
AcDbVertex
100
AcDb2dVertex
 10
-10186.4489337505
 20
12018.8194448782
 30
0.0
 70
         1
  0
VERTEX
  5
151
100
AcDbEntity
  8
L1_
  6
CONTINUOUS
 62
         7
100
AcDbVertex
100
AcDb2dVertex
 10
-10186.6295933177
 20
12018.5398979431
 30
0.0
 70
         1
  0
VERTEX
  5
153
100
AcDbEntity
  8
L1_
  6
CONTINUOUS
 62
         7
100
AcDbVertex
100
AcDb2dVertex
 10
-10186.787090592
 20
12018.2535654333
 30
0.0
 70
         1
  0
VERTEX
  5
155
100
AcDbEntity
  8
L1_
  6
CONTINUOUS
 62
         7
100
AcDbVertex
100
AcDb2dVertex
 10
-10186.921220887
 20
12017.9654105987
 30
0.0
 70
         1
  0
VERTEX
  5
157
100
AcDbEntity
  8
L1_
  6
CONTINUOUS
 62
         7
100
AcDbVertex
100
AcDb2dVertex
 10
-10187.0656199497
 20
12017.5831279227
 30
0.0
 70
         1
  0
VERTEX
  5
159
100
AcDbEntity
  8
L1_
  6
CONTINUOUS
 62
         7
100
AcDbVertex
100
AcDb2dVertex
 10
-10187.1717427753
 20
12017.2141333123
 30
0.0
 70
         1
  0
VERTEX
  5
15B
100
AcDbEntity
  8
L1_
  6
CONTINUOUS
 62
         7
100
AcDbVertex
100
AcDb2dVertex
 10
-10187.2436898966
 20
12016.8647702719
 30
0.0
 70
         1
  0
VERTEX
  5
15D
100
AcDbEntity
  8
L1_
  6
CONTINUOUS
 62
         7
100
AcDbVertex
100
AcDb2dVertex
 10
-10187.2861844404
 20
12016.5391432339
 30
0.0
 70
         1
  0
VERTEX
  5
15F
100
AcDbEntity
  8
L1_
  6
CONTINUOUS
 62
         7
100
AcDbVertex
100
AcDb2dVertex
 10
-10187.3040785633
 20
12016.2394394404
 30
0.0
 70
         1
  0
VERTEX
  5
161
100
AcDbEntity
  8
L1_
  6
CONTINUOUS
 62
         7
100
AcDbVertex
100
AcDb2dVertex
 10
-10187.3020057216
 20
12015.9663318267
 30
0.0
 70
         1
  0
VERTEX
  5
163
100
AcDbEntity
  8
L1_
  6
CONTINUOUS
 62
         7
100
AcDbVertex
100
AcDb2dVertex
 10
-10187.2749924495
 20
12015.639683975
 30
0.0
 70
         1
  0
VERTEX
  5
165
100
AcDbEntity
  8
L1_
  6
CONTINUOUS
 62
         7
100
AcDbVertex
100
AcDb2dVertex
 10
-10187.2280424377
 20
12015.3572995269
 30
0.0
 70
         1
  0
VERTEX
  5
167
100
AcDbEntity
  8
L1_
  6
CONTINUOUS
 62
         7
100
AcDbVertex
100
AcDb2dVertex
 10
-10187.1680598845
 20
12015.1148210063
 30
0.0
 70
         1
  0
VERTEX
  5
169
100
AcDbEntity
  8
L1_
  6
CONTINUOUS
 62
         7
100
AcDbVertex
100
AcDb2dVertex
 10
-10187.0753914665
 20
12014.842018424
 30
0.0
 70
         1
  0
VERTEX
  5
16B
100
AcDbEntity
  8
L1_
  6
CONTINUOUS
 62
         7
100
AcDbVertex
100
AcDb2dVertex
 10
-10186.9774367935
 20
12014.6218660807
 30
0.0
 70
         1
  0
VERTEX
  5
16D
100
AcDbEntity
  8
L1_
  6
CONTINUOUS
 62
         7
100
AcDbVertex
100
AcDb2dVertex
 10
-10186.8799151697
 20
12014.4441783557
 30
0.0
 70
         1
  0
VERTEX
  5
16F
100
AcDbEntity
  8
L1_
  6
CONTINUOUS
 62
         7
100
AcDbVertex
100
AcDb2dVertex
 10
-10186.7539760743
 20
12014.2558098982
 30
0.0
 70
         1
  0
VERTEX
  5
171
100
AcDbEntity
  8
L1_
  6
CONTINUOUS
 62
         7
100
AcDbVertex
100
AcDb2dVertex
 10
-10186.6000376378
 20
12014.0702029584
 30
0.0
 70
         1
  0
VERTEX
  5
173
100
AcDbEntity
  8
L1_
  6
CONTINUOUS
 62
         7
100
AcDbVertex
100
AcDb2dVertex
 10
-10186.4694127952
 20
12013.9415436487
 30
0.0
 70
         1
  0
VERTEX
  5
175
100
AcDbEntity
  8
L1_
  6
CONTINUOUS
 62
         7
100
AcDbVertex
100
AcDb2dVertex
 10
-10186.3243862967
 20
12013.8231759997
 30
0.0
 70
         1
  0
VERTEX
  5
177
100
AcDbEntity
  8
L1_
  6
CONTINUOUS
 62
         7
100
AcDbVertex
100
AcDb2dVertex
 10
-10186.176926372
 20
12013.7247583141
 30
0.0
 70
         1
  0
VERTEX
  5
179
100
AcDbEntity
  8
L1_
  6
CONTINUOUS
 62
         7
100
AcDbVertex
100
AcDb2dVertex
 10
-10186.0001406802
 20
12013.6314446646
 30
0.0
 70
         1
  0
VERTEX
  5
17B
100
AcDbEntity
  8
L1_
  6
CONTINUOUS
 62
         7
100
AcDbVertex
100
AcDb2dVertex
 10
-10185.8658357285
 20
12013.5762854256
 30
0.0
 70
         1
  0
VERTEX
  5
17D
100
AcDbEntity
  8
L1_
  6
CONTINUOUS
 62
         7
100
AcDbVertex
100
AcDb2dVertex
 10
-10185.8658357285
 20
12013.5762854256
 30
0.0
 70
         1
  0
VERTEX
  5
17F
100
AcDbEntity
  8
L1_
  6
CONTINUOUS
 62
         7
100
AcDbVertex
100
AcDb2dVertex
 10
-10185.4858346638
 20
12013.4833140807
 30
0.0
 70
         1
  0
VERTEX
  5
181
100
AcDbEntity
  8
L1_
  6
CONTINUOUS
 62
         7
100
AcDbVertex
100
AcDb2dVertex
 10
-10185.3087659965
 20
12013.4683125828
 30
0.0
 70
         1
  0
VERTEX
  5
183
100
AcDbEntity
  8
L1_
  6
CONTINUOUS
 62
         7
100
AcDbVertex
100
AcDb2dVertex
 10
-10185.1241387264
 20
12013.4701457223
 30
0.0
 70
         1
  0
VERTEX
  5
185
100
AcDbEntity
  8
L1_
  6
CONTINUOUS
 62
         7
100
AcDbVertex
100
AcDb2dVertex
 10
-10184.9331318767
 20
12013.4899827734
 30
0.0
 70
         1
  0
VERTEX
  5
187
100
AcDbEntity
  8
L1_
  6
CONTINUOUS
 62
         7
100
AcDbVertex
100
AcDb2dVertex
 10
-10184.737147149
 20
12013.5287390447
 30
0.0
 70
         1
  0
VERTEX
  5
189
100
AcDbEntity
  8
L1_
  6
CONTINUOUS
 62
         7
100
AcDbVertex
100
AcDb2dVertex
 10
-10184.5377845169
 20
12013.5870209039
 30
0.0
 70
         1
  0
VERTEX
  5
18B
100
AcDbEntity
  8
L1_
  6
CONTINUOUS
 62
         7
100
AcDbVertex
100
AcDb2dVertex
 10
-10184.3368052845
 20
12013.6650802644
 30
0.0
 70
         1
  0
VERTEX
  5
18D
100
AcDbEntity
  8
L1_
  6
CONTINUOUS
 62
         7
100
AcDbVertex
100
AcDb2dVertex
 10
-10184.1360837578
 20
12013.7627828268
 30
0.0
 70
         1
  0
VERTEX
  5
18F
100
AcDbEntity
  8
L1_
  6
CONTINUOUS
 62
         7
100
AcDbVertex
100
AcDb2dVertex
 10
-10183.9375498878
 20
12013.8795935834
 30
0.0
 70
         1
  0
VERTEX
  5
191
100
AcDbEntity
  8
L1_
  6
CONTINUOUS
 62
         7
100
AcDbVertex
100
AcDb2dVertex
 10
-10183.7431263083
 20
12014.0145817968
 30
0.0
 70
         1
  0
VERTEX
  5
193
100
AcDbEntity
  8
L1_
  6
CONTINUOUS
 62
         7
100
AcDbVertex
100
AcDb2dVertex
 10
-10183.5546639376
 20
12014.1664459797
 30
0.0
 70
         1
  0
VERTEX
  5
195
100
AcDbEntity
  8
L1_
  6
CONTINUOUS
 62
         7
100
AcDbVertex
100
AcDb2dVertex
 10
-10183.3143351372
 20
12014.3936285303
 30
0.0
 70
         1
  0
VERTEX
  5
197
100
AcDbEntity
  8
L1_
  6
CONTINUOUS
 62
         7
100
AcDbVertex
100
AcDb2dVertex
 10
-10183.0913750575
 20
12014.6435372065
 30
0.0
 70
         1
  0
VERTEX
  5
199
100
AcDbEntity
  8
L1_
  6
CONTINUOUS
 62
         7
100
AcDbVertex
100
AcDb2dVertex
 10
-10182.8885967032
 20
12014.9109743186
 30
0.0
 70
         1
  0
VERTEX
  5
19B
100
AcDbEntity
  8
L1_
  6
CONTINUOUS
 62
         7
100
AcDbVertex
100
AcDb2dVertex
 10
-10182.707937136
 20
12015.1905212537
 30
0.0
 70
         1
  0
VERTEX
  5
19D
100
AcDbEntity
  8
L1_
  6
CONTINUOUS
 62
         7
100
AcDbVertex
100
AcDb2dVertex
 10
-10182.5504398618
 20
12015.4768537635
 30
0.0
 70
         1
  0
VERTEX
  5
19F
100
AcDbEntity
  8
L1_
  6
CONTINUOUS
 62
         7
100
AcDbVertex
100
AcDb2dVertex
 10
-10182.4163095667
 20
12015.7650085981
 30
0.0
 70
         1
  0
VERTEX
  5
1A1
100
AcDbEntity
  8
L1_
  6
CONTINUOUS
 62
         7
100
AcDbVertex
100
AcDb2dVertex
 10
-10182.2719105041
 20
12016.1472912741
 30
0.0
 70
         1
  0
VERTEX
  5
1A3
100
AcDbEntity
  8
L1_
  6
CONTINUOUS
 62
         7
100
AcDbVertex
100
AcDb2dVertex
 10
-10182.1657876785
 20
12016.5162858845
 30
0.0
 70
         1
  0
VERTEX
  5
1A5
100
AcDbEntity
  8
L1_
  6
CONTINUOUS
 62
         7
100
AcDbVertex
100
AcDb2dVertex
 10
-10182.0938405572
 20
12016.8656489249
 30
0.0
 70
         1
  0
VERTEX
  5
1A7
100
AcDbEntity
  8
L1_
  6
CONTINUOUS
 62
         7
100
AcDbVertex
100
AcDb2dVertex
 10
-10182.0513460134
 20
12017.1912759629
 30
0.0
 70
         1
  0
VERTEX
  5
1A9
100
AcDbEntity
  8
L1_
  6
CONTINUOUS
 62
         7
100
AcDbVertex
100
AcDb2dVertex
 10
-10182.0334518905
 20
12017.4909797564
 30
0.0
 70
         1
  0
VERTEX
  5
1AB
100
AcDbEntity
  8
L1_
  6
CONTINUOUS
 62
         7
100
AcDbVertex
100
AcDb2dVertex
 10
-10182.0355247321
 20
12017.7640873701
 30
0.0
 70
         1
  0
VERTEX
  5
1AD
100
AcDbEntity
  8
L1_
  6
CONTINUOUS
 62
         7
100
AcDbVertex
100
AcDb2dVertex
 10
-10182.0625380042
 20
12018.0907352218
 30
0.0
 70
         1
  0
VERTEX
  5
1AF
100
AcDbEntity
  8
L1_
  6
CONTINUOUS
 62
         7
100
AcDbVertex
100
AcDb2dVertex
 10
-10182.1094880161
 20
12018.3731196699
 30
0.0
 70
         1
  0
VERTEX
  5
1B1
100
AcDbEntity
  8
L1_
  6
CONTINUOUS
 62
         7
100
AcDbVertex
100
AcDb2dVertex
 10
-10182.1694705693
 20
12018.6155981905
 30
0.0
 70
         1
  0
VERTEX
  5
1B3
100
AcDbEntity
  8
L1_
  6
CONTINUOUS
 62
         7
100
AcDbVertex
100
AcDb2dVertex
 10
-10182.2621389872
 20
12018.8884007728
 30
0.0
 70
         1
  0
VERTEX
  5
1B5
100
AcDbEntity
  8
L1_
  6
CONTINUOUS
 62
         7
100
AcDbVertex
100
AcDb2dVertex
 10
-10182.3600936602
 20
12019.1085531161
 30
0.0
 70
         1
  0
VERTEX
  5
1B7
100
AcDbEntity
  8
L1_
  6
CONTINUOUS
 62
         7
100
AcDbVertex
100
AcDb2dVertex
 10
-10182.4576152841
 20
12019.286240841
 30
0.0
 70
         1
  0
VERTEX
  5
1B9
100
AcDbEntity
  8
L1_
  6
CONTINUOUS
 62
         7
100
AcDbVertex
100
AcDb2dVertex
 10
-10182.5835543794
 20
12019.4746092985
 30
0.0
 70
         1
  0
VERTEX
  5
1BB
100
AcDbEntity
  8
L1_
  6
CONTINUOUS
 62
         7
100
AcDbVertex
100
AcDb2dVertex
 10
-10182.737492816
 20
12019.6602162384
 30
0.0
 70
         1
  0
VERTEX
  5
1BD
100
AcDbEntity
  8
L1_
  6
CONTINUOUS
 62
         7
100
AcDbVertex
100
AcDb2dVertex
 10
-10182.8681176585
 20
12019.7888755481
 30
0.0
 70
         1
  0
VERTEX
  5
1BF
100
AcDbEntity
  8
L1_
  6
CONTINUOUS
 62
         7
100
AcDbVertex
100
AcDb2dVertex
 10
-10183.013144157
 20
12019.9072431971
 30
0.0
 70
         1
  0
VERTEX
  5
1C1
100
AcDbEntity
  8
L1_
  6
CONTINUOUS
 62
         7
100
AcDbVertex
100
AcDb2dVertex
 10
-10183.1606040817
 20
12020.0056608827
 30
0.0
 70
         1
  0
VERTEX
  5
1C3
100
AcDbEntity
  8
L1_
  6
CONTINUOUS
 62
         7
100
AcDbVertex
100
AcDb2dVertex
 10
-10183.3373897735
 20
12020.0989745322
 30
0.0
 70
         1
  0
VERTEX
  5
1C5
100
AcDbEntity
  8
L1_
  6
CONTINUOUS
 62
         7
100
AcDbVertex
100
AcDb2dVertex
 10
-10183.4716947252
 20
12020.1541337711
 30
0.0
 70
         1
  0
SEQEND
  5
1C7
100
AcDbEntity
  8
L1_
  6
CONTINUOUS
 62
         7
  0
LINE
  5
1C8
100
AcDbEntity
  8
L1_
  6
CENTER
 62
         1
100
AcDbLine
 10
-9611.0927000608
 20
12028.5673688257
 30
0.0
 11
-9571.7296366238
 21
11920.4182408721
 31
0.0
  0
LINE
  5
1C9
100
AcDbEntity
  8
L1_
  6
DASHED
 62
         2
100
AcDbLine
 10
-9590.7463781602
 20
11967.8420315746
 30
0.0
 11
-9580.2124972298
 21
11938.9004315794
 31
0.0
  0
LINE
  5
1CA
100
AcDbEntity
  8
L1_
  6
DASHED
 62
         2
100
AcDbLine
 10
-9579.1049050452
 20
11934.8340155219
 30
0.0
 11
-9580.5413896471
 21
11938.7807245292
 31
0.0
  0
LINE
  5
1CB
100
AcDbEntity
  8
L1_
  6
DASHED
 62
         2
100
AcDbLine
 10
-9576.782619164
 20
11940.1488051025
 30
0.0
 11
-9580.5413896471
 21
11938.7807245292
 31
0.0
  0
LINE
  5
1CC
100
AcDbEntity
  8
L1_
  6
DASHED
 62
         2
100
AcDbLine
 10
-9575.346134562
 20
11936.2020960952
 30
0.0
 11
-9576.782619164
 21
11940.1488051025
 31
0.0
  0
LINE
  5
1CD
100
AcDbEntity
  8
L1_
  6
DASHED
 62
         2
100
AcDbLine
 10
-9587.6453925116
 20
11968.9706980476
 30
0.0
 11
-9577.1115115813
 21
11940.0290980523
 31
0.0
  0
LINE
  5
1CE
100
AcDbEntity
  8
L1_
  6
DASHED
 62
         2
100
AcDbLine
 10
-9610.2842433775
 20
12020.4985435435
 30
0.0
 11
-9608.8477587755
 21
12016.5518345362
 31
0.0
  0
LINE
  5
1CF
100
AcDbEntity
  8
L1_
  6
DASHED
 62
         2
100
AcDbLine
 10
-9608.5188663582
 20
12016.6715415863
 30
0.0
 11
-9597.8689786956
 21
11987.4112157136
 31
0.0
  0
LINE
  5
1D0
100
AcDbEntity
  8
L1_
  6
DASHED
 62
         2
100
AcDbLine
 10
-9606.5254728943
 20
12021.8666241168
 30
0.0
 11
-9605.0889882924
 21
12017.9199151095
 31
0.0
  0
LINE
  5
1D1
100
AcDbEntity
  8
L1_
  6
DASHED
 62
         2
100
AcDbLine
 10
-9608.8477587755
 20
12016.5518345362
 30
0.0
 11
-9605.0889882924
 21
12017.9199151095
 31
0.0
  0
LINE
  5
1D2
100
AcDbEntity
  8
L1_
  6
DASHED
 62
         2
100
AcDbLine
 10
-9605.4178807096
 20
12017.8002080593
 30
0.0
 11
-9594.767993047
 21
11988.5398821866
 31
0.0
  0
LINE
  5
1D3
100
AcDbEntity
  8
L1_
  6
CONTINUOUS
 62
         7
100
AcDbLine
 10
-9895.2705485269
 20
11704.4328887676
 30
0.0
 11
-9880.6185485269
 21
11704.4328887676
 31
0.0
  0
LINE
  5
1D4
100
AcDbEntity
  8
L1_
  6
CONTINUOUS
 62
         7
100
AcDbLine
 10
-9895.2705485269
 20
11774.2828887676
 30
0.0
 11
-9880.6185485269
 21
11774.2828887676
 31
0.0
  0
LINE
  5
1D5
100
AcDbEntity
  8
L1_
  6
CONTINUOUS
 62
         7
100
AcDbLine
 10
-9911.6705485269
 20
11693.1078887676
 30
0.0
 11
-9911.6705485269
 21
11692.1078887676
 31
0.0
  0
LINE
  5
1D6
100
AcDbEntity
  8
L1_
  6
CONTINUOUS
 62
         7
100
AcDbLine
 10
-9895.7705485269
 20
11703.9328887676
 30
0.0
 11
-9895.7705485269
 21
11692.1078887676
 31
0.0
  0
ARC
  5
1D7
100
AcDbEntity
  8
L1_
  6
CONTINUOUS
 62
         7
100
AcDbCircle
 10
-9910.1705485269
 20
11692.1078887676
 30
0.0
 40
1.5
100
AcDbArc
 50
180.0
 51
270.0
  0
ARC
  5
1D8
100
AcDbEntity
  8
L1_
  6
CONTINUOUS
 62
         7
100
AcDbCircle
 10
-9897.2705485269
 20
11692.1078887676
 30
0.0
 40
1.5
100
AcDbArc
 50
270.0
 51
360.0
  0
ARC
  5
1D9
100
AcDbEntity
  8
L1_
  6
CONTINUOUS
 62
         7
100
AcDbCircle
 10
-9910.1705485269
 20
11786.6078887676
 30
0.0
 40
1.5
100
AcDbArc
 50
90.0
 51
180.0
  0
ARC
  5
1DA
100
AcDbEntity
  8
L1_
  6
CONTINUOUS
 62
         7
100
AcDbCircle
 10
-9897.2705485269
 20
11786.6078887676
 30
0.0
 40
1.5
100
AcDbArc
 50
0.0
 51
90.0
  0
LINE
  5
1DB
100
AcDbEntity
  8
L1_
  6
CONTINUOUS
 62
         7
100
AcDbLine
 10
-9898.2705485269
 20
11690.6078887676
 30
0.0
 11
-9897.2705485269
 21
11690.6078887676
 31
0.0
  0
LINE
  5
1DC
100
AcDbEntity
  8
L1_
  6
CONTINUOUS
 62
         7
100
AcDbLine
 10
-9910.1705485269
 20
11690.6078887676
 30
0.0
 11
-9909.1705485269
 21
11690.6078887676
 31
0.0
  0
LINE
  5
1DD
100
AcDbEntity
  8
L1_
  6
CONTINUOUS
 62
         7
100
AcDbLine
 10
-9895.7705485269
 20
11786.6078887676
 30
0.0
 11
-9895.7705485269
 21
11774.7828887676
 31
0.0
  0
LINE
  5
1DE
100
AcDbEntity
  8
L1_
  6
CONTINUOUS
 62
         7
100
AcDbLine
 10
-9898.2705485269
 20
11788.1078887676
 30
0.0
 11
-9897.2705485269
 21
11788.1078887676
 31
0.0
  0
LINE
  5
1DF
100
AcDbEntity
  8
L1_
  6
CONTINUOUS
 62
         7
100
AcDbLine
 10
-9910.1705485269
 20
11788.1078887676
 30
0.0
 11
-9909.1705485269
 21
11788.1078887676
 31
0.0
  0
LINE
  5
1E0
100
AcDbEntity
  8
L1_
  6
CONTINUOUS
 62
         7
100
AcDbLine
 10
-9911.6705485269
 20
11786.6078887676
 30
0.0
 11
-9911.6705485269
 21
11785.6078887676
 31
0.0
  0
ARC
  5
1E1
100
AcDbEntity
  8
L1_
  6
CONTINUOUS
 62
         7
100
AcDbCircle
 10
-9895.2705485269
 20
11774.7828887676
 30
0.0
 40
0.5
100
AcDbArc
 50
180.0
 51
270.0
  0
ARC
  5
1E2
100
AcDbEntity
  8
L1_
  6
CONTINUOUS
 62
         7
100
AcDbCircle
 10
-9895.2705485269
 20
11703.9328887676
 30
0.0
 40
0.5
100
AcDbArc
 50
90.0
 51
180.0
  0
ARC
  5
1E3
100
AcDbEntity
  8
L1_
  6
CONTINUOUS
 62
         7
100
AcDbCircle
 10
-9895.2705485269
 20
11942.9253198193
 30
0.0
 40
0.5
100
AcDbArc
 50
90.0
 51
180.0
  0
LINE
  5
1E4
100
AcDbEntity
  8
L1_
  6
CONTINUOUS
 62
         7
100
AcDbLine
 10
-9895.2705485269
 20
11943.4253198193
 30
0.0
 11
-9880.8185485269
 21
11943.4253198193
 31
0.0
  0
LINE
  5
1E5
100
AcDbEntity
  8
L1_
  6
CONTINUOUS
 62
         7
100
AcDbLine
 10
-9895.2705485269
 20
12013.2753198193
 30
0.0
 11
-9880.8185485269
 21
12013.2753198193
 31
0.0
  0
ARC
  5
1E6
100
AcDbEntity
  8
L1_
  6
CONTINUOUS
 62
         7
100
AcDbCircle
 10
-9895.2705485269
 20
12013.7753198193
 30
0.0
 40
0.5
100
AcDbArc
 50
180.0
 51
270.0
  0
LINE
  5
1E7
100
AcDbEntity
  8
L1_
  6
CONTINUOUS
 62
         7
100
AcDbLine
 10
-9911.6705485269
 20
12025.6003198193
 30
0.0
 11
-9911.6705485269
 21
12024.6003198193
 31
0.0
  0
LINE
  5
1E8
100
AcDbEntity
  8
L1_
  6
CONTINUOUS
 62
         7
100
AcDbLine
 10
-9910.1705485269
 20
12027.1003198193
 30
0.0
 11
-9909.1705485269
 21
12027.1003198193
 31
0.0
  0
LINE
  5
1E9
100
AcDbEntity
  8
L1_
  6
CONTINUOUS
 62
         7
100
AcDbLine
 10
-9898.2705485269
 20
12027.1003198193
 30
0.0
 11
-9897.2705485269
 21
12027.1003198193
 31
0.0
  0
LINE
  5
1EA
100
AcDbEntity
  8
L1_
  6
CONTINUOUS
 62
         7
100
AcDbLine
 10
-9895.7705485269
 20
12025.6003198193
 30
0.0
 11
-9895.7705485269
 21
12013.7753198193
 31
0.0
  0
LINE
  5
1EB
100
AcDbEntity
  8
L1_
  6
CONTINUOUS
 62
         7
100
AcDbLine
 10
-9910.1705485269
 20
11929.6003198193
 30
0.0
 11
-9909.1705485269
 21
11929.6003198193
 31
0.0
  0
LINE
  5
1EC
100
AcDbEntity
  8
L1_
  6
CONTINUOUS
 62
         7
100
AcDbLine
 10
-9898.2705485269
 20
11929.6003198193
 30
0.0
 11
-9897.2705485269
 21
11929.6003198193
 31
0.0
  0
ARC
  5
1ED
100
AcDbEntity
  8
L1_
  6
CONTINUOUS
 62
         7
100
AcDbCircle
 10
-9897.2705485269
 20
12025.6003198193
 30
0.0
 40
1.5
100
AcDbArc
 50
0.0
 51
90.0
  0
ARC
  5
1EE
100
AcDbEntity
  8
L1_
  6
CONTINUOUS
 62
         7
100
AcDbCircle
 10
-9910.1705485269
 20
12025.6003198193
 30
0.0
 40
1.5
100
AcDbArc
 50
90.0
 51
180.0
  0
ARC
  5
1EF
100
AcDbEntity
  8
L1_
  6
CONTINUOUS
 62
         7
100
AcDbCircle
 10
-9897.2705485269
 20
11931.1003198193
 30
0.0
 40
1.5
100
AcDbArc
 50
270.0
 51
360.0
  0
ARC
  5
1F0
100
AcDbEntity
  8
L1_
  6
CONTINUOUS
 62
         7
100
AcDbCircle
 10
-9910.1705485269
 20
11931.1003198193
 30
0.0
 40
1.5
100
AcDbArc
 50
180.0
 51
270.0
  0
LINE
  5
1F1
100
AcDbEntity
  8
L1_
  6
CONTINUOUS
 62
         7
100
AcDbLine
 10
-9895.7705485269
 20
11942.9253198193
 30
0.0
 11
-9895.7705485269
 21
11931.1003198193
 31
0.0
  0
LINE
  5
1F2
100
AcDbEntity
  8
L1_
  6
CONTINUOUS
 62
         7
100
AcDbLine
 10
-9911.6705485269
 20
11932.1003198193
 30
0.0
 11
-9911.6705485269
 21
11931.1003198193
 31
0.0
  0
LINE
  5
1F3
100
AcDbEntity
  8
L1_
  6
CONTINUOUS
 62
         7
100
AcDbLine
 10
-9879.8185485269
 20
12012.2753198193
 30
0.0
 11
-9879.8185485269
 21
11956.3503198193
 31
0.0
  0
CIRCLE
  5
1F4
100
AcDbEntity
  8
L1_
  6
CONTINUOUS
 62
         7
100
AcDbCircle
 10
-9592.8151889697
 20
11978.3503198193
 30
0.0
 40
34.925
  0
LINE
  5
1F5
100
AcDbEntity
  8
L1_
  6
CONTINUOUS
 62
         7
100
AcDbLine
 10
-10161.025908084
 20
11966.0003198193
 30
0.0
 11
-10160.525908084
 21
11965.5003198193
 31
0.0
  0
LINE
  5
1F6
100
AcDbEntity
  8
L1_
  6
CONTINUOUS
 62
         7
100
AcDbLine
 10
-10160.525908084
 20
11991.2003198193
 30
0.0
 11
-10161.025908084
 21
11990.7003198193
 31
0.0
  0
LINE
  5
1F7
100
AcDbEntity
  8
L1_
  6
CONTINUOUS
 62
         7
100
AcDbLine
 10
-10234.725908084
 20
11990.7003198193
 30
0.0
 11
-10235.225908084
 21
11991.2003198193
 31
0.0
  0
LINE
  5
1F8
100
AcDbEntity
  8
L1_
  6
CONTINUOUS
 62
         7
100
AcDbLine
 10
-10235.225908084
 20
11965.5003198193
 30
0.0
 11
-10234.725908084
 21
11966.0003198193
 31
0.0
  0
LINE
  5
1F9
100
AcDbEntity
  8
L1_
  6
CONTINUOUS
 62
         7
100
AcDbLine
 10
-10151.9847057033
 20
11964.5003198193
 30
0.0
 11
-10152.9847057033
 21
11965.5003198193
 31
0.0
  0
LINE
  5
1FA
100
AcDbEntity
  8
L1_
  6
CONTINUOUS
 62
         7
100
AcDbLine
 10
-10152.9847057033
 20
11965.5003198193
 30
0.0
 11
-10160.525908084
 21
11965.5003198193
 31
0.0
  0
LINE
  5
1FB
100
AcDbEntity
  8
L1_
  6
CONTINUOUS
 62
         7
100
AcDbLine
 10
-10151.9847057033
 20
11992.2003198193
 30
0.0
 11
-10152.9847057033
 21
11991.2003198193
 31
0.0
  0
LINE
  5
1FC
100
AcDbEntity
  8
L1_
  6
CONTINUOUS
 62
         7
100
AcDbLine
 10
-10152.9847057033
 20
11991.2003198193
 30
0.0
 11
-10160.525908084
 21
11991.2003198193
 31
0.0
  0
LINE
  5
1FD
100
AcDbEntity
  8
L1_
  6
CONTINUOUS
 62
         7
100
AcDbLine
 10
-10161.025908084
 20
11966.0003198193
 30
0.0
 11
-10161.025908084
 21
11990.7003198193
 31
0.0
  0
LINE
  5
1FE
100
AcDbEntity
  8
L1_
  6
CONTINUOUS
 62
         7
100
AcDbLine
 10
-10244.4671104648
 20
11991.2003198193
 30
0.0
 11
-10235.225908084
 21
11991.2003198193
 31
0.0
  0
LINE
  5
1FF
100
AcDbEntity
  8
L1_
  6
CONTINUOUS
 62
         7
100
AcDbLine
 10
-10245.4671104648
 20
11992.2003198193
 30
0.0
 11
-10244.4671104648
 21
11991.2003198193
 31
0.0
  0
LINE
  5
200
100
AcDbEntity
  8
L1_
  6
CONTINUOUS
 62
         7
100
AcDbLine
 10
-10245.4671104648
 20
11964.5003198193
 30
0.0
 11
-10244.4671104648
 21
11965.5003198193
 31
0.0
  0
LINE
  5
201
100
AcDbEntity
  8
L1_
  6
CONTINUOUS
 62
         7
100
AcDbLine
 10
-10244.4671104648
 20
11965.5003198193
 30
0.0
 11
-10235.225908084
 21
11965.5003198193
 31
0.0
  0
LINE
  5
202
100
AcDbEntity
  8
L1_
  6
CONTINUOUS
 62
         7
100
AcDbLine
 10
-10234.725908084
 20
11966.0003198193
 30
0.0
 11
-10234.725908084
 21
11990.7003198193
 31
0.0
  0
CIRCLE
  5
203
100
AcDbEntity
  8
L1_
  6
CONTINUOUS
 62
         7
100
AcDbCircle
 10
-10198.725908084
 20
11978.3503198193
 30
0.0
 40
12.6589889012
  0
CIRCLE
  5
204
100
AcDbEntity
  8
L1_
  6
CONTINUOUS
 62
         7
100
AcDbCircle
 10
-10198.725908084
 20
11978.3503198193
 30
0.0
 40
10.3963414634
  0
CIRCLE
  5
205
100
AcDbEntity
  8
L1_
  6
CONTINUOUS
 62
         7
100
AcDbCircle
 10
-10198.725908084
 20
11978.3503198193
 30
0.0
 40
20.3982925257
  0
CIRCLE
  5
206
100
AcDbEntity
  8
L1_
  6
CONTINUOUS
 62
         7
100
AcDbCircle
 10
-10198.725908084
 20
11978.3503198193
 30
0.0
 40
34.925
  0
ARC
  5
207
100
AcDbEntity
  8
L1_
  6
CONTINUOUS
 62
         7
100
AcDbCircle
 10
-10198.725908084
 20
11978.3503198193
 30
0.0
 40
48.75
100
AcDbArc
 50
196.5052120024
 51
343.4947879976
  0
LINE
  5
208
100
AcDbEntity
  8
L1_
  6
CENTER
 62
         1
100
AcDbLine
 10
-10155.3604983471
 20
11978.3503198193
 30
0.0
 11
-10245.2904536794
 21
11978.3503198193
 31
0.0
  0
ARC
  5
209
100
AcDbEntity
  8
L1_
  6
CONTINUOUS
 62
         7
100
AcDbCircle
 10
-10198.725908084
 20
11978.3503198193
 30
0.0
 40
48.75
100
AcDbArc
 50
16.5052120024
 51
163.4947879976
  0
LINE
  5
20A
100
AcDbEntity
  8
L1_
  6
CENTER
 62
         1
100
AcDbLine
 10
-10198.725908084
 20
12031.7901871713
 30
0.0
 11
-10198.725908084
 21
11916.7002890904
 31
0.0
  0
LINE
  5
20B
100
AcDbEntity
  8
L1_
  6
CONTINUOUS
 62
         7
100
AcDbLine
 10
-9638.5563913505
 20
11965.5003198193
 30
0.0
 11
-9631.0151889697
 21
11965.5003198193
 31
0.0
  0
LINE
  5
20C
100
AcDbEntity
  8
L1_
  6
CONTINUOUS
 62
         7
100
AcDbLine
 10
-9639.5563913505
 20
11964.5003198193
 30
0.0
 11
-9638.5563913505
 21
11965.5003198193
 31
0.0
  0
LINE
  5
20D
100
AcDbEntity
  8
L1_
  6
CONTINUOUS
 62
         7
100
AcDbLine
 10
-9638.5563913505
 20
11991.2003198193
 30
0.0
 11
-9631.0151889697
 21
11991.2003198193
 31
0.0
  0
LINE
  5
20E
100
AcDbEntity
  8
L1_
  6
CONTINUOUS
 62
         7
100
AcDbLine
 10
-9639.5563913505
 20
11992.2003198193
 30
0.0
 11
-9638.5563913505
 21
11991.2003198193
 31
0.0
  0
LINE
  5
20F
100
AcDbEntity
  8
L1_
  6
CONTINUOUS
 62
         7
100
AcDbLine
 10
-9630.5151889697
 20
11990.7003198193
 30
0.0
 11
-9630.5151889697
 21
11966.0003198193
 31
0.0
  0
LINE
  5
210
100
AcDbEntity
  8
L1_
  6
CONTINUOUS
 62
         7
100
AcDbLine
 10
-9631.0151889697
 20
11991.2003198193
 30
0.0
 11
-9630.5151889697
 21
11990.7003198193
 31
0.0
  0
LINE
  5
211
100
AcDbEntity
  8
L1_
  6
CONTINUOUS
 62
         7
100
AcDbLine
 10
-9630.5151889697
 20
11966.0003198193
 30
0.0
 11
-9631.0151889697
 21
11965.5003198193
 31
0.0
  0
LINE
  5
212
100
AcDbEntity
  8
L1_
  6
CONTINUOUS
 62
         7
100
AcDbLine
 10
-9557.3151889697
 20
11966.0003198193
 30
0.0
 11
-9556.8151889697
 21
11965.5003198193
 31
0.0
  0
LINE
  5
213
100
AcDbEntity
  8
L1_
  6
CONTINUOUS
 62
         7
100
AcDbLine
 10
-9557.3151889697
 20
11990.7003198193
 30
0.0
 11
-9556.8151889697
 21
11991.2003198193
 31
0.0
  0
LINE
  5
214
100
AcDbEntity
  8
L1_
  6
CONTINUOUS
 62
         7
100
AcDbLine
 10
-9547.073986589
 20
11965.5003198193
 30
0.0
 11
-9556.8151889697
 21
11965.5003198193
 31
0.0
  0
LINE
  5
215
100
AcDbEntity
  8
L1_
  6
CONTINUOUS
 62
         7
100
AcDbLine
 10
-9546.073986589
 20
11964.5003198193
 30
0.0
 11
-9547.073986589
 21
11965.5003198193
 31
0.0
  0
LINE
  5
216
100
AcDbEntity
  8
L1_
  6
CONTINUOUS
 62
         7
100
AcDbLine
 10
-9546.073986589
 20
11992.2003198193
 30
0.0
 11
-9547.073986589
 21
11991.2003198193
 31
0.0
  0
LINE
  5
217
100
AcDbEntity
  8
L1_
  6
CONTINUOUS
 62
         7
100
AcDbLine
 10
-9547.073986589
 20
11991.2003198193
 30
0.0
 11
-9556.8151889697
 21
11991.2003198193
 31
0.0
  0
LINE
  5
218
100
AcDbEntity
  8
L1_
  6
CONTINUOUS
 62
         7
100
AcDbLine
 10
-9557.3151889697
 20
11990.7003198193
 30
0.0
 11
-9557.3151889697
 21
11966.0003198193
 31
0.0
  0
LINE
  5
219
100
AcDbEntity
  8
L1_
  6
CENTER
 62
         1
100
AcDbLine
 10
-9592.8151889697
 20
11923.6003198193
 30
0.0
 11
-9592.8151889697
 21
12030.5149426941
 31
0.0
  0
LINE
  5
21A
100
AcDbEntity
  8
L1_
  6
CENTER
 62
         1
100
AcDbLine
 10
-9647.5651889697
 20
11978.3503198193
 30
0.0
 11
-9538.0651889697
 21
11978.3503198193
 31
0.0
  0
ARC
  5
21B
100
AcDbEntity
  8
L1_
  6
CONTINUOUS
 62
         7
100
AcDbCircle
 10
-9592.8151889697
 20
11978.3503198193
 30
0.0
 40
48.75
100
AcDbArc
 50
196.5052120024
 51
343.4947879976
  0
ARC
  5
21C
100
AcDbEntity
  8
L1_
  6
DASHED
 62
         2
100
AcDbCircle
 10
-9592.8151889697
 20
11978.3503198193
 30
0.0
 40
45.625
100
AcDbArc
 50
16.3583384794
 51
163.6416615206
  0
ARC
  5
21D
100
AcDbEntity
  8
L1_
  6
CONTINUOUS
 62
         7
100
AcDbCircle
 10
-9592.8151889697
 20
11978.3503198193
 30
0.0
 40
48.75
100
AcDbArc
 50
16.5052120024
 51
163.4947879976
  0
ARC
  5
21E
100
AcDbEntity
  8
L1_
  6
DASHED
 62
         2
100
AcDbCircle
 10
-9592.8151889697
 20
11978.3503198193
 30
0.0
 40
45.625
100
AcDbArc
 50
197.6716498685
 51
343.6416615206
  0
LINE
  5
21F
100
AcDbEntity
  8
L1_
  6
CONTINUOUS
 62
         7
100
AcDbLine
 10
-9907.3068189257
 20
12027.1003198193
 30
0.0
 11
-9907.3068189257
 21
11992.2003198193
 31
0.0
  0
LINE
  5
220
100
AcDbEntity
  8
L1_
  6
CONTINUOUS
 62
         7
100
AcDbLine
 10
-9905.6455485269
 20
12024.2229303577
 30
0.0
 11
-9905.6455485269
 21
11991.1802256544
 31
0.0
  0
LINE
  5
221
100
AcDbEntity
  8
L1_
  6
CONTINUOUS
 62
         7
100
AcDbLine
 10
-9901.8955485269
 20
12024.2229303577
 30
0.0
 11
-9901.8955485269
 21
11991.1802256544
 31
0.0
  0
LINE
  5
222
100
AcDbEntity
  8
L1_
  6
CONTINUOUS
 62
         7
100
AcDbLine
 10
-9900.2342781281
 20
12027.1003198193
 30
0.0
 11
-9900.2342781281
 21
11992.2003198193
 31
0.0
  0
LINE
  5
223
100
AcDbEntity
  8
L1_
  6
CONTINUOUS
 62
         7
100
AcDbLine
 10
-9895.8705485269
 20
11992.2003198193
 30
0.0
 11
-9896.8906426918
 21
11991.1802256544
 31
0.0
  0
LINE
  5
224
100
AcDbEntity
  8
L1_
  6
CONTINUOUS
 62
         7
100
AcDbLine
 10
-9901.8955485269
 20
11991.1802256544
 30
0.0
 11
-9900.2342781281
 21
11992.2003198193
 31
0.0
  0
LINE
  5
225
100
AcDbEntity
  8
L1_
  6
CONTINUOUS
 62
         7
100
AcDbLine
 10
-9896.8906426918
 20
11991.1802256544
 30
0.0
 11
-9910.650454362
 21
11991.1802256544
 31
0.0
  0
LINE
  5
226
100
AcDbEntity
  8
L1_
  6
CONTINUOUS
 62
         7
100
AcDbLine
 10
-9896.8906426918
 20
11991.1802256544
 30
0.0
 11
-9910.650454362
 21
11991.1802256544
 31
0.0
  0
LINE
  5
227
100
AcDbEntity
  8
L1_
  6
CONTINUOUS
 62
         7
100
AcDbLine
 10
-9907.3068189257
 20
11992.2003198193
 30
0.0
 11
-9911.6705485269
 21
11992.2003198193
 31
0.0
  0
LINE
  5
228
100
AcDbEntity
  8
L1_
  6
CONTINUOUS
 62
         7
100
AcDbLine
 10
-9911.6705485269
 20
11992.2003198193
 30
0.0
 11
-9910.650454362
 21
11991.1802256544
 31
0.0
  0
LINE
  5
229
100
AcDbEntity
  8
L1_
  6
CONTINUOUS
 62
         7
100
AcDbLine
 10
-9907.3068189257
 20
11992.2003198193
 30
0.0
 11
-9905.6455485269
 21
11991.1802256544
 31
0.0
  0
LINE
  5
22A
100
AcDbEntity
  8
L1_
  6
CONTINUOUS
 62
         7
100
AcDbLine
 10
-9895.7705485269
 20
11992.2003198193
 30
0.0
 11
-9900.2342781281
 21
11992.2003198193
 31
0.0
  0
LINE
  5
22B
100
AcDbEntity
  8
L1_
  6
CONTINUOUS
 62
         7
100
AcDbLine
 10
-9907.3068189257
 20
11964.5003198193
 30
0.0
 11
-9907.3068189257
 21
11929.6003198193
 31
0.0
  0
LINE
  5
22C
100
AcDbEntity
  8
L1_
  6
CONTINUOUS
 62
         7
100
AcDbLine
 10
-9905.6455485269
 20
11965.5204139842
 30
0.0
 11
-9905.6455485269
 21
11932.4777092809
 31
0.0
  0
LINE
  5
22D
100
AcDbEntity
  8
L1_
  6
CONTINUOUS
 62
         7
100
AcDbLine
 10
-9901.8955485269
 20
11965.5204139842
 30
0.0
 11
-9901.8955485269
 21
11932.4777092809
 31
0.0
  0
LINE
  5
22E
100
AcDbEntity
  8
L1_
  6
CONTINUOUS
 62
         7
100
AcDbLine
 10
-9900.2342781281
 20
11964.5003198193
 30
0.0
 11
-9900.2342781281
 21
11929.6003198193
 31
0.0
  0
LINE
  5
22F
100
AcDbEntity
  8
L1_
  6
CONTINUOUS
 62
         7
100
AcDbLine
 10
-9895.8705485269
 20
11964.5003198193
 30
0.0
 11
-9896.8906426918
 21
11965.5204139842
 31
0.0
  0
LINE
  5
230
100
AcDbEntity
  8
L1_
  6
CONTINUOUS
 62
         7
100
AcDbLine
 10
-9901.8955485269
 20
11965.5204139842
 30
0.0
 11
-9900.2342781281
 21
11964.5003198193
 31
0.0
  0
LINE
  5
231
100
AcDbEntity
  8
L1_
  6
CONTINUOUS
 62
         7
100
AcDbLine
 10
-9896.8906426918
 20
11965.5204139842
 30
0.0
 11
-9910.650454362
 21
11965.5204139842
 31
0.0
  0
LINE
  5
232
100
AcDbEntity
  8
L1_
  6
CONTINUOUS
 62
         7
100
AcDbLine
 10
-9896.8906426918
 20
11965.5204139842
 30
0.0
 11
-9910.650454362
 21
11965.5204139842
 31
0.0
  0
LINE
  5
233
100
AcDbEntity
  8
L1_
  6
CONTINUOUS
 62
         7
100
AcDbLine
 10
-9907.3068189257
 20
11964.5003198193
 30
0.0
 11
-9905.6455485269
 21
11965.5204139842
 31
0.0
  0
LINE
  5
234
100
AcDbEntity
  8
L1_
  6
CONTINUOUS
 62
         7
100
AcDbLine
 10
-9911.6705485269
 20
11964.5003198193
 30
0.0
 11
-9910.650454362
 21
11965.5204139842
 31
0.0
  0
LINE
  5
235
100
AcDbEntity
  8
L1_
  6
CONTINUOUS
 62
         7
100
AcDbLine
 10
-9907.3068189257
 20
11964.5003198193
 30
0.0
 11
-9911.6705485269
 21
11964.5003198193
 31
0.0
  0
LINE
  5
236
100
AcDbEntity
  8
L1_
  6
CONTINUOUS
 62
         7
100
AcDbLine
 10
-9895.7705485269
 20
11964.5003198193
 30
0.0
 11
-9900.2342781281
 21
11964.5003198193
 31
0.0
  0
CIRCLE
  5
237
100
AcDbEntity
  8
L1_
  6
CONTINUOUS
 62
         7
100
AcDbCircle
 10
-9903.7705485269
 20
11978.3541733442
 30
0.0
 40
4.76
  0
LINE
  5
238
100
AcDbEntity
  8
L1_
  6
DASHED
 62
         2
100
AcDbLine
 10
-9630.0151889697
 20
11983.3503198193
 30
0.0
 11
-9630.0151889697
 21
11973.3503198193
 31
0.0
  0
LINE
  5
239
100
AcDbEntity
  8
L1_
  6
DASHED
 62
         2
100
AcDbLine
 10
-9630.0151889697
 20
11983.3503198193
 30
0.0
 11
-9630.5151889697
 21
11983.8503198193
 31
0.0
  0
LINE
  5
23A
100
AcDbEntity
  8
L1_
  6
DASHED
 62
         2
100
AcDbLine
 10
-9630.0151889697
 20
11973.3503198193
 30
0.0
 11
-9630.5151889697
 21
11972.8503198193
 31
0.0
  0
LINE
  5
23B
100
AcDbEntity
  8
L1_
  6
DASHED
 62
         2
100
AcDbLine
 10
-9630.3151889697
 20
11983.3503198193
 30
0.0
 11
-9626.0651889697
 21
11983.3503198193
 31
0.0
  0
LINE
  5
23C
100
AcDbEntity
  8
L1_
  6
DASHED
 62
         2
100
AcDbLine
 10
-9630.5151889697
 20
11973.1503198193
 30
0.0
 11
-9630.3151889697
 21
11973.3503198193
 31
0.0
  0
LINE
  5
23D
100
AcDbEntity
  8
L1_
  6
DASHED
 62
         2
100
AcDbLine
 10
-9630.5151889697
 20
11983.5503198193
 30
0.0
 11
-9630.3151889697
 21
11983.3503198193
 31
0.0
  0
LINE
  5
23E
100
AcDbEntity
  8
L1_
  6
DASHED
 62
         2
100
AcDbLine
 10
-9630.3151889697
 20
11983.3503198193
 30
0.0
 11
-9630.3151889697
 21
11973.3503198193
 31
0.0
  0
ARC
  5
23F
100
AcDbEntity
  8
L1_
  6
DASHED
 62
         2
100
AcDbCircle
 10
-9626.0651889697
 20
11973.5503198193
 30
0.0
 40
0.2
100
AcDbArc
 50
270.0
 51
360.0
  0
ARC
  5
240
100
AcDbEntity
  8
L1_
  6
DASHED
 62
         2
100
AcDbCircle
 10
-9626.0651889697
 20
11983.1503198193
 30
0.0
 40
0.2
100
AcDbArc
 50
0.0
 51
90.0
  0
LINE
  5
241
100
AcDbEntity
  8
L1_
  6
DASHED
 62
         2
100
AcDbLine
 10
-9625.8651889697
 20
11983.1503198193
 30
0.0
 11
-9625.8651889697
 21
11973.5503198193
 31
0.0
  0
LINE
  5
242
100
AcDbEntity
  8
L1_
  6
DASHED
 62
         2
100
AcDbLine
 10
-9630.3151889697
 20
11973.3503198193
 30
0.0
 11
-9626.0651889697
 21
11973.3503198193
 31
0.0
  0
LINE
  5
243
100
AcDbEntity
  8
L1_
  6
CONTINUOUS
 62
         7
100
AcDbLine
 10
-9912.4705485269
 20
12013.450321467
 30
0.0
 11
-9913.6705485269
 21
12013.450321467
 31
0.0
  0
ARC
  5
244
100
AcDbEntity
  8
L1_
  6
CONTINUOUS
 62
         7
100
AcDbCircle
 10
-9912.4705485269
 20
12014.250321467
 30
0.0
 40
0.8
100
AcDbArc
 50
270.0
 51
360.0
  0
LINE
  5
245
100
AcDbEntity
  8
L1_
  6
CONTINUOUS
 62
         7
100
AcDbLine
 10
-9912.4705485269
 20
11943.2503181717
 30
0.0
 11
-9913.6705485269
 21
11943.2503181717
 31
0.0
  0
ARC
  5
246
100
AcDbEntity
  8
L1_
  6
CONTINUOUS
 62
         7
100
AcDbCircle
 10
-9912.4705485269
 20
11942.4503181717
 30
0.0
 40
0.8
100
AcDbArc
 50
0.0
 51
90.0000000001
  0
LINE
  5
247
100
AcDbEntity
  8
L1_
  6
CONTINUOUS
 62
         7
100
AcDbLine
 10
-9912.4705485269
 20
11774.4578904152
 30
0.0
 11
-9913.6705485269
 21
11774.4578904152
 31
0.0
  0
ARC
  5
248
100
AcDbEntity
  8
L1_
  6
CONTINUOUS
 62
         7
100
AcDbCircle
 10
-9912.4705485269
 20
11775.2578904152
 30
0.0
 40
0.8
100
AcDbArc
 50
270.0
 51
360.0
  0
LINE
  5
249
100
AcDbEntity
  8
L1_
  6
CONTINUOUS
 62
         7
100
AcDbLine
 10
-9912.4705485269
 20
11704.25788712
 30
0.0
 11
-9913.6705485269
 21
11704.25788712
 31
0.0
  0
ARC
  5
24A
100
AcDbEntity
  8
L1_
  6
CONTINUOUS
 62
         7
100
AcDbCircle
 10
-9912.4705485269
 20
11703.45788712
 30
0.0
 40
0.8
100
AcDbArc
 50
0.0
 51
90.0000000001
  0
LINE
  5
24B
100
AcDbEntity
  8
L1_
  6
CONTINUOUS
 62
         7
100
AcDbLine
 10
-9879.8185485269
 20
11956.3503198193
 30
0.0
 11
-9879.8185485269
 21
11944.4253198193
 31
0.0
  0
LINE
  5
24C
100
AcDbEntity
  8
L1_
  6
CONTINUOUS
 62
         7
100
AcDbLine
 10
-9879.8185485269
 20
11705.2328887676
 30
0.0
 11
-9879.8185485269
 21
11717.3578887676
 31
0.0
  0
LINE
  5
24D
100
AcDbEntity
  8
L1_
  6
CONTINUOUS
 62
         7
100
AcDbLine
 10
-9879.8185485269
 20
11761.3578887676
 30
0.0
 11
-9879.8185485269
 21
11773.4828887676
 31
0.0
  0
ARC
  5
24E
100
AcDbEntity
  8
L1_
  6
CONTINUOUS
 62
         7
100
AcDbCircle
 10
-9880.6185485269
 20
11773.4828887676
 30
0.0
 40
0.8
100
AcDbArc
 50
0.0
 51
90.0000000003
  0
ARC
  5
24F
100
AcDbEntity
  8
L1_
  6
CONTINUOUS
 62
         7
100
AcDbCircle
 10
-9880.6185485269
 20
11705.2328887676
 30
0.0
 40
0.8
100
AcDbArc
 50
269.9999999999
 51
360.0
  0
LINE
  5
250
100
AcDbEntity
  8
L1_
  6
CENTER
 62
         1
100
AcDbLine
 10
-9814.7705485269
 20
11964.4003198193
 30
0.0
 11
-9814.7705485269
 21
11962.7503198193
 31
0.0
  0
LINE
  5
251
100
AcDbEntity
  8
L1_
  6
CENTER
 62
         1
100
AcDbLine
 10
-9815.2705485269
 20
11993.1663452231
 30
0.0
 11
-9815.2705485269
 21
11993.7503198193
 31
0.0
  0
LINE
  5
252
100
AcDbEntity
  8
L1_
  6
CENTER
 62
         1
100
AcDbLine
 10
-9816.5705485269
 20
11993.3003198193
 30
0.0
 11
-9816.5705485269
 21
11994.6066876299
 31
0.0
  0
LINE
  5
253
100
AcDbEntity
  8
L1_
  6
CENTER
 62
         1
100
AcDbLine
 10
-9833.9705485269
 20
11961.8503198193
 30
0.0
 11
-9833.9705485269
 21
11960.3503198193
 31
0.0
  0
INSERT
  5
268
100
AcDbEntity
  8
0
  6
CONTINUOUS
100
AcDbBlockReference
  2
*X0
 10
0.0
 20
0.0
 30
0.0
  0
LINE
  5
269
100
AcDbEntity
  8
L1_
  6
CENTER
 62
         1
100
AcDbLine
 10
-9819.4705485269
 20
11958.3503198193
 30
0.0
 11
-9819.4705485269
 21
11960.1503198193
 31
0.0
  0
LINE
  5
26A
100
AcDbEntity
  8
L1_
  6
CENTER
 62
         1
100
AcDbLine
 10
-9819.4705485269
 20
11960.1503198193
 30
0.0
 11
-9829.4705485269
 21
11960.1503198193
 31
0.0
  0
LINE
  5
26B
100
AcDbEntity
  8
L1_
  6
CENTER
 62
         1
100
AcDbLine
 10
-9829.4705485269
 20
11958.3503198193
 30
0.0
 11
-9829.4705485269
 21
11960.1503198193
 31
0.0
  0
LINE
  5
26C
100
AcDbEntity
  8
L1_
  6
CENTER
 62
         1
100
AcDbLine
 10
-9819.4705485269
 20
11998.3503198193
 30
0.0
 11
-9819.4705485269
 21
11996.5503198193
 31
0.0
  0
LINE
  5
26D
100
AcDbEntity
  8
L1_
  6
CENTER
 62
         1
100
AcDbLine
 10
-9829.4705485269
 20
11998.3503198193
 30
0.0
 11
-9829.4705485269
 21
11996.5503198193
 31
0.0
  0
LINE
  5
26E
100
AcDbEntity
  8
L1_
  6
CENTER
 62
         1
100
AcDbLine
 10
-9819.4705485269
 20
11996.5503198193
 30
0.0
 11
-9829.4705485269
 21
11996.5503198193
 31
0.0
  0
ARC
  5
26F
100
AcDbEntity
  8
L1_
  6
CENTER
 62
         1
100
AcDbCircle
 10
-9812.4705485269
 20
11960.3503198193
 30
0.0
 40
2.0
100
AcDbArc
 50
270.0
 51
360.0
  0
ARC
  5
270
100
AcDbEntity
  8
L1_
  6
CENTER
 62
         1
100
AcDbCircle
 10
-9831.9705485269
 20
11960.3503198193
 30
0.0
 40
2.0
100
AcDbArc
 50
180.0
 51
270.0
  0
ARC
  5
271
100
AcDbEntity
  8
L1_
  6
CENTER
 62
         1
100
AcDbCircle
 10
-9831.9705485269
 20
11996.3503198193
 30
0.0
 40
2.0
100
AcDbArc
 50
90.0
 51
180.0
  0
ARC
  5
272
100
AcDbEntity
  8
L1_
  6
CENTER
 62
         1
100
AcDbCircle
 10
-9812.4705485269
 20
11996.3503198193
 30
0.0
 40
2.0
100
AcDbArc
 50
0.0
 51
90.0
  0
LINE
  5
273
100
AcDbEntity
  8
L1_
  6
CENTER
 62
         1
100
AcDbLine
 10
-9810.4705485269
 20
11993.6003198193
 30
0.0
 11
-9810.4705485269
 21
11996.3503198193
 31
0.0
  0
LINE
  5
274
100
AcDbEntity
  8
L1_
  6
CENTER
 62
         1
100
AcDbLine
 10
-9810.4705485269
 20
11960.3503198193
 30
0.0
 11
-9810.4705485269
 21
11963.1003198193
 31
0.0
  0
LINE
  5
275
100
AcDbEntity
  8
L1_
  6
CENTER
 62
         1
100
AcDbLine
 10
-9809.9705485269
 20
11963.1003198193
 30
0.0
 11
-9810.4705485269
 21
11963.1003198193
 31
0.0
  0
LINE
  5
276
100
AcDbEntity
  8
L1_
  6
CENTER
 62
         1
100
AcDbLine
 10
-9809.9705485269
 20
11993.6003198193
 30
0.0
 11
-9810.4705485269
 21
11993.6003198193
 31
0.0
  0
LINE
  5
277
100
AcDbEntity
  8
L1_
  6
CENTER
 62
         1
100
AcDbLine
 10
-9816.5705485269
 20
11962.0950164373
 30
0.0
 11
-9816.5705485269
 21
11963.4003198193
 31
0.0
  0
LINE
  5
278
100
AcDbEntity
  8
L1_
  6
CENTER
 62
         1
100
AcDbLine
 10
-9815.2705485269
 20
11962.9503198193
 30
0.0
 11
-9815.2705485269
 21
11963.5342944155
 31
0.0
  0
LINE
  5
279
100
AcDbEntity
  8
L1_
  6
CENTER
 62
         1
100
AcDbLine
 10
-9816.9847620893
 20
11961.8503198193
 30
0.0
 11
-9818.7107409057
 21
11961.8503198193
 31
0.0
  0
LINE
  5
27A
100
AcDbEntity
  8
L1_
  6
CENTER
 62
         1
100
AcDbLine
 10
-9815.2705485269
 20
11962.9503198193
 30
0.0
 11
-9815.2705485269
 21
11962.7503198193
 31
0.0
  0
LINE
  5
27B
100
AcDbEntity
  8
L1_
  6
CENTER
 62
         1
100
AcDbLine
 10
-9815.2705485269
 20
11962.9503198193
 30
0.0
 11
-9815.4705485269
 21
11962.9503198193
 31
0.0
  0
LINE
  5
27C
100
AcDbEntity
  8
L1_
  6
CENTER
 62
         1
100
AcDbLine
 10
-9815.4705485269
 20
11962.9503198193
 30
0.0
 11
-9816.2776553081
 21
11962.1432130381
 31
0.0
  0
LINE
  5
27D
100
AcDbEntity
  8
L1_
  6
CENTER
 62
         1
100
AcDbLine
 10
-9814.7705485269
 20
11962.7503198193
 30
0.0
 11
-9815.2705485269
 21
11962.7503198193
 31
0.0
  0
LINE
  5
27E
100
AcDbEntity
  8
L1_
  6
CENTER
 62
         1
100
AcDbLine
 10
-9819.844715502
 20
11962.3503198193
 30
0.0
 11
-9833.4461839832
 21
11962.3503198193
 31
0.0
  0
LINE
  5
27F
100
AcDbEntity
  8
L1_
  6
CENTER
 62
         1
100
AcDbLine
 10
-9820.9705485269
 20
11963.0003198193
 30
0.0
 11
-9831.9705485269
 21
11963.0003198193
 31
0.0
  0
LINE
  5
280
100
AcDbEntity
  8
L1_
  6
CENTER
 62
         1
100
AcDbLine
 10
-9815.2705485269
 20
11993.7503198193
 30
0.0
 11
-9815.2705485269
 21
11993.9503198193
 31
0.0
  0
LINE
  5
281
100
AcDbEntity
  8
L1_
  6
CENTER
 62
         1
100
AcDbLine
 10
-9815.2705485269
 20
11993.7503198193
 30
0.0
 11
-9815.4705485269
 21
11993.7503198193
 31
0.0
  0
LINE
  5
282
100
AcDbEntity
  8
L1_
  6
CENTER
 62
         1
100
AcDbLine
 10
-9815.4705485269
 20
11993.7503198193
 30
0.0
 11
-9816.2776553081
 21
11994.5574266005
 31
0.0
  0
LINE
  5
283
100
AcDbEntity
  8
L1_
  6
CENTER
 62
         1
100
AcDbLine
 10
-9814.7705485269
 20
11993.9503198193
 30
0.0
 11
-9815.2705485269
 21
11993.9503198193
 31
0.0
  0
LINE
  5
284
100
AcDbEntity
  8
L1_
  6
CENTER
 62
         1
100
AcDbLine
 10
-9819.844715502
 20
11994.3503198193
 30
0.0
 11
-9833.4461839832
 21
11994.3503198193
 31
0.0
  0
LINE
  5
285
100
AcDbEntity
  8
L1_
  6
CENTER
 62
         1
100
AcDbLine
 10
-9820.9705485269
 20
11993.7003198193
 30
0.0
 11
-9831.9705485269
 21
11993.7003198193
 31
0.0
  0
LINE
  5
286
100
AcDbEntity
  8
L1_
  6
CENTER
 62
         1
100
AcDbLine
 10
-9814.7705485269
 20
11993.9503198193
 30
0.0
 11
-9814.7705485269
 21
11992.3003198193
 31
0.0
  0
LINE
  5
287
100
AcDbEntity
  8
L1_
  6
CENTER
 62
         1
100
AcDbLine
 10
-9812.4705485269
 20
11968.4253198193
 30
0.0
 11
-9814.7705485269
 21
11968.4253198193
 31
0.0
  0
LINE
  5
288
100
AcDbEntity
  8
L1_
  6
CENTER
 62
         1
100
AcDbLine
 10
-9812.4705485269
 20
11988.2753198193
 30
0.0
 11
-9814.7705485269
 21
11988.2753198193
 31
0.0
  0
LINE
  5
289
100
AcDbEntity
  8
L1_
  6
CENTER
 62
         1
100
AcDbLine
 10
-9812.4705485269
 20
11967.2503198193
 30
0.0
 11
-9812.4705485269
 21
11989.4503198193
 31
0.0
  0
LINE
  5
28A
100
AcDbEntity
  8
L1_
  6
CENTER
 62
         1
100
AcDbLine
 10
-9809.9705485269
 20
11967.2503198193
 30
0.0
 11
-9812.4705485269
 21
11967.2503198193
 31
0.0
  0
LINE
  5
28B
100
AcDbEntity
  8
L1_
  6
CENTER
 62
         1
100
AcDbLine
 10
-9809.9705485269
 20
11989.4503198193
 30
0.0
 11
-9812.4705485269
 21
11989.4503198193
 31
0.0
  0
LINE
  5
28C
100
AcDbEntity
  8
L1_
  6
CENTER
 62
         1
100
AcDbLine
 10
-9833.9705485269
 20
11996.3503198193
 30
0.0
 11
-9833.9705485269
 21
11994.2503198193
 31
0.0
  0
LINE
  5
28D
100
AcDbEntity
  8
L1_
  6
CENTER
 62
         1
100
AcDbLine
 10
-9809.9705485269
 20
11963.1003198193
 30
0.0
 11
-9809.9705485269
 21
11993.6003198193
 31
0.0
  0
LINE
  5
28E
100
AcDbEntity
  8
L1_
  6
CENTER
 62
         1
100
AcDbLine
 10
-9812.4705485269
 20
11958.3503198193
 30
0.0
 11
-9831.9705485269
 21
11958.3503198193
 31
0.0
  0
LINE
  5
28F
100
AcDbEntity
  8
L1_
  6
CENTER
 62
         1
100
AcDbLine
 10
-9812.4705485269
 20
11998.3503198193
 30
0.0
 11
-9831.9705485269
 21
11998.3503198193
 31
0.0
  0
ARC
  5
290
100
AcDbEntity
  8
L1_
  6
CENTER
 62
         1
100
AcDbCircle
 10
-9831.9705485269
 20
11961.0003198193
 30
0.0
 40
2.0
100
AcDbArc
 50
90.0
 51
180.0
  0
ARC
  5
291
100
AcDbEntity
  8
L1_
  6
CENTER
 62
         1
100
AcDbCircle
 10
-9831.9705485269
 20
11995.7003198193
 30
0.0
 40
2.0
100
AcDbArc
 50
180.0
 51
270.0
  0
LINE
  5
292
100
AcDbEntity
  8
L1_
  6
CENTER
 62
         1
100
AcDbLine
 10
-9820.9705485269
 20
11963.0003198193
 30
0.0
 11
-9819.2107409057
 21
11961.9842944155
 31
0.0
  0
ARC
  5
293
100
AcDbEntity
  8
L1_
  6
CENTER
 62
         1
100
AcDbCircle
 10
-9818.7107409057
 20
11962.8503198193
 30
0.0
 40
1.0
100
AcDbArc
 50
240.0
 51
270.0
  0
ARC
  5
294
100
AcDbEntity
  8
L1_
  6
CENTER
 62
         1
100
AcDbCircle
 10
-9816.9847620893
 20
11962.8503198193
 30
0.0
 40
1.0
100
AcDbArc
 50
270.0
 51
315.0
  0
LINE
  5
295
100
AcDbEntity
  8
L1_
  6
CENTER
 62
         1
100
AcDbLine
 10
-9816.9847620893
 20
11994.8503198193
 30
0.0
 11
-9818.7107409057
 21
11994.8503198193
 31
0.0
  0
LINE
  5
296
100
AcDbEntity
  8
L1_
  6
CENTER
 62
         1
100
AcDbLine
 10
-9820.9705485269
 20
11993.7003198193
 30
0.0
 11
-9819.2107409057
 21
11994.7163452231
 31
0.0
  0
ARC
  5
297
100
AcDbEntity
  8
L1_
  6
CENTER
 62
         1
100
AcDbCircle
 10
-9818.7107409057
 20
11993.8503198193
 30
0.0
 40
1.0
100
AcDbArc
 50
90.0
 51
120.0
  0
ARC
  5
298
100
AcDbEntity
  8
L1_
  6
CENTER
 62
         1
100
AcDbCircle
 10
-9816.9847620893
 20
11993.8503198193
 30
0.0
 40
1.0
100
AcDbArc
 50
45.0
 51
90.0
  0
LINE
  5
299
100
AcDbEntity
  8
L1_
  6
CONTINUOUS
 62
         7
100
AcDbLine
 10
-9817.7205485269
 20
11962.4503198193
 30
0.0
 11
-9834.2705485269
 21
11962.4503198193
 31
0.0
  0
LINE
  5
29A
100
AcDbEntity
  8
L1_
  6
CONTINUOUS
 62
         7
100
AcDbLine
 10
-9817.7205485269
 20
11994.2503198193
 30
0.0
 11
-9834.2705485269
 21
11994.2503198193
 31
0.0
  0
LINE
  5
29B
100
AcDbEntity
  8
L1_
  6
CONTINUOUS
 62
         7
100
AcDbLine
 10
-9834.7705485269
 20
11958.8503198193
 30
0.0
 11
-9834.7705485269
 21
11997.8503198193
 31
0.0
  0
LINE
  5
29C
100
AcDbEntity
  8
L1_
  6
CONTINUOUS
 62
         7
100
AcDbLine
 10
-9835.2705485269
 20
11958.3503198193
 30
0.0
 11
-9877.8185485269
 21
11958.3503198193
 31
0.0
  0
LINE
  5
29D
100
AcDbEntity
  8
L1_
  6
CONTINUOUS
 62
         7
100
AcDbLine
 10
-9814.7705485269
 20
11964.4003198193
 30
0.0
 11
-9814.7705485269
 21
11992.3003198193
 31
0.0
  0
ARC
  5
29E
100
AcDbEntity
  8
L1_
  6
CONTINUOUS
 62
         7
100
AcDbCircle
 10
-9834.2705485269
 20
11994.7503198193
 30
0.0
 40
0.5
100
AcDbArc
 50
180.0
 51
270.0
  0
ARC
  5
29F
100
AcDbEntity
  8
L1_
  6
CONTINUOUS
 62
         7
100
AcDbCircle
 10
-9834.2705485269
 20
11961.9503198193
 30
0.0
 40
0.5
100
AcDbArc
 50
90.0
 51
180.0
  0
LINE
  5
2A0
100
AcDbEntity
  8
L1_
  6
CONTINUOUS
 62
         7
100
AcDbLine
 10
-9834.7705485269
 20
11997.8503198193
 30
0.0
 11
-9835.2705485269
 21
11998.3503198193
 31
0.0
  0
LINE
  5
2A1
100
AcDbEntity
  8
L1_
  6
CONTINUOUS
 62
         7
100
AcDbLine
 10
-9834.7705485269
 20
11958.8503198193
 30
0.0
 11
-9835.2705485269
 21
11958.3503198193
 31
0.0
  0
LINE
  5
2A2
100
AcDbEntity
  8
L1_
  6
CONTINUOUS
 62
         4
100
AcDbLine
 10
-9816.8205485269
 20
11993.3503198193
 30
0.0
 11
-9833.7705485269
 21
11993.3503198193
 31
0.0
  0
LINE
  5
2A3
100
AcDbEntity
  8
L1_
  6
CONTINUOUS
 62
         4
100
AcDbLine
 10
-9816.8205485269
 20
11963.3503198193
 30
0.0
 11
-9833.7705485269
 21
11963.3503198193
 31
0.0
  0
LINE
  5
2A4
100
AcDbEntity
  8
L1_
  6
CONTINUOUS
 62
         7
100
AcDbLine
 10
-9833.7705485269
 20
11994.2503198193
 30
0.0
 11
-9833.7705485269
 21
11962.4503198193
 31
0.0
  0
LINE
  5
2A5
100
AcDbEntity
  8
L1_
  6
CONTINUOUS
 62
         4
100
AcDbLine
 10
-9835.2705485269
 20
11958.3503198193
 30
0.0
 11
-9835.2705485269
 21
11998.3503198193
 31
0.0
  0
LINE
  5
2A6
100
AcDbEntity
  8
L1_
  6
CONTINUOUS
 62
         7
100
AcDbLine
 10
-9815.7705485269
 20
11993.3003198193
 30
0.0
 11
-9816.7705485269
 21
11993.3003198193
 31
0.0
  0
LINE
  5
2A7
100
AcDbEntity
  8
L1_
  6
CONTINUOUS
 62
         4
100
AcDbLine
 10
-9816.7705485269
 20
11963.4003198193
 30
0.0
 11
-9816.7705485269
 21
11993.3003198193
 31
0.0
  0
LINE
  5
2A8
100
AcDbEntity
  8
L1_
  6
CONTINUOUS
 62
         7
100
AcDbLine
 10
-9817.7205485269
 20
11994.2503198193
 30
0.0
 11
-9816.7705485269
 21
11993.3003198193
 31
0.0
  0
ARC
  5
2A9
100
AcDbEntity
  8
L1_
  6
CONTINUOUS
 62
         7
100
AcDbCircle
 10
-9815.7705485269
 20
11992.3003198193
 30
0.0
 40
1.0
100
AcDbArc
 50
0.0
 51
90.0
  0
ARC
  5
2AA
100
AcDbEntity
  8
L1_
  6
CONTINUOUS
 62
         7
100
AcDbCircle
 10
-9815.7705485269
 20
11964.4003198193
 30
0.0
 40
1.0
100
AcDbArc
 50
270.0
 51
360.0
  0
LINE
  5
2AB
100
AcDbEntity
  8
L1_
  6
CONTINUOUS
 62
         7
100
AcDbLine
 10
-9817.7205485269
 20
11962.4503198193
 30
0.0
 11
-9816.7705485269
 21
11963.4003198193
 31
0.0
  0
LINE
  5
2AC
100
AcDbEntity
  8
L1_
  6
CONTINUOUS
 62
         7
100
AcDbLine
 10
-9815.7705485269
 20
11963.4003198193
 30
0.0
 11
-9816.7705485269
 21
11963.4003198193
 31
0.0
  0
LINE
  5
2AD
100
AcDbEntity
  8
L1_
  6
CONTINUOUS
 62
         4
100
AcDbLine
 10
-9817.7205485269
 20
11994.2503198193
 30
0.0
 11
-9817.7205485269
 21
11962.4503198193
 31
0.0
  0
DIMENSION
  5
2B1
100
AcDbEntity
  8
L1_
  6
CONTINUOUS
 62
         4
100
AcDbDimension
  2
*D1
 10
-9834.7705485269
 20
11933.076250872
 30
0.0
 11
-9831.2913806934
 21
11935.176250872
 31
0.0
  3
DIMSTYLE1
100
AcDbAlignedDimension
 13
-9834.7705485269
 23
11958.8503198193
 33
0.0
 14
-9814.7705485269
 24
11964.4003198193
 34
0.0
100
AcDbRotatedDimension
  0
DIMENSION
  5
2C0
100
AcDbEntity
  8
L1_
  6
CONTINUOUS
 62
         4
100
AcDbDimension
  2
*D2
 10
-9816.7705485269
 20
11944.8399339599
 30
0.0
 11
-9812.2287904886
 21
11946.9399339599
 31
0.0
  3
DIMSTYLE1
100
AcDbAlignedDimension
 13
-9816.7705485269
 23
11964.4003198193
 33
0.0
 14
-9814.7705485269
 24
11965.2003198193
 34
0.0
100
AcDbRotatedDimension
  0
DIMENSION
  5
2D0
100
AcDbEntity
  8
L1_
  6
CONTINUOUS
 62
         4
100
AcDbDimension
  2
*D3
 10
-9790.8698942765
 20
11993.3003198193
 30
0.0
 11
-9792.9698942765
 21
11959.4977372889
 31
0.0
  3
DIMSTYLE1
100
AcDbAlignedDimension
 13
-9815.7705485269
 23
11993.3003198193
 33
0.0
 14
-9815.7705485269
 24
11963.4003198193
 34
0.0
 50
90.0
100
AcDbRotatedDimension
  0
DIMENSION
  5
2DE
100
AcDbEntity
  8
L1_
  6
CONTINUOUS
 62
         4
100
AcDbDimension
  2
*D4
 10
-9777.9964297652
 20
11998.3503198193
 30
0.0
 11
-9780.0964297652
 21
11966.3270815591
 31
0.0
  3
DIMSTYLE1
100
AcDbAlignedDimension
 13
-9835.2705485269
 23
11998.3503198193
 33
0.0
 14
-9835.2705485269
 24
11958.3503198193
 34
0.0
 50
90.0
100
AcDbRotatedDimension
  0
LINE
  5
2EA
100
AcDbEntity
  8
L1_
  6
CENTER
 62
         1
100
AcDbLine
 10
-9622.8060301414
 20
11809.6131388425
 30
0.0
 11
-9655.3047546896
 21
11809.6131388425
 31
0.0
  0
INSERT
  5
2FF
100
AcDbEntity
  8
0
  6
CONTINUOUS
100
AcDbBlockReference
  2
*X5
 10
0.0
 20
0.0
 30
0.0
  0
LINE
  5
300
100
AcDbEntity
  8
L1_
  6
CONTINUOUS
 62
         7
100
AcDbLine
 10
-9637.879140407
 20
11789.6131388425
 30
0.0
 11
-9637.879140407
 21
11791.4131388425
 31
0.0
  0
LINE
  5
301
100
AcDbEntity
  8
L1_
  6
CONTINUOUS
 62
         7
100
AcDbLine
 10
-9637.879140407
 20
11791.4131388425
 30
0.0
 11
-9647.879140407
 21
11791.4131388425
 31
0.0
  0
LINE
  5
302
100
AcDbEntity
  8
L1_
  6
CONTINUOUS
 62
         7
100
AcDbLine
 10
-9647.879140407
 20
11789.6131388425
 30
0.0
 11
-9647.879140407
 21
11791.4131388425
 31
0.0
  0
LINE
  5
303
100
AcDbEntity
  8
L1_
  6
CONTINUOUS
 62
         7
100
AcDbLine
 10
-9637.879140407
 20
11829.6131388425
 30
0.0
 11
-9637.879140407
 21
11827.8131388425
 31
0.0
  0
LINE
  5
304
100
AcDbEntity
  8
L1_
  6
CONTINUOUS
 62
         7
100
AcDbLine
 10
-9647.879140407
 20
11829.6131388425
 30
0.0
 11
-9647.879140407
 21
11827.8131388425
 31
0.0
  0
LINE
  5
305
100
AcDbEntity
  8
L1_
  6
CONTINUOUS
 62
         7
100
AcDbLine
 10
-9637.879140407
 20
11827.8131388425
 30
0.0
 11
-9647.879140407
 21
11827.8131388425
 31
0.0
  0
ARC
  5
306
100
AcDbEntity
  8
L1_
  6
CONTINUOUS
 62
         7
100
AcDbCircle
 10
-9630.879140407
 20
11791.6131388425
 30
0.0
 40
2.0
100
AcDbArc
 50
270.0
 51
360.0
  0
ARC
  5
307
100
AcDbEntity
  8
L1_
  6
CONTINUOUS
 62
         7
100
AcDbCircle
 10
-9650.379140407
 20
11791.6131388425
 30
0.0
 40
2.0
100
AcDbArc
 50
180.0
 51
270.0
  0
ARC
  5
308
100
AcDbEntity
  8
L1_
  6
CONTINUOUS
 62
         7
100
AcDbCircle
 10
-9650.379140407
 20
11827.6131388425
 30
0.0
 40
2.0
100
AcDbArc
 50
90.0
 51
180.0
  0
ARC
  5
309
100
AcDbEntity
  8
L1_
  6
CONTINUOUS
 62
         7
100
AcDbCircle
 10
-9630.879140407
 20
11827.6131388425
 30
0.0
 40
2.0
100
AcDbArc
 50
0.0
 51
90.0
  0
LINE
  5
30A
100
AcDbEntity
  8
L1_
  6
CONTINUOUS
 62
         7
100
AcDbLine
 10
-9628.879140407
 20
11824.8631388425
 30
0.0
 11
-9628.879140407
 21
11827.6131388425
 31
0.0
  0
LINE
  5
30B
100
AcDbEntity
  8
L1_
  6
CONTINUOUS
 62
         7
100
AcDbLine
 10
-9628.879140407
 20
11791.6131388425
 30
0.0
 11
-9628.879140407
 21
11794.3631388425
 31
0.0
  0
LINE
  5
30C
100
AcDbEntity
  8
L1_
  6
CONTINUOUS
 62
         7
100
AcDbLine
 10
-9628.379140407
 20
11794.3631388425
 30
0.0
 11
-9628.879140407
 21
11794.3631388425
 31
0.0
  0
LINE
  5
30D
100
AcDbEntity
  8
L1_
  6
CONTINUOUS
 62
         7
100
AcDbLine
 10
-9628.379140407
 20
11824.8631388425
 30
0.0
 11
-9628.879140407
 21
11824.8631388425
 31
0.0
  0
LINE
  5
30E
100
AcDbEntity
  8
L1_
  6
CONTINUOUS
 62
         4
100
AcDbLine
 10
-9634.979140407
 20
11793.3578354605
 30
0.0
 11
-9634.979140407
 21
11825.869506653
 31
0.0
  0
LINE
  5
30F
100
AcDbEntity
  8
L1_
  6
CONTINUOUS
 62
         4
100
AcDbLine
 10
-9633.679140407
 20
11794.2131388425
 30
0.0
 11
-9633.679140407
 21
11825.0131388425
 31
0.0
  0
LINE
  5
310
100
AcDbEntity
  8
L1_
  6
CONTINUOUS
 62
         7
100
AcDbLine
 10
-9635.3933539694
 20
11793.1131388425
 30
0.0
 11
-9637.1193327859
 21
11793.1131388425
 31
0.0
  0
LINE
  5
311
100
AcDbEntity
  8
L1_
  6
CONTINUOUS
 62
         7
100
AcDbLine
 10
-9633.679140407
 20
11794.2131388425
 30
0.0
 11
-9633.679140407
 21
11794.0131388425
 31
0.0
  0
LINE
  5
312
100
AcDbEntity
  8
L1_
  6
CONTINUOUS
 62
         7
100
AcDbLine
 10
-9633.679140407
 20
11794.2131388425
 30
0.0
 11
-9633.879140407
 21
11794.2131388425
 31
0.0
  0
LINE
  5
313
100
AcDbEntity
  8
L1_
  6
CONTINUOUS
 62
         7
100
AcDbLine
 10
-9633.879140407
 20
11794.2131388425
 30
0.0
 11
-9634.6862471882
 21
11793.4060320613
 31
0.0
  0
LINE
  5
314
100
AcDbEntity
  8
L1_
  6
CONTINUOUS
 62
         7
100
AcDbLine
 10
-9633.179140407
 20
11794.0131388425
 30
0.0
 11
-9633.679140407
 21
11794.0131388425
 31
0.0
  0
LINE
  5
315
100
AcDbEntity
  8
L1_
  6
CONTINUOUS
 62
         4
100
AcDbLine
 10
-9638.2533073821
 20
11793.6131388425
 30
0.0
 11
-9651.8547758634
 21
11793.6131388425
 31
0.0
  0
LINE
  5
316
100
AcDbEntity
  8
L1_
  6
CONTINUOUS
 62
         7
100
AcDbLine
 10
-9639.379140407
 20
11794.2631388425
 30
0.0
 11
-9650.379140407
 21
11794.2631388425
 31
0.0
  0
LINE
  5
317
100
AcDbEntity
  8
L1_
  6
CONTINUOUS
 62
         7
100
AcDbLine
 10
-9633.679140407
 20
11825.0131388425
 30
0.0
 11
-9633.679140407
 21
11825.2131388425
 31
0.0
  0
LINE
  5
318
100
AcDbEntity
  8
L1_
  6
CONTINUOUS
 62
         7
100
AcDbLine
 10
-9633.679140407
 20
11825.0131388425
 30
0.0
 11
-9633.879140407
 21
11825.0131388425
 31
0.0
  0
LINE
  5
319
100
AcDbEntity
  8
L1_
  6
CONTINUOUS
 62
         7
100
AcDbLine
 10
-9633.879140407
 20
11825.0131388425
 30
0.0
 11
-9634.6862471882
 21
11825.8202456237
 31
0.0
  0
LINE
  5
31A
100
AcDbEntity
  8
L1_
  6
CONTINUOUS
 62
         7
100
AcDbLine
 10
-9633.179140407
 20
11825.2131388425
 30
0.0
 11
-9633.679140407
 21
11825.2131388425
 31
0.0
  0
LINE
  5
31B
100
AcDbEntity
  8
L1_
  6
CONTINUOUS
 62
         4
100
AcDbLine
 10
-9638.2533073821
 20
11825.6131388425
 30
0.0
 11
-9651.8547758634
 21
11825.6131388425
 31
0.0
  0
LINE
  5
31C
100
AcDbEntity
  8
L1_
  6
CONTINUOUS
 62
         7
100
AcDbLine
 10
-9639.379140407
 20
11824.9631388425
 30
0.0
 11
-9650.379140407
 21
11824.9631388425
 31
0.0
  0
LINE
  5
31D
100
AcDbEntity
  8
L1_
  6
CONTINUOUS
 62
         7
100
AcDbLine
 10
-9633.179140407
 20
11825.2131388425
 30
0.0
 11
-9633.179140407
 21
11794.0131388425
 31
0.0
  0
LINE
  5
31E
100
AcDbEntity
  8
L1_
  6
CONTINUOUS
 62
         7
100
AcDbLine
 10
-9630.879140407
 20
11799.6881388425
 30
0.0
 11
-9633.179140407
 21
11799.6881388425
 31
0.0
  0
LINE
  5
31F
100
AcDbEntity
  8
L1_
  6
CONTINUOUS
 62
         7
100
AcDbLine
 10
-9630.879140407
 20
11819.5381388425
 30
0.0
 11
-9633.179140407
 21
11819.5381388425
 31
0.0
  0
LINE
  5
320
100
AcDbEntity
  8
L1_
  6
CONTINUOUS
 62
         7
100
AcDbLine
 10
-9630.879140407
 20
11798.5131388425
 30
0.0
 11
-9630.879140407
 21
11820.7131388425
 31
0.0
  0
LINE
  5
321
100
AcDbEntity
  8
L1_
  6
CONTINUOUS
 62
         7
100
AcDbLine
 10
-9628.379140407
 20
11798.5131388425
 30
0.0
 11
-9630.879140407
 21
11798.5131388425
 31
0.0
  0
LINE
  5
322
100
AcDbEntity
  8
L1_
  6
CONTINUOUS
 62
         7
100
AcDbLine
 10
-9628.379140407
 20
11820.7131388425
 30
0.0
 11
-9630.879140407
 21
11820.7131388425
 31
0.0
  0
LINE
  5
323
100
AcDbEntity
  8
L1_
  6
CONTINUOUS
 62
         7
100
AcDbLine
 10
-9652.379140407
 20
11827.6131388425
 30
0.0
 11
-9652.379140407
 21
11791.6131388425
 31
0.0
  0
LINE
  5
324
100
AcDbEntity
  8
L1_
  6
CONTINUOUS
 62
         7
100
AcDbLine
 10
-9628.379140407
 20
11794.3631388425
 30
0.0
 11
-9628.379140407
 21
11824.8631388425
 31
0.0
  0
LINE
  5
325
100
AcDbEntity
  8
L1_
  6
CONTINUOUS
 62
         7
100
AcDbLine
 10
-9630.879140407
 20
11789.6131388425
 30
0.0
 11
-9650.379140407
 21
11789.6131388425
 31
0.0
  0
LINE
  5
326
100
AcDbEntity
  8
L1_
  6
CONTINUOUS
 62
         7
100
AcDbLine
 10
-9630.879140407
 20
11829.6131388425
 30
0.0
 11
-9650.379140407
 21
11829.6131388425
 31
0.0
  0
ARC
  5
327
100
AcDbEntity
  8
L1_
  6
CONTINUOUS
 62
         7
100
AcDbCircle
 10
-9650.379140407
 20
11792.2631388425
 30
0.0
 40
2.0
100
AcDbArc
 50
90.0
 51
180.0
  0
ARC
  5
328
100
AcDbEntity
  8
L1_
  6
CONTINUOUS
 62
         7
100
AcDbCircle
 10
-9650.379140407
 20
11826.9631388425
 30
0.0
 40
2.0
100
AcDbArc
 50
180.0
 51
270.0
  0
LINE
  5
329
100
AcDbEntity
  8
L1_
  6
CONTINUOUS
 62
         7
100
AcDbLine
 10
-9639.379140407
 20
11794.2631388425
 30
0.0
 11
-9637.6193327859
 21
11793.2471134387
 31
0.0
  0
ARC
  5
32A
100
AcDbEntity
  8
L1_
  6
CONTINUOUS
 62
         7
100
AcDbCircle
 10
-9637.1193327859
 20
11794.1131388425
 30
0.0
 40
1.0
100
AcDbArc
 50
240.0
 51
270.0
  0
ARC
  5
32B
100
AcDbEntity
  8
L1_
  6
CONTINUOUS
 62
         7
100
AcDbCircle
 10
-9635.3933539694
 20
11794.1131388425
 30
0.0
 40
1.0
100
AcDbArc
 50
270.0
 51
315.0
  0
LINE
  5
32C
100
AcDbEntity
  8
L1_
  6
CONTINUOUS
 62
         7
100
AcDbLine
 10
-9635.3933539694
 20
11826.1131388425
 30
0.0
 11
-9637.1193327859
 21
11826.1131388425
 31
0.0
  0
LINE
  5
32D
100
AcDbEntity
  8
L1_
  6
CONTINUOUS
 62
         7
100
AcDbLine
 10
-9639.379140407
 20
11824.9631388425
 30
0.0
 11
-9637.6193327859
 21
11825.9791642463
 31
0.0
  0
ARC
  5
32E
100
AcDbEntity
  8
L1_
  6
CONTINUOUS
 62
         7
100
AcDbCircle
 10
-9637.1193327859
 20
11825.1131388425
 30
0.0
 40
1.0
100
AcDbArc
 50
90.0
 51
120.0
  0
ARC
  5
32F
100
AcDbEntity
  8
L1_
  6
CONTINUOUS
 62
         7
100
AcDbCircle
 10
-9635.3933539694
 20
11825.1131388425
 30
0.0
 40
1.0
100
AcDbArc
 50
45.0
 51
90.0
  0
LINE
  5
330
100
AcDbEntity
  8
L1_
  6
CONTINUOUS
 62
         4
100
AcDbLine
 10
-9639.379140407
 20
11794.2631388425
 30
0.0
 11
-9639.379140407
 21
11824.9631388425
 31
0.0
  0
LINE
  5
331
100
AcDbEntity
  8
L1_
  6
CONTINUOUS
 62
         4
100
AcDbLine
 10
-9637.3872819783
 20
11825.9257103318
 30
0.0
 11
-9637.3872819783
 21
11793.3113119939
 31
0.0
  0
DIMENSION
  5
334
100
AcDbEntity
  8
L1_
  6
CONTINUOUS
 62
         4
100
AcDbDimension
  2
*D6
 10
-9674.8040562504
 20
11829.6131388425
 30
0.0
 11
-9676.9040562504
 21
11801.2928698546
 31
0.0
  3
DIMSTYLE1
100
AcDbAlignedDimension
 13
-9650.379140407
 23
11829.6131388425
 33
0.0
 14
-9650.379140407
 24
11789.6131388425
 34
0.0
 50
90.0
100
AcDbRotatedDimension
  0
DIMENSION
  5
342
100
AcDbEntity
  8
L1_
  6
CONTINUOUS
 62
         4
100
AcDbDimension
  2
*D7
 10
-9663.0519175082
 20
11825.6131388425
 30
0.0
 11
-9665.1519175082
 21
11790.6454342285
 31
0.0
  3
DIMSTYLE1
100
AcDbAlignedDimension
 13
-9651.8547758634
 23
11825.6131388425
 33
0.0
 14
-9651.8547758634
 24
11793.6131388425
 34
0.0
 50
90.0
100
AcDbRotatedDimension
  0
DIMENSION
  5
350
100
AcDbEntity
  8
L1_
  6
CONTINUOUS
 62
         4
100
AcDbDimension
  2
*D8
 10
-9652.379140407
 20
11836.0521955494
 30
0.0
 11
-9643.879140407
 21
11838.1521955494
 31
0.0
  3
DIMSTYLE1
100
AcDbAlignedDimension
 13
-9652.379140407
 23
11827.6131388425
 33
0.0
 14
-9628.379140407
 24
11824.8631388425
 34
0.0
100
AcDbRotatedDimension
  0
LINE
  5
35C
100
AcDbEntity
  8
L1_
  6
CENTER
 62
         1
100
AcDbLine
 10
-9576.1299524921
 20
11798.1131388425
 30
0.0
 11
-9615.9671210662
 21
11821.1131388425
 31
0.0
  0
LINE
  5
35D
100
AcDbEntity
  8
L1_
  6
CENTER
 62
         1
100
AcDbLine
 10
-9576.1299524921
 20
11821.1131388425
 30
0.0
 11
-9615.9671210662
 21
11798.1131388425
 31
0.0
  0
LINE
  5
35E
100
AcDbEntity
  8
L1_
  6
DASHED
 62
         2
100
AcDbLine
 10
-9594.1985367792
 20
11827.8131388425
 30
0.0
 11
-9594.1985367792
 21
11829.5273925317
 31
0.0
  0
LINE
  5
35F
100
AcDbEntity
  8
L1_
  6
DASHED
 62
         2
100
AcDbLine
 10
-9597.8985367792
 20
11827.8131388425
 30
0.0
 11
-9597.8985367792
 21
11829.5273925317
 31
0.0
  0
LINE
  5
360
100
AcDbEntity
  8
L1_
  6
DASHED
 62
         2
100
AcDbLine
 10
-9594.1985367792
 20
11827.8131388425
 30
0.0
 11
-9597.8985367792
 21
11827.8131388425
 31
0.0
  0
LINE
  5
361
100
AcDbEntity
  8
L1_
  6
DASHED
 62
         2
100
AcDbLine
 10
-9579.3618744303
 20
11817.1109918455
 30
0.0
 11
-9577.8772871869
 21
11817.9681186901
 31
0.0
  0
LINE
  5
362
100
AcDbEntity
  8
L1_
  6
DASHED
 62
         2
100
AcDbLine
 10
-9581.2118744303
 20
11820.3152858395
 30
0.0
 11
-9579.7272871869
 21
11821.1724126841
 31
0.0
  0
LINE
  5
363
100
AcDbEntity
  8
L1_
  6
DASHED
 62
         2
100
AcDbLine
 10
-9579.3618744303
 20
11817.1109918455
 30
0.0
 11
-9581.2118744303
 21
11820.3152858395
 31
0.0
  0
LINE
  5
364
100
AcDbEntity
  8
L1_
  6
DASHED
 62
         2
100
AcDbLine
 10
-9581.2118744303
 20
11798.9109918455
 30
0.0
 11
-9579.7272871869
 21
11798.0538650009
 31
0.0
  0
LINE
  5
365
100
AcDbEntity
  8
L1_
  6
DASHED
 62
         2
100
AcDbLine
 10
-9579.3618744303
 20
11802.1152858395
 30
0.0
 11
-9577.8772871869
 21
11801.2581589949
 31
0.0
  0
LINE
  5
366
100
AcDbEntity
  8
L1_
  6
DASHED
 62
         2
100
AcDbLine
 10
-9581.2118744303
 20
11798.9109918455
 30
0.0
 11
-9579.3618744303
 21
11802.1152858395
 31
0.0
  0
LINE
  5
367
100
AcDbEntity
  8
L1_
  6
DASHED
 62
         2
100
AcDbLine
 10
-9597.8985367792
 20
11791.4131388425
 30
0.0
 11
-9597.8985367792
 21
11789.6988851532
 31
0.0
  0
LINE
  5
368
100
AcDbEntity
  8
L1_
  6
DASHED
 62
         2
100
AcDbLine
 10
-9594.1985367792
 20
11791.4131388425
 30
0.0
 11
-9594.1985367792
 21
11789.6988851532
 31
0.0
  0
LINE
  5
369
100
AcDbEntity
  8
L1_
  6
DASHED
 62
         2
100
AcDbLine
 10
-9597.8985367792
 20
11791.4131388425
 30
0.0
 11
-9594.1985367792
 21
11791.4131388425
 31
0.0
  0
LINE
  5
36A
100
AcDbEntity
  8
L1_
  6
DASHED
 62
         2
100
AcDbLine
 10
-9612.7351991281
 20
11802.1152858395
 30
0.0
 11
-9614.2197863715
 21
11801.2581589949
 31
0.0
  0
LINE
  5
36B
100
AcDbEntity
  8
L1_
  6
DASHED
 62
         2
100
AcDbLine
 10
-9610.8851991281
 20
11798.9109918455
 30
0.0
 11
-9612.3697863715
 21
11798.0538650009
 31
0.0
  0
LINE
  5
36C
100
AcDbEntity
  8
L1_
  6
DASHED
 62
         2
100
AcDbLine
 10
-9612.7351991281
 20
11802.1152858395
 30
0.0
 11
-9610.8851991281
 21
11798.9109918455
 31
0.0
  0
LINE
  5
36D
100
AcDbEntity
  8
L1_
  6
DASHED
 62
         2
100
AcDbLine
 10
-9610.8851991281
 20
11820.3152858395
 30
0.0
 11
-9612.3697863715
 21
11821.1724126841
 31
0.0
  0
LINE
  5
36E
100
AcDbEntity
  8
L1_
  6
DASHED
 62
         2
100
AcDbLine
 10
-9612.7351991281
 20
11817.1109918455
 30
0.0
 11
-9614.2197863715
 21
11817.9681186901
 31
0.0
  0
LINE
  5
36F
100
AcDbEntity
  8
L1_
  6
DASHED
 62
         2
100
AcDbLine
 10
-9610.8851991281
 20
11820.3152858395
 30
0.0
 11
-9612.7351991281
 21
11817.1109918455
 31
0.0
  0
LINE
  5
370
100
AcDbEntity
  8
L1_
  6
CENTER
 62
         1
100
AcDbLine
 10
-9573.0485367792
 20
11809.6131388425
 30
0.0
 11
-9619.0485367792
 21
11809.6131388425
 31
0.0
  0
LINE
  5
371
100
AcDbEntity
  8
L1_
  6
CENTER
 62
         1
100
AcDbLine
 10
-9596.0485367792
 20
11786.6131388425
 30
0.0
 11
-9596.0485367792
 21
11832.6131388425
 31
0.0
  0
CIRCLE
  5
372
100
AcDbEntity
  8
L1_
  6
CONTINUOUS
 62
         7
100
AcDbCircle
 10
-9596.0485367792
 20
11809.6131388425
 30
0.0
 40
9.925
  0
CIRCLE
  5
373
100
AcDbEntity
  8
L1_
  6
CONTINUOUS
 62
         7
100
AcDbCircle
 10
-9596.0485367792
 20
11809.6131388425
 30
0.0
 40
11.1
  0
CIRCLE
  5
374
100
AcDbEntity
  8
L1_
  6
CONTINUOUS
 62
         7
100
AcDbCircle
 10
-9596.0485367792
 20
11809.6131388425
 30
0.0
 40
15.25
  0
CIRCLE
  5
375
100
AcDbEntity
  8
L1_
  6
CONTINUOUS
 62
         7
100
AcDbCircle
 10
-9596.0485367792
 20
11809.6131388425
 30
0.0
 40
20.0
  0
LINE
  5
376
100
AcDbEntity
  8
L1_
  6
DASHED
 62
         2
100
AcDbLine
 10
-9631.5384348357
 20
11727.5481775648
 30
0.0
 11
-9622.1384348357
 21
11727.5481775648
 31
0.0
  0
LINE
  5
377
100
AcDbEntity
  8
L1_
  6
DASHED
 62
         2
100
AcDbLine
 10
-9631.5384348357
 20
11730.5481775648
 30
0.0
 11
-9622.1384348357
 21
11730.5481775648
 31
0.0
  0
LINE
  5
378
100
AcDbEntity
  8
L1_
  6
CONTINUOUS
 62
         7
100
AcDbLine
 10
-9651.7344205126
 20
11721.8624260384
 30
0.0
 11
-9651.7344205126
 21
11727.9301435761
 31
0.0
  0
LINE
  5
379
100
AcDbEntity
  8
L1_
  6
CONTINUOUS
 62
         7
100
AcDbLine
 10
-9649.7344205126
 20
11721.8624260384
 30
0.0
 11
-9649.7344205126
 21
11727.9301435761
 31
0.0
  0
CIRCLE
  5
37A
100
AcDbEntity
  8
L1_
  6
CONTINUOUS
 62
         7
100
AcDbCircle
 10
-9650.7344205126
 20
11729.0481775648
 30
0.0
 40
1.5
  0
LINE
  5
37B
100
AcDbEntity
  8
L1_
  6
CONTINUOUS
 62
         7
100
AcDbLine
 10
-9651.7344205126
 20
11730.1662115536
 30
0.0
 11
-9651.7344205126
 21
11736.2339290913
 31
0.0
  0
LINE
  5
37C
100
AcDbEntity
  8
L1_
  6
CONTINUOUS
 62
         7
100
AcDbLine
 10
-9649.7344205126
 20
11730.1662115536
 30
0.0
 11
-9649.7344205126
 21
11736.2339290913
 31
0.0
  0
DIMENSION
  5
37F
100
AcDbEntity
  8
L1_
  6
CONTINUOUS
 62
         4
100
AcDbDimension
  2
*D9
 10
-9649.7344205126
 20
11743.2806049139
 30
0.0
 11
-9652.4844205126
 21
11745.3806049139
 31
0.0
  3
DIMSTYLE1
100
AcDbAlignedDimension
 13
-9649.7344205126
 23
11734.6292975241
 33
0.0
 14
-9651.7344205126
 24
11734.6292975241
 34
0.0
100
AcDbRotatedDimension
  0
LINE
  5
38D
100
AcDbEntity
  8
L1_
  6
CONTINUOUS
 62
         4
100
AcDbLine
 10
-9630.6534348357
 20
11721.1081775648
 30
0.0
 11
-9623.0234348357
 21
11721.1081775648
 31
0.0
  0
LINE
  5
38E
100
AcDbEntity
  8
L1_
  6
CONTINUOUS
 62
         4
100
AcDbLine
 10
-9630.6534348357
 20
11736.9881775648
 30
0.0
 11
-9623.0234348357
 21
11736.9881775648
 31
0.0
  0
LINE
  5
38F
100
AcDbEntity
  8
L1_
  6
DASHED
 62
         2
100
AcDbLine
 10
-9631.5384348357
 20
11721.7931775648
 30
0.0
 11
-9631.5384348357
 21
11736.3031775648
 31
0.0
  0
LINE
  5
390
100
AcDbEntity
  8
L1_
  6
DASHED
 62
         2
100
AcDbLine
 10
-9622.1384348357
 20
11721.7931775648
 30
0.0
 11
-9622.1384348357
 21
11736.3031775648
 31
0.0
  0
LINE
  5
391
100
AcDbEntity
  8
L1_
  6
CONTINUOUS
 62
         7
100
AcDbLine
 10
-9632.8384348357
 20
11721.7931775648
 30
0.0
 11
-9631.3384348357
 21
11721.7931775648
 31
0.0
  0
LINE
  5
392
100
AcDbEntity
  8
L1_
  6
CONTINUOUS
 62
         7
100
AcDbLine
 10
-9622.3384348357
 20
11721.7931775648
 30
0.0
 11
-9620.8384348357
 21
11721.7931775648
 31
0.0
  0
LINE
  5
393
100
AcDbEntity
  8
L1_
  6
CONTINUOUS
 62
         7
100
AcDbLine
 10
-9623.8134348357
 20
11720.3181775648
 30
0.0
 11
-9622.3384348357
 21
11721.7931775648
 31
0.0
  0
LINE
  5
394
100
AcDbEntity
  8
L1_
  6
CONTINUOUS
 62
         7
100
AcDbLine
 10
-9629.8634348357
 20
11720.3181775648
 30
0.0
 11
-9631.3384348357
 21
11721.7931775648
 31
0.0
  0
LINE
  5
395
100
AcDbEntity
  8
L1_
  6
CONTINUOUS
 62
         7
100
AcDbLine
 10
-9629.8634348357
 20
11720.3181775648
 30
0.0
 11
-9623.8134348357
 21
11720.3181775648
 31
0.0
  0
LINE
  5
396
100
AcDbEntity
  8
L1_
  6
CONTINUOUS
 62
         7
100
AcDbLine
 10
-9620.8384348357
 20
11721.7931775648
 30
0.0
 11
-9620.8384348357
 21
11736.3031775648
 31
0.0
  0
LINE
  5
397
100
AcDbEntity
  8
L1_
  6
CONTINUOUS
 62
         7
100
AcDbLine
 10
-9632.8384348357
 20
11721.7931775648
 30
0.0
 11
-9632.8384348357
 21
11736.3031775648
 31
0.0
  0
LINE
  5
398
100
AcDbEntity
  8
L1_
  6
CONTINUOUS
 62
         7
100
AcDbLine
 10
-9629.8634348357
 20
11737.7781775648
 30
0.0
 11
-9631.3384348357
 21
11736.3031775648
 31
0.0
  0
LINE
  5
399
100
AcDbEntity
  8
L1_
  6
CONTINUOUS
 62
         7
100
AcDbLine
 10
-9623.8134348357
 20
11737.7781775648
 30
0.0
 11
-9622.3384348357
 21
11736.3031775648
 31
0.0
  0
LINE
  5
39A
100
AcDbEntity
  8
L1_
  6
CONTINUOUS
 62
         7
100
AcDbLine
 10
-9622.3384348357
 20
11736.3031775648
 30
0.0
 11
-9620.8384348357
 21
11736.3031775648
 31
0.0
  0
LINE
  5
39B
100
AcDbEntity
  8
L1_
  6
CONTINUOUS
 62
         7
100
AcDbLine
 10
-9629.8634348357
 20
11737.7781775648
 30
0.0
 11
-9623.8134348357
 21
11737.7781775648
 31
0.0
  0
LINE
  5
39C
100
AcDbEntity
  8
L1_
  6
CONTINUOUS
 62
         7
100
AcDbLine
 10
-9632.8384348357
 20
11736.3031775648
 30
0.0
 11
-9631.3384348357
 21
11736.3031775648
 31
0.0
  0
LINE
  5
39D
100
AcDbEntity
  8
L1_
  6
CONTINUOUS
 62
         7
100
AcDbLine
 10
-9622.3384348357
 20
11721.7931775648
 30
0.0
 11
-9622.3384348357
 21
11736.3031775648
 31
0.0
  0
LINE
  5
39E
100
AcDbEntity
  8
L1_
  6
CONTINUOUS
 62
         7
100
AcDbLine
 10
-9620.3384348357
 20
11722.2931775648
 30
0.0
 11
-9620.3384348357
 21
11735.8031775648
 31
0.0
  0
LINE
  5
39F
100
AcDbEntity
  8
L1_
  6
CONTINUOUS
 62
         7
100
AcDbLine
 10
-9631.3384348357
 20
11721.7931775648
 30
0.0
 11
-9631.3384348357
 21
11736.3031775648
 31
0.0
  0
LINE
  5
3A0
100
AcDbEntity
  8
L1_
  6
CONTINUOUS
 62
         7
100
AcDbLine
 10
-9633.3384348357
 20
11722.2931775648
 30
0.0
 11
-9633.3384348357
 21
11735.8031775648
 31
0.0
  0
LINE
  5
3A1
100
AcDbEntity
  8
L1_
  6
CENTER
 62
         1
100
AcDbLine
 10
-9634.640391671
 20
11729.0481775648
 30
0.0
 11
-9619.1408629235
 21
11729.0481775648
 31
0.0
  0
LINE
  5
3A2
100
AcDbEntity
  8
L1_
  6
CENTER
 62
         1
100
AcDbLine
 10
-9650.7344205126
 20
11719.048901331
 30
0.0
 11
-9650.7344205126
 21
11739.5430126636
 31
0.0
  0
LINE
  5
3A3
100
AcDbEntity
  8
L1_
  6
CENTER
 62
         1
100
AcDbLine
 10
-9640.3420839101
 20
11729.0481775648
 30
0.0
 11
-9662.9639991516
 21
11729.0481775648
 31
0.0
  0
DIMENSION
  5
3A6
100
AcDbEntity
  8
L1_
  6
CONTINUOUS
 62
         4
100
AcDbDimension
  2
*D10
 10
-9606.0207130357
 20
11737.7781775648
 30
0.0
 11
-9608.1207130357
 21
11716.9338205894
 31
0.0
  3
DIMSTYLE1
100
AcDbAlignedDimension
 13
-9623.8134348357
 23
11737.7781775648
 33
0.0
 14
-9623.8134348357
 24
11720.3181775648
 34
0.0
 50
90.0
100
AcDbRotatedDimension
  0
DIMENSION
  5
3B4
100
AcDbEntity
  8
L1_
  6
CONTINUOUS
 62
         4
100
AcDbDimension
  2
*D11
 10
-9633.3384348357
 20
11746.3752874808
 30
0.0
 11
-9630.3384348357
 21
11748.4752874808
 31
0.0
  3
DIMSTYLE1
100
AcDbAlignedDimension
 13
-9633.3384348357
 23
11732.6281775648
 33
0.0
 14
-9620.3384348357
 24
11732.6281775648
 34
0.0
100
AcDbRotatedDimension
  0
LINE
  5
3C0
100
AcDbEntity
  8
L1_
  6
CONTINUOUS
 62
         7
100
AcDbLine
 10
-9632.8384348357
 20
11736.3031775648
 30
0.0
 11
-9633.3384348357
 21
11735.8031775648
 31
0.0
  0
LINE
  5
3C1
100
AcDbEntity
  8
L1_
  6
CONTINUOUS
 62
         7
100
AcDbLine
 10
-9620.8384348357
 20
11736.3031775648
 30
0.0
 11
-9620.3384348357
 21
11735.8031775648
 31
0.0
  0
LINE
  5
3C2
100
AcDbEntity
  8
L1_
  6
CONTINUOUS
 62
         7
100
AcDbLine
 10
-9632.8384348357
 20
11721.7931775648
 30
0.0
 11
-9633.3384348357
 21
11722.2931775648
 31
0.0
  0
LINE
  5
3C3
100
AcDbEntity
  8
L1_
  6
CONTINUOUS
 62
         7
100
AcDbLine
 10
-9620.8384348357
 20
11721.7931775648
 30
0.0
 11
-9620.3384348357
 21
11722.2931775648
 31
0.0
  0
CIRCLE
  5
3C4
100
AcDbEntity
  8
L1_
  6
CONTINUOUS
 62
         7
100
AcDbCircle
 10
-9650.7344205126
 20
11729.0481775648
 30
0.0
 40
7.255
  0
CIRCLE
  5
3C5
100
AcDbEntity
  8
L1_
  6
CONTINUOUS
 62
         7
100
AcDbCircle
 10
-9650.7344205126
 20
11729.0481775648
 30
0.0
 40
8.73
  0
DIMENSION
  5
3C8
100
AcDbEntity
  8
L1_
  6
CONTINUOUS
 62
         4
100
AcDbDimension
  2
*D12
 10
-9914.7705485269
 20
11681.9268160957
 30
0.0
 11
-9870.9278528954
 21
11684.0268160957
 31
0.0
  3
DIMSTYLE1
100
AcDbAlignedDimension
 13
-9914.7705485269
 23
11730.3578887676
 33
0.0
 14
-9814.7705485269
 24
11725.4078887676
 34
0.0
100
AcDbRotatedDimension
  0
LINE
  5
3D4
100
AcDbEntity
  8
L1_
  6
CONTINUOUS
 62
         7
100
AcDbLine
 10
-9926.4658163001
 20
11728.9615473042
 30
0.0
 11
-9926.4658163001
 21
11749.754230231
 31
0.0
  0
LINE
  5
3D5
100
AcDbEntity
  8
L1_
  6
CONTINUOUS
 62
         7
100
AcDbLine
 10
-9926.4658163001
 20
11749.754230231
 30
0.0
 11
-9925.3305485269
 21
11747.7878887676
 31
0.0
  0
LINE
  5
3D6
100
AcDbEntity
  8
L1_
  6
CONTINUOUS
 62
         7
100
AcDbLine
 10
-9926.4658163001
 20
11728.9615473042
 30
0.0
 11
-9925.3305485269
 21
11730.9278887676
 31
0.0
  0
LINE
  5
3D7
100
AcDbEntity
  8
L1_
  6
CONTINUOUS
 62
         7
100
AcDbLine
 10
-9925.3305485269
 20
11730.9278887676
 30
0.0
 11
-9925.3305485269
 21
11747.7878887676
 31
0.0
  0
LINE
  5
3D8
100
AcDbEntity
  8
L1_
  6
CONTINUOUS
 62
         7
100
AcDbLine
 10
-9914.7705485269
 20
11730.3578887676
 30
0.0
 11
-9914.7705485269
 21
11748.3578887676
 31
0.0
  0
LINE
  5
3D9
100
AcDbEntity
  8
L1_
  6
CONTINUOUS
 62
         4
100
AcDbLine
 10
-9914.7705485269
 20
11748.3578887676
 30
0.0
 11
-9856.7705485269
 21
11748.3578887676
 31
0.0
  0
LINE
  5
3DA
100
AcDbEntity
  8
L1_
  6
CONTINUOUS
 62
         7
100
AcDbLine
 10
-9925.3305485269
 20
11730.9278887676
 30
0.0
 11
-9856.7705485269
 21
11730.9278887676
 31
0.0
  0
LINE
  5
3DB
100
AcDbEntity
  8
L1_
  6
CONTINUOUS
 62
         4
100
AcDbLine
 10
-9914.7705485269
 20
11730.3578887676
 30
0.0
 11
-9856.7705485269
 21
11730.3578887676
 31
0.0
  0
LINE
  5
3DC
100
AcDbEntity
  8
L1_
  6
CONTINUOUS
 62
         7
100
AcDbLine
 10
-9925.3305485269
 20
11747.7878887676
 30
0.0
 11
-9856.7705485269
 21
11747.7878887676
 31
0.0
  0
DIMENSION
  5
3DF
100
AcDbEntity
  8
L1_
  6
CONTINUOUS
 62
         4
100
AcDbDimension
  2
*D13
 10
-9856.7705485269
 20
11695.6689159918
 30
0.0
 11
-9839.2705485269
 21
11697.7689159918
 31
0.0
  3
DIMSTYLE1
100
AcDbAlignedDimension
 13
-9856.7705485269
 23
11728.9578887676
 33
0.0
 14
-9814.7705485269
 24
11724.4578887676
 34
0.0
100
AcDbRotatedDimension
  0
DIMENSION
  5
3ED
100
AcDbEntity
  8
L1_
  6
CONTINUOUS
 62
         4
100
AcDbDimension
  2
*D14
 10
-9793.9454890906
 20
11751.3578887676
 30
0.0
 11
-9796.0454890906
 21
11727.3771822964
 31
0.0
  3
DIMSTYLE1
100
AcDbAlignedDimension
 13
-9814.7705485269
 23
11751.3578887676
 33
0.0
 14
-9814.7705485269
 24
11727.3578887676
 34
0.0
 50
90.0
100
AcDbRotatedDimension
  0
LINE
  5
3F9
100
AcDbEntity
  8
L1_
  6
CONTINUOUS
 62
         7
100
AcDbLine
 10
-9834.7705485269
 20
11755.7578887676
 30
0.0
 11
-9834.7705485269
 21
11758.8578887676
 31
0.0
  0
LINE
  5
3FA
100
AcDbEntity
  8
L1_
  6
CONTINUOUS
 62
         7
100
AcDbLine
 10
-9817.7205485269
 20
11723.4578887676
 30
0.0
 11
-9834.2705485269
 21
11723.4578887676
 31
0.0
  0
LINE
  5
3FB
100
AcDbEntity
  8
L1_
  6
CONTINUOUS
 62
         7
100
AcDbLine
 10
-9817.7205485269
 20
11755.2578887676
 30
0.0
 11
-9834.2705485269
 21
11755.2578887676
 31
0.0
  0
LINE
  5
3FC
100
AcDbEntity
  8
L1_
  6
CONTINUOUS
 62
         7
100
AcDbLine
 10
-9834.7705485269
 20
11719.8578887676
 30
0.0
 11
-9834.7705485269
 21
11722.9578887676
 31
0.0
  0
LINE
  5
3FD
100
AcDbEntity
  8
L1_
  6
CONTINUOUS
 62
         7
100
AcDbLine
 10
-9835.2705485269
 20
11759.3578887676
 30
0.0
 11
-9877.8185485269
 21
11759.3578887676
 31
0.0
  0
LINE
  5
3FE
100
AcDbEntity
  8
L1_
  6
CONTINUOUS
 62
         7
100
AcDbLine
 10
-9815.7007920531
 20
11727.4229377317
 30
0.0
 11
-9846.9470476045
 21
11729.6078887676
 31
0.0
  0
LINE
  5
3FF
100
AcDbEntity
  8
L1_
  6
CONTINUOUS
 62
         7
100
AcDbLine
 10
-9815.7007920531
 20
11751.2928398035
 30
0.0
 11
-9846.9470476045
 21
11749.1078887676
 31
0.0
  0
LINE
  5
400
100
AcDbEntity
  8
L1_
  6
CONTINUOUS
 62
         7
100
AcDbLine
 10
-9856.7705485269
 20
11729.6078887676
 30
0.0
 11
-9856.7705485269
 21
11749.1078887676
 31
0.0
  0
LINE
  5
401
100
AcDbEntity
  8
L1_
  6
CONTINUOUS
 62
         7
100
AcDbLine
 10
-9814.7705485269
 20
11725.4078887676
 30
0.0
 11
-9814.7705485269
 21
11753.3078887676
 31
0.0
  0
ARC
  5
402
100
AcDbEntity
  8
L1_
  6
CONTINUOUS
 62
         7
100
AcDbCircle
 10
-9834.2705485269
 20
11755.7578887676
 30
0.0
 40
0.5
100
AcDbArc
 50
180.0
 51
270.0
  0
ARC
  5
403
100
AcDbEntity
  8
L1_
  6
CONTINUOUS
 62
         7
100
AcDbCircle
 10
-9834.2705485269
 20
11722.9578887676
 30
0.0
 40
0.5
100
AcDbArc
 50
90.0
 51
180.0
  0
LINE
  5
404
100
AcDbEntity
  8
L1_
  6
CONTINUOUS
 62
         7
100
AcDbLine
 10
-9834.7705485269
 20
11719.8578887676
 30
0.0
 11
-9835.2705485269
 21
11719.3578887676
 31
0.0
  0
LINE
  5
405
100
AcDbEntity
  8
L1_
  6
CONTINUOUS
 62
         7
100
AcDbLine
 10
-9834.7705485269
 20
11758.8578887676
 30
0.0
 11
-9835.2705485269
 21
11759.3578887676
 31
0.0
  0
LINE
  5
406
100
AcDbEntity
  8
L1_
  6
CONTINUOUS
 62
         7
100
AcDbLine
 10
-9846.9470476045
 20
11749.1078887676
 30
0.0
 11
-9856.7705485269
 21
11749.1078887676
 31
0.0
  0
LINE
  5
407
100
AcDbEntity
  8
L1_
  6
CONTINUOUS
 62
         7
100
AcDbLine
 10
-9846.9470476045
 20
11729.6078887676
 30
0.0
 11
-9856.7705485269
 21
11729.6078887676
 31
0.0
  0
LINE
  5
408
100
AcDbEntity
  8
L1_
  6
CONTINUOUS
 62
         7
100
AcDbLine
 10
-9846.9470476045
 20
11729.6078887676
 30
0.0
 11
-9846.9470476045
 21
11749.1078887676
 31
0.0
  0
DIMENSION
  5
40B
100
AcDbEntity
  8
L1_
  6
CONTINUOUS
 62
         4
100
AcDbDimension
  2
*D15
 10
-9846.9470476045
 20
11704.7289622661
 30
0.0
 11
-9839.6087980657
 21
11706.8289622661
 31
0.0
  3
DIMSTYLE1
100
AcDbAlignedDimension
 13
-9846.9470476045
 23
11729.6078887676
 33
0.0
 14
-9814.7705485269
 24
11724.4578887676
 34
0.0
100
AcDbRotatedDimension
  0
LINE
  5
417
100
AcDbEntity
  8
L1_
  6
CONTINUOUS
 62
         7
100
AcDbLine
 10
-9833.7705485269
 20
11755.2578887676
 30
0.0
 11
-9833.7705485269
 21
11754.3578887676
 31
0.0
  0
LINE
  5
418
100
AcDbEntity
  8
L1_
  6
CONTINUOUS
 62
         4
100
AcDbLine
 10
-9816.8205485269
 20
11754.3578887676
 30
0.0
 11
-9833.7705485269
 21
11754.3578887676
 31
0.0
  0
LINE
  5
419
100
AcDbEntity
  8
L1_
  6
CONTINUOUS
 62
         4
100
AcDbLine
 10
-9816.8205485269
 20
11724.3578887676
 30
0.0
 11
-9833.7705485269
 21
11724.3578887676
 31
0.0
  0
LINE
  5
41A
100
AcDbEntity
  8
L1_
  6
CONTINUOUS
 62
         7
100
AcDbLine
 10
-9815.7705485269
 20
11724.4078887676
 30
0.0
 11
-9816.7705485269
 21
11724.4078887676
 31
0.0
  0
LINE
  5
41B
100
AcDbEntity
  8
L1_
  6
CONTINUOUS
 62
         7
100
AcDbLine
 10
-9817.7205485269
 20
11723.4578887676
 30
0.0
 11
-9816.7705485269
 21
11724.4078887676
 31
0.0
  0
ARC
  5
41C
100
AcDbEntity
  8
L1_
  6
CONTINUOUS
 62
         7
100
AcDbCircle
 10
-9815.7705485269
 20
11725.4078887676
 30
0.0
 40
1.0
100
AcDbArc
 50
270.0
 51
360.0
  0
ARC
  5
41D
100
AcDbEntity
  8
L1_
  6
CONTINUOUS
 62
         7
100
AcDbCircle
 10
-9815.7705485269
 20
11753.3078887676
 30
0.0
 40
1.0
100
AcDbArc
 50
0.0
 51
90.0
  0
LINE
  5
41E
100
AcDbEntity
  8
L1_
  6
CONTINUOUS
 62
         7
100
AcDbLine
 10
-9817.7205485269
 20
11755.2578887676
 30
0.0
 11
-9816.7705485269
 21
11754.3078887676
 31
0.0
  0
LINE
  5
41F
100
AcDbEntity
  8
L1_
  6
CONTINUOUS
 62
         7
100
AcDbLine
 10
-9815.7705485269
 20
11754.3078887676
 30
0.0
 11
-9816.7705485269
 21
11754.3078887676
 31
0.0
  0
LINE
  5
420
100
AcDbEntity
  8
L1_
  6
CONTINUOUS
 62
         7
100
AcDbLine
 10
-9833.7705485269
 20
11724.3578887676
 30
0.0
 11
-9833.7705485269
 21
11723.4578887676
 31
0.0
  0
DIMENSION
  5
423
100
AcDbEntity
  8
L1_
  6
CONTINUOUS
 62
         4
100
AcDbDimension
  2
*D16
 10
-9849.419248759
 20
11729.6078887676
 30
0.0
 11
-9851.519248759
 21
11761.5896066324
 31
0.0
  3
DIMSTYLE1
100
AcDbAlignedDimension
 13
-9846.9470476045
 23
11729.6078887676
 33
0.0
 14
-9846.9470476045
 24
11749.1078887676
 34
0.0
 50
90.0
100
AcDbRotatedDimension
  0
DIMENSION
  5
432
100
AcDbEntity
  8
L1_
  6
CONTINUOUS
 62
         4
100
AcDbDimension
  2
*D17
 10
-9833.7705485269
 20
11764.0294427303
 30
0.0
 11
-9827.7705485269
 21
11766.1294427303
 31
0.0
  3
DIMSTYLE1
100
AcDbAlignedDimension
 13
-9833.7705485269
 23
11755.2578887676
 33
0.0
 14
-9814.7705485269
 24
11753.3078887676
 34
0.0
100
AcDbRotatedDimension
  0
ARC
  5
43E
100
AcDbEntity
  8
L1_
  6
CONTINUOUS
 62
         7
100
AcDbCircle
 10
-9815.7705485269
 20
11752.2904038537
 30
0.0
 40
1.0
100
AcDbArc
 50
274.0
 51
360.0
  0
ARC
  5
43F
100
AcDbEntity
  8
L1_
  6
CONTINUOUS
 62
         7
100
AcDbCircle
 10
-9815.7705485269
 20
11726.4253736814
 30
0.0
 40
1.0
100
AcDbArc
 50
0.0
 51
86.0
  0
LINE
  5
440
100
AcDbEntity
  8
L1_
  6
CONTINUOUS
 62
         7
100
AcDbLine
 10
-9835.2705485269
 20
11719.3578887676
 30
0.0
 11
-9877.8185485269
 21
11719.3578887676
 31
0.0
  0
ARC
  5
441
100
AcDbEntity
  8
L1_
  6
CONTINUOUS
 62
         7
100
AcDbCircle
 10
-9877.8185485269
 20
11761.3578887676
 30
0.0
 40
2.0
100
AcDbArc
 50
180.0
 51
270.0
  0
ARC
  5
442
100
AcDbEntity
  8
L1_
  6
CONTINUOUS
 62
         7
100
AcDbCircle
 10
-9877.8185485269
 20
11717.3578887676
 30
0.0
 40
2.0
100
AcDbArc
 50
90.0
 51
180.0
  0
ARC
  5
443
100
AcDbEntity
  8
L1_
  6
CONTINUOUS
 62
         7
100
AcDbCircle
 10
-9877.8185485269
 20
12000.3503198193
 30
0.0
 40
2.0
100
AcDbArc
 50
180.0
 51
270.0
  0
ARC
  5
444
100
AcDbEntity
  8
L1_
  6
CONTINUOUS
 62
         7
100
AcDbCircle
 10
-9877.8185485269
 20
11956.3503198193
 30
0.0
 40
2.0
100
AcDbArc
 50
90.0
 51
180.0
  0
DIMENSION
  5
447
100
AcDbEntity
  8
L1_
  6
CONTINUOUS
 62
         4
100
AcDbDimension
  2
*D18
 10
-10016.4705485269
 20
12089.8206341398
 30
0.0
 11
-9924.8269033178
 21
12091.9206341398
 31
0.0
  3
DIMSTYLE1
100
AcDbAlignedDimension
 13
-10016.4705485269
 23
11996.2966555833
 33
0.0
 14
-9814.7705485269
 24
11988.2753198193
 34
0.0
100
AcDbRotatedDimension
  0
DIMENSION
  5
455
100
AcDbEntity
  8
L1_
  6
CONTINUOUS
 62
         4
100
AcDbDimension
  2
*D19
 10
-9914.8705485269
 20
12074.8721891056
 30
0.0
 11
-9875.4320414656
 21
12076.9721891056
 31
0.0
  3
DIMSTYLE1
100
AcDbAlignedDimension
 13
-9914.8705485269
 23
12018.0753198193
 33
0.0
 14
-9814.7705485269
 24
11992.3003198193
 34
0.0
100
AcDbRotatedDimension
  0
LINE
  5
461
100
AcDbEntity
  8
L1_
  6
CONTINUOUS
 62
         7
100
AcDbLine
 10
-9936.3649820668
 20
11749.754230231
 30
0.0
 11
-9906.5834339178
 21
11774.7439162987
 31
0.0
  0
LINE
  5
462
100
AcDbEntity
  8
L1_
  6
CENTER
 62
         1
100
AcDbLine
 10
-9895.7705485269
 20
11781.6630824148
 30
0.0
 11
-9933.7980377525
 21
11749.754230231
 31
0.0
  0
LINE
  5
463
100
AcDbEntity
  8
L1_
  6
CONTINUOUS
 62
         7
100
AcDbLine
 10
-9903.7848735392
 20
11772.7843432254
 30
0.0
 11
-9931.2310934381
 21
11749.754230231
 31
0.0
  0
LINE
  5
464
100
AcDbEntity
  8
L1_
  6
CONTINUOUS
 62
         7
100
AcDbLine
 10
-9899.0981139195
 20
11772.5545752819
 30
0.0
 11
-9901.7143991436
 21
11771.334581446
 31
0.0
  0
LINE
  5
465
100
AcDbEntity
  8
L1_
  6
CONTINUOUS
 62
         7
100
AcDbLine
 10
-9901.7143991436
 20
11771.334581446
 30
0.0
 11
-9898.8465169618
 21
11775.4303416674
 31
0.0
  0
LINE
  5
466
100
AcDbEntity
  8
L1_
  6
CONTINUOUS
 62
         7
100
AcDbLine
 10
-9902.6180960923
 20
11778.0712298055
 30
0.0
 11
-9899.5098252283
 21
11780.6793787412
 31
0.0
  0
LINE
  5
467
100
AcDbEntity
  8
L1_
  6
CONTINUOUS
 62
         7
100
AcDbLine
 10
-9898.8465169618
 20
11775.4303416674
 30
0.0
 11
-9908.4871993051
 21
11782.1808201177
 31
0.0
  0
LINE
  5
468
100
AcDbEntity
  8
L1_
  6
CONTINUOUS
 62
         7
100
AcDbLine
 10
-9908.200411087
 20
11782.5903961398
 30
0.0
 11
-9908.1717322651
 21
11782.631353742
 31
0.0
  0
LINE
  5
469
100
AcDbEntity
  8
L1_
  6
CONTINUOUS
 62
         4
100
AcDbLine
 10
-9908.200411087
 20
11782.5903961398
 30
0.0
 11
-9904.1046508655
 21
11779.7225139581
 31
0.0
  0
LINE
  5
46A
100
AcDbEntity
  8
L1_
  6
CONTINUOUS
 62
         7
100
AcDbLine
 10
-9905.4205485269
 20
11780.6439154201
 30
0.0
 11
-9904.1046508655
 21
11779.7225139581
 31
0.0
  0
LINE
  5
46B
100
AcDbEntity
  8
L1_
  6
CONTINUOUS
 62
         4
100
AcDbLine
 10
-9899.5800043038
 20
11781.0773840561
 30
0.0
 11
-9897.008853865
 21
11778.0132062836
 31
0.0
  0
LINE
  5
46C
100
AcDbEntity
  8
L1_
  6
CONTINUOUS
 62
         7
100
AcDbLine
 10
-9899.5098252283
 20
11780.6793787412
 30
0.0
 11
-9897.3886261163
 21
11778.1514320789
 31
0.0
  0
LINE
  5
46D
100
AcDbEntity
  8
L1_
  6
CONTINUOUS
 62
         7
100
AcDbLine
 10
-9899.5800043038
 20
11781.0773840561
 30
0.0
 11
-9899.5098252283
 21
11780.6793787412
 31
0.0
  0
LINE
  5
46E
100
AcDbEntity
  8
L1_
  6
CONTINUOUS
 62
         7
100
AcDbLine
 10
-9897.3886261163
 20
11778.1514320789
 30
0.0
 11
-9899.8195357137
 21
11776.1116567323
 31
0.0
  0
LINE
  5
46F
100
AcDbEntity
  8
L1_
  6
CONTINUOUS
 62
         7
100
AcDbLine
 10
-9897.008853865
 20
11778.0132062836
 30
0.0
 11
-9897.3886261163
 21
11778.1514320789
 31
0.0
  0
LINE
  5
470
100
AcDbEntity
  8
L1_
  6
CONTINUOUS
 62
         7
100
AcDbLine
 10
-9899.0981139195
 20
11772.5545752819
 30
0.0
 11
-9898.8465169618
 21
11775.4303416674
 31
0.0
  0
LINE
  5
471
100
AcDbEntity
  8
L1_
  6
CONTINUOUS
 62
         7
100
AcDbLine
 10
-9907.5461094836
 20
11774.8076016923
 30
0.0
 11
-9904.1046508655
 21
11779.7225139581
 31
0.0
  0
LINE
  5
472
100
AcDbEntity
  8
L1_
  6
CONTINUOUS
 62
         7
100
AcDbLine
 10
-9895.7705485269
 20
11784.2738969934
 30
0.0
 11
-9899.5800043038
 21
11781.0773840561
 31
0.0
  0
LINE
  5
473
100
AcDbEntity
  8
L1_
  6
CONTINUOUS
 62
         7
100
AcDbLine
 10
-9895.7705485269
 20
11779.0522678361
 30
0.0
 11
-9897.008853865
 21
11778.0132062836
 31
0.0
  0
LINE
  5
474
100
AcDbEntity
  8
L1_
  6
CONTINUOUS
 62
         4
100
AcDbLine
 10
-9907.5461094836
 20
11774.8076016923
 30
0.0
 11
-9911.6418697051
 21
11777.6754838741
 31
0.0
  0
LINE
  5
475
100
AcDbEntity
  8
L1_
  6
CONTINUOUS
 62
         7
100
AcDbLine
 10
-9901.7143991436
 20
11771.334581446
 30
0.0
 11
-9911.3550814869
 21
11778.0850598962
 31
0.0
  0
LINE
  5
476
100
AcDbEntity
  8
L1_
  6
CONTINUOUS
 62
         7
100
AcDbLine
 10
-9911.6418697051
 20
11777.6754838741
 30
0.0
 11
-9908.200411087
 21
11782.5903961398
 31
0.0
  0
LINE
  5
477
100
AcDbEntity
  8
L1_
  6
CENTER
 62
         1
100
AcDbLine
 10
-9899.5847296666
 20
11773.2005009433
 30
0.0
 11
-9912.7413149655
 21
11782.4128411468
 31
0.0
  0
LINE
  5
478
100
AcDbEntity
  8
L1_
  6
CONTINUOUS
 62
         7
100
AcDbLine
 10
-9908.1717322651
 20
11782.631353742
 30
0.0
 11
-9911.6705485269
 21
11785.0812512633
 31
0.0
  0
ARC
  5
479
100
AcDbEntity
  8
L1_
  6
CONTINUOUS
 62
         7
100
AcDbCircle
 10
-9905.2139241999
 20
11785.4828887676
 30
0.0
 40
0.5
100
AcDbArc
 50
210.0
 51
270.0
  0
LINE
  5
47A
100
AcDbEntity
  8
L1_
  6
CONTINUOUS
 62
         7
100
AcDbLine
 10
-9905.2139241999
 20
11784.9828887676
 30
0.0
 11
-9902.3271728539
 21
11784.9828887676
 31
0.0
  0
ARC
  5
47B
100
AcDbEntity
  8
L1_
  6
CONTINUOUS
 62
         7
100
AcDbCircle
 10
-9902.3271728539
 20
11785.4828887676
 30
0.0
 40
0.5
100
AcDbArc
 50
270.0
 51
330.0
  0
DIMENSION
  5
47E
100
AcDbEntity
  8
L1_
  6
CONTINUOUS
 62
         4
100
AcDbDimension
  2
*D20
 10
-9592.8151889697
 20
11916.7002890904
 30
0.0
 11
-9608.7829159615
 21
12036.9555799769
 31
0.0
 70
         2
  3
DIMSTYLE1
100
AcDb2LineAngularDimension
 13
-9571.7296366238
 23
11920.4182408721
 33
0.0
 14
-9611.0927000608
 24
12028.5673688257
 34
0.0
 15
-9592.8151889697
 25
12031.7901871713
 35
0.0
 16
-9612.8360654431
 26
12033.3572258477
 36
0.0
  0
POLYLINE
  5
48D
100
AcDbEntity
  8
L1_
  6
CONTINUOUS
 62
         7
100
AcDb2dPolyline
 66
         1
 10
0.0
 20
0.0
 30
0.0
 70
         2
  0
VERTEX
  5
48F
100
AcDbEntity
  8
L1_
  6
CONTINUOUS
 62
         7
100
AcDbVertex
100
AcDb2dVertex
 10
-9605.6752613252
 20
12013.5762854256
 30
0.0
 70
         1
  0
VERTEX
  5
491
100
AcDbEntity
  8
L1_
  6
CONTINUOUS
 62
         7
100
AcDbVertex
100
AcDb2dVertex
 10
-9605.3244027927
 20
12013.7493252195
 30
0.0
 70
         1
  0
VERTEX
  5
493
100
AcDbEntity
  8
L1_
  6
CONTINUOUS
 62
         7
100
AcDbVertex
100
AcDb2dVertex
 10
-9605.1791175471
 20
12013.8516509509
 30
0.0
 70
         1
  0
VERTEX
  5
495
100
AcDbEntity
  8
L1_
  6
CONTINUOUS
 62
         7
100
AcDbVertex
100
AcDb2dVertex
 10
-9605.0388631721
 20
12013.9717313388
 30
0.0
 70
         1
  0
VERTEX
  5
497
100
AcDbEntity
  8
L1_
  6
CONTINUOUS
 62
         7
100
AcDbVertex
100
AcDb2dVertex
 10
-9604.9052944469
 20
12014.1097042379
 30
0.0
 70
         1
  0
VERTEX
  5
499
100
AcDbEntity
  8
L1_
  6
CONTINUOUS
 62
         7
100
AcDbVertex
100
AcDb2dVertex
 10
-9604.7800734863
 20
12014.2653698188
 30
0.0
 70
         1
  0
VERTEX
  5
49B
100
AcDbEntity
  8
L1_
  6
CONTINUOUS
 62
         7
100
AcDbVertex
100
AcDb2dVertex
 10
-9604.6648157069
 20
12014.4381641429
 30
0.0
 70
         1
  0
VERTEX
  5
49D
100
AcDbEntity
  8
L1_
  6
CONTINUOUS
 62
         7
100
AcDbVertex
100
AcDb2dVertex
 10
-9604.5610322724
 20
12014.6271480427
 30
0.0
 70
         1
  0
VERTEX
  5
49F
100
AcDbEntity
  8
L1_
  6
CONTINUOUS
 62
         7
100
AcDbVertex
100
AcDb2dVertex
 10
-9604.4700726588
 20
12014.831013858
 30
0.0
 70
         1
  0
VERTEX
  5
4A1
100
AcDbEntity
  8
L1_
  6
CONTINUOUS
 62
         7
100
AcDbVertex
100
AcDb2dVertex
 10
-9604.393071398
 20
12015.0481112008
 30
0.0
 70
         1
  0
VERTEX
  5
4A3
100
AcDbEntity
  8
L1_
  6
CONTINUOUS
 62
         7
100
AcDbVertex
100
AcDb2dVertex
 10
-9604.3309030463
 20
12015.2764912395
 30
0.0
 70
         1
  0
VERTEX
  5
4A5
100
AcDbEntity
  8
L1_
  6
CONTINUOUS
 62
         7
100
AcDbVertex
100
AcDb2dVertex
 10
-9604.2841489096
 20
12015.5139672297
 30
0.0
 70
         1
  0
VERTEX
  5
4A7
100
AcDbEntity
  8
L1_
  6
CONTINUOUS
 62
         7
100
AcDbVertex
100
AcDb2dVertex
 10
-9604.2460764962
 20
12015.8424795353
 30
0.0
 70
         1
  0
VERTEX
  5
4A9
100
AcDbEntity
  8
L1_
  6
CONTINUOUS
 62
         7
100
AcDbVertex
100
AcDb2dVertex
 10
-9604.2359173667
 20
12016.1772366647
 30
0.0
 70
         1
  0
VERTEX
  5
4AB
100
AcDbEntity
  8
L1_
  6
CONTINUOUS
 62
         7
100
AcDbVertex
100
AcDb2dVertex
 10
-9604.2524853973
 20
12016.5124487919
 30
0.0
 70
         1
  0
VERTEX
  5
4AD
100
AcDbEntity
  8
L1_
  6
CONTINUOUS
 62
         7
100
AcDbVertex
100
AcDb2dVertex
 10
-9604.2937814459
 20
12016.8427198995
 30
0.0
 70
         1
  0
VERTEX
  5
4AF
100
AcDbEntity
  8
L1_
  6
CONTINUOUS
 62
         7
100
AcDbVertex
100
AcDb2dVertex
 10
-9604.3571825238
 20
12017.163300624
 30
0.0
 70
         1
  0
VERTEX
  5
4B1
100
AcDbEntity
  8
L1_
  6
CONTINUOUS
 62
         7
100
AcDbVertex
100
AcDb2dVertex
 10
-9604.4396551139
 20
12017.4702573255
 30
0.0
 70
         1
  0
VERTEX
  5
4B3
100
AcDbEntity
  8
L1_
  6
CONTINUOUS
 62
         7
100
AcDbVertex
100
AcDb2dVertex
 10
-9604.5747655819
 20
12017.8559207734
 30
0.0
 70
         1
  0
VERTEX
  5
4B5
100
AcDbEntity
  8
L1_
  6
CONTINUOUS
 62
         7
100
AcDbVertex
100
AcDb2dVertex
 10
-9604.7306559446
 20
12018.2068014817
 30
0.0
 70
         1
  0
VERTEX
  5
4B7
100
AcDbEntity
  8
L1_
  6
CONTINUOUS
 62
         7
100
AcDbVertex
100
AcDb2dVertex
 10
-9604.9001074858
 20
12018.5206758156
 30
0.0
 70
         1
  0
VERTEX
  5
4B9
100
AcDbEntity
  8
L1_
  6
CONTINUOUS
 62
         7
100
AcDbVertex
100
AcDb2dVertex
 10
-9605.0768638021
 20
12018.7974355648
 30
0.0
 70
         1
  0
VERTEX
  5
4BB
100
AcDbEntity
  8
L1_
  6
CONTINUOUS
 62
         7
100
AcDbVertex
100
AcDb2dVertex
 10
-9605.2558019937
 20
12019.0385241109
 30
0.0
 70
         1
  0
VERTEX
  5
4BD
100
AcDbEntity
  8
L1_
  6
CONTINUOUS
 62
         7
100
AcDbVertex
100
AcDb2dVertex
 10
-9605.4329400727
 20
12019.2464042838
 30
0.0
 70
         1
  0
VERTEX
  5
4BF
100
AcDbEntity
  8
L1_
  6
CONTINUOUS
 62
         7
100
AcDbVertex
100
AcDb2dVertex
 10
-9605.6635986315
 20
12019.4792672589
 30
0.0
 70
         1
  0
VERTEX
  5
4C1
100
AcDbEntity
  8
L1_
  6
CONTINUOUS
 62
         7
100
AcDbVertex
100
AcDb2dVertex
 10
-9605.8810776516
 20
12019.6654074103
 30
0.0
 70
         1
  0
VERTEX
  5
4C3
100
AcDbEntity
  8
L1_
  6
CONTINUOUS
 62
         7
100
AcDbVertex
100
AcDb2dVertex
 10
-9606.0828891418
 20
12019.8126006915
 30
0.0
 70
         1
  0
VERTEX
  5
4C5
100
AcDbEntity
  8
L1_
  6
CONTINUOUS
 62
         7
100
AcDbVertex
100
AcDb2dVertex
 10
-9606.3292313883
 20
12019.9620134829
 30
0.0
 70
         1
  0
VERTEX
  5
4C7
100
AcDbEntity
  8
L1_
  6
CONTINUOUS
 62
         7
100
AcDbVertex
100
AcDb2dVertex
 10
-9606.5457802197
 20
12020.067695912
 30
0.0
 70
         1
  0
VERTEX
  5
4C9
100
AcDbEntity
  8
L1_
  6
CONTINUOUS
 62
         7
100
AcDbVertex
100
AcDb2dVertex
 10
-9606.7347015857
 20
12020.1411269148
 30
0.0
 70
         1
  0
VERTEX
  5
4CB
100
AcDbEntity
  8
L1_
  6
CONTINUOUS
 62
         7
100
AcDbVertex
100
AcDb2dVertex
 10
-9606.9522574404
 20
12020.2044734349
 30
0.0
 70
         1
  0
VERTEX
  5
4CD
100
AcDbEntity
  8
L1_
  6
CONTINUOUS
 62
         7
100
AcDbVertex
100
AcDb2dVertex
 10
-9607.1894869656
 20
12020.2477068801
 30
0.0
 70
         1
  0
VERTEX
  5
4CF
100
AcDbEntity
  8
L1_
  6
CONTINUOUS
 62
         7
100
AcDbVertex
100
AcDb2dVertex
 10
-9607.3722520105
 20
12020.262301599
 30
0.0
 70
         1
  0
VERTEX
  5
4D1
100
AcDbEntity
  8
L1_
  6
CONTINUOUS
 62
         7
100
AcDbVertex
100
AcDb2dVertex
 10
-9607.5594340119
 20
12020.2597552425
 30
0.0
 70
         1
  0
VERTEX
  5
4D3
100
AcDbEntity
  8
L1_
  6
CONTINUOUS
 62
         7
100
AcDbVertex
100
AcDb2dVertex
 10
-9607.7356565367
 20
12020.2403621511
 30
0.0
 70
         1
  0
VERTEX
  5
4D5
100
AcDbEntity
  8
L1_
  6
CONTINUOUS
 62
         7
100
AcDbVertex
100
AcDb2dVertex
 10
-9607.9310630912
 20
12020.1982089015
 30
0.0
 70
         1
  0
VERTEX
  5
4D7
100
AcDbEntity
  8
L1_
  6
CONTINUOUS
 62
         7
100
AcDbVertex
100
AcDb2dVertex
 10
-9608.0694023285
 20
12020.1541337711
 30
0.0
 70
         1
  0
VERTEX
  5
4D9
100
AcDbEntity
  8
L1_
  6
CONTINUOUS
 62
         7
100
AcDbVertex
100
AcDb2dVertex
 10
-9608.0694023285
 20
12020.1541337711
 30
0.0
 70
         1
  0
VERTEX
  5
4DB
100
AcDbEntity
  8
L1_
  6
CONTINUOUS
 62
         7
100
AcDbVertex
100
AcDb2dVertex
 10
-9608.4202608611
 20
12019.9810939773
 30
0.0
 70
         1
  0
VERTEX
  5
4DD
100
AcDbEntity
  8
L1_
  6
CONTINUOUS
 62
         7
100
AcDbVertex
100
AcDb2dVertex
 10
-9608.5655461067
 20
12019.8787682459
 30
0.0
 70
         1
  0
VERTEX
  5
4DF
100
AcDbEntity
  8
L1_
  6
CONTINUOUS
 62
         7
100
AcDbVertex
100
AcDb2dVertex
 10
-9608.7058004817
 20
12019.758687858
 30
0.0
 70
         1
  0
VERTEX
  5
4E1
100
AcDbEntity
  8
L1_
  6
CONTINUOUS
 62
         7
100
AcDbVertex
100
AcDb2dVertex
 10
-9608.8393692068
 20
12019.6207149589
 30
0.0
 70
         1
  0
VERTEX
  5
4E3
100
AcDbEntity
  8
L1_
  6
CONTINUOUS
 62
         7
100
AcDbVertex
100
AcDb2dVertex
 10
-9608.9645901674
 20
12019.465049378
 30
0.0
 70
         1
  0
VERTEX
  5
4E5
100
AcDbEntity
  8
L1_
  6
CONTINUOUS
 62
         7
100
AcDbVertex
100
AcDb2dVertex
 10
-9609.0798479469
 20
12019.2922550539
 30
0.0
 70
         1
  0
VERTEX
  5
4E7
100
AcDbEntity
  8
L1_
  6
CONTINUOUS
 62
         7
100
AcDbVertex
100
AcDb2dVertex
 10
-9609.1836313813
 20
12019.1032711541
 30
0.0
 70
         1
  0
VERTEX
  5
4E9
100
AcDbEntity
  8
L1_
  6
CONTINUOUS
 62
         7
100
AcDbVertex
100
AcDb2dVertex
 10
-9609.274590995
 20
12018.8994053387
 30
0.0
 70
         1
  0
VERTEX
  5
4EB
100
AcDbEntity
  8
L1_
  6
CONTINUOUS
 62
         7
100
AcDbVertex
100
AcDb2dVertex
 10
-9609.3515922558
 20
12018.682307996
 30
0.0
 70
         1
  0
VERTEX
  5
4ED
100
AcDbEntity
  8
L1_
  6
CONTINUOUS
 62
         7
100
AcDbVertex
100
AcDb2dVertex
 10
-9609.4137606075
 20
12018.4539279573
 30
0.0
 70
         1
  0
VERTEX
  5
4EF
100
AcDbEntity
  8
L1_
  6
CONTINUOUS
 62
         7
100
AcDbVertex
100
AcDb2dVertex
 10
-9609.4605147442
 20
12018.216451967
 30
0.0
 70
         1
  0
VERTEX
  5
4F1
100
AcDbEntity
  8
L1_
  6
CONTINUOUS
 62
         7
100
AcDbVertex
100
AcDb2dVertex
 10
-9609.4985871576
 20
12017.8879396614
 30
0.0
 70
         1
  0
VERTEX
  5
4F3
100
AcDbEntity
  8
L1_
  6
CONTINUOUS
 62
         7
100
AcDbVertex
100
AcDb2dVertex
 10
-9609.5087462871
 20
12017.5531825321
 30
0.0
 70
         1
  0
VERTEX
  5
4F5
100
AcDbEntity
  8
L1_
  6
CONTINUOUS
 62
         7
100
AcDbVertex
100
AcDb2dVertex
 10
-9609.4921782565
 20
12017.2179704049
 30
0.0
 70
         1
  0
VERTEX
  5
4F7
100
AcDbEntity
  8
L1_
  6
CONTINUOUS
 62
         7
100
AcDbVertex
100
AcDb2dVertex
 10
-9609.4508822079
 20
12016.8876992973
 30
0.0
 70
         1
  0
VERTEX
  5
4F9
100
AcDbEntity
  8
L1_
  6
CONTINUOUS
 62
         7
100
AcDbVertex
100
AcDb2dVertex
 10
-9609.38748113
 20
12016.5671185728
 30
0.0
 70
         1
  0
VERTEX
  5
4FB
100
AcDbEntity
  8
L1_
  6
CONTINUOUS
 62
         7
100
AcDbVertex
100
AcDb2dVertex
 10
-9609.3050085398
 20
12016.2601618713
 30
0.0
 70
         1
  0
VERTEX
  5
4FD
100
AcDbEntity
  8
L1_
  6
CONTINUOUS
 62
         7
100
AcDbVertex
100
AcDb2dVertex
 10
-9609.1698980719
 20
12015.8744984233
 30
0.0
 70
         1
  0
VERTEX
  5
4FF
100
AcDbEntity
  8
L1_
  6
CONTINUOUS
 62
         7
100
AcDbVertex
100
AcDb2dVertex
 10
-9609.0140077091
 20
12015.5236177151
 30
0.0
 70
         1
  0
VERTEX
  5
501
100
AcDbEntity
  8
L1_
  6
CONTINUOUS
 62
         7
100
AcDbVertex
100
AcDb2dVertex
 10
-9608.8445561679
 20
12015.2097433812
 30
0.0
 70
         1
  0
VERTEX
  5
503
100
AcDbEntity
  8
L1_
  6
CONTINUOUS
 62
         7
100
AcDbVertex
100
AcDb2dVertex
 10
-9608.6677998517
 20
12014.932983632
 30
0.0
 70
         1
  0
VERTEX
  5
505
100
AcDbEntity
  8
L1_
  6
CONTINUOUS
 62
         7
100
AcDbVertex
100
AcDb2dVertex
 10
-9608.4888616601
 20
12014.6918950859
 30
0.0
 70
         1
  0
VERTEX
  5
507
100
AcDbEntity
  8
L1_
  6
CONTINUOUS
 62
         7
100
AcDbVertex
100
AcDb2dVertex
 10
-9608.311723581
 20
12014.484014913
 30
0.0
 70
         1
  0
VERTEX
  5
509
100
AcDbEntity
  8
L1_
  6
CONTINUOUS
 62
         7
100
AcDbVertex
100
AcDb2dVertex
 10
-9608.0810650222
 20
12014.2511519379
 30
0.0
 70
         1
  0
VERTEX
  5
50B
100
AcDbEntity
  8
L1_
  6
CONTINUOUS
 62
         7
100
AcDbVertex
100
AcDb2dVertex
 10
-9607.8635860021
 20
12014.0650117865
 30
0.0
 70
         1
  0
VERTEX
  5
50D
100
AcDbEntity
  8
L1_
  6
CONTINUOUS
 62
         7
100
AcDbVertex
100
AcDb2dVertex
 10
-9607.6617745119
 20
12013.9178185053
 30
0.0
 70
         1
  0
VERTEX
  5
50F
100
AcDbEntity
  8
L1_
  6
CONTINUOUS
 62
         7
100
AcDbVertex
100
AcDb2dVertex
 10
-9607.4154322655
 20
12013.7684057139
 30
0.0
 70
         1
  0
VERTEX
  5
511
100
AcDbEntity
  8
L1_
  6
CONTINUOUS
 62
         7
100
AcDbVertex
100
AcDb2dVertex
 10
-9607.1988834341
 20
12013.6627232848
 30
0.0
 70
         1
  0
VERTEX
  5
513
100
AcDbEntity
  8
L1_
  6
CONTINUOUS
 62
         7
100
AcDbVertex
100
AcDb2dVertex
 10
-9607.0099620681
 20
12013.5892922819
 30
0.0
 70
         1
  0
VERTEX
  5
515
100
AcDbEntity
  8
L1_
  6
CONTINUOUS
 62
         7
100
AcDbVertex
100
AcDb2dVertex
 10
-9606.7924062133
 20
12013.5259457619
 30
0.0
 70
         1
  0
VERTEX
  5
517
100
AcDbEntity
  8
L1_
  6
CONTINUOUS
 62
         7
100
AcDbVertex
100
AcDb2dVertex
 10
-9606.5551766882
 20
12013.4827123167
 30
0.0
 70
         1
  0
VERTEX
  5
519
100
AcDbEntity
  8
L1_
  6
CONTINUOUS
 62
         7
100
AcDbVertex
100
AcDb2dVertex
 10
-9606.3724116433
 20
12013.4681175978
 30
0.0
 70
         1
  0
VERTEX
  5
51B
100
AcDbEntity
  8
L1_
  6
CONTINUOUS
 62
         7
100
AcDbVertex
100
AcDb2dVertex
 10
-9606.1852296419
 20
12013.4706639543
 30
0.0
 70
         1
  0
VERTEX
  5
51D
100
AcDbEntity
  8
L1_
  6
CONTINUOUS
 62
         7
100
AcDbVertex
100
AcDb2dVertex
 10
-9606.0090071171
 20
12013.4900570457
 30
0.0
 70
         1
  0
VERTEX
  5
51F
100
AcDbEntity
  8
L1_
  6
CONTINUOUS
 62
         7
100
AcDbVertex
100
AcDb2dVertex
 10
-9605.8136005625
 20
12013.5322102953
 30
0.0
 70
         1
  0
VERTEX
  5
521
100
AcDbEntity
  8
L1_
  6
CONTINUOUS
 62
         7
100
AcDbVertex
100
AcDb2dVertex
 10
-9605.6752613252
 20
12013.5762854256
 30
0.0
 70
         1
  0
SEQEND
  5
523
100
AcDbEntity
  8
L1_
  6
CONTINUOUS
 62
         7
  0
POLYLINE
  5
525
100
AcDbEntity
  8
L1_
  6
CONTINUOUS
 62
         7
100
AcDb2dPolyline
 66
         1
 10
0.0
 20
0.0
 30
0.0
 70
         2
  0
VERTEX
  5
527
100
AcDbEntity
  8
L1_
  6
CONTINUOUS
 62
         7
100
AcDbVertex
100
AcDb2dVertex
 10
-9577.560975611
 20
11936.5465058675
 30
0.0
 70
         1
  0
VERTEX
  5
529
100
AcDbEntity
  8
L1_
  6
CONTINUOUS
 62
         7
100
AcDbVertex
100
AcDb2dVertex
 10
-9577.2101170784
 20
11936.7195456614
 30
0.0
 70
         1
  0
VERTEX
  5
52B
100
AcDbEntity
  8
L1_
  6
CONTINUOUS
 62
         7
100
AcDbVertex
100
AcDb2dVertex
 10
-9577.0648318328
 20
11936.8218713928
 30
0.0
 70
         1
  0
VERTEX
  5
52D
100
AcDbEntity
  8
L1_
  6
CONTINUOUS
 62
         7
100
AcDbVertex
100
AcDb2dVertex
 10
-9576.9245774578
 20
11936.9419517807
 30
0.0
 70
         1
  0
VERTEX
  5
52F
100
AcDbEntity
  8
L1_
  6
CONTINUOUS
 62
         7
100
AcDbVertex
100
AcDb2dVertex
 10
-9576.7910087326
 20
11937.0799246797
 30
0.0
 70
         1
  0
VERTEX
  5
531
100
AcDbEntity
  8
L1_
  6
CONTINUOUS
 62
         7
100
AcDbVertex
100
AcDb2dVertex
 10
-9576.6657877721
 20
11937.2355902607
 30
0.0
 70
         1
  0
VERTEX
  5
533
100
AcDbEntity
  8
L1_
  6
CONTINUOUS
 62
         7
100
AcDbVertex
100
AcDb2dVertex
 10
-9576.5505299926
 20
11937.4083845848
 30
0.0
 70
         1
  0
VERTEX
  5
535
100
AcDbEntity
  8
L1_
  6
CONTINUOUS
 62
         7
100
AcDbVertex
100
AcDb2dVertex
 10
-9576.4467465582
 20
11937.5973684846
 30
0.0
 70
         1
  0
VERTEX
  5
537
100
AcDbEntity
  8
L1_
  6
CONTINUOUS
 62
         7
100
AcDbVertex
100
AcDb2dVertex
 10
-9576.3557869445
 20
11937.8012342999
 30
0.0
 70
         1
  0
VERTEX
  5
539
100
AcDbEntity
  8
L1_
  6
CONTINUOUS
 62
         7
100
AcDbVertex
100
AcDb2dVertex
 10
-9576.2787856837
 20
11938.0183316426
 30
0.0
 70
         1
  0
VERTEX
  5
53B
100
AcDbEntity
  8
L1_
  6
CONTINUOUS
 62
         7
100
AcDbVertex
100
AcDb2dVertex
 10
-9576.216617332
 20
11938.2467116814
 30
0.0
 70
         1
  0
VERTEX
  5
53D
100
AcDbEntity
  8
L1_
  6
CONTINUOUS
 62
         7
100
AcDbVertex
100
AcDb2dVertex
 10
-9576.1698631953
 20
11938.4841876716
 30
0.0
 70
         1
  0
VERTEX
  5
53F
100
AcDbEntity
  8
L1_
  6
CONTINUOUS
 62
         7
100
AcDbVertex
100
AcDb2dVertex
 10
-9576.1317907819
 20
11938.8126999772
 30
0.0
 70
         1
  0
VERTEX
  5
541
100
AcDbEntity
  8
L1_
  6
CONTINUOUS
 62
         7
100
AcDbVertex
100
AcDb2dVertex
 10
-9576.1216316524
 20
11939.1474571065
 30
0.0
 70
         1
  0
VERTEX
  5
543
100
AcDbEntity
  8
L1_
  6
CONTINUOUS
 62
         7
100
AcDbVertex
100
AcDb2dVertex
 10
-9576.138199683
 20
11939.4826692338
 30
0.0
 70
         1
  0
VERTEX
  5
545
100
AcDbEntity
  8
L1_
  6
CONTINUOUS
 62
         7
100
AcDbVertex
100
AcDb2dVertex
 10
-9576.1794957316
 20
11939.8129403414
 30
0.0
 70
         1
  0
VERTEX
  5
547
100
AcDbEntity
  8
L1_
  6
CONTINUOUS
 62
         7
100
AcDbVertex
100
AcDb2dVertex
 10
-9576.2428968095
 20
11940.1335210659
 30
0.0
 70
         1
  0
VERTEX
  5
549
100
AcDbEntity
  8
L1_
  6
CONTINUOUS
 62
         7
100
AcDbVertex
100
AcDb2dVertex
 10
-9576.3253693996
 20
11940.4404777674
 30
0.0
 70
         1
  0
VERTEX
  5
54B
100
AcDbEntity
  8
L1_
  6
CONTINUOUS
 62
         7
100
AcDbVertex
100
AcDb2dVertex
 10
-9576.4604798676
 20
11940.8261412153
 30
0.0
 70
         1
  0
VERTEX
  5
54D
100
AcDbEntity
  8
L1_
  6
CONTINUOUS
 62
         7
100
AcDbVertex
100
AcDb2dVertex
 10
-9576.6163702304
 20
11941.1770219236
 30
0.0
 70
         1
  0
VERTEX
  5
54F
100
AcDbEntity
  8
L1_
  6
CONTINUOUS
 62
         7
100
AcDbVertex
100
AcDb2dVertex
 10
-9576.7858217716
 20
11941.4908962574
 30
0.0
 70
         1
  0
VERTEX
  5
551
100
AcDbEntity
  8
L1_
  6
CONTINUOUS
 62
         7
100
AcDbVertex
100
AcDb2dVertex
 10
-9576.9625780878
 20
11941.7676560067
 30
0.0
 70
         1
  0
VERTEX
  5
553
100
AcDbEntity
  8
L1_
  6
CONTINUOUS
 62
         7
100
AcDbVertex
100
AcDb2dVertex
 10
-9577.1415162794
 20
11942.0087445527
 30
0.0
 70
         1
  0
VERTEX
  5
555
100
AcDbEntity
  8
L1_
  6
CONTINUOUS
 62
         7
100
AcDbVertex
100
AcDb2dVertex
 10
-9577.3186543584
 20
11942.2166247257
 30
0.0
 70
         1
  0
VERTEX
  5
557
100
AcDbEntity
  8
L1_
  6
CONTINUOUS
 62
         7
100
AcDbVertex
100
AcDb2dVertex
 10
-9577.5493129173
 20
11942.4494877007
 30
0.0
 70
         1
  0
VERTEX
  5
559
100
AcDbEntity
  8
L1_
  6
CONTINUOUS
 62
         7
100
AcDbVertex
100
AcDb2dVertex
 10
-9577.7667919374
 20
11942.6356278521
 30
0.0
 70
         1
  0
VERTEX
  5
55B
100
AcDbEntity
  8
L1_
  6
CONTINUOUS
 62
         7
100
AcDbVertex
100
AcDb2dVertex
 10
-9577.9686034275
 20
11942.7828211334
 30
0.0
 70
         1
  0
VERTEX
  5
55D
100
AcDbEntity
  8
L1_
  6
CONTINUOUS
 62
         7
100
AcDbVertex
100
AcDb2dVertex
 10
-9578.214945674
 20
11942.9322339247
 30
0.0
 70
         1
  0
VERTEX
  5
55F
100
AcDbEntity
  8
L1_
  6
CONTINUOUS
 62
         7
100
AcDbVertex
100
AcDb2dVertex
 10
-9578.4314945054
 20
11943.0379163539
 30
0.0
 70
         1
  0
VERTEX
  5
561
100
AcDbEntity
  8
L1_
  6
CONTINUOUS
 62
         7
100
AcDbVertex
100
AcDb2dVertex
 10
-9578.6204158714
 20
11943.1113473567
 30
0.0
 70
         1
  0
VERTEX
  5
563
100
AcDbEntity
  8
L1_
  6
CONTINUOUS
 62
         7
100
AcDbVertex
100
AcDb2dVertex
 10
-9578.8379717261
 20
11943.1746938768
 30
0.0
 70
         1
  0
VERTEX
  5
565
100
AcDbEntity
  8
L1_
  6
CONTINUOUS
 62
         7
100
AcDbVertex
100
AcDb2dVertex
 10
-9579.0752012513
 20
11943.2179273219
 30
0.0
 70
         1
  0
VERTEX
  5
567
100
AcDbEntity
  8
L1_
  6
CONTINUOUS
 62
         7
100
AcDbVertex
100
AcDb2dVertex
 10
-9579.2579662962
 20
11943.2325220409
 30
0.0
 70
         1
  0
VERTEX
  5
569
100
AcDbEntity
  8
L1_
  6
CONTINUOUS
 62
         7
100
AcDbVertex
100
AcDb2dVertex
 10
-9579.4451482976
 20
11943.2299756844
 30
0.0
 70
         1
  0
VERTEX
  5
56B
100
AcDbEntity
  8
L1_
  6
CONTINUOUS
 62
         7
100
AcDbVertex
100
AcDb2dVertex
 10
-9579.6213708224
 20
11943.210582593
 30
0.0
 70
         1
  0
VERTEX
  5
56D
100
AcDbEntity
  8
L1_
  6
CONTINUOUS
 62
         7
100
AcDbVertex
100
AcDb2dVertex
 10
-9579.8167773769
 20
11943.1684293434
 30
0.0
 70
         1
  0
VERTEX
  5
56F
100
AcDbEntity
  8
L1_
  6
CONTINUOUS
 62
         7
100
AcDbVertex
100
AcDb2dVertex
 10
-9579.9551166142
 20
11943.124354213
 30
0.0
 70
         1
  0
VERTEX
  5
571
100
AcDbEntity
  8
L1_
  6
CONTINUOUS
 62
         7
100
AcDbVertex
100
AcDb2dVertex
 10
-9579.9551166142
 20
11943.124354213
 30
0.0
 70
         1
  0
VERTEX
  5
573
100
AcDbEntity
  8
L1_
  6
CONTINUOUS
 62
         7
100
AcDbVertex
100
AcDb2dVertex
 10
-9580.3059751468
 20
11942.9513144191
 30
0.0
 70
         1
  0
VERTEX
  5
575
100
AcDbEntity
  8
L1_
  6
CONTINUOUS
 62
         7
100
AcDbVertex
100
AcDb2dVertex
 10
-9580.4512603924
 20
11942.8489886878
 30
0.0
 70
         1
  0
VERTEX
  5
577
100
AcDbEntity
  8
L1_
  6
CONTINUOUS
 62
         7
100
AcDbVertex
100
AcDb2dVertex
 10
-9580.5915147674
 20
11942.7289082998
 30
0.0
 70
         1
  0
VERTEX
  5
579
100
AcDbEntity
  8
L1_
  6
CONTINUOUS
 62
         7
100
AcDbVertex
100
AcDb2dVertex
 10
-9580.7250834925
 20
11942.5909354008
 30
0.0
 70
         1
  0
VERTEX
  5
57B
100
AcDbEntity
  8
L1_
  6
CONTINUOUS
 62
         7
100
AcDbVertex
100
AcDb2dVertex
 10
-9580.8503044531
 20
11942.4352698198
 30
0.0
 70
         1
  0
VERTEX
  5
57D
100
AcDbEntity
  8
L1_
  6
CONTINUOUS
 62
         7
100
AcDbVertex
100
AcDb2dVertex
 10
-9580.9655622326
 20
11942.2624754957
 30
0.0
 70
         1
  0
VERTEX
  5
57F
100
AcDbEntity
  8
L1_
  6
CONTINUOUS
 62
         7
100
AcDbVertex
100
AcDb2dVertex
 10
-9581.069345667
 20
11942.073491596
 30
0.0
 70
         1
  0
VERTEX
  5
581
100
AcDbEntity
  8
L1_
  6
CONTINUOUS
 62
         7
100
AcDbVertex
100
AcDb2dVertex
 10
-9581.1603052807
 20
11941.8696257806
 30
0.0
 70
         1
  0
VERTEX
  5
583
100
AcDbEntity
  8
L1_
  6
CONTINUOUS
 62
         7
100
AcDbVertex
100
AcDb2dVertex
 10
-9581.2373065415
 20
11941.6525284379
 30
0.0
 70
         1
  0
VERTEX
  5
585
100
AcDbEntity
  8
L1_
  6
CONTINUOUS
 62
         7
100
AcDbVertex
100
AcDb2dVertex
 10
-9581.2994748932
 20
11941.4241483991
 30
0.0
 70
         1
  0
VERTEX
  5
587
100
AcDbEntity
  8
L1_
  6
CONTINUOUS
 62
         7
100
AcDbVertex
100
AcDb2dVertex
 10
-9581.3462290299
 20
11941.1866724089
 30
0.0
 70
         1
  0
VERTEX
  5
589
100
AcDbEntity
  8
L1_
  6
CONTINUOUS
 62
         7
100
AcDbVertex
100
AcDb2dVertex
 10
-9581.3843014433
 20
11940.8581601033
 30
0.0
 70
         1
  0
VERTEX
  5
58B
100
AcDbEntity
  8
L1_
  6
CONTINUOUS
 62
         7
100
AcDbVertex
100
AcDb2dVertex
 10
-9581.3944605728
 20
11940.523402974
 30
0.0
 70
         1
  0
VERTEX
  5
58D
100
AcDbEntity
  8
L1_
  6
CONTINUOUS
 62
         7
100
AcDbVertex
100
AcDb2dVertex
 10
-9581.3778925422
 20
11940.1881908468
 30
0.0
 70
         1
  0
VERTEX
  5
58F
100
AcDbEntity
  8
L1_
  6
CONTINUOUS
 62
         7
100
AcDbVertex
100
AcDb2dVertex
 10
-9581.3365964936
 20
11939.8579197392
 30
0.0
 70
         1
  0
VERTEX
  5
591
100
AcDbEntity
  8
L1_
  6
CONTINUOUS
 62
         7
100
AcDbVertex
100
AcDb2dVertex
 10
-9581.2731954157
 20
11939.5373390147
 30
0.0
 70
         1
  0
VERTEX
  5
593
100
AcDbEntity
  8
L1_
  6
CONTINUOUS
 62
         7
100
AcDbVertex
100
AcDb2dVertex
 10
-9581.1907228256
 20
11939.2303823131
 30
0.0
 70
         1
  0
VERTEX
  5
595
100
AcDbEntity
  8
L1_
  6
CONTINUOUS
 62
         7
100
AcDbVertex
100
AcDb2dVertex
 10
-9581.0556123576
 20
11938.8447188652
 30
0.0
 70
         1
  0
VERTEX
  5
597
100
AcDbEntity
  8
L1_
  6
CONTINUOUS
 62
         7
100
AcDbVertex
100
AcDb2dVertex
 10
-9580.8997219948
 20
11938.493838157
 30
0.0
 70
         1
  0
VERTEX
  5
599
100
AcDbEntity
  8
L1_
  6
CONTINUOUS
 62
         7
100
AcDbVertex
100
AcDb2dVertex
 10
-9580.7302704537
 20
11938.1799638231
 30
0.0
 70
         1
  0
VERTEX
  5
59B
100
AcDbEntity
  8
L1_
  6
CONTINUOUS
 62
         7
100
AcDbVertex
100
AcDb2dVertex
 10
-9580.5535141374
 20
11937.9032040738
 30
0.0
 70
         1
  0
VERTEX
  5
59D
100
AcDbEntity
  8
L1_
  6
CONTINUOUS
 62
         7
100
AcDbVertex
100
AcDb2dVertex
 10
-9580.3745759458
 20
11937.6621155278
 30
0.0
 70
         1
  0
VERTEX
  5
59F
100
AcDbEntity
  8
L1_
  6
CONTINUOUS
 62
         7
100
AcDbVertex
100
AcDb2dVertex
 10
-9580.1974378668
 20
11937.4542353549
 30
0.0
 70
         1
  0
VERTEX
  5
5A1
100
AcDbEntity
  8
L1_
  6
CONTINUOUS
 62
         7
100
AcDbVertex
100
AcDb2dVertex
 10
-9579.9667793079
 20
11937.2213723798
 30
0.0
 70
         1
  0
VERTEX
  5
5A3
100
AcDbEntity
  8
L1_
  6
CONTINUOUS
 62
         7
100
AcDbVertex
100
AcDb2dVertex
 10
-9579.7493002878
 20
11937.0352322284
 30
0.0
 70
         1
  0
VERTEX
  5
5A5
100
AcDbEntity
  8
L1_
  6
CONTINUOUS
 62
         7
100
AcDbVertex
100
AcDb2dVertex
 10
-9579.5474887977
 20
11936.8880389471
 30
0.0
 70
         1
  0
VERTEX
  5
5A7
100
AcDbEntity
  8
L1_
  6
CONTINUOUS
 62
         7
100
AcDbVertex
100
AcDb2dVertex
 10
-9579.3011465512
 20
11936.7386261558
 30
0.0
 70
         1
  0
VERTEX
  5
5A9
100
AcDbEntity
  8
L1_
  6
CONTINUOUS
 62
         7
100
AcDbVertex
100
AcDb2dVertex
 10
-9579.0845977198
 20
11936.6329437267
 30
0.0
 70
         1
  0
VERTEX
  5
5AB
100
AcDbEntity
  8
L1_
  6
CONTINUOUS
 62
         7
100
AcDbVertex
100
AcDb2dVertex
 10
-9578.8956763538
 20
11936.5595127238
 30
0.0
 70
         1
  0
VERTEX
  5
5AD
100
AcDbEntity
  8
L1_
  6
CONTINUOUS
 62
         7
100
AcDbVertex
100
AcDb2dVertex
 10
-9578.6781204991
 20
11936.4961662037
 30
0.0
 70
         1
  0
VERTEX
  5
5AF
100
AcDbEntity
  8
L1_
  6
CONTINUOUS
 62
         7
100
AcDbVertex
100
AcDb2dVertex
 10
-9578.4408909739
 20
11936.4529327586
 30
0.0
 70
         1
  0
VERTEX
  5
5B1
100
AcDbEntity
  8
L1_
  6
CONTINUOUS
 62
         7
100
AcDbVertex
100
AcDb2dVertex
 10
-9578.258125929
 20
11936.4383380396
 30
0.0
 70
         1
  0
VERTEX
  5
5B3
100
AcDbEntity
  8
L1_
  6
CONTINUOUS
 62
         7
100
AcDbVertex
100
AcDb2dVertex
 10
-9578.0709439276
 20
11936.4408843961
 30
0.0
 70
         1
  0
VERTEX
  5
5B5
100
AcDbEntity
  8
L1_
  6
CONTINUOUS
 62
         7
100
AcDbVertex
100
AcDb2dVertex
 10
-9577.8947214028
 20
11936.4602774875
 30
0.0
 70
         1
  0
VERTEX
  5
5B7
100
AcDbEntity
  8
L1_
  6
CONTINUOUS
 62
         7
100
AcDbVertex
100
AcDb2dVertex
 10
-9577.6993148483
 20
11936.5024307371
 30
0.0
 70
         1
  0
VERTEX
  5
5B9
100
AcDbEntity
  8
L1_
  6
CONTINUOUS
 62
         7
100
AcDbVertex
100
AcDb2dVertex
 10
-9577.560975611
 20
11936.5465058675
 30
0.0
 70
         1
  0
SEQEND
  5
5BB
100
AcDbEntity
  8
L1_
  6
CONTINUOUS
 62
         7
  0
LINE
  5
5BC
100
AcDbEntity
  8
L1_
  6
CENTER
 62
         1
100
AcDbLine
 10
-9583.4565092165
 20
11938.1253293236
 30
0.0
 11
-9574.0595830087
 21
11941.5455307569
 31
0.0
  0
INSERT
  5
630
100
AcDbEntity
  8
0
  6
CONTINUOUS
100
AcDbBlockReference
  2
*X21
 10
0.0
 20
0.0
 30
0.0
  0
LINE
  5
631
100
AcDbEntity
  8
L1_
  6
CONTINUOUS
 62
         7
100
AcDbLine
 10
-9835.2705485269
 20
11998.3503198193
 30
0.0
 11
-9877.8185485269
 21
11998.3503198193
 31
0.0
  0
DIMENSION
  5
634
100
AcDbEntity
  8
L1_
  6
CONTINUOUS
 62
         4
100
AcDbDimension
  2
*D22
 10
-9914.8705485269
 20
12082.1964454263
 30
0.0
 11
-9869.9076161269
 21
12084.1214454263
 31
0.0
  3
DIMSTYLE1
100
AcDbAlignedDimension
 13
-9914.8705485269
 23
12018.0753198193
 33
0.0
 14
-9809.9705485269
 24
11993.6003198193
 34
0.0
100
AcDbRotatedDimension
  0
TEXT
  5
641
100
AcDbEntity
  8
L1_
  6
CONTINUOUS
 62
         2
100
AcDbText
 10
-9608.2434111871
 20
12052.5361564981
 30
0.0
 40
4.5
  1
531782
 41
0.98
  7
BOX
100
AcDbText
  0
ENDSEC
  0
SECTION
  2
OBJECTS
  0
DICTIONARY
  5
19
100
AcDbDictionary
  3
ACAD_GROUP
350
1A
  3
ACAD_MLINESTYLE
350
1B
  0
DICTIONARY
  5
1A
102
{ACAD_REACTORS
330
19
102
}
100
AcDbDictionary
  0
DICTIONARY
  5
1B
102
{ACAD_REACTORS
330
19
102
}
100
AcDbDictionary
  3
STANDARD
350
1C
  0
MLINESTYLE
  5
1C
102
{ACAD_REACTORS
330
1B
102
}
100
AcDbMlineStyle
  2
STANDARD
 70
         0
  3

 62
         0
 51
90.0
 52
90.0
 71
         2
 49
0.5
 62
       256
  6
BYLAYER
 49
-0.5
 62
       256
  6
BYLAYER
  0
ENDSEC
  0
EOF
