  0
SECTION
  2
HEADER
  9
$ACADVER
  1
AC1014
  9
$ACADMAINTVER
 70
         0
  9
$DWGCODEPAGE
  3
BIG5
  9
$INSBASE
 10
0.0
 20
0.0
 30
0.0
  9
$EXTMIN
 10
-10345.7685635462
 20
11659.0550008262
 30
0.0
  9
$EXTMAX
 10
-9437.7637358884
 20
12116.842871135
 30
0.0
  9
$LIMMIN
 10
0.0
 20
0.0
  9
$LIMMAX
 10
0.0
 20
0.0
  9
$ORTHOMODE
 70
         0
  9
$REGENMODE
 70
         1
  9
$FILLMODE
 70
         1
  9
$QTEXTMODE
 70
         0
  9
$MIRRTEXT
 70
         1
  9
$DRAGMODE
 70
         2
  9
$LTSCALE
 40
1.0
  9
$OSMODE
 70
         0
  9
$ATTMODE
 70
         1
  9
$TEXTSIZE
 40
3.5
  9
$TRACEWID
 40
0.05
  9
$TEXTSTYLE
  7
STANDARD
  9
$CLAYER
  8
0
  9
$CELTYPE
  6
CONTINUOUS
  9
$CECOLOR
 62
         4
  9
$CELTSCALE
 40
1.0
  9
$DELOBJ
 70
         1
  9
$DISPSILH
 70
         0
  9
$DIMSCALE
 40
1.0
  9
$DIMASZ
 40
0.18
  9
$DIMEXO
 40
0.0625
  9
$DIMDLI
 40
0.38
  9
$DIMRND
 40
0.0
  9
$DIMDLE
 40
0.0
  9
$DIMEXE
 40
0.25
  9
$DIMTP
 40
0.0
  9
$DIMTM
 40
0.0
  9
$DIMTXT
 40
3.5
  9
$DIMCEN
 40
0.09
  9
$DIMTSZ
 40
0.0
  9
$DIMTOL
 70
         0
  9
$DIMLIM
 70
         0
  9
$DIMTIH
 70
         1
  9
$DIMTOH
 70
         1
  9
$DIMSE1
 70
         0
  9
$DIMSE2
 70
         0
  9
$DIMTAD
 70
         0
  9
$DIMZIN
 70
         0
  9
$DIMBLK
  1

  9
$DIMASO
 70
         1
  9
$DIMSHO
 70
         1
  9
$DIMPOST
  1

  9
$DIMAPOST
  1

  9
$DIMALT
 70
         0
  9
$DIMALTD
 70
         2
  9
$DIMALTF
 40
25.4
  9
$DIMLFAC
 40
1.0
  9
$DIMTOFL
 70
         0
  9
$DIMTVP
 40
0.0
  9
$DIMTIX
 70
         0
  9
$DIMSOXD
 70
         0
  9
$DIMSAH
 70
         0
  9
$DIMBLK1
  1

  9
$DIMBLK2
  1

  9
$DIMSTYLE
  2
STANDARD
  9
$DIMCLRD
 70
         0
  9
$DIMCLRE
 70
         0
  9
$DIMCLRT
 70
         4
  9
$DIMTFAC
 40
0.7
  9
$DIMGAP
 40
0.09
  9
$DIMJUST
 70
         0
  9
$DIMSD1
 70
         0
  9
$DIMSD2
 70
         0
  9
$DIMTOLJ
 70
         1
  9
$DIMTZIN
 70
         0
  9
$DIMALTZ
 70
         0
  9
$DIMALTTZ
 70
         0
  9
$DIMFIT
 70
         3
  9
$DIMUPT
 70
         0
  9
$DIMUNIT
 70
         2
  9
$DIMDEC
 70
         4
  9
$DIMTDEC
 70
         4
  9
$DIMALTU
 70
         2
  9
$DIMALTTD
 70
         2
  9
$DIMTXSTY
  7
STANDARD
  9
$DIMAUNIT
 70
         0
  9
$LUNITS
 70
         2
  9
$LUPREC
 70
        10
  9
$SKETCHINC
 40
0.1
  9
$FILLETRAD
 40
0.0
  9
$AUNITS
 70
         0
  9
$AUPREC
 70
         0
  9
$MENU
  1
acad
  9
$ELEVATION
 40
0.0
  9
$PELEVATION
 40
0.0
  9
$THICKNESS
 40
0.0
  9
$LIMCHECK
 70
         0
  9
$BLIPMODE
 70
         1
  9
$CHAMFERA
 40
0.0
  9
$CHAMFERB
 40
0.0
  9
$CHAMFERC
 40
0.0
  9
$CHAMFERD
 40
0.0
  9
$SKPOLY
 70
         0
  9
$TDCREATE
 40
0.000000000
  9
$TDUPDATE
 40
0.000000000
  9
$TDINDWG
 40
0.0000000000
  9
$TDUSRTIMER
 40
0.0000000000
  9
$USRTIMER
 70
         1
  9
$ANGBASE
 50
0.0
  9
$ANGDIR
 70
         0
  9
$PDMODE
 70
         2
  9
$PDSIZE
 40
0.0
  9
$PLINEWID
 40
0.0
  9
$COORDS
 70
         1
  9
$SPLFRAME
 70
         0
  9
$SPLINETYPE
 70
         6
  9
$SPLINESEGS
 70
         8
  9
$ATTDIA
 70
         0
  9
$ATTREQ
 70
         1
  9
$HANDLING
 70
         1
  9
$HANDSEED
  5
633
  9
$SURFTAB1
 70
         6
  9
$SURFTAB2
 70
         6
  9
$SURFTYPE
 70
         6
  9
$SURFU
 70
         6
  9
$SURFV
 70
         6
  9
$UCSNAME
  2

  9
$UCSORG
 10
0.0
 20
0.0
 30
0.0
  9
$UCSXDIR
 10
1.0
 20
0.0
 30
0.0
  9
$UCSYDIR
 10
0.0
 20
1.0
 30
0.0
  9
$PUCSNAME
  2

  9
$PUCSORG
 10
0.0
 20
0.0
 30
0.0
  9
$PUCSXDIR
 10
1.0
 20
0.0
 30
0.0
  9
$PUCSYDIR
 10
0.0
 20
1.0
 30
0.0
  9
$USERI1
 70
         0
  9
$USERI2
 70
         0
  9
$USERI3
 70
         0
  9
$USERI4
 70
         0
  9
$USERI5
 70
         0
  9
$USERR1
 40
0.0
  9
$USERR2
 40
0.0
  9
$USERR3
 40
0.0
  9
$USERR4
 40
0.0
  9
$USERR5
 40
0.0
  9
$WORLDVIEW
 70
         1
  9
$SHADEDGE
 70
         3
  9
$SHADEDIF
 70
        70
  9
$TILEMODE
 70
         1
  9
$MAXACTVP
 70
        16
  9
$PINSBASE
 10
0.0
 20
0.0
 30
0.0
  9
$PLIMCHECK
 70
         0
  9
$PEXTMIN
 10
1.0000000000E+20
 20
1.0000000000E+20
 30
1.0000000000E+20
  9
$PEXTMAX
 10
-1.0000000000E+20
 20
-1.0000000000E+20
 30
-1.0000000000E+20
  9
$PLIMMIN
 10
0.0
 20
0.0
  9
$PLIMMAX
 10
12.0
 20
9.0
  9
$UNITMODE
 70
         0
  9
$VISRETAIN
 70
         0
  9
$PLINEGEN
 70
         1
  9
$PSLTSCALE
 70
         0
  9
$TREEDEPTH
 70
      3020
  9
$PICKSTYLE
 70
         1
  9
$CMLSTYLE
  2
STANDARD
  9
$CMLJUST
 70
         0
  9
$CMLSCALE
 40
1.0
  9
$PROXYGRAPHICS
 70
         0
  9
$MEASUREMENT
 70
         0
  0
ENDSEC
  0
SECTION
  2
CLASSES
  0
CLASS
  1
LWPOLYLINE
  2
AcDbPolyline
  3
"AutoCAD"
 90
        0
280
         0
281
         1
  0
CLASS
  1
IMAGE
  2
AcDbRasterImage
  3
ISM
 90
      127
280
         0
281
         1
  0
CLASS
  1
OLE2FRAME
  2
AcDbOle2Frame
  3
""
 90
        0
280
         0
281
         1
  0
CLASS
  1
HATCH
  2
AcDbHatch
  3
"ACAD_SEDONA"
 90
        0
280
         0
281
         1
  0
CLASS
  1
DICTIONARYVAR
  2
AcDbDictionaryVar
  3
"AutoCAD"
 90
        0
280
         0
281
         0
  0
CLASS
  1
RASTERVARIABLES
  2
AcDbRasterVariables
  3
ISM
 90
        0
280
         0
281
         0
  0
CLASS
  1
IMAGEDEF
  2
AcDbRasterImageDef
  3
ISM
 90
        0
280
         0
281
         0
  0
CLASS
  1
IMAGEDEF_REACTOR
  2
AcDbRasterImageDefReactor
  3
ISM
 90
        1
280
         0
281
         0
  0
CLASS
  1
IDBUFFER
  2
AcDbIdBuffer
  3
"Acad"
 90
        0
280
         0
281
         0
  0
CLASS
  1
SPATIAL_FILTER
  2
AcDbSpatialFilter
  3
"Acad"
 90
        0
280
         0
281
         0
  0
CLASS
  1
XRECORD
  2
AcDbXrecord
  3
"<Built In>"
 90
        0
280
         0
281
         0
  0
CLASS
  1
SORTENTSTABLE
  2
AcDbSortentsTable
  3
"AutoCAD"
 90
        0
280
         0
281
         0
  0
CLASS
  1
LAYER_INDEX
  2
AcDbLayerIndex
  3
"Acad"
 90
        0
280
         0
281
         0
  0
CLASS
  1
SPATIAL_INDEX
  2
AcDbSpatialIndex
  3
"Acad"
 90
        0
280
         0
281
         0
  0
CLASS
  1
OBJECT_PTR
  2
CAseDLPNTableRecord
  3
"ASE-LPNTableRecord"
 90
        1
280
         0
281
         0
  0
CLASS
  1
LAYOUT
  2
AcDbLayout
  3
"AutoCAD 2000"
 90
        1
280
         0
281
         0
  0
CLASS
  1
PLOTSETTINGS
  2
AcDbPlotSettings
  3
"AutoCAD 2000"
 90
        1
280
         0
281
         0
  0
CLASS
  1
ACDBDICTIONARYWDFLT
  2
AcDbDictionaryWithDefault
  3
"AutoCAD 2000"
 90
        1
280
         0
281
         0
  0
CLASS
  1
ACDBPLACEHOLDER
  2
AcDbPlaceHolder
  3
"AutoCAD 2000"
 90
        1
280
         0
281
         0
  0
CLASS
  1
VBA_PROJECT
  2
AcDbVbaProject
  3
"acadvba"
 90
        1
280
         0
281
         0
  0
CLASS
  1
WIPEOUT
  2
AcDbWipeout
  3
WipeOut|AutoCAD Express Tool|expresstools@autodesk.com
 90
      127
280
         0
281
         1
  0
CLASS
  1
WIPEOUTVARIABLES
  2
AcDbWipeoutVariables
  3
WipeOut|AutoCAD Express Tool|expresstools@autodesk.com
 90
        0
280
         0
281
         0
  0
CLASS
  1
RTEXT
  2
RText
  3
RText|AutoCAD Express Tool|expresstools@autodesk.com
 90
        0
280
         0
281
         1
  0
CLASS
  1
ARCALIGNEDTEXT
  2
AcDbArcAlignedText
  3
ATEXT|AutoCAD Express Tool|expresstools@autodesk.com
 90
        0
280
         0
281
         1
  0
ENDSEC
  0
SECTION
  2
TABLES
  0
TABLE
  2
VPORT
  5
7
100
AcDbSymbolTable
 70
         1
  0
VPORT
  5
15
100
AcDbSymbolTableRecord
100
AcDbViewportTableRecord
  2
*ACTIVE
 70
         0
 10
0.0
 20
0.0
 11
1.0
 21
1.0
 12
-9891.7661497173
 22
11887.9489359806
 13
0.0
 23
0.0
 14
1.0
 24
1.0
 15
0.0
 25
0.0
 16
0.0
 26
0.0
 36
1.0
 17
0.0
 27
0.0
 37
0.0
 40
457.7878703088
 41
1.9834619625
 42
50.0
 43
0.0
 44
0.0
 50
0.0
 51
0.0
 71
         0
 72
       100
 73
         1
 74
         1
 75
         0
 76
         0
 77
         0
 78
         0
  0
ENDTAB
  0
TABLE
  2
LTYPE
  5
4
100
AcDbSymbolTable
 70
         6
  0
LTYPE
  5
11
100
AcDbSymbolTableRecord
100
AcDbLinetypeTableRecord
  2
BYBLOCK
 70
        64
  3

 72
        65
 73
         0
 40
0.0
  0
LTYPE
  5
12
100
AcDbSymbolTableRecord
100
AcDbLinetypeTableRecord
  2
BYLAYER
 70
        64
  3

 72
        65
 73
         0
 40
0.0
  0
LTYPE
  5
13
100
AcDbSymbolTableRecord
100
AcDbLinetypeTableRecord
  2
CONTINUOUS
 70
        64
  3
Solid line
 72
        65
 73
         0
 40
0.0
  0
LTYPE
  5
1D
100
AcDbSymbolTableRecord
100
AcDbLinetypeTableRecord
  2
DASHED
 70
        64
  3
_ _ _ _ _ _ _ _ _ _ _ _ _ _ _ _
 72
        65
 73
         2
 40
0.2
 49
0.1
 74
         0
 49
-0.1
 74
         0
  0
LTYPE
  5
1E
100
AcDbSymbolTableRecord
100
AcDbLinetypeTableRecord
  2
CENTER
 70
        64
  3
___ _ ___ _ ___ _ ___ _ ___ _ ___ _ ___ _ ___ _
 72
        65
 73
         4
 40
0.95
 49
0.625
 74
         0
 49
-0.125
 74
         0
 49
0.075
 74
         0
 49
-0.125
 74
         0
  0
LTYPE
  5
1F
100
AcDbSymbolTableRecord
100
AcDbLinetypeTableRecord
  2
PHANTOM
 70
        64
  3
______  __  __  ______  __  __  ______  __  __  
 72
        65
 73
         6
 40
1.025
 49
0.625
 74
         0
 49
-0.125
 74
         0
 49
0.075
 74
         0
 49
-0.125
 74
         0
 49
0.075
 74
         0
 49
-0.125
 74
         0
  0
ENDTAB
  0
TABLE
  2
LAYER
  5
2
100
AcDbSymbolTable
 70
         6
  0
LAYER
  5
14
100
AcDbSymbolTableRecord
100
AcDbLayerTableRecord
  2
0
 70
         0
 62
         7
  6
CONTINUOUS
  0
LAYER
  5
21
100
AcDbSymbolTableRecord
100
AcDbLayerTableRecord
  2
_____U
 70
         1
 62
         7
  6
CONTINUOUS
  0
LAYER
  5
22
100
AcDbSymbolTableRecord
100
AcDbLayerTableRecord
  2
ERP__________T_____
 70
         1
 62
         7
  6
CONTINUOUS
  0
LAYER
  5
23
100
AcDbSymbolTableRecord
100
AcDbLayerTableRecord
  2
ERP______L________
 70
         1
 62
         7
  6
CONTINUOUS
  0
LAYER
  5
24
100
AcDbSymbolTableRecord
100
AcDbLayerTableRecord
  2
L1_
 70
         0
 62
         7
  6
CONTINUOUS
  0
LAYER
  5
3E5
100
AcDbSymbolTableRecord
100
AcDbLayerTableRecord
  2
DEFPOINTS
 70
         0
 62
        -7
  6
CONTINUOUS
  0
ENDTAB
  0
TABLE
  2
STYLE
  5
3
100
AcDbSymbolTable
 70
        21
  0
STYLE
  5
17
100
AcDbSymbolTableRecord
100
AcDbTextStyleTableRecord
  2
STANDARD
 70
         0
 40
0.0
 41
1.0
 50
0.0
 71
         0
 42
0.0
  3
txt
  4

  0
STYLE
  5
3EE
100
AcDbSymbolTableRecord
100
AcDbTextStyleTableRecord
  2
BOX
 70
         0
 40
1.0
 41
1.0
 50
0.0
 71
         0
 42
0.2
  3
txt.shx
  4

  0
STYLE
  5
3FE
100
AcDbSymbolTableRecord
100
AcDbTextStyleTableRecord
  2
BOX
 70
         0
 40
1.0
 41
1.0
 50
0.0
 71
         0
 42
0.2
  3
txt.shx
  4

  0
STYLE
  5
41D
100
AcDbSymbolTableRecord
100
AcDbTextStyleTableRecord
  2
BOX
 70
         0
 40
1.0
 41
1.0
 50
0.0
 71
         0
 42
0.2
  3
txt.shx
  4

  0
STYLE
  5
42B
100
AcDbSymbolTableRecord
100
AcDbTextStyleTableRecord
  2
BOX
 70
         0
 40
1.0
 41
1.0
 50
0.0
 71
         0
 42
0.2
  3
txt.shx
  4

  0
STYLE
  5
43B
100
AcDbSymbolTableRecord
100
AcDbTextStyleTableRecord
  2
BOX
 70
         0
 40
1.0
 41
1.0
 50
0.0
 71
         0
 42
0.2
  3
txt.shx
  4

  0
STYLE
  5
449
100
AcDbSymbolTableRecord
100
AcDbTextStyleTableRecord
  2
BOX
 70
         0
 40
1.0
 41
1.0
 50
0.0
 71
         0
 42
0.2
  3
txt.shx
  4

  0
STYLE
  5
457
100
AcDbSymbolTableRecord
100
AcDbTextStyleTableRecord
  2
BOX
 70
         0
 40
1.0
 41
1.0
 50
0.0
 71
         0
 42
0.2
  3
txt.shx
  4

  0
STYLE
  5
47D
100
AcDbSymbolTableRecord
100
AcDbTextStyleTableRecord
  2
BOX
 70
         0
 40
1.0
 41
1.0
 50
0.0
 71
         0
 42
0.2
  3
txt.shx
  4

  0
STYLE
  5
48B
100
AcDbSymbolTableRecord
100
AcDbTextStyleTableRecord
  2
BOX
 70
         0
 40
1.0
 41
1.0
 50
0.0
 71
         0
 42
0.2
  3
txt.shx
  4

  0
STYLE
  5
4A2
100
AcDbSymbolTableRecord
100
AcDbTextStyleTableRecord
  2
BOX
 70
         0
 40
1.0
 41
1.0
 50
0.0
 71
         0
 42
0.2
  3
txt.shx
  4

  0
STYLE
  5
4B0
100
AcDbSymbolTableRecord
100
AcDbTextStyleTableRecord
  2
BOX
 70
         0
 40
1.0
 41
1.0
 50
0.0
 71
         0
 42
0.2
  3
txt.shx
  4

  0
STYLE
  5
4E1
100
AcDbSymbolTableRecord
100
AcDbTextStyleTableRecord
  2
BOX
 70
         0
 40
1.0
 41
1.0
 50
0.0
 71
         0
 42
0.2
  3
txt.shx
  4

  0
STYLE
  5
4EF
100
AcDbSymbolTableRecord
100
AcDbTextStyleTableRecord
  2
BOX
 70
         0
 40
1.0
 41
1.0
 50
0.0
 71
         0
 42
0.2
  3
txt.shx
  4

  0
STYLE
  5
4FD
100
AcDbSymbolTableRecord
100
AcDbTextStyleTableRecord
  2
BOX
 70
         0
 40
1.0
 41
1.0
 50
0.0
 71
         0
 42
0.2
  3
txt.shx
  4

  0
STYLE
  5
55F
100
AcDbSymbolTableRecord
100
AcDbTextStyleTableRecord
  2
BOX
 70
         0
 40
1.0
 41
1.0
 50
0.0
 71
         0
 42
0.2
  3
txt.shx
  4

  0
STYLE
  5
570
100
AcDbSymbolTableRecord
100
AcDbTextStyleTableRecord
  2
BOX
 70
         0
 40
1.0
 41
1.0
 50
0.0
 71
         0
 42
0.2
  3
txt.shx
  4

  0
STYLE
  5
594
100
AcDbSymbolTableRecord
100
AcDbTextStyleTableRecord
  2
STSL
 70
         0
 40
1.0
 41
1.0
 50
0.0
 71
         0
 42
0.2
  3

  4
Stsl
  0
STYLE
  5
61F
100
AcDbSymbolTableRecord
100
AcDbTextStyleTableRecord
  2
BOX
 70
         0
 40
1.0
 41
1.0
 50
0.0
 71
         0
 42
0.2
  3
txt.shx
  4

  0
STYLE
  5
622
100
AcDbSymbolTableRecord
100
AcDbTextStyleTableRecord
  2
BOX
 70
         0
 40
1.0
 41
1.0
 50
0.0
 71
         0
 42
0.2
  3
txt.shx
  4

  0
STYLE
  5
630
100
AcDbSymbolTableRecord
100
AcDbTextStyleTableRecord
  2
BOX
 70
         0
 40
1.0
 41
1.0
 50
0.0
 71
         0
 42
0.2
  3
txt.shx
  4

  0
ENDTAB
  0
TABLE
  2
VIEW
  5
5
100
AcDbSymbolTable
 70
         0
  0
ENDTAB
  0
TABLE
  2
UCS
  5
6
100
AcDbSymbolTable
 70
         1
  0
UCS
  5
20
100
AcDbSymbolTableRecord
100
AcDbUCSTableRecord
  2
CK_VIEW_1
 70
         0
 10
0.0
 20
0.0
 30
1.0
 11
1.0
 21
0.0
 31
0.0
 12
0.0
 22
1.0
 32
0.0
  0
ENDTAB
  0
TABLE
  2
APPID
  5
8
100
AcDbSymbolTable
 70
         1
  0
APPID
  5
16
100
AcDbSymbolTableRecord
100
AcDbRegAppTableRecord
  2
ACAD
 70
         0
  0
ENDTAB
  0
TABLE
  2
DIMSTYLE
  5
9
100
AcDbSymbolTable
 70
         2
  0
DIMSTYLE
105
18
100
AcDbSymbolTableRecord
100
AcDbDimStyleTableRecord
  2
STANDARD
 70
         0
  3

  4

  5

  6

  7

 40
1.0
 41
0.18
 42
0.0625
 43
0.38
 44
0.18
 45
0.0
 46
0.0
 47
0.0
 48
0.0
 71
         0
 72
         0
 73
         1
 74
         1
 75
         0
 76
         0
 77
         0
 78
         0
140
0.18
141
0.09
142
0.0
143
25.4
144
1.0
145
0.0
146
1.0
147
0.09
170
         0
171
         2
172
         0
173
         0
174
         0
175
         0
176
         0
177
         0
178
         0
270
         2
271
         4
272
         4
273
         2
274
         2
275
         0
280
         0
281
         0
282
         0
283
         1
284
         0
285
         0
286
         0
287
         0
288
         0
340
17
  0
DIMSTYLE
105
3E1
100
AcDbSymbolTableRecord
100
AcDbDimStyleTableRecord
  2
DIMSTYLE1
 70
         0
  3

  4

  5

  6

  7

 40
1.0
 41
3.5
 42
0.0625
 43
0.38
 44
3.5
 45
0.0
 46
0.0
 47
0.0
 48
0.0
 71
         0
 72
         0
 73
         1
 74
         1
 75
         0
 76
         0
 77
         0
 78
         0
140
3.5
141
0.09
142
0.0
143
25.4
144
1.0
145
0.0
146
1.0
147
0.09
170
         0
171
         2
172
         0
173
         0
174
         0
175
         0
176
         0
177
         0
178
         0
270
         2
271
         4
272
         4
273
         2
274
         2
275
         0
280
         0
281
         0
282
         0
283
         1
284
         0
285
         0
286
         0
287
         0
288
         0
340
17
  0
ENDTAB
  0
TABLE
  2
BLOCK_RECORD
  5
1
100
AcDbSymbolTable
 70
        22
  0
BLOCK_RECORD
  5
A
100
AcDbSymbolTableRecord
100
AcDbBlockTableRecord
  2
*MODEL_SPACE
  0
BLOCK_RECORD
  5
B
100
AcDbSymbolTableRecord
100
AcDbBlockTableRecord
  2
*PAPER_SPACE
  0
BLOCK_RECORD
  5
394
100
AcDbSymbolTableRecord
100
AcDbBlockTableRecord
  2
*X0
  0
BLOCK_RECORD
  5
3E2
100
AcDbSymbolTableRecord
100
AcDbBlockTableRecord
  2
*D1
  0
BLOCK_RECORD
  5
3F1
100
AcDbSymbolTableRecord
100
AcDbBlockTableRecord
  2
*D2
  0
BLOCK_RECORD
  5
412
100
AcDbSymbolTableRecord
100
AcDbBlockTableRecord
  2
*D3
  0
BLOCK_RECORD
  5
420
100
AcDbSymbolTableRecord
100
AcDbBlockTableRecord
  2
*D4
  0
BLOCK_RECORD
  5
430
100
AcDbSymbolTableRecord
100
AcDbBlockTableRecord
  2
*D5
  0
BLOCK_RECORD
  5
43E
100
AcDbSymbolTableRecord
100
AcDbBlockTableRecord
  2
*D6
  0
BLOCK_RECORD
  5
44C
100
AcDbSymbolTableRecord
100
AcDbBlockTableRecord
  2
*D7
  0
BLOCK_RECORD
  5
472
100
AcDbSymbolTableRecord
100
AcDbBlockTableRecord
  2
*D8
  0
BLOCK_RECORD
  5
480
100
AcDbSymbolTableRecord
100
AcDbBlockTableRecord
  2
*D9
  0
BLOCK_RECORD
  5
497
100
AcDbSymbolTableRecord
100
AcDbBlockTableRecord
  2
*D10
  0
BLOCK_RECORD
  5
4A5
100
AcDbSymbolTableRecord
100
AcDbBlockTableRecord
  2
*D11
  0
BLOCK_RECORD
  5
4D6
100
AcDbSymbolTableRecord
100
AcDbBlockTableRecord
  2
*D12
  0
BLOCK_RECORD
  5
4E4
100
AcDbSymbolTableRecord
100
AcDbBlockTableRecord
  2
*D13
  0
BLOCK_RECORD
  5
4F2
100
AcDbSymbolTableRecord
100
AcDbBlockTableRecord
  2
*D14
  0
BLOCK_RECORD
  5
533
100
AcDbSymbolTableRecord
100
AcDbBlockTableRecord
  2
*X15
  0
BLOCK_RECORD
  5
552
100
AcDbSymbolTableRecord
100
AcDbBlockTableRecord
  2
*D16
  0
BLOCK_RECORD
  5
565
100
AcDbSymbolTableRecord
100
AcDbBlockTableRecord
  2
*D17
  0
BLOCK_RECORD
  5
589
100
AcDbSymbolTableRecord
100
AcDbBlockTableRecord
  2
*D18
  0
BLOCK_RECORD
  5
59B
100
AcDbSymbolTableRecord
100
AcDbBlockTableRecord
  2
*X19
  0
BLOCK_RECORD
  5
614
100
AcDbSymbolTableRecord
100
AcDbBlockTableRecord
  2
*D20
  0
BLOCK_RECORD
  5
624
100
AcDbSymbolTableRecord
100
AcDbBlockTableRecord
  2
*D21
  0
ENDTAB
  0
ENDSEC
  0
SECTION
  2
BLOCKS
  0
BLOCK
  5
D
100
AcDbEntity
  8
0
100
AcDbBlockBegin
  2
*MODEL_SPACE
 70
         0
 10
0.0
 20
0.0
 30
0.0
  3
*MODEL_SPACE
  1

  0
ENDBLK
  5
E
100
AcDbEntity
  8
0
100
AcDbBlockEnd
  0
BLOCK
  5
F
100
AcDbEntity
 67
         1
  8
0
100
AcDbBlockBegin
  2
*PAPER_SPACE
 70
         0
 10
0.0
 20
0.0
 30
0.0
  3
*PAPER_SPACE
  1

  0
ENDBLK
  5
10
100
AcDbEntity
 67
         1
  8
0
100
AcDbBlockEnd
  0
BLOCK
  5
395
100
AcDbEntity
  8
0
100
AcDbBlockBegin
  2
*X0
 70
        65
 10
0.0
 20
0.0
 30
0.0
  3
*X0
  1

  0
LINE
  5
396
100
AcDbEntity
  8
L1_
  6
CONTINUOUS
 62
         1
100
AcDbLine
 10
-9815.8355701697
 20
11950.8503198193
 30
0.0
 11
-9810.4705485269
 21
11956.2153414621
 31
0.0
  0
LINE
  5
397
100
AcDbEntity
  8
L1_
  6
CONTINUOUS
 62
         1
100
AcDbLine
 10
-9819.9705485269
 20
11950.9579821492
 30
0.0
 11
-9809.9705485269
 21
11960.9579821492
 31
0.0
  0
LINE
  5
398
100
AcDbEntity
  8
L1_
  6
CONTINUOUS
 62
         1
100
AcDbLine
 10
-9821.8208515439
 20
11953.3503198193
 30
0.0
 11
-9819.8208515439
 21
11955.3503198193
 31
0.0
  0
LINE
  5
399
100
AcDbEntity
  8
L1_
  6
CONTINUOUS
 62
         1
100
AcDbLine
 10
-9814.9705485269
 20
11960.2006228364
 30
0.0
 11
-9812.6705485269
 21
11962.5006228364
 31
0.0
  0
LINE
  5
39A
100
AcDbEntity
  8
L1_
  6
CONTINUOUS
 62
         1
100
AcDbLine
 10
-9826.063492231
 20
11953.3503198193
 30
0.0
 11
-9823.395497878
 21
11956.0183141724
 31
0.0
  0
LINE
  5
39B
100
AcDbEntity
  8
L1_
  6
CONTINUOUS
 62
         1
100
AcDbLine
 10
-9830.3061329182
 20
11953.3503198193
 30
0.0
 11
-9827.3061329182
 21
11956.3503198193
 31
0.0
  0
LINE
  5
39C
100
AcDbEntity
  8
L1_
  6
CONTINUOUS
 62
         1
100
AcDbLine
 10
-9837.0487736053
 20
11950.8503198193
 30
0.0
 11
-9834.9705485269
 21
11952.9285448977
 31
0.0
  0
LINE
  5
39D
100
AcDbEntity
  8
L1_
  6
CONTINUOUS
 62
         1
100
AcDbLine
 10
-9834.5487736053
 20
11953.3503198193
 30
0.0
 11
-9831.5487736053
 21
11956.3503198193
 31
0.0
  0
LINE
  5
39E
100
AcDbEntity
  8
L1_
  6
CONTINUOUS
 62
         1
100
AcDbLine
 10
-9839.8815126597
 20
11952.260221452
 30
0.0
 11
-9835.7914142924
 21
11956.3503198193
 31
0.0
  0
LINE
  5
39F
100
AcDbEntity
  8
L1_
  6
CONTINUOUS
 62
         1
100
AcDbLine
 10
-9810.4193363538
 20
11994.4503198193
 30
0.0
 11
-9809.9705485269
 21
11994.8991076462
 31
0.0
  0
LINE
  5
3A0
100
AcDbEntity
  8
L1_
  6
CONTINUOUS
 62
         1
100
AcDbLine
 10
-9814.9705485269
 20
11994.1417483333
 30
0.0
 11
-9809.9705485269
 21
11999.1417483333
 31
0.0
  0
LINE
  5
3A1
100
AcDbEntity
  8
L1_
  6
CONTINUOUS
 62
         1
100
AcDbLine
 10
-9814.9705485269
 20
11998.3843890204
 30
0.0
 11
-9810.4705485269
 21
12002.8843890204
 31
0.0
  0
LINE
  5
3A2
100
AcDbEntity
  8
L1_
  6
CONTINUOUS
 62
         1
100
AcDbLine
 10
-9816.633903471
 20
12000.9636747634
 30
0.0
 11
-9811.8469593497
 21
12005.7506188848
 31
0.0
  0
LINE
  5
3A3
100
AcDbEntity
  8
L1_
  6
CONTINUOUS
 62
         1
100
AcDbLine
 10
-9820.4898991022
 20
12001.3503198193
 30
0.0
 11
-9815.9898991022
 21
12005.8503198193
 31
0.0
  0
LINE
  5
3A4
100
AcDbEntity
  8
L1_
  6
CONTINUOUS
 62
         1
100
AcDbLine
 10
-9825.7325397893
 20
12000.3503198193
 30
0.0
 11
-9822.7325397893
 21
12003.3503198193
 31
0.0
  0
LINE
  5
3A5
100
AcDbEntity
  8
L1_
  6
CONTINUOUS
 62
         1
100
AcDbLine
 10
-9829.9751804765
 20
12000.3503198193
 30
0.0
 11
-9826.9751804765
 21
12003.3503198193
 31
0.0
  0
LINE
  5
3A6
100
AcDbEntity
  8
L1_
  6
CONTINUOUS
 62
         1
100
AcDbLine
 10
-9834.2178211636
 20
12000.3503198193
 30
0.0
 11
-9831.2178211636
 21
12003.3503198193
 31
0.0
  0
LINE
  5
3A7
100
AcDbEntity
  8
L1_
  6
CONTINUOUS
 62
         1
100
AcDbLine
 10
-9838.4112934466
 20
12000.3994882234
 30
0.0
 11
-9834.9705485269
 21
12003.8402331431
 31
0.0
  0
LINE
  5
3A8
100
AcDbEntity
  8
L1_
  6
CONTINUOUS
 62
         1
100
AcDbLine
 10
-9839.9705485269
 20
12003.0828738303
 30
0.0
 11
-9837.2031025378
 21
12005.8503198193
 31
0.0
  0
ENDBLK
  5
3A9
100
AcDbEntity
  8
0
  6
CONTINUOUS
100
AcDbBlockEnd
  0
BLOCK
  5
3E3
100
AcDbEntity
  8
0
100
AcDbBlockBegin
  2
*D1
 70
        65
 10
0.0
 20
0.0
 30
0.0
  3
*D1
  1

  0
POINT
  5
3E6
100
AcDbEntity
  8
DEFPOINTS
  6
CONTINUOUS
 62
         0
100
AcDbPoint
 10
-9840.9705485269
 20
11926.3365000441
 30
0.0
  0
POINT
  5
3E7
100
AcDbEntity
  8
DEFPOINTS
  6
CONTINUOUS
 62
         0
100
AcDbPoint
 10
-9840.9705485269
 20
11951.3503198193
 30
0.0
  0
POINT
  5
3E8
100
AcDbEntity
  8
DEFPOINTS
  6
CONTINUOUS
 62
         0
100
AcDbPoint
 10
-9814.9705485269
 20
11957.9003198193
 30
0.0
  0
LINE
  5
3E9
100
AcDbEntity
  8
L1_
  6
CONTINUOUS
 62
         4
100
AcDbLine
 10
-9840.9705485269
 20
11949.6003198193
 30
0.0
 11
-9840.9705485269
 21
11925.4615000441
 31
0.0
  0
LINE
  5
3EA
100
AcDbEntity
  8
L1_
  6
CONTINUOUS
 62
         4
100
AcDbLine
 10
-9814.9705485269
 20
11956.1503198193
 30
0.0
 11
-9814.9705485269
 21
11925.4615000441
 31
0.0
  0
LINE
  5
3EB
100
AcDbEntity
  8
L1_
  6
CONTINUOUS
 62
         4
100
AcDbLine
 10
-9840.9705485269
 20
11926.3365000441
 30
0.0
 11
-9814.9705485269
 21
11926.3365000441
 31
0.0
  0
SOLID
  5
3EC
100
AcDbEntity
  8
L1_
  6
CONTINUOUS
 62
         4
100
AcDbTrace
 10
-9840.9705485269
 20
11926.3365000441
 30
0.0
 11
-9837.4705485269
 21
11926.8615000441
 31
0.0
 12
-9837.4705485269
 22
11925.8115000441
 32
0.0
 13
-9840.9705485269
 23
11926.3365000441
 33
0.0
  0
SOLID
  5
3ED
100
AcDbEntity
  8
L1_
  6
CONTINUOUS
 62
         4
100
AcDbTrace
 10
-9814.9705485269
 20
11926.3365000441
 30
0.0
 11
-9818.4705485269
 21
11925.8115000441
 31
0.0
 12
-9818.4705485269
 22
11926.8615000441
 32
0.0
 13
-9814.9705485269
 23
11926.3365000441
 33
0.0
  0
TEXT
  5
3EF
100
AcDbEntity
  8
L1_
  6
CONTINUOUS
 62
         4
100
AcDbText
 10
-9833.4240778528
 20
11928.2615000441
 30
0.0
 40
3.5
  1
26
  7
BOX
100
AcDbText
  0
ENDBLK
  5
3F0
100
AcDbEntity
  8
0
  6
CONTINUOUS
100
AcDbBlockEnd
  0
BLOCK
  5
3F2
100
AcDbEntity
  8
0
100
AcDbBlockBegin
  2
*D2
 70
        65
 10
0.0
 20
0.0
 30
0.0
  3
*D2
  1

  0
POINT
  5
3F4
100
AcDbEntity
  8
DEFPOINTS
  6
CONTINUOUS
 62
         0
100
AcDbPoint
 10
-9816.9705485269
 20
11937.8925344186
 30
0.0
  0
POINT
  5
3F5
100
AcDbEntity
  8
DEFPOINTS
  6
CONTINUOUS
 62
         0
100
AcDbPoint
 10
-9816.9705485269
 20
11957.9003198193
 30
0.0
  0
POINT
  5
3F6
100
AcDbEntity
  8
DEFPOINTS
  6
CONTINUOUS
 62
         0
100
AcDbPoint
 10
-9814.9705485269
 20
11958.7003198193
 30
0.0
  0
LINE
  5
3F7
100
AcDbEntity
  8
L1_
  6
CONTINUOUS
 62
         4
100
AcDbLine
 10
-9816.9705485269
 20
11956.1503198193
 30
0.0
 11
-9816.9705485269
 21
11937.0175344186
 31
0.0
  0
LINE
  5
3F8
100
AcDbEntity
  8
L1_
  6
CONTINUOUS
 62
         4
100
AcDbLine
 10
-9814.9705485269
 20
11956.9503198193
 30
0.0
 11
-9814.9705485269
 21
11937.0175344186
 31
0.0
  0
LINE
  5
3F9
100
AcDbEntity
  8
L1_
  6
CONTINUOUS
 62
         4
100
AcDbLine
 10
-9816.9705485269
 20
11937.8925344186
 30
0.0
 11
-9823.9705485269
 21
11937.8925344186
 31
0.0
  0
SOLID
  5
3FA
100
AcDbEntity
  8
L1_
  6
CONTINUOUS
 62
         4
100
AcDbTrace
 10
-9816.9705485269
 20
11937.8925344186
 30
0.0
 11
-9820.4705485269
 21
11937.3675344186
 31
0.0
 12
-9820.4705485269
 22
11938.4175344186
 32
0.0
 13
-9816.9705485269
 23
11937.8925344186
 33
0.0
  0
LINE
  5
3FB
100
AcDbEntity
  8
L1_
  6
CONTINUOUS
 62
         4
100
AcDbLine
 10
-9814.9705485269
 20
11937.8925344186
 30
0.0
 11
-9806.3936182704
 21
11937.8925344186
 31
0.0
  0
SOLID
  5
3FC
100
AcDbEntity
  8
L1_
  6
CONTINUOUS
 62
         4
100
AcDbTrace
 10
-9814.9705485269
 20
11937.8925344186
 30
0.0
 11
-9811.4705485269
 21
11938.4175344186
 31
0.0
 12
-9811.4705485269
 22
11937.3675344186
 32
0.0
 13
-9814.9705485269
 23
11937.8925344186
 33
0.0
  0
LINE
  5
3FD
100
AcDbEntity
  8
L1_
  6
CONTINUOUS
 62
         4
100
AcDbLine
 10
-9816.9705485269
 20
11937.8925344186
 30
0.0
 11
-9814.9705485269
 21
11937.8925344186
 31
0.0
  0
TEXT
  5
3FF
100
AcDbEntity
  8
L1_
  6
CONTINUOUS
 62
         4
100
AcDbText
 10
-9811.6436182704
 20
11939.8175344186
 30
0.0
 40
3.5
  1
2
  7
BOX
100
AcDbText
  0
ENDBLK
  5
400
100
AcDbEntity
  8
0
  6
CONTINUOUS
100
AcDbBlockEnd
  0
BLOCK
  5
413
100
AcDbEntity
  8
0
100
AcDbBlockBegin
  2
*D3
 70
        65
 10
0.0
 20
0.0
 30
0.0
  3
*D3
  1

  0
POINT
  5
415
100
AcDbEntity
  8
DEFPOINTS
  6
CONTINUOUS
 62
         0
100
AcDbPoint
 10
-9792.3513770211
 20
11999.8003198193
 30
0.0
  0
POINT
  5
416
100
AcDbEntity
  8
DEFPOINTS
  6
CONTINUOUS
 62
         0
100
AcDbPoint
 10
-9815.9705485269
 20
11999.8003198193
 30
0.0
  0
POINT
  5
417
100
AcDbEntity
  8
DEFPOINTS
  6
CONTINUOUS
 62
         0
100
AcDbPoint
 10
-9815.9705485269
 20
11956.9003198193
 30
0.0
  0
LINE
  5
418
100
AcDbEntity
  8
L1_
  6
CONTINUOUS
 62
         4
100
AcDbLine
 10
-9814.2205485269
 20
11999.8003198193
 30
0.0
 11
-9791.4763770211
 21
11999.8003198193
 31
0.0
  0
LINE
  5
419
100
AcDbEntity
  8
L1_
  6
CONTINUOUS
 62
         4
100
AcDbLine
 10
-9814.2205485269
 20
11956.9003198193
 30
0.0
 11
-9791.4763770211
 21
11956.9003198193
 31
0.0
  0
LINE
  5
41A
100
AcDbEntity
  8
L1_
  6
CONTINUOUS
 62
         4
100
AcDbLine
 10
-9792.3513770211
 20
11999.8003198193
 30
0.0
 11
-9792.3513770211
 21
11956.9003198193
 31
0.0
  0
SOLID
  5
41B
100
AcDbEntity
  8
L1_
  6
CONTINUOUS
 62
         4
100
AcDbTrace
 10
-9792.3513770211
 20
11999.8003198193
 30
0.0
 11
-9791.8263770211
 21
11996.3003198193
 31
0.0
 12
-9792.8763770211
 22
11996.3003198193
 32
0.0
 13
-9792.3513770211
 23
11999.8003198193
 33
0.0
  0
SOLID
  5
41C
100
AcDbEntity
  8
L1_
  6
CONTINUOUS
 62
         4
100
AcDbTrace
 10
-9792.3513770211
 20
11956.9003198193
 30
0.0
 11
-9792.8763770211
 21
11960.4003198193
 31
0.0
 12
-9791.8263770211
 22
11960.4003198193
 32
0.0
 13
-9792.3513770211
 23
11956.9003198193
 33
0.0
  0
TEXT
  5
41E
100
AcDbEntity
  8
L1_
  6
CONTINUOUS
 62
         4
100
AcDbText
 10
-9794.2763770211
 20
11961.8836260839
 30
0.0
 40
3.5
  1
ØÙ42.9
 50
90.0
  7
BOX
100
AcDbText
  0
ENDBLK
  5
41F
100
AcDbEntity
  8
0
  6
CONTINUOUS
100
AcDbBlockEnd
  0
BLOCK
  5
421
100
AcDbEntity
  8
0
100
AcDbBlockBegin
  2
*D4
 70
        65
 10
0.0
 20
0.0
 30
0.0
  3
*D4
  1

  0
POINT
  5
423
100
AcDbEntity
  8
DEFPOINTS
  6
CONTINUOUS
 62
         0
100
AcDbPoint
 10
-9782.3361472298
 20
12005.8503198193
 30
0.0
  0
POINT
  5
424
100
AcDbEntity
  8
DEFPOINTS
  6
CONTINUOUS
 62
         0
100
AcDbPoint
 10
-9841.4705485269
 20
12005.8503198193
 30
0.0
  0
POINT
  5
425
100
AcDbEntity
  8
DEFPOINTS
  6
CONTINUOUS
 62
         0
100
AcDbPoint
 10
-9841.4705485269
 20
11950.8503198193
 30
0.0
  0
LINE
  5
426
100
AcDbEntity
  8
L1_
  6
CONTINUOUS
 62
         4
100
AcDbLine
 10
-9839.7205485269
 20
12005.8503198193
 30
0.0
 11
-9781.4611472298
 21
12005.8503198193
 31
0.0
  0
LINE
  5
427
100
AcDbEntity
  8
L1_
  6
CONTINUOUS
 62
         4
100
AcDbLine
 10
-9839.7205485269
 20
11950.8503198193
 30
0.0
 11
-9781.4611472298
 21
11950.8503198193
 31
0.0
  0
LINE
  5
428
100
AcDbEntity
  8
L1_
  6
CONTINUOUS
 62
         4
100
AcDbLine
 10
-9782.3361472298
 20
12005.8503198193
 30
0.0
 11
-9782.3361472298
 21
11950.8503198193
 31
0.0
  0
SOLID
  5
429
100
AcDbEntity
  8
L1_
  6
CONTINUOUS
 62
         4
100
AcDbTrace
 10
-9782.3361472298
 20
12005.8503198193
 30
0.0
 11
-9781.8111472298
 21
12002.3503198193
 31
0.0
 12
-9782.8611472298
 22
12002.3503198193
 32
0.0
 13
-9782.3361472298
 23
12005.8503198193
 33
0.0
  0
SOLID
  5
42A
100
AcDbEntity
  8
L1_
  6
CONTINUOUS
 62
         4
100
AcDbTrace
 10
-9782.3361472298
 20
11950.8503198193
 30
0.0
 11
-9782.8611472298
 21
11954.3503198193
 31
0.0
 12
-9781.8111472298
 22
11954.3503198193
 32
0.0
 13
-9782.3361472298
 23
11950.8503198193
 33
0.0
  0
TEXT
  5
42C
100
AcDbEntity
  8
L1_
  6
CONTINUOUS
 62
         4
100
AcDbText
 10
-9784.2611472298
 20
11964.998424938
 30
0.0
 40
3.5
  1
ØÙ55
 50
90.0
  7
BOX
100
AcDbText
  0
ENDBLK
  5
42D
100
AcDbEntity
  8
0
  6
CONTINUOUS
100
AcDbBlockEnd
  0
BLOCK
  5
431
100
AcDbEntity
  8
0
100
AcDbBlockBegin
  2
*D5
 70
        65
 10
0.0
 20
0.0
 30
0.0
  3
*D5
  1

  0
POINT
  5
433
100
AcDbEntity
  8
DEFPOINTS
  6
CONTINUOUS
 62
         0
100
AcDbPoint
 10
-10016.4705485269
 20
12090.6093315755
 30
0.0
  0
POINT
  5
434
100
AcDbEntity
  8
DEFPOINTS
  6
CONTINUOUS
 62
         0
100
AcDbPoint
 10
-10016.4705485269
 20
11996.2966555833
 30
0.0
  0
POINT
  5
435
100
AcDbEntity
  8
DEFPOINTS
  6
CONTINUOUS
 62
         0
100
AcDbPoint
 10
-9814.9705485269
 20
12000.2003198193
 30
0.0
  0
LINE
  5
436
100
AcDbEntity
  8
L1_
  6
CONTINUOUS
 62
         4
100
AcDbLine
 10
-10016.4705485269
 20
11998.0466555833
 30
0.0
 11
-10016.4705485269
 21
12091.4843315755
 31
0.0
  0
LINE
  5
437
100
AcDbEntity
  8
L1_
  6
CONTINUOUS
 62
         4
100
AcDbLine
 10
-9814.9705485269
 20
12001.9503198193
 30
0.0
 11
-9814.9705485269
 21
12091.4843315755
 31
0.0
  0
LINE
  5
438
100
AcDbEntity
  8
L1_
  6
CONTINUOUS
 62
         4
100
AcDbLine
 10
-10016.4705485269
 20
12090.6093315755
 30
0.0
 11
-9814.9705485269
 21
12090.6093315755
 31
0.0
  0
SOLID
  5
439
100
AcDbEntity
  8
L1_
  6
CONTINUOUS
 62
         4
100
AcDbTrace
 10
-10016.4705485269
 20
12090.6093315755
 30
0.0
 11
-10012.9705485269
 21
12091.1343315755
 31
0.0
 12
-10012.9705485269
 22
12090.0843315755
 32
0.0
 13
-10016.4705485269
 23
12090.6093315755
 33
0.0
  0
SOLID
  5
43A
100
AcDbEntity
  8
L1_
  6
CONTINUOUS
 62
         4
100
AcDbTrace
 10
-9814.9705485269
 20
12090.6093315755
 30
0.0
 11
-9818.4705485269
 21
12090.0843315755
 31
0.0
 12
-9818.4705485269
 22
12091.1343315755
 32
0.0
 13
-9814.9705485269
 23
12090.6093315755
 33
0.0
  0
TEXT
  5
43C
100
AcDbEntity
  8
L1_
  6
CONTINUOUS
 62
         4
100
AcDbText
 10
-9925.231938109
 20
12092.5343315755
 30
0.0
 40
3.5
  1
201.5
  7
BOX
100
AcDbText
  0
ENDBLK
  5
43D
100
AcDbEntity
  8
0
  6
CONTINUOUS
100
AcDbBlockEnd
  0
BLOCK
  5
43F
100
AcDbEntity
  8
0
100
AcDbBlockBegin
  2
*D6
 70
        65
 10
0.0
 20
0.0
 30
0.0
  3
*D6
  1

  0
POINT
  5
441
100
AcDbEntity
  8
DEFPOINTS
  6
CONTINUOUS
 62
         0
100
AcDbPoint
 10
-9914.8705485269
 20
12074.7898889932
 30
0.0
  0
POINT
  5
442
100
AcDbEntity
  8
DEFPOINTS
  6
CONTINUOUS
 62
         0
100
AcDbPoint
 10
-9914.8705485269
 20
12018.0753198193
 30
0.0
  0
POINT
  5
443
100
AcDbEntity
  8
DEFPOINTS
  6
CONTINUOUS
 62
         0
100
AcDbPoint
 10
-9814.9705485269
 20
12000.2003198193
 30
0.0
  0
LINE
  5
444
100
AcDbEntity
  8
L1_
  6
CONTINUOUS
 62
         4
100
AcDbLine
 10
-9914.8705485269
 20
12019.8253198193
 30
0.0
 11
-9914.8705485269
 21
12075.6648889932
 31
0.0
  0
LINE
  5
445
100
AcDbEntity
  8
L1_
  6
CONTINUOUS
 62
         4
100
AcDbLine
 10
-9814.9705485269
 20
12001.9503198193
 30
0.0
 11
-9814.9705485269
 21
12075.6648889932
 31
0.0
  0
LINE
  5
446
100
AcDbEntity
  8
L1_
  6
CONTINUOUS
 62
         4
100
AcDbLine
 10
-9914.8705485269
 20
12074.7898889932
 30
0.0
 11
-9814.9705485269
 21
12074.7898889932
 31
0.0
  0
SOLID
  5
447
100
AcDbEntity
  8
L1_
  6
CONTINUOUS
 62
         4
100
AcDbTrace
 10
-9914.8705485269
 20
12074.7898889932
 30
0.0
 11
-9911.3705485269
 21
12075.3148889932
 31
0.0
 12
-9911.3705485269
 22
12074.2648889932
 32
0.0
 13
-9914.8705485269
 23
12074.7898889932
 33
0.0
  0
SOLID
  5
448
100
AcDbEntity
  8
L1_
  6
CONTINUOUS
 62
         4
100
AcDbTrace
 10
-9814.9705485269
 20
12074.7898889932
 30
0.0
 11
-9818.4705485269
 21
12074.2648889932
 31
0.0
 12
-9818.4705485269
 22
12075.3148889932
 32
0.0
 13
-9814.9705485269
 23
12074.7898889932
 33
0.0
  0
TEXT
  5
44A
100
AcDbEntity
  8
L1_
  6
CONTINUOUS
 62
         4
100
AcDbText
 10
-9870.7504628345
 20
12076.7148889932
 30
0.0
 40
3.5
  1
99.9
  7
BOX
100
AcDbText
  0
ENDBLK
  5
44B
100
AcDbEntity
  8
0
  6
CONTINUOUS
100
AcDbBlockEnd
  0
BLOCK
  5
44D
100
AcDbEntity
  8
0
100
AcDbBlockBegin
  2
*D7
 70
        65
 10
0.0
 20
0.0
 30
0.0
  3
*D7
  1

  0
POINT
  5
44F
100
AcDbEntity
  8
DEFPOINTS
  6
CONTINUOUS
 62
         0
100
AcDbPoint
 10
-9924.9705485269
 20
11680.7385403857
 30
0.0
  0
POINT
  5
450
100
AcDbEntity
  8
DEFPOINTS
  6
CONTINUOUS
 62
         0
100
AcDbPoint
 10
-9924.9705485269
 20
11725.0703887676
 30
0.0
  0
POINT
  5
451
100
AcDbEntity
  8
DEFPOINTS
  6
CONTINUOUS
 62
         0
100
AcDbPoint
 10
-9814.9705485269
 20
11718.9078887676
 30
0.0
  0
LINE
  5
452
100
AcDbEntity
  8
L1_
  6
CONTINUOUS
 62
         4
100
AcDbLine
 10
-9924.9705485269
 20
11723.3203887676
 30
0.0
 11
-9924.9705485269
 21
11679.8635403857
 31
0.0
  0
LINE
  5
453
100
AcDbEntity
  8
L1_
  6
CONTINUOUS
 62
         4
100
AcDbLine
 10
-9814.9705485269
 20
11717.1578887676
 30
0.0
 11
-9814.9705485269
 21
11679.8635403857
 31
0.0
  0
LINE
  5
454
100
AcDbEntity
  8
L1_
  6
CONTINUOUS
 62
         4
100
AcDbLine
 10
-9924.9705485269
 20
11680.7385403857
 30
0.0
 11
-9814.9705485269
 21
11680.7385403857
 31
0.0
  0
SOLID
  5
455
100
AcDbEntity
  8
L1_
  6
CONTINUOUS
 62
         4
100
AcDbTrace
 10
-9924.9705485269
 20
11680.7385403857
 30
0.0
 11
-9921.4705485269
 21
11681.2635403857
 31
0.0
 12
-9921.4705485269
 22
11680.2135403857
 32
0.0
 13
-9924.9705485269
 23
11680.7385403857
 33
0.0
  0
SOLID
  5
456
100
AcDbEntity
  8
L1_
  6
CONTINUOUS
 62
         4
100
AcDbTrace
 10
-9814.9705485269
 20
11680.7385403857
 30
0.0
 11
-9818.4705485269
 21
11680.2135403857
 31
0.0
 12
-9818.4705485269
 22
11681.2635403857
 32
0.0
 13
-9814.9705485269
 23
11680.7385403857
 33
0.0
  0
TEXT
  5
458
100
AcDbEntity
  8
L1_
  6
CONTINUOUS
 62
         4
100
AcDbText
 10
-9877.347907474
 20
11682.6635403857
 30
0.0
 40
3.5
  1
110
  7
BOX
100
AcDbText
  0
ENDBLK
  5
459
100
AcDbEntity
  8
0
  6
CONTINUOUS
100
AcDbBlockEnd
  0
BLOCK
  5
473
100
AcDbEntity
  8
0
100
AcDbBlockBegin
  2
*D8
 70
        65
 10
0.0
 20
0.0
 30
0.0
  3
*D8
  1

  0
POINT
  5
475
100
AcDbEntity
  8
DEFPOINTS
  6
CONTINUOUS
 62
         0
100
AcDbPoint
 10
-9794.0287168751
 20
11756.8578887676
 30
0.0
  0
POINT
  5
476
100
AcDbEntity
  8
DEFPOINTS
  6
CONTINUOUS
 62
         0
100
AcDbPoint
 10
-9814.9705485269
 20
11756.8578887676
 30
0.0
  0
POINT
  5
477
100
AcDbEntity
  8
DEFPOINTS
  6
CONTINUOUS
 62
         0
100
AcDbPoint
 10
-9814.9705485269
 20
11721.8578887676
 30
0.0
  0
LINE
  5
478
100
AcDbEntity
  8
L1_
  6
CONTINUOUS
 62
         4
100
AcDbLine
 10
-9813.2205485269
 20
11756.8578887676
 30
0.0
 11
-9793.1537168751
 21
11756.8578887676
 31
0.0
  0
LINE
  5
479
100
AcDbEntity
  8
L1_
  6
CONTINUOUS
 62
         4
100
AcDbLine
 10
-9813.2205485269
 20
11721.8578887676
 30
0.0
 11
-9793.1537168751
 21
11721.8578887676
 31
0.0
  0
LINE
  5
47A
100
AcDbEntity
  8
L1_
  6
CONTINUOUS
 62
         4
100
AcDbLine
 10
-9794.0287168751
 20
11756.8578887676
 30
0.0
 11
-9794.0287168751
 21
11721.8578887676
 31
0.0
  0
SOLID
  5
47B
100
AcDbEntity
  8
L1_
  6
CONTINUOUS
 62
         4
100
AcDbTrace
 10
-9794.0287168751
 20
11756.8578887676
 30
0.0
 11
-9793.5037168751
 21
11753.3578887676
 31
0.0
 12
-9794.5537168751
 22
11753.3578887676
 32
0.0
 13
-9794.0287168751
 23
11756.8578887676
 33
0.0
  0
SOLID
  5
47C
100
AcDbEntity
  8
L1_
  6
CONTINUOUS
 62
         4
100
AcDbTrace
 10
-9794.0287168751
 20
11721.8578887676
 30
0.0
 11
-9794.5537168751
 21
11725.3578887676
 31
0.0
 12
-9793.5037168751
 22
11725.3578887676
 32
0.0
 13
-9794.0287168751
 23
11721.8578887676
 33
0.0
  0
TEXT
  5
47E
100
AcDbEntity
  8
L1_
  6
CONTINUOUS
 62
         4
100
AcDbText
 10
-9795.9537168751
 20
11727.2340843161
 30
0.0
 40
3.5
  1
ØÙ35
 50
90.0
  7
BOX
100
AcDbText
  0
ENDBLK
  5
47F
100
AcDbEntity
  8
0
  6
CONTINUOUS
100
AcDbBlockEnd
  0
BLOCK
  5
481
100
AcDbEntity
  8
0
100
AcDbBlockBegin
  2
*D9
 70
        65
 10
0.0
 20
0.0
 30
0.0
  3
*D9
  1

  0
POINT
  5
483
100
AcDbEntity
  8
DEFPOINTS
  6
CONTINUOUS
 62
         0
100
AcDbPoint
 10
-9814.9705485269
 20
11691.847175181
 30
0.0
  0
POINT
  5
484
100
AcDbEntity
  8
DEFPOINTS
  6
CONTINUOUS
 62
         0
100
AcDbPoint
 10
-9814.9705485269
 20
11717.9578887676
 30
0.0
  0
POINT
  5
485
100
AcDbEntity
  8
DEFPOINTS
  6
CONTINUOUS
 62
         0
100
AcDbPoint
 10
-9867.9705485269
 20
11724.3578887676
 30
0.0
  0
LINE
  5
486
100
AcDbEntity
  8
L1_
  6
CONTINUOUS
 62
         4
100
AcDbLine
 10
-9814.9705485269
 20
11716.2078887676
 30
0.0
 11
-9814.9705485269
 21
11690.972175181
 31
0.0
  0
LINE
  5
487
100
AcDbEntity
  8
L1_
  6
CONTINUOUS
 62
         4
100
AcDbLine
 10
-9867.9705485269
 20
11722.6078887676
 30
0.0
 11
-9867.9705485269
 21
11690.972175181
 31
0.0
  0
LINE
  5
488
100
AcDbEntity
  8
L1_
  6
CONTINUOUS
 62
         4
100
AcDbLine
 10
-9814.9705485269
 20
11691.847175181
 30
0.0
 11
-9867.9705485269
 21
11691.847175181
 31
0.0
  0
SOLID
  5
489
100
AcDbEntity
  8
L1_
  6
CONTINUOUS
 62
         4
100
AcDbTrace
 10
-9814.9705485269
 20
11691.847175181
 30
0.0
 11
-9818.4705485269
 21
11691.322175181
 31
0.0
 12
-9818.4705485269
 22
11692.372175181
 32
0.0
 13
-9814.9705485269
 23
11691.847175181
 33
0.0
  0
SOLID
  5
48A
100
AcDbEntity
  8
L1_
  6
CONTINUOUS
 62
         4
100
AcDbTrace
 10
-9867.9705485269
 20
11691.847175181
 30
0.0
 11
-9864.4705485269
 21
11692.372175181
 31
0.0
 12
-9864.4705485269
 22
11691.322175181
 32
0.0
 13
-9867.9705485269
 23
11691.847175181
 33
0.0
  0
TEXT
  5
48C
100
AcDbEntity
  8
L1_
  6
CONTINUOUS
 62
         4
100
AcDbText
 10
-9845.6382560563
 20
11693.772175181
 30
0.0
 40
3.5
  1
53
  7
BOX
100
AcDbText
  0
ENDBLK
  5
48D
100
AcDbEntity
  8
0
  6
CONTINUOUS
100
AcDbBlockEnd
  0
BLOCK
  5
498
100
AcDbEntity
  8
0
100
AcDbBlockBegin
  2
*D10
 70
        65
 10
0.0
 20
0.0
 30
0.0
  3
*D10
  1

  0
POINT
  5
49A
100
AcDbEntity
  8
DEFPOINTS
  6
CONTINUOUS
 62
         0
100
AcDbPoint
 10
-9854.2973807328
 20
11702.0257667725
 30
0.0
  0
POINT
  5
49B
100
AcDbEntity
  8
DEFPOINTS
  6
CONTINUOUS
 62
         0
100
AcDbPoint
 10
-9854.2973807328
 20
11724.6078887676
 30
0.0
  0
POINT
  5
49C
100
AcDbEntity
  8
DEFPOINTS
  6
CONTINUOUS
 62
         0
100
AcDbPoint
 10
-9814.9705485269
 20
11718.9078887676
 30
0.0
  0
LINE
  5
49D
100
AcDbEntity
  8
L1_
  6
CONTINUOUS
 62
         4
100
AcDbLine
 10
-9854.2973807328
 20
11722.8578887676
 30
0.0
 11
-9854.2973807328
 21
11701.1507667725
 31
0.0
  0
LINE
  5
49E
100
AcDbEntity
  8
L1_
  6
CONTINUOUS
 62
         4
100
AcDbLine
 10
-9814.9705485269
 20
11717.1578887676
 30
0.0
 11
-9814.9705485269
 21
11701.1507667725
 31
0.0
  0
LINE
  5
49F
100
AcDbEntity
  8
L1_
  6
CONTINUOUS
 62
         4
100
AcDbLine
 10
-9854.2973807328
 20
11702.0257667725
 30
0.0
 11
-9814.9705485269
 21
11702.0257667725
 31
0.0
  0
SOLID
  5
4A0
100
AcDbEntity
  8
L1_
  6
CONTINUOUS
 62
         4
100
AcDbTrace
 10
-9854.2973807328
 20
11702.0257667725
 30
0.0
 11
-9850.7973807328
 21
11702.5507667725
 31
0.0
 12
-9850.7973807328
 22
11701.5007667725
 32
0.0
 13
-9854.2973807328
 23
11702.0257667725
 33
0.0
  0
SOLID
  5
4A1
100
AcDbEntity
  8
L1_
  6
CONTINUOUS
 62
         4
100
AcDbTrace
 10
-9814.9705485269
 20
11702.0257667725
 30
0.0
 11
-9818.4705485269
 21
11701.5007667725
 31
0.0
 12
-9818.4705485269
 22
11702.5507667725
 32
0.0
 13
-9814.9705485269
 23
11702.0257667725
 33
0.0
  0
TEXT
  5
4A3
100
AcDbEntity
  8
L1_
  6
CONTINUOUS
 62
         4
100
AcDbText
 10
-9843.3839646299
 20
11703.9507667725
 30
0.0
 40
3.5
  1
39.33
  7
BOX
100
AcDbText
  0
ENDBLK
  5
4A4
100
AcDbEntity
  8
0
  6
CONTINUOUS
100
AcDbBlockEnd
  0
BLOCK
  5
4A6
100
AcDbEntity
  8
0
100
AcDbBlockBegin
  2
*D11
 70
        65
 10
0.0
 20
0.0
 30
0.0
  3
*D11
  1

  0
POINT
  5
4A8
100
AcDbEntity
  8
DEFPOINTS
  6
CONTINUOUS
 62
         0
100
AcDbPoint
 10
-9839.9705485269
 20
11777.4430785614
 30
0.0
  0
POINT
  5
4A9
100
AcDbEntity
  8
DEFPOINTS
  6
CONTINUOUS
 62
         0
100
AcDbPoint
 10
-9839.9705485269
 20
11761.7578887676
 30
0.0
  0
POINT
  5
4AA
100
AcDbEntity
  8
DEFPOINTS
  6
CONTINUOUS
 62
         0
100
AcDbPoint
 10
-9814.9705485269
 20
11759.8078887676
 30
0.0
  0
LINE
  5
4AB
100
AcDbEntity
  8
L1_
  6
CONTINUOUS
 62
         4
100
AcDbLine
 10
-9839.9705485269
 20
11763.5078887676
 30
0.0
 11
-9839.9705485269
 21
11778.3180785614
 31
0.0
  0
LINE
  5
4AC
100
AcDbEntity
  8
L1_
  6
CONTINUOUS
 62
         4
100
AcDbLine
 10
-9814.9705485269
 20
11761.5578887676
 30
0.0
 11
-9814.9705485269
 21
11778.3180785614
 31
0.0
  0
LINE
  5
4AD
100
AcDbEntity
  8
L1_
  6
CONTINUOUS
 62
         4
100
AcDbLine
 10
-9839.9705485269
 20
11777.4430785614
 30
0.0
 11
-9814.9705485269
 21
11777.4430785614
 31
0.0
  0
SOLID
  5
4AE
100
AcDbEntity
  8
L1_
  6
CONTINUOUS
 62
         4
100
AcDbTrace
 10
-9839.9705485269
 20
11777.4430785614
 30
0.0
 11
-9836.4705485269
 21
11777.9680785614
 31
0.0
 12
-9836.4705485269
 22
11776.9180785614
 32
0.0
 13
-9839.9705485269
 23
11777.4430785614
 33
0.0
  0
SOLID
  5
4AF
100
AcDbEntity
  8
L1_
  6
CONTINUOUS
 62
         4
100
AcDbTrace
 10
-9814.9705485269
 20
11777.4430785614
 30
0.0
 11
-9818.4705485269
 21
11776.9180785614
 31
0.0
 12
-9818.4705485269
 22
11777.9680785614
 32
0.0
 13
-9814.9705485269
 23
11777.4430785614
 33
0.0
  0
TEXT
  5
4B1
100
AcDbEntity
  8
L1_
  6
CONTINUOUS
 62
         4
100
AcDbText
 10
-9830.9705485269
 20
11779.3680785614
 30
0.0
 40
3.5
  1
25
  7
BOX
100
AcDbText
  0
ENDBLK
  5
4B2
100
AcDbEntity
  8
0
  6
CONTINUOUS
100
AcDbBlockEnd
  0
BLOCK
  5
4D7
100
AcDbEntity
  8
0
100
AcDbBlockBegin
  2
*D12
 70
        65
 10
0.0
 20
0.0
 30
0.0
  3
*D12
  1

  0
POINT
  5
4D9
100
AcDbEntity
  8
DEFPOINTS
  6
CONTINUOUS
 62
         0
100
AcDbPoint
 10
-9703.6748654479
 20
11856.2894202493
 30
0.0
  0
POINT
  5
4DA
100
AcDbEntity
  8
DEFPOINTS
  6
CONTINUOUS
 62
         0
100
AcDbPoint
 10
-9694.7395951249
 20
11856.2894202493
 30
0.0
  0
POINT
  5
4DB
100
AcDbEntity
  8
DEFPOINTS
  6
CONTINUOUS
 62
         0
100
AcDbPoint
 10
-9694.7395951249
 20
11811.2894202493
 30
0.0
  0
LINE
  5
4DC
100
AcDbEntity
  8
L1_
  6
CONTINUOUS
 62
         4
100
AcDbLine
 10
-9696.4895951249
 20
11856.2894202493
 30
0.0
 11
-9704.5498654479
 21
11856.2894202493
 31
0.0
  0
LINE
  5
4DD
100
AcDbEntity
  8
L1_
  6
CONTINUOUS
 62
         4
100
AcDbLine
 10
-9696.4895951249
 20
11811.2894202493
 30
0.0
 11
-9704.5498654479
 21
11811.2894202493
 31
0.0
  0
LINE
  5
4DE
100
AcDbEntity
  8
L1_
  6
CONTINUOUS
 62
         4
100
AcDbLine
 10
-9703.6748654479
 20
11856.2894202493
 30
0.0
 11
-9703.6748654479
 21
11811.2894202493
 31
0.0
  0
SOLID
  5
4DF
100
AcDbEntity
  8
L1_
  6
CONTINUOUS
 62
         4
100
AcDbTrace
 10
-9703.6748654479
 20
11856.2894202493
 30
0.0
 11
-9703.1498654479
 21
11852.7894202493
 31
0.0
 12
-9704.1998654479
 22
11852.7894202493
 32
0.0
 13
-9703.6748654479
 23
11856.2894202493
 33
0.0
  0
SOLID
  5
4E0
100
AcDbEntity
  8
L1_
  6
CONTINUOUS
 62
         4
100
AcDbTrace
 10
-9703.6748654479
 20
11811.2894202493
 30
0.0
 11
-9704.1998654479
 21
11814.7894202493
 31
0.0
 12
-9703.1498654479
 22
11814.7894202493
 32
0.0
 13
-9703.6748654479
 23
11811.2894202493
 33
0.0
  0
TEXT
  5
4E2
100
AcDbEntity
  8
L1_
  6
CONTINUOUS
 62
         4
100
AcDbText
 10
-9705.5998654479
 20
11814.5394202493
 30
0.0
 40
3.5
  1
M45xP1.5-5H
 50
90.0
  7
BOX
100
AcDbText
  0
ENDBLK
  5
4E3
100
AcDbEntity
  8
0
  6
CONTINUOUS
100
AcDbBlockEnd
  0
BLOCK
  5
4E5
100
AcDbEntity
  8
0
100
AcDbBlockBegin
  2
*D13
 70
        65
 10
0.0
 20
0.0
 30
0.0
  3
*D13
  1

  0
POINT
  5
4E7
100
AcDbEntity
  8
DEFPOINTS
  6
CONTINUOUS
 62
         0
100
AcDbPoint
 10
-9716.448247014
 20
11861.2894202493
 30
0.0
  0
POINT
  5
4E8
100
AcDbEntity
  8
DEFPOINTS
  6
CONTINUOUS
 62
         0
100
AcDbPoint
 10
-9693.4167194694
 20
11861.2894202493
 30
0.0
  0
POINT
  5
4E9
100
AcDbEntity
  8
DEFPOINTS
  6
CONTINUOUS
 62
         0
100
AcDbPoint
 10
-9693.4167194694
 20
11806.2894202493
 30
0.0
  0
LINE
  5
4EA
100
AcDbEntity
  8
L1_
  6
CONTINUOUS
 62
         4
100
AcDbLine
 10
-9695.1667194694
 20
11861.2894202493
 30
0.0
 11
-9717.323247014
 21
11861.2894202493
 31
0.0
  0
LINE
  5
4EB
100
AcDbEntity
  8
L1_
  6
CONTINUOUS
 62
         4
100
AcDbLine
 10
-9695.1667194694
 20
11806.2894202493
 30
0.0
 11
-9717.323247014
 21
11806.2894202493
 31
0.0
  0
LINE
  5
4EC
100
AcDbEntity
  8
L1_
  6
CONTINUOUS
 62
         4
100
AcDbLine
 10
-9716.448247014
 20
11861.2894202493
 30
0.0
 11
-9716.448247014
 21
11806.2894202493
 31
0.0
  0
SOLID
  5
4ED
100
AcDbEntity
  8
L1_
  6
CONTINUOUS
 62
         4
100
AcDbTrace
 10
-9716.448247014
 20
11861.2894202493
 30
0.0
 11
-9715.923247014
 21
11857.7894202493
 31
0.0
 12
-9716.973247014
 22
11857.7894202493
 32
0.0
 13
-9716.448247014
 23
11861.2894202493
 33
0.0
  0
SOLID
  5
4EE
100
AcDbEntity
  8
L1_
  6
CONTINUOUS
 62
         4
100
AcDbTrace
 10
-9716.448247014
 20
11806.2894202493
 30
0.0
 11
-9716.973247014
 21
11809.7894202493
 31
0.0
 12
-9715.923247014
 22
11809.7894202493
 32
0.0
 13
-9716.448247014
 23
11806.2894202493
 33
0.0
  0
TEXT
  5
4F0
100
AcDbEntity
  8
L1_
  6
CONTINUOUS
 62
         4
100
AcDbText
 10
-9718.373247014
 20
11826.274148761
 30
0.0
 40
3.5
  1
ØÙ55
 50
90.0
  7
BOX
100
AcDbText
  0
ENDBLK
  5
4F1
100
AcDbEntity
  8
0
  6
CONTINUOUS
100
AcDbBlockEnd
  0
BLOCK
  5
4F3
100
AcDbEntity
  8
0
100
AcDbBlockBegin
  2
*D14
 70
        65
 10
0.0
 20
0.0
 30
0.0
  3
*D14
  1

  0
POINT
  5
4F5
100
AcDbEntity
  8
DEFPOINTS
  6
CONTINUOUS
 62
         0
100
AcDbPoint
 10
-9695.4167194694
 20
11870.5751822065
 30
0.0
  0
POINT
  5
4F6
100
AcDbEntity
  8
DEFPOINTS
  6
CONTINUOUS
 62
         0
100
AcDbPoint
 10
-9695.4167194694
 20
11859.2894202493
 30
0.0
  0
POINT
  5
4F7
100
AcDbEntity
  8
DEFPOINTS
  6
CONTINUOUS
 62
         0
100
AcDbPoint
 10
-9665.4167194694
 20
11854.8894202493
 30
0.0
  0
LINE
  5
4F8
100
AcDbEntity
  8
L1_
  6
CONTINUOUS
 62
         4
100
AcDbLine
 10
-9695.4167194694
 20
11861.0394202493
 30
0.0
 11
-9695.4167194694
 21
11871.4501822065
 31
0.0
  0
LINE
  5
4F9
100
AcDbEntity
  8
L1_
  6
CONTINUOUS
 62
         4
100
AcDbLine
 10
-9665.4167194694
 20
11856.6394202493
 30
0.0
 11
-9665.4167194694
 21
11871.4501822065
 31
0.0
  0
LINE
  5
4FA
100
AcDbEntity
  8
L1_
  6
CONTINUOUS
 62
         4
100
AcDbLine
 10
-9695.4167194694
 20
11870.5751822065
 30
0.0
 11
-9665.4167194694
 21
11870.5751822065
 31
0.0
  0
SOLID
  5
4FB
100
AcDbEntity
  8
L1_
  6
CONTINUOUS
 62
         4
100
AcDbTrace
 10
-9695.4167194694
 20
11870.5751822065
 30
0.0
 11
-9691.9167194694
 21
11871.1001822065
 31
0.0
 12
-9691.9167194694
 22
11870.0501822065
 32
0.0
 13
-9695.4167194694
 23
11870.5751822065
 33
0.0
  0
SOLID
  5
4FC
100
AcDbEntity
  8
L1_
  6
CONTINUOUS
 62
         4
100
AcDbTrace
 10
-9665.4167194694
 20
11870.5751822065
 30
0.0
 11
-9668.9167194694
 21
11870.0501822065
 31
0.0
 12
-9668.9167194694
 22
11871.1001822065
 32
0.0
 13
-9665.4167194694
 23
11870.5751822065
 33
0.0
  0
TEXT
  5
4FE
100
AcDbEntity
  8
L1_
  6
CONTINUOUS
 62
         4
100
AcDbText
 10
-9683.9167194694
 20
11872.5001822065
 30
0.0
 40
3.5
  1
30
  7
BOX
100
AcDbText
  0
ENDBLK
  5
4FF
100
AcDbEntity
  8
0
  6
CONTINUOUS
100
AcDbBlockEnd
  0
BLOCK
  5
534
100
AcDbEntity
  8
0
100
AcDbBlockBegin
  2
*X15
 70
        65
 10
0.0
 20
0.0
 30
0.0
  3
*X15
  1

  0
LINE
  5
535
100
AcDbEntity
  8
L1_
  6
CONTINUOUS
 62
         4
100
AcDbLine
 10
-9671.2817411122
 20
11806.2894202493
 30
0.0
 11
-9665.9167194694
 21
11811.6544418921
 31
0.0
  0
LINE
  5
536
100
AcDbEntity
  8
L1_
  6
CONTINUOUS
 62
         4
100
AcDbLine
 10
-9675.4167194694
 20
11806.3970825792
 30
0.0
 11
-9665.4167194694
 21
11816.3970825792
 31
0.0
  0
LINE
  5
537
100
AcDbEntity
  8
L1_
  6
CONTINUOUS
 62
         4
100
AcDbLine
 10
-9677.2670224864
 20
11808.7894202493
 30
0.0
 11
-9675.2670224864
 21
11810.7894202493
 31
0.0
  0
LINE
  5
538
100
AcDbEntity
  8
L1_
  6
CONTINUOUS
 62
         4
100
AcDbLine
 10
-9670.4167194694
 20
11815.6397232663
 30
0.0
 11
-9668.1167194694
 21
11817.9397232663
 31
0.0
  0
LINE
  5
539
100
AcDbEntity
  8
L1_
  6
CONTINUOUS
 62
         4
100
AcDbLine
 10
-9681.5096631735
 20
11808.7894202493
 30
0.0
 11
-9678.8416688205
 21
11811.4574146023
 31
0.0
  0
LINE
  5
53A
100
AcDbEntity
  8
L1_
  6
CONTINUOUS
 62
         4
100
AcDbLine
 10
-9685.7523038606
 20
11808.7894202493
 30
0.0
 11
-9682.7523038606
 21
11811.7894202493
 31
0.0
  0
LINE
  5
53B
100
AcDbEntity
  8
L1_
  6
CONTINUOUS
 62
         4
100
AcDbLine
 10
-9692.4949445478
 20
11806.2894202493
 30
0.0
 11
-9690.4167194694
 21
11808.3676453277
 31
0.0
  0
LINE
  5
53C
100
AcDbEntity
  8
L1_
  6
CONTINUOUS
 62
         4
100
AcDbLine
 10
-9689.9949445478
 20
11808.7894202493
 30
0.0
 11
-9686.9949445478
 21
11811.7894202493
 31
0.0
  0
LINE
  5
53D
100
AcDbEntity
  8
L1_
  6
CONTINUOUS
 62
         4
100
AcDbLine
 10
-9695.3276836022
 20
11807.699321882
 30
0.0
 11
-9691.2375852349
 21
11811.7894202493
 31
0.0
  0
LINE
  5
53E
100
AcDbEntity
  8
L1_
  6
CONTINUOUS
 62
         4
100
AcDbLine
 10
-9665.8655072962
 20
11849.8894202493
 30
0.0
 11
-9665.4167194694
 21
11850.3382080762
 31
0.0
  0
LINE
  5
53F
100
AcDbEntity
  8
L1_
  6
CONTINUOUS
 62
         4
100
AcDbLine
 10
-9670.4167194694
 20
11849.5808487633
 30
0.0
 11
-9665.4167194694
 21
11854.5808487633
 31
0.0
  0
LINE
  5
540
100
AcDbEntity
  8
L1_
  6
CONTINUOUS
 62
         4
100
AcDbLine
 10
-9670.4167194694
 20
11853.8234894504
 30
0.0
 11
-9665.9167194694
 21
11858.3234894504
 31
0.0
  0
LINE
  5
541
100
AcDbEntity
  8
L1_
  6
CONTINUOUS
 62
         4
100
AcDbLine
 10
-9672.0800744135
 20
11856.4027751934
 30
0.0
 11
-9667.2931302922
 21
11861.1897193147
 31
0.0
  0
LINE
  5
542
100
AcDbEntity
  8
L1_
  6
CONTINUOUS
 62
         4
100
AcDbLine
 10
-9675.9360700447
 20
11856.7894202493
 30
0.0
 11
-9671.4360700447
 21
11861.2894202493
 31
0.0
  0
LINE
  5
543
100
AcDbEntity
  8
L1_
  6
CONTINUOUS
 62
         4
100
AcDbLine
 10
-9681.1787107318
 20
11855.7894202493
 30
0.0
 11
-9678.1787107318
 21
11858.7894202493
 31
0.0
  0
LINE
  5
544
100
AcDbEntity
  8
L1_
  6
CONTINUOUS
 62
         4
100
AcDbLine
 10
-9685.421351419
 20
11855.7894202493
 30
0.0
 11
-9682.421351419
 21
11858.7894202493
 31
0.0
  0
LINE
  5
545
100
AcDbEntity
  8
L1_
  6
CONTINUOUS
 62
         4
100
AcDbLine
 10
-9689.6639921061
 20
11855.7894202493
 30
0.0
 11
-9686.6639921061
 21
11858.7894202493
 31
0.0
  0
LINE
  5
546
100
AcDbEntity
  8
L1_
  6
CONTINUOUS
 62
         4
100
AcDbLine
 10
-9693.8574643891
 20
11855.8385886534
 30
0.0
 11
-9690.4167194694
 21
11859.2793335731
 31
0.0
  0
LINE
  5
547
100
AcDbEntity
  8
L1_
  6
CONTINUOUS
 62
         4
100
AcDbLine
 10
-9695.4167194694
 20
11858.5219742602
 30
0.0
 11
-9692.6492734803
 21
11861.2894202493
 31
0.0
  0
ENDBLK
  5
548
100
AcDbEntity
  8
0
  6
CONTINUOUS
100
AcDbBlockEnd
  0
BLOCK
  5
553
100
AcDbEntity
  8
0
100
AcDbBlockBegin
  2
*D16
 70
        65
 10
0.0
 20
0.0
 30
0.0
  3
*D16
  1

  0
POINT
  5
555
100
AcDbEntity
  8
DEFPOINTS
  6
CONTINUOUS
 62
         0
100
AcDbPoint
 10
-9650.6543552981
 20
11761.8158080832
 30
0.0
  0
POINT
  5
556
100
AcDbEntity
  8
DEFPOINTS
  6
CONTINUOUS
 62
         0
100
AcDbPoint
 10
-9650.6543552981
 20
11752.9895006935
 30
0.0
  0
POINT
  5
557
100
AcDbEntity
  8
DEFPOINTS
  6
CONTINUOUS
 62
         0
100
AcDbPoint
 10
-9652.6543552981
 20
11752.9895006935
 30
0.0
  0
LINE
  5
558
100
AcDbEntity
  8
L1_
  6
CONTINUOUS
 62
         4
100
AcDbLine
 10
-9650.6543552981
 20
11754.7395006935
 30
0.0
 11
-9650.6543552981
 21
11762.6908080832
 31
0.0
  0
LINE
  5
559
100
AcDbEntity
  8
L1_
  6
CONTINUOUS
 62
         4
100
AcDbLine
 10
-9652.6543552981
 20
11754.7395006935
 30
0.0
 11
-9652.6543552981
 21
11762.6908080832
 31
0.0
  0
LINE
  5
55A
100
AcDbEntity
  8
L1_
  6
CONTINUOUS
 62
         4
100
AcDbLine
 10
-9650.6543552981
 20
11761.8158080832
 30
0.0
 11
-9643.6543552981
 21
11761.8158080832
 31
0.0
  0
SOLID
  5
55B
100
AcDbEntity
  8
L1_
  6
CONTINUOUS
 62
         4
100
AcDbTrace
 10
-9650.6543552981
 20
11761.8158080832
 30
0.0
 11
-9647.1543552981
 21
11762.3408080832
 31
0.0
 12
-9647.1543552981
 22
11761.2908080832
 32
0.0
 13
-9650.6543552981
 23
11761.8158080832
 33
0.0
  0
LINE
  5
55C
100
AcDbEntity
  8
L1_
  6
CONTINUOUS
 62
         4
100
AcDbLine
 10
-9652.6543552981
 20
11761.8158080832
 30
0.0
 11
-9659.6543552981
 21
11761.8158080832
 31
0.0
  0
SOLID
  5
55D
100
AcDbEntity
  8
L1_
  6
CONTINUOUS
 62
         4
100
AcDbTrace
 10
-9652.6543552981
 20
11761.8158080832
 30
0.0
 11
-9656.1543552981
 21
11761.2908080832
 31
0.0
 12
-9656.1543552981
 22
11762.3408080832
 32
0.0
 13
-9652.6543552981
 23
11761.8158080832
 33
0.0
  0
LINE
  5
55E
100
AcDbEntity
  8
L1_
  6
CONTINUOUS
 62
         4
100
AcDbLine
 10
-9650.6543552981
 20
11761.8158080832
 30
0.0
 11
-9652.6543552981
 21
11761.8158080832
 31
0.0
  0
TEXT
  5
560
100
AcDbEntity
  8
L1_
  6
CONTINUOUS
 62
         4
100
AcDbText
 10
-9653.4043552981
 20
11763.7408080832
 30
0.0
 40
3.5
  1
2
  7
BOX
100
AcDbText
  0
ENDBLK
  5
561
100
AcDbEntity
  8
0
  6
CONTINUOUS
100
AcDbBlockEnd
  0
BLOCK
  5
566
100
AcDbEntity
  8
0
100
AcDbBlockBegin
  2
*D17
 70
        65
 10
0.0
 20
0.0
 30
0.0
  3
*D17
  1

  0
POINT
  5
568
100
AcDbEntity
  8
DEFPOINTS
  6
CONTINUOUS
 62
         0
100
AcDbPoint
 10
-9628.2583696212
 20
11760.7504114321
 30
0.0
  0
POINT
  5
569
100
AcDbEntity
  8
DEFPOINTS
  6
CONTINUOUS
 62
         0
100
AcDbPoint
 10
-9628.2583696212
 20
11749.9883807342
 30
0.0
  0
POINT
  5
56A
100
AcDbEntity
  8
DEFPOINTS
  6
CONTINUOUS
 62
         0
100
AcDbPoint
 10
-9615.2583696212
 20
11749.9883807342
 30
0.0
  0
LINE
  5
56B
100
AcDbEntity
  8
L1_
  6
CONTINUOUS
 62
         4
100
AcDbLine
 10
-9628.2583696212
 20
11751.7383807342
 30
0.0
 11
-9628.2583696212
 21
11761.6254114321
 31
0.0
  0
LINE
  5
56C
100
AcDbEntity
  8
L1_
  6
CONTINUOUS
 62
         4
100
AcDbLine
 10
-9615.2583696212
 20
11751.7383807342
 30
0.0
 11
-9615.2583696212
 21
11761.6254114321
 31
0.0
  0
LINE
  5
56D
100
AcDbEntity
  8
L1_
  6
CONTINUOUS
 62
         4
100
AcDbLine
 10
-9628.2583696212
 20
11760.7504114321
 30
0.0
 11
-9615.2583696212
 21
11760.7504114321
 31
0.0
  0
SOLID
  5
56E
100
AcDbEntity
  8
L1_
  6
CONTINUOUS
 62
         4
100
AcDbTrace
 10
-9628.2583696212
 20
11760.7504114321
 30
0.0
 11
-9624.7583696212
 21
11761.2754114321
 31
0.0
 12
-9624.7583696212
 22
11760.2254114321
 32
0.0
 13
-9628.2583696212
 23
11760.7504114321
 33
0.0
  0
SOLID
  5
56F
100
AcDbEntity
  8
L1_
  6
CONTINUOUS
 62
         4
100
AcDbTrace
 10
-9615.2583696212
 20
11760.7504114321
 30
0.0
 11
-9618.7583696212
 21
11760.2254114321
 31
0.0
 12
-9618.7583696212
 22
11761.2754114321
 32
0.0
 13
-9615.2583696212
 23
11760.7504114321
 33
0.0
  0
TEXT
  5
571
100
AcDbEntity
  8
L1_
  6
CONTINUOUS
 62
         4
100
AcDbText
 10
-9625.2420249887
 20
11762.6754114321
 30
0.0
 40
3.5
  1
13
  7
BOX
100
AcDbText
  0
ENDBLK
  5
572
100
AcDbEntity
  8
0
  6
CONTINUOUS
100
AcDbBlockEnd
  0
BLOCK
  5
58A
100
AcDbEntity
  8
0
100
AcDbBlockBegin
  2
*D18
 70
        65
 10
0.0
 20
0.0
 30
0.0
  3
*D18
  1

  0
POINT
  5
58C
100
AcDbEntity
  8
DEFPOINTS
  6
CONTINUOUS
 62
         0
100
AcDbPoint
 10
-9598.9826381502
 20
11753.6983807342
 30
0.0
  0
POINT
  5
58D
100
AcDbEntity
  8
DEFPOINTS
  6
CONTINUOUS
 62
         0
100
AcDbPoint
 10
-9618.7333696212
 20
11753.6983807342
 30
0.0
  0
POINT
  5
58E
100
AcDbEntity
  8
DEFPOINTS
  6
CONTINUOUS
 62
         0
100
AcDbPoint
 10
-9618.7333696212
 20
11725.1183807342
 30
0.0
  0
LINE
  5
58F
100
AcDbEntity
  8
L1_
  6
CONTINUOUS
 62
         4
100
AcDbLine
 10
-9616.9833696212
 20
11753.6983807342
 30
0.0
 11
-9598.1076381502
 21
11753.6983807342
 31
0.0
  0
LINE
  5
590
100
AcDbEntity
  8
L1_
  6
CONTINUOUS
 62
         4
100
AcDbLine
 10
-9616.9833696212
 20
11725.1183807342
 30
0.0
 11
-9598.1076381502
 21
11725.1183807342
 31
0.0
  0
LINE
  5
591
100
AcDbEntity
  8
L1_
  6
CONTINUOUS
 62
         4
100
AcDbLine
 10
-9598.9826381502
 20
11753.6983807342
 30
0.0
 11
-9598.9826381502
 21
11725.1183807342
 31
0.0
  0
SOLID
  5
592
100
AcDbEntity
  8
L1_
  6
CONTINUOUS
 62
         4
100
AcDbTrace
 10
-9598.9826381502
 20
11753.6983807342
 30
0.0
 11
-9598.4576381502
 21
11750.1983807342
 31
0.0
 12
-9599.5076381502
 22
11750.1983807342
 32
0.0
 13
-9598.9826381502
 23
11753.6983807342
 33
0.0
  0
SOLID
  5
593
100
AcDbEntity
  8
L1_
  6
CONTINUOUS
 62
         4
100
AcDbTrace
 10
-9598.9826381502
 20
11725.1183807342
 30
0.0
 11
-9599.5076381502
 21
11728.6183807342
 31
0.0
 12
-9598.4576381502
 22
11728.6183807342
 32
0.0
 13
-9598.9826381502
 23
11725.1183807342
 33
0.0
  0
TEXT
  5
595
100
AcDbEntity
  8
L1_
  6
CONTINUOUS
 62
         4
100
AcDbText
 10
-9600.9076381502
 20
11725.4309404155
 30
0.0
 40
3.5
  1
M28xP1.5†Š’»„Ú
 50
90.0
  7
STSL
100
AcDbText
  0
ENDBLK
  5
596
100
AcDbEntity
  8
0
  6
CONTINUOUS
100
AcDbBlockEnd
  0
BLOCK
  5
59C
100
AcDbEntity
  8
0
100
AcDbBlockBegin
  2
*X19
 70
        65
 10
0.0
 20
0.0
 30
0.0
  3
*X19
  1

  0
LINE
  5
59D
100
AcDbEntity
  8
L1_
  6
CONTINUOUS
 62
         4
100
AcDbLine
 10
-9818.2908070057
 20
11716.9578887676
 30
0.0
 11
-9814.9705485269
 21
11720.2781472463
 31
0.0
  0
LINE
  5
59E
100
AcDbEntity
  8
L1_
  6
CONTINUOUS
 62
         4
100
AcDbLine
 10
-9822.5334476928
 20
11716.9578887676
 30
0.0
 11
-9817.4594095744
 21
11722.031926886
 31
0.0
  0
LINE
  5
59F
100
AcDbEntity
  8
L1_
  6
CONTINUOUS
 62
         4
100
AcDbLine
 10
-9826.7760883799
 20
11716.9578887676
 30
0.0
 11
-9821.4247655592
 21
11722.3092115882
 31
0.0
  0
LINE
  5
5A0
100
AcDbEntity
  8
L1_
  6
CONTINUOUS
 62
         4
100
AcDbLine
 10
-9831.018729067
 20
11716.9578887676
 30
0.0
 11
-9825.3901215441
 21
11722.5864962905
 31
0.0
  0
LINE
  5
5A1
100
AcDbEntity
  8
L1_
  6
CONTINUOUS
 62
         4
100
AcDbLine
 10
-9835.2613697541
 20
11716.9578887676
 30
0.0
 11
-9829.355477529
 21
11722.8637809927
 31
0.0
  0
LINE
  5
5A2
100
AcDbEntity
  8
L1_
  6
CONTINUOUS
 62
         4
100
AcDbLine
 10
-9844.6040104412
 20
11711.8578887676
 30
0.0
 11
-9840.9705485269
 21
11715.4913506819
 31
0.0
  0
LINE
  5
5A3
100
AcDbEntity
  8
L1_
  6
CONTINUOUS
 62
         4
100
AcDbLine
 10
-9839.5040104412
 20
11716.9578887676
 30
0.0
 11
-9833.3208335139
 21
11723.141065695
 31
0.0
  0
LINE
  5
5A4
100
AcDbEntity
  8
L1_
  6
CONTINUOUS
 62
         4
100
AcDbLine
 10
-9848.8466511284
 20
11711.8578887676
 30
0.0
 11
-9837.2861894987
 21
11723.4183503972
 31
0.0
  0
LINE
  5
5A5
100
AcDbEntity
  8
L1_
  6
CONTINUOUS
 62
         4
100
AcDbLine
 10
-9853.0892918155
 20
11711.8578887676
 30
0.0
 11
-9841.2515454836
 21
11723.6956350995
 31
0.0
  0
LINE
  5
5A6
100
AcDbEntity
  8
L1_
  6
CONTINUOUS
 62
         4
100
AcDbLine
 10
-9857.3319325026
 20
11711.8578887676
 30
0.0
 11
-9845.2169014685
 21
11723.9729198017
 31
0.0
  0
LINE
  5
5A7
100
AcDbEntity
  8
L1_
  6
CONTINUOUS
 62
         4
100
AcDbLine
 10
-9861.5745731897
 20
11711.8578887676
 30
0.0
 11
-9849.1822574534
 21
11724.2502045039
 31
0.0
  0
LINE
  5
5A8
100
AcDbEntity
  8
L1_
  6
CONTINUOUS
 62
         4
100
AcDbLine
 10
-9816.6951705066
 20
11756.7372914507
 30
0.0
 11
-9814.9705485269
 21
11758.4619134304
 31
0.0
  0
LINE
  5
5A9
100
AcDbEntity
  8
L1_
  6
CONTINUOUS
 62
         4
100
AcDbLine
 10
-9865.8172138768
 20
11711.8578887676
 30
0.0
 11
-9853.1476134382
 21
11724.5274892062
 31
0.0
  0
LINE
  5
5AA
100
AcDbEntity
  8
L1_
  6
CONTINUOUS
 62
         4
100
AcDbLine
 10
-9821.256790755
 20
11756.4183118895
 30
0.0
 11
-9816.8672138768
 21
11760.8078887676
 31
0.0
  0
LINE
  5
5AB
100
AcDbEntity
  8
L1_
  6
CONTINUOUS
 62
         4
100
AcDbLine
 10
-9870.059854564
 20
11711.8578887676
 30
0.0
 11
-9857.309854564
 21
11724.6078887676
 31
0.0
  0
LINE
  5
5AC
100
AcDbEntity
  8
L1_
  6
CONTINUOUS
 62
         4
100
AcDbLine
 10
-9825.8184110033
 20
11756.0993323282
 30
0.0
 11
-9820.159854564
 21
11761.7578887676
 31
0.0
  0
LINE
  5
5AD
100
AcDbEntity
  8
L1_
  6
CONTINUOUS
 62
         4
100
AcDbLine
 10
-9881.7274952511
 20
11704.4328887676
 30
0.0
 11
-9879.8185485269
 21
11706.3418354918
 31
0.0
  0
LINE
  5
5AE
100
AcDbEntity
  8
L1_
  6
CONTINUOUS
 62
         4
100
AcDbLine
 10
-9874.3024952511
 20
11711.8578887676
 30
0.0
 11
-9861.5524952511
 21
11724.6078887676
 31
0.0
  0
LINE
  5
5AF
100
AcDbEntity
  8
L1_
  6
CONTINUOUS
 62
         4
100
AcDbLine
 10
-9830.3800312517
 20
11755.7803527669
 30
0.0
 11
-9824.4024952511
 21
11761.7578887676
 31
0.0
  0
LINE
  5
5B0
100
AcDbEntity
  8
L1_
  6
CONTINUOUS
 62
         4
100
AcDbLine
 10
-9899.7951359382
 20
11690.6078887676
 30
0.0
 11
-9895.7705485269
 21
11694.6324761789
 31
0.0
  0
LINE
  5
5B1
100
AcDbEntity
  8
L1_
  6
CONTINUOUS
 62
         4
100
AcDbLine
 10
-9885.9701359382
 20
11704.4328887676
 30
0.0
 11
-9879.8185485269
 21
11710.5844761789
 31
0.0
  0
LINE
  5
5B2
100
AcDbEntity
  8
L1_
  6
CONTINUOUS
 62
         4
100
AcDbLine
 10
-9878.5451359382
 20
11711.8578887676
 30
0.0
 11
-9865.7951359382
 21
11724.6078887676
 31
0.0
  0
LINE
  5
5B3
100
AcDbEntity
  8
L1_
  6
CONTINUOUS
 62
         4
100
AcDbLine
 10
-9834.9416515001
 20
11755.4613732057
 30
0.0
 11
-9828.6451359382
 21
11761.7578887676
 31
0.0
  0
LINE
  5
5B4
100
AcDbEntity
  8
L1_
  6
CONTINUOUS
 62
         4
100
AcDbLine
 10
-9901.6264552013
 20
11693.0192101916
 30
0.0
 11
-9895.7705485269
 21
11698.875116866
 31
0.0
  0
LINE
  5
5B5
100
AcDbEntity
  8
L1_
  6
CONTINUOUS
 62
         4
100
AcDbLine
 10
-9890.2127766253
 20
11704.4328887676
 30
0.0
 11
-9868.8327766253
 21
11725.8128887676
 31
0.0
  0
LINE
  5
5B6
100
AcDbEntity
  8
L1_
  6
CONTINUOUS
 62
         4
100
AcDbLine
 10
-9839.5032717485
 20
11755.1423936444
 30
0.0
 11
-9832.8877766253
 21
11761.7578887676
 31
0.0
  0
LINE
  5
5B7
100
AcDbEntity
  8
L1_
  6
CONTINUOUS
 62
         4
100
AcDbLine
 10
-9908.2804173124
 20
11690.6078887676
 30
0.0
 11
-9905.9768587963
 21
11692.9114472838
 31
0.0
  0
LINE
  5
5B8
100
AcDbEntity
  8
L1_
  6
CONTINUOUS
 62
         4
100
AcDbLine
 10
-9905.1554173124
 20
11693.7328887676
 30
0.0
 11
-9895.7705485269
 21
11703.1177575531
 31
0.0
  0
LINE
  5
5B9
100
AcDbEntity
  8
L1_
  6
CONTINUOUS
 62
         4
100
AcDbLine
 10
-9894.4554173124
 20
11704.4328887676
 30
0.0
 11
-9873.0754173124
 21
11725.8128887676
 31
0.0
  0
LINE
  5
5BA
100
AcDbEntity
  8
L1_
  6
CONTINUOUS
 62
         4
100
AcDbLine
 10
-9844.0648919969
 20
11754.8234140831
 30
0.0
 11
-9837.1304173124
 21
11761.7578887676
 31
0.0
  0
LINE
  5
5BB
100
AcDbEntity
  8
L1_
  6
CONTINUOUS
 62
         4
100
AcDbLine
 10
-9911.5680431408
 20
11691.5629036264
 30
0.0
 11
-9877.3180579996
 21
11725.8128887676
 31
0.0
  0
LINE
  5
5BC
100
AcDbEntity
  8
L1_
  6
CONTINUOUS
 62
         4
100
AcDbLine
 10
-9848.6265122453
 20
11754.5044345219
 30
0.0
 11
-9840.9624861335
 21
11762.1684606336
 31
0.0
  0
LINE
  5
5BD
100
AcDbEntity
  8
L1_
  6
CONTINUOUS
 62
         4
100
AcDbLine
 10
-9911.6705485269
 20
11695.7030389274
 30
0.0
 11
-9881.5606986867
 21
11725.8128887676
 31
0.0
  0
LINE
  5
5BE
100
AcDbEntity
  8
L1_
  6
CONTINUOUS
 62
         4
100
AcDbLine
 10
-9853.1881324937
 20
11754.1854549606
 30
0.0
 11
-9840.9931236068
 21
11766.3804638475
 31
0.0
  0
LINE
  5
5BF
100
AcDbEntity
  8
L1_
  6
CONTINUOUS
 62
         4
100
AcDbLine
 10
-9911.6705485269
 20
11699.9456796145
 30
0.0
 11
-9885.8033393738
 21
11725.8128887676
 31
0.0
  0
LINE
  5
5C0
100
AcDbEntity
  8
L1_
  6
CONTINUOUS
 62
         4
100
AcDbLine
 10
-9857.5083393738
 20
11754.1078887676
 30
0.0
 11
-9844.7583393738
 21
11766.8578887676
 31
0.0
  0
LINE
  5
5C1
100
AcDbEntity
  8
L1_
  6
CONTINUOUS
 62
         4
100
AcDbLine
 10
-9911.8711501034
 20
11703.9877187251
 30
0.0
 11
-9890.0459800609
 21
11725.8128887676
 31
0.0
  0
LINE
  5
5C2
100
AcDbEntity
  8
L1_
  6
CONTINUOUS
 62
         4
100
AcDbLine
 10
-9861.7509800609
 20
11754.1078887676
 30
0.0
 11
-9849.0009800609
 21
11766.8578887676
 31
0.0
  0
LINE
  5
5C3
100
AcDbEntity
  8
L1_
  6
CONTINUOUS
 62
         4
100
AcDbLine
 10
-9915.5670470853
 20
11704.5344624303
 30
0.0
 11
-9894.288620748
 21
11725.8128887676
 31
0.0
  0
LINE
  5
5C4
100
AcDbEntity
  8
L1_
  6
CONTINUOUS
 62
         4
100
AcDbLine
 10
-9865.993620748
 20
11754.1078887676
 30
0.0
 11
-9853.243620748
 21
11766.8578887676
 31
0.0
  0
LINE
  5
5C5
100
AcDbEntity
  8
L1_
  6
CONTINUOUS
 62
         4
100
AcDbLine
 10
-9919.2697108845
 20
11705.0744393182
 30
0.0
 11
-9898.5312614352
 21
11725.8128887676
 31
0.0
  0
LINE
  5
5C6
100
AcDbEntity
  8
L1_
  6
CONTINUOUS
 62
         4
100
AcDbLine
 10
-9871.4412614352
 20
11752.9028887676
 30
0.0
 11
-9857.4862614352
 21
11766.8578887676
 31
0.0
  0
LINE
  5
5C7
100
AcDbEntity
  8
L1_
  6
CONTINUOUS
 62
         4
100
AcDbLine
 10
-9922.9723746837
 20
11705.6144162061
 30
0.0
 11
-9902.7739021223
 21
11725.8128887676
 31
0.0
  0
LINE
  5
5C8
100
AcDbEntity
  8
L1_
  6
CONTINUOUS
 62
         4
100
AcDbLine
 10
-9875.6839021223
 20
11752.9028887676
 30
0.0
 11
-9861.7289021223
 21
11766.8578887676
 31
0.0
  0
LINE
  5
5C9
100
AcDbEntity
  8
L1_
  6
CONTINUOUS
 62
         4
100
AcDbLine
 10
-9926.675038483
 20
11706.154393094
 30
0.0
 11
-9907.0165428094
 21
11725.8128887676
 31
0.0
  0
LINE
  5
5CA
100
AcDbEntity
  8
L1_
  6
CONTINUOUS
 62
         4
100
AcDbLine
 10
-9879.9265428094
 20
11752.9028887676
 30
0.0
 11
-9865.9715428094
 21
11766.8578887676
 31
0.0
  0
LINE
  5
5CB
100
AcDbEntity
  8
L1_
  6
CONTINUOUS
 62
         4
100
AcDbLine
 10
-9930.3777022822
 20
11706.6943699819
 30
0.0
 11
-9911.2591834965
 21
11725.8128887676
 31
0.0
  0
LINE
  5
5CC
100
AcDbEntity
  8
L1_
  6
CONTINUOUS
 62
         4
100
AcDbLine
 10
-9884.1691834965
 20
11752.9028887676
 30
0.0
 11
-9870.2141834965
 21
11766.8578887676
 31
0.0
  0
LINE
  5
5CD
100
AcDbEntity
  8
L1_
  6
CONTINUOUS
 62
         4
100
AcDbLine
 10
-9934.0803660814
 20
11707.2343468698
 30
0.0
 11
-9915.5018241836
 21
11725.8128887676
 31
0.0
  0
LINE
  5
5CE
100
AcDbEntity
  8
L1_
  6
CONTINUOUS
 62
         4
100
AcDbLine
 10
-9888.4118241836
 20
11752.9028887676
 30
0.0
 11
-9874.4568241836
 21
11766.8578887676
 31
0.0
  0
LINE
  5
5CF
100
AcDbEntity
  8
L1_
  6
CONTINUOUS
 62
         4
100
AcDbLine
 10
-9937.7830298806
 20
11707.7743237577
 30
0.0
 11
-9919.7444648708
 21
11725.8128887676
 31
0.0
  0
LINE
  5
5D0
100
AcDbEntity
  8
L1_
  6
CONTINUOUS
 62
         4
100
AcDbLine
 10
-9892.6544648708
 20
11752.9028887676
 30
0.0
 11
-9878.6994648708
 21
11766.8578887676
 31
0.0
  0
LINE
  5
5D1
100
AcDbEntity
  8
L1_
  6
CONTINUOUS
 62
         4
100
AcDbLine
 10
-9941.4856936799
 20
11708.3143006456
 30
0.0
 11
-9923.9871055579
 21
11725.8128887676
 31
0.0
  0
LINE
  5
5D2
100
AcDbEntity
  8
L1_
  6
CONTINUOUS
 62
         4
100
AcDbLine
 10
-9896.8971055579
 20
11752.9028887676
 30
0.0
 11
-9879.8185485269
 21
11769.9814457986
 31
0.0
  0
LINE
  5
5D3
100
AcDbEntity
  8
L1_
  6
CONTINUOUS
 62
         4
100
AcDbLine
 10
-9945.1883574791
 20
11708.8542775335
 30
0.0
 11
-9928.229746245
 21
11725.8128887676
 31
0.0
  0
LINE
  5
5D4
100
AcDbEntity
  8
L1_
  6
CONTINUOUS
 62
         4
100
AcDbLine
 10
-9901.139746245
 20
11752.9028887676
 30
0.0
 11
-9880.0242265305
 21
11774.0184084821
 31
0.0
  0
LINE
  5
5D5
100
AcDbEntity
  8
L1_
  6
CONTINUOUS
 62
         4
100
AcDbLine
 10
-9948.8910212783
 20
11709.3942544214
 30
0.0
 11
-9932.4723869321
 21
11725.8128887676
 31
0.0
  0
LINE
  5
5D6
100
AcDbEntity
  8
L1_
  6
CONTINUOUS
 62
         4
100
AcDbLine
 10
-9905.3823869321
 20
11752.9028887676
 30
0.0
 11
-9884.0023869321
 21
11774.2828887676
 31
0.0
  0
LINE
  5
5D7
100
AcDbEntity
  8
L1_
  6
CONTINUOUS
 62
         4
100
AcDbLine
 10
-9952.5936850775
 20
11709.9342313093
 30
0.0
 11
-9934.9705485269
 21
11727.5573678599
 31
0.0
  0
LINE
  5
5D8
100
AcDbEntity
  8
L1_
  6
CONTINUOUS
 62
         4
100
AcDbLine
 10
-9909.6250276192
 20
11752.9028887676
 30
0.0
 11
-9888.2450276192
 21
11774.2828887676
 31
0.0
  0
LINE
  5
5D9
100
AcDbEntity
  8
L1_
  6
CONTINUOUS
 62
         4
100
AcDbLine
 10
-9956.2963488768
 20
11710.4742081972
 30
0.0
 11
-9937.8090097698
 21
11728.9615473042
 31
0.0
  0
LINE
  5
5DA
100
AcDbEntity
  8
L1_
  6
CONTINUOUS
 62
         4
100
AcDbLine
 10
-9913.8676683063
 20
11752.9028887676
 30
0.0
 11
-9892.4876683064
 21
11774.2828887676
 31
0.0
  0
LINE
  5
5DB
100
AcDbEntity
  8
L1_
  6
CONTINUOUS
 62
         4
100
AcDbLine
 10
-9959.999012676
 20
11711.0141850851
 30
0.0
 11
-9942.0516504569
 21
11728.9615473042
 31
0.0
  0
LINE
  5
5DC
100
AcDbEntity
  8
L1_
  6
CONTINUOUS
 62
         4
100
AcDbLine
 10
-9918.1103089935
 20
11752.9028887676
 30
0.0
 11
-9895.7705485269
 21
11775.2426492342
 31
0.0
  0
LINE
  5
5DD
100
AcDbEntity
  8
L1_
  6
CONTINUOUS
 62
         4
100
AcDbLine
 10
-9963.7016764752
 20
11711.554161973
 30
0.0
 11
-9946.294291144
 21
11728.9615473042
 31
0.0
  0
LINE
  5
5DE
100
AcDbEntity
  8
L1_
  6
CONTINUOUS
 62
         4
100
AcDbLine
 10
-9922.3529496806
 20
11752.9028887676
 30
0.0
 11
-9903.0123923644
 21
11772.2434460837
 31
0.0
  0
LINE
  5
5DF
100
AcDbEntity
  8
L1_
  6
CONTINUOUS
 62
         4
100
AcDbLine
 10
-9899.4223171491
 20
11775.833521299
 30
0.0
 11
-9897.1802493205
 21
11778.0755891277
 31
0.0
  0
LINE
  5
5E0
100
AcDbEntity
  8
L1_
  6
CONTINUOUS
 62
         4
100
AcDbLine
 10
-9967.4043402744
 20
11712.0941388609
 30
0.0
 11
-9950.5369318311
 21
11728.9615473042
 31
0.0
  0
LINE
  5
5E1
100
AcDbEntity
  8
L1_
  6
CONTINUOUS
 62
         4
100
AcDbLine
 10
-9926.5955903677
 20
11752.9028887676
 30
0.0
 11
-9921.9903157773
 21
11757.508163358
 31
0.0
  0
LINE
  5
5E2
100
AcDbEntity
  8
L1_
  6
CONTINUOUS
 62
         4
100
AcDbLine
 10
-9971.1070040737
 20
11712.6341157488
 30
0.0
 11
-9954.7795725182
 21
11728.9615473042
 31
0.0
  0
LINE
  5
5E3
100
AcDbEntity
  8
L1_
  6
CONTINUOUS
 62
         4
100
AcDbLine
 10
-9921.585075142
 20
11762.1560446804
 30
0.0
 11
-9908.0031250741
 21
11775.7379947483
 31
0.0
  0
LINE
  5
5E4
100
AcDbEntity
  8
L1_
  6
CONTINUOUS
 62
         4
100
AcDbLine
 10
-9904.4130498588
 20
11779.3280699636
 30
0.0
 11
-9896.1434541632
 21
11787.5976656592
 31
0.0
  0
LINE
  5
5E5
100
AcDbEntity
  8
L1_
  6
CONTINUOUS
 62
         4
100
AcDbLine
 10
-9974.8096678729
 20
11713.1740926366
 30
0.0
 11
-9959.0222132054
 21
11728.9615473042
 31
0.0
  0
LINE
  5
5E6
100
AcDbEntity
  8
L1_
  6
CONTINUOUS
 62
         4
100
AcDbLine
 10
-9938.2295302785
 20
11749.754230231
 30
0.0
 11
-9913.5258700943
 21
11774.4578904152
 31
0.0
  0
LINE
  5
5E7
100
AcDbEntity
  8
L1_
  6
CONTINUOUS
 62
         4
100
AcDbLine
 10
-9911.6705485269
 20
11776.3132119826
 30
0.0
 11
-9910.498491429
 21
11777.4852690805
 31
0.0
  0
LINE
  5
5E8
100
AcDbEntity
  8
L1_
  6
CONTINUOUS
 62
         4
100
AcDbLine
 10
-9906.9084162137
 20
11781.0753442958
 30
0.0
 11
-9903.0008717419
 21
11784.9828887676
 31
0.0
  0
LINE
  5
5E9
100
AcDbEntity
  8
L1_
  6
CONTINUOUS
 62
         4
100
AcDbLine
 10
-9900.7238703565
 20
11787.2598901531
 30
0.0
 11
-9899.8758717419
 21
11788.1078887676
 31
0.0
  0
LINE
  5
5EA
100
AcDbEntity
  8
L1_
  6
CONTINUOUS
 62
         4
100
AcDbLine
 10
-9978.5123316721
 20
11713.7140695245
 30
0.0
 11
-9963.2648538925
 21
11728.9615473042
 31
0.0
  0
LINE
  5
5EB
100
AcDbEntity
  8
L1_
  6
CONTINUOUS
 62
         4
100
AcDbLine
 10
-9942.4721709657
 20
11749.754230231
 30
0.0
 11
-9918.4681705856
 21
11773.7582306111
 31
0.0
  0
LINE
  5
5EC
100
AcDbEntity
  8
L1_
  6
CONTINUOUS
 62
         4
100
AcDbLine
 10
-9909.0088742949
 20
11783.2175269018
 30
0.0
 11
-9906.1398177529
 21
11786.0865834438
 31
0.0
  0
LINE
  5
5ED
100
AcDbEntity
  8
L1_
  6
CONTINUOUS
 62
         4
100
AcDbLine
 10
-9982.2149954713
 20
11714.2540464124
 30
0.0
 11
-9967.5074945796
 21
11728.9615473042
 31
0.0
  0
LINE
  5
5EE
100
AcDbEntity
  8
L1_
  6
CONTINUOUS
 62
         4
100
AcDbLine
 10
-9946.7148116528
 20
11749.754230231
 30
0.0
 11
-9923.4351725449
 21
11773.0338693389
 31
0.0
  0
LINE
  5
5EF
100
AcDbEntity
  8
L1_
  6
CONTINUOUS
 62
         4
100
AcDbLine
 10
-9911.5042406497
 20
11784.964801234
 30
0.0
 11
-9908.3611531162
 21
11788.1078887676
 31
0.0
  0
LINE
  5
5F0
100
AcDbEntity
  8
L1_
  6
CONTINUOUS
 62
         4
100
AcDbLine
 10
-9985.9176592706
 20
11714.7940233003
 30
0.0
 11
-9971.7501352667
 21
11728.9615473042
 31
0.0
  0
LINE
  5
5F1
100
AcDbEntity
  8
L1_
  6
CONTINUOUS
 62
         4
100
AcDbLine
 10
-9950.9574523399
 20
11749.754230231
 30
0.0
 11
-9928.4021745042
 21
11772.3095080667
 31
0.0
  0
LINE
  5
5F2
100
AcDbEntity
  8
L1_
  6
CONTINUOUS
 62
         4
100
AcDbLine
 10
-9989.6203230698
 20
11715.3340001882
 30
0.0
 11
-9975.9927759538
 21
11728.9615473042
 31
0.0
  0
LINE
  5
5F3
100
AcDbEntity
  8
L1_
  6
CONTINUOUS
 62
         4
100
AcDbLine
 10
-9955.200093027
 20
11749.754230231
 30
0.0
 11
-9933.3691764636
 21
11771.5851467944
 31
0.0
  0
LINE
  5
5F4
100
AcDbEntity
  8
L1_
  6
CONTINUOUS
 62
         4
100
AcDbLine
 10
-9993.322986869
 20
11715.8739770761
 30
0.0
 11
-9980.235416641
 21
11728.9615473042
 31
0.0
  0
LINE
  5
5F5
100
AcDbEntity
  8
L1_
  6
CONTINUOUS
 62
         4
100
AcDbLine
 10
-9959.4427337141
 20
11749.754230231
 30
0.0
 11
-9938.3361784229
 21
11770.8607855222
 31
0.0
  0
LINE
  5
5F6
100
AcDbEntity
  8
L1_
  6
CONTINUOUS
 62
         4
100
AcDbLine
 10
-9997.0256506682
 20
11716.413953964
 30
0.0
 11
-9984.4780573281
 21
11728.9615473042
 31
0.0
  0
LINE
  5
5F7
100
AcDbEntity
  8
L1_
  6
CONTINUOUS
 62
         4
100
AcDbLine
 10
-9963.6853744012
 20
11749.754230231
 30
0.0
 11
-9943.3031803822
 21
11770.13642425
 31
0.0
  0
LINE
  5
5F8
100
AcDbEntity
  8
L1_
  6
CONTINUOUS
 62
         4
100
AcDbLine
 10
-10000.7283144675
 20
11716.9539308519
 30
0.0
 11
-9988.7206980152
 21
11728.9615473042
 31
0.0
  0
LINE
  5
5F9
100
AcDbEntity
  8
L1_
  6
CONTINUOUS
 62
         4
100
AcDbLine
 10
-9967.9280150884
 20
11749.754230231
 30
0.0
 11
-9948.2701823415
 21
11769.4120629778
 31
0.0
  0
LINE
  5
5FA
100
AcDbEntity
  8
L1_
  6
CONTINUOUS
 62
         4
100
AcDbLine
 10
-10004.4309782667
 20
11717.4939077398
 30
0.0
 11
-9992.9633387023
 21
11728.9615473042
 31
0.0
  0
LINE
  5
5FB
100
AcDbEntity
  8
L1_
  6
CONTINUOUS
 62
         4
100
AcDbLine
 10
-9972.1706557755
 20
11749.754230231
 30
0.0
 11
-9953.2371843009
 21
11768.6877017056
 31
0.0
  0
LINE
  5
5FC
100
AcDbEntity
  8
L1_
  6
CONTINUOUS
 62
         4
100
AcDbLine
 10
-10008.1336420659
 20
11718.0338846277
 30
0.0
 11
-9997.2059793894
 21
11728.9615473042
 31
0.0
  0
LINE
  5
5FD
100
AcDbEntity
  8
L1_
  6
CONTINUOUS
 62
         4
100
AcDbLine
 10
-9976.4132964626
 20
11749.754230231
 30
0.0
 11
-9958.2041862602
 21
11767.9633404334
 31
0.0
  0
LINE
  5
5FE
100
AcDbEntity
  8
L1_
  6
CONTINUOUS
 62
         4
100
AcDbLine
 10
-10011.8363058651
 20
11718.5738615156
 30
0.0
 11
-10001.4486200766
 21
11728.9615473042
 31
0.0
  0
LINE
  5
5FF
100
AcDbEntity
  8
L1_
  6
CONTINUOUS
 62
         4
100
AcDbLine
 10
-9980.6559371497
 20
11749.754230231
 30
0.0
 11
-9963.1711882195
 21
11767.2389791612
 31
0.0
  0
LINE
  5
600
100
AcDbEntity
  8
L1_
  6
CONTINUOUS
 62
         4
100
AcDbLine
 10
-10015.3356511304
 20
11719.3171569374
 30
0.0
 11
-10005.6912607637
 21
11728.9615473042
 31
0.0
  0
LINE
  5
601
100
AcDbEntity
  8
L1_
  6
CONTINUOUS
 62
         4
100
AcDbLine
 10
-9984.8985778368
 20
11749.754230231
 30
0.0
 11
-9968.1381901789
 21
11766.514617889
 31
0.0
  0
LINE
  5
602
100
AcDbEntity
  8
L1_
  6
CONTINUOUS
 62
         4
100
AcDbLine
 10
-10016.4705485269
 20
11722.4249002281
 30
0.0
 11
-10012.0867962591
 21
11726.8086524958
 31
0.0
  0
LINE
  5
603
100
AcDbEntity
  8
L1_
  6
CONTINUOUS
 62
         4
100
AcDbLine
 10
-9989.141218524
 20
11749.754230231
 30
0.0
 11
-9973.1051921382
 21
11765.7902566168
 31
0.0
  0
LINE
  5
604
100
AcDbEntity
  8
L1_
  6
CONTINUOUS
 62
         4
100
AcDbLine
 10
-9993.3838592111
 20
11749.754230231
 30
0.0
 11
-9978.0721940975
 21
11765.0658953446
 31
0.0
  0
LINE
  5
605
100
AcDbEntity
  8
L1_
  6
CONTINUOUS
 62
         4
100
AcDbLine
 10
-9997.6264998982
 20
11749.754230231
 30
0.0
 11
-9983.0391960568
 21
11764.3415340724
 31
0.0
  0
LINE
  5
606
100
AcDbEntity
  8
L1_
  6
CONTINUOUS
 62
         4
100
AcDbLine
 10
-10001.8691405853
 20
11749.754230231
 30
0.0
 11
-9988.0061980162
 21
11763.6171728002
 31
0.0
  0
LINE
  5
607
100
AcDbEntity
  8
L1_
  6
CONTINUOUS
 62
         4
100
AcDbLine
 10
-10006.1117812724
 20
11749.754230231
 30
0.0
 11
-9992.9731999755
 21
11762.8928115279
 31
0.0
  0
LINE
  5
608
100
AcDbEntity
  8
L1_
  6
CONTINUOUS
 62
         4
100
AcDbLine
 10
-10009.2778132625
 20
11750.8308389281
 30
0.0
 11
-9997.9402019348
 21
11762.1684502557
 31
0.0
  0
LINE
  5
609
100
AcDbEntity
  8
L1_
  6
CONTINUOUS
 62
         4
100
AcDbLine
 10
-10012.4934041101
 20
11751.8578887676
 30
0.0
 11
-10002.9072038941
 21
11761.4440889835
 31
0.0
  0
LINE
  5
60A
100
AcDbEntity
  8
L1_
  6
CONTINUOUS
 62
         4
100
AcDbLine
 10
-10016.2373836051
 20
11752.3565499597
 30
0.0
 11
-10007.8742058535
 21
11760.7197277113
 31
0.0
  0
LINE
  5
60B
100
AcDbEntity
  8
L1_
  6
CONTINUOUS
 62
         4
100
AcDbLine
 10
-10016.4705485269
 20
11756.366025725
 30
0.0
 11
-10012.8412078128
 21
11759.9953664391
 31
0.0
  0
ENDBLK
  5
60C
100
AcDbEntity
  8
0
  6
CONTINUOUS
100
AcDbBlockEnd
  0
BLOCK
  5
615
100
AcDbEntity
  8
0
100
AcDbBlockBegin
  2
*D20
 70
        65
 10
0.0
 20
0.0
 30
0.0
  3
*D20
  1

  0
POINT
  5
617
100
AcDbEntity
  8
DEFPOINTS
  6
CONTINUOUS
 62
         0
100
AcDbPoint
 10
-9914.8705485269
 20
12082.54451771
 30
0.0
  0
POINT
  5
618
100
AcDbEntity
  8
DEFPOINTS
  6
CONTINUOUS
 62
         0
100
AcDbPoint
 10
-9914.8705485269
 20
12018.0753198193
 30
0.0
  0
POINT
  5
619
100
AcDbEntity
  8
DEFPOINTS
  6
CONTINUOUS
 62
         0
100
AcDbPoint
 10
-9809.9705485269
 20
11999.4503198193
 30
0.0
  0
LINE
  5
61A
100
AcDbEntity
  8
L1_
  6
CONTINUOUS
 62
         4
100
AcDbLine
 10
-9914.8705485269
 20
12019.8253198193
 30
0.0
 11
-9914.8705485269
 21
12083.41951771
 31
0.0
  0
LINE
  5
61B
100
AcDbEntity
  8
L1_
  6
CONTINUOUS
 62
         4
100
AcDbLine
 10
-9809.9705485269
 20
12001.2003198193
 30
0.0
 11
-9809.9705485269
 21
12083.41951771
 31
0.0
  0
LINE
  5
61C
100
AcDbEntity
  8
L1_
  6
CONTINUOUS
 62
         4
100
AcDbLine
 10
-9914.8705485269
 20
12082.54451771
 30
0.0
 11
-9809.9705485269
 21
12082.54451771
 31
0.0
  0
SOLID
  5
61D
100
AcDbEntity
  8
L1_
  6
CONTINUOUS
 62
         4
100
AcDbTrace
 10
-9914.8705485269
 20
12082.54451771
 30
0.0
 11
-9911.3705485269
 21
12083.06951771
 31
0.0
 12
-9911.3705485269
 22
12082.01951771
 32
0.0
 13
-9914.8705485269
 23
12082.54451771
 33
0.0
  0
SOLID
  5
61E
100
AcDbEntity
  8
L1_
  6
CONTINUOUS
 62
         4
100
AcDbTrace
 10
-9809.9705485269
 20
12082.54451771
 30
0.0
 11
-9813.4705485269
 21
12082.01951771
 31
0.0
 12
-9813.4705485269
 22
12083.06951771
 32
0.0
 13
-9809.9705485269
 23
12082.54451771
 33
0.0
  0
TEXT
  5
620
100
AcDbEntity
  8
L1_
  6
CONTINUOUS
 62
         4
100
AcDbText
 10
-9872.1902776858
 20
12084.46951771
 30
0.0
 40
3.5
  1
104.9
  7
BOX
100
AcDbText
  0
ENDBLK
  5
621
100
AcDbEntity
  8
0
  6
CONTINUOUS
100
AcDbBlockEnd
  0
BLOCK
  5
625
100
AcDbEntity
  8
0
100
AcDbBlockBegin
  2
*D21
 70
        65
 10
0.0
 20
0.0
 30
0.0
  3
*D21
  1

  0
POINT
  5
627
100
AcDbEntity
  8
DEFPOINTS
  6
CONTINUOUS
 62
         0
100
AcDbPoint
 10
-9858.9973991628
 20
11724.6078887676
 30
0.0
  0
POINT
  5
628
100
AcDbEntity
  8
DEFPOINTS
  6
CONTINUOUS
 62
         0
100
AcDbPoint
 10
-9854.2973807328
 20
11724.6078887676
 30
0.0
  0
POINT
  5
629
100
AcDbEntity
  8
DEFPOINTS
  6
CONTINUOUS
 62
         0
100
AcDbPoint
 10
-9854.2973807328
 20
11754.1078887676
 30
0.0
  0
LINE
  5
62A
100
AcDbEntity
  8
L1_
  6
CONTINUOUS
 62
         4
100
AcDbLine
 10
-9856.0473807328
 20
11724.6078887676
 30
0.0
 11
-9859.8723991628
 21
11724.6078887676
 31
0.0
  0
LINE
  5
62B
100
AcDbEntity
  8
L1_
  6
CONTINUOUS
 62
         4
100
AcDbLine
 10
-9856.0473807328
 20
11754.1078887676
 30
0.0
 11
-9859.8723991628
 21
11754.1078887676
 31
0.0
  0
LINE
  5
62C
100
AcDbEntity
  8
L1_
  6
CONTINUOUS
 62
         4
100
AcDbLine
 10
-9858.9973991628
 20
11724.6078887676
 30
0.0
 11
-9858.9973991628
 21
11754.1078887676
 31
0.0
  0
SOLID
  5
62D
100
AcDbEntity
  8
L1_
  6
CONTINUOUS
 62
         4
100
AcDbTrace
 10
-9858.9973991628
 20
11724.6078887676
 30
0.0
 11
-9859.5223991628
 21
11728.1078887676
 31
0.0
 12
-9858.4723991628
 22
11728.1078887676
 32
0.0
 13
-9858.9973991628
 23
11724.6078887676
 33
0.0
  0
LINE
  5
62E
100
AcDbEntity
  8
L1_
  6
CONTINUOUS
 62
         4
100
AcDbLine
 10
-9858.9973991628
 20
11754.1078887676
 30
0.0
 11
-9858.9973991628
 21
11792.9383752783
 31
0.0
  0
SOLID
  5
62F
100
AcDbEntity
  8
L1_
  6
CONTINUOUS
 62
         4
100
AcDbTrace
 10
-9858.9973991628
 20
11754.1078887676
 30
0.0
 11
-9858.4723991628
 21
11750.6078887676
 31
0.0
 12
-9859.5223991628
 22
11750.6078887676
 32
0.0
 13
-9858.9973991628
 23
11754.1078887676
 33
0.0
  0
TEXT
  5
631
100
AcDbEntity
  8
L1_
  6
CONTINUOUS
 62
         4
100
AcDbText
 10
-9860.9223991628
 20
11770.1883752783
 30
0.0
 40
3.5
  1
ØÙ29.5
 50
90.0
  7
BOX
100
AcDbText
  0
ENDBLK
  5
632
100
AcDbEntity
  8
0
  6
CONTINUOUS
100
AcDbBlockEnd
  0
ENDSEC
  0
SECTION
  2
ENTITIES
  0
LINE
  5
25
100
AcDbEntity
  8
L1_
  6
CONTINUOUS
 62
         7
100
AcDbLine
 10
-9879.8185485269
 20
11944.4253198193
 30
0.0
 11
-9880.8185485269
 21
11943.4253198193
 31
0.0
  0
LINE
  5
26
100
AcDbEntity
  8
L1_
  6
CONTINUOUS
 62
         4
100
AcDbLine
 10
-9880.8185485269
 20
12013.2753198193
 30
0.0
 11
-9880.8185485269
 21
11943.4253198193
 31
0.0
  0
LINE
  5
27
100
AcDbEntity
  8
L1_
  6
CONTINUOUS
 62
         7
100
AcDbLine
 10
-9880.8185485269
 20
12013.2753198193
 30
0.0
 11
-9879.8185485269
 21
12012.2753198193
 31
0.0
  0
CIRCLE
  5
28
100
AcDbEntity
  8
L1_
  6
CONTINUOUS
 62
         7
100
AcDbCircle
 10
-9903.7705485269
 20
11949.0513256675
 30
0.0
 40
1.5320888862
  0
CIRCLE
  5
29
100
AcDbEntity
  8
L1_
  6
CONTINUOUS
 62
         7
100
AcDbCircle
 10
-9903.7705485269
 20
11959.0868962676
 30
0.0
 40
1.8126155741
  0
CIRCLE
  5
2A
100
AcDbEntity
  8
L1_
  6
CONTINUOUS
 62
         7
100
AcDbCircle
 10
-9903.7705485269
 20
11997.6137433711
 30
0.0
 40
1.8126155741
  0
CIRCLE
  5
2B
100
AcDbEntity
  8
L1_
  6
CONTINUOUS
 62
         7
100
AcDbCircle
 10
-9903.7705485269
 20
12007.6493139712
 30
0.0
 40
1.5320888862
  0
LINE
  5
2C
100
AcDbEntity
  8
L1_
  6
DASHED
 62
         2
100
AcDbLine
 10
-9614.9561286435
 20
11957.1610509265
 30
0.0
 11
-9615.5272790822
 21
11959.2926133827
 31
0.0
  0
LINE
  5
2D
100
AcDbEntity
  8
L1_
  6
DASHED
 62
         2
100
AcDbLine
 10
-9617.5272790822
 20
11960.225228699
 30
0.0
 11
-9615.5272790822
 21
11959.2926133827
 31
0.0
  0
LINE
  5
2E
100
AcDbEntity
  8
L1_
  6
DASHED
 62
         2
100
AcDbLine
 10
-9614.9561286435
 20
11957.1610509265
 30
0.0
 11
-9617.5272790822
 21
11960.225228699
 31
0.0
  0
LINE
  5
2F
100
AcDbEntity
  8
L1_
  6
DASHED
 62
         2
100
AcDbLine
 10
-9619.6858807602
 20
11963.6135546196
 30
0.0
 11
-9619.6858807602
 21
11965.8203104575
 31
0.0
  0
LINE
  5
30
100
AcDbEntity
  8
L1_
  6
DASHED
 62
         2
100
AcDbLine
 10
-9621.3763538071
 20
11967.2387857678
 30
0.0
 11
-9619.6858807602
 21
11965.8203104575
 31
0.0
  0
LINE
  5
31
100
AcDbEntity
  8
L1_
  6
DASHED
 62
         2
100
AcDbLine
 10
-9619.6858807602
 20
11963.6135546196
 30
0.0
 11
-9621.3763538071
 21
11967.2387857678
 31
0.0
  0
LINE
  5
32
100
AcDbEntity
  8
L1_
  6
DASHED
 62
         2
100
AcDbLine
 10
-9626.4467952903
 20
11947.5192367812
 30
0.0
 11
-9614.9561286435
 21
11957.1610509265
 31
0.0
  0
LINE
  5
33
100
AcDbEntity
  8
L1_
  6
DASHED
 62
         2
100
AcDbLine
 10
-9629.017945729
 20
11950.5834145537
 30
0.0
 11
-9617.5272790822
 21
11960.225228699
 31
0.0
  0
LINE
  5
34
100
AcDbEntity
  8
L1_
  6
DASHED
 62
         2
100
AcDbLine
 10
-9633.2804975657
 20
11957.2742806935
 30
0.0
 11
-9619.6858807602
 21
11963.6135546196
 31
0.0
  0
LINE
  5
35
100
AcDbEntity
  8
L1_
  6
DASHED
 62
         2
100
AcDbLine
 10
-9634.9709706127
 20
11960.8995118416
 30
0.0
 11
-9621.3763538071
 21
11967.2387857678
 31
0.0
  0
LINE
  5
36
100
AcDbEntity
  8
L1_
  6
DASHED
 62
         2
100
AcDbLine
 10
-9614.9561286435
 20
11999.5395887121
 30
0.0
 11
-9615.5272790822
 21
11997.408026256
 31
0.0
  0
LINE
  5
37
100
AcDbEntity
  8
L1_
  6
DASHED
 62
         2
100
AcDbLine
 10
-9614.9561286435
 20
11999.5395887121
 30
0.0
 11
-9617.5272790822
 21
11996.4754109397
 31
0.0
  0
LINE
  5
38
100
AcDbEntity
  8
L1_
  6
DASHED
 62
         2
100
AcDbLine
 10
-9617.5272790822
 20
11996.4754109397
 30
0.0
 11
-9615.5272790822
 21
11997.408026256
 31
0.0
  0
LINE
  5
39
100
AcDbEntity
  8
L1_
  6
DASHED
 62
         2
100
AcDbLine
 10
-9619.6858807602
 20
11993.087085019
 30
0.0
 11
-9619.6858807602
 21
11990.8803291811
 31
0.0
  0
LINE
  5
3A
100
AcDbEntity
  8
L1_
  6
DASHED
 62
         2
100
AcDbLine
 10
-9621.3763538071
 20
11989.4618538709
 30
0.0
 11
-9619.6858807602
 21
11990.8803291811
 31
0.0
  0
LINE
  5
3B
100
AcDbEntity
  8
L1_
  6
DASHED
 62
         2
100
AcDbLine
 10
-9619.6858807602
 20
11993.087085019
 30
0.0
 11
-9621.3763538071
 21
11989.4618538709
 31
0.0
  0
LINE
  5
3C
100
AcDbEntity
  8
L1_
  6
DASHED
 62
         2
100
AcDbLine
 10
-9634.9709706127
 20
11995.801127797
 30
0.0
 11
-9621.3763538071
 21
11989.4618538709
 31
0.0
  0
LINE
  5
3D
100
AcDbEntity
  8
L1_
  6
DASHED
 62
         2
100
AcDbLine
 10
-9633.2804975657
 20
11999.4263589452
 30
0.0
 11
-9619.6858807602
 21
11993.087085019
 31
0.0
  0
LINE
  5
3E
100
AcDbEntity
  8
L1_
  6
DASHED
 62
         2
100
AcDbLine
 10
-9629.017945729
 20
12006.117225085
 30
0.0
 11
-9617.5272790822
 21
11996.4754109397
 31
0.0
  0
LINE
  5
3F
100
AcDbEntity
  8
L1_
  6
DASHED
 62
         2
100
AcDbLine
 10
-9626.4467952903
 20
12009.1814028574
 30
0.0
 11
-9614.9561286435
 21
11999.5395887121
 31
0.0
  0
LINE
  5
40
100
AcDbEntity
  8
L1_
  6
CENTER
 62
         1
100
AcDbLine
 10
-9630.1598555718
 20
11947.0144238471
 30
0.0
 11
-9592.8151889697
 21
11978.3503198193
 31
0.0
  0
LINE
  5
41
100
AcDbEntity
  8
L1_
  6
CENTER
 62
         1
100
AcDbLine
 10
-9636.9976935878
 20
11957.7476795595
 30
0.0
 11
-9592.8151889697
 21
11978.3503198193
 31
0.0
  0
LINE
  5
42
100
AcDbEntity
  8
L1_
  6
CENTER
 62
         1
100
AcDbLine
 10
-9636.9976935878
 20
11998.9529600792
 30
0.0
 11
-9592.8151889697
 21
11978.3503198193
 31
0.0
  0
LINE
  5
43
100
AcDbEntity
  8
L1_
  6
CENTER
 62
         1
100
AcDbLine
 10
-9630.1598555718
 20
12009.6862157915
 30
0.0
 11
-9592.8151889697
 21
11978.3503198193
 31
0.0
  0
LINE
  5
44
100
AcDbEntity
  8
L1_
  6
CENTER
 62
         1
100
AcDbLine
 10
-9925.6264811549
 20
11978.3503198193
 30
0.0
 11
-9806.9814549276
 21
11978.3503198193
 31
0.0
  0
LINE
  5
45
100
AcDbEntity
  8
L1_
  6
CENTER
 62
         1
100
AcDbLine
 10
-10021.4166910949
 20
11978.3503198193
 30
0.0
 11
-9947.4954580991
 21
11978.3503198193
 31
0.0
  0
LINE
  5
46
100
AcDbEntity
  8
L1_
  6
CONTINUOUS
 62
         7
100
AcDbLine
 10
-9913.6705485269
 20
12013.450321467
 30
0.0
 11
-10014.3313190855
 21
11998.770487551
 31
0.0
  0
LINE
  5
47
100
AcDbEntity
  8
L1_
  6
CONTINUOUS
 62
         7
100
AcDbLine
 10
-9913.6705485269
 20
11943.2503181717
 30
0.0
 11
-10014.3313190855
 21
11957.9301520877
 31
0.0
  0
LINE
  5
48
100
AcDbEntity
  8
L1_
  6
CONTINUOUS
 62
         7
100
AcDbLine
 10
-9913.6705485269
 20
12013.450321467
 30
0.0
 11
-9913.6705485269
 21
11943.2503181717
 31
0.0
  0
LINE
  5
49
100
AcDbEntity
  8
L1_
  6
CENTER
 62
         1
100
AcDbLine
 10
-9914.8705485269
 20
12018.0753198193
 30
0.0
 11
-9914.8705485269
 21
11940.0792654738
 31
0.0
  0
LINE
  5
4A
100
AcDbEntity
  8
L1_
  6
CONTINUOUS
 62
         7
100
AcDbLine
 10
-9911.6705485269
 20
12025.6003198193
 30
0.0
 11
-9911.6705485269
 21
11931.1003198193
 31
0.0
  0
LINE
  5
4B
100
AcDbEntity
  8
L1_
  6
CENTER
 62
         1
100
AcDbLine
 10
-9903.7705485269
 20
12033.3555831201
 30
0.0
 11
-9903.7705485269
 21
11923.3527635683
 31
0.0
  0
LINE
  5
4C
100
AcDbEntity
  8
L1_
  6
CONTINUOUS
 62
         7
100
AcDbLine
 10
-9900.2342781281
 20
11929.6003198193
 30
0.0
 11
-9897.2705485269
 21
11929.6003198193
 31
0.0
  0
ARC
  5
4D
100
AcDbEntity
  8
L1_
  6
CONTINUOUS
 62
         7
100
AcDbCircle
 10
-9902.3271728539
 20
11932.2253198193
 30
0.0
 40
0.5
100
AcDbArc
 50
30.0
 51
90.0
  0
LINE
  5
4E
100
AcDbEntity
  8
L1_
  6
CONTINUOUS
 62
         7
100
AcDbLine
 10
-9905.6469369018
 20
11932.4753198193
 30
0.0
 11
-9907.3068189257
 21
11929.6003198193
 31
0.0
  0
LINE
  5
4F
100
AcDbEntity
  8
L1_
  6
CONTINUOUS
 62
         7
100
AcDbLine
 10
-9910.1705485269
 20
11929.6003198193
 30
0.0
 11
-9907.3068189257
 21
11929.6003198193
 31
0.0
  0
ARC
  5
50
100
AcDbEntity
  8
L1_
  6
CONTINUOUS
 62
         7
100
AcDbCircle
 10
-9905.2139241999
 20
11932.2253198193
 30
0.0
 40
0.5
100
AcDbArc
 50
90.0
 51
150.0
  0
LINE
  5
51
100
AcDbEntity
  8
L1_
  6
CONTINUOUS
 62
         7
100
AcDbLine
 10
-9905.2139241999
 20
11932.7253198193
 30
0.0
 11
-9902.3271728539
 21
11932.7253198193
 31
0.0
  0
LINE
  5
52
100
AcDbEntity
  8
L1_
  6
CONTINUOUS
 62
         7
100
AcDbLine
 10
-9901.894160152
 20
11932.4753198193
 30
0.0
 11
-9900.2342781281
 21
11929.6003198193
 31
0.0
  0
ARC
  5
53
100
AcDbEntity
  8
L1_
  6
CONTINUOUS
 62
         7
100
AcDbCircle
 10
-9902.3271728539
 20
12024.4753198193
 30
0.0
 40
0.5
100
AcDbArc
 50
270.0
 51
330.0
  0
LINE
  5
54
100
AcDbEntity
  8
L1_
  6
CONTINUOUS
 62
         7
100
AcDbLine
 10
-9905.6469369018
 20
12024.2253198193
 30
0.0
 11
-9907.3068189257
 21
12027.1003198193
 31
0.0
  0
ARC
  5
55
100
AcDbEntity
  8
L1_
  6
CONTINUOUS
 62
         7
100
AcDbCircle
 10
-9905.2139241999
 20
12024.4753198193
 30
0.0
 40
0.5
100
AcDbArc
 50
210.0
 51
270.0
  0
LINE
  5
56
100
AcDbEntity
  8
L1_
  6
CONTINUOUS
 62
         7
100
AcDbLine
 10
-9910.1705485269
 20
12027.1003198193
 30
0.0
 11
-9907.3068189257
 21
12027.1003198193
 31
0.0
  0
LINE
  5
57
100
AcDbEntity
  8
L1_
  6
CONTINUOUS
 62
         7
100
AcDbLine
 10
-9905.2139241999
 20
12023.9753198193
 30
0.0
 11
-9902.3271728539
 21
12023.9753198193
 31
0.0
  0
LINE
  5
58
100
AcDbEntity
  8
L1_
  6
CONTINUOUS
 62
         7
100
AcDbLine
 10
-9901.894160152
 20
12024.2253198193
 30
0.0
 11
-9900.2342781281
 21
12027.1003198193
 31
0.0
  0
LINE
  5
59
100
AcDbEntity
  8
L1_
  6
CONTINUOUS
 62
         7
100
AcDbLine
 10
-9895.7705485269
 20
12025.6003198193
 30
0.0
 11
-9895.7705485269
 21
11931.1003198193
 31
0.0
  0
LINE
  5
5A
100
AcDbEntity
  8
L1_
  6
CONTINUOUS
 62
         7
100
AcDbLine
 10
-10008.2012045653
 20
11728.9615473042
 30
0.0
 11
-10008.2012045653
 21
11749.754230231
 31
0.0
  0
LINE
  5
5B
100
AcDbEntity
  8
L1_
  6
CONTINUOUS
 62
         7
100
AcDbLine
 10
-10010.3877058144
 20
11726.7750460551
 30
0.0
 11
-10008.2012045653
 21
11728.9615473042
 31
0.0
  0
ARC
  5
5C
100
AcDbEntity
  8
L1_
  6
CONTINUOUS
 62
         7
100
AcDbCircle
 10
-10010.6705485269
 20
11727.0578887676
 30
0.0
 40
0.4
100
AcDbArc
 50
270.0
 51
315.0
  0
ARC
  5
5D
100
AcDbEntity
  8
L1_
  6
CONTINUOUS
 62
         7
100
AcDbCircle
 10
-10015.1205485269
 20
11725.3578887676
 30
0.0
 40
1.5
100
AcDbArc
 50
90.0
 51
154.1580672375
  0
LINE
  5
5E
100
AcDbEntity
  8
L1_
  6
CONTINUOUS
 62
         7
100
AcDbLine
 10
-10011.5241383654
 20
11726.6578887676
 30
0.0
 11
-10012.2705485269
 21
11726.8578887676
 31
0.0
  0
LINE
  5
5F
100
AcDbEntity
  8
L1_
  6
CONTINUOUS
 62
         7
100
AcDbLine
 10
-10011.5241383654
 20
11726.6578887676
 30
0.0
 11
-10010.6705485269
 21
11726.6578887676
 31
0.0
  0
LINE
  5
60
100
AcDbEntity
  8
L1_
  6
CONTINUOUS
 62
         7
100
AcDbLine
 10
-10015.1205485269
 20
11726.8578887676
 30
0.0
 11
-10012.2705485269
 21
11726.8578887676
 31
0.0
  0
LINE
  5
61
100
AcDbEntity
  8
L1_
  6
CONTINUOUS
 62
         7
100
AcDbLine
 10
-10010.3877058144
 20
11751.9407314801
 30
0.0
 11
-10008.2012045653
 21
11749.754230231
 31
0.0
  0
ARC
  5
62
100
AcDbEntity
  8
L1_
  6
CONTINUOUS
 62
         7
100
AcDbCircle
 10
-10015.1205485269
 20
11753.3578887676
 30
0.0
 40
1.5
100
AcDbArc
 50
205.8419327625
 51
270.0
  0
LINE
  5
63
100
AcDbEntity
  8
L1_
  6
CONTINUOUS
 62
         7
100
AcDbLine
 10
-10011.5241383654
 20
11752.0578887676
 30
0.0
 11
-10012.2705485269
 21
11751.8578887676
 31
0.0
  0
ARC
  5
64
100
AcDbEntity
  8
L1_
  6
CONTINUOUS
 62
         7
100
AcDbCircle
 10
-10010.6705485269
 20
11751.6578887676
 30
0.0
 40
0.4
100
AcDbArc
 50
45.0
 51
90.0
  0
LINE
  5
65
100
AcDbEntity
  8
L1_
  6
CONTINUOUS
 62
         7
100
AcDbLine
 10
-10012.2705485269
 20
11726.8578887676
 30
0.0
 11
-10012.2705485269
 21
11751.8578887676
 31
0.0
  0
LINE
  5
66
100
AcDbEntity
  8
L1_
  6
CONTINUOUS
 62
         7
100
AcDbLine
 10
-10011.5241383654
 20
11752.0578887676
 30
0.0
 11
-10010.6705485269
 21
11752.0578887676
 31
0.0
  0
LINE
  5
67
100
AcDbEntity
  8
L1_
  6
CONTINUOUS
 62
         7
100
AcDbLine
 10
-10010.2705485269
 20
11726.8922033426
 30
0.0
 11
-10010.2705485269
 21
11751.8235741925
 31
0.0
  0
ARC
  5
68
100
AcDbEntity
  8
L1_
  6
CONTINUOUS
 62
         7
100
AcDbCircle
 10
-9902.6158479885
 20
11692.7328887676
 30
0.0
 40
1.0
100
AcDbArc
 50
30.0
 51
90.0
  0
LINE
  5
69
100
AcDbEntity
  8
L1_
  6
CENTER
 62
         1
100
AcDbLine
 10
-10016.6205485269
 20
11739.3578887676
 30
0.0
 11
-9809.8803858683
 21
11739.3578887676
 31
0.0
  0
LINE
  5
6A
100
AcDbEntity
  8
L1_
  6
CONTINUOUS
 62
         5
100
AcDbLine
 10
-10009.8048631019
 20
11751.3578887676
 30
0.0
 11
-9971.9705485269
 21
11751.3578887676
 31
0.0
  0
LINE
  5
6B
100
AcDbEntity
  8
L1_
  6
CONTINUOUS
 62
         7
100
AcDbLine
 10
-10008.2012045653
 20
11749.754230231
 30
0.0
 11
-9934.9705485269
 21
11749.754230231
 31
0.0
  0
LINE
  5
6C
100
AcDbEntity
  8
L1_
  6
CONTINUOUS
 62
         7
100
AcDbLine
 10
-9913.6705485269
 20
11774.4578904152
 30
0.0
 11
-10014.4813190855
 21
11759.7561812933
 31
0.0
  0
LINE
  5
6D
100
AcDbEntity
  8
L1_
  6
CONTINUOUS
 62
         5
100
AcDbLine
 10
-10009.8048631019
 20
11727.3578887676
 30
0.0
 11
-9971.9705485269
 21
11727.3578887676
 31
0.0
  0
LINE
  5
6E
100
AcDbEntity
  8
L1_
  6
CONTINUOUS
 62
         7
100
AcDbLine
 10
-10008.2012045653
 20
11728.9615473042
 30
0.0
 11
-9934.9705485269
 21
11728.9615473042
 31
0.0
  0
LINE
  5
6F
100
AcDbEntity
  8
L1_
  6
CONTINUOUS
 62
         7
100
AcDbLine
 10
-9913.6705485269
 20
11704.25788712
 30
0.0
 11
-10014.4813190855
 21
11718.9595962419
 31
0.0
  0
LINE
  5
70
100
AcDbEntity
  8
L1_
  6
CONTINUOUS
 62
         7
100
AcDbLine
 10
-10015.1205485269
 20
11751.8578887676
 30
0.0
 11
-10012.2705485269
 21
11751.8578887676
 31
0.0
  0
LINE
  5
71
100
AcDbEntity
  8
L1_
  6
CONTINUOUS
 62
         7
100
AcDbLine
 10
-9971.9705485269
 20
11751.3578887676
 30
0.0
 11
-9971.9705485269
 21
11727.3578887676
 31
0.0
  0
LINE
  5
72
100
AcDbEntity
  8
L1_
  6
CONTINUOUS
 62
         7
100
AcDbLine
 10
-9900.2342781281
 20
11690.6078887676
 30
0.0
 11
-9897.2705485269
 21
11690.6078887676
 31
0.0
  0
ARC
  5
73
100
AcDbEntity
  8
L1_
  6
CONTINUOUS
 62
         7
100
AcDbCircle
 10
-9905.2139241999
 20
11693.2328887676
 30
0.0
 40
0.5
100
AcDbArc
 50
90.0
 51
150.0
  0
LINE
  5
74
100
AcDbEntity
  8
L1_
  6
CONTINUOUS
 62
         7
100
AcDbLine
 10
-9905.6469369018
 20
11693.4828887676
 30
0.0
 11
-9907.3068189257
 21
11690.6078887676
 31
0.0
  0
LINE
  5
75
100
AcDbEntity
  8
L1_
  6
CONTINUOUS
 62
         7
100
AcDbLine
 10
-9910.1705485269
 20
11690.6078887676
 30
0.0
 11
-9907.3068189257
 21
11690.6078887676
 31
0.0
  0
LINE
  5
76
100
AcDbEntity
  8
L1_
  6
CONTINUOUS
 62
         7
100
AcDbLine
 10
-9905.2139241999
 20
11693.7328887676
 30
0.0
 11
-9902.6158479885
 21
11693.7328887676
 31
0.0
  0
LINE
  5
77
100
AcDbEntity
  8
L1_
  6
CONTINUOUS
 62
         7
100
AcDbLine
 10
-9911.6705485269
 20
11703.45788712
 30
0.0
 11
-9911.6705485269
 21
11692.1078887676
 31
0.0
  0
LINE
  5
78
100
AcDbEntity
  8
L1_
  6
CONTINUOUS
 62
         7
100
AcDbLine
 10
-9901.7498225847
 20
11693.2328887676
 30
0.0
 11
-9900.2342781281
 21
11690.6078887676
 31
0.0
  0
LINE
  5
79
100
AcDbEntity
  8
L1_
  6
CONTINUOUS
 62
         7
100
AcDbLine
 10
-9900.2342781281
 20
11788.1078887676
 30
0.0
 11
-9897.2705485269
 21
11788.1078887676
 31
0.0
  0
LINE
  5
7A
100
AcDbEntity
  8
L1_
  6
CONTINUOUS
 62
         7
100
AcDbLine
 10
-9905.6469369018
 20
11785.2328887676
 30
0.0
 11
-9907.3068189257
 21
11788.1078887676
 31
0.0
  0
LINE
  5
7B
100
AcDbEntity
  8
L1_
  6
CONTINUOUS
 62
         7
100
AcDbLine
 10
-9910.1705485269
 20
11788.1078887676
 30
0.0
 11
-9907.3068189257
 21
11788.1078887676
 31
0.0
  0
LINE
  5
7C
100
AcDbEntity
  8
L1_
  6
CONTINUOUS
 62
         7
100
AcDbLine
 10
-9901.894160152
 20
11785.2328887676
 30
0.0
 11
-9900.2342781281
 21
11788.1078887676
 31
0.0
  0
LINE
  5
7D
100
AcDbEntity
  8
L1_
  6
CONTINUOUS
 62
         7
100
AcDbLine
 10
-9911.6705485269
 20
11786.6078887676
 30
0.0
 11
-9911.6705485269
 21
11775.2578904152
 31
0.0
  0
LINE
  5
7E
100
AcDbEntity
  8
L1_
  6
CONTINUOUS
 62
         7
100
AcDbLine
 10
-10016.4705485269
 20
11996.2966555833
 30
0.0
 11
-10016.4705485269
 21
11960.4039840553
 31
0.0
  0
ARC
  5
7F
100
AcDbEntity
  8
L1_
  6
CONTINUOUS
 62
         7
100
AcDbCircle
 10
-10013.9705485269
 20
11996.2966555833
 30
0.0
 40
2.5
100
AcDbArc
 50
98.297222
 51
180.0
  0
ARC
  5
80
100
AcDbEntity
  8
L1_
  6
CONTINUOUS
 62
         7
100
AcDbCircle
 10
-10013.9705485269
 20
11960.4039840553
 30
0.0
 40
2.5
100
AcDbArc
 50
180.0
 51
261.702778
  0
ARC
  5
81
100
AcDbEntity
  8
L1_
  6
CONTINUOUS
 62
         7
100
AcDbCircle
 10
-10013.9705485269
 20
11757.3042245316
 30
0.0
 40
2.5
100
AcDbArc
 50
98.297222
 51
180.0
  0
LINE
  5
82
100
AcDbEntity
  8
L1_
  6
CONTINUOUS
 62
         7
100
AcDbLine
 10
-10016.4705485269
 20
11757.3042245316
 30
0.0
 11
-10016.4705485269
 21
11721.4115530036
 31
0.0
  0
ARC
  5
83
100
AcDbEntity
  8
L1_
  6
CONTINUOUS
 62
         7
100
AcDbCircle
 10
-10013.9705485269
 20
11721.4115530036
 30
0.0
 40
2.5
100
AcDbArc
 50
180.0
 51
261.702778
  0
LINE
  5
84
100
AcDbEntity
  8
L1_
  6
CENTER
 62
         1
100
AcDbLine
 10
-10181.2852676399
 20
12026.2680856205
 30
0.0
 11
-10218.8326032918
 21
11923.1076287561
 31
0.0
  0
LINE
  5
85
100
AcDbEntity
  8
L1_
  6
CENTER
 62
         1
100
AcDbLine
 10
-10208.0845878372
 20
11938.1253293236
 30
0.0
 11
-10217.4815140451
 21
11941.5455307569
 31
0.0
  0
POLYLINE
  5
87
100
AcDbEntity
  8
L1_
  6
CONTINUOUS
 62
         7
100
AcDb2dPolyline
 66
         1
 10
0.0
 20
0.0
 30
0.0
 70
         2
  0
VERTEX
  5
89
100
AcDbEntity
  8
L1_
  6
CONTINUOUS
 62
         7
100
AcDbVertex
100
AcDb2dVertex
 10
-10211.5859804395
 20
11943.124354213
 30
0.0
 70
         1
  0
VERTEX
  5
8B
100
AcDbEntity
  8
L1_
  6
CONTINUOUS
 62
         7
100
AcDbVertex
100
AcDb2dVertex
 10
-10211.9659815042
 20
11943.217325558
 30
0.0
 70
         1
  0
VERTEX
  5
8D
100
AcDbEntity
  8
L1_
  6
CONTINUOUS
 62
         7
100
AcDbVertex
100
AcDb2dVertex
 10
-10212.1430501716
 20
11943.2323270558
 30
0.0
 70
         1
  0
VERTEX
  5
8F
100
AcDbEntity
  8
L1_
  6
CONTINUOUS
 62
         7
100
AcDbVertex
100
AcDb2dVertex
 10
-10212.3276774417
 20
11943.2304939164
 30
0.0
 70
         1
  0
VERTEX
  5
91
100
AcDbEntity
  8
L1_
  6
CONTINUOUS
 62
         7
100
AcDbVertex
100
AcDb2dVertex
 10
-10212.5186842913
 20
11943.2106568653
 30
0.0
 70
         1
  0
VERTEX
  5
93
100
AcDbEntity
  8
L1_
  6
CONTINUOUS
 62
         7
100
AcDbVertex
100
AcDb2dVertex
 10
-10212.714669019
 20
11943.1719005939
 30
0.0
 70
         1
  0
VERTEX
  5
95
100
AcDbEntity
  8
L1_
  6
CONTINUOUS
 62
         7
100
AcDbVertex
100
AcDb2dVertex
 10
-10212.9140316511
 20
11943.1136187347
 30
0.0
 70
         1
  0
VERTEX
  5
97
100
AcDbEntity
  8
L1_
  6
CONTINUOUS
 62
         7
100
AcDbVertex
100
AcDb2dVertex
 10
-10213.1150108835
 20
11943.0355593742
 30
0.0
 70
         1
  0
VERTEX
  5
99
100
AcDbEntity
  8
L1_
  6
CONTINUOUS
 62
         7
100
AcDbVertex
100
AcDb2dVertex
 10
-10213.3157324103
 20
11942.9378568119
 30
0.0
 70
         1
  0
VERTEX
  5
9B
100
AcDbEntity
  8
L1_
  6
CONTINUOUS
 62
         7
100
AcDbVertex
100
AcDb2dVertex
 10
-10213.5142662802
 20
11942.8210460553
 30
0.0
 70
         1
  0
VERTEX
  5
9D
100
AcDbEntity
  8
L1_
  6
CONTINUOUS
 62
         7
100
AcDbVertex
100
AcDb2dVertex
 10
-10213.7086898598
 20
11942.6860578418
 30
0.0
 70
         1
  0
VERTEX
  5
9F
100
AcDbEntity
  8
L1_
  6
CONTINUOUS
 62
         7
100
AcDbVertex
100
AcDb2dVertex
 10
-10213.8971522305
 20
11942.5341936589
 30
0.0
 70
         1
  0
VERTEX
  5
A1
100
AcDbEntity
  8
L1_
  6
CONTINUOUS
 62
         7
100
AcDbVertex
100
AcDb2dVertex
 10
-10214.1374810309
 20
11942.3070111083
 30
0.0
 70
         1
  0
VERTEX
  5
A3
100
AcDbEntity
  8
L1_
  6
CONTINUOUS
 62
         7
100
AcDbVertex
100
AcDb2dVertex
 10
-10214.3604411106
 20
11942.0571024322
 30
0.0
 70
         1
  0
VERTEX
  5
A5
100
AcDbEntity
  8
L1_
  6
CONTINUOUS
 62
         7
100
AcDbVertex
100
AcDb2dVertex
 10
-10214.5632194648
 20
11941.7896653201
 30
0.0
 70
         1
  0
VERTEX
  5
A7
100
AcDbEntity
  8
L1_
  6
CONTINUOUS
 62
         7
100
AcDbVertex
100
AcDb2dVertex
 10
-10214.743879032
 20
11941.510118385
 30
0.0
 70
         1
  0
VERTEX
  5
A9
100
AcDbEntity
  8
L1_
  6
CONTINUOUS
 62
         7
100
AcDbVertex
100
AcDb2dVertex
 10
-10214.9013763063
 20
11941.2237858751
 30
0.0
 70
         1
  0
VERTEX
  5
AB
100
AcDbEntity
  8
L1_
  6
CONTINUOUS
 62
         7
100
AcDbVertex
100
AcDb2dVertex
 10
-10215.0355066013
 20
11940.9356310405
 30
0.0
 70
         1
  0
VERTEX
  5
AD
100
AcDbEntity
  8
L1_
  6
CONTINUOUS
 62
         7
100
AcDbVertex
100
AcDb2dVertex
 10
-10215.179905664
 20
11940.5533483646
 30
0.0
 70
         1
  0
VERTEX
  5
AF
100
AcDbEntity
  8
L1_
  6
CONTINUOUS
 62
         7
100
AcDbVertex
100
AcDb2dVertex
 10
-10215.2860284896
 20
11940.1843537542
 30
0.0
 70
         1
  0
VERTEX
  5
B1
100
AcDbEntity
  8
L1_
  6
CONTINUOUS
 62
         7
100
AcDbVertex
100
AcDb2dVertex
 10
-10215.3579756109
 20
11939.8349907138
 30
0.0
 70
         1
  0
VERTEX
  5
B3
100
AcDbEntity
  8
L1_
  6
CONTINUOUS
 62
         7
100
AcDbVertex
100
AcDb2dVertex
 10
-10215.4004701547
 20
11939.5093636757
 30
0.0
 70
         1
  0
VERTEX
  5
B5
100
AcDbEntity
  8
L1_
  6
CONTINUOUS
 62
         7
100
AcDbVertex
100
AcDb2dVertex
 10
-10215.4183642776
 20
11939.2096598823
 30
0.0
 70
         1
  0
VERTEX
  5
B7
100
AcDbEntity
  8
L1_
  6
CONTINUOUS
 62
         7
100
AcDbVertex
100
AcDb2dVertex
 10
-10215.4162914359
 20
11938.9365522686
 30
0.0
 70
         1
  0
VERTEX
  5
B9
100
AcDbEntity
  8
L1_
  6
CONTINUOUS
 62
         7
100
AcDbVertex
100
AcDb2dVertex
 10
-10215.3892781638
 20
11938.6099044168
 30
0.0
 70
         1
  0
VERTEX
  5
BB
100
AcDbEntity
  8
L1_
  6
CONTINUOUS
 62
         7
100
AcDbVertex
100
AcDb2dVertex
 10
-10215.342328152
 20
11938.3275199687
 30
0.0
 70
         1
  0
VERTEX
  5
BD
100
AcDbEntity
  8
L1_
  6
CONTINUOUS
 62
         7
100
AcDbVertex
100
AcDb2dVertex
 10
-10215.2823455988
 20
11938.0850414482
 30
0.0
 70
         1
  0
VERTEX
  5
BF
100
AcDbEntity
  8
L1_
  6
CONTINUOUS
 62
         7
100
AcDbVertex
100
AcDb2dVertex
 10
-10215.1896771808
 20
11937.8122388659
 30
0.0
 70
         1
  0
VERTEX
  5
C1
100
AcDbEntity
  8
L1_
  6
CONTINUOUS
 62
         7
100
AcDbVertex
100
AcDb2dVertex
 10
-10215.0917225078
 20
11937.5920865226
 30
0.0
 70
         1
  0
VERTEX
  5
C3
100
AcDbEntity
  8
L1_
  6
CONTINUOUS
 62
         7
100
AcDbVertex
100
AcDb2dVertex
 10
-10214.994200884
 20
11937.4143987976
 30
0.0
 70
         1
  0
VERTEX
  5
C5
100
AcDbEntity
  8
L1_
  6
CONTINUOUS
 62
         7
100
AcDbVertex
100
AcDb2dVertex
 10
-10214.8682617886
 20
11937.2260303401
 30
0.0
 70
         1
  0
VERTEX
  5
C7
100
AcDbEntity
  8
L1_
  6
CONTINUOUS
 62
         7
100
AcDbVertex
100
AcDb2dVertex
 10
-10214.714323352
 20
11937.0404234003
 30
0.0
 70
         1
  0
VERTEX
  5
C9
100
AcDbEntity
  8
L1_
  6
CONTINUOUS
 62
         7
100
AcDbVertex
100
AcDb2dVertex
 10
-10214.5836985095
 20
11936.9117640906
 30
0.0
 70
         1
  0
VERTEX
  5
CB
100
AcDbEntity
  8
L1_
  6
CONTINUOUS
 62
         7
100
AcDbVertex
100
AcDb2dVertex
 10
-10214.438672011
 20
11936.7933964415
 30
0.0
 70
         1
  0
VERTEX
  5
CD
100
AcDbEntity
  8
L1_
  6
CONTINUOUS
 62
         7
100
AcDbVertex
100
AcDb2dVertex
 10
-10214.2912120863
 20
11936.694978756
 30
0.0
 70
         1
  0
VERTEX
  5
CF
100
AcDbEntity
  8
L1_
  6
CONTINUOUS
 62
         7
100
AcDbVertex
100
AcDb2dVertex
 10
-10214.1144263945
 20
11936.6016651065
 30
0.0
 70
         1
  0
VERTEX
  5
D1
100
AcDbEntity
  8
L1_
  6
CONTINUOUS
 62
         7
100
AcDbVertex
100
AcDb2dVertex
 10
-10213.9801214428
 20
11936.5465058675
 30
0.0
 70
         1
  0
VERTEX
  5
D3
100
AcDbEntity
  8
L1_
  6
CONTINUOUS
 62
         7
100
AcDbVertex
100
AcDb2dVertex
 10
-10213.9801214428
 20
11936.5465058675
 30
0.0
 70
         1
  0
VERTEX
  5
D5
100
AcDbEntity
  8
L1_
  6
CONTINUOUS
 62
         7
100
AcDbVertex
100
AcDb2dVertex
 10
-10213.6001203781
 20
11936.4535345225
 30
0.0
 70
         1
  0
VERTEX
  5
D7
100
AcDbEntity
  8
L1_
  6
CONTINUOUS
 62
         7
100
AcDbVertex
100
AcDb2dVertex
 10
-10213.4230517108
 20
11936.4385330247
 30
0.0
 70
         1
  0
VERTEX
  5
D9
100
AcDbEntity
  8
L1_
  6
CONTINUOUS
 62
         7
100
AcDbVertex
100
AcDb2dVertex
 10
-10213.2384244406
 20
11936.4403661641
 30
0.0
 70
         1
  0
VERTEX
  5
DB
100
AcDbEntity
  8
L1_
  6
CONTINUOUS
 62
         7
100
AcDbVertex
100
AcDb2dVertex
 10
-10213.047417591
 20
11936.4602032152
 30
0.0
 70
         1
  0
VERTEX
  5
DD
100
AcDbEntity
  8
L1_
  6
CONTINUOUS
 62
         7
100
AcDbVertex
100
AcDb2dVertex
 10
-10212.8514328633
 20
11936.4989594866
 30
0.0
 70
         1
  0
VERTEX
  5
DF
100
AcDbEntity
  8
L1_
  6
CONTINUOUS
 62
         7
100
AcDbVertex
100
AcDb2dVertex
 10
-10212.6520702312
 20
11936.5572413458
 30
0.0
 70
         1
  0
VERTEX
  5
E1
100
AcDbEntity
  8
L1_
  6
CONTINUOUS
 62
         7
100
AcDbVertex
100
AcDb2dVertex
 10
-10212.4510909988
 20
11936.6353007063
 30
0.0
 70
         1
  0
VERTEX
  5
E3
100
AcDbEntity
  8
L1_
  6
CONTINUOUS
 62
         7
100
AcDbVertex
100
AcDb2dVertex
 10
-10212.2503694721
 20
11936.7330032686
 30
0.0
 70
         1
  0
VERTEX
  5
E5
100
AcDbEntity
  8
L1_
  6
CONTINUOUS
 62
         7
100
AcDbVertex
100
AcDb2dVertex
 10
-10212.0518356021
 20
11936.8498140253
 30
0.0
 70
         1
  0
VERTEX
  5
E7
100
AcDbEntity
  8
L1_
  6
CONTINUOUS
 62
         7
100
AcDbVertex
100
AcDb2dVertex
 10
-10211.8574120226
 20
11936.9848022387
 30
0.0
 70
         1
  0
VERTEX
  5
E9
100
AcDbEntity
  8
L1_
  6
CONTINUOUS
 62
         7
100
AcDbVertex
100
AcDb2dVertex
 10
-10211.6689496518
 20
11937.1366664216
 30
0.0
 70
         1
  0
VERTEX
  5
EB
100
AcDbEntity
  8
L1_
  6
CONTINUOUS
 62
         7
100
AcDbVertex
100
AcDb2dVertex
 10
-10211.4286208515
 20
11937.3638489722
 30
0.0
 70
         1
  0
VERTEX
  5
ED
100
AcDbEntity
  8
L1_
  6
CONTINUOUS
 62
         7
100
AcDbVertex
100
AcDb2dVertex
 10
-10211.2056607717
 20
11937.6137576483
 30
0.0
 70
         1
  0
VERTEX
  5
EF
100
AcDbEntity
  8
L1_
  6
CONTINUOUS
 62
         7
100
AcDbVertex
100
AcDb2dVertex
 10
-10211.0028824175
 20
11937.8811947604
 30
0.0
 70
         1
  0
VERTEX
  5
F1
100
AcDbEntity
  8
L1_
  6
CONTINUOUS
 62
         7
100
AcDbVertex
100
AcDb2dVertex
 10
-10210.8222228503
 20
11938.1607416955
 30
0.0
 70
         1
  0
VERTEX
  5
F3
100
AcDbEntity
  8
L1_
  6
CONTINUOUS
 62
         7
100
AcDbVertex
100
AcDb2dVertex
 10
-10210.6647255761
 20
11938.4470742054
 30
0.0
 70
         1
  0
VERTEX
  5
F5
100
AcDbEntity
  8
L1_
  6
CONTINUOUS
 62
         7
100
AcDbVertex
100
AcDb2dVertex
 10
-10210.530595281
 20
11938.73522904
 30
0.0
 70
         1
  0
VERTEX
  5
F7
100
AcDbEntity
  8
L1_
  6
CONTINUOUS
 62
         7
100
AcDbVertex
100
AcDb2dVertex
 10
-10210.3861962184
 20
11939.1175117159
 30
0.0
 70
         1
  0
VERTEX
  5
F9
100
AcDbEntity
  8
L1_
  6
CONTINUOUS
 62
         7
100
AcDbVertex
100
AcDb2dVertex
 10
-10210.2800733928
 20
11939.4865063263
 30
0.0
 70
         1
  0
VERTEX
  5
FB
100
AcDbEntity
  8
L1_
  6
CONTINUOUS
 62
         7
100
AcDbVertex
100
AcDb2dVertex
 10
-10210.2081262715
 20
11939.8358693667
 30
0.0
 70
         1
  0
VERTEX
  5
FD
100
AcDbEntity
  8
L1_
  6
CONTINUOUS
 62
         7
100
AcDbVertex
100
AcDb2dVertex
 10
-10210.1656317277
 20
11940.1614964048
 30
0.0
 70
         1
  0
VERTEX
  5
FF
100
AcDbEntity
  8
L1_
  6
CONTINUOUS
 62
         7
100
AcDbVertex
100
AcDb2dVertex
 10
-10210.1477376048
 20
11940.4612001982
 30
0.0
 70
         1
  0
VERTEX
  5
101
100
AcDbEntity
  8
L1_
  6
CONTINUOUS
 62
         7
100
AcDbVertex
100
AcDb2dVertex
 10
-10210.1498104464
 20
11940.7343078119
 30
0.0
 70
         1
  0
VERTEX
  5
103
100
AcDbEntity
  8
L1_
  6
CONTINUOUS
 62
         7
100
AcDbVertex
100
AcDb2dVertex
 10
-10210.1768237185
 20
11941.0609556637
 30
0.0
 70
         1
  0
VERTEX
  5
105
100
AcDbEntity
  8
L1_
  6
CONTINUOUS
 62
         7
100
AcDbVertex
100
AcDb2dVertex
 10
-10210.2237737304
 20
11941.3433401118
 30
0.0
 70
         1
  0
VERTEX
  5
107
100
AcDbEntity
  8
L1_
  6
CONTINUOUS
 62
         7
100
AcDbVertex
100
AcDb2dVertex
 10
-10210.2837562836
 20
11941.5858186323
 30
0.0
 70
         1
  0
VERTEX
  5
109
100
AcDbEntity
  8
L1_
  6
CONTINUOUS
 62
         7
100
AcDbVertex
100
AcDb2dVertex
 10
-10210.3764247015
 20
11941.8586212146
 30
0.0
 70
         1
  0
VERTEX
  5
10B
100
AcDbEntity
  8
L1_
  6
CONTINUOUS
 62
         7
100
AcDbVertex
100
AcDb2dVertex
 10
-10210.4743793745
 20
11942.0787735579
 30
0.0
 70
         1
  0
VERTEX
  5
10D
100
AcDbEntity
  8
L1_
  6
CONTINUOUS
 62
         7
100
AcDbVertex
100
AcDb2dVertex
 10
-10210.5719009983
 20
11942.2564612829
 30
0.0
 70
         1
  0
VERTEX
  5
10F
100
AcDbEntity
  8
L1_
  6
CONTINUOUS
 62
         7
100
AcDbVertex
100
AcDb2dVertex
 10
-10210.6978400937
 20
11942.4448297404
 30
0.0
 70
         1
  0
VERTEX
  5
111
100
AcDbEntity
  8
L1_
  6
CONTINUOUS
 62
         7
100
AcDbVertex
100
AcDb2dVertex
 10
-10210.8517785303
 20
11942.6304366802
 30
0.0
 70
         1
  0
VERTEX
  5
113
100
AcDbEntity
  8
L1_
  6
CONTINUOUS
 62
         7
100
AcDbVertex
100
AcDb2dVertex
 10
-10210.9824033728
 20
11942.7590959899
 30
0.0
 70
         1
  0
VERTEX
  5
115
100
AcDbEntity
  8
L1_
  6
CONTINUOUS
 62
         7
100
AcDbVertex
100
AcDb2dVertex
 10
-10211.1274298713
 20
11942.877463639
 30
0.0
 70
         1
  0
VERTEX
  5
117
100
AcDbEntity
  8
L1_
  6
CONTINUOUS
 62
         7
100
AcDbVertex
100
AcDb2dVertex
 10
-10211.274889796
 20
11942.9758813245
 30
0.0
 70
         1
  0
VERTEX
  5
119
100
AcDbEntity
  8
L1_
  6
CONTINUOUS
 62
         7
100
AcDbVertex
100
AcDb2dVertex
 10
-10211.4516754878
 20
11943.069194974
 30
0.0
 70
         1
  0
VERTEX
  5
11B
100
AcDbEntity
  8
L1_
  6
CONTINUOUS
 62
         7
100
AcDbVertex
100
AcDb2dVertex
 10
-10211.5859804395
 20
11943.124354213
 30
0.0
 70
         1
  0
SEQEND
  5
11D
100
AcDbEntity
  8
L1_
  6
CONTINUOUS
 62
         7
  0
POLYLINE
  5
11F
100
AcDbEntity
  8
L1_
  6
CONTINUOUS
 62
         7
100
AcDb3dPolyline
 66
         1
 10
0.0
 20
0.0
 30
0.0
 70
         8
  0
VERTEX
  5
121
100
AcDbEntity
  8
L1_
  6
CONTINUOUS
 62
         7
100
AcDbVertex
100
AcDb3dPolylineVertex
 10
-10185.4604815404
 20
12019.4108327284
 30
0.0
 70
        32
  0
VERTEX
  5
123
100
AcDbEntity
  8
L1_
  6
CONTINUOUS
 62
         7
100
AcDbVertex
100
AcDb3dPolylineVertex
 10
-10185.4604815404
 20
12019.4108327284
 30
0.0
 70
        32
  0
SEQEND
  5
125
100
AcDbEntity
  8
L1_
  6
CONTINUOUS
 62
         7
  0
LINE
  5
126
100
AcDbEntity
  8
L1_
  6
CENTER
 62
         1
100
AcDbLine
 10
-10179.970302123
 20
12015.1551088818
 30
0.0
 11
-10189.3672283308
 21
12018.575310315
 31
0.0
  0
POLYLINE
  5
128
100
AcDbEntity
  8
L1_
  6
CONTINUOUS
 62
         7
100
AcDb2dPolyline
 66
         1
 10
0.0
 20
0.0
 30
0.0
 70
         2
  0
VERTEX
  5
12A
100
AcDbEntity
  8
L1_
  6
CONTINUOUS
 62
         7
100
AcDbVertex
100
AcDb2dVertex
 10
-10183.4716947252
 20
12020.1541337711
 30
0.0
 70
         1
  0
VERTEX
  5
12C
100
AcDbEntity
  8
L1_
  6
CONTINUOUS
 62
         7
100
AcDbVertex
100
AcDb2dVertex
 10
-10183.8516957899
 20
12020.2471051161
 30
0.0
 70
         1
  0
VERTEX
  5
12E
100
AcDbEntity
  8
L1_
  6
CONTINUOUS
 62
         7
100
AcDbVertex
100
AcDb2dVertex
 10
-10184.0287644573
 20
12020.262106614
 30
0.0
 70
         1
  0
VERTEX
  5
130
100
AcDbEntity
  8
L1_
  6
CONTINUOUS
 62
         7
100
AcDbVertex
100
AcDb2dVertex
 10
-10184.2133917274
 20
12020.2602734745
 30
0.0
 70
         1
  0
VERTEX
  5
132
100
AcDbEntity
  8
L1_
  6
CONTINUOUS
 62
         7
100
AcDbVertex
100
AcDb2dVertex
 10
-10184.404398577
 20
12020.2404364234
 30
0.0
 70
         1
  0
VERTEX
  5
134
100
AcDbEntity
  8
L1_
  6
CONTINUOUS
 62
         7
100
AcDbVertex
100
AcDb2dVertex
 10
-10184.6003833048
 20
12020.2016801521
 30
0.0
 70
         1
  0
VERTEX
  5
136
100
AcDbEntity
  8
L1_
  6
CONTINUOUS
 62
         7
100
AcDbVertex
100
AcDb2dVertex
 10
-10184.7997459368
 20
12020.1433982929
 30
0.0
 70
         1
  0
VERTEX
  5
138
100
AcDbEntity
  8
L1_
  6
CONTINUOUS
 62
         7
100
AcDbVertex
100
AcDb2dVertex
 10
-10185.0007251692
 20
12020.0653389324
 30
0.0
 70
         1
  0
VERTEX
  5
13A
100
AcDbEntity
  8
L1_
  6
CONTINUOUS
 62
         7
100
AcDbVertex
100
AcDb2dVertex
 10
-10185.201446696
 20
12019.96763637
 30
0.0
 70
         1
  0
VERTEX
  5
13C
100
AcDbEntity
  8
L1_
  6
CONTINUOUS
 62
         7
100
AcDbVertex
100
AcDb2dVertex
 10
-10185.3999805659
 20
12019.8508256134
 30
0.0
 70
         1
  0
VERTEX
  5
13E
100
AcDbEntity
  8
L1_
  6
CONTINUOUS
 62
         7
100
AcDbVertex
100
AcDb2dVertex
 10
-10185.5944041455
 20
12019.7158374
 30
0.0
 70
         1
  0
VERTEX
  5
140
100
AcDbEntity
  8
L1_
  6
CONTINUOUS
 62
         7
100
AcDbVertex
100
AcDb2dVertex
 10
-10185.7828665162
 20
12019.563973217
 30
0.0
 70
         1
  0
VERTEX
  5
142
100
AcDbEntity
  8
L1_
  6
CONTINUOUS
 62
         7
100
AcDbVertex
100
AcDb2dVertex
 10
-10186.0231953166
 20
12019.3367906664
 30
0.0
 70
         1
  0
VERTEX
  5
144
100
AcDbEntity
  8
L1_
  6
CONTINUOUS
 62
         7
100
AcDbVertex
100
AcDb2dVertex
 10
-10186.2461553963
 20
12019.0868819903
 30
0.0
 70
         1
  0
VERTEX
  5
146
100
AcDbEntity
  8
L1_
  6
CONTINUOUS
 62
         7
100
AcDbVertex
100
AcDb2dVertex
 10
-10186.4489337505
 20
12018.8194448782
 30
0.0
 70
         1
  0
VERTEX
  5
148
100
AcDbEntity
  8
L1_
  6
CONTINUOUS
 62
         7
100
AcDbVertex
100
AcDb2dVertex
 10
-10186.6295933177
 20
12018.5398979431
 30
0.0
 70
         1
  0
VERTEX
  5
14A
100
AcDbEntity
  8
L1_
  6
CONTINUOUS
 62
         7
100
AcDbVertex
100
AcDb2dVertex
 10
-10186.787090592
 20
12018.2535654333
 30
0.0
 70
         1
  0
VERTEX
  5
14C
100
AcDbEntity
  8
L1_
  6
CONTINUOUS
 62
         7
100
AcDbVertex
100
AcDb2dVertex
 10
-10186.921220887
 20
12017.9654105987
 30
0.0
 70
         1
  0
VERTEX
  5
14E
100
AcDbEntity
  8
L1_
  6
CONTINUOUS
 62
         7
100
AcDbVertex
100
AcDb2dVertex
 10
-10187.0656199497
 20
12017.5831279227
 30
0.0
 70
         1
  0
VERTEX
  5
150
100
AcDbEntity
  8
L1_
  6
CONTINUOUS
 62
         7
100
AcDbVertex
100
AcDb2dVertex
 10
-10187.1717427753
 20
12017.2141333123
 30
0.0
 70
         1
  0
VERTEX
  5
152
100
AcDbEntity
  8
L1_
  6
CONTINUOUS
 62
         7
100
AcDbVertex
100
AcDb2dVertex
 10
-10187.2436898966
 20
12016.8647702719
 30
0.0
 70
         1
  0
VERTEX
  5
154
100
AcDbEntity
  8
L1_
  6
CONTINUOUS
 62
         7
100
AcDbVertex
100
AcDb2dVertex
 10
-10187.2861844404
 20
12016.5391432339
 30
0.0
 70
         1
  0
VERTEX
  5
156
100
AcDbEntity
  8
L1_
  6
CONTINUOUS
 62
         7
100
AcDbVertex
100
AcDb2dVertex
 10
-10187.3040785633
 20
12016.2394394404
 30
0.0
 70
         1
  0
VERTEX
  5
158
100
AcDbEntity
  8
L1_
  6
CONTINUOUS
 62
         7
100
AcDbVertex
100
AcDb2dVertex
 10
-10187.3020057216
 20
12015.9663318267
 30
0.0
 70
         1
  0
VERTEX
  5
15A
100
AcDbEntity
  8
L1_
  6
CONTINUOUS
 62
         7
100
AcDbVertex
100
AcDb2dVertex
 10
-10187.2749924495
 20
12015.639683975
 30
0.0
 70
         1
  0
VERTEX
  5
15C
100
AcDbEntity
  8
L1_
  6
CONTINUOUS
 62
         7
100
AcDbVertex
100
AcDb2dVertex
 10
-10187.2280424377
 20
12015.3572995269
 30
0.0
 70
         1
  0
VERTEX
  5
15E
100
AcDbEntity
  8
L1_
  6
CONTINUOUS
 62
         7
100
AcDbVertex
100
AcDb2dVertex
 10
-10187.1680598845
 20
12015.1148210063
 30
0.0
 70
         1
  0
VERTEX
  5
160
100
AcDbEntity
  8
L1_
  6
CONTINUOUS
 62
         7
100
AcDbVertex
100
AcDb2dVertex
 10
-10187.0753914665
 20
12014.842018424
 30
0.0
 70
         1
  0
VERTEX
  5
162
100
AcDbEntity
  8
L1_
  6
CONTINUOUS
 62
         7
100
AcDbVertex
100
AcDb2dVertex
 10
-10186.9774367935
 20
12014.6218660807
 30
0.0
 70
         1
  0
VERTEX
  5
164
100
AcDbEntity
  8
L1_
  6
CONTINUOUS
 62
         7
100
AcDbVertex
100
AcDb2dVertex
 10
-10186.8799151697
 20
12014.4441783557
 30
0.0
 70
         1
  0
VERTEX
  5
166
100
AcDbEntity
  8
L1_
  6
CONTINUOUS
 62
         7
100
AcDbVertex
100
AcDb2dVertex
 10
-10186.7539760743
 20
12014.2558098982
 30
0.0
 70
         1
  0
VERTEX
  5
168
100
AcDbEntity
  8
L1_
  6
CONTINUOUS
 62
         7
100
AcDbVertex
100
AcDb2dVertex
 10
-10186.6000376378
 20
12014.0702029584
 30
0.0
 70
         1
  0
VERTEX
  5
16A
100
AcDbEntity
  8
L1_
  6
CONTINUOUS
 62
         7
100
AcDbVertex
100
AcDb2dVertex
 10
-10186.4694127952
 20
12013.9415436487
 30
0.0
 70
         1
  0
VERTEX
  5
16C
100
AcDbEntity
  8
L1_
  6
CONTINUOUS
 62
         7
100
AcDbVertex
100
AcDb2dVertex
 10
-10186.3243862967
 20
12013.8231759997
 30
0.0
 70
         1
  0
VERTEX
  5
16E
100
AcDbEntity
  8
L1_
  6
CONTINUOUS
 62
         7
100
AcDbVertex
100
AcDb2dVertex
 10
-10186.176926372
 20
12013.7247583141
 30
0.0
 70
         1
  0
VERTEX
  5
170
100
AcDbEntity
  8
L1_
  6
CONTINUOUS
 62
         7
100
AcDbVertex
100
AcDb2dVertex
 10
-10186.0001406802
 20
12013.6314446646
 30
0.0
 70
         1
  0
VERTEX
  5
172
100
AcDbEntity
  8
L1_
  6
CONTINUOUS
 62
         7
100
AcDbVertex
100
AcDb2dVertex
 10
-10185.8658357285
 20
12013.5762854256
 30
0.0
 70
         1
  0
VERTEX
  5
174
100
AcDbEntity
  8
L1_
  6
CONTINUOUS
 62
         7
100
AcDbVertex
100
AcDb2dVertex
 10
-10185.8658357285
 20
12013.5762854256
 30
0.0
 70
         1
  0
VERTEX
  5
176
100
AcDbEntity
  8
L1_
  6
CONTINUOUS
 62
         7
100
AcDbVertex
100
AcDb2dVertex
 10
-10185.4858346638
 20
12013.4833140807
 30
0.0
 70
         1
  0
VERTEX
  5
178
100
AcDbEntity
  8
L1_
  6
CONTINUOUS
 62
         7
100
AcDbVertex
100
AcDb2dVertex
 10
-10185.3087659965
 20
12013.4683125828
 30
0.0
 70
         1
  0
VERTEX
  5
17A
100
AcDbEntity
  8
L1_
  6
CONTINUOUS
 62
         7
100
AcDbVertex
100
AcDb2dVertex
 10
-10185.1241387264
 20
12013.4701457223
 30
0.0
 70
         1
  0
VERTEX
  5
17C
100
AcDbEntity
  8
L1_
  6
CONTINUOUS
 62
         7
100
AcDbVertex
100
AcDb2dVertex
 10
-10184.9331318767
 20
12013.4899827734
 30
0.0
 70
         1
  0
VERTEX
  5
17E
100
AcDbEntity
  8
L1_
  6
CONTINUOUS
 62
         7
100
AcDbVertex
100
AcDb2dVertex
 10
-10184.737147149
 20
12013.5287390447
 30
0.0
 70
         1
  0
VERTEX
  5
180
100
AcDbEntity
  8
L1_
  6
CONTINUOUS
 62
         7
100
AcDbVertex
100
AcDb2dVertex
 10
-10184.5377845169
 20
12013.5870209039
 30
0.0
 70
         1
  0
VERTEX
  5
182
100
AcDbEntity
  8
L1_
  6
CONTINUOUS
 62
         7
100
AcDbVertex
100
AcDb2dVertex
 10
-10184.3368052845
 20
12013.6650802644
 30
0.0
 70
         1
  0
VERTEX
  5
184
100
AcDbEntity
  8
L1_
  6
CONTINUOUS
 62
         7
100
AcDbVertex
100
AcDb2dVertex
 10
-10184.1360837578
 20
12013.7627828268
 30
0.0
 70
         1
  0
VERTEX
  5
186
100
AcDbEntity
  8
L1_
  6
CONTINUOUS
 62
         7
100
AcDbVertex
100
AcDb2dVertex
 10
-10183.9375498878
 20
12013.8795935834
 30
0.0
 70
         1
  0
VERTEX
  5
188
100
AcDbEntity
  8
L1_
  6
CONTINUOUS
 62
         7
100
AcDbVertex
100
AcDb2dVertex
 10
-10183.7431263083
 20
12014.0145817968
 30
0.0
 70
         1
  0
VERTEX
  5
18A
100
AcDbEntity
  8
L1_
  6
CONTINUOUS
 62
         7
100
AcDbVertex
100
AcDb2dVertex
 10
-10183.5546639376
 20
12014.1664459797
 30
0.0
 70
         1
  0
VERTEX
  5
18C
100
AcDbEntity
  8
L1_
  6
CONTINUOUS
 62
         7
100
AcDbVertex
100
AcDb2dVertex
 10
-10183.3143351372
 20
12014.3936285303
 30
0.0
 70
         1
  0
VERTEX
  5
18E
100
AcDbEntity
  8
L1_
  6
CONTINUOUS
 62
         7
100
AcDbVertex
100
AcDb2dVertex
 10
-10183.0913750575
 20
12014.6435372065
 30
0.0
 70
         1
  0
VERTEX
  5
190
100
AcDbEntity
  8
L1_
  6
CONTINUOUS
 62
         7
100
AcDbVertex
100
AcDb2dVertex
 10
-10182.8885967032
 20
12014.9109743186
 30
0.0
 70
         1
  0
VERTEX
  5
192
100
AcDbEntity
  8
L1_
  6
CONTINUOUS
 62
         7
100
AcDbVertex
100
AcDb2dVertex
 10
-10182.707937136
 20
12015.1905212537
 30
0.0
 70
         1
  0
VERTEX
  5
194
100
AcDbEntity
  8
L1_
  6
CONTINUOUS
 62
         7
100
AcDbVertex
100
AcDb2dVertex
 10
-10182.5504398618
 20
12015.4768537635
 30
0.0
 70
         1
  0
VERTEX
  5
196
100
AcDbEntity
  8
L1_
  6
CONTINUOUS
 62
         7
100
AcDbVertex
100
AcDb2dVertex
 10
-10182.4163095667
 20
12015.7650085981
 30
0.0
 70
         1
  0
VERTEX
  5
198
100
AcDbEntity
  8
L1_
  6
CONTINUOUS
 62
         7
100
AcDbVertex
100
AcDb2dVertex
 10
-10182.2719105041
 20
12016.1472912741
 30
0.0
 70
         1
  0
VERTEX
  5
19A
100
AcDbEntity
  8
L1_
  6
CONTINUOUS
 62
         7
100
AcDbVertex
100
AcDb2dVertex
 10
-10182.1657876785
 20
12016.5162858845
 30
0.0
 70
         1
  0
VERTEX
  5
19C
100
AcDbEntity
  8
L1_
  6
CONTINUOUS
 62
         7
100
AcDbVertex
100
AcDb2dVertex
 10
-10182.0938405572
 20
12016.8656489249
 30
0.0
 70
         1
  0
VERTEX
  5
19E
100
AcDbEntity
  8
L1_
  6
CONTINUOUS
 62
         7
100
AcDbVertex
100
AcDb2dVertex
 10
-10182.0513460134
 20
12017.1912759629
 30
0.0
 70
         1
  0
VERTEX
  5
1A0
100
AcDbEntity
  8
L1_
  6
CONTINUOUS
 62
         7
100
AcDbVertex
100
AcDb2dVertex
 10
-10182.0334518905
 20
12017.4909797564
 30
0.0
 70
         1
  0
VERTEX
  5
1A2
100
AcDbEntity
  8
L1_
  6
CONTINUOUS
 62
         7
100
AcDbVertex
100
AcDb2dVertex
 10
-10182.0355247321
 20
12017.7640873701
 30
0.0
 70
         1
  0
VERTEX
  5
1A4
100
AcDbEntity
  8
L1_
  6
CONTINUOUS
 62
         7
100
AcDbVertex
100
AcDb2dVertex
 10
-10182.0625380042
 20
12018.0907352218
 30
0.0
 70
         1
  0
VERTEX
  5
1A6
100
AcDbEntity
  8
L1_
  6
CONTINUOUS
 62
         7
100
AcDbVertex
100
AcDb2dVertex
 10
-10182.1094880161
 20
12018.3731196699
 30
0.0
 70
         1
  0
VERTEX
  5
1A8
100
AcDbEntity
  8
L1_
  6
CONTINUOUS
 62
         7
100
AcDbVertex
100
AcDb2dVertex
 10
-10182.1694705693
 20
12018.6155981905
 30
0.0
 70
         1
  0
VERTEX
  5
1AA
100
AcDbEntity
  8
L1_
  6
CONTINUOUS
 62
         7
100
AcDbVertex
100
AcDb2dVertex
 10
-10182.2621389872
 20
12018.8884007728
 30
0.0
 70
         1
  0
VERTEX
  5
1AC
100
AcDbEntity
  8
L1_
  6
CONTINUOUS
 62
         7
100
AcDbVertex
100
AcDb2dVertex
 10
-10182.3600936602
 20
12019.1085531161
 30
0.0
 70
         1
  0
VERTEX
  5
1AE
100
AcDbEntity
  8
L1_
  6
CONTINUOUS
 62
         7
100
AcDbVertex
100
AcDb2dVertex
 10
-10182.4576152841
 20
12019.286240841
 30
0.0
 70
         1
  0
VERTEX
  5
1B0
100
AcDbEntity
  8
L1_
  6
CONTINUOUS
 62
         7
100
AcDbVertex
100
AcDb2dVertex
 10
-10182.5835543794
 20
12019.4746092985
 30
0.0
 70
         1
  0
VERTEX
  5
1B2
100
AcDbEntity
  8
L1_
  6
CONTINUOUS
 62
         7
100
AcDbVertex
100
AcDb2dVertex
 10
-10182.737492816
 20
12019.6602162384
 30
0.0
 70
         1
  0
VERTEX
  5
1B4
100
AcDbEntity
  8
L1_
  6
CONTINUOUS
 62
         7
100
AcDbVertex
100
AcDb2dVertex
 10
-10182.8681176585
 20
12019.7888755481
 30
0.0
 70
         1
  0
VERTEX
  5
1B6
100
AcDbEntity
  8
L1_
  6
CONTINUOUS
 62
         7
100
AcDbVertex
100
AcDb2dVertex
 10
-10183.013144157
 20
12019.9072431971
 30
0.0
 70
         1
  0
VERTEX
  5
1B8
100
AcDbEntity
  8
L1_
  6
CONTINUOUS
 62
         7
100
AcDbVertex
100
AcDb2dVertex
 10
-10183.1606040817
 20
12020.0056608827
 30
0.0
 70
         1
  0
VERTEX
  5
1BA
100
AcDbEntity
  8
L1_
  6
CONTINUOUS
 62
         7
100
AcDbVertex
100
AcDb2dVertex
 10
-10183.3373897735
 20
12020.0989745322
 30
0.0
 70
         1
  0
VERTEX
  5
1BC
100
AcDbEntity
  8
L1_
  6
CONTINUOUS
 62
         7
100
AcDbVertex
100
AcDb2dVertex
 10
-10183.4716947252
 20
12020.1541337711
 30
0.0
 70
         1
  0
SEQEND
  5
1BE
100
AcDbEntity
  8
L1_
  6
CONTINUOUS
 62
         7
  0
LINE
  5
1BF
100
AcDbEntity
  8
L1_
  6
CENTER
 62
         1
100
AcDbLine
 10
-9611.0927000608
 20
12028.5673688257
 30
0.0
 11
-9571.7296366238
 21
11920.4182408721
 31
0.0
  0
LINE
  5
1C0
100
AcDbEntity
  8
L1_
  6
DASHED
 62
         2
100
AcDbLine
 10
-9589.7675198787
 20
11965.1526405494
 30
0.0
 11
-9580.2124972298
 21
11938.9004315794
 31
0.0
  0
LINE
  5
1C1
100
AcDbEntity
  8
L1_
  6
DASHED
 62
         2
100
AcDbLine
 10
-9579.1049050452
 20
11934.8340155219
 30
0.0
 11
-9580.5413896471
 21
11938.7807245292
 31
0.0
  0
LINE
  5
1C2
100
AcDbEntity
  8
L1_
  6
DASHED
 62
         2
100
AcDbLine
 10
-9576.782619164
 20
11940.1488051025
 30
0.0
 11
-9580.5413896471
 21
11938.7807245292
 31
0.0
  0
LINE
  5
1C3
100
AcDbEntity
  8
L1_
  6
DASHED
 62
         2
100
AcDbLine
 10
-9575.346134562
 20
11936.2020960952
 30
0.0
 11
-9576.782619164
 21
11940.1488051025
 31
0.0
  0
LINE
  5
1C4
100
AcDbEntity
  8
L1_
  6
DASHED
 62
         2
100
AcDbLine
 10
-9586.6665342301
 20
11966.2813070224
 30
0.0
 11
-9577.1115115813
 21
11940.0290980523
 31
0.0
  0
LINE
  5
1C5
100
AcDbEntity
  8
L1_
  6
DASHED
 62
         2
100
AcDbLine
 10
-9610.2842433775
 20
12020.4985435435
 30
0.0
 11
-9608.8477587755
 21
12016.5518345362
 31
0.0
  0
LINE
  5
1C6
100
AcDbEntity
  8
L1_
  6
DASHED
 62
         2
100
AcDbLine
 10
-9608.5188663582
 20
12016.6715415863
 30
0.0
 11
-9598.9638437094
 21
11990.4193326163
 31
0.0
  0
LINE
  5
1C7
100
AcDbEntity
  8
L1_
  6
DASHED
 62
         2
100
AcDbLine
 10
-9606.5254728943
 20
12021.8666241168
 30
0.0
 11
-9605.0889882924
 21
12017.9199151095
 31
0.0
  0
LINE
  5
1C8
100
AcDbEntity
  8
L1_
  6
DASHED
 62
         2
100
AcDbLine
 10
-9608.8477587755
 20
12016.5518345362
 30
0.0
 11
-9605.0889882924
 21
12017.9199151095
 31
0.0
  0
LINE
  5
1C9
100
AcDbEntity
  8
L1_
  6
DASHED
 62
         2
100
AcDbLine
 10
-9605.4178807096
 20
12017.8002080593
 30
0.0
 11
-9595.8628580608
 21
11991.5479990892
 31
0.0
  0
LINE
  5
1CA
100
AcDbEntity
  8
L1_
  6
CONTINUOUS
 62
         7
100
AcDbLine
 10
-9895.2705485269
 20
11704.4328887676
 30
0.0
 11
-9880.6185485269
 21
11704.4328887676
 31
0.0
  0
LINE
  5
1CB
100
AcDbEntity
  8
L1_
  6
CONTINUOUS
 62
         7
100
AcDbLine
 10
-9895.2705485269
 20
11774.2828887676
 30
0.0
 11
-9880.6185485269
 21
11774.2828887676
 31
0.0
  0
LINE
  5
1CC
100
AcDbEntity
  8
L1_
  6
CONTINUOUS
 62
         7
100
AcDbLine
 10
-9911.6705485269
 20
11693.1078887676
 30
0.0
 11
-9911.6705485269
 21
11692.1078887676
 31
0.0
  0
LINE
  5
1CD
100
AcDbEntity
  8
L1_
  6
CONTINUOUS
 62
         7
100
AcDbLine
 10
-9895.7705485269
 20
11703.9328887676
 30
0.0
 11
-9895.7705485269
 21
11692.1078887676
 31
0.0
  0
ARC
  5
1CE
100
AcDbEntity
  8
L1_
  6
CONTINUOUS
 62
         7
100
AcDbCircle
 10
-9910.1705485269
 20
11692.1078887676
 30
0.0
 40
1.5
100
AcDbArc
 50
180.0
 51
270.0
  0
ARC
  5
1CF
100
AcDbEntity
  8
L1_
  6
CONTINUOUS
 62
         7
100
AcDbCircle
 10
-9897.2705485269
 20
11692.1078887676
 30
0.0
 40
1.5
100
AcDbArc
 50
270.0
 51
360.0
  0
ARC
  5
1D0
100
AcDbEntity
  8
L1_
  6
CONTINUOUS
 62
         7
100
AcDbCircle
 10
-9910.1705485269
 20
11786.6078887676
 30
0.0
 40
1.5
100
AcDbArc
 50
90.0
 51
180.0
  0
ARC
  5
1D1
100
AcDbEntity
  8
L1_
  6
CONTINUOUS
 62
         7
100
AcDbCircle
 10
-9897.2705485269
 20
11786.6078887676
 30
0.0
 40
1.5
100
AcDbArc
 50
0.0
 51
90.0
  0
LINE
  5
1D2
100
AcDbEntity
  8
L1_
  6
CONTINUOUS
 62
         7
100
AcDbLine
 10
-9898.2705485269
 20
11690.6078887676
 30
0.0
 11
-9897.2705485269
 21
11690.6078887676
 31
0.0
  0
LINE
  5
1D3
100
AcDbEntity
  8
L1_
  6
CONTINUOUS
 62
         7
100
AcDbLine
 10
-9910.1705485269
 20
11690.6078887676
 30
0.0
 11
-9909.1705485269
 21
11690.6078887676
 31
0.0
  0
LINE
  5
1D4
100
AcDbEntity
  8
L1_
  6
CONTINUOUS
 62
         7
100
AcDbLine
 10
-9895.7705485269
 20
11786.6078887676
 30
0.0
 11
-9895.7705485269
 21
11774.7828887676
 31
0.0
  0
LINE
  5
1D5
100
AcDbEntity
  8
L1_
  6
CONTINUOUS
 62
         7
100
AcDbLine
 10
-9898.2705485269
 20
11788.1078887676
 30
0.0
 11
-9897.2705485269
 21
11788.1078887676
 31
0.0
  0
LINE
  5
1D6
100
AcDbEntity
  8
L1_
  6
CONTINUOUS
 62
         7
100
AcDbLine
 10
-9910.1705485269
 20
11788.1078887676
 30
0.0
 11
-9909.1705485269
 21
11788.1078887676
 31
0.0
  0
LINE
  5
1D7
100
AcDbEntity
  8
L1_
  6
CONTINUOUS
 62
         7
100
AcDbLine
 10
-9911.6705485269
 20
11786.6078887676
 30
0.0
 11
-9911.6705485269
 21
11785.6078887676
 31
0.0
  0
ARC
  5
1D8
100
AcDbEntity
  8
L1_
  6
CONTINUOUS
 62
         7
100
AcDbCircle
 10
-9895.2705485269
 20
11774.7828887676
 30
0.0
 40
0.5
100
AcDbArc
 50
180.0
 51
270.0
  0
ARC
  5
1D9
100
AcDbEntity
  8
L1_
  6
CONTINUOUS
 62
         7
100
AcDbCircle
 10
-9895.2705485269
 20
11703.9328887676
 30
0.0
 40
0.5
100
AcDbArc
 50
90.0
 51
180.0
  0
ARC
  5
1DA
100
AcDbEntity
  8
L1_
  6
CONTINUOUS
 62
         7
100
AcDbCircle
 10
-9895.2705485269
 20
11942.9253198193
 30
0.0
 40
0.5
100
AcDbArc
 50
90.0
 51
180.0
  0
LINE
  5
1DB
100
AcDbEntity
  8
L1_
  6
CONTINUOUS
 62
         7
100
AcDbLine
 10
-9895.2705485269
 20
11943.4253198193
 30
0.0
 11
-9880.8185485269
 21
11943.4253198193
 31
0.0
  0
LINE
  5
1DC
100
AcDbEntity
  8
L1_
  6
CONTINUOUS
 62
         7
100
AcDbLine
 10
-9895.2705485269
 20
12013.2753198193
 30
0.0
 11
-9880.8185485269
 21
12013.2753198193
 31
0.0
  0
ARC
  5
1DD
100
AcDbEntity
  8
L1_
  6
CONTINUOUS
 62
         7
100
AcDbCircle
 10
-9895.2705485269
 20
12013.7753198193
 30
0.0
 40
0.5
100
AcDbArc
 50
180.0
 51
270.0
  0
LINE
  5
1DE
100
AcDbEntity
  8
L1_
  6
CONTINUOUS
 62
         7
100
AcDbLine
 10
-9911.6705485269
 20
12025.6003198193
 30
0.0
 11
-9911.6705485269
 21
12024.6003198193
 31
0.0
  0
LINE
  5
1DF
100
AcDbEntity
  8
L1_
  6
CONTINUOUS
 62
         7
100
AcDbLine
 10
-9910.1705485269
 20
12027.1003198193
 30
0.0
 11
-9909.1705485269
 21
12027.1003198193
 31
0.0
  0
LINE
  5
1E0
100
AcDbEntity
  8
L1_
  6
CONTINUOUS
 62
         7
100
AcDbLine
 10
-9898.2705485269
 20
12027.1003198193
 30
0.0
 11
-9897.2705485269
 21
12027.1003198193
 31
0.0
  0
LINE
  5
1E1
100
AcDbEntity
  8
L1_
  6
CONTINUOUS
 62
         7
100
AcDbLine
 10
-9895.7705485269
 20
12025.6003198193
 30
0.0
 11
-9895.7705485269
 21
12013.7753198193
 31
0.0
  0
LINE
  5
1E2
100
AcDbEntity
  8
L1_
  6
CONTINUOUS
 62
         7
100
AcDbLine
 10
-9910.1705485269
 20
11929.6003198193
 30
0.0
 11
-9909.1705485269
 21
11929.6003198193
 31
0.0
  0
LINE
  5
1E3
100
AcDbEntity
  8
L1_
  6
CONTINUOUS
 62
         7
100
AcDbLine
 10
-9898.2705485269
 20
11929.6003198193
 30
0.0
 11
-9897.2705485269
 21
11929.6003198193
 31
0.0
  0
ARC
  5
1E4
100
AcDbEntity
  8
L1_
  6
CONTINUOUS
 62
         7
100
AcDbCircle
 10
-9897.2705485269
 20
12025.6003198193
 30
0.0
 40
1.5
100
AcDbArc
 50
0.0
 51
90.0
  0
ARC
  5
1E5
100
AcDbEntity
  8
L1_
  6
CONTINUOUS
 62
         7
100
AcDbCircle
 10
-9910.1705485269
 20
12025.6003198193
 30
0.0
 40
1.5
100
AcDbArc
 50
90.0
 51
180.0
  0
ARC
  5
1E6
100
AcDbEntity
  8
L1_
  6
CONTINUOUS
 62
         7
100
AcDbCircle
 10
-9897.2705485269
 20
11931.1003198193
 30
0.0
 40
1.5
100
AcDbArc
 50
270.0
 51
360.0
  0
ARC
  5
1E7
100
AcDbEntity
  8
L1_
  6
CONTINUOUS
 62
         7
100
AcDbCircle
 10
-9910.1705485269
 20
11931.1003198193
 30
0.0
 40
1.5
100
AcDbArc
 50
180.0
 51
270.0
  0
LINE
  5
1E8
100
AcDbEntity
  8
L1_
  6
CONTINUOUS
 62
         7
100
AcDbLine
 10
-9895.7705485269
 20
11942.9253198193
 30
0.0
 11
-9895.7705485269
 21
11931.1003198193
 31
0.0
  0
LINE
  5
1E9
100
AcDbEntity
  8
L1_
  6
CONTINUOUS
 62
         7
100
AcDbLine
 10
-9911.6705485269
 20
11932.1003198193
 30
0.0
 11
-9911.6705485269
 21
11931.1003198193
 31
0.0
  0
LINE
  5
1EA
100
AcDbEntity
  8
L1_
  6
CONTINUOUS
 62
         7
100
AcDbLine
 10
-9879.8185485269
 20
12012.2753198193
 30
0.0
 11
-9879.8185485269
 21
11948.8503198193
 31
0.0
  0
CIRCLE
  5
1EB
100
AcDbEntity
  8
L1_
  6
CONTINUOUS
 62
         7
100
AcDbCircle
 10
-9592.8151889697
 20
11978.3503198193
 30
0.0
 40
34.925
  0
LINE
  5
1EC
100
AcDbEntity
  8
L1_
  6
CONTINUOUS
 62
         7
100
AcDbLine
 10
-10161.025908084
 20
11966.0003198193
 30
0.0
 11
-10160.525908084
 21
11965.5003198193
 31
0.0
  0
LINE
  5
1ED
100
AcDbEntity
  8
L1_
  6
CONTINUOUS
 62
         7
100
AcDbLine
 10
-10160.525908084
 20
11991.2003198193
 30
0.0
 11
-10161.025908084
 21
11990.7003198193
 31
0.0
  0
LINE
  5
1EE
100
AcDbEntity
  8
L1_
  6
CONTINUOUS
 62
         7
100
AcDbLine
 10
-10234.725908084
 20
11990.7003198193
 30
0.0
 11
-10235.225908084
 21
11991.2003198193
 31
0.0
  0
LINE
  5
1EF
100
AcDbEntity
  8
L1_
  6
CONTINUOUS
 62
         7
100
AcDbLine
 10
-10235.225908084
 20
11965.5003198193
 30
0.0
 11
-10234.725908084
 21
11966.0003198193
 31
0.0
  0
LINE
  5
1F0
100
AcDbEntity
  8
L1_
  6
CONTINUOUS
 62
         7
100
AcDbLine
 10
-10151.9847057033
 20
11964.5003198193
 30
0.0
 11
-10152.9847057033
 21
11965.5003198193
 31
0.0
  0
LINE
  5
1F1
100
AcDbEntity
  8
L1_
  6
CONTINUOUS
 62
         7
100
AcDbLine
 10
-10152.9847057033
 20
11965.5003198193
 30
0.0
 11
-10160.525908084
 21
11965.5003198193
 31
0.0
  0
LINE
  5
1F2
100
AcDbEntity
  8
L1_
  6
CONTINUOUS
 62
         7
100
AcDbLine
 10
-10151.9847057033
 20
11992.2003198193
 30
0.0
 11
-10152.9847057033
 21
11991.2003198193
 31
0.0
  0
LINE
  5
1F3
100
AcDbEntity
  8
L1_
  6
CONTINUOUS
 62
         7
100
AcDbLine
 10
-10152.9847057033
 20
11991.2003198193
 30
0.0
 11
-10160.525908084
 21
11991.2003198193
 31
0.0
  0
LINE
  5
1F4
100
AcDbEntity
  8
L1_
  6
CONTINUOUS
 62
         7
100
AcDbLine
 10
-10161.025908084
 20
11966.0003198193
 30
0.0
 11
-10161.025908084
 21
11990.7003198193
 31
0.0
  0
LINE
  5
1F5
100
AcDbEntity
  8
L1_
  6
CONTINUOUS
 62
         7
100
AcDbLine
 10
-10244.4671104648
 20
11991.2003198193
 30
0.0
 11
-10235.225908084
 21
11991.2003198193
 31
0.0
  0
LINE
  5
1F6
100
AcDbEntity
  8
L1_
  6
CONTINUOUS
 62
         7
100
AcDbLine
 10
-10245.4671104648
 20
11992.2003198193
 30
0.0
 11
-10244.4671104648
 21
11991.2003198193
 31
0.0
  0
LINE
  5
1F7
100
AcDbEntity
  8
L1_
  6
CONTINUOUS
 62
         7
100
AcDbLine
 10
-10245.4671104648
 20
11964.5003198193
 30
0.0
 11
-10244.4671104648
 21
11965.5003198193
 31
0.0
  0
LINE
  5
1F8
100
AcDbEntity
  8
L1_
  6
CONTINUOUS
 62
         7
100
AcDbLine
 10
-10244.4671104648
 20
11965.5003198193
 30
0.0
 11
-10235.225908084
 21
11965.5003198193
 31
0.0
  0
LINE
  5
1F9
100
AcDbEntity
  8
L1_
  6
CONTINUOUS
 62
         7
100
AcDbLine
 10
-10234.725908084
 20
11966.0003198193
 30
0.0
 11
-10234.725908084
 21
11990.7003198193
 31
0.0
  0
CIRCLE
  5
1FA
100
AcDbEntity
  8
L1_
  6
CONTINUOUS
 62
         7
100
AcDbCircle
 10
-10198.725908084
 20
11978.3503198193
 30
0.0
 40
12.6589889012
  0
CIRCLE
  5
1FB
100
AcDbEntity
  8
L1_
  6
CONTINUOUS
 62
         7
100
AcDbCircle
 10
-10198.725908084
 20
11978.3503198193
 30
0.0
 40
10.3963414634
  0
CIRCLE
  5
1FC
100
AcDbEntity
  8
L1_
  6
CONTINUOUS
 62
         7
100
AcDbCircle
 10
-10198.725908084
 20
11978.3503198193
 30
0.0
 40
20.3982925257
  0
CIRCLE
  5
1FD
100
AcDbEntity
  8
L1_
  6
CONTINUOUS
 62
         7
100
AcDbCircle
 10
-10198.725908084
 20
11978.3503198193
 30
0.0
 40
34.925
  0
ARC
  5
1FE
100
AcDbEntity
  8
L1_
  6
CONTINUOUS
 62
         7
100
AcDbCircle
 10
-10198.725908084
 20
11978.3503198193
 30
0.0
 40
48.75
100
AcDbArc
 50
196.5052120024
 51
343.4947879976
  0
LINE
  5
1FF
100
AcDbEntity
  8
L1_
  6
CENTER
 62
         1
100
AcDbLine
 10
-10155.3604983471
 20
11978.3503198193
 30
0.0
 11
-10245.2904536794
 21
11978.3503198193
 31
0.0
  0
ARC
  5
200
100
AcDbEntity
  8
L1_
  6
CONTINUOUS
 62
         7
100
AcDbCircle
 10
-10198.725908084
 20
11978.3503198193
 30
0.0
 40
48.75
100
AcDbArc
 50
16.5052120024
 51
163.4947879976
  0
LINE
  5
201
100
AcDbEntity
  8
L1_
  6
CENTER
 62
         1
100
AcDbLine
 10
-10198.725908084
 20
12031.7901871713
 30
0.0
 11
-10198.725908084
 21
11916.7002890904
 31
0.0
  0
LINE
  5
202
100
AcDbEntity
  8
L1_
  6
CONTINUOUS
 62
         7
100
AcDbLine
 10
-9638.5563913505
 20
11965.5003198193
 30
0.0
 11
-9631.0151889697
 21
11965.5003198193
 31
0.0
  0
LINE
  5
203
100
AcDbEntity
  8
L1_
  6
CONTINUOUS
 62
         7
100
AcDbLine
 10
-9639.5563913505
 20
11964.5003198193
 30
0.0
 11
-9638.5563913505
 21
11965.5003198193
 31
0.0
  0
LINE
  5
204
100
AcDbEntity
  8
L1_
  6
CONTINUOUS
 62
         7
100
AcDbLine
 10
-9638.5563913505
 20
11991.2003198193
 30
0.0
 11
-9631.0151889697
 21
11991.2003198193
 31
0.0
  0
LINE
  5
205
100
AcDbEntity
  8
L1_
  6
CONTINUOUS
 62
         7
100
AcDbLine
 10
-9639.5563913505
 20
11992.2003198193
 30
0.0
 11
-9638.5563913505
 21
11991.2003198193
 31
0.0
  0
LINE
  5
206
100
AcDbEntity
  8
L1_
  6
CONTINUOUS
 62
         7
100
AcDbLine
 10
-9630.5151889697
 20
11990.7003198193
 30
0.0
 11
-9630.5151889697
 21
11966.0003198193
 31
0.0
  0
LINE
  5
207
100
AcDbEntity
  8
L1_
  6
CONTINUOUS
 62
         7
100
AcDbLine
 10
-9631.0151889697
 20
11991.2003198193
 30
0.0
 11
-9630.5151889697
 21
11990.7003198193
 31
0.0
  0
LINE
  5
208
100
AcDbEntity
  8
L1_
  6
CONTINUOUS
 62
         7
100
AcDbLine
 10
-9630.5151889697
 20
11966.0003198193
 30
0.0
 11
-9631.0151889697
 21
11965.5003198193
 31
0.0
  0
LINE
  5
209
100
AcDbEntity
  8
L1_
  6
CONTINUOUS
 62
         7
100
AcDbLine
 10
-9557.3151889697
 20
11966.0003198193
 30
0.0
 11
-9556.8151889697
 21
11965.5003198193
 31
0.0
  0
LINE
  5
20A
100
AcDbEntity
  8
L1_
  6
CONTINUOUS
 62
         7
100
AcDbLine
 10
-9557.3151889697
 20
11990.7003198193
 30
0.0
 11
-9556.8151889697
 21
11991.2003198193
 31
0.0
  0
LINE
  5
20B
100
AcDbEntity
  8
L1_
  6
CONTINUOUS
 62
         7
100
AcDbLine
 10
-9547.073986589
 20
11965.5003198193
 30
0.0
 11
-9556.8151889697
 21
11965.5003198193
 31
0.0
  0
LINE
  5
20C
100
AcDbEntity
  8
L1_
  6
CONTINUOUS
 62
         7
100
AcDbLine
 10
-9546.073986589
 20
11964.5003198193
 30
0.0
 11
-9547.073986589
 21
11965.5003198193
 31
0.0
  0
LINE
  5
20D
100
AcDbEntity
  8
L1_
  6
CONTINUOUS
 62
         7
100
AcDbLine
 10
-9546.073986589
 20
11992.2003198193
 30
0.0
 11
-9547.073986589
 21
11991.2003198193
 31
0.0
  0
LINE
  5
20E
100
AcDbEntity
  8
L1_
  6
CONTINUOUS
 62
         7
100
AcDbLine
 10
-9547.073986589
 20
11991.2003198193
 30
0.0
 11
-9556.8151889697
 21
11991.2003198193
 31
0.0
  0
LINE
  5
20F
100
AcDbEntity
  8
L1_
  6
CONTINUOUS
 62
         7
100
AcDbLine
 10
-9557.3151889697
 20
11990.7003198193
 30
0.0
 11
-9557.3151889697
 21
11966.0003198193
 31
0.0
  0
LINE
  5
210
100
AcDbEntity
  8
L1_
  6
CENTER
 62
         1
100
AcDbLine
 10
-9592.8151889697
 20
11923.6003198193
 30
0.0
 11
-9592.8151889697
 21
12030.5149426941
 31
0.0
  0
LINE
  5
211
100
AcDbEntity
  8
L1_
  6
CENTER
 62
         1
100
AcDbLine
 10
-9647.5651889697
 20
11978.3503198193
 30
0.0
 11
-9538.0651889697
 21
11978.3503198193
 31
0.0
  0
ARC
  5
212
100
AcDbEntity
  8
L1_
  6
CONTINUOUS
 62
         7
100
AcDbCircle
 10
-9592.8151889697
 20
11978.3503198193
 30
0.0
 40
48.75
100
AcDbArc
 50
196.5052120024
 51
343.4947879976
  0
ARC
  5
213
100
AcDbEntity
  8
L1_
  6
DASHED
 62
         2
100
AcDbCircle
 10
-9592.8151889697
 20
11978.3503198193
 30
0.0
 40
45.625
100
AcDbArc
 50
16.3583384794
 51
163.6416615206
  0
ARC
  5
214
100
AcDbEntity
  8
L1_
  6
CONTINUOUS
 62
         7
100
AcDbCircle
 10
-9592.8151889697
 20
11978.3503198193
 30
0.0
 40
48.75
100
AcDbArc
 50
16.5052120024
 51
163.4947879976
  0
ARC
  5
215
100
AcDbEntity
  8
L1_
  6
DASHED
 62
         2
100
AcDbCircle
 10
-9592.8151889697
 20
11978.3503198193
 30
0.0
 40
45.625
100
AcDbArc
 50
197.6716498685
 51
343.6416615206
  0
LINE
  5
216
100
AcDbEntity
  8
L1_
  6
CONTINUOUS
 62
         7
100
AcDbLine
 10
-9907.3068189257
 20
12027.1003198193
 30
0.0
 11
-9907.3068189257
 21
11992.2003198193
 31
0.0
  0
LINE
  5
217
100
AcDbEntity
  8
L1_
  6
CONTINUOUS
 62
         7
100
AcDbLine
 10
-9905.6455485269
 20
12024.2229303577
 30
0.0
 11
-9905.6455485269
 21
11991.1802256544
 31
0.0
  0
LINE
  5
218
100
AcDbEntity
  8
L1_
  6
CONTINUOUS
 62
         7
100
AcDbLine
 10
-9901.8955485269
 20
12024.2229303577
 30
0.0
 11
-9901.8955485269
 21
11991.1802256544
 31
0.0
  0
LINE
  5
219
100
AcDbEntity
  8
L1_
  6
CONTINUOUS
 62
         7
100
AcDbLine
 10
-9900.2342781281
 20
12027.1003198193
 30
0.0
 11
-9900.2342781281
 21
11992.2003198193
 31
0.0
  0
LINE
  5
21A
100
AcDbEntity
  8
L1_
  6
CONTINUOUS
 62
         7
100
AcDbLine
 10
-9895.8705485269
 20
11992.2003198193
 30
0.0
 11
-9896.8906426918
 21
11991.1802256544
 31
0.0
  0
LINE
  5
21B
100
AcDbEntity
  8
L1_
  6
CONTINUOUS
 62
         7
100
AcDbLine
 10
-9901.8955485269
 20
11991.1802256544
 30
0.0
 11
-9900.2342781281
 21
11992.2003198193
 31
0.0
  0
LINE
  5
21C
100
AcDbEntity
  8
L1_
  6
CONTINUOUS
 62
         7
100
AcDbLine
 10
-9896.8906426918
 20
11991.1802256544
 30
0.0
 11
-9910.650454362
 21
11991.1802256544
 31
0.0
  0
LINE
  5
21D
100
AcDbEntity
  8
L1_
  6
CONTINUOUS
 62
         7
100
AcDbLine
 10
-9896.8906426918
 20
11991.1802256544
 30
0.0
 11
-9910.650454362
 21
11991.1802256544
 31
0.0
  0
LINE
  5
21E
100
AcDbEntity
  8
L1_
  6
CONTINUOUS
 62
         7
100
AcDbLine
 10
-9907.3068189257
 20
11992.2003198193
 30
0.0
 11
-9911.6705485269
 21
11992.2003198193
 31
0.0
  0
LINE
  5
21F
100
AcDbEntity
  8
L1_
  6
CONTINUOUS
 62
         7
100
AcDbLine
 10
-9911.6705485269
 20
11992.2003198193
 30
0.0
 11
-9910.650454362
 21
11991.1802256544
 31
0.0
  0
LINE
  5
220
100
AcDbEntity
  8
L1_
  6
CONTINUOUS
 62
         7
100
AcDbLine
 10
-9907.3068189257
 20
11992.2003198193
 30
0.0
 11
-9905.6455485269
 21
11991.1802256544
 31
0.0
  0
LINE
  5
221
100
AcDbEntity
  8
L1_
  6
CONTINUOUS
 62
         7
100
AcDbLine
 10
-9895.7705485269
 20
11992.2003198193
 30
0.0
 11
-9900.2342781281
 21
11992.2003198193
 31
0.0
  0
LINE
  5
222
100
AcDbEntity
  8
L1_
  6
CONTINUOUS
 62
         7
100
AcDbLine
 10
-9907.3068189257
 20
11964.5003198193
 30
0.0
 11
-9907.3068189257
 21
11929.6003198193
 31
0.0
  0
LINE
  5
223
100
AcDbEntity
  8
L1_
  6
CONTINUOUS
 62
         7
100
AcDbLine
 10
-9905.6455485269
 20
11965.5204139842
 30
0.0
 11
-9905.6455485269
 21
11932.4777092809
 31
0.0
  0
LINE
  5
224
100
AcDbEntity
  8
L1_
  6
CONTINUOUS
 62
         7
100
AcDbLine
 10
-9901.8955485269
 20
11965.5204139842
 30
0.0
 11
-9901.8955485269
 21
11932.4777092809
 31
0.0
  0
LINE
  5
225
100
AcDbEntity
  8
L1_
  6
CONTINUOUS
 62
         7
100
AcDbLine
 10
-9900.2342781281
 20
11964.5003198193
 30
0.0
 11
-9900.2342781281
 21
11929.6003198193
 31
0.0
  0
LINE
  5
226
100
AcDbEntity
  8
L1_
  6
CONTINUOUS
 62
         7
100
AcDbLine
 10
-9895.8705485269
 20
11964.5003198193
 30
0.0
 11
-9896.8906426918
 21
11965.5204139842
 31
0.0
  0
LINE
  5
227
100
AcDbEntity
  8
L1_
  6
CONTINUOUS
 62
         7
100
AcDbLine
 10
-9901.8955485269
 20
11965.5204139842
 30
0.0
 11
-9900.2342781281
 21
11964.5003198193
 31
0.0
  0
LINE
  5
228
100
AcDbEntity
  8
L1_
  6
CONTINUOUS
 62
         7
100
AcDbLine
 10
-9896.8906426918
 20
11965.5204139842
 30
0.0
 11
-9910.650454362
 21
11965.5204139842
 31
0.0
  0
LINE
  5
229
100
AcDbEntity
  8
L1_
  6
CONTINUOUS
 62
         7
100
AcDbLine
 10
-9896.8906426918
 20
11965.5204139842
 30
0.0
 11
-9910.650454362
 21
11965.5204139842
 31
0.0
  0
LINE
  5
22A
100
AcDbEntity
  8
L1_
  6
CONTINUOUS
 62
         7
100
AcDbLine
 10
-9907.3068189257
 20
11964.5003198193
 30
0.0
 11
-9905.6455485269
 21
11965.5204139842
 31
0.0
  0
LINE
  5
22B
100
AcDbEntity
  8
L1_
  6
CONTINUOUS
 62
         7
100
AcDbLine
 10
-9911.6705485269
 20
11964.5003198193
 30
0.0
 11
-9910.650454362
 21
11965.5204139842
 31
0.0
  0
LINE
  5
22C
100
AcDbEntity
  8
L1_
  6
CONTINUOUS
 62
         7
100
AcDbLine
 10
-9907.3068189257
 20
11964.5003198193
 30
0.0
 11
-9911.6705485269
 21
11964.5003198193
 31
0.0
  0
LINE
  5
22D
100
AcDbEntity
  8
L1_
  6
CONTINUOUS
 62
         7
100
AcDbLine
 10
-9895.7705485269
 20
11964.5003198193
 30
0.0
 11
-9900.2342781281
 21
11964.5003198193
 31
0.0
  0
CIRCLE
  5
22E
100
AcDbEntity
  8
L1_
  6
CONTINUOUS
 62
         7
100
AcDbCircle
 10
-9903.7705485269
 20
11978.3541733442
 30
0.0
 40
4.76
  0
LINE
  5
22F
100
AcDbEntity
  8
L1_
  6
DASHED
 62
         2
100
AcDbLine
 10
-9630.0151889697
 20
11983.3503198193
 30
0.0
 11
-9630.0151889697
 21
11973.3503198193
 31
0.0
  0
LINE
  5
230
100
AcDbEntity
  8
L1_
  6
DASHED
 62
         2
100
AcDbLine
 10
-9630.0151889697
 20
11983.3503198193
 30
0.0
 11
-9630.5151889697
 21
11983.8503198193
 31
0.0
  0
LINE
  5
231
100
AcDbEntity
  8
L1_
  6
DASHED
 62
         2
100
AcDbLine
 10
-9630.0151889697
 20
11973.3503198193
 30
0.0
 11
-9630.5151889697
 21
11972.8503198193
 31
0.0
  0
LINE
  5
232
100
AcDbEntity
  8
L1_
  6
DASHED
 62
         2
100
AcDbLine
 10
-9630.3151889697
 20
11983.3503198193
 30
0.0
 11
-9626.0651889697
 21
11983.3503198193
 31
0.0
  0
LINE
  5
233
100
AcDbEntity
  8
L1_
  6
DASHED
 62
         2
100
AcDbLine
 10
-9630.5151889697
 20
11973.1503198193
 30
0.0
 11
-9630.3151889697
 21
11973.3503198193
 31
0.0
  0
LINE
  5
234
100
AcDbEntity
  8
L1_
  6
DASHED
 62
         2
100
AcDbLine
 10
-9630.5151889697
 20
11983.5503198193
 30
0.0
 11
-9630.3151889697
 21
11983.3503198193
 31
0.0
  0
LINE
  5
235
100
AcDbEntity
  8
L1_
  6
DASHED
 62
         2
100
AcDbLine
 10
-9630.3151889697
 20
11983.3503198193
 30
0.0
 11
-9630.3151889697
 21
11973.3503198193
 31
0.0
  0
ARC
  5
236
100
AcDbEntity
  8
L1_
  6
DASHED
 62
         2
100
AcDbCircle
 10
-9626.0651889697
 20
11973.5503198193
 30
0.0
 40
0.2
100
AcDbArc
 50
270.0
 51
360.0
  0
ARC
  5
237
100
AcDbEntity
  8
L1_
  6
DASHED
 62
         2
100
AcDbCircle
 10
-9626.0651889697
 20
11983.1503198193
 30
0.0
 40
0.2
100
AcDbArc
 50
0.0
 51
90.0
  0
LINE
  5
238
100
AcDbEntity
  8
L1_
  6
DASHED
 62
         2
100
AcDbLine
 10
-9625.8651889697
 20
11983.1503198193
 30
0.0
 11
-9625.8651889697
 21
11973.5503198193
 31
0.0
  0
LINE
  5
239
100
AcDbEntity
  8
L1_
  6
DASHED
 62
         2
100
AcDbLine
 10
-9630.3151889697
 20
11973.3503198193
 30
0.0
 11
-9626.0651889697
 21
11973.3503198193
 31
0.0
  0
LINE
  5
23A
100
AcDbEntity
  8
L1_
  6
CONTINUOUS
 62
         7
100
AcDbLine
 10
-9912.4705485269
 20
12013.450321467
 30
0.0
 11
-9913.6705485269
 21
12013.450321467
 31
0.0
  0
ARC
  5
23B
100
AcDbEntity
  8
L1_
  6
CONTINUOUS
 62
         7
100
AcDbCircle
 10
-9912.4705485269
 20
12014.250321467
 30
0.0
 40
0.8
100
AcDbArc
 50
270.0
 51
360.0
  0
LINE
  5
23C
100
AcDbEntity
  8
L1_
  6
CONTINUOUS
 62
         7
100
AcDbLine
 10
-9912.4705485269
 20
11943.2503181717
 30
0.0
 11
-9913.6705485269
 21
11943.2503181717
 31
0.0
  0
ARC
  5
23D
100
AcDbEntity
  8
L1_
  6
CONTINUOUS
 62
         7
100
AcDbCircle
 10
-9912.4705485269
 20
11942.4503181717
 30
0.0
 40
0.8
100
AcDbArc
 50
0.0
 51
90.0000000001
  0
LINE
  5
23E
100
AcDbEntity
  8
L1_
  6
CONTINUOUS
 62
         7
100
AcDbLine
 10
-9912.4705485269
 20
11774.4578904152
 30
0.0
 11
-9913.6705485269
 21
11774.4578904152
 31
0.0
  0
ARC
  5
23F
100
AcDbEntity
  8
L1_
  6
CONTINUOUS
 62
         7
100
AcDbCircle
 10
-9912.4705485269
 20
11775.2578904152
 30
0.0
 40
0.8
100
AcDbArc
 50
270.0
 51
360.0
  0
LINE
  5
240
100
AcDbEntity
  8
L1_
  6
CONTINUOUS
 62
         7
100
AcDbLine
 10
-9912.4705485269
 20
11704.25788712
 30
0.0
 11
-9913.6705485269
 21
11704.25788712
 31
0.0
  0
ARC
  5
241
100
AcDbEntity
  8
L1_
  6
CONTINUOUS
 62
         7
100
AcDbCircle
 10
-9912.4705485269
 20
11703.45788712
 30
0.0
 40
0.8
100
AcDbArc
 50
0.0
 51
90.0000000001
  0
LINE
  5
242
100
AcDbEntity
  8
L1_
  6
CONTINUOUS
 62
         7
100
AcDbLine
 10
-9879.8185485269
 20
11948.8503198193
 30
0.0
 11
-9879.8185485269
 21
11944.4253198193
 31
0.0
  0
LINE
  5
243
100
AcDbEntity
  8
L1_
  6
CONTINUOUS
 62
         7
100
AcDbLine
 10
-9879.8185485269
 20
11705.2328887676
 30
0.0
 11
-9879.8185485269
 21
11709.8578887676
 31
0.0
  0
LINE
  5
244
100
AcDbEntity
  8
L1_
  6
CONTINUOUS
 62
         7
100
AcDbLine
 10
-9879.8185485269
 20
11768.8578887676
 30
0.0
 11
-9879.8185485269
 21
11773.4828887676
 31
0.0
  0
ARC
  5
245
100
AcDbEntity
  8
L1_
  6
CONTINUOUS
 62
         7
100
AcDbCircle
 10
-9880.6185485269
 20
11773.4828887676
 30
0.0
 40
0.8
100
AcDbArc
 50
0.0
 51
90.0000000003
  0
ARC
  5
246
100
AcDbEntity
  8
L1_
  6
CONTINUOUS
 62
         7
100
AcDbCircle
 10
-9880.6185485269
 20
11705.2328887676
 30
0.0
 40
0.8
100
AcDbArc
 50
269.9999999999
 51
360.0
  0
LINE
  5
247
100
AcDbEntity
  8
L1_
  6
CONTINUOUS
 62
         7
100
AcDbLine
 10
-9932.6125569439
 20
11752.9028887676
 30
0.0
 11
-9906.5834339178
 21
11774.7439162987
 31
0.0
  0
LINE
  5
248
100
AcDbEntity
  8
L1_
  6
CENTER
 62
         1
100
AcDbLine
 10
-9895.7705485269
 20
11781.6630824148
 30
0.0
 11
-9930.4854449591
 21
11752.5338256221
 31
0.0
  0
LINE
  5
249
100
AcDbEntity
  8
L1_
  6
CONTINUOUS
 62
         7
100
AcDbLine
 10
-9903.7848735392
 20
11772.7843432254
 30
0.0
 11
-9927.4786683153
 21
11752.9028887676
 31
0.0
  0
LINE
  5
24A
100
AcDbEntity
  8
L1_
  6
CONTINUOUS
 62
         7
100
AcDbLine
 10
-9899.0981139195
 20
11772.5545752819
 30
0.0
 11
-9901.7143991436
 21
11771.334581446
 31
0.0
  0
LINE
  5
24B
100
AcDbEntity
  8
L1_
  6
CONTINUOUS
 62
         7
100
AcDbLine
 10
-9901.7143991436
 20
11771.334581446
 30
0.0
 11
-9898.8465169618
 21
11775.4303416674
 31
0.0
  0
LINE
  5
24C
100
AcDbEntity
  8
L1_
  6
CONTINUOUS
 62
         7
100
AcDbLine
 10
-9902.6180960923
 20
11778.0712298055
 30
0.0
 11
-9899.5098252283
 21
11780.6793787412
 31
0.0
  0
LINE
  5
24D
100
AcDbEntity
  8
L1_
  6
CONTINUOUS
 62
         7
100
AcDbLine
 10
-9898.8465169618
 20
11775.4303416674
 30
0.0
 11
-9908.4871993051
 21
11782.1808201177
 31
0.0
  0
LINE
  5
24E
100
AcDbEntity
  8
L1_
  6
CONTINUOUS
 62
         7
100
AcDbLine
 10
-9908.200411087
 20
11782.5903961398
 30
0.0
 11
-9908.1717322651
 21
11782.631353742
 31
0.0
  0
LINE
  5
24F
100
AcDbEntity
  8
L1_
  6
CONTINUOUS
 62
         4
100
AcDbLine
 10
-9908.200411087
 20
11782.5903961398
 30
0.0
 11
-9904.1046508655
 21
11779.7225139581
 31
0.0
  0
LINE
  5
250
100
AcDbEntity
  8
L1_
  6
CONTINUOUS
 62
         7
100
AcDbLine
 10
-9905.4205485269
 20
11780.6439154201
 30
0.0
 11
-9904.1046508655
 21
11779.7225139581
 31
0.0
  0
LINE
  5
251
100
AcDbEntity
  8
L1_
  6
CONTINUOUS
 62
         4
100
AcDbLine
 10
-9899.5800043038
 20
11781.0773840561
 30
0.0
 11
-9897.008853865
 21
11778.0132062836
 31
0.0
  0
LINE
  5
252
100
AcDbEntity
  8
L1_
  6
CONTINUOUS
 62
         7
100
AcDbLine
 10
-9899.5098252283
 20
11780.6793787412
 30
0.0
 11
-9897.3886261163
 21
11778.1514320789
 31
0.0
  0
LINE
  5
253
100
AcDbEntity
  8
L1_
  6
CONTINUOUS
 62
         7
100
AcDbLine
 10
-9899.5800043038
 20
11781.0773840561
 30
0.0
 11
-9899.5098252283
 21
11780.6793787412
 31
0.0
  0
LINE
  5
254
100
AcDbEntity
  8
L1_
  6
CONTINUOUS
 62
         7
100
AcDbLine
 10
-9897.3886261163
 20
11778.1514320789
 30
0.0
 11
-9899.8195357137
 21
11776.1116567323
 31
0.0
  0
LINE
  5
255
100
AcDbEntity
  8
L1_
  6
CONTINUOUS
 62
         7
100
AcDbLine
 10
-9897.008853865
 20
11778.0132062836
 30
0.0
 11
-9897.3886261163
 21
11778.1514320789
 31
0.0
  0
LINE
  5
256
100
AcDbEntity
  8
L1_
  6
CONTINUOUS
 62
         7
100
AcDbLine
 10
-9899.0981139195
 20
11772.5545752819
 30
0.0
 11
-9898.8465169618
 21
11775.4303416674
 31
0.0
  0
LINE
  5
257
100
AcDbEntity
  8
L1_
  6
CONTINUOUS
 62
         7
100
AcDbLine
 10
-9907.5461094836
 20
11774.8076016923
 30
0.0
 11
-9904.1046508655
 21
11779.7225139581
 31
0.0
  0
LINE
  5
258
100
AcDbEntity
  8
L1_
  6
CONTINUOUS
 62
         7
100
AcDbLine
 10
-9895.7705485269
 20
11784.2738969934
 30
0.0
 11
-9899.5800043038
 21
11781.0773840561
 31
0.0
  0
LINE
  5
259
100
AcDbEntity
  8
L1_
  6
CONTINUOUS
 62
         7
100
AcDbLine
 10
-9895.7705485269
 20
11779.0522678361
 30
0.0
 11
-9897.008853865
 21
11778.0132062836
 31
0.0
  0
LINE
  5
25A
100
AcDbEntity
  8
L1_
  6
CONTINUOUS
 62
         4
100
AcDbLine
 10
-9907.5461094836
 20
11774.8076016923
 30
0.0
 11
-9911.6418697051
 21
11777.6754838741
 31
0.0
  0
LINE
  5
25B
100
AcDbEntity
  8
L1_
  6
CONTINUOUS
 62
         7
100
AcDbLine
 10
-9901.7143991436
 20
11771.334581446
 30
0.0
 11
-9911.3550814869
 21
11778.0850598962
 31
0.0
  0
LINE
  5
25C
100
AcDbEntity
  8
L1_
  6
CONTINUOUS
 62
         7
100
AcDbLine
 10
-9911.6418697051
 20
11777.6754838741
 30
0.0
 11
-9908.200411087
 21
11782.5903961398
 31
0.0
  0
LINE
  5
25D
100
AcDbEntity
  8
L1_
  6
CENTER
 62
         1
100
AcDbLine
 10
-9899.5847296666
 20
11773.2005009433
 30
0.0
 11
-9912.7413149655
 21
11782.4128411468
 31
0.0
  0
LINE
  5
25E
100
AcDbEntity
  8
L1_
  6
CONTINUOUS
 62
         7
100
AcDbLine
 10
-9908.1717322651
 20
11782.631353742
 30
0.0
 11
-9911.6705485269
 21
11785.0812512633
 31
0.0
  0
ARC
  5
25F
100
AcDbEntity
  8
L1_
  6
CONTINUOUS
 62
         7
100
AcDbCircle
 10
-9905.2139241999
 20
11785.4828887676
 30
0.0
 40
0.5
100
AcDbArc
 50
210.0
 51
270.0
  0
LINE
  5
260
100
AcDbEntity
  8
L1_
  6
CONTINUOUS
 62
         7
100
AcDbLine
 10
-9905.2139241999
 20
11784.9828887676
 30
0.0
 11
-9902.3271728539
 21
11784.9828887676
 31
0.0
  0
ARC
  5
261
100
AcDbEntity
  8
L1_
  6
CONTINUOUS
 62
         7
100
AcDbCircle
 10
-9902.3271728539
 20
11785.4828887676
 30
0.0
 40
0.5
100
AcDbArc
 50
270.0
 51
330.0
  0
POLYLINE
  5
263
100
AcDbEntity
  8
L1_
  6
CONTINUOUS
 62
         7
100
AcDb2dPolyline
 66
         1
 10
0.0
 20
0.0
 30
0.0
 70
         2
  0
VERTEX
  5
265
100
AcDbEntity
  8
L1_
  6
CONTINUOUS
 62
         7
100
AcDbVertex
100
AcDb2dVertex
 10
-9605.6752613252
 20
12013.5762854256
 30
0.0
 70
         1
  0
VERTEX
  5
267
100
AcDbEntity
  8
L1_
  6
CONTINUOUS
 62
         7
100
AcDbVertex
100
AcDb2dVertex
 10
-9605.3244027927
 20
12013.7493252195
 30
0.0
 70
         1
  0
VERTEX
  5
269
100
AcDbEntity
  8
L1_
  6
CONTINUOUS
 62
         7
100
AcDbVertex
100
AcDb2dVertex
 10
-9605.1791175471
 20
12013.8516509509
 30
0.0
 70
         1
  0
VERTEX
  5
26B
100
AcDbEntity
  8
L1_
  6
CONTINUOUS
 62
         7
100
AcDbVertex
100
AcDb2dVertex
 10
-9605.0388631721
 20
12013.9717313388
 30
0.0
 70
         1
  0
VERTEX
  5
26D
100
AcDbEntity
  8
L1_
  6
CONTINUOUS
 62
         7
100
AcDbVertex
100
AcDb2dVertex
 10
-9604.9052944469
 20
12014.1097042379
 30
0.0
 70
         1
  0
VERTEX
  5
26F
100
AcDbEntity
  8
L1_
  6
CONTINUOUS
 62
         7
100
AcDbVertex
100
AcDb2dVertex
 10
-9604.7800734863
 20
12014.2653698188
 30
0.0
 70
         1
  0
VERTEX
  5
271
100
AcDbEntity
  8
L1_
  6
CONTINUOUS
 62
         7
100
AcDbVertex
100
AcDb2dVertex
 10
-9604.6648157069
 20
12014.4381641429
 30
0.0
 70
         1
  0
VERTEX
  5
273
100
AcDbEntity
  8
L1_
  6
CONTINUOUS
 62
         7
100
AcDbVertex
100
AcDb2dVertex
 10
-9604.5610322724
 20
12014.6271480427
 30
0.0
 70
         1
  0
VERTEX
  5
275
100
AcDbEntity
  8
L1_
  6
CONTINUOUS
 62
         7
100
AcDbVertex
100
AcDb2dVertex
 10
-9604.4700726588
 20
12014.831013858
 30
0.0
 70
         1
  0
VERTEX
  5
277
100
AcDbEntity
  8
L1_
  6
CONTINUOUS
 62
         7
100
AcDbVertex
100
AcDb2dVertex
 10
-9604.393071398
 20
12015.0481112008
 30
0.0
 70
         1
  0
VERTEX
  5
279
100
AcDbEntity
  8
L1_
  6
CONTINUOUS
 62
         7
100
AcDbVertex
100
AcDb2dVertex
 10
-9604.3309030463
 20
12015.2764912395
 30
0.0
 70
         1
  0
VERTEX
  5
27B
100
AcDbEntity
  8
L1_
  6
CONTINUOUS
 62
         7
100
AcDbVertex
100
AcDb2dVertex
 10
-9604.2841489096
 20
12015.5139672297
 30
0.0
 70
         1
  0
VERTEX
  5
27D
100
AcDbEntity
  8
L1_
  6
CONTINUOUS
 62
         7
100
AcDbVertex
100
AcDb2dVertex
 10
-9604.2460764962
 20
12015.8424795353
 30
0.0
 70
         1
  0
VERTEX
  5
27F
100
AcDbEntity
  8
L1_
  6
CONTINUOUS
 62
         7
100
AcDbVertex
100
AcDb2dVertex
 10
-9604.2359173667
 20
12016.1772366647
 30
0.0
 70
         1
  0
VERTEX
  5
281
100
AcDbEntity
  8
L1_
  6
CONTINUOUS
 62
         7
100
AcDbVertex
100
AcDb2dVertex
 10
-9604.2524853973
 20
12016.5124487919
 30
0.0
 70
         1
  0
VERTEX
  5
283
100
AcDbEntity
  8
L1_
  6
CONTINUOUS
 62
         7
100
AcDbVertex
100
AcDb2dVertex
 10
-9604.2937814459
 20
12016.8427198995
 30
0.0
 70
         1
  0
VERTEX
  5
285
100
AcDbEntity
  8
L1_
  6
CONTINUOUS
 62
         7
100
AcDbVertex
100
AcDb2dVertex
 10
-9604.3571825238
 20
12017.163300624
 30
0.0
 70
         1
  0
VERTEX
  5
287
100
AcDbEntity
  8
L1_
  6
CONTINUOUS
 62
         7
100
AcDbVertex
100
AcDb2dVertex
 10
-9604.4396551139
 20
12017.4702573255
 30
0.0
 70
         1
  0
VERTEX
  5
289
100
AcDbEntity
  8
L1_
  6
CONTINUOUS
 62
         7
100
AcDbVertex
100
AcDb2dVertex
 10
-9604.5747655819
 20
12017.8559207734
 30
0.0
 70
         1
  0
VERTEX
  5
28B
100
AcDbEntity
  8
L1_
  6
CONTINUOUS
 62
         7
100
AcDbVertex
100
AcDb2dVertex
 10
-9604.7306559446
 20
12018.2068014817
 30
0.0
 70
         1
  0
VERTEX
  5
28D
100
AcDbEntity
  8
L1_
  6
CONTINUOUS
 62
         7
100
AcDbVertex
100
AcDb2dVertex
 10
-9604.9001074858
 20
12018.5206758156
 30
0.0
 70
         1
  0
VERTEX
  5
28F
100
AcDbEntity
  8
L1_
  6
CONTINUOUS
 62
         7
100
AcDbVertex
100
AcDb2dVertex
 10
-9605.0768638021
 20
12018.7974355648
 30
0.0
 70
         1
  0
VERTEX
  5
291
100
AcDbEntity
  8
L1_
  6
CONTINUOUS
 62
         7
100
AcDbVertex
100
AcDb2dVertex
 10
-9605.2558019937
 20
12019.0385241109
 30
0.0
 70
         1
  0
VERTEX
  5
293
100
AcDbEntity
  8
L1_
  6
CONTINUOUS
 62
         7
100
AcDbVertex
100
AcDb2dVertex
 10
-9605.4329400727
 20
12019.2464042838
 30
0.0
 70
         1
  0
VERTEX
  5
295
100
AcDbEntity
  8
L1_
  6
CONTINUOUS
 62
         7
100
AcDbVertex
100
AcDb2dVertex
 10
-9605.6635986315
 20
12019.4792672589
 30
0.0
 70
         1
  0
VERTEX
  5
297
100
AcDbEntity
  8
L1_
  6
CONTINUOUS
 62
         7
100
AcDbVertex
100
AcDb2dVertex
 10
-9605.8810776516
 20
12019.6654074103
 30
0.0
 70
         1
  0
VERTEX
  5
299
100
AcDbEntity
  8
L1_
  6
CONTINUOUS
 62
         7
100
AcDbVertex
100
AcDb2dVertex
 10
-9606.0828891418
 20
12019.8126006915
 30
0.0
 70
         1
  0
VERTEX
  5
29B
100
AcDbEntity
  8
L1_
  6
CONTINUOUS
 62
         7
100
AcDbVertex
100
AcDb2dVertex
 10
-9606.3292313883
 20
12019.9620134829
 30
0.0
 70
         1
  0
VERTEX
  5
29D
100
AcDbEntity
  8
L1_
  6
CONTINUOUS
 62
         7
100
AcDbVertex
100
AcDb2dVertex
 10
-9606.5457802197
 20
12020.067695912
 30
0.0
 70
         1
  0
VERTEX
  5
29F
100
AcDbEntity
  8
L1_
  6
CONTINUOUS
 62
         7
100
AcDbVertex
100
AcDb2dVertex
 10
-9606.7347015857
 20
12020.1411269148
 30
0.0
 70
         1
  0
VERTEX
  5
2A1
100
AcDbEntity
  8
L1_
  6
CONTINUOUS
 62
         7
100
AcDbVertex
100
AcDb2dVertex
 10
-9606.9522574404
 20
12020.2044734349
 30
0.0
 70
         1
  0
VERTEX
  5
2A3
100
AcDbEntity
  8
L1_
  6
CONTINUOUS
 62
         7
100
AcDbVertex
100
AcDb2dVertex
 10
-9607.1894869656
 20
12020.2477068801
 30
0.0
 70
         1
  0
VERTEX
  5
2A5
100
AcDbEntity
  8
L1_
  6
CONTINUOUS
 62
         7
100
AcDbVertex
100
AcDb2dVertex
 10
-9607.3722520105
 20
12020.262301599
 30
0.0
 70
         1
  0
VERTEX
  5
2A7
100
AcDbEntity
  8
L1_
  6
CONTINUOUS
 62
         7
100
AcDbVertex
100
AcDb2dVertex
 10
-9607.5594340119
 20
12020.2597552425
 30
0.0
 70
         1
  0
VERTEX
  5
2A9
100
AcDbEntity
  8
L1_
  6
CONTINUOUS
 62
         7
100
AcDbVertex
100
AcDb2dVertex
 10
-9607.7356565367
 20
12020.2403621511
 30
0.0
 70
         1
  0
VERTEX
  5
2AB
100
AcDbEntity
  8
L1_
  6
CONTINUOUS
 62
         7
100
AcDbVertex
100
AcDb2dVertex
 10
-9607.9310630912
 20
12020.1982089015
 30
0.0
 70
         1
  0
VERTEX
  5
2AD
100
AcDbEntity
  8
L1_
  6
CONTINUOUS
 62
         7
100
AcDbVertex
100
AcDb2dVertex
 10
-9608.0694023285
 20
12020.1541337711
 30
0.0
 70
         1
  0
VERTEX
  5
2AF
100
AcDbEntity
  8
L1_
  6
CONTINUOUS
 62
         7
100
AcDbVertex
100
AcDb2dVertex
 10
-9608.0694023285
 20
12020.1541337711
 30
0.0
 70
         1
  0
VERTEX
  5
2B1
100
AcDbEntity
  8
L1_
  6
CONTINUOUS
 62
         7
100
AcDbVertex
100
AcDb2dVertex
 10
-9608.4202608611
 20
12019.9810939773
 30
0.0
 70
         1
  0
VERTEX
  5
2B3
100
AcDbEntity
  8
L1_
  6
CONTINUOUS
 62
         7
100
AcDbVertex
100
AcDb2dVertex
 10
-9608.5655461067
 20
12019.8787682459
 30
0.0
 70
         1
  0
VERTEX
  5
2B5
100
AcDbEntity
  8
L1_
  6
CONTINUOUS
 62
         7
100
AcDbVertex
100
AcDb2dVertex
 10
-9608.7058004817
 20
12019.758687858
 30
0.0
 70
         1
  0
VERTEX
  5
2B7
100
AcDbEntity
  8
L1_
  6
CONTINUOUS
 62
         7
100
AcDbVertex
100
AcDb2dVertex
 10
-9608.8393692068
 20
12019.6207149589
 30
0.0
 70
         1
  0
VERTEX
  5
2B9
100
AcDbEntity
  8
L1_
  6
CONTINUOUS
 62
         7
100
AcDbVertex
100
AcDb2dVertex
 10
-9608.9645901674
 20
12019.465049378
 30
0.0
 70
         1
  0
VERTEX
  5
2BB
100
AcDbEntity
  8
L1_
  6
CONTINUOUS
 62
         7
100
AcDbVertex
100
AcDb2dVertex
 10
-9609.0798479469
 20
12019.2922550539
 30
0.0
 70
         1
  0
VERTEX
  5
2BD
100
AcDbEntity
  8
L1_
  6
CONTINUOUS
 62
         7
100
AcDbVertex
100
AcDb2dVertex
 10
-9609.1836313813
 20
12019.1032711541
 30
0.0
 70
         1
  0
VERTEX
  5
2BF
100
AcDbEntity
  8
L1_
  6
CONTINUOUS
 62
         7
100
AcDbVertex
100
AcDb2dVertex
 10
-9609.274590995
 20
12018.8994053387
 30
0.0
 70
         1
  0
VERTEX
  5
2C1
100
AcDbEntity
  8
L1_
  6
CONTINUOUS
 62
         7
100
AcDbVertex
100
AcDb2dVertex
 10
-9609.3515922558
 20
12018.682307996
 30
0.0
 70
         1
  0
VERTEX
  5
2C3
100
AcDbEntity
  8
L1_
  6
CONTINUOUS
 62
         7
100
AcDbVertex
100
AcDb2dVertex
 10
-9609.4137606075
 20
12018.4539279573
 30
0.0
 70
         1
  0
VERTEX
  5
2C5
100
AcDbEntity
  8
L1_
  6
CONTINUOUS
 62
         7
100
AcDbVertex
100
AcDb2dVertex
 10
-9609.4605147442
 20
12018.216451967
 30
0.0
 70
         1
  0
VERTEX
  5
2C7
100
AcDbEntity
  8
L1_
  6
CONTINUOUS
 62
         7
100
AcDbVertex
100
AcDb2dVertex
 10
-9609.4985871576
 20
12017.8879396614
 30
0.0
 70
         1
  0
VERTEX
  5
2C9
100
AcDbEntity
  8
L1_
  6
CONTINUOUS
 62
         7
100
AcDbVertex
100
AcDb2dVertex
 10
-9609.5087462871
 20
12017.5531825321
 30
0.0
 70
         1
  0
VERTEX
  5
2CB
100
AcDbEntity
  8
L1_
  6
CONTINUOUS
 62
         7
100
AcDbVertex
100
AcDb2dVertex
 10
-9609.4921782565
 20
12017.2179704049
 30
0.0
 70
         1
  0
VERTEX
  5
2CD
100
AcDbEntity
  8
L1_
  6
CONTINUOUS
 62
         7
100
AcDbVertex
100
AcDb2dVertex
 10
-9609.4508822079
 20
12016.8876992973
 30
0.0
 70
         1
  0
VERTEX
  5
2CF
100
AcDbEntity
  8
L1_
  6
CONTINUOUS
 62
         7
100
AcDbVertex
100
AcDb2dVertex
 10
-9609.38748113
 20
12016.5671185728
 30
0.0
 70
         1
  0
VERTEX
  5
2D1
100
AcDbEntity
  8
L1_
  6
CONTINUOUS
 62
         7
100
AcDbVertex
100
AcDb2dVertex
 10
-9609.3050085398
 20
12016.2601618713
 30
0.0
 70
         1
  0
VERTEX
  5
2D3
100
AcDbEntity
  8
L1_
  6
CONTINUOUS
 62
         7
100
AcDbVertex
100
AcDb2dVertex
 10
-9609.1698980719
 20
12015.8744984233
 30
0.0
 70
         1
  0
VERTEX
  5
2D5
100
AcDbEntity
  8
L1_
  6
CONTINUOUS
 62
         7
100
AcDbVertex
100
AcDb2dVertex
 10
-9609.0140077091
 20
12015.5236177151
 30
0.0
 70
         1
  0
VERTEX
  5
2D7
100
AcDbEntity
  8
L1_
  6
CONTINUOUS
 62
         7
100
AcDbVertex
100
AcDb2dVertex
 10
-9608.8445561679
 20
12015.2097433812
 30
0.0
 70
         1
  0
VERTEX
  5
2D9
100
AcDbEntity
  8
L1_
  6
CONTINUOUS
 62
         7
100
AcDbVertex
100
AcDb2dVertex
 10
-9608.6677998517
 20
12014.932983632
 30
0.0
 70
         1
  0
VERTEX
  5
2DB
100
AcDbEntity
  8
L1_
  6
CONTINUOUS
 62
         7
100
AcDbVertex
100
AcDb2dVertex
 10
-9608.4888616601
 20
12014.6918950859
 30
0.0
 70
         1
  0
VERTEX
  5
2DD
100
AcDbEntity
  8
L1_
  6
CONTINUOUS
 62
         7
100
AcDbVertex
100
AcDb2dVertex
 10
-9608.311723581
 20
12014.484014913
 30
0.0
 70
         1
  0
VERTEX
  5
2DF
100
AcDbEntity
  8
L1_
  6
CONTINUOUS
 62
         7
100
AcDbVertex
100
AcDb2dVertex
 10
-9608.0810650222
 20
12014.2511519379
 30
0.0
 70
         1
  0
VERTEX
  5
2E1
100
AcDbEntity
  8
L1_
  6
CONTINUOUS
 62
         7
100
AcDbVertex
100
AcDb2dVertex
 10
-9607.8635860021
 20
12014.0650117865
 30
0.0
 70
         1
  0
VERTEX
  5
2E3
100
AcDbEntity
  8
L1_
  6
CONTINUOUS
 62
         7
100
AcDbVertex
100
AcDb2dVertex
 10
-9607.6617745119
 20
12013.9178185053
 30
0.0
 70
         1
  0
VERTEX
  5
2E5
100
AcDbEntity
  8
L1_
  6
CONTINUOUS
 62
         7
100
AcDbVertex
100
AcDb2dVertex
 10
-9607.4154322655
 20
12013.7684057139
 30
0.0
 70
         1
  0
VERTEX
  5
2E7
100
AcDbEntity
  8
L1_
  6
CONTINUOUS
 62
         7
100
AcDbVertex
100
AcDb2dVertex
 10
-9607.1988834341
 20
12013.6627232848
 30
0.0
 70
         1
  0
VERTEX
  5
2E9
100
AcDbEntity
  8
L1_
  6
CONTINUOUS
 62
         7
100
AcDbVertex
100
AcDb2dVertex
 10
-9607.0099620681
 20
12013.5892922819
 30
0.0
 70
         1
  0
VERTEX
  5
2EB
100
AcDbEntity
  8
L1_
  6
CONTINUOUS
 62
         7
100
AcDbVertex
100
AcDb2dVertex
 10
-9606.7924062133
 20
12013.5259457619
 30
0.0
 70
         1
  0
VERTEX
  5
2ED
100
AcDbEntity
  8
L1_
  6
CONTINUOUS
 62
         7
100
AcDbVertex
100
AcDb2dVertex
 10
-9606.5551766882
 20
12013.4827123167
 30
0.0
 70
         1
  0
VERTEX
  5
2EF
100
AcDbEntity
  8
L1_
  6
CONTINUOUS
 62
         7
100
AcDbVertex
100
AcDb2dVertex
 10
-9606.3724116433
 20
12013.4681175978
 30
0.0
 70
         1
  0
VERTEX
  5
2F1
100
AcDbEntity
  8
L1_
  6
CONTINUOUS
 62
         7
100
AcDbVertex
100
AcDb2dVertex
 10
-9606.1852296419
 20
12013.4706639543
 30
0.0
 70
         1
  0
VERTEX
  5
2F3
100
AcDbEntity
  8
L1_
  6
CONTINUOUS
 62
         7
100
AcDbVertex
100
AcDb2dVertex
 10
-9606.0090071171
 20
12013.4900570457
 30
0.0
 70
         1
  0
VERTEX
  5
2F5
100
AcDbEntity
  8
L1_
  6
CONTINUOUS
 62
         7
100
AcDbVertex
100
AcDb2dVertex
 10
-9605.8136005625
 20
12013.5322102953
 30
0.0
 70
         1
  0
VERTEX
  5
2F7
100
AcDbEntity
  8
L1_
  6
CONTINUOUS
 62
         7
100
AcDbVertex
100
AcDb2dVertex
 10
-9605.6752613252
 20
12013.5762854256
 30
0.0
 70
         1
  0
SEQEND
  5
2F9
100
AcDbEntity
  8
L1_
  6
CONTINUOUS
 62
         7
  0
POLYLINE
  5
2FB
100
AcDbEntity
  8
L1_
  6
CONTINUOUS
 62
         7
100
AcDb2dPolyline
 66
         1
 10
0.0
 20
0.0
 30
0.0
 70
         2
  0
VERTEX
  5
2FD
100
AcDbEntity
  8
L1_
  6
CONTINUOUS
 62
         7
100
AcDbVertex
100
AcDb2dVertex
 10
-9577.560975611
 20
11936.5465058675
 30
0.0
 70
         1
  0
VERTEX
  5
2FF
100
AcDbEntity
  8
L1_
  6
CONTINUOUS
 62
         7
100
AcDbVertex
100
AcDb2dVertex
 10
-9577.2101170784
 20
11936.7195456614
 30
0.0
 70
         1
  0
VERTEX
  5
301
100
AcDbEntity
  8
L1_
  6
CONTINUOUS
 62
         7
100
AcDbVertex
100
AcDb2dVertex
 10
-9577.0648318328
 20
11936.8218713928
 30
0.0
 70
         1
  0
VERTEX
  5
303
100
AcDbEntity
  8
L1_
  6
CONTINUOUS
 62
         7
100
AcDbVertex
100
AcDb2dVertex
 10
-9576.9245774578
 20
11936.9419517807
 30
0.0
 70
         1
  0
VERTEX
  5
305
100
AcDbEntity
  8
L1_
  6
CONTINUOUS
 62
         7
100
AcDbVertex
100
AcDb2dVertex
 10
-9576.7910087326
 20
11937.0799246797
 30
0.0
 70
         1
  0
VERTEX
  5
307
100
AcDbEntity
  8
L1_
  6
CONTINUOUS
 62
         7
100
AcDbVertex
100
AcDb2dVertex
 10
-9576.6657877721
 20
11937.2355902607
 30
0.0
 70
         1
  0
VERTEX
  5
309
100
AcDbEntity
  8
L1_
  6
CONTINUOUS
 62
         7
100
AcDbVertex
100
AcDb2dVertex
 10
-9576.5505299926
 20
11937.4083845848
 30
0.0
 70
         1
  0
VERTEX
  5
30B
100
AcDbEntity
  8
L1_
  6
CONTINUOUS
 62
         7
100
AcDbVertex
100
AcDb2dVertex
 10
-9576.4467465582
 20
11937.5973684846
 30
0.0
 70
         1
  0
VERTEX
  5
30D
100
AcDbEntity
  8
L1_
  6
CONTINUOUS
 62
         7
100
AcDbVertex
100
AcDb2dVertex
 10
-9576.3557869445
 20
11937.8012342999
 30
0.0
 70
         1
  0
VERTEX
  5
30F
100
AcDbEntity
  8
L1_
  6
CONTINUOUS
 62
         7
100
AcDbVertex
100
AcDb2dVertex
 10
-9576.2787856837
 20
11938.0183316426
 30
0.0
 70
         1
  0
VERTEX
  5
311
100
AcDbEntity
  8
L1_
  6
CONTINUOUS
 62
         7
100
AcDbVertex
100
AcDb2dVertex
 10
-9576.216617332
 20
11938.2467116814
 30
0.0
 70
         1
  0
VERTEX
  5
313
100
AcDbEntity
  8
L1_
  6
CONTINUOUS
 62
         7
100
AcDbVertex
100
AcDb2dVertex
 10
-9576.1698631953
 20
11938.4841876716
 30
0.0
 70
         1
  0
VERTEX
  5
315
100
AcDbEntity
  8
L1_
  6
CONTINUOUS
 62
         7
100
AcDbVertex
100
AcDb2dVertex
 10
-9576.1317907819
 20
11938.8126999772
 30
0.0
 70
         1
  0
VERTEX
  5
317
100
AcDbEntity
  8
L1_
  6
CONTINUOUS
 62
         7
100
AcDbVertex
100
AcDb2dVertex
 10
-9576.1216316524
 20
11939.1474571065
 30
0.0
 70
         1
  0
VERTEX
  5
319
100
AcDbEntity
  8
L1_
  6
CONTINUOUS
 62
         7
100
AcDbVertex
100
AcDb2dVertex
 10
-9576.138199683
 20
11939.4826692338
 30
0.0
 70
         1
  0
VERTEX
  5
31B
100
AcDbEntity
  8
L1_
  6
CONTINUOUS
 62
         7
100
AcDbVertex
100
AcDb2dVertex
 10
-9576.1794957316
 20
11939.8129403414
 30
0.0
 70
         1
  0
VERTEX
  5
31D
100
AcDbEntity
  8
L1_
  6
CONTINUOUS
 62
         7
100
AcDbVertex
100
AcDb2dVertex
 10
-9576.2428968095
 20
11940.1335210659
 30
0.0
 70
         1
  0
VERTEX
  5
31F
100
AcDbEntity
  8
L1_
  6
CONTINUOUS
 62
         7
100
AcDbVertex
100
AcDb2dVertex
 10
-9576.3253693996
 20
11940.4404777674
 30
0.0
 70
         1
  0
VERTEX
  5
321
100
AcDbEntity
  8
L1_
  6
CONTINUOUS
 62
         7
100
AcDbVertex
100
AcDb2dVertex
 10
-9576.4604798676
 20
11940.8261412153
 30
0.0
 70
         1
  0
VERTEX
  5
323
100
AcDbEntity
  8
L1_
  6
CONTINUOUS
 62
         7
100
AcDbVertex
100
AcDb2dVertex
 10
-9576.6163702304
 20
11941.1770219236
 30
0.0
 70
         1
  0
VERTEX
  5
325
100
AcDbEntity
  8
L1_
  6
CONTINUOUS
 62
         7
100
AcDbVertex
100
AcDb2dVertex
 10
-9576.7858217716
 20
11941.4908962574
 30
0.0
 70
         1
  0
VERTEX
  5
327
100
AcDbEntity
  8
L1_
  6
CONTINUOUS
 62
         7
100
AcDbVertex
100
AcDb2dVertex
 10
-9576.9625780878
 20
11941.7676560067
 30
0.0
 70
         1
  0
VERTEX
  5
329
100
AcDbEntity
  8
L1_
  6
CONTINUOUS
 62
         7
100
AcDbVertex
100
AcDb2dVertex
 10
-9577.1415162794
 20
11942.0087445527
 30
0.0
 70
         1
  0
VERTEX
  5
32B
100
AcDbEntity
  8
L1_
  6
CONTINUOUS
 62
         7
100
AcDbVertex
100
AcDb2dVertex
 10
-9577.3186543584
 20
11942.2166247257
 30
0.0
 70
         1
  0
VERTEX
  5
32D
100
AcDbEntity
  8
L1_
  6
CONTINUOUS
 62
         7
100
AcDbVertex
100
AcDb2dVertex
 10
-9577.5493129173
 20
11942.4494877007
 30
0.0
 70
         1
  0
VERTEX
  5
32F
100
AcDbEntity
  8
L1_
  6
CONTINUOUS
 62
         7
100
AcDbVertex
100
AcDb2dVertex
 10
-9577.7667919374
 20
11942.6356278521
 30
0.0
 70
         1
  0
VERTEX
  5
331
100
AcDbEntity
  8
L1_
  6
CONTINUOUS
 62
         7
100
AcDbVertex
100
AcDb2dVertex
 10
-9577.9686034275
 20
11942.7828211334
 30
0.0
 70
         1
  0
VERTEX
  5
333
100
AcDbEntity
  8
L1_
  6
CONTINUOUS
 62
         7
100
AcDbVertex
100
AcDb2dVertex
 10
-9578.214945674
 20
11942.9322339247
 30
0.0
 70
         1
  0
VERTEX
  5
335
100
AcDbEntity
  8
L1_
  6
CONTINUOUS
 62
         7
100
AcDbVertex
100
AcDb2dVertex
 10
-9578.4314945054
 20
11943.0379163539
 30
0.0
 70
         1
  0
VERTEX
  5
337
100
AcDbEntity
  8
L1_
  6
CONTINUOUS
 62
         7
100
AcDbVertex
100
AcDb2dVertex
 10
-9578.6204158714
 20
11943.1113473567
 30
0.0
 70
         1
  0
VERTEX
  5
339
100
AcDbEntity
  8
L1_
  6
CONTINUOUS
 62
         7
100
AcDbVertex
100
AcDb2dVertex
 10
-9578.8379717261
 20
11943.1746938768
 30
0.0
 70
         1
  0
VERTEX
  5
33B
100
AcDbEntity
  8
L1_
  6
CONTINUOUS
 62
         7
100
AcDbVertex
100
AcDb2dVertex
 10
-9579.0752012513
 20
11943.2179273219
 30
0.0
 70
         1
  0
VERTEX
  5
33D
100
AcDbEntity
  8
L1_
  6
CONTINUOUS
 62
         7
100
AcDbVertex
100
AcDb2dVertex
 10
-9579.2579662962
 20
11943.2325220409
 30
0.0
 70
         1
  0
VERTEX
  5
33F
100
AcDbEntity
  8
L1_
  6
CONTINUOUS
 62
         7
100
AcDbVertex
100
AcDb2dVertex
 10
-9579.4451482976
 20
11943.2299756844
 30
0.0
 70
         1
  0
VERTEX
  5
341
100
AcDbEntity
  8
L1_
  6
CONTINUOUS
 62
         7
100
AcDbVertex
100
AcDb2dVertex
 10
-9579.6213708224
 20
11943.210582593
 30
0.0
 70
         1
  0
VERTEX
  5
343
100
AcDbEntity
  8
L1_
  6
CONTINUOUS
 62
         7
100
AcDbVertex
100
AcDb2dVertex
 10
-9579.8167773769
 20
11943.1684293434
 30
0.0
 70
         1
  0
VERTEX
  5
345
100
AcDbEntity
  8
L1_
  6
CONTINUOUS
 62
         7
100
AcDbVertex
100
AcDb2dVertex
 10
-9579.9551166142
 20
11943.124354213
 30
0.0
 70
         1
  0
VERTEX
  5
347
100
AcDbEntity
  8
L1_
  6
CONTINUOUS
 62
         7
100
AcDbVertex
100
AcDb2dVertex
 10
-9579.9551166142
 20
11943.124354213
 30
0.0
 70
         1
  0
VERTEX
  5
349
100
AcDbEntity
  8
L1_
  6
CONTINUOUS
 62
         7
100
AcDbVertex
100
AcDb2dVertex
 10
-9580.3059751468
 20
11942.9513144191
 30
0.0
 70
         1
  0
VERTEX
  5
34B
100
AcDbEntity
  8
L1_
  6
CONTINUOUS
 62
         7
100
AcDbVertex
100
AcDb2dVertex
 10
-9580.4512603924
 20
11942.8489886878
 30
0.0
 70
         1
  0
VERTEX
  5
34D
100
AcDbEntity
  8
L1_
  6
CONTINUOUS
 62
         7
100
AcDbVertex
100
AcDb2dVertex
 10
-9580.5915147674
 20
11942.7289082998
 30
0.0
 70
         1
  0
VERTEX
  5
34F
100
AcDbEntity
  8
L1_
  6
CONTINUOUS
 62
         7
100
AcDbVertex
100
AcDb2dVertex
 10
-9580.7250834925
 20
11942.5909354008
 30
0.0
 70
         1
  0
VERTEX
  5
351
100
AcDbEntity
  8
L1_
  6
CONTINUOUS
 62
         7
100
AcDbVertex
100
AcDb2dVertex
 10
-9580.8503044531
 20
11942.4352698198
 30
0.0
 70
         1
  0
VERTEX
  5
353
100
AcDbEntity
  8
L1_
  6
CONTINUOUS
 62
         7
100
AcDbVertex
100
AcDb2dVertex
 10
-9580.9655622326
 20
11942.2624754957
 30
0.0
 70
         1
  0
VERTEX
  5
355
100
AcDbEntity
  8
L1_
  6
CONTINUOUS
 62
         7
100
AcDbVertex
100
AcDb2dVertex
 10
-9581.069345667
 20
11942.073491596
 30
0.0
 70
         1
  0
VERTEX
  5
357
100
AcDbEntity
  8
L1_
  6
CONTINUOUS
 62
         7
100
AcDbVertex
100
AcDb2dVertex
 10
-9581.1603052807
 20
11941.8696257806
 30
0.0
 70
         1
  0
VERTEX
  5
359
100
AcDbEntity
  8
L1_
  6
CONTINUOUS
 62
         7
100
AcDbVertex
100
AcDb2dVertex
 10
-9581.2373065415
 20
11941.6525284379
 30
0.0
 70
         1
  0
VERTEX
  5
35B
100
AcDbEntity
  8
L1_
  6
CONTINUOUS
 62
         7
100
AcDbVertex
100
AcDb2dVertex
 10
-9581.2994748932
 20
11941.4241483991
 30
0.0
 70
         1
  0
VERTEX
  5
35D
100
AcDbEntity
  8
L1_
  6
CONTINUOUS
 62
         7
100
AcDbVertex
100
AcDb2dVertex
 10
-9581.3462290299
 20
11941.1866724089
 30
0.0
 70
         1
  0
VERTEX
  5
35F
100
AcDbEntity
  8
L1_
  6
CONTINUOUS
 62
         7
100
AcDbVertex
100
AcDb2dVertex
 10
-9581.3843014433
 20
11940.8581601033
 30
0.0
 70
         1
  0
VERTEX
  5
361
100
AcDbEntity
  8
L1_
  6
CONTINUOUS
 62
         7
100
AcDbVertex
100
AcDb2dVertex
 10
-9581.3944605728
 20
11940.523402974
 30
0.0
 70
         1
  0
VERTEX
  5
363
100
AcDbEntity
  8
L1_
  6
CONTINUOUS
 62
         7
100
AcDbVertex
100
AcDb2dVertex
 10
-9581.3778925422
 20
11940.1881908468
 30
0.0
 70
         1
  0
VERTEX
  5
365
100
AcDbEntity
  8
L1_
  6
CONTINUOUS
 62
         7
100
AcDbVertex
100
AcDb2dVertex
 10
-9581.3365964936
 20
11939.8579197392
 30
0.0
 70
         1
  0
VERTEX
  5
367
100
AcDbEntity
  8
L1_
  6
CONTINUOUS
 62
         7
100
AcDbVertex
100
AcDb2dVertex
 10
-9581.2731954157
 20
11939.5373390147
 30
0.0
 70
         1
  0
VERTEX
  5
369
100
AcDbEntity
  8
L1_
  6
CONTINUOUS
 62
         7
100
AcDbVertex
100
AcDb2dVertex
 10
-9581.1907228256
 20
11939.2303823131
 30
0.0
 70
         1
  0
VERTEX
  5
36B
100
AcDbEntity
  8
L1_
  6
CONTINUOUS
 62
         7
100
AcDbVertex
100
AcDb2dVertex
 10
-9581.0556123576
 20
11938.8447188652
 30
0.0
 70
         1
  0
VERTEX
  5
36D
100
AcDbEntity
  8
L1_
  6
CONTINUOUS
 62
         7
100
AcDbVertex
100
AcDb2dVertex
 10
-9580.8997219948
 20
11938.493838157
 30
0.0
 70
         1
  0
VERTEX
  5
36F
100
AcDbEntity
  8
L1_
  6
CONTINUOUS
 62
         7
100
AcDbVertex
100
AcDb2dVertex
 10
-9580.7302704537
 20
11938.1799638231
 30
0.0
 70
         1
  0
VERTEX
  5
371
100
AcDbEntity
  8
L1_
  6
CONTINUOUS
 62
         7
100
AcDbVertex
100
AcDb2dVertex
 10
-9580.5535141374
 20
11937.9032040738
 30
0.0
 70
         1
  0
VERTEX
  5
373
100
AcDbEntity
  8
L1_
  6
CONTINUOUS
 62
         7
100
AcDbVertex
100
AcDb2dVertex
 10
-9580.3745759458
 20
11937.6621155278
 30
0.0
 70
         1
  0
VERTEX
  5
375
100
AcDbEntity
  8
L1_
  6
CONTINUOUS
 62
         7
100
AcDbVertex
100
AcDb2dVertex
 10
-9580.1974378668
 20
11937.4542353549
 30
0.0
 70
         1
  0
VERTEX
  5
377
100
AcDbEntity
  8
L1_
  6
CONTINUOUS
 62
         7
100
AcDbVertex
100
AcDb2dVertex
 10
-9579.9667793079
 20
11937.2213723798
 30
0.0
 70
         1
  0
VERTEX
  5
379
100
AcDbEntity
  8
L1_
  6
CONTINUOUS
 62
         7
100
AcDbVertex
100
AcDb2dVertex
 10
-9579.7493002878
 20
11937.0352322284
 30
0.0
 70
         1
  0
VERTEX
  5
37B
100
AcDbEntity
  8
L1_
  6
CONTINUOUS
 62
         7
100
AcDbVertex
100
AcDb2dVertex
 10
-9579.5474887977
 20
11936.8880389471
 30
0.0
 70
         1
  0
VERTEX
  5
37D
100
AcDbEntity
  8
L1_
  6
CONTINUOUS
 62
         7
100
AcDbVertex
100
AcDb2dVertex
 10
-9579.3011465512
 20
11936.7386261558
 30
0.0
 70
         1
  0
VERTEX
  5
37F
100
AcDbEntity
  8
L1_
  6
CONTINUOUS
 62
         7
100
AcDbVertex
100
AcDb2dVertex
 10
-9579.0845977198
 20
11936.6329437267
 30
0.0
 70
         1
  0
VERTEX
  5
381
100
AcDbEntity
  8
L1_
  6
CONTINUOUS
 62
         7
100
AcDbVertex
100
AcDb2dVertex
 10
-9578.8956763538
 20
11936.5595127238
 30
0.0
 70
         1
  0
VERTEX
  5
383
100
AcDbEntity
  8
L1_
  6
CONTINUOUS
 62
         7
100
AcDbVertex
100
AcDb2dVertex
 10
-9578.6781204991
 20
11936.4961662037
 30
0.0
 70
         1
  0
VERTEX
  5
385
100
AcDbEntity
  8
L1_
  6
CONTINUOUS
 62
         7
100
AcDbVertex
100
AcDb2dVertex
 10
-9578.4408909739
 20
11936.4529327586
 30
0.0
 70
         1
  0
VERTEX
  5
387
100
AcDbEntity
  8
L1_
  6
CONTINUOUS
 62
         7
100
AcDbVertex
100
AcDb2dVertex
 10
-9578.258125929
 20
11936.4383380396
 30
0.0
 70
         1
  0
VERTEX
  5
389
100
AcDbEntity
  8
L1_
  6
CONTINUOUS
 62
         7
100
AcDbVertex
100
AcDb2dVertex
 10
-9578.0709439276
 20
11936.4408843961
 30
0.0
 70
         1
  0
VERTEX
  5
38B
100
AcDbEntity
  8
L1_
  6
CONTINUOUS
 62
         7
100
AcDbVertex
100
AcDb2dVertex
 10
-9577.8947214028
 20
11936.4602774875
 30
0.0
 70
         1
  0
VERTEX
  5
38D
100
AcDbEntity
  8
L1_
  6
CONTINUOUS
 62
         7
100
AcDbVertex
100
AcDb2dVertex
 10
-9577.6993148483
 20
11936.5024307371
 30
0.0
 70
         1
  0
VERTEX
  5
38F
100
AcDbEntity
  8
L1_
  6
CONTINUOUS
 62
         7
100
AcDbVertex
100
AcDb2dVertex
 10
-9577.560975611
 20
11936.5465058675
 30
0.0
 70
         1
  0
SEQEND
  5
391
100
AcDbEntity
  8
L1_
  6
CONTINUOUS
 62
         7
  0
LINE
  5
392
100
AcDbEntity
  8
L1_
  6
CENTER
 62
         1
100
AcDbLine
 10
-9583.4565092165
 20
11938.1253293236
 30
0.0
 11
-9574.0595830087
 21
11941.5455307569
 31
0.0
  0
LINE
  5
393
100
AcDbEntity
  8
L1_
  6
CENTER
 62
         1
100
AcDbLine
 10
-9839.9705485269
 20
11955.9503198193
 30
0.0
 11
-9839.9705485269
 21
11952.8503198193
 31
0.0
  0
INSERT
  5
3AB
100
AcDbEntity
  8
0
  6
CONTINUOUS
100
AcDbBlockReference
  2
*X0
 10
0.0
 20
0.0
 30
0.0
  0
LINE
  5
3AC
100
AcDbEntity
  8
L1_
  6
CENTER
 62
         1
100
AcDbLine
 10
-9819.9705485269
 20
11950.8503198193
 30
0.0
 11
-9819.9705485269
 21
11953.3503198193
 31
0.0
  0
LINE
  5
3AD
100
AcDbEntity
  8
L1_
  6
CENTER
 62
         1
100
AcDbLine
 10
-9819.9705485269
 20
11953.3503198193
 30
0.0
 11
-9834.9705485269
 21
11953.3503198193
 31
0.0
  0
LINE
  5
3AE
100
AcDbEntity
  8
L1_
  6
CENTER
 62
         1
100
AcDbLine
 10
-9834.9705485269
 20
11950.8503198193
 30
0.0
 11
-9834.9705485269
 21
11953.3503198193
 31
0.0
  0
LINE
  5
3AF
100
AcDbEntity
  8
L1_
  6
CENTER
 62
         1
100
AcDbLine
 10
-9819.9705485269
 20
12005.8503198193
 30
0.0
 11
-9819.9705485269
 21
12003.3503198193
 31
0.0
  0
LINE
  5
3B0
100
AcDbEntity
  8
L1_
  6
CENTER
 62
         1
100
AcDbLine
 10
-9834.9705485269
 20
12005.8503198193
 30
0.0
 11
-9834.9705485269
 21
12003.3503198193
 31
0.0
  0
LINE
  5
3B1
100
AcDbEntity
  8
L1_
  6
CENTER
 62
         1
100
AcDbLine
 10
-9819.9705485269
 20
12003.3503198193
 30
0.0
 11
-9834.9705485269
 21
12003.3503198193
 31
0.0
  0
LINE
  5
3B2
100
AcDbEntity
  8
L1_
  6
CENTER
 62
         1
100
AcDbLine
 10
-9822.4705485269
 20
12001.2163452231
 30
0.0
 11
-9823.9705485269
 21
12000.3503198193
 31
0.0
  0
LINE
  5
3B3
100
AcDbEntity
  8
L1_
  6
CENTER
 62
         1
100
AcDbLine
 10
-9822.4705485269
 20
11955.4842944155
 30
0.0
 11
-9823.9705485269
 21
11956.3503198193
 31
0.0
  0
ARC
  5
3B4
100
AcDbEntity
  8
L1_
  6
CENTER
 62
         1
100
AcDbCircle
 10
-9837.9705485269
 20
11954.3503198193
 30
0.0
 40
2.0
100
AcDbArc
 50
90.0
 51
180.0
  0
ARC
  5
3B5
100
AcDbEntity
  8
L1_
  6
CENTER
 62
         1
100
AcDbCircle
 10
-9837.9705485269
 20
12002.3503198193
 30
0.0
 40
2.0
100
AcDbArc
 50
180.0
 51
228.5903778907
  0
ARC
  5
3B6
100
AcDbEntity
  8
L1_
  6
CENTER
 62
         1
100
AcDbCircle
 10
-9837.9705485269
 20
11952.8503198193
 30
0.0
 40
2.0
100
AcDbArc
 50
180.0
 51
270.0
  0
ARC
  5
3B7
100
AcDbEntity
  8
L1_
  6
CENTER
 62
         1
100
AcDbCircle
 10
-9812.4705485269
 20
11952.8503198193
 30
0.0
 40
2.0
100
AcDbArc
 50
270.0
 51
360.0
  0
ARC
  5
3B8
100
AcDbEntity
  8
L1_
  6
CENTER
 62
         1
100
AcDbCircle
 10
-9837.9705485269
 20
12003.8503198193
 30
0.0
 40
2.0
100
AcDbArc
 50
90.0
 51
180.0
  0
ARC
  5
3B9
100
AcDbEntity
  8
L1_
  6
CENTER
 62
         1
100
AcDbCircle
 10
-9812.4705485269
 20
12003.8503198193
 30
0.0
 40
2.0
100
AcDbArc
 50
0.0
 51
90.0
  0
LINE
  5
3BA
100
AcDbEntity
  8
L1_
  6
CENTER
 62
         1
100
AcDbLine
 10
-9810.4705485269
 20
11957.2503198193
 30
0.0
 11
-9810.4705485269
 21
11952.8503198193
 31
0.0
  0
LINE
  5
3BB
100
AcDbEntity
  8
L1_
  6
CENTER
 62
         1
100
AcDbLine
 10
-9810.4705485269
 20
12003.8503198193
 30
0.0
 11
-9810.4705485269
 21
11999.4503198193
 31
0.0
  0
LINE
  5
3BC
100
AcDbEntity
  8
L1_
  6
CENTER
 62
         1
100
AcDbLine
 10
-9809.9705485269
 20
11957.2503198193
 30
0.0
 11
-9810.4705485269
 21
11957.2503198193
 31
0.0
  0
LINE
  5
3BD
100
AcDbEntity
  8
L1_
  6
CENTER
 62
         1
100
AcDbLine
 10
-9809.9705485269
 20
11999.4503198193
 30
0.0
 11
-9810.4705485269
 21
11999.4503198193
 31
0.0
  0
LINE
  5
3BE
100
AcDbEntity
  8
L1_
  6
CENTER
 62
         1
100
AcDbLine
 10
-9815.4705485269
 20
11956.7003198193
 30
0.0
 11
-9815.4705485269
 21
11957.0342944155
 31
0.0
  0
LINE
  5
3BF
100
AcDbEntity
  8
L1_
  6
CENTER
 62
         1
100
AcDbLine
 10
-9817.4347620893
 20
11955.3503198193
 30
0.0
 11
-9821.9705485269
 21
11955.3503198193
 31
0.0
  0
LINE
  5
3C0
100
AcDbEntity
  8
L1_
  6
CENTER
 62
         1
100
AcDbLine
 10
-9823.1045231231
 20
11955.8503198193
 30
0.0
 11
-9839.2934241824
 21
11955.8503198193
 31
0.0
  0
LINE
  5
3C1
100
AcDbEntity
  8
L1_
  6
CENTER
 62
         1
100
AcDbLine
 10
-9814.9705485269
 20
11956.5003198193
 30
0.0
 11
-9815.4705485269
 21
11956.5003198193
 31
0.0
  0
LINE
  5
3C2
100
AcDbEntity
  8
L1_
  6
CENTER
 62
         1
100
AcDbLine
 10
-9815.4705485269
 20
11956.7003198193
 30
0.0
 11
-9815.4705485269
 21
11956.5003198193
 31
0.0
  0
LINE
  5
3C3
100
AcDbEntity
  8
L1_
  6
CENTER
 62
         1
100
AcDbLine
 10
-9815.4705485269
 20
11956.7003198193
 30
0.0
 11
-9815.6705485269
 21
11956.7003198193
 31
0.0
  0
LINE
  5
3C4
100
AcDbEntity
  8
L1_
  6
CENTER
 62
         1
100
AcDbLine
 10
-9815.6705485269
 20
11956.7003198193
 30
0.0
 11
-9816.7276553081
 21
11955.6432130381
 31
0.0
  0
LINE
  5
3C5
100
AcDbEntity
  8
L1_
  6
CENTER
 62
         1
100
AcDbLine
 10
-9823.9705485269
 20
11956.3503198193
 30
0.0
 11
-9837.9705485269
 21
11956.3503198193
 31
0.0
  0
LINE
  5
3C6
100
AcDbEntity
  8
L1_
  6
CENTER
 62
         1
100
AcDbLine
 10
-9817.4347620893
 20
12001.3503198193
 30
0.0
 11
-9821.9705485269
 21
12001.3503198193
 31
0.0
  0
LINE
  5
3C7
100
AcDbEntity
  8
L1_
  6
CENTER
 62
         1
100
AcDbLine
 10
-9823.1045231231
 20
12000.8503198193
 30
0.0
 11
-9839.2934241824
 21
12000.8503198193
 31
0.0
  0
LINE
  5
3C8
100
AcDbEntity
  8
L1_
  6
CENTER
 62
         1
100
AcDbLine
 10
-9814.9705485269
 20
12000.2003198193
 30
0.0
 11
-9815.4705485269
 21
12000.2003198193
 31
0.0
  0
LINE
  5
3C9
100
AcDbEntity
  8
L1_
  6
CENTER
 62
         1
100
AcDbLine
 10
-9815.4705485269
 20
12000.0003198193
 30
0.0
 11
-9815.4705485269
 21
12000.2003198193
 31
0.0
  0
LINE
  5
3CA
100
AcDbEntity
  8
L1_
  6
CENTER
 62
         1
100
AcDbLine
 10
-9815.4705485269
 20
12000.0003198193
 30
0.0
 11
-9815.6705485269
 21
12000.0003198193
 31
0.0
  0
LINE
  5
3CB
100
AcDbEntity
  8
L1_
  6
CENTER
 62
         1
100
AcDbLine
 10
-9815.6705485269
 20
12000.0003198193
 30
0.0
 11
-9816.7276553081
 21
12001.0574266005
 31
0.0
  0
LINE
  5
3CC
100
AcDbEntity
  8
L1_
  6
CENTER
 62
         1
100
AcDbLine
 10
-9812.4705485269
 20
12005.8503198193
 30
0.0
 11
-9837.9705485269
 21
12005.8503198193
 31
0.0
  0
LINE
  5
3CD
100
AcDbEntity
  8
L1_
  6
CENTER
 62
         1
100
AcDbLine
 10
-9812.4705485269
 20
11950.8503198193
 30
0.0
 11
-9837.9705485269
 21
11950.8503198193
 31
0.0
  0
LINE
  5
3CE
100
AcDbEntity
  8
L1_
  6
CENTER
 62
         1
100
AcDbLine
 10
-9839.9705485269
 20
12003.8503198193
 30
0.0
 11
-9839.9705485269
 21
12000.7503198193
 31
0.0
  0
LINE
  5
3CF
100
AcDbEntity
  8
L1_
  6
CENTER
 62
         1
100
AcDbLine
 10
-9809.9705485269
 20
11999.4503198193
 30
0.0
 11
-9809.9705485269
 21
11957.2503198193
 31
0.0
  0
LINE
  5
3D0
100
AcDbEntity
  8
L1_
  6
CENTER
 62
         1
100
AcDbLine
 10
-9809.9705485269
 20
11994.4503198193
 30
0.0
 11
-9812.6705485269
 21
11994.4503198193
 31
0.0
  0
LINE
  5
3D1
100
AcDbEntity
  8
L1_
  6
CENTER
 62
         1
100
AcDbLine
 10
-9809.9705485269
 20
11962.2503198193
 30
0.0
 11
-9812.6705485269
 21
11962.2503198193
 31
0.0
  0
LINE
  5
3D2
100
AcDbEntity
  8
L1_
  6
CENTER
 62
         1
100
AcDbLine
 10
-9812.6705485269
 20
11994.4503198193
 30
0.0
 11
-9812.6705485269
 21
11962.2503198193
 31
0.0
  0
LINE
  5
3D3
100
AcDbEntity
  8
L1_
  6
CENTER
 62
         1
100
AcDbLine
 10
-9814.9705485269
 20
12000.2003198193
 30
0.0
 11
-9814.9705485269
 21
11956.5003198193
 31
0.0
  0
LINE
  5
3D4
100
AcDbEntity
  8
L1_
  6
CENTER
 62
         1
100
AcDbLine
 10
-9812.6705485269
 20
11992.9003198193
 30
0.0
 11
-9814.9705485269
 21
11992.9003198193
 31
0.0
  0
LINE
  5
3D5
100
AcDbEntity
  8
L1_
  6
CENTER
 62
         1
100
AcDbLine
 10
-9812.6705485269
 20
11963.8003198193
 30
0.0
 11
-9814.9705485269
 21
11963.8003198193
 31
0.0
  0
LINE
  5
3D6
100
AcDbEntity
  8
L1_
  6
CENTER
 62
         1
100
AcDbLine
 10
-9823.9705485269
 20
12000.3503198193
 30
0.0
 11
-9837.9705485269
 21
12000.3503198193
 31
0.0
  0
ARC
  5
3D7
100
AcDbEntity
  8
L1_
  6
CENTER
 62
         1
100
AcDbCircle
 10
-9821.9705485269
 20
12000.3503198193
 30
0.0
 40
1.0
100
AcDbArc
 50
90.0
 51
120.0
  0
ARC
  5
3D8
100
AcDbEntity
  8
L1_
  6
CENTER
 62
         1
100
AcDbCircle
 10
-9817.4347620893
 20
12000.3503198193
 30
0.0
 40
1.0
100
AcDbArc
 50
45.0
 51
90.0
  0
LINE
  5
3D9
100
AcDbEntity
  8
L1_
  6
CENTER
 62
         1
100
AcDbLine
 10
-9817.0205485269
 20
11955.9938754102
 30
0.0
 11
-9817.0205485269
 21
11956.9003198193
 31
0.0
  0
ARC
  5
3DA
100
AcDbEntity
  8
L1_
  6
CENTER
 62
         1
100
AcDbCircle
 10
-9821.9705485269
 20
11956.3503198193
 30
0.0
 40
1.0
100
AcDbArc
 50
240.0
 51
270.0
  0
ARC
  5
3DB
100
AcDbEntity
  8
L1_
  6
CENTER
 62
         1
100
AcDbCircle
 10
-9817.4347620893
 20
11956.3503198193
 30
0.0
 40
1.0
100
AcDbArc
 50
270.0
 51
315.0
  0
LINE
  5
3DC
100
AcDbEntity
  8
L1_
  6
CONTINUOUS
 62
         4
100
AcDbLine
 10
-9817.9205485269
 20
12000.7503198193
 30
0.0
 11
-9817.9205485269
 21
11955.9503198193
 31
0.0
  0
LINE
  5
3DD
100
AcDbEntity
  8
L1_
  6
CONTINUOUS
 62
         4
100
AcDbLine
 10
-9816.9705485269
 20
11956.9003198193
 30
0.0
 11
-9817.0205485269
 21
11999.8503198193
 31
0.0
  0
ARC
  5
3DE
100
AcDbEntity
  8
L1_
  6
CONTINUOUS
 62
         7
100
AcDbCircle
 10
-9815.9705485269
 20
11998.8003198193
 30
0.0
 40
1.0
100
AcDbArc
 50
0.0
 51
90.0
  0
LINE
  5
3DF
100
AcDbEntity
  8
L1_
  6
CONTINUOUS
 62
         7
100
AcDbLine
 10
-9817.9205485269
 20
12000.7503198193
 30
0.0
 11
-9816.9705485269
 21
11999.8003198193
 31
0.0
  0
LINE
  5
3E0
100
AcDbEntity
  8
L1_
  6
CONTINUOUS
 62
         7
100
AcDbLine
 10
-9815.9705485269
 20
11999.8003198193
 30
0.0
 11
-9816.9705485269
 21
11999.8003198193
 31
0.0
  0
DIMENSION
  5
3E4
100
AcDbEntity
  8
L1_
  6
CONTINUOUS
 62
         4
100
AcDbDimension
  2
*D1
 10
-9840.9705485269
 20
11926.3365000441
 30
0.0
 11
-9833.4240778528
 21
11928.2615000441
 31
0.0
  3
DIMSTYLE1
100
AcDbAlignedDimension
 13
-9840.9705485269
 23
11951.3503198193
 33
0.0
 14
-9814.9705485269
 24
11957.9003198193
 34
0.0
100
AcDbRotatedDimension
  0
DIMENSION
  5
3F3
100
AcDbEntity
  8
L1_
  6
CONTINUOUS
 62
         4
100
AcDbDimension
  2
*D2
 10
-9816.9705485269
 20
11937.8925344186
 30
0.0
 11
-9811.6436182704
 21
11939.8175344186
 31
0.0
  3
DIMSTYLE1
100
AcDbAlignedDimension
 13
-9816.9705485269
 23
11957.9003198193
 33
0.0
 14
-9814.9705485269
 24
11958.7003198193
 34
0.0
100
AcDbRotatedDimension
  0
LINE
  5
401
100
AcDbEntity
  8
L1_
  6
CONTINUOUS
 62
         7
100
AcDbLine
 10
-9815.9705485269
 20
11956.9003198193
 30
0.0
 11
-9816.9705485269
 21
11956.9003198193
 31
0.0
  0
LINE
  5
402
100
AcDbEntity
  8
L1_
  6
CONTINUOUS
 62
         7
100
AcDbLine
 10
-9817.9205485269
 20
11955.9503198193
 30
0.0
 11
-9816.9705485269
 21
11956.9003198193
 31
0.0
  0
ARC
  5
403
100
AcDbEntity
  8
L1_
  6
CONTINUOUS
 62
         7
100
AcDbCircle
 10
-9815.9705485269
 20
11957.9003198193
 30
0.0
 40
1.0
100
AcDbArc
 50
270.0
 51
360.0
  0
LINE
  5
404
100
AcDbEntity
  8
L1_
  6
CONTINUOUS
 62
         4
100
AcDbLine
 10
-9841.4705485269
 20
11950.8503198193
 30
0.0
 11
-9841.4705485269
 21
12005.8503198193
 31
0.0
  0
LINE
  5
405
100
AcDbEntity
  8
L1_
  6
CONTINUOUS
 62
         7
100
AcDbLine
 10
-9839.9705485269
 20
11955.9503198193
 30
0.0
 11
-9839.9705485269
 21
12000.7503198193
 31
0.0
  0
LINE
  5
406
100
AcDbEntity
  8
L1_
  6
CONTINUOUS
 62
         4
100
AcDbLine
 10
-9817.0205485269
 20
11956.8503198193
 30
0.0
 11
-9839.9705485269
 21
11956.8503198193
 31
0.0
  0
LINE
  5
407
100
AcDbEntity
  8
L1_
  6
CONTINUOUS
 62
         4
100
AcDbLine
 10
-9817.0205485269
 20
11999.8503198193
 30
0.0
 11
-9839.9705485269
 21
11999.8503198193
 31
0.0
  0
LINE
  5
408
100
AcDbEntity
  8
L1_
  6
CONTINUOUS
 62
         7
100
AcDbLine
 10
-9840.9705485269
 20
11951.3503198193
 30
0.0
 11
-9841.4705485269
 21
11950.8503198193
 31
0.0
  0
LINE
  5
409
100
AcDbEntity
  8
L1_
  6
CONTINUOUS
 62
         7
100
AcDbLine
 10
-9840.9705485269
 20
12005.3503198193
 30
0.0
 11
-9841.4705485269
 21
12005.8503198193
 31
0.0
  0
ARC
  5
40A
100
AcDbEntity
  8
L1_
  6
CONTINUOUS
 62
         7
100
AcDbCircle
 10
-9840.4705485269
 20
11955.4503198193
 30
0.0
 40
0.5
100
AcDbArc
 50
90.0
 51
180.0
  0
ARC
  5
40B
100
AcDbEntity
  8
L1_
  6
CONTINUOUS
 62
         7
100
AcDbCircle
 10
-9840.4705485269
 20
12001.2503198193
 30
0.0
 40
0.5
100
AcDbArc
 50
180.0
 51
270.0
  0
LINE
  5
40C
100
AcDbEntity
  8
L1_
  6
CONTINUOUS
 62
         7
100
AcDbLine
 10
-9814.9705485269
 20
11957.9003198193
 30
0.0
 11
-9814.9705485269
 21
11998.8003198193
 31
0.0
  0
LINE
  5
40D
100
AcDbEntity
  8
L1_
  6
CONTINUOUS
 62
         7
100
AcDbLine
 10
-9817.9205485269
 20
12000.7503198193
 30
0.0
 11
-9840.4705485269
 21
12000.7503198193
 31
0.0
  0
LINE
  5
40E
100
AcDbEntity
  8
L1_
  6
CONTINUOUS
 62
         7
100
AcDbLine
 10
-9817.9205485269
 20
11955.9503198193
 30
0.0
 11
-9840.4705485269
 21
11955.9503198193
 31
0.0
  0
LINE
  5
40F
100
AcDbEntity
  8
L1_
  6
CONTINUOUS
 62
         7
100
AcDbLine
 10
-9840.9705485269
 20
11951.3503198193
 30
0.0
 11
-9840.9705485269
 21
12005.3503198193
 31
0.0
  0
LINE
  5
410
100
AcDbEntity
  8
L1_
  6
CONTINUOUS
 62
         7
100
AcDbLine
 10
-9841.4705485269
 20
12005.8503198193
 30
0.0
 11
-9877.8185485269
 21
12005.8503198193
 31
0.0
  0
LINE
  5
411
100
AcDbEntity
  8
L1_
  6
CONTINUOUS
 62
         7
100
AcDbLine
 10
-9841.4705485269
 20
11950.8503198193
 30
0.0
 11
-9877.8185485269
 21
11950.8503198193
 31
0.0
  0
DIMENSION
  5
414
100
AcDbEntity
  8
L1_
  6
CONTINUOUS
 62
         4
100
AcDbDimension
  2
*D3
 10
-9792.3513770211
 20
11999.8003198193
 30
0.0
 11
-9794.2763770211
 21
11961.8836260839
 31
0.0
  3
DIMSTYLE1
100
AcDbAlignedDimension
 13
-9815.9705485269
 23
11999.8003198193
 33
0.0
 14
-9815.9705485269
 24
11956.9003198193
 34
0.0
 50
90.0
100
AcDbRotatedDimension
  0
DIMENSION
  5
422
100
AcDbEntity
  8
L1_
  6
CONTINUOUS
 62
         4
100
AcDbDimension
  2
*D4
 10
-9782.3361472298
 20
12005.8503198193
 30
0.0
 11
-9784.2611472298
 21
11964.998424938
 31
0.0
  3
DIMSTYLE1
100
AcDbAlignedDimension
 13
-9841.4705485269
 23
12005.8503198193
 33
0.0
 14
-9841.4705485269
 24
11950.8503198193
 34
0.0
 50
90.0
100
AcDbRotatedDimension
  0
LINE
  5
42E
100
AcDbEntity
  8
L1_
  6
CENTER
 62
         1
100
AcDbLine
 10
-9817.0205485269
 20
11999.8003198193
 30
0.0
 11
-9817.0205485269
 21
12001.0602790356
 31
0.0
  0
LINE
  5
42F
100
AcDbEntity
  8
L1_
  6
CENTER
 62
         1
100
AcDbLine
 10
-9815.4705485269
 20
11999.6663452231
 30
0.0
 11
-9815.4705485269
 21
12000.0003198193
 31
0.0
  0
DIMENSION
  5
432
100
AcDbEntity
  8
L1_
  6
CONTINUOUS
 62
         4
100
AcDbDimension
  2
*D5
 10
-10016.4705485269
 20
12090.6093315755
 30
0.0
 11
-9925.231938109
 21
12092.5343315755
 31
0.0
  3
DIMSTYLE1
100
AcDbAlignedDimension
 13
-10016.4705485269
 23
11996.2966555833
 33
0.0
 14
-9814.9705485269
 24
12000.2003198193
 34
0.0
100
AcDbRotatedDimension
  0
DIMENSION
  5
440
100
AcDbEntity
  8
L1_
  6
CONTINUOUS
 62
         4
100
AcDbDimension
  2
*D6
 10
-9914.8705485269
 20
12074.7898889932
 30
0.0
 11
-9870.7504628345
 21
12076.7148889932
 31
0.0
  3
DIMSTYLE1
100
AcDbAlignedDimension
 13
-9914.8705485269
 23
12018.0753198193
 33
0.0
 14
-9814.9705485269
 24
12000.2003198193
 34
0.0
100
AcDbRotatedDimension
  0
DIMENSION
  5
44E
100
AcDbEntity
  8
L1_
  6
CONTINUOUS
 62
         4
100
AcDbDimension
  2
*D7
 10
-9924.9705485269
 20
11680.7385403857
 30
0.0
 11
-9877.347907474
 21
11682.6635403857
 31
0.0
  3
DIMSTYLE1
100
AcDbAlignedDimension
 13
-9924.9705485269
 23
11725.0703887676
 33
0.0
 14
-9814.9705485269
 24
11718.9078887676
 34
0.0
100
AcDbRotatedDimension
  0
LINE
  5
45A
100
AcDbEntity
  8
L1_
  6
CONTINUOUS
 62
         7
100
AcDbLine
 10
-9934.9705485269
 20
11725.8128887676
 30
0.0
 11
-9934.9705485269
 21
11752.9028887676
 31
0.0
  0
LINE
  5
45B
100
AcDbEntity
  8
L1_
  6
CONTINUOUS
 62
         7
100
AcDbLine
 10
-9934.9705485269
 20
11752.9028887676
 30
0.0
 11
-9867.9705485269
 21
11752.9028887676
 31
0.0
  0
LINE
  5
45C
100
AcDbEntity
  8
L1_
  6
CONTINUOUS
 62
         4
100
AcDbLine
 10
-9924.9705485269
 20
11725.0703887676
 30
0.0
 11
-9867.9705485269
 21
11725.0703887676
 31
0.0
  0
LINE
  5
45D
100
AcDbEntity
  8
L1_
  6
CONTINUOUS
 62
         7
100
AcDbLine
 10
-9934.9705485269
 20
11725.8128887676
 30
0.0
 11
-9867.9705485269
 21
11725.8128887676
 31
0.0
  0
LINE
  5
45E
100
AcDbEntity
  8
L1_
  6
CONTINUOUS
 62
         4
100
AcDbLine
 10
-9924.9705485269
 20
11753.6453887676
 30
0.0
 11
-9867.9705485269
 21
11753.6453887676
 31
0.0
  0
LINE
  5
45F
100
AcDbEntity
  8
L1_
  6
CONTINUOUS
 62
         7
100
AcDbLine
 10
-9924.9705485269
 20
11725.0703887676
 30
0.0
 11
-9924.9705485269
 21
11753.6453887676
 31
0.0
  0
LINE
  5
460
100
AcDbEntity
  8
L1_
  6
CONTINUOUS
 62
         7
100
AcDbLine
 10
-9839.9705485269
 20
11760.8578887676
 30
0.0
 11
-9839.9705485269
 21
11761.7578887676
 31
0.0
  0
LINE
  5
461
100
AcDbEntity
  8
L1_
  6
CONTINUOUS
 62
         4
100
AcDbLine
 10
-9817.0205485269
 20
11717.8578887676
 30
0.0
 11
-9839.9705485269
 21
11717.8578887676
 31
0.0
  0
LINE
  5
462
100
AcDbEntity
  8
L1_
  6
CONTINUOUS
 62
         7
100
AcDbLine
 10
-9839.9705485269
 20
11716.9578887676
 30
0.0
 11
-9839.9705485269
 21
11717.8578887676
 31
0.0
  0
LINE
  5
463
100
AcDbEntity
  8
L1_
  6
CONTINUOUS
 62
         4
100
AcDbLine
 10
-9817.0205485269
 20
11760.8578887676
 30
0.0
 11
-9839.9705485269
 21
11760.8578887676
 31
0.0
  0
LINE
  5
464
100
AcDbEntity
  8
L1_
  6
CONTINUOUS
 62
         7
100
AcDbLine
 10
-9840.9705485269
 20
11712.3578887676
 30
0.0
 11
-9841.4705485269
 21
11711.8578887676
 31
0.0
  0
LINE
  5
465
100
AcDbEntity
  8
L1_
  6
CONTINUOUS
 62
         7
100
AcDbLine
 10
-9840.9705485269
 20
11766.3578887676
 30
0.0
 11
-9841.4705485269
 21
11766.8578887676
 31
0.0
  0
ARC
  5
466
100
AcDbEntity
  8
L1_
  6
CONTINUOUS
 62
         7
100
AcDbCircle
 10
-9840.4705485269
 20
11716.4578887676
 30
0.0
 40
0.5
100
AcDbArc
 50
90.0
 51
180.0
  0
ARC
  5
467
100
AcDbEntity
  8
L1_
  6
CONTINUOUS
 62
         7
100
AcDbCircle
 10
-9840.4705485269
 20
11762.2578887676
 30
0.0
 40
0.5
100
AcDbArc
 50
180.0
 51
270.0
  0
LINE
  5
468
100
AcDbEntity
  8
L1_
  6
CONTINUOUS
 62
         7
100
AcDbLine
 10
-9814.9705485269
 20
11718.9078887676
 30
0.0
 11
-9814.9705485269
 21
11759.8078887676
 31
0.0
  0
LINE
  5
469
100
AcDbEntity
  8
L1_
  6
CONTINUOUS
 62
         7
100
AcDbLine
 10
-9867.9705485269
 20
11724.6078887676
 30
0.0
 11
-9867.9705485269
 21
11754.1078887676
 31
0.0
  0
LINE
  5
46A
100
AcDbEntity
  8
L1_
  6
CONTINUOUS
 62
         7
100
AcDbLine
 10
-9816.3659138163
 20
11756.7603153214
 30
0.0
 11
-9854.2973807328
 21
11754.1078887676
 31
0.0
  0
LINE
  5
46B
100
AcDbEntity
  8
L1_
  6
CONTINUOUS
 62
         7
100
AcDbLine
 10
-9816.3659138163
 20
11721.9554622138
 30
0.0
 11
-9854.2973807328
 21
11724.6078887676
 31
0.0
  0
LINE
  5
46C
100
AcDbEntity
  8
L1_
  6
CONTINUOUS
 62
         7
100
AcDbLine
 10
-9817.9205485269
 20
11761.7578887676
 30
0.0
 11
-9840.4705485269
 21
11761.7578887676
 31
0.0
  0
LINE
  5
46D
100
AcDbEntity
  8
L1_
  6
CONTINUOUS
 62
         7
100
AcDbLine
 10
-9817.9205485269
 20
11716.9578887676
 30
0.0
 11
-9840.4705485269
 21
11716.9578887676
 31
0.0
  0
LINE
  5
46E
100
AcDbEntity
  8
L1_
  6
CONTINUOUS
 62
         7
100
AcDbLine
 10
-9840.9705485269
 20
11712.3578887676
 30
0.0
 11
-9840.9705485269
 21
11716.4578887676
 31
0.0
  0
LINE
  5
46F
100
AcDbEntity
  8
L1_
  6
CONTINUOUS
 62
         7
100
AcDbLine
 10
-9841.4705485269
 20
11766.8578887676
 30
0.0
 11
-9877.8185485269
 21
11766.8578887676
 31
0.0
  0
LINE
  5
470
100
AcDbEntity
  8
L1_
  6
CONTINUOUS
 62
         7
100
AcDbLine
 10
-9841.4705485269
 20
11711.8578887676
 30
0.0
 11
-9877.8185485269
 21
11711.8578887676
 31
0.0
  0
LINE
  5
471
100
AcDbEntity
  8
L1_
  6
CONTINUOUS
 62
         7
100
AcDbLine
 10
-9840.9705485269
 20
11762.2578887676
 30
0.0
 11
-9840.9705485269
 21
11766.3578887676
 31
0.0
  0
DIMENSION
  5
474
100
AcDbEntity
  8
L1_
  6
CONTINUOUS
 62
         4
100
AcDbDimension
  2
*D8
 10
-9794.0287168751
 20
11756.8578887676
 30
0.0
 11
-9795.9537168751
 21
11727.2340843161
 31
0.0
  3
DIMSTYLE1
100
AcDbAlignedDimension
 13
-9814.9705485269
 23
11756.8578887676
 33
0.0
 14
-9814.9705485269
 24
11721.8578887676
 34
0.0
 50
90.0
100
AcDbRotatedDimension
  0
DIMENSION
  5
482
100
AcDbEntity
  8
L1_
  6
CONTINUOUS
 62
         4
100
AcDbDimension
  2
*D9
 10
-9814.9705485269
 20
11691.847175181
 30
0.0
 11
-9845.6382560563
 21
11693.772175181
 31
0.0
  3
DIMSTYLE1
100
AcDbAlignedDimension
 13
-9814.9705485269
 23
11717.9578887676
 33
0.0
 14
-9867.9705485269
 24
11724.3578887676
 34
0.0
100
AcDbRotatedDimension
  0
ARC
  5
48E
100
AcDbEntity
  8
L1_
  6
CONTINUOUS
 62
         7
100
AcDbCircle
 10
-9815.9705485269
 20
11759.8078887676
 30
0.0
 40
1.0
100
AcDbArc
 50
0.0
 51
90.0
  0
LINE
  5
48F
100
AcDbEntity
  8
L1_
  6
CONTINUOUS
 62
         7
100
AcDbLine
 10
-9817.9205485269
 20
11761.7578887676
 30
0.0
 11
-9816.9705485269
 21
11760.8078887676
 31
0.0
  0
LINE
  5
490
100
AcDbEntity
  8
L1_
  6
CONTINUOUS
 62
         7
100
AcDbLine
 10
-9815.9705485269
 20
11760.8078887676
 30
0.0
 11
-9816.9705485269
 21
11760.8078887676
 31
0.0
  0
LINE
  5
491
100
AcDbEntity
  8
L1_
  6
CONTINUOUS
 62
         7
100
AcDbLine
 10
-9815.9705485269
 20
11717.9078887676
 30
0.0
 11
-9816.9705485269
 21
11717.9078887676
 31
0.0
  0
LINE
  5
492
100
AcDbEntity
  8
L1_
  6
CONTINUOUS
 62
         7
100
AcDbLine
 10
-9817.9205485269
 20
11716.9578887676
 30
0.0
 11
-9816.9705485269
 21
11717.9078887676
 31
0.0
  0
ARC
  5
493
100
AcDbEntity
  8
L1_
  6
CONTINUOUS
 62
         7
100
AcDbCircle
 10
-9815.9705485269
 20
11718.9078887676
 30
0.0
 40
1.0
100
AcDbArc
 50
270.0
 51
360.0
  0
LINE
  5
494
100
AcDbEntity
  8
L1_
  6
CONTINUOUS
 62
         7
100
AcDbLine
 10
-9854.2973807328
 20
11754.1078887676
 30
0.0
 11
-9867.9705485269
 21
11754.1078887676
 31
0.0
  0
LINE
  5
495
100
AcDbEntity
  8
L1_
  6
CONTINUOUS
 62
         7
100
AcDbLine
 10
-9854.2973807328
 20
11724.6078887676
 30
0.0
 11
-9867.9705485269
 21
11724.6078887676
 31
0.0
  0
LINE
  5
496
100
AcDbEntity
  8
L1_
  6
CONTINUOUS
 62
         7
100
AcDbLine
 10
-9854.2973807328
 20
11724.6078887676
 30
0.0
 11
-9854.2973807328
 21
11754.1078887676
 31
0.0
  0
DIMENSION
  5
499
100
AcDbEntity
  8
L1_
  6
CONTINUOUS
 62
         4
100
AcDbDimension
  2
*D10
 10
-9854.2973807328
 20
11702.0257667725
 30
0.0
 11
-9843.3839646299
 21
11703.9507667725
 31
0.0
  3
DIMSTYLE1
100
AcDbAlignedDimension
 13
-9854.2973807328
 23
11724.6078887676
 33
0.0
 14
-9814.9705485269
 24
11718.9078887676
 34
0.0
100
AcDbRotatedDimension
  0
DIMENSION
  5
4A7
100
AcDbEntity
  8
L1_
  6
CONTINUOUS
 62
         4
100
AcDbDimension
  2
*D11
 10
-9839.9705485269
 20
11777.4430785614
 30
0.0
 11
-9830.9705485269
 21
11779.3680785614
 31
0.0
  3
DIMSTYLE1
100
AcDbAlignedDimension
 13
-9839.9705485269
 23
11761.7578887676
 33
0.0
 14
-9814.9705485269
 24
11759.8078887676
 34
0.0
100
AcDbRotatedDimension
  0
ARC
  5
4B3
100
AcDbEntity
  8
L1_
  6
CONTINUOUS
 62
         7
100
AcDbCircle
 10
-9816.4705485269
 20
11758.2566613968
 30
0.0
 40
1.5
100
AcDbArc
 50
274.0
 51
360.0
  0
ARC
  5
4B4
100
AcDbEntity
  8
L1_
  6
CONTINUOUS
 62
         7
100
AcDbCircle
 10
-9816.4705485269
 20
11720.4591161384
 30
0.0
 40
1.5
100
AcDbArc
 50
0.0
 51
86.0
  0
CIRCLE
  5
4B5
100
AcDbEntity
  8
L1_
  6
CONTINUOUS
 62
         7
100
AcDbCircle
 10
-9592.8151889697
 20
11978.3503198193
 30
0.0
 40
13.545
  0
CIRCLE
  5
4B6
100
AcDbEntity
  8
L1_
  6
CONTINUOUS
 62
         7
100
AcDbCircle
 10
-9592.8151889697
 20
11978.3503198193
 30
0.0
 40
14.75
  0
CIRCLE
  5
4B7
100
AcDbEntity
  8
L1_
  6
CONTINUOUS
 62
         7
100
AcDbCircle
 10
-9592.8151889697
 20
11978.3503198193
 30
0.0
 40
17.5
  0
ARC
  5
4B8
100
AcDbEntity
  8
L1_
  6
CONTINUOUS
 62
         4
100
AcDbCircle
 10
-9592.8151889697
 20
11978.3503198193
 30
0.0
 40
21.45
100
AcDbArc
 50
270.0
 51
540.0
  0
CIRCLE
  5
4B9
100
AcDbEntity
  8
L1_
  6
CONTINUOUS
 62
         7
100
AcDbCircle
 10
-9592.8151889697
 20
11978.3503198193
 30
0.0
 40
22.4
  0
CIRCLE
  5
4BA
100
AcDbEntity
  8
L1_
  6
CONTINUOUS
 62
         4
100
AcDbCircle
 10
-9592.8151889697
 20
11978.3503198193
 30
0.0
 40
27.0
  0
CIRCLE
  5
4BB
100
AcDbEntity
  8
L1_
  6
CONTINUOUS
 62
         7
100
AcDbCircle
 10
-9592.8151889697
 20
11978.3503198193
 30
0.0
 40
27.5
  0
CIRCLE
  5
4BC
100
AcDbEntity
  8
L1_
  6
CONTINUOUS
 62
         7
100
AcDbCircle
 10
-9629.0861158415
 20
11833.7894202493
 30
0.0
 40
14.55
  0
CIRCLE
  5
4BD
100
AcDbEntity
  8
L1_
  6
CONTINUOUS
 62
         7
100
AcDbCircle
 10
-9629.0861158415
 20
11833.7894202493
 30
0.0
 40
16.1
  0
CIRCLE
  5
4BE
100
AcDbEntity
  8
L1_
  6
CONTINUOUS
 62
         7
100
AcDbCircle
 10
-9629.0861158415
 20
11833.7894202493
 30
0.0
 40
21.1
  0
CIRCLE
  5
4BF
100
AcDbEntity
  8
L1_
  6
CONTINUOUS
 62
         7
100
AcDbCircle
 10
-9629.0861158415
 20
11833.7894202493
 30
0.0
 40
27.5
  0
LINE
  5
4C0
100
AcDbEntity
  8
L1_
  6
CENTER
 62
         1
100
AcDbLine
 10
-9599.5861158415
 20
11833.7894202493
 30
0.0
 11
-9658.5861158415
 21
11833.7894202493
 31
0.0
  0
LINE
  5
4C1
100
AcDbEntity
  8
L1_
  6
CENTER
 62
         1
100
AcDbLine
 10
-9629.0861158415
 20
11804.2894202493
 30
0.0
 11
-9629.0861158415
 21
11863.2894202493
 31
0.0
  0
LINE
  5
4C2
100
AcDbEntity
  8
L1_
  6
DASHED
 62
         2
100
AcDbLine
 10
-9626.1111158415
 20
11858.7894202493
 30
0.0
 11
-9626.1111158415
 21
11861.128026194
 31
0.0
  0
LINE
  5
4C3
100
AcDbEntity
  8
L1_
  6
DASHED
 62
         2
100
AcDbLine
 10
-9632.0611158415
 20
11858.7894202493
 30
0.0
 11
-9632.0611158415
 21
11861.128026194
 31
0.0
  0
LINE
  5
4C4
100
AcDbEntity
  8
L1_
  6
DASHED
 62
         2
100
AcDbLine
 10
-9626.1111158415
 20
11858.7894202493
 30
0.0
 11
-9632.0611158415
 21
11858.7894202493
 31
0.0
  0
LINE
  5
4C5
100
AcDbEntity
  8
L1_
  6
DASHED
 62
         2
100
AcDbLine
 10
-9649.2492509361
 20
11848.8658458255
 30
0.0
 11
-9651.2745430937
 21
11850.0351487979
 31
0.0
  0
LINE
  5
4C6
100
AcDbEntity
  8
L1_
  6
DASHED
 62
         2
100
AcDbLine
 10
-9652.2242509361
 20
11843.712994673
 30
0.0
 11
-9654.2495430937
 21
11844.8822976454
 31
0.0
  0
LINE
  5
4C7
100
AcDbEntity
  8
L1_
  6
DASHED
 62
         2
100
AcDbLine
 10
-9649.2492509361
 20
11848.8658458255
 30
0.0
 11
-9652.2242509361
 21
11843.712994673
 31
0.0
  0
LINE
  5
4C8
100
AcDbEntity
  8
L1_
  6
DASHED
 62
         2
100
AcDbLine
 10
-9652.2242509361
 20
11823.8658458255
 30
0.0
 11
-9654.2495430937
 21
11822.6965428532
 31
0.0
  0
LINE
  5
4C9
100
AcDbEntity
  8
L1_
  6
DASHED
 62
         2
100
AcDbLine
 10
-9649.2492509361
 20
11818.712994673
 30
0.0
 11
-9651.2745430937
 21
11817.5436917007
 31
0.0
  0
LINE
  5
4CA
100
AcDbEntity
  8
L1_
  6
DASHED
 62
         2
100
AcDbLine
 10
-9652.2242509361
 20
11823.8658458255
 30
0.0
 11
-9649.2492509361
 21
11818.712994673
 31
0.0
  0
LINE
  5
4CB
100
AcDbEntity
  8
L1_
  6
DASHED
 62
         2
100
AcDbLine
 10
-9632.0611158415
 20
11808.7894202493
 30
0.0
 11
-9632.0611158415
 21
11806.4508143046
 31
0.0
  0
LINE
  5
4CC
100
AcDbEntity
  8
L1_
  6
DASHED
 62
         2
100
AcDbLine
 10
-9626.1111158415
 20
11808.7894202493
 30
0.0
 11
-9626.1111158415
 21
11806.4508143046
 31
0.0
  0
LINE
  5
4CD
100
AcDbEntity
  8
L1_
  6
DASHED
 62
         2
100
AcDbLine
 10
-9632.0611158415
 20
11808.7894202493
 30
0.0
 11
-9626.1111158415
 21
11808.7894202493
 31
0.0
  0
LINE
  5
4CE
100
AcDbEntity
  8
L1_
  6
DASHED
 62
         2
100
AcDbLine
 10
-9608.9229807469
 20
11818.712994673
 30
0.0
 11
-9606.8976885893
 21
11817.5436917007
 31
0.0
  0
LINE
  5
4CF
100
AcDbEntity
  8
L1_
  6
DASHED
 62
         2
100
AcDbLine
 10
-9605.9479807469
 20
11823.8658458255
 30
0.0
 11
-9603.9226885893
 21
11822.6965428532
 31
0.0
  0
LINE
  5
4D0
100
AcDbEntity
  8
L1_
  6
DASHED
 62
         2
100
AcDbLine
 10
-9608.9229807469
 20
11818.712994673
 30
0.0
 11
-9605.9479807469
 21
11823.8658458255
 31
0.0
  0
LINE
  5
4D1
100
AcDbEntity
  8
L1_
  6
DASHED
 62
         2
100
AcDbLine
 10
-9605.9479807469
 20
11843.712994673
 30
0.0
 11
-9603.9226885893
 21
11844.8822976454
 31
0.0
  0
LINE
  5
4D2
100
AcDbEntity
  8
L1_
  6
DASHED
 62
         2
100
AcDbLine
 10
-9608.9229807469
 20
11848.8658458255
 30
0.0
 11
-9606.8976885893
 21
11850.0351487979
 31
0.0
  0
LINE
  5
4D3
100
AcDbEntity
  8
L1_
  6
DASHED
 62
         2
100
AcDbLine
 10
-9605.9479807469
 20
11843.712994673
 30
0.0
 11
-9608.9229807469
 21
11848.8658458255
 31
0.0
  0
LINE
  5
4D4
100
AcDbEntity
  8
L1_
  6
CENTER
 62
         1
100
AcDbLine
 10
-9603.5383664299
 20
11848.5394202493
 30
0.0
 11
-9654.6338652532
 21
11819.0394202493
 31
0.0
  0
LINE
  5
4D5
100
AcDbEntity
  8
L1_
  6
CENTER
 62
         1
100
AcDbLine
 10
-9603.5383664299
 20
11819.0394202493
 30
0.0
 11
-9654.6338652532
 21
11848.5394202493
 31
0.0
  0
DIMENSION
  5
4D8
100
AcDbEntity
  8
L1_
  6
CONTINUOUS
 62
         4
100
AcDbDimension
  2
*D12
 10
-9703.6748654479
 20
11856.2894202493
 30
0.0
 11
-9705.5998654479
 21
11814.5394202493
 31
0.0
  3
DIMSTYLE1
100
AcDbAlignedDimension
 13
-9694.7395951249
 23
11856.2894202493
 33
0.0
 14
-9694.7395951249
 24
11811.2894202493
 34
0.0
 50
90.0
100
AcDbRotatedDimension
  0
DIMENSION
  5
4E6
100
AcDbEntity
  8
L1_
  6
CONTINUOUS
 62
         4
100
AcDbDimension
  2
*D13
 10
-9716.448247014
 20
11861.2894202493
 30
0.0
 11
-9718.373247014
 21
11826.274148761
 31
0.0
  3
DIMSTYLE1
100
AcDbAlignedDimension
 13
-9693.4167194694
 23
11861.2894202493
 33
0.0
 14
-9693.4167194694
 24
11806.2894202493
 34
0.0
 50
90.0
100
AcDbRotatedDimension
  0
DIMENSION
  5
4F4
100
AcDbEntity
  8
L1_
  6
CONTINUOUS
 62
         4
100
AcDbDimension
  2
*D14
 10
-9695.4167194694
 20
11870.5751822065
 30
0.0
 11
-9683.9167194694
 21
11872.5001822065
 31
0.0
  3
DIMSTYLE1
100
AcDbAlignedDimension
 13
-9695.4167194694
 23
11859.2894202493
 33
0.0
 14
-9665.4167194694
 24
11854.8894202493
 34
0.0
100
AcDbRotatedDimension
  0
ARC
  5
500
100
AcDbEntity
  8
L1_
  6
CONTINUOUS
 62
         7
100
AcDbCircle
 10
-9672.8809330317
 20
11811.7894202493
 30
0.0
 40
1.0
100
AcDbArc
 50
270.0
 51
315.0
  0
ARC
  5
501
100
AcDbEntity
  8
L1_
  6
CONTINUOUS
 62
         7
100
AcDbCircle
 10
-9677.4167194694
 20
11811.7894202493
 30
0.0
 40
1.0
100
AcDbArc
 50
240.0
 51
270.0
  0
LINE
  5
502
100
AcDbEntity
  8
L1_
  6
CONTINUOUS
 62
         4
100
AcDbLine
 10
-9672.4667194694
 20
11811.4329758402
 30
0.0
 11
-9672.4667194694
 21
11856.4993794656
 31
0.0
  0
LINE
  5
503
100
AcDbEntity
  8
L1_
  6
CONTINUOUS
 62
         4
100
AcDbLine
 10
-9677.6846686618
 20
11856.5651846461
 30
0.0
 11
-9677.6846686618
 21
11811.2894202493
 31
0.0
  0
ARC
  5
504
100
AcDbEntity
  8
L1_
  6
CONTINUOUS
 62
         7
100
AcDbCircle
 10
-9672.8809330317
 20
11855.7894202493
 30
0.0
 40
1.0
100
AcDbArc
 50
45.0
 51
90.0
  0
ARC
  5
505
100
AcDbEntity
  8
L1_
  6
CONTINUOUS
 62
         7
100
AcDbCircle
 10
-9677.4167194694
 20
11855.7894202493
 30
0.0
 40
1.0
100
AcDbArc
 50
90.0
 51
120.0
  0
LINE
  5
506
100
AcDbEntity
  8
L1_
  6
CONTINUOUS
 62
         7
100
AcDbLine
 10
-9679.4167194694
 20
11855.7894202493
 30
0.0
 11
-9693.4167194694
 21
11855.7894202493
 31
0.0
  0
LINE
  5
507
100
AcDbEntity
  8
L1_
  6
CONTINUOUS
 62
         7
100
AcDbLine
 10
-9668.1167194694
 20
11819.2394202493
 30
0.0
 11
-9670.4167194694
 21
11819.2394202493
 31
0.0
  0
LINE
  5
508
100
AcDbEntity
  8
L1_
  6
CONTINUOUS
 62
         7
100
AcDbLine
 10
-9668.1167194694
 20
11848.3394202493
 30
0.0
 11
-9670.4167194694
 21
11848.3394202493
 31
0.0
  0
LINE
  5
509
100
AcDbEntity
  8
L1_
  6
CONTINUOUS
 62
         7
100
AcDbLine
 10
-9670.4167194694
 20
11855.6394202493
 30
0.0
 11
-9670.4167194694
 21
11811.9394202493
 31
0.0
  0
LINE
  5
50A
100
AcDbEntity
  8
L1_
  6
CONTINUOUS
 62
         7
100
AcDbLine
 10
-9668.1167194694
 20
11849.8894202493
 30
0.0
 11
-9668.1167194694
 21
11817.6894202493
 31
0.0
  0
LINE
  5
50B
100
AcDbEntity
  8
L1_
  6
CONTINUOUS
 62
         7
100
AcDbLine
 10
-9665.4167194694
 20
11817.6894202493
 30
0.0
 11
-9668.1167194694
 21
11817.6894202493
 31
0.0
  0
LINE
  5
50C
100
AcDbEntity
  8
L1_
  6
CONTINUOUS
 62
         7
100
AcDbLine
 10
-9665.4167194694
 20
11849.8894202493
 30
0.0
 11
-9668.1167194694
 21
11849.8894202493
 31
0.0
  0
LINE
  5
50D
100
AcDbEntity
  8
L1_
  6
CONTINUOUS
 62
         7
100
AcDbLine
 10
-9665.4167194694
 20
11854.8894202493
 30
0.0
 11
-9665.4167194694
 21
11812.6894202493
 31
0.0
  0
LINE
  5
50E
100
AcDbEntity
  8
L1_
  6
CONTINUOUS
 62
         7
100
AcDbLine
 10
-9695.4167194694
 20
11859.2894202493
 30
0.0
 11
-9695.4167194694
 21
11808.2894202493
 31
0.0
  0
LINE
  5
50F
100
AcDbEntity
  8
L1_
  6
CONTINUOUS
 62
         7
100
AcDbLine
 10
-9667.9167194694
 20
11806.2894202493
 30
0.0
 11
-9693.4167194694
 21
11806.2894202493
 31
0.0
  0
LINE
  5
510
100
AcDbEntity
  8
L1_
  6
CONTINUOUS
 62
         7
100
AcDbLine
 10
-9667.9167194694
 20
11861.2894202493
 30
0.0
 11
-9693.4167194694
 21
11861.2894202493
 31
0.0
  0
LINE
  5
511
100
AcDbEntity
  8
L1_
  6
CONTINUOUS
 62
         7
100
AcDbLine
 10
-9671.1167194694
 20
11855.4394202493
 30
0.0
 11
-9672.1738262506
 21
11856.4965270305
 31
0.0
  0
LINE
  5
512
100
AcDbEntity
  8
L1_
  6
CONTINUOUS
 62
         7
100
AcDbLine
 10
-9670.9167194694
 20
11855.4394202493
 30
0.0
 11
-9671.1167194694
 21
11855.4394202493
 31
0.0
  0
LINE
  5
513
100
AcDbEntity
  8
L1_
  6
CONTINUOUS
 62
         7
100
AcDbLine
 10
-9670.9167194694
 20
11855.4394202493
 30
0.0
 11
-9670.9167194694
 21
11855.6394202493
 31
0.0
  0
LINE
  5
514
100
AcDbEntity
  8
L1_
  6
CONTINUOUS
 62
         7
100
AcDbLine
 10
-9670.4167194694
 20
11855.6394202493
 30
0.0
 11
-9670.9167194694
 21
11855.6394202493
 31
0.0
  0
LINE
  5
515
100
AcDbEntity
  8
L1_
  6
CONTINUOUS
 62
         4
100
AcDbLine
 10
-9678.5506940656
 20
11856.2894202493
 30
0.0
 11
-9694.7395951249
 21
11856.2894202493
 31
0.0
  0
LINE
  5
516
100
AcDbEntity
  8
L1_
  6
CONTINUOUS
 62
         7
100
AcDbLine
 10
-9672.8809330317
 20
11856.7894202493
 30
0.0
 11
-9677.4167194694
 21
11856.7894202493
 31
0.0
  0
LINE
  5
517
100
AcDbEntity
  8
L1_
  6
CONTINUOUS
 62
         7
100
AcDbLine
 10
-9679.4167194694
 20
11811.7894202493
 30
0.0
 11
-9693.4167194694
 21
11811.7894202493
 31
0.0
  0
LINE
  5
518
100
AcDbEntity
  8
L1_
  6
CONTINUOUS
 62
         7
100
AcDbLine
 10
-9671.1167194694
 20
11812.1394202493
 30
0.0
 11
-9672.1738262506
 21
11811.0823134681
 31
0.0
  0
LINE
  5
519
100
AcDbEntity
  8
L1_
  6
CONTINUOUS
 62
         7
100
AcDbLine
 10
-9670.9167194694
 20
11812.1394202493
 30
0.0
 11
-9671.1167194694
 21
11812.1394202493
 31
0.0
  0
LINE
  5
51A
100
AcDbEntity
  8
L1_
  6
CONTINUOUS
 62
         7
100
AcDbLine
 10
-9670.9167194694
 20
11812.1394202493
 30
0.0
 11
-9670.9167194694
 21
11811.9394202493
 31
0.0
  0
LINE
  5
51B
100
AcDbEntity
  8
L1_
  6
CONTINUOUS
 62
         7
100
AcDbLine
 10
-9670.4167194694
 20
11811.9394202493
 30
0.0
 11
-9670.9167194694
 21
11811.9394202493
 31
0.0
  0
LINE
  5
51C
100
AcDbEntity
  8
L1_
  6
CONTINUOUS
 62
         4
100
AcDbLine
 10
-9678.5506940656
 20
11811.2894202493
 30
0.0
 11
-9694.7395951249
 21
11811.2894202493
 31
0.0
  0
LINE
  5
51D
100
AcDbEntity
  8
L1_
  6
CONTINUOUS
 62
         7
100
AcDbLine
 10
-9672.8809330317
 20
11810.7894202493
 30
0.0
 11
-9677.4167194694
 21
11810.7894202493
 31
0.0
  0
LINE
  5
51E
100
AcDbEntity
  8
L1_
  6
CONTINUOUS
 62
         4
100
AcDbLine
 10
-9670.9167194694
 20
11812.1394202493
 30
0.0
 11
-9670.9167194694
 21
11855.4394202493
 31
0.0
  0
LINE
  5
51F
100
AcDbEntity
  8
L1_
  6
CONTINUOUS
 62
         7
100
AcDbLine
 10
-9665.4167194694
 20
11854.8894202493
 30
0.0
 11
-9665.9167194694
 21
11854.8894202493
 31
0.0
  0
LINE
  5
520
100
AcDbEntity
  8
L1_
  6
CONTINUOUS
 62
         7
100
AcDbLine
 10
-9665.4167194694
 20
11812.6894202493
 30
0.0
 11
-9665.9167194694
 21
11812.6894202493
 31
0.0
  0
LINE
  5
521
100
AcDbEntity
  8
L1_
  6
CONTINUOUS
 62
         7
100
AcDbLine
 10
-9665.9167194694
 20
11859.2894202493
 30
0.0
 11
-9665.9167194694
 21
11854.8894202493
 31
0.0
  0
LINE
  5
522
100
AcDbEntity
  8
L1_
  6
CONTINUOUS
 62
         7
100
AcDbLine
 10
-9665.9167194694
 20
11812.6894202493
 30
0.0
 11
-9665.9167194694
 21
11808.2894202493
 31
0.0
  0
ARC
  5
523
100
AcDbEntity
  8
L1_
  6
CONTINUOUS
 62
         7
100
AcDbCircle
 10
-9667.9167194694
 20
11859.2894202493
 30
0.0
 40
2.0
100
AcDbArc
 50
0.0
 51
90.0
  0
ARC
  5
524
100
AcDbEntity
  8
L1_
  6
CONTINUOUS
 62
         7
100
AcDbCircle
 10
-9693.4167194694
 20
11859.2894202493
 30
0.0
 40
2.0
100
AcDbArc
 50
90.0
 51
180.0
  0
ARC
  5
525
100
AcDbEntity
  8
L1_
  6
CONTINUOUS
 62
         7
100
AcDbCircle
 10
-9667.9167194694
 20
11808.2894202493
 30
0.0
 40
2.0
100
AcDbArc
 50
270.0
 51
360.0
  0
ARC
  5
526
100
AcDbEntity
  8
L1_
  6
CONTINUOUS
 62
         7
100
AcDbCircle
 10
-9693.4167194694
 20
11808.2894202493
 30
0.0
 40
2.0
100
AcDbArc
 50
180.0
 51
270.0
  0
LINE
  5
527
100
AcDbEntity
  8
L1_
  6
CENTER
 62
         1
100
AcDbLine
 10
-9660.1969469852
 20
11833.7894202493
 30
0.0
 11
-9698.7543644313
 21
11833.7894202493
 31
0.0
  0
LINE
  5
528
100
AcDbEntity
  8
L1_
  6
CONTINUOUS
 62
         4
100
AcDbLine
 10
-9679.4167194694
 20
11811.7894202493
 30
0.0
 11
-9679.4167194694
 21
11855.7894202493
 31
0.0
  0
ARC
  5
529
100
AcDbEntity
  8
L1_
  6
CONTINUOUS
 62
         7
100
AcDbCircle
 10
-9693.4167194694
 20
11857.7894202493
 30
0.0
 40
2.0
100
AcDbArc
 50
180.0
 51
270.0
  0
ARC
  5
52A
100
AcDbEntity
  8
L1_
  6
CONTINUOUS
 62
         7
100
AcDbCircle
 10
-9693.4167194694
 20
11809.7894202493
 30
0.0
 40
2.0
100
AcDbArc
 50
90.0
 51
180.0
  0
LINE
  5
52B
100
AcDbEntity
  8
L1_
  6
CONTINUOUS
 62
         7
100
AcDbLine
 10
-9677.9167194694
 20
11810.9233948455
 30
0.0
 11
-9679.4167194694
 21
11811.7894202493
 31
0.0
  0
LINE
  5
52C
100
AcDbEntity
  8
L1_
  6
CONTINUOUS
 62
         7
100
AcDbLine
 10
-9677.9167194694
 20
11856.6554456531
 30
0.0
 11
-9679.4167194694
 21
11855.7894202493
 31
0.0
  0
LINE
  5
52D
100
AcDbEntity
  8
L1_
  6
CONTINUOUS
 62
         7
100
AcDbLine
 10
-9675.4167194694
 20
11858.7894202493
 30
0.0
 11
-9690.4167194694
 21
11858.7894202493
 31
0.0
  0
LINE
  5
52E
100
AcDbEntity
  8
L1_
  6
CONTINUOUS
 62
         7
100
AcDbLine
 10
-9690.4167194694
 20
11861.2894202493
 30
0.0
 11
-9690.4167194694
 21
11858.7894202493
 31
0.0
  0
LINE
  5
52F
100
AcDbEntity
  8
L1_
  6
CONTINUOUS
 62
         7
100
AcDbLine
 10
-9675.4167194694
 20
11861.2894202493
 30
0.0
 11
-9675.4167194694
 21
11858.7894202493
 31
0.0
  0
LINE
  5
530
100
AcDbEntity
  8
L1_
  6
CONTINUOUS
 62
         7
100
AcDbLine
 10
-9690.4167194694
 20
11806.2894202493
 30
0.0
 11
-9690.4167194694
 21
11808.7894202493
 31
0.0
  0
LINE
  5
531
100
AcDbEntity
  8
L1_
  6
CONTINUOUS
 62
         7
100
AcDbLine
 10
-9675.4167194694
 20
11808.7894202493
 30
0.0
 11
-9690.4167194694
 21
11808.7894202493
 31
0.0
  0
LINE
  5
532
100
AcDbEntity
  8
L1_
  6
CONTINUOUS
 62
         7
100
AcDbLine
 10
-9675.4167194694
 20
11806.2894202493
 30
0.0
 11
-9675.4167194694
 21
11808.7894202493
 31
0.0
  0
INSERT
  5
54A
100
AcDbEntity
  8
0
  6
CONTINUOUS
100
AcDbBlockReference
  2
*X15
 10
0.0
 20
0.0
 30
0.0
  0
LINE
  5
54B
100
AcDbEntity
  8
L1_
  6
DASHED
 62
         2
100
AcDbLine
 10
-9626.4583696212
 20
11737.9083807342
 30
0.0
 11
-9617.0583696212
 21
11737.9083807342
 31
0.0
  0
LINE
  5
54C
100
AcDbEntity
  8
L1_
  6
DASHED
 62
         2
100
AcDbLine
 10
-9626.4583696212
 20
11740.9083807342
 30
0.0
 11
-9617.0583696212
 21
11740.9083807342
 31
0.0
  0
LINE
  5
54D
100
AcDbEntity
  8
L1_
  6
CONTINUOUS
 62
         7
100
AcDbLine
 10
-9652.6543552981
 20
11726.6324570885
 30
0.0
 11
-9652.6543552981
 21
11738.2903467454
 31
0.0
  0
LINE
  5
54E
100
AcDbEntity
  8
L1_
  6
CONTINUOUS
 62
         7
100
AcDbLine
 10
-9650.6543552981
 20
11726.6324570885
 30
0.0
 11
-9650.6543552981
 21
11738.2903467454
 31
0.0
  0
CIRCLE
  5
54F
100
AcDbEntity
  8
L1_
  6
CONTINUOUS
 62
         7
100
AcDbCircle
 10
-9651.6543552981
 20
11739.4083807342
 30
0.0
 40
1.5
  0
LINE
  5
550
100
AcDbEntity
  8
L1_
  6
CONTINUOUS
 62
         7
100
AcDbLine
 10
-9652.6543552981
 20
11740.5264147229
 30
0.0
 11
-9652.6543552981
 21
11752.1843043799
 31
0.0
  0
LINE
  5
551
100
AcDbEntity
  8
L1_
  6
CONTINUOUS
 62
         7
100
AcDbLine
 10
-9650.6543552981
 20
11740.5264147229
 30
0.0
 11
-9650.6543552981
 21
11752.1843043799
 31
0.0
  0
DIMENSION
  5
554
100
AcDbEntity
  8
L1_
  6
CONTINUOUS
 62
         4
100
AcDbDimension
  2
*D16
 10
-9650.6543552981
 20
11761.8158080832
 30
0.0
 11
-9653.4043552981
 21
11763.7408080832
 31
0.0
  3
DIMSTYLE1
100
AcDbAlignedDimension
 13
-9650.6543552981
 23
11752.9895006935
 33
0.0
 14
-9652.6543552981
 24
11752.9895006935
 34
0.0
100
AcDbRotatedDimension
  0
LINE
  5
562
100
AcDbEntity
  8
L1_
  6
DASHED
 62
         2
100
AcDbLine
 10
-9626.4583696212
 20
11726.5933807342
 30
0.0
 11
-9626.4583696212
 21
11752.2233807342
 31
0.0
  0
LINE
  5
563
100
AcDbEntity
  8
L1_
  6
DASHED
 62
         2
100
AcDbLine
 10
-9617.0583696212
 20
11726.5933807342
 30
0.0
 11
-9617.0583696212
 21
11752.2233807342
 31
0.0
  0
LINE
  5
564
100
AcDbEntity
  8
L1_
  6
CENTER
 62
         1
100
AcDbLine
 10
-9629.5603264565
 20
11739.4083807342
 30
0.0
 11
-9614.060797709
 21
11739.4083807342
 31
0.0
  0
DIMENSION
  5
567
100
AcDbEntity
  8
L1_
  6
CONTINUOUS
 62
         4
100
AcDbDimension
  2
*D17
 10
-9628.2583696212
 20
11760.7504114321
 30
0.0
 11
-9625.2420249887
 21
11762.6754114321
 31
0.0
  3
DIMSTYLE1
100
AcDbAlignedDimension
 13
-9628.2583696212
 23
11749.9883807342
 33
0.0
 14
-9615.2583696212
 24
11749.9883807342
 34
0.0
100
AcDbRotatedDimension
  0
LINE
  5
573
100
AcDbEntity
  8
L1_
  6
CONTINUOUS
 62
         4
100
AcDbLine
 10
-9625.5733696212
 20
11752.9083807342
 30
0.0
 11
-9617.9433696212
 21
11752.9083807342
 31
0.0
  0
LINE
  5
574
100
AcDbEntity
  8
L1_
  6
CONTINUOUS
 62
         7
100
AcDbLine
 10
-9624.7833696212
 20
11753.6983807342
 30
0.0
 11
-9626.2583696212
 21
11752.2233807342
 31
0.0
  0
LINE
  5
575
100
AcDbEntity
  8
L1_
  6
CONTINUOUS
 62
         7
100
AcDbLine
 10
-9618.7333696212
 20
11753.6983807342
 30
0.0
 11
-9617.2583696212
 21
11752.2233807342
 31
0.0
  0
LINE
  5
576
100
AcDbEntity
  8
L1_
  6
CONTINUOUS
 62
         7
100
AcDbLine
 10
-9617.2583696212
 20
11752.2233807342
 30
0.0
 11
-9615.7583696212
 21
11752.2233807342
 31
0.0
  0
LINE
  5
577
100
AcDbEntity
  8
L1_
  6
CONTINUOUS
 62
         7
100
AcDbLine
 10
-9624.7833696212
 20
11753.6983807342
 30
0.0
 11
-9618.7333696212
 21
11753.6983807342
 31
0.0
  0
LINE
  5
578
100
AcDbEntity
  8
L1_
  6
CONTINUOUS
 62
         7
100
AcDbLine
 10
-9627.7583696212
 20
11752.2233807342
 30
0.0
 11
-9626.2583696212
 21
11752.2233807342
 31
0.0
  0
LINE
  5
579
100
AcDbEntity
  8
L1_
  6
CONTINUOUS
 62
         4
100
AcDbLine
 10
-9625.5733696212
 20
11725.9083807342
 30
0.0
 11
-9617.9433696212
 21
11725.9083807342
 31
0.0
  0
LINE
  5
57A
100
AcDbEntity
  8
L1_
  6
CONTINUOUS
 62
         7
100
AcDbLine
 10
-9627.7583696212
 20
11726.5933807342
 30
0.0
 11
-9626.2583696212
 21
11726.5933807342
 31
0.0
  0
LINE
  5
57B
100
AcDbEntity
  8
L1_
  6
CONTINUOUS
 62
         7
100
AcDbLine
 10
-9617.2583696212
 20
11726.5933807342
 30
0.0
 11
-9615.7583696212
 21
11726.5933807342
 31
0.0
  0
LINE
  5
57C
100
AcDbEntity
  8
L1_
  6
CONTINUOUS
 62
         7
100
AcDbLine
 10
-9618.7333696212
 20
11725.1183807342
 30
0.0
 11
-9617.2583696212
 21
11726.5933807342
 31
0.0
  0
LINE
  5
57D
100
AcDbEntity
  8
L1_
  6
CONTINUOUS
 62
         7
100
AcDbLine
 10
-9624.7833696212
 20
11725.1183807342
 30
0.0
 11
-9626.2583696212
 21
11726.5933807342
 31
0.0
  0
LINE
  5
57E
100
AcDbEntity
  8
L1_
  6
CONTINUOUS
 62
         7
100
AcDbLine
 10
-9624.7833696212
 20
11725.1183807342
 30
0.0
 11
-9618.7333696212
 21
11725.1183807342
 31
0.0
  0
LINE
  5
57F
100
AcDbEntity
  8
L1_
  6
CONTINUOUS
 62
         7
100
AcDbLine
 10
-9627.7583696212
 20
11726.5933807342
 30
0.0
 11
-9627.7583696212
 21
11752.2233807342
 31
0.0
  0
LINE
  5
580
100
AcDbEntity
  8
L1_
  6
CONTINUOUS
 62
         7
100
AcDbLine
 10
-9617.2583696212
 20
11726.5933807342
 30
0.0
 11
-9617.2583696212
 21
11752.2233807342
 31
0.0
  0
LINE
  5
581
100
AcDbEntity
  8
L1_
  6
CONTINUOUS
 62
         7
100
AcDbLine
 10
-9626.2583696212
 20
11726.5933807342
 30
0.0
 11
-9626.2583696212
 21
11752.2233807342
 31
0.0
  0
LINE
  5
582
100
AcDbEntity
  8
L1_
  6
CONTINUOUS
 62
         7
100
AcDbLine
 10
-9627.7583696212
 20
11752.2233807342
 30
0.0
 11
-9628.2583696212
 21
11751.7233807342
 31
0.0
  0
LINE
  5
583
100
AcDbEntity
  8
L1_
  6
CONTINUOUS
 62
         7
100
AcDbLine
 10
-9615.7583696212
 20
11752.2233807342
 30
0.0
 11
-9615.2583696212
 21
11751.7233807342
 31
0.0
  0
LINE
  5
584
100
AcDbEntity
  8
L1_
  6
CONTINUOUS
 62
         7
100
AcDbLine
 10
-9627.7583696212
 20
11726.5933807342
 30
0.0
 11
-9628.2583696212
 21
11727.0933807342
 31
0.0
  0
LINE
  5
585
100
AcDbEntity
  8
L1_
  6
CONTINUOUS
 62
         7
100
AcDbLine
 10
-9615.7583696212
 20
11726.5933807342
 30
0.0
 11
-9615.2583696212
 21
11727.0933807342
 31
0.0
  0
LINE
  5
586
100
AcDbEntity
  8
L1_
  6
CONTINUOUS
 62
         7
100
AcDbLine
 10
-9615.2583696212
 20
11727.0933807342
 30
0.0
 11
-9615.2583696212
 21
11751.7233807342
 31
0.0
  0
LINE
  5
587
100
AcDbEntity
  8
L1_
  6
CONTINUOUS
 62
         7
100
AcDbLine
 10
-9628.2583696212
 20
11727.0933807342
 30
0.0
 11
-9628.2583696212
 21
11751.7233807342
 31
0.0
  0
LINE
  5
588
100
AcDbEntity
  8
L1_
  6
CONTINUOUS
 62
         7
100
AcDbLine
 10
-9615.7583696212
 20
11726.5933807342
 30
0.0
 11
-9615.7583696212
 21
11752.2233807342
 31
0.0
  0
DIMENSION
  5
58B
100
AcDbEntity
  8
L1_
  6
CONTINUOUS
 62
         4
100
AcDbDimension
  2
*D18
 10
-9598.9826381502
 20
11753.6983807342
 30
0.0
 11
-9600.9076381502
 21
11725.4309404155
 31
0.0
  3
DIMSTYLE1
100
AcDbAlignedDimension
 13
-9618.7333696212
 23
11753.6983807342
 33
0.0
 14
-9618.7333696212
 24
11725.1183807342
 34
0.0
 50
90.0
100
AcDbRotatedDimension
  0
LINE
  5
597
100
AcDbEntity
  8
L1_
  6
CENTER
 62
         1
100
AcDbLine
 10
-9651.6543552981
 20
11721.4260028683
 30
0.0
 11
-9651.6543552981
 21
11757.493453873
 31
0.0
  0
LINE
  5
598
100
AcDbEntity
  8
L1_
  6
CENTER
 62
         1
100
AcDbLine
 10
-9637.6114635348
 20
11739.4083807342
 30
0.0
 11
-9666.7771183596
 21
11739.4083807342
 31
0.0
  0
CIRCLE
  5
599
100
AcDbEntity
  8
L1_
  6
CONTINUOUS
 62
         7
100
AcDbCircle
 10
-9651.6543552981
 20
11739.4083807342
 30
0.0
 40
12.815
  0
CIRCLE
  5
59A
100
AcDbEntity
  8
L1_
  6
CONTINUOUS
 62
         7
100
AcDbCircle
 10
-9651.6543552981
 20
11739.4083807342
 30
0.0
 40
14.29
  0
INSERT
  5
60E
100
AcDbEntity
  8
0
  6
CONTINUOUS
100
AcDbBlockReference
  2
*X19
 10
0.0
 20
0.0
 30
0.0
  0
ARC
  5
60F
100
AcDbEntity
  8
L1_
  6
CONTINUOUS
 62
         7
100
AcDbCircle
 10
-9877.8185485269
 20
12007.8503198193
 30
0.0
 40
2.0
100
AcDbArc
 50
180.0
 51
270.0
  0
ARC
  5
610
100
AcDbEntity
  8
L1_
  6
CONTINUOUS
 62
         7
100
AcDbCircle
 10
-9877.8185485269
 20
11948.8503198193
 30
0.0
 40
2.0
100
AcDbArc
 50
90.0
 51
180.0
  0
ARC
  5
611
100
AcDbEntity
  8
L1_
  6
CONTINUOUS
 62
         7
100
AcDbCircle
 10
-9877.8185485269
 20
11768.8578887676
 30
0.0
 40
2.0
100
AcDbArc
 50
180.0
 51
270.0
  0
ARC
  5
612
100
AcDbEntity
  8
L1_
  6
CONTINUOUS
 62
         7
100
AcDbCircle
 10
-9877.8185485269
 20
11709.8578887676
 30
0.0
 40
2.0
100
AcDbArc
 50
90.0
 51
180.0
  0
LINE
  5
613
100
AcDbEntity
  8
L1_
  6
CONTINUOUS
 62
         7
100
AcDbLine
 10
-9900.2342781281
 20
12027.1003198193
 30
0.0
 11
-9897.2705485269
 21
12027.1003198193
 31
0.0
  0
DIMENSION
  5
616
100
AcDbEntity
  8
L1_
  6
CONTINUOUS
 62
         4
100
AcDbDimension
  2
*D20
 10
-9914.8705485269
 20
12082.54451771
 30
0.0
 11
-9872.1902776858
 21
12084.46951771
 31
0.0
  3
DIMSTYLE1
100
AcDbAlignedDimension
 13
-9914.8705485269
 23
12018.0753198193
 33
0.0
 14
-9809.9705485269
 24
11999.4503198193
 34
0.0
100
AcDbRotatedDimension
  0
TEXT
  5
623
100
AcDbEntity
  8
L1_
  6
CONTINUOUS
 62
         2
100
AcDbText
 10
-9608.2434111871
 20
12052.5361564981
 30
0.0
 40
4.5
  1
531788
 41
0.98
  7
BOX
100
AcDbText
  0
DIMENSION
  5
626
100
AcDbEntity
  8
L1_
  6
CONTINUOUS
 62
         4
100
AcDbDimension
  2
*D21
 10
-9858.9973991628
 20
11724.6078887676
 30
0.0
 11
-9860.9223991628
 21
11770.1883752783
 31
0.0
  3
DIMSTYLE1
100
AcDbAlignedDimension
 13
-9854.2973807328
 23
11724.6078887676
 33
0.0
 14
-9854.2973807328
 24
11754.1078887676
 34
0.0
 50
90.0
100
AcDbRotatedDimension
  0
ENDSEC
  0
SECTION
  2
OBJECTS
  0
DICTIONARY
  5
19
100
AcDbDictionary
  3
ACAD_GROUP
350
1A
  3
ACAD_MLINESTYLE
350
1B
  0
DICTIONARY
  5
1A
102
{ACAD_REACTORS
330
19
102
}
100
AcDbDictionary
  0
DICTIONARY
  5
1B
102
{ACAD_REACTORS
330
19
102
}
100
AcDbDictionary
  3
STANDARD
350
1C
  0
MLINESTYLE
  5
1C
102
{ACAD_REACTORS
330
1B
102
}
100
AcDbMlineStyle
  2
STANDARD
 70
         0
  3

 62
         0
 51
90.0
 52
90.0
 71
         2
 49
0.5
 62
       256
  6
BYLAYER
 49
-0.5
 62
       256
  6
BYLAYER
  0
ENDSEC
  0
EOF
