  0
SECTION
  2
HEADER
  9
$ACADVER
  1
AC1014
  9
$ACADMAINTVER
 70
         0
  9
$DWGCODEPAGE
  3
BIG5
  9
$INSBASE
 10
0.0
 20
0.0
 30
0.0
  9
$EXTMIN
 10
1128.2048831568
 20
-411.6624424879
 30
0.0
  9
$EXTMAX
 10
1762.1430525666
 20
-102.1945524128
 30
0.0
  9
$LIMMIN
 10
0.0
 20
0.0
  9
$LIMMAX
 10
0.0
 20
0.0
  9
$ORTHOMODE
 70
         0
  9
$REGENMODE
 70
         1
  9
$FILLMODE
 70
         1
  9
$QTEXTMODE
 70
         0
  9
$MIRRTEXT
 70
         1
  9
$DRAGMODE
 70
         2
  9
$LTSCALE
 40
1.0
  9
$OSMODE
 70
         0
  9
$ATTMODE
 70
         1
  9
$TEXTSIZE
 40
1.7
  9
$TRACEWID
 40
0.05
  9
$TEXTSTYLE
  7
STANDARD
  9
$CLAYER
  8
0
  9
$CELTYPE
  6
CONTINUOUS
  9
$CECOLOR
 62
         4
  9
$CELTSCALE
 40
1.0
  9
$DELOBJ
 70
         1
  9
$DISPSILH
 70
         0
  9
$DIMSCALE
 40
1.0
  9
$DIMASZ
 40
0.18
  9
$DIMEXO
 40
0.0625
  9
$DIMDLI
 40
0.38
  9
$DIMRND
 40
0.0
  9
$DIMDLE
 40
0.0
  9
$DIMEXE
 40
0.25
  9
$DIMTP
 40
0.01
  9
$DIMTM
 40
-0.01
  9
$DIMTXT
 40
2.7
  9
$DIMCEN
 40
0.09
  9
$DIMTSZ
 40
0.0
  9
$DIMTOL
 70
         0
  9
$DIMLIM
 70
         0
  9
$DIMTIH
 70
         1
  9
$DIMTOH
 70
         1
  9
$DIMSE1
 70
         0
  9
$DIMSE2
 70
         0
  9
$DIMTAD
 70
         0
  9
$DIMZIN
 70
         0
  9
$DIMBLK
  1

  9
$DIMASO
 70
         1
  9
$DIMSHO
 70
         1
  9
$DIMPOST
  1

  9
$DIMAPOST
  1

  9
$DIMALT
 70
         0
  9
$DIMALTD
 70
         2
  9
$DIMALTF
 40
25.4
  9
$DIMLFAC
 40
1.0
  9
$DIMTOFL
 70
         0
  9
$DIMTVP
 40
0.0
  9
$DIMTIX
 70
         0
  9
$DIMSOXD
 70
         0
  9
$DIMSAH
 70
         0
  9
$DIMBLK1
  1

  9
$DIMBLK2
  1

  9
$DIMSTYLE
  2
STANDARD
  9
$DIMCLRD
 70
         0
  9
$DIMCLRE
 70
         0
  9
$DIMCLRT
 70
         4
  9
$DIMTFAC
 40
1.0
  9
$DIMGAP
 40
0.09
  9
$DIMJUST
 70
         0
  9
$DIMSD1
 70
         0
  9
$DIMSD2
 70
         0
  9
$DIMTOLJ
 70
         1
  9
$DIMTZIN
 70
         0
  9
$DIMALTZ
 70
         0
  9
$DIMALTTZ
 70
         0
  9
$DIMFIT
 70
         3
  9
$DIMUPT
 70
         0
  9
$DIMUNIT
 70
         2
  9
$DIMDEC
 70
         4
  9
$DIMTDEC
 70
         4
  9
$DIMALTU
 70
         2
  9
$DIMALTTD
 70
         2
  9
$DIMTXSTY
  7
STANDARD
  9
$DIMAUNIT
 70
         0
  9
$LUNITS
 70
         2
  9
$LUPREC
 70
        10
  9
$SKETCHINC
 40
0.1
  9
$FILLETRAD
 40
0.0
  9
$AUNITS
 70
         0
  9
$AUPREC
 70
         0
  9
$MENU
  1
acad
  9
$ELEVATION
 40
0.0
  9
$PELEVATION
 40
0.0
  9
$THICKNESS
 40
0.0
  9
$LIMCHECK
 70
         0
  9
$BLIPMODE
 70
         1
  9
$CHAMFERA
 40
0.0
  9
$CHAMFERB
 40
0.0
  9
$CHAMFERC
 40
0.0
  9
$CHAMFERD
 40
0.0
  9
$SKPOLY
 70
         0
  9
$TDCREATE
 40
0.000000000
  9
$TDUPDATE
 40
0.000000000
  9
$TDINDWG
 40
0.0000000000
  9
$TDUSRTIMER
 40
0.0000000000
  9
$USRTIMER
 70
         1
  9
$ANGBASE
 50
0.0
  9
$ANGDIR
 70
         0
  9
$PDMODE
 70
         2
  9
$PDSIZE
 40
0.0
  9
$PLINEWID
 40
0.0
  9
$COORDS
 70
         0
  9
$SPLFRAME
 70
         0
  9
$SPLINETYPE
 70
         6
  9
$SPLINESEGS
 70
         8
  9
$ATTDIA
 70
         0
  9
$ATTREQ
 70
         1
  9
$HANDLING
 70
         1
  9
$HANDSEED
  5
3AB
  9
$SURFTAB1
 70
         6
  9
$SURFTAB2
 70
         6
  9
$SURFTYPE
 70
         6
  9
$SURFU
 70
         6
  9
$SURFV
 70
         6
  9
$UCSNAME
  2

  9
$UCSORG
 10
0.0
 20
0.0
 30
0.0
  9
$UCSXDIR
 10
1.0
 20
0.0
 30
0.0
  9
$UCSYDIR
 10
0.0
 20
1.0
 30
0.0
  9
$PUCSNAME
  2

  9
$PUCSORG
 10
0.0
 20
0.0
 30
0.0
  9
$PUCSXDIR
 10
1.0
 20
0.0
 30
0.0
  9
$PUCSYDIR
 10
0.0
 20
1.0
 30
0.0
  9
$USERI1
 70
         0
  9
$USERI2
 70
         0
  9
$USERI3
 70
         0
  9
$USERI4
 70
         0
  9
$USERI5
 70
         0
  9
$USERR1
 40
0.0
  9
$USERR2
 40
0.0
  9
$USERR3
 40
0.0
  9
$USERR4
 40
0.0
  9
$USERR5
 40
0.0
  9
$WORLDVIEW
 70
         1
  9
$SHADEDGE
 70
         3
  9
$SHADEDIF
 70
        70
  9
$TILEMODE
 70
         1
  9
$MAXACTVP
 70
        16
  9
$PINSBASE
 10
0.0
 20
0.0
 30
0.0
  9
$PLIMCHECK
 70
         0
  9
$PEXTMIN
 10
1.0000000000E+20
 20
1.0000000000E+20
 30
1.0000000000E+20
  9
$PEXTMAX
 10
-1.0000000000E+20
 20
-1.0000000000E+20
 30
-1.0000000000E+20
  9
$PLIMMIN
 10
0.0
 20
0.0
  9
$PLIMMAX
 10
12.0
 20
9.0
  9
$UNITMODE
 70
         0
  9
$VISRETAIN
 70
         0
  9
$PLINEGEN
 70
         1
  9
$PSLTSCALE
 70
         0
  9
$TREEDEPTH
 70
      3020
  9
$PICKSTYLE
 70
         1
  9
$CMLSTYLE
  2
STANDARD
  9
$CMLJUST
 70
         0
  9
$CMLSCALE
 40
1.0
  9
$PROXYGRAPHICS
 70
         0
  9
$MEASUREMENT
 70
         0
  0
ENDSEC
  0
SECTION
  2
CLASSES
  0
CLASS
  1
LWPOLYLINE
  2
AcDbPolyline
  3
"AutoCAD"
 90
        0
280
         0
281
         1
  0
CLASS
  1
IMAGE
  2
AcDbRasterImage
  3
ISM
 90
      127
280
         0
281
         1
  0
CLASS
  1
OLE2FRAME
  2
AcDbOle2Frame
  3
""
 90
        0
280
         0
281
         1
  0
CLASS
  1
HATCH
  2
AcDbHatch
  3
"ACAD_SEDONA"
 90
        0
280
         0
281
         1
  0
CLASS
  1
DICTIONARYVAR
  2
AcDbDictionaryVar
  3
"AutoCAD"
 90
        0
280
         0
281
         0
  0
CLASS
  1
RASTERVARIABLES
  2
AcDbRasterVariables
  3
ISM
 90
        0
280
         0
281
         0
  0
CLASS
  1
IMAGEDEF
  2
AcDbRasterImageDef
  3
ISM
 90
        0
280
         0
281
         0
  0
CLASS
  1
IMAGEDEF_REACTOR
  2
AcDbRasterImageDefReactor
  3
ISM
 90
        1
280
         0
281
         0
  0
CLASS
  1
IDBUFFER
  2
AcDbIdBuffer
  3
"Acad"
 90
        0
280
         0
281
         0
  0
CLASS
  1
SPATIAL_FILTER
  2
AcDbSpatialFilter
  3
"Acad"
 90
        0
280
         0
281
         0
  0
CLASS
  1
XRECORD
  2
AcDbXrecord
  3
"<Built In>"
 90
        0
280
         0
281
         0
  0
CLASS
  1
SORTENTSTABLE
  2
AcDbSortentsTable
  3
"AutoCAD"
 90
        0
280
         0
281
         0
  0
CLASS
  1
LAYER_INDEX
  2
AcDbLayerIndex
  3
"Acad"
 90
        0
280
         0
281
         0
  0
CLASS
  1
SPATIAL_INDEX
  2
AcDbSpatialIndex
  3
"Acad"
 90
        0
280
         0
281
         0
  0
CLASS
  1
OBJECT_PTR
  2
CAseDLPNTableRecord
  3
"ASE-LPNTableRecord"
 90
        1
280
         0
281
         0
  0
CLASS
  1
LAYOUT
  2
AcDbLayout
  3
"AutoCAD 2000"
 90
        1
280
         0
281
         0
  0
CLASS
  1
PLOTSETTINGS
  2
AcDbPlotSettings
  3
"AutoCAD 2000"
 90
        1
280
         0
281
         0
  0
CLASS
  1
ACDBDICTIONARYWDFLT
  2
AcDbDictionaryWithDefault
  3
"AutoCAD 2000"
 90
        1
280
         0
281
         0
  0
CLASS
  1
ACDBPLACEHOLDER
  2
AcDbPlaceHolder
  3
"AutoCAD 2000"
 90
        1
280
         0
281
         0
  0
CLASS
  1
VBA_PROJECT
  2
AcDbVbaProject
  3
"acadvba"
 90
        1
280
         0
281
         0
  0
CLASS
  1
WIPEOUT
  2
AcDbWipeout
  3
WipeOut|AutoCAD Express Tool|expresstools@autodesk.com
 90
      127
280
         0
281
         1
  0
CLASS
  1
WIPEOUTVARIABLES
  2
AcDbWipeoutVariables
  3
WipeOut|AutoCAD Express Tool|expresstools@autodesk.com
 90
        0
280
         0
281
         0
  0
CLASS
  1
RTEXT
  2
RText
  3
RText|AutoCAD Express Tool|expresstools@autodesk.com
 90
        0
280
         0
281
         1
  0
CLASS
  1
ARCALIGNEDTEXT
  2
AcDbArcAlignedText
  3
ATEXT|AutoCAD Express Tool|expresstools@autodesk.com
 90
        0
280
         0
281
         1
  0
ENDSEC
  0
SECTION
  2
TABLES
  0
TABLE
  2
VPORT
  5
7
100
AcDbSymbolTable
 70
         1
  0
VPORT
  5
15
100
AcDbSymbolTableRecord
100
AcDbViewportTableRecord
  2
*ACTIVE
 70
         0
 10
0.0
 20
0.0
 11
1.0
 21
1.0
 12
1445.1739678617
 22
-256.9284974503
 13
0.0
 23
0.0
 14
1.0
 24
1.0
 15
0.0
 25
0.0
 16
0.0
 26
0.0
 36
1.0
 17
0.0
 27
0.0
 37
0.0
 40
309.4678900751
 41
2.0484780158
 42
50.0
 43
0.0
 44
0.0
 50
0.0
 51
0.0
 71
         0
 72
       100
 73
         1
 74
         1
 75
         0
 76
         0
 77
         0
 78
         0
  0
ENDTAB
  0
TABLE
  2
LTYPE
  5
4
100
AcDbSymbolTable
 70
         6
  0
LTYPE
  5
11
100
AcDbSymbolTableRecord
100
AcDbLinetypeTableRecord
  2
BYBLOCK
 70
        64
  3

 72
        65
 73
         0
 40
0.0
  0
LTYPE
  5
12
100
AcDbSymbolTableRecord
100
AcDbLinetypeTableRecord
  2
BYLAYER
 70
        64
  3

 72
        65
 73
         0
 40
0.0
  0
LTYPE
  5
13
100
AcDbSymbolTableRecord
100
AcDbLinetypeTableRecord
  2
CONTINUOUS
 70
        64
  3
Solid line
 72
        65
 73
         0
 40
0.0
  0
LTYPE
  5
1D
100
AcDbSymbolTableRecord
100
AcDbLinetypeTableRecord
  2
DASHED
 70
        64
  3
_ _ _ _ _ _ _ _ _ _ _ _ _ _ _ _
 72
        65
 73
         2
 40
0.2
 49
0.1
 74
         0
 49
-0.1
 74
         0
  0
LTYPE
  5
1E
100
AcDbSymbolTableRecord
100
AcDbLinetypeTableRecord
  2
CENTER
 70
        64
  3
___ _ ___ _ ___ _ ___ _ ___ _ ___ _ ___ _ ___ _
 72
        65
 73
         4
 40
0.95
 49
0.625
 74
         0
 49
-0.125
 74
         0
 49
0.075
 74
         0
 49
-0.125
 74
         0
  0
LTYPE
  5
1F
100
AcDbSymbolTableRecord
100
AcDbLinetypeTableRecord
  2
PHANTOM
 70
        64
  3
______  __  __  ______  __  __  ______  __  __  
 72
        65
 73
         6
 40
1.025
 49
0.625
 74
         0
 49
-0.125
 74
         0
 49
0.075
 74
         0
 49
-0.125
 74
         0
 49
0.075
 74
         0
 49
-0.125
 74
         0
  0
ENDTAB
  0
TABLE
  2
LAYER
  5
2
100
AcDbSymbolTable
 70
         6
  0
LAYER
  5
14
100
AcDbSymbolTableRecord
100
AcDbLayerTableRecord
  2
0
 70
         0
 62
         7
  6
CONTINUOUS
  0
LAYER
  5
21
100
AcDbSymbolTableRecord
100
AcDbLayerTableRecord
  2
_____U
 70
         1
 62
         7
  6
CONTINUOUS
  0
LAYER
  5
22
100
AcDbSymbolTableRecord
100
AcDbLayerTableRecord
  2
_____T______
 70
         1
 62
         7
  6
CONTINUOUS
  0
LAYER
  5
23
100
AcDbSymbolTableRecord
100
AcDbLayerTableRecord
  2
______L_______
 70
         1
 62
         7
  6
CONTINUOUS
  0
LAYER
  5
24
100
AcDbSymbolTableRecord
100
AcDbLayerTableRecord
  2
L1_120
 70
         0
 62
         7
  6
CONTINUOUS
  0
LAYER
  5
1D4
100
AcDbSymbolTableRecord
100
AcDbLayerTableRecord
  2
DEFPOINTS
 70
         0
 62
        -7
  6
CONTINUOUS
  0
ENDTAB
  0
TABLE
  2
STYLE
  5
3
100
AcDbSymbolTable
 70
        12
  0
STYLE
  5
17
100
AcDbSymbolTableRecord
100
AcDbTextStyleTableRecord
  2
STANDARD
 70
         0
 40
0.0
 41
1.0
 50
0.0
 71
         0
 42
0.0
  3
txt
  4

  0
STYLE
  5
42
100
AcDbSymbolTableRecord
100
AcDbTextStyleTableRecord
  2
BOX
 70
         0
 40
1.0
 41
1.0
 50
0.0
 71
         0
 42
0.2
  3
txt.shx
  4

  0
STYLE
  5
1DF
100
AcDbSymbolTableRecord
100
AcDbTextStyleTableRecord
  2
BOX
 70
         0
 40
1.0
 41
1.0
 50
0.0
 71
         0
 42
0.2
  3
txt.shx
  4

  0
STYLE
  5
1ED
100
AcDbSymbolTableRecord
100
AcDbTextStyleTableRecord
  2
BOX
 70
         0
 40
1.0
 41
1.0
 50
0.0
 71
         0
 42
0.2
  3
txt.shx
  4

  0
STYLE
  5
1FB
100
AcDbSymbolTableRecord
100
AcDbTextStyleTableRecord
  2
BOX
 70
         0
 40
1.0
 41
1.0
 50
0.0
 71
         0
 42
0.2
  3
txt.shx
  4

  0
STYLE
  5
24D
100
AcDbSymbolTableRecord
100
AcDbTextStyleTableRecord
  2
BOX
 70
         0
 40
1.0
 41
1.0
 50
0.0
 71
         0
 42
0.2
  3
txt.shx
  4

  0
STYLE
  5
25B
100
AcDbSymbolTableRecord
100
AcDbTextStyleTableRecord
  2
BOX
 70
         0
 40
1.0
 41
1.0
 50
0.0
 71
         0
 42
0.2
  3
txt.shx
  4

  0
STYLE
  5
2CA
100
AcDbSymbolTableRecord
100
AcDbTextStyleTableRecord
  2
BOX
 70
         0
 40
1.0
 41
1.0
 50
0.0
 71
         0
 42
0.2
  3
txt.shx
  4

  0
STYLE
  5
375
100
AcDbSymbolTableRecord
100
AcDbTextStyleTableRecord
  2
BOX
 70
         0
 40
1.0
 41
1.0
 50
0.0
 71
         0
 42
0.2
  3
txt.shx
  4

  0
STYLE
  5
387
100
AcDbSymbolTableRecord
100
AcDbTextStyleTableRecord
  2
BOX
 70
         0
 40
1.0
 41
1.0
 50
0.0
 71
         0
 42
0.2
  3
txt.shx
  4

  0
STYLE
  5
397
100
AcDbSymbolTableRecord
100
AcDbTextStyleTableRecord
  2
BOX
 70
         0
 40
1.0
 41
1.0
 50
0.0
 71
         0
 42
0.2
  3
txt.shx
  4

  0
STYLE
  5
3A7
100
AcDbSymbolTableRecord
100
AcDbTextStyleTableRecord
  2
BOX
 70
         0
 40
1.0
 41
1.0
 50
0.0
 71
         0
 42
0.2
  3
txt.shx
  4

  0
ENDTAB
  0
TABLE
  2
VIEW
  5
5
100
AcDbSymbolTable
 70
         0
  0
ENDTAB
  0
TABLE
  2
UCS
  5
6
100
AcDbSymbolTable
 70
         1
  0
UCS
  5
20
100
AcDbSymbolTableRecord
100
AcDbUCSTableRecord
  2
CK_VIEW_1
 70
         0
 10
0.0
 20
0.0
 30
1.0
 11
1.0
 21
0.0
 31
0.0
 12
0.0
 22
1.0
 32
0.0
  0
ENDTAB
  0
TABLE
  2
APPID
  5
8
100
AcDbSymbolTable
 70
         1
  0
APPID
  5
16
100
AcDbSymbolTableRecord
100
AcDbRegAppTableRecord
  2
ACAD
 70
         0
  0
ENDTAB
  0
TABLE
  2
DIMSTYLE
  5
9
100
AcDbSymbolTable
 70
         2
  0
DIMSTYLE
105
18
100
AcDbSymbolTableRecord
100
AcDbDimStyleTableRecord
  2
STANDARD
 70
         0
  3

  4

  5

  6

  7

 40
1.0
 41
0.18
 42
0.0625
 43
0.38
 44
0.18
 45
0.0
 46
0.0
 47
0.0
 48
0.0
 71
         0
 72
         0
 73
         1
 74
         1
 75
         0
 76
         0
 77
         0
 78
         0
140
0.18
141
0.09
142
0.0
143
25.4
144
1.0
145
0.0
146
1.0
147
0.09
170
         0
171
         2
172
         0
173
         0
174
         0
175
         0
176
         0
177
         0
178
         0
270
         2
271
         4
272
         4
273
         2
274
         2
275
         0
280
         0
281
         0
282
         0
283
         1
284
         0
285
         0
286
         0
287
         0
288
         0
340
17
  0
DIMSTYLE
105
1D0
100
AcDbSymbolTableRecord
100
AcDbDimStyleTableRecord
  2
DIMSTYLE1
 70
         0
  3

  4

  5

  6

  7

 40
1.0
 41
2.7
 42
0.0625
 43
0.38
 44
2.7
 45
0.0
 46
0.0
 47
0.0
 48
0.0
 71
         0
 72
         0
 73
         1
 74
         1
 75
         0
 76
         0
 77
         0
 78
         0
140
2.7
141
0.09
142
0.0
143
25.4
144
1.0
145
0.0
146
1.0
147
0.09
170
         0
171
         2
172
         0
173
         0
174
         0
175
         0
176
         0
177
         0
178
         0
270
         2
271
         4
272
         4
273
         2
274
         2
275
         0
280
         0
281
         0
282
         0
283
         1
284
         0
285
         0
286
         0
287
         0
288
         0
340
17
  0
ENDTAB
  0
TABLE
  2
BLOCK_RECORD
  5
1
100
AcDbSymbolTable
 70
        11
  0
BLOCK_RECORD
  5
A
100
AcDbSymbolTableRecord
100
AcDbBlockTableRecord
  2
*MODEL_SPACE
  0
BLOCK_RECORD
  5
B
100
AcDbSymbolTableRecord
100
AcDbBlockTableRecord
  2
*PAPER_SPACE
  0
BLOCK_RECORD
  5
1D1
100
AcDbSymbolTableRecord
100
AcDbBlockTableRecord
  2
*D0
  0
BLOCK_RECORD
  5
1E2
100
AcDbSymbolTableRecord
100
AcDbBlockTableRecord
  2
*D1
  0
BLOCK_RECORD
  5
1F0
100
AcDbSymbolTableRecord
100
AcDbBlockTableRecord
  2
*D2
  0
BLOCK_RECORD
  5
242
100
AcDbSymbolTableRecord
100
AcDbBlockTableRecord
  2
*D3
  0
BLOCK_RECORD
  5
250
100
AcDbSymbolTableRecord
100
AcDbBlockTableRecord
  2
*D4
  0
BLOCK_RECORD
  5
2BF
100
AcDbSymbolTableRecord
100
AcDbBlockTableRecord
  2
*D5
  0
BLOCK_RECORD
  5
2CE
100
AcDbSymbolTableRecord
100
AcDbBlockTableRecord
  2
*X6
  0
BLOCK_RECORD
  5
36A
100
AcDbSymbolTableRecord
100
AcDbBlockTableRecord
  2
*D7
  0
BLOCK_RECORD
  5
37A
100
AcDbSymbolTableRecord
100
AcDbBlockTableRecord
  2
*D8
  0
BLOCK_RECORD
  5
38A
100
AcDbSymbolTableRecord
100
AcDbBlockTableRecord
  2
*D9
  0
BLOCK_RECORD
  5
39A
100
AcDbSymbolTableRecord
100
AcDbBlockTableRecord
  2
*D10
  0
ENDTAB
  0
ENDSEC
  0
SECTION
  2
BLOCKS
  0
BLOCK
  5
D
100
AcDbEntity
  8
0
100
AcDbBlockBegin
  2
*MODEL_SPACE
 70
         0
 10
0.0
 20
0.0
 30
0.0
  3
*MODEL_SPACE
  1

  0
ENDBLK
  5
E
100
AcDbEntity
  8
0
100
AcDbBlockEnd
  0
BLOCK
  5
F
100
AcDbEntity
 67
         1
  8
0
100
AcDbBlockBegin
  2
*PAPER_SPACE
 70
         0
 10
0.0
 20
0.0
 30
0.0
  3
*PAPER_SPACE
  1

  0
ENDBLK
  5
10
100
AcDbEntity
 67
         1
  8
0
100
AcDbBlockEnd
  0
BLOCK
  5
1D2
100
AcDbEntity
  8
0
100
AcDbBlockBegin
  2
*D0
 70
        65
 10
0.0
 20
0.0
 30
0.0
  3
*D0
  1

  0
POINT
  5
1D5
100
AcDbEntity
  8
DEFPOINTS
  6
CONTINUOUS
 62
         0
100
AcDbPoint
 10
1398.0350427838
 20
-211.5786455357
 30
0.0
  0
POINT
  5
1D6
100
AcDbEntity
  8
DEFPOINTS
  6
CONTINUOUS
 62
         0
100
AcDbPoint
 10
1567.067309234
 20
-211.5786455357
 30
0.0
  0
POINT
  5
1D7
100
AcDbEntity
  8
DEFPOINTS
  6
CONTINUOUS
 62
         0
100
AcDbPoint
 10
1509.4826807224
 20
-211.5786455357
 30
0.0
  0
POINT
  5
1D8
100
AcDbEntity
  8
DEFPOINTS
  6
CONTINUOUS
 62
         0
100
AcDbPoint
 10
1544.7544229482
 20
-214.3545918515
 30
0.0
  0
ARC
  5
1D9
100
AcDbEntity
  8
L1_120
  6
CONTINUOUS
 62
         4
100
AcDbCircle
 10
1509.4826807224
 20
-211.5786455357
 30
0.0
 40
19.181605997
100
AcDbArc
 50
339.370109238
 51
355.5
  0
SOLID
  5
1DA
100
AcDbEntity
  8
L1_120
  6
CONTINUOUS
 62
         4
100
AcDbTrace
 10
1528.6051562296
 20
-213.0836169968
 30
0.0
 11
1528.605233478
 21
-215.8138230319
 31
0.0
 12
1527.8041916328
 22
-215.6936899296
 32
0.0
 13
1528.6051562296
 23
-213.0836169968
 33
0.0
  0
ARC
  5
1DB
100
AcDbEntity
  8
L1_120
  6
CONTINUOUS
 62
         4
100
AcDbCircle
 10
1509.4826807224
 20
-211.5786455357
 30
0.0
 40
19.181605997
100
AcDbArc
 50
0.0
 51
15.0699996503
  0
SOLID
  5
1DC
100
AcDbEntity
  8
L1_120
  6
CONTINUOUS
 62
         4
100
AcDbTrace
 10
1528.6642867194
 20
-211.5786455357
 30
0.0
 11
1528.0705751912
 21
-208.9137756286
 31
0.0
 12
1528.8785732263
 22
-208.8568618755
 32
0.0
 13
1528.6642867194
 23
-211.5786455357
 33
0.0
  0
ARC
  5
1DD
100
AcDbEntity
  8
L1_120
  6
CONTINUOUS
 62
         4
100
AcDbCircle
 10
1509.4826807224
 20
-211.5786455357
 30
0.0
 40
19.181605997
100
AcDbArc
 50
355.5
 51
360.0
  0
SOLID
  5
1DE
100
AcDbEntity
  8
L1_120
  6
CONTINUOUS
 62
         4
100
AcDbTrace
 10
1509.4826807224
 20
-211.5786455357
 30
0.0
 11
1510.5564341647
 21
-209.0684506139
 31
0.0
 12
1511.2456660196
 22
-209.4939614249
 32
0.0
 13
1509.4826807224
 23
-211.5786455357
 33
0.0
  0
TEXT
  5
1E0
100
AcDbEntity
  8
L1_120
  6
CONTINUOUS
 62
         4
100
AcDbText
 10
1529.3546101885
 20
-205.241448179
 30
0.0
 40
2.7
  1
4.5%%d
  7
BOX
100
AcDbText
  0
ENDBLK
  5
1E1
100
AcDbEntity
  8
0
  6
CONTINUOUS
100
AcDbBlockEnd
  0
BLOCK
  5
1E3
100
AcDbEntity
  8
0
100
AcDbBlockBegin
  2
*D1
 70
        65
 10
0.0
 20
0.0
 30
0.0
  3
*D1
  1

  0
POINT
  5
1E5
100
AcDbEntity
  8
DEFPOINTS
  6
CONTINUOUS
 62
         0
100
AcDbPoint
 10
1562.8042330994
 20
-214.4996455357
 30
0.0
  0
POINT
  5
1E6
100
AcDbEntity
  8
DEFPOINTS
  6
CONTINUOUS
 62
         0
100
AcDbPoint
 10
1546.5975047567
 20
-214.4996455357
 30
0.0
  0
POINT
  5
1E7
100
AcDbEntity
  8
DEFPOINTS
  6
CONTINUOUS
 62
         0
100
AcDbPoint
 10
1546.5975047567
 20
-235.5816455357
 30
0.0
  0
LINE
  5
1E8
100
AcDbEntity
  8
L1_120
  6
CONTINUOUS
 62
         4
100
AcDbLine
 10
1547.9475047567
 20
-214.4996455357
 30
0.0
 11
1563.4792330994
 21
-214.4996455357
 31
0.0
  0
LINE
  5
1E9
100
AcDbEntity
  8
L1_120
  6
CONTINUOUS
 62
         4
100
AcDbLine
 10
1547.9475047567
 20
-235.5816455357
 30
0.0
 11
1563.4792330994
 21
-235.5816455357
 31
0.0
  0
LINE
  5
1EA
100
AcDbEntity
  8
L1_120
  6
CONTINUOUS
 62
         4
100
AcDbLine
 10
1562.8042330994
 20
-214.4996455357
 30
0.0
 11
1562.8042330994
 21
-235.5816455357
 31
0.0
  0
SOLID
  5
1EB
100
AcDbEntity
  8
L1_120
  6
CONTINUOUS
 62
         4
100
AcDbTrace
 10
1562.8042330994
 20
-214.4996455357
 30
0.0
 11
1563.2092330994
 21
-217.1996455357
 31
0.0
 12
1562.3992330994
 22
-217.1996455357
 32
0.0
 13
1562.8042330994
 23
-214.4996455357
 33
0.0
  0
SOLID
  5
1EC
100
AcDbEntity
  8
L1_120
  6
CONTINUOUS
 62
         4
100
AcDbTrace
 10
1562.8042330994
 20
-235.5816455357
 30
0.0
 11
1562.3992330994
 21
-232.8816455357
 31
0.0
 12
1563.2092330994
 22
-232.8816455357
 32
0.0
 13
1562.8042330994
 23
-235.5816455357
 33
0.0
  0
TEXT
  5
1EE
100
AcDbEntity
  8
L1_120
  6
CONTINUOUS
 62
         4
100
AcDbText
 10
1560.7792330994
 20
-229.8538180967
 30
0.0
 40
2.7
  1
崷21
 50
90.0
  7
BOX
100
AcDbText
  0
ENDBLK
  5
1EF
100
AcDbEntity
  8
0
  6
CONTINUOUS
100
AcDbBlockEnd
  0
BLOCK
  5
1F1
100
AcDbEntity
  8
0
100
AcDbBlockBegin
  2
*D2
 70
        65
 10
0.0
 20
0.0
 30
0.0
  3
*D2
  1

  0
POINT
  5
1F3
100
AcDbEntity
  8
DEFPOINTS
  6
CONTINUOUS
 62
         0
100
AcDbPoint
 10
1571.4524445574
 20
-211.5786455357
 30
0.0
  0
POINT
  5
1F4
100
AcDbEntity
  8
DEFPOINTS
  6
CONTINUOUS
 62
         0
100
AcDbPoint
 10
1509.4826807224
 20
-211.5786455357
 30
0.0
  0
POINT
  5
1F5
100
AcDbEntity
  8
DEFPOINTS
  6
CONTINUOUS
 62
         0
100
AcDbPoint
 10
1509.4826807224
 20
-238.5026455357
 30
0.0
  0
LINE
  5
1F6
100
AcDbEntity
  8
L1_120
  6
CONTINUOUS
 62
         4
100
AcDbLine
 10
1510.8326807224
 20
-211.5786455357
 30
0.0
 11
1572.1274445574
 21
-211.5786455357
 31
0.0
  0
LINE
  5
1F7
100
AcDbEntity
  8
L1_120
  6
CONTINUOUS
 62
         4
100
AcDbLine
 10
1510.8326807224
 20
-238.5026455357
 30
0.0
 11
1572.1274445574
 21
-238.5026455357
 31
0.0
  0
LINE
  5
1F8
100
AcDbEntity
  8
L1_120
  6
CONTINUOUS
 62
         4
100
AcDbLine
 10
1571.4524445574
 20
-211.5786455357
 30
0.0
 11
1571.4524445574
 21
-238.5026455357
 31
0.0
  0
SOLID
  5
1F9
100
AcDbEntity
  8
L1_120
  6
CONTINUOUS
 62
         4
100
AcDbTrace
 10
1571.4524445574
 20
-211.5786455357
 30
0.0
 11
1571.8574445574
 21
-214.2786455357
 31
0.0
 12
1571.0474445574
 22
-214.2786455357
 32
0.0
 13
1571.4524445574
 23
-211.5786455357
 33
0.0
  0
SOLID
  5
1FA
100
AcDbEntity
  8
L1_120
  6
CONTINUOUS
 62
         4
100
AcDbTrace
 10
1571.4524445574
 20
-238.5026455357
 30
0.0
 11
1571.0474445574
 21
-235.8026455357
 31
0.0
 12
1571.8574445574
 22
-235.8026455357
 32
0.0
 13
1571.4524445574
 23
-238.5026455357
 33
0.0
  0
TEXT
  5
1FC
100
AcDbEntity
  8
L1_120
  6
CONTINUOUS
 62
         4
100
AcDbText
 10
1569.4274445574
 20
-230.0339520829
 30
0.0
 40
2.7
  1
崷27
 50
90.0
  7
BOX
100
AcDbText
  0
ENDBLK
  5
1FD
100
AcDbEntity
  8
0
  6
CONTINUOUS
100
AcDbBlockEnd
  0
BLOCK
  5
243
100
AcDbEntity
  8
0
100
AcDbBlockBegin
  2
*D3
 70
        65
 10
0.0
 20
0.0
 30
0.0
  3
*D3
  1

  0
POINT
  5
245
100
AcDbEntity
  8
DEFPOINTS
  6
CONTINUOUS
 62
         0
100
AcDbPoint
 10
1386.5775047567
 20
-158.5566544833
 30
0.0
  0
POINT
  5
246
100
AcDbEntity
  8
DEFPOINTS
  6
CONTINUOUS
 62
         0
100
AcDbPoint
 10
1386.5775047567
 20
-202.8156455357
 30
0.0
  0
POINT
  5
247
100
AcDbEntity
  8
DEFPOINTS
  6
CONTINUOUS
 62
         0
100
AcDbPoint
 10
1546.5975047567
 20
-214.0270360273
 30
0.0
  0
LINE
  5
248
100
AcDbEntity
  8
L1_120
  6
CONTINUOUS
 62
         4
100
AcDbLine
 10
1386.5775047567
 20
-201.4656455357
 30
0.0
 11
1386.5775047567
 21
-157.8816544833
 31
0.0
  0
LINE
  5
249
100
AcDbEntity
  8
L1_120
  6
CONTINUOUS
 62
         4
100
AcDbLine
 10
1546.5975047567
 20
-212.6770360273
 30
0.0
 11
1546.5975047567
 21
-157.8816544833
 31
0.0
  0
LINE
  5
24A
100
AcDbEntity
  8
L1_120
  6
CONTINUOUS
 62
         4
100
AcDbLine
 10
1386.5775047567
 20
-158.5566544833
 30
0.0
 11
1546.5975047567
 21
-158.5566544833
 31
0.0
  0
SOLID
  5
24B
100
AcDbEntity
  8
L1_120
  6
CONTINUOUS
 62
         4
100
AcDbTrace
 10
1386.5775047567
 20
-158.5566544833
 30
0.0
 11
1389.2775047567
 21
-158.1516544833
 31
0.0
 12
1389.2775047567
 22
-158.9616544833
 32
0.0
 13
1386.5775047567
 23
-158.5566544833
 33
0.0
  0
SOLID
  5
24C
100
AcDbEntity
  8
L1_120
  6
CONTINUOUS
 62
         4
100
AcDbTrace
 10
1546.5975047567
 20
-158.5566544833
 30
0.0
 11
1543.8975047567
 21
-158.9616544833
 31
0.0
 12
1543.8975047567
 22
-158.1516544833
 32
0.0
 13
1546.5975047567
 23
-158.5566544833
 33
0.0
  0
TEXT
  5
24E
100
AcDbEntity
  8
L1_120
  6
CONTINUOUS
 62
         4
100
AcDbText
 10
1462.5375047567
 20
-156.5316544833
 30
0.0
 40
2.7
  1
160
  7
BOX
100
AcDbText
  0
ENDBLK
  5
24F
100
AcDbEntity
  8
0
  6
CONTINUOUS
100
AcDbBlockEnd
  0
BLOCK
  5
251
100
AcDbEntity
  8
0
100
AcDbBlockBegin
  2
*D4
 70
        65
 10
0.0
 20
0.0
 30
0.0
  3
*D4
  1

  0
POINT
  5
253
100
AcDbEntity
  8
DEFPOINTS
  6
CONTINUOUS
 62
         0
100
AcDbPoint
 10
1318.3275047567
 20
-150.7583590168
 30
0.0
  0
POINT
  5
254
100
AcDbEntity
  8
DEFPOINTS
  6
CONTINUOUS
 62
         0
100
AcDbPoint
 10
1318.3275047567
 20
-213.8064638192
 30
0.0
  0
POINT
  5
255
100
AcDbEntity
  8
DEFPOINTS
  6
CONTINUOUS
 62
         0
100
AcDbPoint
 10
1546.5975047567
 20
-214.0270360273
 30
0.0
  0
LINE
  5
256
100
AcDbEntity
  8
L1_120
  6
CONTINUOUS
 62
         4
100
AcDbLine
 10
1318.3275047567
 20
-212.4564638192
 30
0.0
 11
1318.3275047567
 21
-150.0833590168
 31
0.0
  0
LINE
  5
257
100
AcDbEntity
  8
L1_120
  6
CONTINUOUS
 62
         4
100
AcDbLine
 10
1546.5975047567
 20
-212.6770360273
 30
0.0
 11
1546.5975047567
 21
-150.0833590168
 31
0.0
  0
LINE
  5
258
100
AcDbEntity
  8
L1_120
  6
CONTINUOUS
 62
         4
100
AcDbLine
 10
1318.3275047567
 20
-150.7583590168
 30
0.0
 11
1546.5975047567
 21
-150.7583590168
 31
0.0
  0
SOLID
  5
259
100
AcDbEntity
  8
L1_120
  6
CONTINUOUS
 62
         4
100
AcDbTrace
 10
1318.3275047567
 20
-150.7583590168
 30
0.0
 11
1321.0275047567
 21
-150.3533590168
 31
0.0
 12
1321.0275047567
 22
-151.1633590168
 32
0.0
 13
1318.3275047567
 23
-150.7583590168
 33
0.0
  0
SOLID
  5
25A
100
AcDbEntity
  8
L1_120
  6
CONTINUOUS
 62
         4
100
AcDbTrace
 10
1546.5975047567
 20
-150.7583590168
 30
0.0
 11
1543.8975047567
 21
-151.1633590168
 31
0.0
 12
1543.8975047567
 22
-150.3533590168
 32
0.0
 13
1546.5975047567
 23
-150.7583590168
 33
0.0
  0
TEXT
  5
25C
100
AcDbEntity
  8
L1_120
  6
CONTINUOUS
 62
         4
100
AcDbText
 10
1422.0473971768
 20
-148.7333590168
 30
0.0
 40
2.7
  1
228.27
  7
BOX
100
AcDbText
  0
ENDBLK
  5
25D
100
AcDbEntity
  8
0
  6
CONTINUOUS
100
AcDbBlockEnd
  0
BLOCK
  5
2C0
100
AcDbEntity
  8
0
100
AcDbBlockBegin
  2
*D5
 70
        65
 10
0.0
 20
0.0
 30
0.0
  3
*D5
  1

  0
POINT
  5
2C2
100
AcDbEntity
  8
DEFPOINTS
  6
CONTINUOUS
 62
         0
100
AcDbPoint
 10
1510.5975047567
 20
-370.6061025954
 30
0.0
  0
POINT
  5
2C3
100
AcDbEntity
  8
DEFPOINTS
  6
CONTINUOUS
 62
         0
100
AcDbPoint
 10
1510.5975047567
 20
-342.1686220057
 30
0.0
  0
POINT
  5
2C4
100
AcDbEntity
  8
DEFPOINTS
  6
CONTINUOUS
 62
         0
100
AcDbPoint
 10
1546.5975047567
 20
-347.7852315141
 30
0.0
  0
LINE
  5
2C5
100
AcDbEntity
  8
L1_120
  6
CONTINUOUS
 62
         4
100
AcDbLine
 10
1510.5975047567
 20
-343.5186220057
 30
0.0
 11
1510.5975047567
 21
-371.2811025954
 31
0.0
  0
LINE
  5
2C6
100
AcDbEntity
  8
L1_120
  6
CONTINUOUS
 62
         4
100
AcDbLine
 10
1546.5975047567
 20
-349.1352315141
 30
0.0
 11
1546.5975047567
 21
-371.2811025954
 31
0.0
  0
LINE
  5
2C7
100
AcDbEntity
  8
L1_120
  6
CONTINUOUS
 62
         4
100
AcDbLine
 10
1510.5975047567
 20
-370.6061025954
 30
0.0
 11
1546.5975047567
 21
-370.6061025954
 31
0.0
  0
SOLID
  5
2C8
100
AcDbEntity
  8
L1_120
  6
CONTINUOUS
 62
         4
100
AcDbTrace
 10
1510.5975047567
 20
-370.6061025954
 30
0.0
 11
1513.2975047567
 21
-370.2011025954
 31
0.0
 12
1513.2975047567
 22
-371.0111025954
 32
0.0
 13
1510.5975047567
 23
-370.6061025954
 33
0.0
  0
SOLID
  5
2C9
100
AcDbEntity
  8
L1_120
  6
CONTINUOUS
 62
         4
100
AcDbTrace
 10
1546.5975047567
 20
-370.6061025954
 30
0.0
 11
1543.8975047567
 21
-371.0111025954
 31
0.0
 12
1543.8975047567
 22
-370.2011025954
 32
0.0
 13
1546.5975047567
 23
-370.6061025954
 33
0.0
  0
TEXT
  5
2CB
100
AcDbEntity
  8
L1_120
  6
CONTINUOUS
 62
         4
100
AcDbText
 10
1525.6725047567
 20
-367.4741025954
 30
0.0
 40
2.7
  1
36
  7
BOX
100
AcDbText
  0
ENDBLK
  5
2CC
100
AcDbEntity
  8
0
  6
CONTINUOUS
100
AcDbBlockEnd
  0
BLOCK
  5
2CF
100
AcDbEntity
  8
0
100
AcDbBlockBegin
  2
*X6
 70
        65
 10
0.0
 20
0.0
 30
0.0
  3
*X6
  1

  0
LINE
  5
2D0
100
AcDbEntity
  8
L1_120
  6
CONTINUOUS
 62
         4
100
AcDbLine
 10
1545.2518021386
 20
-348.8155310986
 30
0.0
 11
1546.5975047567
 21
-347.4698284805
 31
0.0
  0
LINE
  5
2D1
100
AcDbEntity
  8
L1_120
  6
CONTINUOUS
 62
         4
100
AcDbLine
 10
1540.6467347912
 20
-349.1779577589
 30
0.0
 11
1546.5975047567
 21
-343.2271877934
 31
0.0
  0
LINE
  5
2D2
100
AcDbEntity
  8
L1_120
  6
CONTINUOUS
 62
         4
100
AcDbLine
 10
1536.0416674438
 20
-349.5403844192
 30
0.0
 11
1544.2476298573
 21
-341.3344220057
 31
0.0
  0
LINE
  5
2D3
100
AcDbEntity
  8
L1_120
  6
CONTINUOUS
 62
         4
100
AcDbLine
 10
1531.4366000964
 20
-349.9028110795
 30
0.0
 11
1540.0049891702
 21
-341.3344220057
 31
0.0
  0
LINE
  5
2D4
100
AcDbEntity
  8
L1_120
  6
CONTINUOUS
 62
         4
100
AcDbLine
 10
1526.831532749
 20
-350.2652377398
 30
0.0
 11
1535.7623484831
 21
-341.3344220057
 31
0.0
  0
LINE
  5
2D5
100
AcDbEntity
  8
L1_120
  6
CONTINUOUS
 62
         4
100
AcDbLine
 10
1542.0939484831
 20
-335.0028220057
 30
0.0
 11
1546.5975047567
 21
-330.4992657321
 31
0.0
  0
LINE
  5
2D6
100
AcDbEntity
  8
L1_120
  6
CONTINUOUS
 62
         4
100
AcDbLine
 10
1522.2264654016
 20
-350.6276644001
 30
0.0
 11
1531.5197077959
 21
-341.3344220057
 31
0.0
  0
LINE
  5
2D7
100
AcDbEntity
  8
L1_120
  6
CONTINUOUS
 62
         4
100
AcDbLine
 10
1537.8513077959
 20
-335.0028220057
 30
0.0
 11
1545.3265352643
 21
-327.5275945373
 31
0.0
  0
LINE
  5
2D8
100
AcDbEntity
  8
L1_120
  6
CONTINUOUS
 62
         4
100
AcDbLine
 10
1517.6213980541
 20
-350.9900910603
 30
0.0
 11
1527.2770671088
 21
-341.3344220057
 31
0.0
  0
LINE
  5
2D9
100
AcDbEntity
  8
L1_120
  6
CONTINUOUS
 62
         4
100
AcDbLine
 10
1533.6086671088
 20
-335.0028220057
 30
0.0
 11
1541.3934361877
 21
-327.2180529269
 31
0.0
  0
LINE
  5
2DA
100
AcDbEntity
  8
L1_120
  6
CONTINUOUS
 62
         4
100
AcDbLine
 10
1513.0163307067
 20
-351.3525177206
 30
0.0
 11
1523.0344264217
 21
-341.3344220057
 31
0.0
  0
LINE
  5
2DB
100
AcDbEntity
  8
L1_120
  6
CONTINUOUS
 62
         4
100
AcDbLine
 10
1529.3660264217
 20
-335.0028220057
 30
0.0
 11
1537.460337111
 21
-326.9085113165
 31
0.0
  0
LINE
  5
2DC
100
AcDbEntity
  8
L1_120
  6
CONTINUOUS
 62
         4
100
AcDbLine
 10
1508.4955857345
 20
-351.6306220057
 30
0.0
 11
1517.9575857346
 21
-342.1686220057
 31
0.0
  0
LINE
  5
2DD
100
AcDbEntity
  8
L1_120
  6
CONTINUOUS
 62
         4
100
AcDbLine
 10
1525.1233857346
 20
-335.0028220057
 30
0.0
 11
1533.5272380343
 21
-326.598969706
 31
0.0
  0
LINE
  5
2DE
100
AcDbEntity
  8
L1_120
  6
CONTINUOUS
 62
         4
100
AcDbLine
 10
1504.2529450474
 20
-351.6306220057
 30
0.0
 11
1513.7149450474
 21
-342.1686220057
 31
0.0
  0
LINE
  5
2DF
100
AcDbEntity
  8
L1_120
  6
CONTINUOUS
 62
         4
100
AcDbLine
 10
1520.8807450474
 20
-335.0028220057
 30
0.0
 11
1529.5941389576
 21
-326.2894280956
 31
0.0
  0
LINE
  5
2E0
100
AcDbEntity
  8
L1_120
  6
CONTINUOUS
 62
         4
100
AcDbLine
 10
1500.0103043603
 20
-351.6306220057
 30
0.0
 11
1510.5975047567
 21
-341.0434216093
 31
0.0
  0
LINE
  5
2E1
100
AcDbEntity
  8
L1_120
  6
CONTINUOUS
 62
         4
100
AcDbLine
 10
1517.4723043603
 20
-334.1686220057
 30
0.0
 11
1525.6610398809
 21
-325.9798864851
 31
0.0
  0
LINE
  5
2E2
100
AcDbEntity
  8
L1_120
  6
CONTINUOUS
 62
         4
100
AcDbLine
 10
1495.7676636732
 20
-351.6306220057
 30
0.0
 11
1507.1296636732
 21
-340.2686220057
 31
0.0
  0
LINE
  5
2E3
100
AcDbEntity
  8
L1_120
  6
CONTINUOUS
 62
         4
100
AcDbLine
 10
1513.2296636732
 20
-334.1686220057
 30
0.0
 11
1521.7279408043
 21
-325.6703448747
 31
0.0
  0
LINE
  5
2E4
100
AcDbEntity
  8
L1_120
  6
CONTINUOUS
 62
         4
100
AcDbLine
 10
1491.525022986
 20
-351.6306220057
 30
0.0
 11
1502.8870229861
 21
-340.2686220057
 31
0.0
  0
LINE
  5
2E5
100
AcDbEntity
  8
L1_120
  6
CONTINUOUS
 62
         4
100
AcDbLine
 10
1507.0870229861
 20
-336.0686220057
 30
0.0
 11
1517.7948417276
 21
-325.3608032642
 31
0.0
  0
LINE
  5
2E6
100
AcDbEntity
  8
L1_120
  6
CONTINUOUS
 62
         4
100
AcDbLine
 10
1487.2823822989
 20
-351.6306220057
 30
0.0
 11
1498.6443822989
 21
-340.2686220057
 31
0.0
  0
LINE
  5
2E7
100
AcDbEntity
  8
L1_120
  6
CONTINUOUS
 62
         4
100
AcDbLine
 10
1502.8443822989
 20
-336.0686220057
 30
0.0
 11
1513.8617426509
 21
-325.0512616538
 31
0.0
  0
LINE
  5
2E8
100
AcDbEntity
  8
L1_120
  6
CONTINUOUS
 62
         4
100
AcDbLine
 10
1483.0397416118
 20
-351.6306220057
 30
0.0
 11
1494.4017416118
 21
-340.2686220057
 31
0.0
  0
LINE
  5
2E9
100
AcDbEntity
  8
L1_120
  6
CONTINUOUS
 62
         4
100
AcDbLine
 10
1498.6017416118
 20
-336.0686220057
 30
0.0
 11
1509.9286435742
 21
-324.7417200433
 31
0.0
  0
LINE
  5
2EA
100
AcDbEntity
  8
L1_120
  6
CONTINUOUS
 62
         4
100
AcDbLine
 10
1478.7971009247
 20
-351.6306220057
 30
0.0
 11
1490.1591009247
 21
-340.2686220057
 31
0.0
  0
LINE
  5
2EB
100
AcDbEntity
  8
L1_120
  6
CONTINUOUS
 62
         4
100
AcDbLine
 10
1494.3591009247
 20
-336.0686220057
 30
0.0
 11
1505.7211009247
 21
-324.7066220057
 31
0.0
  0
LINE
  5
2EC
100
AcDbEntity
  8
L1_120
  6
CONTINUOUS
 62
         4
100
AcDbLine
 10
1474.5544602375
 20
-351.6306220057
 30
0.0
 11
1485.9164602376
 21
-340.2686220057
 31
0.0
  0
LINE
  5
2ED
100
AcDbEntity
  8
L1_120
  6
CONTINUOUS
 62
         4
100
AcDbLine
 10
1490.1164602376
 20
-336.0686220057
 30
0.0
 11
1501.4784602376
 21
-324.7066220057
 31
0.0
  0
LINE
  5
2EE
100
AcDbEntity
  8
L1_120
  6
CONTINUOUS
 62
         4
100
AcDbLine
 10
1470.3118195504
 20
-351.6306220057
 30
0.0
 11
1481.6738195504
 21
-340.2686220057
 31
0.0
  0
LINE
  5
2EF
100
AcDbEntity
  8
L1_120
  6
CONTINUOUS
 62
         4
100
AcDbLine
 10
1485.8738195504
 20
-336.0686220057
 30
0.0
 11
1497.2358195505
 21
-324.7066220057
 31
0.0
  0
LINE
  5
2F0
100
AcDbEntity
  8
L1_120
  6
CONTINUOUS
 62
         4
100
AcDbLine
 10
1466.0691788633
 20
-351.6306220057
 30
0.0
 11
1477.4311788633
 21
-340.2686220057
 31
0.0
  0
LINE
  5
2F1
100
AcDbEntity
  8
L1_120
  6
CONTINUOUS
 62
         4
100
AcDbLine
 10
1481.6311788633
 20
-336.0686220057
 30
0.0
 11
1492.9931788633
 21
-324.7066220057
 31
0.0
  0
LINE
  5
2F2
100
AcDbEntity
  8
L1_120
  6
CONTINUOUS
 62
         4
100
AcDbLine
 10
1461.8265381761
 20
-351.6306220057
 30
0.0
 11
1473.1885381762
 21
-340.2686220057
 31
0.0
  0
LINE
  5
2F3
100
AcDbEntity
  8
L1_120
  6
CONTINUOUS
 62
         4
100
AcDbLine
 10
1477.3885381762
 20
-336.0686220057
 30
0.0
 11
1488.7505381762
 21
-324.7066220057
 31
0.0
  0
LINE
  5
2F4
100
AcDbEntity
  8
L1_120
  6
CONTINUOUS
 62
         4
100
AcDbLine
 10
1457.583897489
 20
-351.6306220057
 30
0.0
 11
1468.9458974891
 21
-340.2686220057
 31
0.0
  0
LINE
  5
2F5
100
AcDbEntity
  8
L1_120
  6
CONTINUOUS
 62
         4
100
AcDbLine
 10
1473.1458974891
 20
-336.0686220057
 30
0.0
 11
1484.5078974891
 21
-324.7066220057
 31
0.0
  0
LINE
  5
2F6
100
AcDbEntity
  8
L1_120
  6
CONTINUOUS
 62
         4
100
AcDbLine
 10
1453.3412568019
 20
-351.6306220057
 30
0.0
 11
1464.7032568019
 21
-340.2686220057
 31
0.0
  0
LINE
  5
2F7
100
AcDbEntity
  8
L1_120
  6
CONTINUOUS
 62
         4
100
AcDbLine
 10
1468.9032568019
 20
-336.0686220057
 30
0.0
 11
1480.265256802
 21
-324.7066220057
 31
0.0
  0
LINE
  5
2F8
100
AcDbEntity
  8
L1_120
  6
CONTINUOUS
 62
         4
100
AcDbLine
 10
1449.0986161148
 20
-351.6306220057
 30
0.0
 11
1460.4606161148
 21
-340.2686220057
 31
0.0
  0
LINE
  5
2F9
100
AcDbEntity
  8
L1_120
  6
CONTINUOUS
 62
         4
100
AcDbLine
 10
1464.6606161148
 20
-336.0686220057
 30
0.0
 11
1476.0226161148
 21
-324.7066220057
 31
0.0
  0
LINE
  5
2FA
100
AcDbEntity
  8
L1_120
  6
CONTINUOUS
 62
         4
100
AcDbLine
 10
1444.8559754276
 20
-351.6306220057
 30
0.0
 11
1456.2179754277
 21
-340.2686220057
 31
0.0
  0
LINE
  5
2FB
100
AcDbEntity
  8
L1_120
  6
CONTINUOUS
 62
         4
100
AcDbLine
 10
1460.4179754277
 20
-336.0686220057
 30
0.0
 11
1471.7799754277
 21
-324.7066220057
 31
0.0
  0
LINE
  5
2FC
100
AcDbEntity
  8
L1_120
  6
CONTINUOUS
 62
         4
100
AcDbLine
 10
1440.6133347405
 20
-351.6306220057
 30
0.0
 11
1451.9753347406
 21
-340.2686220057
 31
0.0
  0
LINE
  5
2FD
100
AcDbEntity
  8
L1_120
  6
CONTINUOUS
 62
         4
100
AcDbLine
 10
1456.1753347406
 20
-336.0686220057
 30
0.0
 11
1467.5373347406
 21
-324.7066220057
 31
0.0
  0
LINE
  5
2FE
100
AcDbEntity
  8
L1_120
  6
CONTINUOUS
 62
         4
100
AcDbLine
 10
1436.3706940534
 20
-351.6306220057
 30
0.0
 11
1447.7326940534
 21
-340.2686220057
 31
0.0
  0
LINE
  5
2FF
100
AcDbEntity
  8
L1_120
  6
CONTINUOUS
 62
         4
100
AcDbLine
 10
1451.9326940534
 20
-336.0686220057
 30
0.0
 11
1463.2946940535
 21
-324.7066220057
 31
0.0
  0
LINE
  5
300
100
AcDbEntity
  8
L1_120
  6
CONTINUOUS
 62
         4
100
AcDbLine
 10
1432.1280533663
 20
-351.6306220057
 30
0.0
 11
1443.4900533663
 21
-340.2686220057
 31
0.0
  0
LINE
  5
301
100
AcDbEntity
  8
L1_120
  6
CONTINUOUS
 62
         4
100
AcDbLine
 10
1447.6900533663
 20
-336.0686220057
 30
0.0
 11
1459.0520533663
 21
-324.7066220057
 31
0.0
  0
LINE
  5
302
100
AcDbEntity
  8
L1_120
  6
CONTINUOUS
 62
         4
100
AcDbLine
 10
1427.8854126791
 20
-351.6306220057
 30
0.0
 11
1439.2474126792
 21
-340.2686220057
 31
0.0
  0
LINE
  5
303
100
AcDbEntity
  8
L1_120
  6
CONTINUOUS
 62
         4
100
AcDbLine
 10
1443.4474126792
 20
-336.0686220057
 30
0.0
 11
1454.8094126792
 21
-324.7066220057
 31
0.0
  0
LINE
  5
304
100
AcDbEntity
  8
L1_120
  6
CONTINUOUS
 62
         4
100
AcDbLine
 10
1423.642771992
 20
-351.6306220057
 30
0.0
 11
1435.0047719921
 21
-340.2686220057
 31
0.0
  0
LINE
  5
305
100
AcDbEntity
  8
L1_120
  6
CONTINUOUS
 62
         4
100
AcDbLine
 10
1439.2047719921
 20
-336.0686220057
 30
0.0
 11
1450.5667719921
 21
-324.7066220057
 31
0.0
  0
LINE
  5
306
100
AcDbEntity
  8
L1_120
  6
CONTINUOUS
 62
         4
100
AcDbLine
 10
1401.1674202889
 20
-369.8633330216
 30
0.0
 11
1405.6775047567
 21
-365.3532485539
 31
0.0
  0
LINE
  5
307
100
AcDbEntity
  8
L1_120
  6
CONTINUOUS
 62
         4
100
AcDbLine
 10
1419.4001313049
 20
-351.6306220057
 30
0.0
 11
1430.7621313049
 21
-340.2686220057
 31
0.0
  0
LINE
  5
308
100
AcDbEntity
  8
L1_120
  6
CONTINUOUS
 62
         4
100
AcDbLine
 10
1434.9621313049
 20
-336.0686220057
 30
0.0
 11
1446.324131305
 21
-324.7066220057
 31
0.0
  0
LINE
  5
309
100
AcDbEntity
  8
L1_120
  6
CONTINUOUS
 62
         4
100
AcDbLine
 10
1399.6145060183
 20
-367.1736066051
 30
0.0
 11
1405.6775047567
 21
-361.1106078667
 31
0.0
  0
LINE
  5
30A
100
AcDbEntity
  8
L1_120
  6
CONTINUOUS
 62
         4
100
AcDbLine
 10
1415.8849142291
 20
-350.9031983944
 30
0.0
 11
1426.5194906178
 21
-340.2686220057
 31
0.0
  0
LINE
  5
30B
100
AcDbEntity
  8
L1_120
  6
CONTINUOUS
 62
         4
100
AcDbLine
 10
1430.7194906178
 20
-336.0686220057
 30
0.0
 11
1442.0814906178
 21
-324.7066220057
 31
0.0
  0
LINE
  5
30C
100
AcDbEntity
  8
L1_120
  6
CONTINUOUS
 62
         4
100
AcDbLine
 10
1392.6018499304
 20
-369.9436220059
 30
0.0
 11
1405.6775047567
 21
-356.8679671796
 31
0.0
  0
LINE
  5
30D
100
AcDbEntity
  8
L1_120
  6
CONTINUOUS
 62
         4
100
AcDbLine
 10
1415.8849142291
 20
-346.6605577073
 30
0.0
 11
1422.2768499307
 21
-340.2686220057
 31
0.0
  0
LINE
  5
30E
100
AcDbEntity
  8
L1_120
  6
CONTINUOUS
 62
         4
100
AcDbLine
 10
1426.4768499307
 20
-336.0686220057
 30
0.0
 11
1437.8388499307
 21
-324.7066220057
 31
0.0
  0
LINE
  5
30F
100
AcDbEntity
  8
L1_120
  6
CONTINUOUS
 62
         4
100
AcDbLine
 10
1389.7775047567
 20
-368.5253264925
 30
0.0
 11
1410.6949142291
 21
-347.6079170202
 31
0.0
  0
LINE
  5
310
100
AcDbEntity
  8
L1_120
  6
CONTINUOUS
 62
         4
100
AcDbLine
 10
1414.4821154793
 20
-343.8207157699
 30
0.0
 11
1418.0342092436
 21
-340.2686220057
 31
0.0
  0
LINE
  5
311
100
AcDbEntity
  8
L1_120
  6
CONTINUOUS
 62
         4
100
AcDbLine
 10
1422.2342092436
 20
-336.0686220057
 30
0.0
 11
1433.5962092436
 21
-324.7066220057
 31
0.0
  0
LINE
  5
312
100
AcDbEntity
  8
L1_120
  6
CONTINUOUS
 62
         4
100
AcDbLine
 10
1389.7775047567
 20
-364.2826858054
 30
0.0
 11
1413.7915685564
 21
-340.2686220057
 31
0.0
  0
LINE
  5
313
100
AcDbEntity
  8
L1_120
  6
CONTINUOUS
 62
         4
100
AcDbLine
 10
1417.9915685564
 20
-336.0686220057
 30
0.0
 11
1429.3535685565
 21
-324.7066220057
 31
0.0
  0
LINE
  5
314
100
AcDbEntity
  8
L1_120
  6
CONTINUOUS
 62
         4
100
AcDbLine
 10
1389.2133679085
 20
-360.6041819665
 30
0.0
 11
1409.5489278693
 21
-340.2686220057
 31
0.0
  0
LINE
  5
315
100
AcDbEntity
  8
L1_120
  6
CONTINUOUS
 62
         4
100
AcDbLine
 10
1413.7489278693
 20
-336.0686220057
 30
0.0
 11
1425.1109278693
 21
-324.7066220057
 31
0.0
  0
LINE
  5
316
100
AcDbEntity
  8
L1_120
  6
CONTINUOUS
 62
         4
100
AcDbLine
 10
1385.3589876007
 20
-360.2159215871
 30
0.0
 11
1400.4062871822
 21
-345.1686220057
 31
0.0
  0
LINE
  5
317
100
AcDbEntity
  8
L1_120
  6
CONTINUOUS
 62
         4
100
AcDbLine
 10
1409.5062871822
 20
-336.0686220057
 30
0.0
 11
1412.7067520657
 21
-332.8681571222
 31
0.0
  0
LINE
  5
318
100
AcDbEntity
  8
L1_120
  6
CONTINUOUS
 62
         4
100
AcDbLine
 10
1415.8849142291
 20
-329.6899949589
 30
0.0
 11
1420.8682871822
 21
-324.7066220057
 31
0.0
  0
LINE
  5
319
100
AcDbEntity
  8
L1_120
  6
CONTINUOUS
 62
         4
100
AcDbLine
 10
1381.6563193647
 20
-359.675949136
 30
0.0
 11
1396.163646495
 21
-345.1686220057
 31
0.0
  0
LINE
  5
31A
100
AcDbEntity
  8
L1_120
  6
CONTINUOUS
 62
         4
100
AcDbLine
 10
1405.4689644057
 20
-335.8633040951
 30
0.0
 11
1410.6949142291
 21
-330.6373542717
 31
0.0
  0
LINE
  5
31B
100
AcDbEntity
  8
L1_120
  6
CONTINUOUS
 62
         4
100
AcDbLine
 10
1415.8849142291
 20
-325.4473542717
 30
0.0
 11
1416.6256464951
 21
-324.7066220057
 31
0.0
  0
LINE
  5
31C
100
AcDbEntity
  8
L1_120
  6
CONTINUOUS
 62
         4
100
AcDbLine
 10
1377.9536511286
 20
-359.135976685
 30
0.0
 11
1391.9210058079
 21
-345.1686220057
 31
0.0
  0
LINE
  5
31D
100
AcDbEntity
  8
L1_120
  6
CONTINUOUS
 62
         4
100
AcDbLine
 10
1403.9160501351
 20
-333.1735776785
 30
0.0
 11
1410.6949142291
 21
-326.3947135846
 31
0.0
  0
LINE
  5
31E
100
AcDbEntity
  8
L1_120
  6
CONTINUOUS
 62
         4
100
AcDbLine
 10
1374.2509828926
 20
-358.5960042339
 30
0.0
 11
1387.6783651208
 21
-345.1686220057
 31
0.0
  0
LINE
  5
31F
100
AcDbEntity
  8
L1_120
  6
CONTINUOUS
 62
         4
100
AcDbLine
 10
1401.6783651208
 20
-331.1686220057
 30
0.0
 11
1408.1816307656
 21
-324.665356361
 31
0.0
  0
LINE
  5
320
100
AcDbEntity
  8
L1_120
  6
CONTINUOUS
 62
         4
100
AcDbLine
 10
1370.5483146566
 20
-358.0560317828
 30
0.0
 11
1383.4357244337
 21
-345.1686220057
 31
0.0
  0
LINE
  5
321
100
AcDbEntity
  8
L1_120
  6
CONTINUOUS
 62
         4
100
AcDbLine
 10
1399.4274972617
 20
-329.1768491777
 30
0.0
 11
1405.8619730137
 21
-322.7423734257
 31
0.0
  0
LINE
  5
322
100
AcDbEntity
  8
L1_120
  6
CONTINUOUS
 62
         4
100
AcDbLine
 10
1366.8456464205
 20
-357.5160593317
 30
0.0
 11
1379.1930837465
 21
-345.1686220057
 31
0.0
  0
LINE
  5
323
100
AcDbEntity
  8
L1_120
  6
CONTINUOUS
 62
         4
100
AcDbLine
 10
1393.1930837466
 20
-331.1686220057
 30
0.0
 11
1396.1274976284
 21
-328.2342081239
 31
0.0
  0
LINE
  5
324
100
AcDbEntity
  8
L1_120
  6
CONTINUOUS
 62
         4
100
AcDbLine
 10
1399.4274989122
 20
-324.9342068402
 30
0.0
 11
1405.6775047567
 21
-318.6842009956
 31
0.0
  0
LINE
  5
325
100
AcDbEntity
  8
L1_120
  6
CONTINUOUS
 62
         4
100
AcDbLine
 10
1363.1429781845
 20
-356.9760868806
 30
0.0
 11
1374.9504430594
 21
-345.1686220057
 31
0.0
  0
LINE
  5
326
100
AcDbEntity
  8
L1_120
  6
CONTINUOUS
 62
         4
100
AcDbLine
 10
1388.9504430595
 20
-331.1686220057
 30
0.0
 11
1396.1274992789
 21
-323.9915657863
 31
0.0
  0
LINE
  5
327
100
AcDbEntity
  8
L1_120
  6
CONTINUOUS
 62
         4
100
AcDbLine
 10
1399.4275005626
 20
-320.6915645026
 30
0.0
 11
1405.6775047567
 21
-314.4415603085
 31
0.0
  0
LINE
  5
328
100
AcDbEntity
  8
L1_120
  6
CONTINUOUS
 62
         4
100
AcDbLine
 10
1359.4403099485
 20
-356.4361144295
 30
0.0
 11
1370.7078023723
 21
-345.1686220057
 31
0.0
  0
LINE
  5
329
100
AcDbEntity
  8
L1_120
  6
CONTINUOUS
 62
         4
100
AcDbLine
 10
1384.7078023723
 20
-331.1686220057
 30
0.0
 11
1396.1275009293
 21
-319.7489234488
 31
0.0
  0
LINE
  5
32A
100
AcDbEntity
  8
L1_120
  6
CONTINUOUS
 62
         4
100
AcDbLine
 10
1399.6382209968
 20
-316.2382033813
 30
0.0
 11
1405.6775047567
 21
-310.1989196214
 31
0.0
  0
LINE
  5
32B
100
AcDbEntity
  8
L1_120
  6
CONTINUOUS
 62
         4
100
AcDbLine
 10
1355.7376417124
 20
-355.8961419784
 30
0.0
 11
1366.4651616852
 21
-345.1686220057
 31
0.0
  0
LINE
  5
32C
100
AcDbEntity
  8
L1_120
  6
CONTINUOUS
 62
         4
100
AcDbLine
 10
1380.4651616852
 20
-331.1686220057
 30
0.0
 11
1394.8788695385
 21
-316.7549141525
 31
0.0
  0
LINE
  5
32D
100
AcDbEntity
  8
L1_120
  6
CONTINUOUS
 62
         4
100
AcDbLine
 10
1399.7775039997
 20
-311.8562796913
 30
0.0
 11
1405.131278579
 21
-306.502505112
 31
0.0
  0
LINE
  5
32E
100
AcDbEntity
  8
L1_120
  6
CONTINUOUS
 62
         4
100
AcDbLine
 10
1352.0349734764
 20
-355.3561695273
 30
0.0
 11
1362.222520998
 21
-345.1686220057
 31
0.0
  0
LINE
  5
32F
100
AcDbEntity
  8
L1_120
  6
CONTINUOUS
 62
         4
100
AcDbLine
 10
1376.2225209981
 20
-331.1686220057
 30
0.0
 11
1392.3835031836
 21
-315.0076398202
 31
0.0
  0
LINE
  5
330
100
AcDbEntity
  8
L1_120
  6
CONTINUOUS
 62
         4
100
AcDbLine
 10
1394.7529528257
 20
-312.6381901781
 30
0.0
 11
1395.7775040941
 21
-311.6136389097
 31
0.0
  0
LINE
  5
331
100
AcDbEntity
  8
L1_120
  6
CONTINUOUS
 62
         4
100
AcDbLine
 10
1348.3323052404
 20
-354.8161970762
 30
0.0
 11
1357.9798803109
 21
-345.1686220057
 31
0.0
  0
LINE
  5
332
100
AcDbEntity
  8
L1_120
  6
CONTINUOUS
 62
         4
100
AcDbLine
 10
1371.979880311
 20
-331.1686220057
 30
0.0
 11
1387.3119932105
 21
-315.8365091062
 31
0.0
  0
LINE
  5
333
100
AcDbEntity
  8
L1_120
  6
CONTINUOUS
 62
         4
100
AcDbLine
 10
1392.2575864709
 20
-310.8909158459
 30
0.0
 11
1395.0978951733
 21
-308.0506071435
 31
0.0
  0
LINE
  5
334
100
AcDbEntity
  8
L1_120
  6
CONTINUOUS
 62
         4
100
AcDbLine
 10
1344.6296370043
 20
-354.2762246252
 30
0.0
 11
1353.7372396238
 21
-345.1686220057
 31
0.0
  0
LINE
  5
335
100
AcDbEntity
  8
L1_120
  6
CONTINUOUS
 62
         4
100
AcDbLine
 10
1367.7372396238
 20
-331.1686220057
 30
0.0
 11
1382.3449992353
 21
-316.5608623943
 31
0.0
  0
LINE
  5
336
100
AcDbEntity
  8
L1_120
  6
CONTINUOUS
 62
         4
100
AcDbLine
 10
1390.0494261332
 20
-308.8564354964
 30
0.0
 11
1392.5122396241
 21
-306.3936220055
 31
0.0
  0
LINE
  5
337
100
AcDbEntity
  8
L1_120
  6
CONTINUOUS
 62
         4
100
AcDbLine
 10
1340.9269687683
 20
-353.7362521741
 30
0.0
 11
1349.4945989367
 21
-345.1686220057
 31
0.0
  0
LINE
  5
338
100
AcDbEntity
  8
L1_120
  6
CONTINUOUS
 62
         4
100
AcDbLine
 10
1363.4945989367
 20
-331.1686220057
 30
0.0
 11
1377.3780052602
 21
-317.2852156823
 31
0.0
  0
LINE
  5
339
100
AcDbEntity
  8
L1_120
  6
CONTINUOUS
 62
         4
100
AcDbLine
 10
1337.2243005323
 20
-353.196279723
 30
0.0
 11
1345.2519582495
 21
-345.1686220057
 31
0.0
  0
LINE
  5
33A
100
AcDbEntity
  8
L1_120
  6
CONTINUOUS
 62
         4
100
AcDbLine
 10
1359.2519582496
 20
-331.1686220057
 30
0.0
 11
1372.411011285
 21
-318.0095689703
 31
0.0
  0
LINE
  5
33B
100
AcDbEntity
  8
L1_120
  6
CONTINUOUS
 62
         4
100
AcDbLine
 10
1333.5216322962
 20
-352.6563072719
 30
0.0
 11
1341.0093175624
 21
-345.1686220057
 31
0.0
  0
LINE
  5
33C
100
AcDbEntity
  8
L1_120
  6
CONTINUOUS
 62
         4
100
AcDbLine
 10
1355.0093175625
 20
-331.1686220057
 30
0.0
 11
1367.4440173098
 21
-318.7339222584
 31
0.0
  0
LINE
  5
33D
100
AcDbEntity
  8
L1_120
  6
CONTINUOUS
 62
         4
100
AcDbLine
 10
1329.8189640602
 20
-352.1163348208
 30
0.0
 11
1336.7666768753
 21
-345.1686220057
 31
0.0
  0
LINE
  5
33E
100
AcDbEntity
  8
L1_120
  6
CONTINUOUS
 62
         4
100
AcDbLine
 10
1350.7666768753
 20
-331.1686220057
 30
0.0
 11
1362.4770233346
 21
-319.4582755464
 31
0.0
  0
LINE
  5
33F
100
AcDbEntity
  8
L1_120
  6
CONTINUOUS
 62
         4
100
AcDbLine
 10
1326.1162958242
 20
-351.5763623697
 30
0.0
 11
1332.5240361882
 21
-345.1686220057
 31
0.0
  0
LINE
  5
340
100
AcDbEntity
  8
L1_120
  6
CONTINUOUS
 62
         4
100
AcDbLine
 10
1346.5240361882
 20
-331.1686220057
 30
0.0
 11
1357.5100293595
 21
-320.1826288345
 31
0.0
  0
LINE
  5
341
100
AcDbEntity
  8
L1_120
  6
CONTINUOUS
 62
         4
100
AcDbLine
 10
1322.4136275881
 20
-351.0363899186
 30
0.0
 11
1328.281395501
 21
-345.1686220057
 31
0.0
  0
LINE
  5
342
100
AcDbEntity
  8
L1_120
  6
CONTINUOUS
 62
         4
100
AcDbLine
 10
1342.2813955011
 20
-331.1686220057
 30
0.0
 11
1352.5430353843
 21
-320.9069821225
 31
0.0
  0
LINE
  5
343
100
AcDbEntity
  8
L1_120
  6
CONTINUOUS
 62
         4
100
AcDbLine
 10
1318.8288959981
 20
-350.3784808216
 30
0.0
 11
1322.7887548139
 21
-346.4186220057
 31
0.0
  0
LINE
  5
344
100
AcDbEntity
  8
L1_120
  6
CONTINUOUS
 62
         4
100
AcDbLine
 10
1338.038754814
 20
-331.1686220057
 30
0.0
 11
1347.5760414091
 21
-321.6313354106
 31
0.0
  0
LINE
  5
345
100
AcDbEntity
  8
L1_120
  6
CONTINUOUS
 62
         4
100
AcDbLine
 10
1333.7961141268
 20
-331.1686220057
 30
0.0
 11
1342.609047434
 21
-322.3556886986
 31
0.0
  0
LINE
  5
346
100
AcDbEntity
  8
L1_120
  6
CONTINUOUS
 62
         4
100
AcDbLine
 10
1329.5534734397
 20
-331.1686220057
 30
0.0
 11
1337.6420534588
 21
-323.0800419867
 31
0.0
  0
LINE
  5
347
100
AcDbEntity
  8
L1_120
  6
CONTINUOUS
 62
         4
100
AcDbLine
 10
1325.3108327526
 20
-331.1686220057
 30
0.0
 11
1332.6750594836
 21
-323.8043952747
 31
0.0
  0
LINE
  5
348
100
AcDbEntity
  8
L1_120
  6
CONTINUOUS
 62
         4
100
AcDbLine
 10
1322.2623666864
 20
-329.9744473848
 30
0.0
 11
1327.7080655084
 21
-324.5287485628
 31
0.0
  0
LINE
  5
349
100
AcDbEntity
  8
L1_120
  6
CONTINUOUS
 62
         4
100
AcDbLine
 10
1318.4666688084
 20
-329.5275045757
 30
0.0
 11
1322.7410715333
 21
-325.2531018508
 31
0.0
  0
ENDBLK
  5
34A
100
AcDbEntity
  8
0
  6
CONTINUOUS
100
AcDbBlockEnd
  0
BLOCK
  5
36B
100
AcDbEntity
  8
0
100
AcDbBlockBegin
  2
*D7
 70
        65
 10
0.0
 20
0.0
 30
0.0
  3
*D7
  1

  0
POINT
  5
36D
100
AcDbEntity
  8
DEFPOINTS
  6
CONTINUOUS
 62
         0
100
AcDbPoint
 10
1575.786110121
 20
-320.8296818452
 30
0.0
  0
POINT
  5
36E
100
AcDbEntity
  8
DEFPOINTS
  6
CONTINUOUS
 62
         0
100
AcDbPoint
 10
1575.786110121
 20
-312.7179762947
 30
0.0
  0
POINT
  5
36F
100
AcDbEntity
  8
DEFPOINTS
  6
CONTINUOUS
 62
         0
100
AcDbPoint
 10
1595.786110121
 20
-312.6840016985
 30
0.0
  0
LINE
  5
370
100
AcDbEntity
  8
L1_120
  6
CONTINUOUS
 62
         4
100
AcDbLine
 10
1575.786110121
 20
-314.0679762947
 30
0.0
 11
1575.786110121
 21
-321.5046818452
 31
0.0
  0
LINE
  5
371
100
AcDbEntity
  8
L1_120
  6
CONTINUOUS
 62
         4
100
AcDbLine
 10
1595.786110121
 20
-314.0340016985
 30
0.0
 11
1595.786110121
 21
-321.5046818452
 31
0.0
  0
LINE
  5
372
100
AcDbEntity
  8
L1_120
  6
CONTINUOUS
 62
         4
100
AcDbLine
 10
1575.786110121
 20
-320.8296818452
 30
0.0
 11
1595.786110121
 21
-320.8296818452
 31
0.0
  0
SOLID
  5
373
100
AcDbEntity
  8
L1_120
  6
CONTINUOUS
 62
         4
100
AcDbTrace
 10
1575.786110121
 20
-320.8296818452
 30
0.0
 11
1578.486110121
 21
-320.4246818452
 31
0.0
 12
1578.486110121
 22
-321.2346818452
 32
0.0
 13
1575.786110121
 23
-320.8296818452
 33
0.0
  0
SOLID
  5
374
100
AcDbEntity
  8
L1_120
  6
CONTINUOUS
 62
         4
100
AcDbTrace
 10
1595.786110121
 20
-320.8296818452
 30
0.0
 11
1593.086110121
 21
-321.2346818452
 31
0.0
 12
1593.086110121
 22
-320.4246818452
 32
0.0
 13
1595.786110121
 23
-320.8296818452
 33
0.0
  0
TEXT
  5
376
100
AcDbEntity
  8
L1_120
  6
CONTINUOUS
 62
         4
100
AcDbText
 10
1583.1402475318
 20
-318.8046818452
 30
0.0
 40
2.7
  1
20
  7
BOX
100
AcDbText
  0
ENDBLK
  5
377
100
AcDbEntity
  8
0
  6
CONTINUOUS
100
AcDbBlockEnd
  0
BLOCK
  5
37B
100
AcDbEntity
  8
0
100
AcDbBlockBegin
  2
*D8
 70
        65
 10
0.0
 20
0.0
 30
0.0
  3
*D8
  1

  0
POINT
  5
37D
100
AcDbEntity
  8
DEFPOINTS
  6
CONTINUOUS
 62
         0
100
AcDbPoint
 10
1611.2491652152
 20
-308.5840016985
 30
0.0
  0
POINT
  5
37E
100
AcDbEntity
  8
DEFPOINTS
  6
CONTINUOUS
 62
         0
100
AcDbPoint
 10
1594.886110121
 20
-308.5840016985
 30
0.0
  0
POINT
  5
37F
100
AcDbEntity
  8
DEFPOINTS
  6
CONTINUOUS
 62
         0
100
AcDbPoint
 10
1594.886110121
 20
-313.5840016985
 30
0.0
  0
LINE
  5
380
100
AcDbEntity
  8
L1_120
  6
CONTINUOUS
 62
         4
100
AcDbLine
 10
1596.236110121
 20
-308.5840016985
 30
0.0
 11
1611.9241652152
 21
-308.5840016985
 31
0.0
  0
LINE
  5
381
100
AcDbEntity
  8
L1_120
  6
CONTINUOUS
 62
         4
100
AcDbLine
 10
1596.236110121
 20
-313.5840016985
 30
0.0
 11
1611.9241652152
 21
-313.5840016985
 31
0.0
  0
LINE
  5
382
100
AcDbEntity
  8
L1_120
  6
CONTINUOUS
 62
         4
100
AcDbLine
 10
1611.2491652152
 20
-308.5840016985
 30
0.0
 11
1611.2491652152
 21
-286.3341782246
 31
0.0
  0
SOLID
  5
383
100
AcDbEntity
  8
L1_120
  6
CONTINUOUS
 62
         4
100
AcDbTrace
 10
1611.2491652152
 20
-308.5840016985
 30
0.0
 11
1610.8441652152
 21
-305.8840016985
 31
0.0
 12
1611.6541652152
 22
-305.8840016985
 32
0.0
 13
1611.2491652152
 23
-308.5840016985
 33
0.0
  0
LINE
  5
384
100
AcDbEntity
  8
L1_120
  6
CONTINUOUS
 62
         4
100
AcDbLine
 10
1611.2491652152
 20
-313.5840016985
 30
0.0
 11
1611.2491652152
 21
-318.9840016985
 31
0.0
  0
SOLID
  5
385
100
AcDbEntity
  8
L1_120
  6
CONTINUOUS
 62
         4
100
AcDbTrace
 10
1611.2491652152
 20
-313.5840016985
 30
0.0
 11
1611.6541652152
 21
-316.2840016985
 31
0.0
 12
1610.8441652152
 22
-316.2840016985
 32
0.0
 13
1611.2491652152
 23
-313.5840016985
 33
0.0
  0
LINE
  5
386
100
AcDbEntity
  8
L1_120
  6
CONTINUOUS
 62
         4
100
AcDbLine
 10
1611.2491652152
 20
-308.5840016985
 30
0.0
 11
1611.2491652152
 21
-313.5840016985
 31
0.0
  0
TEXT
  5
388
100
AcDbEntity
  8
L1_120
  6
CONTINUOUS
 62
         4
100
AcDbText
 10
1609.2241652152
 20
-306.5841782246
 30
0.0
 40
2.7
  1
M5xP0.8
 50
90.0
  7
BOX
100
AcDbText
  0
ENDBLK
  5
389
100
AcDbEntity
  8
0
  6
CONTINUOUS
100
AcDbBlockEnd
  0
BLOCK
  5
38B
100
AcDbEntity
  8
0
100
AcDbBlockBegin
  2
*D9
 70
        65
 10
0.0
 20
0.0
 30
0.0
  3
*D9
  1

  0
POINT
  5
38D
100
AcDbEntity
  8
DEFPOINTS
  6
CONTINUOUS
 62
         0
100
AcDbPoint
 10
1564.0316432124
 20
-304.5152920619
 30
0.0
  0
POINT
  5
38E
100
AcDbEntity
  8
DEFPOINTS
  6
CONTINUOUS
 62
         0
100
AcDbPoint
 10
1564.0316432124
 20
-310.362313862
 30
0.0
  0
POINT
  5
38F
100
AcDbEntity
  8
DEFPOINTS
  6
CONTINUOUS
 62
         0
100
AcDbPoint
 10
1566.5316432124
 20
-310.362313862
 30
0.0
  0
LINE
  5
390
100
AcDbEntity
  8
L1_120
  6
CONTINUOUS
 62
         4
100
AcDbLine
 10
1564.0316432124
 20
-309.012313862
 30
0.0
 11
1564.0316432124
 21
-303.8402920619
 31
0.0
  0
LINE
  5
391
100
AcDbEntity
  8
L1_120
  6
CONTINUOUS
 62
         4
100
AcDbLine
 10
1566.5316432124
 20
-309.012313862
 30
0.0
 11
1566.5316432124
 21
-303.8402920619
 31
0.0
  0
LINE
  5
392
100
AcDbEntity
  8
L1_120
  6
CONTINUOUS
 62
         4
100
AcDbLine
 10
1564.0316432124
 20
-304.5152920619
 30
0.0
 11
1558.6316432124
 21
-304.5152920619
 31
0.0
  0
SOLID
  5
393
100
AcDbEntity
  8
L1_120
  6
CONTINUOUS
 62
         4
100
AcDbTrace
 10
1564.0316432124
 20
-304.5152920619
 30
0.0
 11
1561.3316432124
 21
-304.9202920619
 31
0.0
 12
1561.3316432124
 22
-304.1102920619
 32
0.0
 13
1564.0316432124
 23
-304.5152920619
 33
0.0
  0
LINE
  5
394
100
AcDbEntity
  8
L1_120
  6
CONTINUOUS
 62
         4
100
AcDbLine
 10
1566.5316432124
 20
-304.5152920619
 30
0.0
 11
1571.9316432124
 21
-304.5152920619
 31
0.0
  0
SOLID
  5
395
100
AcDbEntity
  8
L1_120
  6
CONTINUOUS
 62
         4
100
AcDbTrace
 10
1566.5316432124
 20
-304.5152920619
 30
0.0
 11
1569.2316432124
 21
-304.1102920619
 31
0.0
 12
1569.2316432124
 22
-304.9202920619
 32
0.0
 13
1566.5316432124
 23
-304.5152920619
 33
0.0
  0
LINE
  5
396
100
AcDbEntity
  8
L1_120
  6
CONTINUOUS
 62
         4
100
AcDbLine
 10
1564.0316432124
 20
-304.5152920619
 30
0.0
 11
1566.5316432124
 21
-304.5152920619
 31
0.0
  0
TEXT
  5
398
100
AcDbEntity
  8
L1_120
  6
CONTINUOUS
 62
         4
100
AcDbText
 10
1561.0066432124
 20
-301.3832920619
 30
0.0
 40
2.7
  1
2.5
  7
BOX
100
AcDbText
  0
ENDBLK
  5
399
100
AcDbEntity
  8
0
  6
CONTINUOUS
100
AcDbBlockEnd
  0
BLOCK
  5
39B
100
AcDbEntity
  8
0
100
AcDbBlockBegin
  2
*D10
 70
        65
 10
0.0
 20
0.0
 30
0.0
  3
*D10
  1

  0
POINT
  5
39D
100
AcDbEntity
  8
DEFPOINTS
  6
CONTINUOUS
 62
         0
100
AcDbPoint
 10
1602.8974930514
 20
-312.3340016985
 30
0.0
  0
POINT
  5
39E
100
AcDbEntity
  8
DEFPOINTS
  6
CONTINUOUS
 62
         0
100
AcDbPoint
 10
1595.786110121
 20
-312.3340016985
 30
0.0
  0
POINT
  5
39F
100
AcDbEntity
  8
DEFPOINTS
  6
CONTINUOUS
 62
         0
100
AcDbPoint
 10
1595.786110121
 20
-309.8340016985
 30
0.0
  0
LINE
  5
3A0
100
AcDbEntity
  8
L1_120
  6
CONTINUOUS
 62
         4
100
AcDbLine
 10
1597.136110121
 20
-312.3340016985
 30
0.0
 11
1603.5724930514
 21
-312.3340016985
 31
0.0
  0
LINE
  5
3A1
100
AcDbEntity
  8
L1_120
  6
CONTINUOUS
 62
         4
100
AcDbLine
 10
1597.136110121
 20
-309.8340016985
 30
0.0
 11
1603.5724930514
 21
-309.8340016985
 31
0.0
  0
LINE
  5
3A2
100
AcDbEntity
  8
L1_120
  6
CONTINUOUS
 62
         4
100
AcDbLine
 10
1602.8974930514
 20
-312.3340016985
 30
0.0
 11
1602.8974930514
 21
-317.7340016985
 31
0.0
  0
SOLID
  5
3A3
100
AcDbEntity
  8
L1_120
  6
CONTINUOUS
 62
         4
100
AcDbTrace
 10
1602.8974930514
 20
-312.3340016985
 30
0.0
 11
1603.3024930514
 21
-315.0340016985
 31
0.0
 12
1602.4924930514
 22
-315.0340016985
 32
0.0
 13
1602.8974930514
 23
-312.3340016985
 33
0.0
  0
LINE
  5
3A4
100
AcDbEntity
  8
L1_120
  6
CONTINUOUS
 62
         4
100
AcDbLine
 10
1602.8974930514
 20
-309.8340016985
 30
0.0
 11
1602.8974930514
 21
-290.7827332214
 31
0.0
  0
SOLID
  5
3A5
100
AcDbEntity
  8
L1_120
  6
CONTINUOUS
 62
         4
100
AcDbTrace
 10
1602.8974930514
 20
-309.8340016985
 30
0.0
 11
1602.4924930514
 21
-307.1340016985
 31
0.0
 12
1603.3024930514
 22
-307.1340016985
 32
0.0
 13
1602.8974930514
 23
-309.8340016985
 33
0.0
  0
LINE
  5
3A6
100
AcDbEntity
  8
L1_120
  6
CONTINUOUS
 62
         4
100
AcDbLine
 10
1602.8974930514
 20
-312.3340016985
 30
0.0
 11
1602.8974930514
 21
-309.8340016985
 31
0.0
  0
TEXT
  5
3A8
100
AcDbEntity
  8
L1_120
  6
CONTINUOUS
 62
         4
100
AcDbText
 10
1599.7654930514
 20
-306.5327332214
 30
0.0
 40
2.7
  1
崷2.5
 50
90.0
  7
BOX
100
AcDbText
  0
ENDBLK
  5
3A9
100
AcDbEntity
  8
0
  6
CONTINUOUS
100
AcDbBlockEnd
  0
ENDSEC
  0
SECTION
  2
ENTITIES
  0
LINE
  5
25
100
AcDbEntity
  8
L1_120
  6
CENTER
 62
         1
100
AcDbLine
 10
1413.2775047567
 20
-243.1209343259
 30
0.0
 11
1413.2775047567
 21
-204.2029906917
 31
0.0
  0
LINE
  5
26
100
AcDbEntity
  8
L1_120
  6
CONTINUOUS
 62
         7
100
AcDbLine
 10
1319.204336485
 20
-325.768875712
 30
0.0
 11
1387.7775047567
 21
-315.7686220057
 31
0.0
  0
LINE
  5
27
100
AcDbEntity
  8
L1_120
  6
CONTINUOUS
 62
         7
100
AcDbLine
 10
1319.204336485
 20
-350.5683682994
 30
0.0
 11
1387.7775047572
 21
-360.5686220058
 31
0.0
  0
LINE
  5
28
100
AcDbEntity
  8
L1_120
  6
CONTINUOUS
 62
         7
100
AcDbLine
 10
1318.3275047567
 20
-326.9344402893
 30
0.0
 11
1318.3275047567
 21
-349.4028037222
 31
0.0
  0
ARC
  5
29
100
AcDbEntity
  8
L1_120
  6
CONTINUOUS
 62
         7
100
AcDbCircle
 10
1319.5275047567
 20
-326.9344402893
 30
0.0
 40
1.2
100
AcDbArc
 50
98.2971449698
 51
180.0
  0
ARC
  5
2A
100
AcDbEntity
  8
L1_120
  6
CONTINUOUS
 62
         7
100
AcDbCircle
 10
1319.5275047567
 20
-349.4028037222
 30
0.0
 40
1.2
100
AcDbArc
 50
180.0
 51
261.7028550302
  0
LINE
  5
2B
100
AcDbEntity
  8
L1_120
  6
CONTINUOUS
 62
         7
100
AcDbLine
 10
1346.7775047567
 20
-330.1686220057
 30
0.0
 11
1346.7775047567
 21
-346.1686220057
 31
0.0
  0
LINE
  5
2C
100
AcDbEntity
  8
L1_120
  6
CONTINUOUS
 62
         5
100
AcDbLine
 10
1323.2303474692
 20
-346.1686220057
 30
0.0
 11
1346.7775047567
 21
-346.1686220057
 31
0.0
  0
ARC
  5
2D
100
AcDbEntity
  8
L1_120
  6
CONTINUOUS
 62
         7
100
AcDbCircle
 10
1319.3275047567
 20
-347.3186220057
 30
0.0
 40
1.0
100
AcDbArc
 50
90.0
 51
180.0
  0
LINE
  5
2E
100
AcDbEntity
  8
L1_120
  6
CONTINUOUS
 62
         7
100
AcDbLine
 10
1319.3275047567
 20
-346.3186220057
 30
0.0
 11
1322.0975047567
 21
-346.3186220057
 31
0.0
  0
LINE
  5
2F
100
AcDbEntity
  8
L1_120
  6
CONTINUOUS
 62
         7
100
AcDbLine
 10
1322.445276528
 20
-346.411807171
 30
0.0
 11
1322.0975047567
 21
-346.3186220057
 31
0.0
  0
LINE
  5
30
100
AcDbEntity
  8
L1_120
  6
CONTINUOUS
 62
         7
100
AcDbLine
 10
1322.497040337
 20
-346.4186220057
 30
0.0
 11
1322.8975047567
 21
-346.4186220057
 31
0.0
  0
ARC
  5
31
100
AcDbEntity
  8
L1_120
  6
CONTINUOUS
 62
         7
100
AcDbCircle
 10
1322.8975047567
 20
-346.2186220057
 30
0.0
 40
0.2
100
AcDbArc
 50
270.0
 51
314.9999999962
  0
LINE
  5
32
100
AcDbEntity
  8
L1_120
  6
CONTINUOUS
 62
         7
100
AcDbLine
 10
1323.038926113
 20
-346.360043362
 30
0.0
 11
1324.2303474692
 21
-345.1686220057
 31
0.0
  0
LINE
  5
33
100
AcDbEntity
  8
L1_120
  6
CONTINUOUS
 62
         7
100
AcDbLine
 10
1324.2303474692
 20
-345.1686220057
 30
0.0
 11
1402.7584884377
 21
-345.1686220057
 31
0.0
  0
LINE
  5
34
100
AcDbEntity
  8
L1_120
  6
CONTINUOUS
 62
         7
100
AcDbLine
 10
1324.2303474692
 20
-331.1686220057
 30
0.0
 11
1324.2303474692
 21
-345.1686220057
 31
0.0
  0
LINE
  5
35
100
AcDbEntity
  8
L1_120
  6
CONTINUOUS
 62
         7
100
AcDbLine
 10
1324.2303474692
 20
-331.1686220057
 30
0.0
 11
1402.7584884377
 21
-331.1686220057
 31
0.0
  0
LINE
  5
36
100
AcDbEntity
  8
L1_120
  6
CONTINUOUS
 62
         5
100
AcDbLine
 10
1323.2303474692
 20
-330.1686220057
 30
0.0
 11
1346.7775047567
 21
-330.1686220057
 31
0.0
  0
LINE
  5
37
100
AcDbEntity
  8
L1_120
  6
CONTINUOUS
 62
         7
100
AcDbLine
 10
1322.0975047567
 20
-330.0186220057
 30
0.0
 11
1322.0975047567
 21
-346.3186220057
 31
0.0
  0
LINE
  5
38
100
AcDbEntity
  8
L1_120
  6
CONTINUOUS
 62
         7
100
AcDbLine
 10
1323.0975047567
 20
-330.375099165
 30
0.0
 11
1323.0975047567
 21
-345.8473753412
 31
0.0
  0
ARC
  5
39
100
AcDbEntity
  8
L1_120
  6
CONTINUOUS
 62
         7
100
AcDbCircle
 10
1322.8975047567
 20
-330.1186220057
 30
0.0
 40
0.2
100
AcDbArc
 50
45.0000000038
 51
90.0
  0
LINE
  5
3A
100
AcDbEntity
  8
L1_120
  6
CONTINUOUS
 62
         7
100
AcDbLine
 10
1323.038926113
 20
-329.9772006495
 30
0.0
 11
1324.2303474692
 21
-331.1686220057
 31
0.0
  0
LINE
  5
3B
100
AcDbEntity
  8
L1_120
  6
CONTINUOUS
 62
         7
100
AcDbLine
 10
1322.497040337
 20
-329.9186220057
 30
0.0
 11
1322.8975047567
 21
-329.9186220057
 31
0.0
  0
LINE
  5
3C
100
AcDbEntity
  8
L1_120
  6
CONTINUOUS
 62
         7
100
AcDbLine
 10
1322.445276528
 20
-329.9254368405
 30
0.0
 11
1322.0975047567
 21
-330.0186220057
 31
0.0
  0
ARC
  5
3D
100
AcDbEntity
  8
L1_120
  6
CONTINUOUS
 62
         7
100
AcDbCircle
 10
1322.497040337
 20
-330.1186220057
 30
0.0
 40
0.2
100
AcDbArc
 50
90.0
 51
105.0
  0
LINE
  5
3E
100
AcDbEntity
  8
L1_120
  6
CONTINUOUS
 62
         7
100
AcDbLine
 10
1319.3275047567
 20
-330.0186220057
 30
0.0
 11
1322.0975047567
 21
-330.0186220057
 31
0.0
  0
ARC
  5
3F
100
AcDbEntity
  8
L1_120
  6
CONTINUOUS
 62
         7
100
AcDbCircle
 10
1319.3275047567
 20
-329.0186220057
 30
0.0
 40
1.0
100
AcDbArc
 50
180.0
 51
270.0
  0
LINE
  5
40
100
AcDbEntity
  8
L1_120
  6
CONTINUOUS
 62
         5
100
AcDbLine
 10
1346.7775047567
 20
-346.1686220057
 30
0.0
 11
1351.5275047567
 21
-345.1686220057
 31
0.0
  0
LINE
  5
41
100
AcDbEntity
  8
L1_120
  6
CONTINUOUS
 62
         5
100
AcDbLine
 10
1346.7775047567
 20
-330.1686220057
 30
0.0
 11
1351.5275047567
 21
-331.1686220057
 31
0.0
  0
TEXT
  5
43
100
AcDbEntity
  8
L1_120
  6
CONTINUOUS
 62
         2
100
AcDbText
 10
1590.6361266043
 20
-162.890203215
 30
0.0
 40
4.5
  1
531844
 41
0.98
  7
BOX
100
AcDbText
  0
POLYLINE
  5
45
100
AcDbEntity
  8
L1_120
  6
CONTINUOUS
 62
         7
100
AcDb3dPolyline
 66
         1
 10
0.0
 20
0.0
 30
0.0
 70
         8
  0
VERTEX
  5
47
100
AcDbEntity
  8
L1_120
  6
CONTINUOUS
 62
         7
100
AcDbVertex
100
AcDb3dPolylineVertex
 10
1240.3835756454
 20
-249.7283060102
 30
0.0
 70
        32
  0
VERTEX
  5
49
100
AcDbEntity
  8
L1_120
  6
CONTINUOUS
 62
         7
100
AcDbVertex
100
AcDb3dPolylineVertex
 10
1240.3835756454
 20
-249.7283060102
 30
0.0
 70
        32
  0
SEQEND
  5
4B
100
AcDbEntity
  8
L1_120
  6
CONTINUOUS
 62
         7
  0
POLYLINE
  5
4D
100
AcDbEntity
  8
L1_120
  6
CONTINUOUS
 62
         7
100
AcDb3dPolyline
 66
         1
 10
0.0
 20
0.0
 30
0.0
 70
         8
  0
VERTEX
  5
4F
100
AcDbEntity
  8
L1_120
  6
CONTINUOUS
 62
         7
100
AcDbVertex
100
AcDb3dPolylineVertex
 10
1240.8583107471
 20
-248.884793669
 30
0.0
 70
        32
  0
VERTEX
  5
51
100
AcDbEntity
  8
L1_120
  6
CONTINUOUS
 62
         7
100
AcDbVertex
100
AcDb3dPolylineVertex
 10
1240.8583107471
 20
-248.884793669
 30
0.0
 70
        32
  0
SEQEND
  5
53
100
AcDbEntity
  8
L1_120
  6
CONTINUOUS
 62
         7
  0
POLYLINE
  5
55
100
AcDbEntity
  8
L1_120
  6
CONTINUOUS
 62
         7
100
AcDb3dPolyline
 66
         1
 10
0.0
 20
0.0
 30
0.0
 70
         8
  0
VERTEX
  5
57
100
AcDbEntity
  8
L1_120
  6
CONTINUOUS
 62
         7
100
AcDbVertex
100
AcDb3dPolylineVertex
 10
1241.5245107195
 20
-248.3063376209
 30
0.0
 70
        32
  0
VERTEX
  5
59
100
AcDbEntity
  8
L1_120
  6
CONTINUOUS
 62
         7
100
AcDbVertex
100
AcDb3dPolylineVertex
 10
1241.5245107195
 20
-248.3063376209
 30
0.0
 70
        32
  0
SEQEND
  5
5B
100
AcDbEntity
  8
L1_120
  6
CONTINUOUS
 62
         7
  0
POLYLINE
  5
5D
100
AcDbEntity
  8
L1_120
  6
CONTINUOUS
 62
         7
100
AcDb3dPolyline
 66
         1
 10
0.0
 20
0.0
 30
0.0
 70
         8
  0
VERTEX
  5
5F
100
AcDbEntity
  8
L1_120
  6
CONTINUOUS
 62
         7
100
AcDbVertex
100
AcDb3dPolylineVertex
 10
1243.0980198866
 20
-248.1180405515
 30
0.0
 70
        32
  0
VERTEX
  5
61
100
AcDbEntity
  8
L1_120
  6
CONTINUOUS
 62
         7
100
AcDbVertex
100
AcDb3dPolylineVertex
 10
1243.0980198866
 20
-248.1180405515
 30
0.0
 70
        32
  0
SEQEND
  5
63
100
AcDbEntity
  8
L1_120
  6
CONTINUOUS
 62
         7
  0
POLYLINE
  5
65
100
AcDbEntity
  8
L1_120
  6
CONTINUOUS
 62
         7
100
AcDb3dPolyline
 66
         1
 10
0.0
 20
0.0
 30
0.0
 70
         8
  0
VERTEX
  5
67
100
AcDbEntity
  8
L1_120
  6
CONTINUOUS
 62
         7
100
AcDbVertex
100
AcDb3dPolylineVertex
 10
1243.7367965753
 20
-248.5394278485
 30
0.0
 70
        32
  0
VERTEX
  5
69
100
AcDbEntity
  8
L1_120
  6
CONTINUOUS
 62
         7
100
AcDbVertex
100
AcDb3dPolylineVertex
 10
1243.7367965753
 20
-248.5394278485
 30
0.0
 70
        32
  0
SEQEND
  5
6B
100
AcDbEntity
  8
L1_120
  6
CONTINUOUS
 62
         7
  0
POLYLINE
  5
6D
100
AcDbEntity
  8
L1_120
  6
CONTINUOUS
 62
         7
100
AcDb3dPolyline
 66
         1
 10
0.0
 20
0.0
 30
0.0
 70
         8
  0
VERTEX
  5
6F
100
AcDbEntity
  8
L1_120
  6
CONTINUOUS
 62
         7
100
AcDbVertex
100
AcDb3dPolylineVertex
 10
1244.3208772234
 20
-250.1450648005
 30
0.0
 70
        32
  0
VERTEX
  5
71
100
AcDbEntity
  8
L1_120
  6
CONTINUOUS
 62
         7
100
AcDbVertex
100
AcDb3dPolylineVertex
 10
1244.3208772234
 20
-250.1450648005
 30
0.0
 70
        32
  0
SEQEND
  5
73
100
AcDbEntity
  8
L1_120
  6
CONTINUOUS
 62
         7
  0
POLYLINE
  5
75
100
AcDbEntity
  8
L1_120
  6
CONTINUOUS
 62
         7
100
AcDb3dPolyline
 66
         1
 10
0.0
 20
0.0
 30
0.0
 70
         8
  0
VERTEX
  5
77
100
AcDbEntity
  8
L1_120
  6
CONTINUOUS
 62
         7
100
AcDbVertex
100
AcDb3dPolylineVertex
 10
1244.1423461285
 20
-251.0963865835
 30
0.0
 70
        32
  0
VERTEX
  5
79
100
AcDbEntity
  8
L1_120
  6
CONTINUOUS
 62
         7
100
AcDbVertex
100
AcDb3dPolylineVertex
 10
1244.1423461285
 20
-251.0963865835
 30
0.0
 70
        32
  0
SEQEND
  5
7B
100
AcDbEntity
  8
L1_120
  6
CONTINUOUS
 62
         7
  0
POLYLINE
  5
7D
100
AcDbEntity
  8
L1_120
  6
CONTINUOUS
 62
         7
100
AcDb3dPolyline
 66
         1
 10
0.0
 20
0.0
 30
0.0
 70
         8
  0
VERTEX
  5
7F
100
AcDbEntity
  8
L1_120
  6
CONTINUOUS
 62
         7
100
AcDbVertex
100
AcDb3dPolylineVertex
 10
1243.6676110267
 20
-251.9398989247
 30
0.0
 70
        32
  0
VERTEX
  5
81
100
AcDbEntity
  8
L1_120
  6
CONTINUOUS
 62
         7
100
AcDbVertex
100
AcDb3dPolylineVertex
 10
1243.6676110267
 20
-251.9398989247
 30
0.0
 70
        32
  0
SEQEND
  5
83
100
AcDbEntity
  8
L1_120
  6
CONTINUOUS
 62
         7
  0
POLYLINE
  5
85
100
AcDbEntity
  8
L1_120
  6
CONTINUOUS
 62
         7
100
AcDb3dPolyline
 66
         1
 10
0.0
 20
0.0
 30
0.0
 70
         8
  0
VERTEX
  5
87
100
AcDbEntity
  8
L1_120
  6
CONTINUOUS
 62
         7
100
AcDbVertex
100
AcDb3dPolylineVertex
 10
1243.0014110544
 20
-252.5183549729
 30
0.0
 70
        32
  0
VERTEX
  5
89
100
AcDbEntity
  8
L1_120
  6
CONTINUOUS
 62
         7
100
AcDbVertex
100
AcDb3dPolylineVertex
 10
1243.0014110544
 20
-252.5183549729
 30
0.0
 70
        32
  0
SEQEND
  5
8B
100
AcDbEntity
  8
L1_120
  6
CONTINUOUS
 62
         7
  0
POLYLINE
  5
8D
100
AcDbEntity
  8
L1_120
  6
CONTINUOUS
 62
         7
100
AcDb3dPolyline
 66
         1
 10
0.0
 20
0.0
 30
0.0
 70
         8
  0
VERTEX
  5
8F
100
AcDbEntity
  8
L1_120
  6
CONTINUOUS
 62
         7
100
AcDbVertex
100
AcDb3dPolylineVertex
 10
1242.1880957535
 20
-252.7944483858
 30
0.0
 70
        32
  0
VERTEX
  5
91
100
AcDbEntity
  8
L1_120
  6
CONTINUOUS
 62
         7
100
AcDbVertex
100
AcDb3dPolylineVertex
 10
1242.1880957535
 20
-252.7944483858
 30
0.0
 70
        32
  0
SEQEND
  5
93
100
AcDbEntity
  8
L1_120
  6
CONTINUOUS
 62
         7
  0
POLYLINE
  5
95
100
AcDbEntity
  8
L1_120
  6
CONTINUOUS
 62
         7
100
AcDb3dPolyline
 66
         1
 10
0.0
 20
0.0
 30
0.0
 70
         8
  0
VERTEX
  5
97
100
AcDbEntity
  8
L1_120
  6
CONTINUOUS
 62
         7
100
AcDbVertex
100
AcDb3dPolylineVertex
 10
1241.4279018873
 20
-252.7066520423
 30
0.0
 70
        32
  0
VERTEX
  5
99
100
AcDbEntity
  8
L1_120
  6
CONTINUOUS
 62
         7
100
AcDbVertex
100
AcDb3dPolylineVertex
 10
1241.4279018873
 20
-252.7066520423
 30
0.0
 70
        32
  0
SEQEND
  5
9B
100
AcDbEntity
  8
L1_120
  6
CONTINUOUS
 62
         7
  0
POLYLINE
  5
9D
100
AcDbEntity
  8
L1_120
  6
CONTINUOUS
 62
         7
100
AcDb3dPolyline
 66
         1
 10
0.0
 20
0.0
 30
0.0
 70
         8
  0
VERTEX
  5
9F
100
AcDbEntity
  8
L1_120
  6
CONTINUOUS
 62
         7
100
AcDbVertex
100
AcDb3dPolylineVertex
 10
1240.7891251986
 20
-252.2852647452
 30
0.0
 70
        32
  0
VERTEX
  5
A1
100
AcDbEntity
  8
L1_120
  6
CONTINUOUS
 62
         7
100
AcDbVertex
100
AcDb3dPolylineVertex
 10
1240.7891251986
 20
-252.2852647452
 30
0.0
 70
        32
  0
SEQEND
  5
A3
100
AcDbEntity
  8
L1_120
  6
CONTINUOUS
 62
         7
  0
POLYLINE
  5
A5
100
AcDbEntity
  8
L1_120
  6
CONTINUOUS
 62
         7
100
AcDb3dPolyline
 66
         1
 10
0.0
 20
0.0
 30
0.0
 70
         8
  0
VERTEX
  5
A7
100
AcDbEntity
  8
L1_120
  6
CONTINUOUS
 62
         7
100
AcDbVertex
100
AcDb3dPolylineVertex
 10
1258.8526633849
 20
-198.9849044878
 30
0.0
 70
        32
  0
VERTEX
  5
A9
100
AcDbEntity
  8
L1_120
  6
CONTINUOUS
 62
         7
100
AcDbVertex
100
AcDb3dPolylineVertex
 10
1258.8526633849
 20
-198.9849044878
 30
0.0
 70
        32
  0
SEQEND
  5
AB
100
AcDbEntity
  8
L1_120
  6
CONTINUOUS
 62
         7
  0
POLYLINE
  5
AD
100
AcDbEntity
  8
L1_120
  6
CONTINUOUS
 62
         7
100
AcDb3dPolyline
 66
         1
 10
0.0
 20
0.0
 30
0.0
 70
         8
  0
VERTEX
  5
AF
100
AcDbEntity
  8
L1_120
  6
CONTINUOUS
 62
         7
100
AcDbVertex
100
AcDb3dPolylineVertex
 10
1258.6741322901
 20
-199.9362262708
 30
0.0
 70
        32
  0
VERTEX
  5
B1
100
AcDbEntity
  8
L1_120
  6
CONTINUOUS
 62
         7
100
AcDbVertex
100
AcDb3dPolylineVertex
 10
1258.6741322901
 20
-199.9362262708
 30
0.0
 70
        32
  0
SEQEND
  5
B3
100
AcDbEntity
  8
L1_120
  6
CONTINUOUS
 62
         7
  0
POLYLINE
  5
B5
100
AcDbEntity
  8
L1_120
  6
CONTINUOUS
 62
         7
100
AcDb3dPolyline
 66
         1
 10
0.0
 20
0.0
 30
0.0
 70
         8
  0
VERTEX
  5
B7
100
AcDbEntity
  8
L1_120
  6
CONTINUOUS
 62
         7
100
AcDbVertex
100
AcDb3dPolylineVertex
 10
1258.8126466964
 20
-200.8075743998
 30
0.0
 70
        32
  0
VERTEX
  5
B9
100
AcDbEntity
  8
L1_120
  6
CONTINUOUS
 62
         7
100
AcDbVertex
100
AcDb3dPolylineVertex
 10
1258.8126466964
 20
-200.8075743998
 30
0.0
 70
        32
  0
SEQEND
  5
BB
100
AcDbEntity
  8
L1_120
  6
CONTINUOUS
 62
         7
  0
POLYLINE
  5
BD
100
AcDbEntity
  8
L1_120
  6
CONTINUOUS
 62
         7
100
AcDb3dPolyline
 66
         1
 10
0.0
 20
0.0
 30
0.0
 70
         8
  0
VERTEX
  5
BF
100
AcDbEntity
  8
L1_120
  6
CONTINUOUS
 62
         7
100
AcDbVertex
100
AcDb3dPolylineVertex
 10
1259.2582129382
 20
-201.5418632228
 30
0.0
 70
        32
  0
VERTEX
  5
C1
100
AcDbEntity
  8
L1_120
  6
CONTINUOUS
 62
         7
100
AcDbVertex
100
AcDb3dPolylineVertex
 10
1259.2582129382
 20
-201.5418632228
 30
0.0
 70
        32
  0
SEQEND
  5
C3
100
AcDbEntity
  8
L1_120
  6
CONTINUOUS
 62
         7
  0
POLYLINE
  5
C5
100
AcDbEntity
  8
L1_120
  6
CONTINUOUS
 62
         7
100
AcDb3dPolyline
 66
         1
 10
0.0
 20
0.0
 30
0.0
 70
         8
  0
VERTEX
  5
C7
100
AcDbEntity
  8
L1_120
  6
CONTINUOUS
 62
         7
100
AcDbVertex
100
AcDb3dPolylineVertex
 10
1259.8969896269
 20
-201.9632505198
 30
0.0
 70
        32
  0
VERTEX
  5
C9
100
AcDbEntity
  8
L1_120
  6
CONTINUOUS
 62
         7
100
AcDbVertex
100
AcDb3dPolylineVertex
 10
1259.8969896269
 20
-201.9632505198
 30
0.0
 70
        32
  0
SEQEND
  5
CB
100
AcDbEntity
  8
L1_120
  6
CONTINUOUS
 62
         7
  0
POLYLINE
  5
CD
100
AcDbEntity
  8
L1_120
  6
CONTINUOUS
 62
         7
100
AcDb3dPolyline
 66
         1
 10
0.0
 20
0.0
 30
0.0
 70
         8
  0
VERTEX
  5
CF
100
AcDbEntity
  8
L1_120
  6
CONTINUOUS
 62
         7
100
AcDbVertex
100
AcDb3dPolylineVertex
 10
1260.6571834931
 20
-202.0510468634
 30
0.0
 70
        32
  0
VERTEX
  5
D1
100
AcDbEntity
  8
L1_120
  6
CONTINUOUS
 62
         7
100
AcDbVertex
100
AcDb3dPolylineVertex
 10
1260.6571834931
 20
-202.0510468634
 30
0.0
 70
        32
  0
SEQEND
  5
D3
100
AcDbEntity
  8
L1_120
  6
CONTINUOUS
 62
         7
  0
POLYLINE
  5
D5
100
AcDbEntity
  8
L1_120
  6
CONTINUOUS
 62
         7
100
AcDb3dPolyline
 66
         1
 10
0.0
 20
0.0
 30
0.0
 70
         8
  0
VERTEX
  5
D7
100
AcDbEntity
  8
L1_120
  6
CONTINUOUS
 62
         7
100
AcDbVertex
100
AcDb3dPolylineVertex
 10
1261.470498794
 20
-201.7749534504
 30
0.0
 70
        32
  0
VERTEX
  5
D9
100
AcDbEntity
  8
L1_120
  6
CONTINUOUS
 62
         7
100
AcDbVertex
100
AcDb3dPolylineVertex
 10
1261.470498794
 20
-201.7749534504
 30
0.0
 70
        32
  0
SEQEND
  5
DB
100
AcDbEntity
  8
L1_120
  6
CONTINUOUS
 62
         7
  0
POLYLINE
  5
DD
100
AcDbEntity
  8
L1_120
  6
CONTINUOUS
 62
         7
100
AcDb3dPolyline
 66
         1
 10
0.0
 20
0.0
 30
0.0
 70
         8
  0
VERTEX
  5
DF
100
AcDbEntity
  8
L1_120
  6
CONTINUOUS
 62
         7
100
AcDbVertex
100
AcDb3dPolylineVertex
 10
1262.1366987663
 20
-201.1964974023
 30
0.0
 70
        32
  0
VERTEX
  5
E1
100
AcDbEntity
  8
L1_120
  6
CONTINUOUS
 62
         7
100
AcDbVertex
100
AcDb3dPolylineVertex
 10
1262.1366987663
 20
-201.1964974023
 30
0.0
 70
        32
  0
SEQEND
  5
E3
100
AcDbEntity
  8
L1_120
  6
CONTINUOUS
 62
         7
  0
POLYLINE
  5
E5
100
AcDbEntity
  8
L1_120
  6
CONTINUOUS
 62
         7
100
AcDb3dPolyline
 66
         1
 10
0.0
 20
0.0
 30
0.0
 70
         8
  0
VERTEX
  5
E7
100
AcDbEntity
  8
L1_120
  6
CONTINUOUS
 62
         7
100
AcDbVertex
100
AcDb3dPolylineVertex
 10
1262.6114338681
 20
-200.3529850611
 30
0.0
 70
        32
  0
VERTEX
  5
E9
100
AcDbEntity
  8
L1_120
  6
CONTINUOUS
 62
         7
100
AcDbVertex
100
AcDb3dPolylineVertex
 10
1262.6114338681
 20
-200.3529850611
 30
0.0
 70
        32
  0
SEQEND
  5
EB
100
AcDbEntity
  8
L1_120
  6
CONTINUOUS
 62
         7
  0
POLYLINE
  5
ED
100
AcDbEntity
  8
L1_120
  6
CONTINUOUS
 62
         7
100
AcDb3dPolyline
 66
         1
 10
0.0
 20
0.0
 30
0.0
 70
         8
  0
VERTEX
  5
EF
100
AcDbEntity
  8
L1_120
  6
CONTINUOUS
 62
         7
100
AcDbVertex
100
AcDb3dPolylineVertex
 10
1262.789964963
 20
-199.4016632781
 30
0.0
 70
        32
  0
VERTEX
  5
F1
100
AcDbEntity
  8
L1_120
  6
CONTINUOUS
 62
         7
100
AcDbVertex
100
AcDb3dPolylineVertex
 10
1262.789964963
 20
-199.4016632781
 30
0.0
 70
        32
  0
SEQEND
  5
F3
100
AcDbEntity
  8
L1_120
  6
CONTINUOUS
 62
         7
  0
POLYLINE
  5
F5
100
AcDbEntity
  8
L1_120
  6
CONTINUOUS
 62
         7
100
AcDb3dPolyline
 66
         1
 10
0.0
 20
0.0
 30
0.0
 70
         8
  0
VERTEX
  5
F7
100
AcDbEntity
  8
L1_120
  6
CONTINUOUS
 62
         7
100
AcDbVertex
100
AcDb3dPolylineVertex
 10
1262.6514505566
 20
-198.530315149
 30
0.0
 70
        32
  0
VERTEX
  5
F9
100
AcDbEntity
  8
L1_120
  6
CONTINUOUS
 62
         7
100
AcDbVertex
100
AcDb3dPolylineVertex
 10
1262.6514505566
 20
-198.530315149
 30
0.0
 70
        32
  0
SEQEND
  5
FB
100
AcDbEntity
  8
L1_120
  6
CONTINUOUS
 62
         7
  0
POLYLINE
  5
FD
100
AcDbEntity
  8
L1_120
  6
CONTINUOUS
 62
         7
100
AcDb3dPolyline
 66
         1
 10
0.0
 20
0.0
 30
0.0
 70
         8
  0
VERTEX
  5
FF
100
AcDbEntity
  8
L1_120
  6
CONTINUOUS
 62
         7
100
AcDbVertex
100
AcDb3dPolylineVertex
 10
1262.2058843149
 20
-197.7960263261
 30
0.0
 70
        32
  0
VERTEX
  5
101
100
AcDbEntity
  8
L1_120
  6
CONTINUOUS
 62
         7
100
AcDbVertex
100
AcDb3dPolylineVertex
 10
1262.2058843149
 20
-197.7960263261
 30
0.0
 70
        32
  0
SEQEND
  5
103
100
AcDbEntity
  8
L1_120
  6
CONTINUOUS
 62
         7
  0
POLYLINE
  5
105
100
AcDbEntity
  8
L1_120
  6
CONTINUOUS
 62
         7
100
AcDb3dPolyline
 66
         1
 10
0.0
 20
0.0
 30
0.0
 70
         8
  0
VERTEX
  5
107
100
AcDbEntity
  8
L1_120
  6
CONTINUOUS
 62
         7
100
AcDbVertex
100
AcDb3dPolylineVertex
 10
1261.5671076262
 20
-197.374639029
 30
0.0
 70
        32
  0
VERTEX
  5
109
100
AcDbEntity
  8
L1_120
  6
CONTINUOUS
 62
         7
100
AcDbVertex
100
AcDb3dPolylineVertex
 10
1261.5671076262
 20
-197.374639029
 30
0.0
 70
        32
  0
SEQEND
  5
10B
100
AcDbEntity
  8
L1_120
  6
CONTINUOUS
 62
         7
  0
POLYLINE
  5
10D
100
AcDbEntity
  8
L1_120
  6
CONTINUOUS
 62
         7
100
AcDb3dPolyline
 66
         1
 10
0.0
 20
0.0
 30
0.0
 70
         8
  0
VERTEX
  5
10F
100
AcDbEntity
  8
L1_120
  6
CONTINUOUS
 62
         7
100
AcDbVertex
100
AcDb3dPolylineVertex
 10
1260.8069137599
 20
-197.2868426855
 30
0.0
 70
        32
  0
VERTEX
  5
111
100
AcDbEntity
  8
L1_120
  6
CONTINUOUS
 62
         7
100
AcDbVertex
100
AcDb3dPolylineVertex
 10
1260.8069137599
 20
-197.2868426855
 30
0.0
 70
        32
  0
SEQEND
  5
113
100
AcDbEntity
  8
L1_120
  6
CONTINUOUS
 62
         7
  0
POLYLINE
  5
115
100
AcDbEntity
  8
L1_120
  6
CONTINUOUS
 62
         7
100
AcDb3dPolyline
 66
         1
 10
0.0
 20
0.0
 30
0.0
 70
         8
  0
VERTEX
  5
117
100
AcDbEntity
  8
L1_120
  6
CONTINUOUS
 62
         7
100
AcDbVertex
100
AcDb3dPolylineVertex
 10
1259.9935984591
 20
-197.5629360984
 30
0.0
 70
        32
  0
VERTEX
  5
119
100
AcDbEntity
  8
L1_120
  6
CONTINUOUS
 62
         7
100
AcDbVertex
100
AcDb3dPolylineVertex
 10
1259.9935984591
 20
-197.5629360984
 30
0.0
 70
        32
  0
SEQEND
  5
11B
100
AcDbEntity
  8
L1_120
  6
CONTINUOUS
 62
         7
  0
LINE
  5
11C
100
AcDbEntity
  8
L1_120
  6
CENTER
 62
         1
100
AcDbLine
 10
1245.0820387493
 20
-251.4384067269
 30
0.0
 11
1239.4438830246
 21
-249.3862858669
 31
0.0
  0
ARC
  5
11D
100
AcDbEntity
  8
L1_120
  6
CONTINUOUS
 62
         7
100
AcDbCircle
 10
1243.1765546989
 20
-250.7448672506
 30
0.0
 40
2.9722262277
100
AcDbArc
 50
141.257725858
 51
160.0
  0
ARC
  5
11E
100
AcDbEntity
  8
L1_120
  6
CONTINUOUS
 62
         7
100
AcDbCircle
 10
1242.7844773434
 20
-250.4302788182
 30
0.0
 40
2.4695428935
100
AcDbArc
 50
120.6773100904
 51
141.257725858
  0
ARC
  5
11F
100
AcDbEntity
  8
L1_120
  6
CONTINUOUS
 62
         7
100
AcDbCircle
 10
1242.5847388123
 20
-250.0935771256
 30
0.0
 40
2.0780540551
100
AcDbArc
 50
96.8239621528
 51
120.6773100904
  0
ARC
  5
120
100
AcDbEntity
  8
L1_120
  6
CONTINUOUS
 62
         7
100
AcDbCircle
 10
1242.5338284836
 20
-249.6681436913
 30
0.0
 40
1.6495853065
100
AcDbArc
 50
70.0
 51
96.8239621528
  0
ARC
  5
121
100
AcDbEntity
  8
L1_120
  6
CONTINUOUS
 62
         7
100
AcDbCircle
 10
1242.5338284836
 20
-249.6681436913
 30
0.0
 40
1.6495853065
100
AcDbArc
 50
43.1760378472
 51
70.0
  0
ARC
  5
122
100
AcDbEntity
  8
L1_120
  6
CONTINUOUS
 62
         7
100
AcDbCircle
 10
1241.349367075
 20
-250.0798253431
 30
0.0
 40
2.9722262277
100
AcDbArc
 50
339.9999999999
 51
358.742274142
  0
ARC
  5
123
100
AcDbEntity
  8
L1_120
  6
CONTINUOUS
 62
         7
100
AcDbCircle
 10
1241.349367075
 20
-250.0798253431
 30
0.0
 40
2.9722262277
100
AcDbArc
 50
321.257725858
 51
340.0
  0
ARC
  5
124
100
AcDbEntity
  8
L1_120
  6
CONTINUOUS
 62
         7
100
AcDbCircle
 10
1241.7414444305
 20
-250.3944137756
 30
0.0
 40
2.4695428935
100
AcDbArc
 50
300.6773100904
 51
321.2577258581
  0
ARC
  5
125
100
AcDbEntity
  8
L1_120
  6
CONTINUOUS
 62
         7
100
AcDbCircle
 10
1241.9411829616
 20
-250.7311154682
 30
0.0
 40
2.0780540551
100
AcDbArc
 50
276.8239621528
 51
300.6773100903
  0
ARC
  5
126
100
AcDbEntity
  8
L1_120
  6
CONTINUOUS
 62
         7
100
AcDbCircle
 10
1241.9920932903
 20
-251.1565489024
 30
0.0
 40
1.6495853065
100
AcDbArc
 50
250.0
 51
276.8239621528
  0
ARC
  5
127
100
AcDbEntity
  8
L1_120
  6
CONTINUOUS
 62
         7
100
AcDbCircle
 10
1241.9920932903
 20
-251.1565489024
 30
0.0
 40
1.6495853065
100
AcDbArc
 50
223.1760378472
 51
250.0
  0
ARC
  5
128
100
AcDbEntity
  8
L1_120
  6
CONTINUOUS
 62
         7
100
AcDbCircle
 10
1242.3045562049
 20
-250.8633725127
 30
0.0
 40
2.0780540551
100
AcDbArc
 50
199.3226899096
 51
223.1760378473
  0
ARC
  5
129
100
AcDbEntity
  8
L1_120
  6
CONTINUOUS
 62
         7
100
AcDbCircle
 10
1242.6739924729
 20
-250.7338335051
 30
0.0
 40
2.4695428935
100
AcDbArc
 50
178.742274142
 51
199.3226899096
  0
ARC
  5
12A
100
AcDbEntity
  8
L1_120
  6
CONTINUOUS
 62
         7
100
AcDbCircle
 10
1243.1765546989
 20
-250.7448672506
 30
0.0
 40
2.9722262277
100
AcDbArc
 50
160.0
 51
178.742274142
  0
ARC
  5
12B
100
AcDbEntity
  8
L1_120
  6
CONTINUOUS
 62
         7
100
AcDbCircle
 10
1241.851929301
 20
-250.0908590887
 30
0.0
 40
2.4695428935
100
AcDbArc
 50
358.742274142
 51
379.3226899097
  0
ARC
  5
12C
100
AcDbEntity
  8
L1_120
  6
CONTINUOUS
 62
         7
100
AcDbCircle
 10
1242.2213655689
 20
-249.9613200811
 30
0.0
 40
2.0780540551
100
AcDbArc
 50
19.3226899096
 51
43.1760378472
  0
ARC
  5
12D
100
AcDbEntity
  8
L1_120
  6
CONTINUOUS
 62
         7
100
AcDbCircle
 10
1261.6456424385
 20
-200.0014657282
 30
0.0
 40
2.9722262277
100
AcDbArc
 50
160.0
 51
178.7422741421
  0
ARC
  5
12E
100
AcDbEntity
  8
L1_120
  6
CONTINUOUS
 62
         7
100
AcDbCircle
 10
1261.1430802125
 20
-199.9904319826
 30
0.0
 40
2.4695428935
100
AcDbArc
 50
178.7422741421
 51
199.3226899097
  0
ARC
  5
12F
100
AcDbEntity
  8
L1_120
  6
CONTINUOUS
 62
         7
100
AcDbCircle
 10
1260.7736439445
 20
-200.1199709902
 30
0.0
 40
2.0780540551
100
AcDbArc
 50
199.3226899097
 51
223.1760378473
  0
ARC
  5
130
100
AcDbEntity
  8
L1_120
  6
CONTINUOUS
 62
         7
100
AcDbCircle
 10
1260.4611810298
 20
-200.41314738
 30
0.0
 40
1.6495853065
100
AcDbArc
 50
223.1760378472
 51
249.9999999999
  0
ARC
  5
131
100
AcDbEntity
  8
L1_120
  6
CONTINUOUS
 62
         7
100
AcDbCircle
 10
1260.4611810298
 20
-200.41314738
 30
0.0
 40
1.6495853065
100
AcDbArc
 50
250.0
 51
276.8239621528
  0
ARC
  5
132
100
AcDbEntity
  8
L1_120
  6
CONTINUOUS
 62
         7
100
AcDbCircle
 10
1260.4102707011
 20
-199.9877139457
 30
0.0
 40
2.0780540551
100
AcDbArc
 50
276.8239621528
 51
300.6773100904
  0
ARC
  5
133
100
AcDbEntity
  8
L1_120
  6
CONTINUOUS
 62
         7
100
AcDbCircle
 10
1260.2105321701
 20
-199.6510122532
 30
0.0
 40
2.4695428935
100
AcDbArc
 50
300.6773100903
 51
321.257725858
  0
ARC
  5
134
100
AcDbEntity
  8
L1_120
  6
CONTINUOUS
 62
         7
100
AcDbCircle
 10
1259.8184548146
 20
-199.3364238207
 30
0.0
 40
2.9722262277
100
AcDbArc
 50
321.257725858
 51
340.0
  0
ARC
  5
135
100
AcDbEntity
  8
L1_120
  6
CONTINUOUS
 62
         7
100
AcDbCircle
 10
1259.8184548146
 20
-199.3364238207
 30
0.0
 40
2.9722262277
100
AcDbArc
 50
339.9999999999
 51
358.742274142
  0
ARC
  5
136
100
AcDbEntity
  8
L1_120
  6
CONTINUOUS
 62
         7
100
AcDbCircle
 10
1260.3210170406
 20
-199.3474575663
 30
0.0
 40
2.4695428935
100
AcDbArc
 50
358.742274142
 51
379.3226899097
  0
ARC
  5
137
100
AcDbEntity
  8
L1_120
  6
CONTINUOUS
 62
         7
100
AcDbCircle
 10
1260.6904533085
 20
-199.2179185586
 30
0.0
 40
2.0780540551
100
AcDbArc
 50
19.3226899096
 51
43.1760378472
  0
ARC
  5
138
100
AcDbEntity
  8
L1_120
  6
CONTINUOUS
 62
         7
100
AcDbCircle
 10
1261.0029162232
 20
-198.9247421689
 30
0.0
 40
1.6495853065
100
AcDbArc
 50
43.1760378472
 51
70.0
  0
ARC
  5
139
100
AcDbEntity
  8
L1_120
  6
CONTINUOUS
 62
         7
100
AcDbCircle
 10
1261.0029162232
 20
-198.9247421689
 30
0.0
 40
1.6495853065
100
AcDbArc
 50
70.0000000001
 51
96.8239621529
  0
ARC
  5
13A
100
AcDbEntity
  8
L1_120
  6
CONTINUOUS
 62
         7
100
AcDbCircle
 10
1261.0538265519
 20
-199.3501756031
 30
0.0
 40
2.0780540551
100
AcDbArc
 50
96.8239621528
 51
120.6773100904
  0
ARC
  5
13B
100
AcDbEntity
  8
L1_120
  6
CONTINUOUS
 62
         7
100
AcDbCircle
 10
1261.253565083
 20
-199.6868772957
 30
0.0
 40
2.4695428935
100
AcDbArc
 50
120.6773100903
 51
141.257725858
  0
ARC
  5
13C
100
AcDbEntity
  8
L1_120
  6
CONTINUOUS
 62
         7
100
AcDbCircle
 10
1261.6456424385
 20
-200.0014657282
 30
0.0
 40
2.9722262277
100
AcDbArc
 50
141.257725858
 51
160.0
  0
LINE
  5
13D
100
AcDbEntity
  8
L1_120
  6
CENTER
 62
         1
100
AcDbLine
 10
1263.5511264889
 20
-200.6950052044
 30
0.0
 11
1257.9129707642
 21
-198.6428843445
 31
0.0
  0
LINE
  5
13E
100
AcDbEntity
  8
L1_120
  6
CENTER
 62
         1
100
AcDbLine
 10
1263.6773045514
 20
-191.5769206263
 30
0.0
 11
1239.4472088831
 21
-258.1485613461
 31
0.0
  0
LINE
  5
13F
100
AcDbEntity
  8
L1_120
  6
CENTER
 62
         1
100
AcDbLine
 10
1219.7225047567
 20
-225.0406455357
 30
0.0
 11
1283.2725047567
 21
-225.0406455357
 31
0.0
  0
ARC
  5
140
100
AcDbEntity
  8
L1_120
  6
CONTINUOUS
 62
         7
100
AcDbCircle
 10
1251.4975047567
 20
-225.0406455357
 30
0.0
 40
31.775
100
AcDbArc
 50
195.411296411
 51
344.588703589
  0
ARC
  5
141
100
AcDbEntity
  8
L1_120
  6
CONTINUOUS
 62
         7
100
AcDbCircle
 10
1251.4975047567
 20
-225.0406455357
 30
0.0
 40
31.775
100
AcDbArc
 50
15.411296411
 51
164.588703589
  0
LINE
  5
142
100
AcDbEntity
  8
L1_120
  6
CENTER
 62
         1
100
AcDbLine
 10
1251.4975047567
 20
-260.6519977685
 30
0.0
 11
1251.4975047567
 21
-189.8079374371
 31
0.0
  0
CIRCLE
  5
143
100
AcDbEntity
  8
L1_120
  6
CONTINUOUS
 62
         7
100
AcDbCircle
 10
1251.4975047567
 20
-225.0406455357
 30
0.0
 40
12.7165768873
  0
CIRCLE
  5
144
100
AcDbEntity
  8
L1_120
  6
CONTINUOUS
 62
         7
100
AcDbCircle
 10
1251.4975047567
 20
-225.0406455357
 30
0.0
 40
7.0
  0
ARC
  5
145
100
AcDbEntity
  8
L1_120
  6
CONTINUOUS
 62
         5
100
AcDbCircle
 10
1251.4975047567
 20
-225.0406455357
 30
0.0
 40
8.0
100
AcDbArc
 50
352.9901372228
 51
621.2264515101
  0
CIRCLE
  5
146
100
AcDbEntity
  8
L1_120
  6
CONTINUOUS
 62
         7
100
AcDbCircle
 10
1251.4975047567
 20
-225.0406455357
 30
0.0
 40
9.5
  0
CIRCLE
  5
147
100
AcDbEntity
  8
L1_120
  6
CONTINUOUS
 62
         7
100
AcDbCircle
 10
1251.4975047567
 20
-225.0406455357
 30
0.0
 40
8.5
  0
CIRCLE
  5
148
100
AcDbEntity
  8
L1_120
  6
CONTINUOUS
 62
         7
100
AcDbCircle
 10
1251.4975047567
 20
-225.0406455357
 30
0.0
 40
22.225
  0
LINE
  5
149
100
AcDbEntity
  8
L1_120
  6
CONTINUOUS
 62
         7
100
AcDbLine
 10
1281.7358867083
 20
-216.9906455357
 30
0.0
 11
1276.9975047567
 21
-216.9906455357
 31
0.0
  0
LINE
  5
14A
100
AcDbEntity
  8
L1_120
  6
CONTINUOUS
 62
         7
100
AcDbLine
 10
1282.1299719895
 20
-216.5965602545
 30
0.0
 11
1281.7358867083
 21
-216.9906455357
 31
0.0
  0
LINE
  5
14B
100
AcDbEntity
  8
L1_120
  6
CONTINUOUS
 62
         7
100
AcDbLine
 10
1276.4975047567
 20
-217.4906455357
 30
0.0
 11
1276.9975047567
 21
-216.9906455357
 31
0.0
  0
LINE
  5
14C
100
AcDbEntity
  8
L1_120
  6
CONTINUOUS
 62
         7
100
AcDbLine
 10
1282.1299719895
 20
-233.4847308168
 30
0.0
 11
1281.7358867083
 21
-233.0906455357
 31
0.0
  0
LINE
  5
14D
100
AcDbEntity
  8
L1_120
  6
CONTINUOUS
 62
         7
100
AcDbLine
 10
1276.4975047567
 20
-232.5906455357
 30
0.0
 11
1276.9975047567
 21
-233.0906455357
 31
0.0
  0
LINE
  5
14E
100
AcDbEntity
  8
L1_120
  6
CONTINUOUS
 62
         7
100
AcDbLine
 10
1276.4975047567
 20
-232.5906455357
 30
0.0
 11
1276.4975047567
 21
-217.4906455357
 31
0.0
  0
LINE
  5
14F
100
AcDbEntity
  8
L1_120
  6
CONTINUOUS
 62
         7
100
AcDbLine
 10
1281.7358867083
 20
-233.0906455357
 30
0.0
 11
1276.9975047567
 21
-233.0906455357
 31
0.0
  0
LINE
  5
150
100
AcDbEntity
  8
L1_120
  6
CONTINUOUS
 62
         7
100
AcDbLine
 10
1220.865037524
 20
-216.5965602545
 30
0.0
 11
1221.2591228052
 21
-216.9906455357
 31
0.0
  0
LINE
  5
151
100
AcDbEntity
  8
L1_120
  6
CONTINUOUS
 62
         7
100
AcDbLine
 10
1228.6975047567
 20
-217.4906455357
 30
0.0
 11
1228.1975047567
 21
-216.9906455357
 31
0.0
  0
LINE
  5
152
100
AcDbEntity
  8
L1_120
  6
CONTINUOUS
 62
         7
100
AcDbLine
 10
1228.1975047567
 20
-216.9906455357
 30
0.0
 11
1221.2591228052
 21
-216.9906455357
 31
0.0
  0
LINE
  5
153
100
AcDbEntity
  8
L1_120
  6
CONTINUOUS
 62
         7
100
AcDbLine
 10
1220.865037524
 20
-233.4847308168
 30
0.0
 11
1221.2591228052
 21
-233.0906455357
 31
0.0
  0
LINE
  5
154
100
AcDbEntity
  8
L1_120
  6
CONTINUOUS
 62
         7
100
AcDbLine
 10
1228.1975047567
 20
-233.0906455357
 30
0.0
 11
1221.2591228052
 21
-233.0906455357
 31
0.0
  0
LINE
  5
155
100
AcDbEntity
  8
L1_120
  6
CONTINUOUS
 62
         7
100
AcDbLine
 10
1228.6975047567
 20
-232.5906455357
 30
0.0
 11
1228.1975047567
 21
-233.0906455357
 31
0.0
  0
LINE
  5
156
100
AcDbEntity
  8
L1_120
  6
CONTINUOUS
 62
         7
100
AcDbLine
 10
1228.6975047567
 20
-232.5906455357
 30
0.0
 11
1228.6975047567
 21
-217.4906455357
 31
0.0
  0
ARC
  5
157
100
AcDbEntity
  8
L1_120
  6
CONTINUOUS
 62
         7
100
AcDbCircle
 10
1319.5275047567
 20
-236.2748272521
 30
0.0
 40
1.2
100
AcDbArc
 50
180.0
 51
261.7028550302
  0
ARC
  5
158
100
AcDbEntity
  8
L1_120
  6
CONTINUOUS
 62
         7
100
AcDbCircle
 10
1319.5275047567
 20
-213.8064638192
 30
0.0
 40
1.2
100
AcDbArc
 50
98.2971449698
 51
180.0
  0
LINE
  5
159
100
AcDbEntity
  8
L1_120
  6
CONTINUOUS
 62
         7
100
AcDbLine
 10
1318.3275047567
 20
-213.8064638192
 30
0.0
 11
1318.3275047567
 21
-236.2748272521
 31
0.0
  0
LINE
  5
15A
100
AcDbEntity
  8
L1_120
  6
CONTINUOUS
 62
         7
100
AcDbLine
 10
1319.354336485
 20
-237.4622668294
 30
0.0
 11
1387.7775047567
 21
-247.4406455357
 31
0.0
  0
LINE
  5
15B
100
AcDbEntity
  8
L1_120
  6
CENTER
 62
         1
100
AcDbLine
 10
1315.9340030258
 20
-225.0406455357
 30
0.0
 11
1546.5975047567
 21
-225.0406455357
 31
0.0
  0
LINE
  5
15C
100
AcDbEntity
  8
L1_120
  6
CONTINUOUS
 62
         7
100
AcDbLine
 10
1319.354336485
 20
-212.6190242419
 30
0.0
 11
1387.7775047567
 21
-202.6406455357
 31
0.0
  0
LINE
  5
15D
100
AcDbEntity
  8
L1_120
  6
CONTINUOUS
 62
         7
100
AcDbLine
 10
1388.9775047567
 20
-202.6406455357
 30
0.0
 11
1387.7775047567
 21
-202.6406455357
 31
0.0
  0
ARC
  5
15E
100
AcDbEntity
  8
L1_120
  6
CONTINUOUS
 62
         7
100
AcDbCircle
 10
1388.9775047567
 20
-201.8406455357
 30
0.0
 40
0.8
100
AcDbArc
 50
269.9999999999
 51
360.0
  0
ARC
  5
15F
100
AcDbEntity
  8
L1_120
  6
CONTINUOUS
 62
         7
100
AcDbCircle
 10
1388.9775047567
 20
-248.2406455357
 30
0.0
 40
0.8
100
AcDbArc
 50
0.0
 51
90.0000000001
  0
LINE
  5
160
100
AcDbEntity
  8
L1_120
  6
CONTINUOUS
 62
         7
100
AcDbLine
 10
1388.9775047567
 20
-247.4406455357
 30
0.0
 11
1387.7775047567
 21
-247.4406455357
 31
0.0
  0
LINE
  5
161
100
AcDbEntity
  8
L1_120
  6
CONTINUOUS
 62
         4
100
AcDbLine
 10
1405.1775047567
 20
-256.8156455357
 30
0.0
 11
1405.1775047567
 21
-233.8906455357
 31
0.0
  0
LINE
  5
162
100
AcDbEntity
  8
L1_120
  6
CONTINUOUS
 62
         4
100
AcDbLine
 10
1390.2775047567
 20
-256.8156455357
 30
0.0
 11
1390.2775047567
 21
-233.8906455357
 31
0.0
  0
LINE
  5
163
100
AcDbEntity
  8
L1_120
  6
CONTINUOUS
 62
         4
100
AcDbLine
 10
1405.1775047567
 20
-216.1906455357
 30
0.0
 11
1405.1775047567
 21
-193.2656455357
 31
0.0
  0
LINE
  5
164
100
AcDbEntity
  8
L1_120
  6
CONTINUOUS
 62
         4
100
AcDbLine
 10
1390.2775047567
 20
-216.1906455357
 30
0.0
 11
1390.2775047567
 21
-193.2656455357
 31
0.0
  0
LINE
  5
165
100
AcDbEntity
  8
L1_120
  6
CONTINUOUS
 62
         7
100
AcDbLine
 10
1401.2137751555
 20
-233.8906455357
 30
0.0
 11
1401.2137751555
 21
-256.8156455357
 31
0.0
  0
LINE
  5
166
100
AcDbEntity
  8
L1_120
  6
CONTINUOUS
 62
         7
100
AcDbLine
 10
1399.5525047567
 20
-233.0906455357
 30
0.0
 11
1399.5525047567
 21
-253.9382407999
 31
0.0
  0
LINE
  5
167
100
AcDbEntity
  8
L1_120
  6
CONTINUOUS
 62
         7
100
AcDbLine
 10
1395.8025047567
 20
-233.0906455357
 30
0.0
 11
1395.8025047567
 21
-253.9382407998
 31
0.0
  0
LINE
  5
168
100
AcDbEntity
  8
L1_120
  6
CONTINUOUS
 62
         7
100
AcDbLine
 10
1394.1412343579
 20
-233.8906455357
 30
0.0
 11
1394.1412343579
 21
-256.8156455357
 31
0.0
  0
LINE
  5
169
100
AcDbEntity
  8
L1_120
  6
CONTINUOUS
 62
         7
100
AcDbLine
 10
1405.6775047567
 20
-216.1906455357
 30
0.0
 11
1401.2137751555
 21
-216.1906455357
 31
0.0
  0
LINE
  5
16A
100
AcDbEntity
  8
L1_120
  6
CONTINUOUS
 62
         7
100
AcDbLine
 10
1399.5525047567
 20
-216.9906455357
 30
0.0
 11
1401.2137751555
 21
-216.1906455357
 31
0.0
  0
LINE
  5
16B
100
AcDbEntity
  8
L1_120
  6
CONTINUOUS
 62
         7
100
AcDbLine
 10
1399.5525047567
 20
-233.0906455357
 30
0.0
 11
1401.2137751555
 21
-233.8906455357
 31
0.0
  0
LINE
  5
16C
100
AcDbEntity
  8
L1_120
  6
CONTINUOUS
 62
         7
100
AcDbLine
 10
1405.6775047567
 20
-233.8906455357
 30
0.0
 11
1401.2137751555
 21
-233.8906455357
 31
0.0
  0
LINE
  5
16D
100
AcDbEntity
  8
L1_120
  6
CONTINUOUS
 62
         7
100
AcDbLine
 10
1394.1412343579
 20
-216.1906455357
 30
0.0
 11
1389.7775047567
 21
-216.1906455357
 31
0.0
  0
LINE
  5
16E
100
AcDbEntity
  8
L1_120
  6
CONTINUOUS
 62
         7
100
AcDbLine
 10
1389.7775047567
 20
-216.1906455357
 30
0.0
 11
1390.5775047567
 21
-216.9906455357
 31
0.0
  0
LINE
  5
16F
100
AcDbEntity
  8
L1_120
  6
CONTINUOUS
 62
         7
100
AcDbLine
 10
1390.5775047567
 20
-233.0906455357
 30
0.0
 11
1389.7775047567
 21
-233.8906455357
 31
0.0
  0
LINE
  5
170
100
AcDbEntity
  8
L1_120
  6
CONTINUOUS
 62
         7
100
AcDbLine
 10
1394.1412343579
 20
-233.8906455357
 30
0.0
 11
1389.7775047567
 21
-233.8906455357
 31
0.0
  0
LINE
  5
171
100
AcDbEntity
  8
L1_120
  6
CONTINUOUS
 62
         7
100
AcDbLine
 10
1390.5775047567
 20
-216.9906455357
 30
0.0
 11
1390.5775047567
 21
-233.0906455357
 31
0.0
  0
LINE
  5
172
100
AcDbEntity
  8
L1_120
  6
CONTINUOUS
 62
         7
100
AcDbLine
 10
1394.1412343579
 20
-233.8906455357
 30
0.0
 11
1395.8025047567
 21
-233.0906455357
 31
0.0
  0
LINE
  5
173
100
AcDbEntity
  8
L1_120
  6
CONTINUOUS
 62
         7
100
AcDbLine
 10
1394.1412343579
 20
-216.1906455357
 30
0.0
 11
1395.8025047567
 21
-216.9906455357
 31
0.0
  0
LINE
  5
174
100
AcDbEntity
  8
L1_120
  6
CONTINUOUS
 62
         7
100
AcDbLine
 10
1404.8775047567
 20
-233.0906455357
 30
0.0
 11
1390.5775047567
 21
-233.0906455357
 31
0.0
  0
LINE
  5
175
100
AcDbEntity
  8
L1_120
  6
CONTINUOUS
 62
         7
100
AcDbLine
 10
1404.8775047567
 20
-216.9906455357
 30
0.0
 11
1390.5775047567
 21
-216.9906455357
 31
0.0
  0
LINE
  5
176
100
AcDbEntity
  8
L1_120
  6
CONTINUOUS
 62
         7
100
AcDbLine
 10
1401.2137751555
 20
-193.2656455357
 30
0.0
 11
1401.2137751555
 21
-216.1906455357
 31
0.0
  0
LINE
  5
177
100
AcDbEntity
  8
L1_120
  6
CONTINUOUS
 62
         7
100
AcDbLine
 10
1399.5525047567
 20
-196.1430502715
 30
0.0
 11
1399.5525047567
 21
-216.9906455357
 31
0.0
  0
LINE
  5
178
100
AcDbEntity
  8
L1_120
  6
CONTINUOUS
 62
         7
100
AcDbLine
 10
1395.8025047567
 20
-196.1430502715
 30
0.0
 11
1395.8025047567
 21
-216.9906455357
 31
0.0
  0
LINE
  5
179
100
AcDbEntity
  8
L1_120
  6
CONTINUOUS
 62
         7
100
AcDbLine
 10
1394.1412343579
 20
-193.2656455357
 30
0.0
 11
1394.1412343579
 21
-216.1906455357
 31
0.0
  0
LINE
  5
17A
100
AcDbEntity
  8
L1_120
  6
CONTINUOUS
 62
         7
100
AcDbLine
 10
1395.8025047567
 20
-196.1430502715
 30
0.0
 11
1394.1412343579
 21
-193.2656455357
 31
0.0
  0
LINE
  5
17B
100
AcDbEntity
  8
L1_120
  6
CONTINUOUS
 62
         7
100
AcDbLine
 10
1395.8025047567
 20
-253.9382407998
 30
0.0
 11
1394.1412343579
 21
-256.8156455357
 31
0.0
  0
LINE
  5
17C
100
AcDbEntity
  8
L1_120
  6
CONTINUOUS
 62
         7
100
AcDbLine
 10
1389.7775047567
 20
-194.2656455357
 30
0.0
 11
1389.7775047567
 21
-255.8156455357
 31
0.0
  0
LINE
  5
17D
100
AcDbEntity
  8
L1_120
  6
CENTER
 62
         1
100
AcDbLine
 10
1386.5775047567
 20
-202.8156455357
 30
0.0
 11
1386.5775047567
 21
-247.2656455357
 31
0.0
  0
LINE
  5
17E
100
AcDbEntity
  8
L1_120
  6
CONTINUOUS
 62
         7
100
AcDbLine
 10
1390.7775047567
 20
-256.8156455357
 30
0.0
 11
1394.1412343579
 21
-256.8156455357
 31
0.0
  0
LINE
  5
17F
100
AcDbEntity
  8
L1_120
  6
CONTINUOUS
 62
         7
100
AcDbLine
 10
1390.7775047567
 20
-193.2656455357
 30
0.0
 11
1394.1412343579
 21
-193.2656455357
 31
0.0
  0
LINE
  5
180
100
AcDbEntity
  8
L1_120
  6
CONTINUOUS
 62
         7
100
AcDbLine
 10
1405.6775047567
 20
-194.2656455357
 30
0.0
 11
1405.6775047567
 21
-255.8156455357
 31
0.0
  0
LINE
  5
181
100
AcDbEntity
  8
L1_120
  6
CONTINUOUS
 62
         7
100
AcDbLine
 10
1405.6775047567
 20
-194.2656455357
 30
0.0
 11
1405.6775047567
 21
-206.0406455357
 31
0.0
  0
LINE
  5
182
100
AcDbEntity
  8
L1_120
  6
CONTINUOUS
 62
         7
100
AcDbLine
 10
1396.7763050885
 20
-253.1656455357
 30
0.0
 11
1398.578704425
 21
-253.1656455357
 31
0.0
  0
ARC
  5
183
100
AcDbEntity
  8
L1_120
  6
CONTINUOUS
 62
         7
100
AcDbCircle
 10
1396.7763050885
 20
-254.1656455357
 30
0.0
 40
1.0
100
AcDbArc
 50
90.0
 51
166.8556743105
  0
LINE
  5
184
100
AcDbEntity
  8
L1_120
  6
CONTINUOUS
 62
         7
100
AcDbLine
 10
1399.5525047567
 20
-253.9382407998
 30
0.0
 11
1401.2137751555
 21
-256.8156455357
 31
0.0
  0
ARC
  5
185
100
AcDbEntity
  8
L1_120
  6
CONTINUOUS
 62
         7
100
AcDbCircle
 10
1398.578704425
 20
-254.1656455357
 30
0.0
 40
1.0
100
AcDbArc
 50
13.1443256895
 51
90.0
  0
LINE
  5
186
100
AcDbEntity
  8
L1_120
  6
CONTINUOUS
 62
         7
100
AcDbLine
 10
1401.2137751555
 20
-256.8156455357
 30
0.0
 11
1404.6775047567
 21
-256.8156455357
 31
0.0
  0
LINE
  5
187
100
AcDbEntity
  8
L1_120
  6
CONTINUOUS
 62
         7
100
AcDbLine
 10
1399.5525047567
 20
-196.1430502715
 30
0.0
 11
1401.2137751555
 21
-193.2656455357
 31
0.0
  0
LINE
  5
188
100
AcDbEntity
  8
L1_120
  6
CONTINUOUS
 62
         7
100
AcDbLine
 10
1401.2137751555
 20
-193.2656455357
 30
0.0
 11
1404.6775047567
 21
-193.2656455357
 31
0.0
  0
LINE
  5
189
100
AcDbEntity
  8
L1_120
  6
CONTINUOUS
 62
         7
100
AcDbLine
 10
1396.7763050885
 20
-196.9156455357
 30
0.0
 11
1398.578704425
 21
-196.9156455357
 31
0.0
  0
ARC
  5
18A
100
AcDbEntity
  8
L1_120
  6
CONTINUOUS
 62
         7
100
AcDbCircle
 10
1396.7763050885
 20
-195.9156455357
 30
0.0
 40
1.0
100
AcDbArc
 50
193.1443256895
 51
270.0
  0
ARC
  5
18B
100
AcDbEntity
  8
L1_120
  6
CONTINUOUS
 62
         7
100
AcDbCircle
 10
1398.578704425
 20
-195.9156455357
 30
0.0
 40
1.0
100
AcDbArc
 50
270.0
 51
346.8556743105
  0
LINE
  5
18C
100
AcDbEntity
  8
L1_120
  6
CONTINUOUS
 62
         7
100
AcDbLine
 10
1387.7775047567
 20
-247.4406455357
 30
0.0
 11
1387.7775047567
 21
-202.6406455357
 31
0.0
  0
LINE
  5
18D
100
AcDbEntity
  8
L1_120
  6
CONTINUOUS
 62
         7
100
AcDbLine
 10
1389.7775047567
 20
-256.3156455357
 30
0.0
 11
1390.2775047567
 21
-256.8156455357
 31
0.0
  0
LINE
  5
18E
100
AcDbEntity
  8
L1_120
  6
CONTINUOUS
 62
         7
100
AcDbLine
 10
1405.6775047567
 20
-256.3156455357
 30
0.0
 11
1405.1775047567
 21
-256.8156455357
 31
0.0
  0
LINE
  5
18F
100
AcDbEntity
  8
L1_120
  6
CONTINUOUS
 62
         7
100
AcDbLine
 10
1390.2775047567
 20
-256.8156455357
 30
0.0
 11
1391.7775047567
 21
-256.8156455357
 31
0.0
  0
LINE
  5
190
100
AcDbEntity
  8
L1_120
  6
CONTINUOUS
 62
         7
100
AcDbLine
 10
1403.6775047567
 20
-256.8156455357
 30
0.0
 11
1405.1775047567
 21
-256.8156455357
 31
0.0
  0
LINE
  5
191
100
AcDbEntity
  8
L1_120
  6
CONTINUOUS
 62
         7
100
AcDbLine
 10
1389.7775047567
 20
-254.8156455357
 30
0.0
 11
1389.7775047567
 21
-256.3156455357
 31
0.0
  0
LINE
  5
192
100
AcDbEntity
  8
L1_120
  6
CONTINUOUS
 62
         7
100
AcDbLine
 10
1405.6775047567
 20
-254.8156455357
 30
0.0
 11
1405.6775047567
 21
-256.3156455357
 31
0.0
  0
LINE
  5
193
100
AcDbEntity
  8
L1_120
  6
CONTINUOUS
 62
         7
100
AcDbLine
 10
1390.2775047567
 20
-193.2656455357
 30
0.0
 11
1391.7775047567
 21
-193.2656455357
 31
0.0
  0
LINE
  5
194
100
AcDbEntity
  8
L1_120
  6
CONTINUOUS
 62
         7
100
AcDbLine
 10
1389.7775047567
 20
-193.7656455357
 30
0.0
 11
1389.7775047567
 21
-195.2656455357
 31
0.0
  0
LINE
  5
195
100
AcDbEntity
  8
L1_120
  6
CONTINUOUS
 62
         7
100
AcDbLine
 10
1403.6775047567
 20
-193.2656455357
 30
0.0
 11
1405.1775047567
 21
-193.2656455357
 31
0.0
  0
LINE
  5
196
100
AcDbEntity
  8
L1_120
  6
CONTINUOUS
 62
         7
100
AcDbLine
 10
1405.6775047567
 20
-193.7656455357
 30
0.0
 11
1405.6775047567
 21
-195.2656455357
 31
0.0
  0
LINE
  5
197
100
AcDbEntity
  8
L1_120
  6
CONTINUOUS
 62
         7
100
AcDbLine
 10
1390.2775047567
 20
-193.2656455357
 30
0.0
 11
1389.7775047567
 21
-193.7656455357
 31
0.0
  0
LINE
  5
198
100
AcDbEntity
  8
L1_120
  6
CONTINUOUS
 62
         7
100
AcDbLine
 10
1405.1775047567
 20
-193.2656455357
 30
0.0
 11
1405.6775047567
 21
-193.7656455357
 31
0.0
  0
CIRCLE
  5
199
100
AcDbEntity
  8
L1_120
  6
CONTINUOUS
 62
         7
100
AcDbCircle
 10
1397.6775047567
 20
-225.0406455357
 30
0.0
 40
5.0
  0
CIRCLE
  5
19A
100
AcDbEntity
  8
L1_120
  6
CONTINUOUS
 62
         7
100
AcDbCircle
 10
1397.6775047567
 20
-211.8367578323
 30
0.0
 40
1.875
  0
CIRCLE
  5
19B
100
AcDbEntity
  8
L1_120
  6
CONTINUOUS
 62
         7
100
AcDbCircle
 10
1397.6775047567
 20
-238.244533239
 30
0.0
 40
1.875
  0
LINE
  5
19C
100
AcDbEntity
  8
L1_120
  6
CONTINUOUS
 62
         7
100
AcDbLine
 10
1584.8575047567
 20
-219.8406455357
 30
0.0
 11
1584.8575047567
 21
-230.2406455357
 31
0.0
  0
LINE
  5
19D
100
AcDbEntity
  8
L1_120
  6
DASHED
 62
         2
100
AcDbLine
 10
1586.0264137945
 20
-210.1042896029
 30
0.0
 11
1592.890535108
 21
-213.7540076454
 31
0.0
  0
LINE
  5
19E
100
AcDbEntity
  8
L1_120
  6
DASHED
 62
         2
100
AcDbLine
 10
1592.9711320433
 20
-216.0620018974
 30
0.0
 11
1592.890535108
 21
-213.7540076454
 31
0.0
  0
LINE
  5
19F
100
AcDbEntity
  8
L1_120
  6
DASHED
 62
         2
100
AcDbLine
 10
1591.0126488569
 20
-217.2857980168
 30
0.0
 11
1592.9711320433
 21
-216.0620018974
 31
0.0
  0
LINE
  5
1A0
100
AcDbEntity
  8
L1_120
  6
DASHED
 62
         2
100
AcDbLine
 10
1591.0126488569
 20
-217.2857980168
 30
0.0
 11
1592.890535108
 21
-213.7540076454
 31
0.0
  0
LINE
  5
1A1
100
AcDbEntity
  8
L1_120
  6
DASHED
 62
         2
100
AcDbLine
 10
1584.1485275434
 20
-213.6360799743
 30
0.0
 11
1591.0126488569
 21
-217.2857980168
 31
0.0
  0
LINE
  5
1A2
100
AcDbEntity
  8
L1_120
  6
DASHED
 62
         2
100
AcDbLine
 10
1591.0126488569
 20
-232.7954930545
 30
0.0
 11
1592.9711320433
 21
-234.0192891739
 31
0.0
  0
LINE
  5
1A3
100
AcDbEntity
  8
L1_120
  6
DASHED
 62
         2
100
AcDbLine
 10
1592.9711320433
 20
-234.0192891739
 30
0.0
 11
1592.890535108
 21
-236.327283426
 31
0.0
  0
LINE
  5
1A4
100
AcDbEntity
  8
L1_120
  6
DASHED
 62
         2
100
AcDbLine
 10
1591.0126488569
 20
-232.7954930545
 30
0.0
 11
1592.890535108
 21
-236.327283426
 31
0.0
  0
LINE
  5
1A5
100
AcDbEntity
  8
L1_120
  6
DASHED
 62
         2
100
AcDbLine
 10
1586.0264137945
 20
-239.9770014684
 30
0.0
 11
1592.890535108
 21
-236.327283426
 31
0.0
  0
LINE
  5
1A6
100
AcDbEntity
  8
L1_120
  6
DASHED
 62
         2
100
AcDbLine
 10
1584.1485275434
 20
-236.445211097
 30
0.0
 11
1591.0126488569
 21
-232.7954930545
 31
0.0
  0
LINE
  5
1A7
100
AcDbEntity
  8
L1_120
  6
CENTER
 62
         1
100
AcDbLine
 10
1576.4965556982
 20
-242.7789767993
 30
0.0
 11
1609.8310752864
 21
-225.0546983343
 31
0.0
  0
LINE
  5
1A8
100
AcDbEntity
  8
L1_120
  6
DASHED
 62
         2
100
AcDbLine
 10
1585.0575047567
 20
-230.0406455357
 30
0.0
 11
1589.3075047567
 21
-230.0406455357
 31
0.0
  0
LINE
  5
1A9
100
AcDbEntity
  8
L1_120
  6
DASHED
 62
         2
100
AcDbLine
 10
1585.0575047567
 20
-220.0406455357
 30
0.0
 11
1589.3075047567
 21
-220.0406455357
 31
0.0
  0
LINE
  5
1AA
100
AcDbEntity
  8
L1_120
  6
DASHED
 62
         2
100
AcDbLine
 10
1589.5075047567
 20
-220.2406455357
 30
0.0
 11
1589.5075047567
 21
-229.8406455357
 31
0.0
  0
ARC
  5
1AB
100
AcDbEntity
  8
L1_120
  6
DASHED
 62
         2
100
AcDbCircle
 10
1589.3075047567
 20
-220.2406455357
 30
0.0
 40
0.2
100
AcDbArc
 50
0.0
 51
90.0
  0
ARC
  5
1AC
100
AcDbEntity
  8
L1_120
  6
DASHED
 62
         2
100
AcDbCircle
 10
1589.3075047567
 20
-229.8406455357
 30
0.0
 40
0.2
100
AcDbArc
 50
270.0
 51
360.0
  0
LINE
  5
1AD
100
AcDbEntity
  8
L1_120
  6
DASHED
 62
         2
100
AcDbLine
 10
1585.0575047567
 20
-220.0406455357
 30
0.0
 11
1585.0575047567
 21
-230.0406455357
 31
0.0
  0
LINE
  5
1AE
100
AcDbEntity
  8
L1_120
  6
DASHED
 62
         2
100
AcDbLine
 10
1584.8575047567
 20
-219.8406455357
 30
0.0
 11
1585.0575047567
 21
-220.0406455357
 31
0.0
  0
LINE
  5
1AF
100
AcDbEntity
  8
L1_120
  6
DASHED
 62
         2
100
AcDbLine
 10
1584.8575047567
 20
-230.2406455357
 30
0.0
 11
1585.0575047567
 21
-230.0406455357
 31
0.0
  0
LINE
  5
1B0
100
AcDbEntity
  8
L1_120
  6
CENTER
 62
         1
100
AcDbLine
 10
1576.4965556982
 20
-207.302314272
 30
0.0
 11
1609.8310752864
 21
-225.026592737
 31
0.0
  0
LINE
  5
1B1
100
AcDbEntity
  8
L1_120
  6
CENTER
 62
         1
100
AcDbLine
 10
1578.0825047567
 20
-225.0406455357
 30
0.0
 11
1641.6325047567
 21
-225.0406455357
 31
0.0
  0
LINE
  5
1B2
100
AcDbEntity
  8
L1_120
  6
CONTINUOUS
 62
         7
100
AcDbLine
 10
1579.6191228052
 20
-233.0906455357
 30
0.0
 11
1584.3575047567
 21
-233.0906455357
 31
0.0
  0
LINE
  5
1B3
100
AcDbEntity
  8
L1_120
  6
CONTINUOUS
 62
         7
100
AcDbLine
 10
1579.225037524
 20
-233.4847308168
 30
0.0
 11
1579.6191228052
 21
-233.0906455357
 31
0.0
  0
LINE
  5
1B4
100
AcDbEntity
  8
L1_120
  6
CONTINUOUS
 62
         7
100
AcDbLine
 10
1584.8575047567
 20
-232.5906455357
 30
0.0
 11
1584.3575047567
 21
-233.0906455357
 31
0.0
  0
LINE
  5
1B5
100
AcDbEntity
  8
L1_120
  6
CONTINUOUS
 62
         7
100
AcDbLine
 10
1579.225037524
 20
-216.5965602545
 30
0.0
 11
1579.6191228052
 21
-216.9906455357
 31
0.0
  0
LINE
  5
1B6
100
AcDbEntity
  8
L1_120
  6
CONTINUOUS
 62
         7
100
AcDbLine
 10
1584.8575047567
 20
-217.4906455357
 30
0.0
 11
1584.3575047567
 21
-216.9906455357
 31
0.0
  0
LINE
  5
1B7
100
AcDbEntity
  8
L1_120
  6
CONTINUOUS
 62
         7
100
AcDbLine
 10
1584.8575047567
 20
-217.4906455357
 30
0.0
 11
1584.8575047567
 21
-232.5906455357
 31
0.0
  0
LINE
  5
1B8
100
AcDbEntity
  8
L1_120
  6
CONTINUOUS
 62
         7
100
AcDbLine
 10
1579.6191228052
 20
-216.9906455357
 30
0.0
 11
1584.3575047567
 21
-216.9906455357
 31
0.0
  0
LINE
  5
1B9
100
AcDbEntity
  8
L1_120
  6
CONTINUOUS
 62
         7
100
AcDbLine
 10
1640.4899719895
 20
-233.4847308168
 30
0.0
 11
1640.0958867083
 21
-233.0906455357
 31
0.0
  0
LINE
  5
1BA
100
AcDbEntity
  8
L1_120
  6
CONTINUOUS
 62
         7
100
AcDbLine
 10
1632.6575047567
 20
-232.5906455357
 30
0.0
 11
1633.1575047567
 21
-233.0906455357
 31
0.0
  0
LINE
  5
1BB
100
AcDbEntity
  8
L1_120
  6
CONTINUOUS
 62
         7
100
AcDbLine
 10
1633.1575047567
 20
-233.0906455357
 30
0.0
 11
1640.0958867083
 21
-233.0906455357
 31
0.0
  0
LINE
  5
1BC
100
AcDbEntity
  8
L1_120
  6
CONTINUOUS
 62
         7
100
AcDbLine
 10
1640.4899719895
 20
-216.5965602545
 30
0.0
 11
1640.0958867083
 21
-216.9906455357
 31
0.0
  0
LINE
  5
1BD
100
AcDbEntity
  8
L1_120
  6
CONTINUOUS
 62
         7
100
AcDbLine
 10
1633.1575047567
 20
-216.9906455357
 30
0.0
 11
1640.0958867083
 21
-216.9906455357
 31
0.0
  0
LINE
  5
1BE
100
AcDbEntity
  8
L1_120
  6
CONTINUOUS
 62
         7
100
AcDbLine
 10
1632.6575047567
 20
-217.4906455357
 30
0.0
 11
1633.1575047567
 21
-216.9906455357
 31
0.0
  0
LINE
  5
1BF
100
AcDbEntity
  8
L1_120
  6
CONTINUOUS
 62
         7
100
AcDbLine
 10
1632.6575047567
 20
-217.4906455357
 30
0.0
 11
1632.6575047567
 21
-232.5906455357
 31
0.0
  0
ARC
  5
1C0
100
AcDbEntity
  8
L1_120
  6
DASHED
 62
         2
100
AcDbCircle
 10
1609.8575047567
 20
-225.0406455357
 30
0.0
 40
28.125
100
AcDbArc
 50
196.6319205355
 51
343.3680794645
  0
ARC
  5
1C1
100
AcDbEntity
  8
L1_120
  6
DASHED
 62
         2
100
AcDbCircle
 10
1609.8575047567
 20
-225.0406455357
 30
0.0
 40
28.125
100
AcDbArc
 50
16.6319205355
 51
163.3680794645
  0
LINE
  5
1C2
100
AcDbEntity
  8
L1_120
  6
CENTER
 62
         1
100
AcDbLine
 10
1609.8575047567
 20
-190.2656455357
 30
0.0
 11
1609.8575047567
 21
-259.8156455357
 31
0.0
  0
ARC
  5
1C3
100
AcDbEntity
  8
L1_120
  6
CONTINUOUS
 62
         7
100
AcDbCircle
 10
1609.8575047567
 20
-225.0406455357
 30
0.0
 40
31.775
100
AcDbArc
 50
15.411296411
 51
164.588703589
  0
ARC
  5
1C4
100
AcDbEntity
  8
L1_120
  6
CONTINUOUS
 62
         7
100
AcDbCircle
 10
1609.8575047567
 20
-225.0406455357
 30
0.0
 40
31.775
100
AcDbArc
 50
195.411296411
 51
344.588703589
  0
LINE
  5
1C5
100
AcDbEntity
  8
L1_120
  6
CONTINUOUS
 62
         7
100
AcDbLine
 10
1404.8775047567
 20
-216.9906455357
 30
0.0
 11
1404.8775047567
 21
-233.0906455357
 31
0.0
  0
LINE
  5
1C6
100
AcDbEntity
  8
L1_120
  6
CONTINUOUS
 62
         7
100
AcDbLine
 10
1404.8775047567
 20
-233.0906455357
 30
0.0
 11
1405.6775047567
 21
-233.8906455357
 31
0.0
  0
LINE
  5
1C7
100
AcDbEntity
  8
L1_120
  6
CONTINUOUS
 62
         7
100
AcDbLine
 10
1405.6775047567
 20
-216.1906455357
 30
0.0
 11
1404.8775047567
 21
-216.9906455357
 31
0.0
  0
LINE
  5
1C8
100
AcDbEntity
  8
L1_120
  6
CONTINUOUS
 62
         7
100
AcDbLine
 10
1408.6775047567
 20
-211.5786455357
 30
0.0
 11
1509.4826807224
 21
-211.5786455357
 31
0.0
  0
LINE
  5
1C9
100
AcDbEntity
  8
L1_120
  6
CONTINUOUS
 62
         7
100
AcDbLine
 10
1408.6775047567
 20
-238.5026455357
 30
0.0
 11
1509.4826807224
 21
-238.5026455357
 31
0.0
  0
LINE
  5
1CA
100
AcDbEntity
  8
L1_120
  6
CONTINUOUS
 62
         4
100
AcDbLine
 10
1509.4826807224
 20
-211.5786455357
 30
0.0
 11
1509.4826807224
 21
-238.5026455357
 31
0.0
  0
LINE
  5
1CB
100
AcDbEntity
  8
L1_120
  6
CONTINUOUS
 62
         7
100
AcDbLine
 10
1545.6759638525
 20
-235.6541723777
 30
0.0
 11
1509.4826807224
 21
-238.5026455357
 31
0.0
  0
ARC
  5
1CC
100
AcDbEntity
  8
L1_120
  6
CONTINUOUS
 62
         7
100
AcDbCircle
 10
1545.5975047567
 20
-234.657255044
 30
0.0
 40
1.0
100
AcDbArc
 50
274.5
 51
359.9999999999
  0
LINE
  5
1CD
100
AcDbEntity
  8
L1_120
  6
CONTINUOUS
 62
         7
100
AcDbLine
 10
1546.5975047567
 20
-215.4240360273
 30
0.0
 11
1546.5975047567
 21
-234.657255044
 31
0.0
  0
ARC
  5
1CE
100
AcDbEntity
  8
L1_120
  6
CONTINUOUS
 62
         7
100
AcDbCircle
 10
1545.5975047567
 20
-215.4240360273
 30
0.0
 40
1.0
100
AcDbArc
 50
0.0
 51
85.5
  0
LINE
  5
1CF
100
AcDbEntity
  8
L1_120
  6
CONTINUOUS
 62
         7
100
AcDbLine
 10
1545.6759638525
 20
-214.4271186936
 30
0.0
 11
1509.4826807224
 21
-211.5786455357
 31
0.0
  0
DIMENSION
  5
1D3
100
AcDbEntity
  8
L1_120
  6
CONTINUOUS
 62
         4
100
AcDbDimension
  2
*D0
 10
1509.4826807224
 20
-211.5786455357
 30
0.0
 11
1529.3546101885
 21
-205.241448179
 31
0.0
 70
         2
  3
DIMSTYLE1
100
AcDb2LineAngularDimension
 13
1398.0350427838
 23
-211.5786455357
 33
0.0
 14
1567.067309234
 24
-211.5786455357
 34
0.0
 15
1544.7544229482
 25
-214.3545918515
 35
0.0
 16
1528.6051562296
 26
-213.0836169968
 36
0.0
  0
DIMENSION
  5
1E4
100
AcDbEntity
  8
L1_120
  6
CONTINUOUS
 62
         4
100
AcDbDimension
  2
*D1
 10
1562.8042330994
 20
-214.4996455357
 30
0.0
 11
1560.7792330994
 21
-229.8538180967
 31
0.0
  3
DIMSTYLE1
100
AcDbAlignedDimension
 13
1546.5975047567
 23
-214.4996455357
 33
0.0
 14
1546.5975047567
 24
-235.5816455357
 34
0.0
 50
90.0
100
AcDbRotatedDimension
  0
DIMENSION
  5
1F2
100
AcDbEntity
  8
L1_120
  6
CONTINUOUS
 62
         4
100
AcDbDimension
  2
*D2
 10
1571.4524445574
 20
-211.5786455357
 30
0.0
 11
1569.4274445574
 21
-230.0339520829
 31
0.0
  3
DIMSTYLE1
100
AcDbAlignedDimension
 13
1509.4826807224
 23
-211.5786455357
 33
0.0
 14
1509.4826807224
 24
-238.5026455357
 34
0.0
 50
90.0
100
AcDbRotatedDimension
  0
LINE
  5
1FE
100
AcDbEntity
  8
L1_120
  6
CENTER
 62
         1
100
AcDbLine
 10
1597.9637542726
 20
-192.3628346478
 30
0.0
 11
1621.898378016
 21
-258.122672926
 31
0.0
  0
LINE
  5
1FF
100
AcDbEntity
  8
L1_120
  6
DASHED
 62
         2
100
AcDbLine
 10
1603.5784103267
 20
-201.9413665743
 30
0.0
 11
1602.1419257248
 21
-197.994657567
 31
0.0
  0
LINE
  5
200
100
AcDbEntity
  8
L1_120
  6
DASHED
 62
         2
100
AcDbLine
 10
1599.8196398436
 20
-203.3094471476
 30
0.0
 11
1598.3831552416
 21
-199.3627381403
 31
0.0
  0
LINE
  5
201
100
AcDbEntity
  8
L1_120
  6
DASHED
 62
         2
100
AcDbLine
 10
1603.2495179095
 20
-202.0610736244
 30
0.0
 11
1609.0813177273
 21
-218.0838119387
 31
0.0
  0
LINE
  5
202
100
AcDbEntity
  8
L1_120
  6
DASHED
 62
         2
100
AcDbLine
 10
1600.1485322609
 20
-203.1897400974
 30
0.0
 11
1605.9803320787
 21
-219.2124784117
 31
0.0
  0
LINE
  5
203
100
AcDbEntity
  8
L1_120
  6
DASHED
 62
         2
100
AcDbLine
 10
1603.5784103267
 20
-201.9413665743
 30
0.0
 11
1599.8196398436
 21
-203.3094471476
 31
0.0
  0
LINE
  5
204
100
AcDbEntity
  8
L1_120
  6
DASHED
 62
         2
100
AcDbLine
 10
1616.1365991867
 20
-248.139924497
 30
0.0
 11
1617.5730837887
 21
-252.0866335043
 31
0.0
  0
LINE
  5
205
100
AcDbEntity
  8
L1_120
  6
DASHED
 62
         2
100
AcDbLine
 10
1619.8953696699
 20
-246.7718439237
 30
0.0
 11
1616.1365991867
 21
-248.139924497
 31
0.0
  0
LINE
  5
206
100
AcDbEntity
  8
L1_120
  6
DASHED
 62
         2
100
AcDbLine
 10
1619.8953696699
 20
-246.7718439237
 30
0.0
 11
1621.3318542718
 21
-250.718552931
 31
0.0
  0
LINE
  5
207
100
AcDbEntity
  8
L1_120
  6
DASHED
 62
         2
100
AcDbLine
 10
1613.7346774348
 20
-230.8688126596
 30
0.0
 11
1619.5664772526
 21
-246.8915509739
 31
0.0
  0
LINE
  5
208
100
AcDbEntity
  8
L1_120
  6
DASHED
 62
         2
100
AcDbLine
 10
1610.6336917862
 20
-231.9974791326
 30
0.0
 11
1616.465491604
 21
-248.0202174469
 31
0.0
  0
LINE
  5
209
100
AcDbEntity
  8
L1_120
  6
DASHED
 62
         2
100
AcDbLine
 10
1415.8849142291
 20
-231.5026455357
 30
0.0
 11
1413.2899142291
 21
-230.0044215871
 31
0.0
  0
LINE
  5
20A
100
AcDbEntity
  8
L1_120
  6
DASHED
 62
         2
100
AcDbLine
 10
1410.6949142291
 20
-231.5026455357
 30
0.0
 11
1413.2899142291
 21
-230.0044215871
 31
0.0
  0
LINE
  5
20B
100
AcDbEntity
  8
L1_120
  6
DASHED
 62
         2
100
AcDbLine
 10
1410.2899142291
 20
-233.5026455357
 30
0.0
 11
1416.2899142291
 21
-233.5026455357
 31
0.0
  0
LINE
  5
20C
100
AcDbEntity
  8
L1_120
  6
DASHED
 62
         2
100
AcDbLine
 10
1410.6949142291
 20
-231.5026455357
 30
0.0
 11
1415.8849142291
 21
-231.5026455357
 31
0.0
  0
LINE
  5
20D
100
AcDbEntity
  8
L1_120
  6
DASHED
 62
         2
100
AcDbLine
 10
1415.8849142291
 20
-231.5026455357
 30
0.0
 11
1415.8849142291
 21
-238.4302389335
 31
0.0
  0
LINE
  5
20E
100
AcDbEntity
  8
L1_120
  6
DASHED
 62
         2
100
AcDbLine
 10
1410.6949142291
 20
-231.5026455357
 30
0.0
 11
1410.6949142291
 21
-238.5026455357
 31
0.0
  0
LINE
  5
20F
100
AcDbEntity
  8
L1_120
  6
DASHED
 62
         2
100
AcDbLine
 10
1416.2899142291
 20
-233.5026455357
 30
0.0
 11
1416.2899142291
 21
-238.3983647423
 31
0.0
  0
LINE
  5
210
100
AcDbEntity
  8
L1_120
  6
DASHED
 62
         2
100
AcDbLine
 10
1410.2899142291
 20
-233.5026455357
 30
0.0
 11
1410.2899142291
 21
-238.5026455357
 31
0.0
  0
LINE
  5
211
100
AcDbEntity
  8
L1_120
  6
DASHED
 62
         2
100
AcDbLine
 10
1410.2899142291
 20
-216.5786455357
 30
0.0
 11
1410.2899142291
 21
-211.5786455357
 31
0.0
  0
LINE
  5
212
100
AcDbEntity
  8
L1_120
  6
DASHED
 62
         2
100
AcDbLine
 10
1416.2899142291
 20
-216.5786455357
 30
0.0
 11
1416.2899142291
 21
-211.682926329
 31
0.0
  0
LINE
  5
213
100
AcDbEntity
  8
L1_120
  6
DASHED
 62
         2
100
AcDbLine
 10
1410.6949142291
 20
-218.5786455357
 30
0.0
 11
1410.6949142291
 21
-211.5786455357
 31
0.0
  0
LINE
  5
214
100
AcDbEntity
  8
L1_120
  6
DASHED
 62
         2
100
AcDbLine
 10
1415.8849142291
 20
-218.5786455357
 30
0.0
 11
1415.8849142291
 21
-211.6510521378
 31
0.0
  0
LINE
  5
215
100
AcDbEntity
  8
L1_120
  6
DASHED
 62
         2
100
AcDbLine
 10
1410.6949142291
 20
-218.5786455357
 30
0.0
 11
1415.8849142291
 21
-218.5786455357
 31
0.0
  0
LINE
  5
216
100
AcDbEntity
  8
L1_120
  6
DASHED
 62
         2
100
AcDbLine
 10
1410.2899142291
 20
-216.5786455357
 30
0.0
 11
1416.2899142291
 21
-216.5786455357
 31
0.0
  0
LINE
  5
217
100
AcDbEntity
  8
L1_120
  6
DASHED
 62
         2
100
AcDbLine
 10
1410.6949142291
 20
-218.5786455357
 30
0.0
 11
1413.2899142291
 21
-220.0768694842
 31
0.0
  0
LINE
  5
218
100
AcDbEntity
  8
L1_120
  6
DASHED
 62
         2
100
AcDbLine
 10
1415.8849142291
 20
-218.5786455357
 30
0.0
 11
1413.2899142291
 21
-220.0768694842
 31
0.0
  0
CIRCLE
  5
219
100
AcDbEntity
  8
L1_120
  6
CONTINUOUS
 62
         7
100
AcDbCircle
 10
1413.2775047567
 20
-225.0406455357
 30
0.0
 40
2.595
  0
ARC
  5
21A
100
AcDbEntity
  8
L1_120
  6
CONTINUOUS
 62
         4
100
AcDbCircle
 10
1413.2775047567
 20
-225.0406455357
 30
0.0
 40
3.0
100
AcDbArc
 50
248.8783472373
 51
540.0
  0
LINE
  5
21B
100
AcDbEntity
  8
L1_120
  6
CENTER
 62
         1
100
AcDbLine
 10
1413.2775047567
 20
-243.1209343259
 30
0.0
 11
1413.2775047567
 21
-204.2029906917
 31
0.0
  0
ARC
  5
21C
100
AcDbEntity
  8
L1_120
  6
CONTINUOUS
 62
         7
100
AcDbCircle
 10
1408.6775047567
 20
-208.5786455357
 30
0.0
 40
3.0
100
AcDbArc
 50
180.0
 51
270.0
  0
ARC
  5
21D
100
AcDbEntity
  8
L1_120
  6
CONTINUOUS
 62
         7
100
AcDbCircle
 10
1408.6775047567
 20
-241.5026455357
 30
0.0
 40
3.0
100
AcDbArc
 50
90.0
 51
180.0
  0
CIRCLE
  5
21E
100
AcDbEntity
  8
L1_120
  6
CONTINUOUS
 62
         7
100
AcDbCircle
 10
1609.9310661443
 20
-225.2427537869
 30
0.0
 40
10.541
  0
CIRCLE
  5
21F
100
AcDbEntity
  8
L1_120
  6
CONTINUOUS
 62
         7
100
AcDbCircle
 10
1609.9310661443
 20
-225.2427537869
 30
0.0
 40
13.462
  0
LINE
  5
220
100
AcDbEntity
  8
L1_120
  6
DASHED
 62
         2
100
AcDbLine
 10
1607.3360661443
 20
-218.4969874324
 30
0.0
 11
1609.9310661443
 21
-219.995211381
 31
0.0
  0
LINE
  5
221
100
AcDbEntity
  8
L1_120
  6
DASHED
 62
         2
100
AcDbLine
 10
1612.5260661443
 20
-218.4969874324
 30
0.0
 11
1609.9310661443
 21
-219.995211381
 31
0.0
  0
LINE
  5
222
100
AcDbEntity
  8
L1_120
  6
DASHED
 62
         2
100
AcDbLine
 10
1607.3360661443
 20
-218.4969874324
 30
0.0
 11
1612.5260661443
 21
-218.4969874324
 31
0.0
  0
LINE
  5
223
100
AcDbEntity
  8
L1_120
  6
DASHED
 62
         2
100
AcDbLine
 10
1606.9310661443
 20
-216.4969874324
 30
0.0
 11
1612.9310661443
 21
-216.4969874324
 31
0.0
  0
LINE
  5
224
100
AcDbEntity
  8
L1_120
  6
DASHED
 62
         2
100
AcDbLine
 10
1606.9310661443
 20
-216.4969874324
 30
0.0
 11
1606.9310661443
 21
-212.1192845809
 31
0.0
  0
LINE
  5
225
100
AcDbEntity
  8
L1_120
  6
DASHED
 62
         2
100
AcDbLine
 10
1607.3360661443
 20
-218.4969874324
 30
0.0
 11
1607.3360661443
 21
-212.0332337729
 31
0.0
  0
LINE
  5
226
100
AcDbEntity
  8
L1_120
  6
DASHED
 62
         2
100
AcDbLine
 10
1612.9310661443
 20
-216.4969874324
 30
0.0
 11
1612.9310661443
 21
-212.1192845809
 31
0.0
  0
LINE
  5
227
100
AcDbEntity
  8
L1_120
  6
DASHED
 62
         2
100
AcDbLine
 10
1612.5260661443
 20
-218.4969874324
 30
0.0
 11
1612.5260661443
 21
-212.0332337729
 31
0.0
  0
LINE
  5
228
100
AcDbEntity
  8
L1_120
  6
DASHED
 62
         2
100
AcDbLine
 10
1603.1852997898
 20
-227.8377537869
 30
0.0
 11
1604.6835237383
 21
-225.2427537869
 31
0.0
  0
LINE
  5
229
100
AcDbEntity
  8
L1_120
  6
DASHED
 62
         2
100
AcDbLine
 10
1603.1852997898
 20
-222.6477537869
 30
0.0
 11
1604.6835237383
 21
-225.2427537869
 31
0.0
  0
LINE
  5
22A
100
AcDbEntity
  8
L1_120
  6
DASHED
 62
         2
100
AcDbLine
 10
1603.1852997898
 20
-227.8377537869
 30
0.0
 11
1603.1852997898
 21
-222.6477537869
 31
0.0
  0
LINE
  5
22B
100
AcDbEntity
  8
L1_120
  6
DASHED
 62
         2
100
AcDbLine
 10
1601.1852997898
 20
-228.2427537869
 30
0.0
 11
1601.1852997898
 21
-222.2427537869
 31
0.0
  0
LINE
  5
22C
100
AcDbEntity
  8
L1_120
  6
DASHED
 62
         2
100
AcDbLine
 10
1603.1852997898
 20
-227.8377537869
 30
0.0
 11
1596.7215461303
 21
-227.8377537869
 31
0.0
  0
LINE
  5
22D
100
AcDbEntity
  8
L1_120
  6
DASHED
 62
         2
100
AcDbLine
 10
1601.1852997898
 20
-228.2427537869
 30
0.0
 11
1596.8075969383
 21
-228.2427537869
 31
0.0
  0
LINE
  5
22E
100
AcDbEntity
  8
L1_120
  6
DASHED
 62
         2
100
AcDbLine
 10
1603.1852997898
 20
-222.6477537869
 30
0.0
 11
1596.7215461303
 21
-222.6477537869
 31
0.0
  0
LINE
  5
22F
100
AcDbEntity
  8
L1_120
  6
DASHED
 62
         2
100
AcDbLine
 10
1601.1852997898
 20
-222.2427537869
 30
0.0
 11
1596.8075969383
 21
-222.2427537869
 31
0.0
  0
LINE
  5
230
100
AcDbEntity
  8
L1_120
  6
DASHED
 62
         2
100
AcDbLine
 10
1612.5260661443
 20
-231.9885201414
 30
0.0
 11
1609.9310661443
 21
-230.4902961929
 31
0.0
  0
LINE
  5
231
100
AcDbEntity
  8
L1_120
  6
DASHED
 62
         2
100
AcDbLine
 10
1607.3360661443
 20
-231.9885201414
 30
0.0
 11
1609.9310661443
 21
-230.4902961929
 31
0.0
  0
LINE
  5
232
100
AcDbEntity
  8
L1_120
  6
DASHED
 62
         2
100
AcDbLine
 10
1612.5260661443
 20
-231.9885201414
 30
0.0
 11
1607.3360661443
 21
-231.9885201414
 31
0.0
  0
LINE
  5
233
100
AcDbEntity
  8
L1_120
  6
DASHED
 62
         2
100
AcDbLine
 10
1612.9310661443
 20
-233.9885201414
 30
0.0
 11
1606.9310661443
 21
-233.9885201414
 31
0.0
  0
LINE
  5
234
100
AcDbEntity
  8
L1_120
  6
DASHED
 62
         2
100
AcDbLine
 10
1612.5260661443
 20
-231.9885201414
 30
0.0
 11
1612.5260661443
 21
-238.4522738009
 31
0.0
  0
LINE
  5
235
100
AcDbEntity
  8
L1_120
  6
DASHED
 62
         2
100
AcDbLine
 10
1612.9310661443
 20
-233.9885201414
 30
0.0
 11
1612.9310661443
 21
-238.3662229929
 31
0.0
  0
LINE
  5
236
100
AcDbEntity
  8
L1_120
  6
DASHED
 62
         2
100
AcDbLine
 10
1607.3360661443
 20
-231.9885201414
 30
0.0
 11
1607.3360661443
 21
-238.4522738009
 31
0.0
  0
LINE
  5
237
100
AcDbEntity
  8
L1_120
  6
DASHED
 62
         2
100
AcDbLine
 10
1606.9310661443
 20
-233.9885201414
 30
0.0
 11
1606.9310661443
 21
-238.3662229929
 31
0.0
  0
LINE
  5
238
100
AcDbEntity
  8
L1_120
  6
DASHED
 62
         2
100
AcDbLine
 10
1616.6768324988
 20
-222.6477537869
 30
0.0
 11
1615.1786085502
 21
-225.2427537869
 31
0.0
  0
LINE
  5
239
100
AcDbEntity
  8
L1_120
  6
DASHED
 62
         2
100
AcDbLine
 10
1616.6768324988
 20
-227.8377537869
 30
0.0
 11
1615.1786085502
 21
-225.2427537869
 31
0.0
  0
LINE
  5
23A
100
AcDbEntity
  8
L1_120
  6
DASHED
 62
         2
100
AcDbLine
 10
1616.6768324988
 20
-222.6477537869
 30
0.0
 11
1616.6768324988
 21
-227.8377537869
 31
0.0
  0
LINE
  5
23B
100
AcDbEntity
  8
L1_120
  6
DASHED
 62
         2
100
AcDbLine
 10
1618.6768324988
 20
-222.2427537869
 30
0.0
 11
1618.6768324988
 21
-228.2427537869
 31
0.0
  0
LINE
  5
23C
100
AcDbEntity
  8
L1_120
  6
DASHED
 62
         2
100
AcDbLine
 10
1616.6768324988
 20
-222.6477537869
 30
0.0
 11
1623.1405861583
 21
-222.6477537869
 31
0.0
  0
LINE
  5
23D
100
AcDbEntity
  8
L1_120
  6
DASHED
 62
         2
100
AcDbLine
 10
1618.6768324988
 20
-222.2427537869
 30
0.0
 11
1623.0545353503
 21
-222.2427537869
 31
0.0
  0
LINE
  5
23E
100
AcDbEntity
  8
L1_120
  6
DASHED
 62
         2
100
AcDbLine
 10
1616.6768324988
 20
-227.8377537869
 30
0.0
 11
1623.1405861583
 21
-227.8377537869
 31
0.0
  0
LINE
  5
23F
100
AcDbEntity
  8
L1_120
  6
DASHED
 62
         2
100
AcDbLine
 10
1618.6768324988
 20
-228.2427537869
 30
0.0
 11
1623.0545353503
 21
-228.2427537869
 31
0.0
  0
CIRCLE
  5
240
100
AcDbEntity
  8
L1_120
  6
DASHED
 62
         2
100
AcDbCircle
 10
1609.8575047567
 20
-225.0406455357
 30
-0.0000000001
 40
7.0
  0
CIRCLE
  5
241
100
AcDbEntity
  8
L1_120
  6
CONTINUOUS
 62
         7
100
AcDbCircle
 10
1609.8575047567
 20
-225.0406455357
 30
0.0
 40
3.1658
  0
DIMENSION
  5
244
100
AcDbEntity
  8
L1_120
  6
CONTINUOUS
 62
         4
100
AcDbDimension
  2
*D3
 10
1386.5775047567
 20
-158.5566544833
 30
0.0
 11
1462.5375047567
 21
-156.5316544833
 31
0.0
  3
DIMSTYLE1
100
AcDbAlignedDimension
 13
1386.5775047567
 23
-202.8156455357
 33
0.0
 14
1546.5975047567
 24
-214.0270360273
 34
0.0
100
AcDbRotatedDimension
  0
DIMENSION
  5
252
100
AcDbEntity
  8
L1_120
  6
CONTINUOUS
 62
         4
100
AcDbDimension
  2
*D4
 10
1318.3275047567
 20
-150.7583590168
 30
0.0
 11
1422.0473971768
 21
-148.7333590168
 31
0.0
  3
DIMSTYLE1
100
AcDbAlignedDimension
 13
1318.3275047567
 23
-213.8064638192
 33
0.0
 14
1546.5975047567
 24
-214.0270360273
 34
0.0
100
AcDbRotatedDimension
  0
LINE
  5
25E
100
AcDbEntity
  8
L1_120
  6
CONTINUOUS
 62
         7
100
AcDbLine
 10
1405.6775047567
 20
-354.6306220057
 30
0.0
 11
1405.6775047567
 21
-368.9436220057
 31
0.0
  0
LINE
  5
25F
100
AcDbEntity
  8
L1_120
  6
CONTINUOUS
 62
         7
100
AcDbLine
 10
1389.7775047567
 20
-367.9436220057
 30
0.0
 11
1389.7775047567
 21
-368.9436220057
 31
0.0
  0
LINE
  5
260
100
AcDbEntity
  8
L1_120
  6
CONTINUOUS
 62
         7
100
AcDbLine
 10
1405.6775047567
 20
-307.3936220057
 30
0.0
 11
1405.6775047567
 21
-321.7066220057
 31
0.0
  0
ARC
  5
261
100
AcDbEntity
  8
L1_120
  6
CONTINUOUS
 62
         7
100
AcDbCircle
 10
1404.6775047567
 20
-368.9436220057
 30
0.0
 40
1.0
100
AcDbArc
 50
270.0
 51
360.0
  0
LINE
  5
262
100
AcDbEntity
  8
L1_120
  6
CONTINUOUS
 62
         7
100
AcDbLine
 10
1403.6775047567
 20
-369.9436220057
 30
0.0
 11
1404.6775047567
 21
-369.9436220057
 31
0.0
  0
LINE
  5
263
100
AcDbEntity
  8
L1_120
  6
CONTINUOUS
 62
         7
100
AcDbLine
 10
1390.7775047567
 20
-369.9436220057
 30
0.0
 11
1391.7775047567
 21
-369.9436220057
 31
0.0
  0
ARC
  5
264
100
AcDbEntity
  8
L1_120
  6
CONTINUOUS
 62
         7
100
AcDbCircle
 10
1390.7775047567
 20
-368.9436220057
 30
0.0
 40
1.0
100
AcDbArc
 50
180.0
 51
270.0
  0
ARC
  5
265
100
AcDbEntity
  8
L1_120
  6
CONTINUOUS
 62
         7
100
AcDbCircle
 10
1404.6775047567
 20
-307.3936220057
 30
0.0
 40
1.0
100
AcDbArc
 50
0.0
 51
90.0
  0
LINE
  5
266
100
AcDbEntity
  8
L1_120
  6
CONTINUOUS
 62
         7
100
AcDbLine
 10
1403.6775047567
 20
-306.3936220057
 30
0.0
 11
1404.6775047567
 21
-306.3936220057
 31
0.0
  0
LINE
  5
267
100
AcDbEntity
  8
L1_120
  6
CONTINUOUS
 62
         7
100
AcDbLine
 10
1389.7775047567
 20
-307.3936220057
 30
0.0
 11
1389.7775047567
 21
-308.3936220057
 31
0.0
  0
LINE
  5
268
100
AcDbEntity
  8
L1_120
  6
CONTINUOUS
 62
         7
100
AcDbLine
 10
1390.7775047567
 20
-306.3936220057
 30
0.0
 11
1391.7775047567
 21
-306.3936220057
 31
0.0
  0
ARC
  5
269
100
AcDbEntity
  8
L1_120
  6
CONTINUOUS
 62
         7
100
AcDbCircle
 10
1390.7775047567
 20
-307.3936220057
 30
0.0
 40
1.0
100
AcDbArc
 50
90.0
 51
180.0
  0
LINE
  5
26A
100
AcDbEntity
  8
L1_120
  6
CONTINUOUS
 62
         7
100
AcDbLine
 10
1401.2137751555
 20
-306.3936220055
 30
0.0
 11
1404.6775047567
 21
-306.3936220055
 31
0.0
  0
LINE
  5
26B
100
AcDbEntity
  8
L1_120
  6
CONTINUOUS
 62
         7
100
AcDbLine
 10
1399.5525047567
 20
-309.2710267413
 30
0.0
 11
1401.2137751555
 21
-306.3936220055
 31
0.0
  0
ARC
  5
26C
100
AcDbEntity
  8
L1_120
  6
CONTINUOUS
 62
         7
100
AcDbCircle
 10
1398.578704425
 20
-309.0436220055
 30
0.0
 40
1.0
100
AcDbArc
 50
270.0
 51
346.8556743105
  0
LINE
  5
26D
100
AcDbEntity
  8
L1_120
  6
CONTINUOUS
 62
         7
100
AcDbLine
 10
1396.7763050885
 20
-310.0436220055
 30
0.0
 11
1398.578704425
 21
-310.0436220055
 31
0.0
  0
ARC
  5
26E
100
AcDbEntity
  8
L1_120
  6
CONTINUOUS
 62
         7
100
AcDbCircle
 10
1396.7763050885
 20
-309.0436220055
 30
0.0
 40
1.0
100
AcDbArc
 50
193.1443256895
 51
270.0
  0
LINE
  5
26F
100
AcDbEntity
  8
L1_120
  6
CONTINUOUS
 62
         7
100
AcDbLine
 10
1395.8025047567
 20
-309.2710267415
 30
0.0
 11
1394.1412343579
 21
-306.3936220057
 31
0.0
  0
LINE
  5
270
100
AcDbEntity
  8
L1_120
  6
CONTINUOUS
 62
         7
100
AcDbLine
 10
1390.7775047567
 20
-306.3936220055
 30
0.0
 11
1394.1412343579
 21
-306.3936220055
 31
0.0
  0
LINE
  5
271
100
AcDbEntity
  8
L1_120
  6
CONTINUOUS
 62
         7
100
AcDbLine
 10
1389.7775047567
 20
-314.9686220057
 30
0.0
 11
1389.7775047567
 21
-307.3936220055
 31
0.0
  0
LINE
  5
272
100
AcDbEntity
  8
L1_120
  6
CONTINUOUS
 62
         7
100
AcDbLine
 10
1390.7775047567
 20
-369.9436220059
 30
0.0
 11
1394.1412343579
 21
-369.9436220059
 31
0.0
  0
LINE
  5
273
100
AcDbEntity
  8
L1_120
  6
CONTINUOUS
 62
         7
100
AcDbLine
 10
1389.7775047567
 20
-361.3686220057
 30
0.0
 11
1389.7775047567
 21
-368.9436220059
 31
0.0
  0
LINE
  5
274
100
AcDbEntity
  8
L1_120
  6
CONTINUOUS
 62
         7
100
AcDbLine
 10
1395.8025047567
 20
-367.0662172699
 30
0.0
 11
1394.1412343579
 21
-369.9436220057
 31
0.0
  0
ARC
  5
275
100
AcDbEntity
  8
L1_120
  6
CONTINUOUS
 62
         7
100
AcDbCircle
 10
1396.7763050885
 20
-367.2936220057
 30
0.0
 40
1.0
100
AcDbArc
 50
90.0
 51
166.8556743105
  0
LINE
  5
276
100
AcDbEntity
  8
L1_120
  6
CONTINUOUS
 62
         7
100
AcDbLine
 10
1396.7763050885
 20
-366.2936220057
 30
0.0
 11
1398.578704425
 21
-366.2936220057
 31
0.0
  0
ARC
  5
277
100
AcDbEntity
  8
L1_120
  6
CONTINUOUS
 62
         7
100
AcDbCircle
 10
1398.578704425
 20
-367.2936220059
 30
0.0
 40
1.0
100
AcDbArc
 50
13.1443256895
 51
90.0
  0
LINE
  5
278
100
AcDbEntity
  8
L1_120
  6
CONTINUOUS
 62
         7
100
AcDbLine
 10
1399.5525047567
 20
-367.0662172699
 30
0.0
 11
1401.2137751555
 21
-369.9436220057
 31
0.0
  0
LINE
  5
279
100
AcDbEntity
  8
L1_120
  6
CONTINUOUS
 62
         7
100
AcDbLine
 10
1401.2137751555
 20
-369.9436220059
 30
0.0
 11
1404.6775047567
 21
-369.9436220059
 31
0.0
  0
LINE
  5
27A
100
AcDbEntity
  8
L1_120
  6
CONTINUOUS
 62
         7
100
AcDbLine
 10
1388.9775047567
 20
-360.5686220057
 30
0.0
 11
1387.7775047567
 21
-360.5686220057
 31
0.0
  0
ARC
  5
27B
100
AcDbEntity
  8
L1_120
  6
CONTINUOUS
 62
         7
100
AcDbCircle
 10
1388.9775047567
 20
-361.3686220057
 30
0.0
 40
0.8
100
AcDbArc
 50
0.0
 51
90.0000000001
  0
ARC
  5
27C
100
AcDbEntity
  8
L1_120
  6
CONTINUOUS
 62
         7
100
AcDbCircle
 10
1388.9775047567
 20
-314.9686220057
 30
0.0
 40
0.8
100
AcDbArc
 50
269.9999999999
 51
360.0
  0
LINE
  5
27D
100
AcDbEntity
  8
L1_120
  6
CONTINUOUS
 62
         7
100
AcDbLine
 10
1388.9775047567
 20
-315.7686220057
 30
0.0
 11
1387.7775047567
 21
-315.7686220057
 31
0.0
  0
LINE
  5
27E
100
AcDbEntity
  8
L1_120
  6
CONTINUOUS
 62
         7
100
AcDbLine
 10
1408.6775047567
 20
-351.6306220057
 30
0.0
 11
1509.4826807224
 21
-351.6306220057
 31
0.0
  0
LINE
  5
27F
100
AcDbEntity
  8
L1_120
  6
CONTINUOUS
 62
         7
100
AcDbLine
 10
1545.6759638525
 20
-348.7821488478
 30
0.0
 11
1509.4826807224
 21
-351.6306220057
 31
0.0
  0
ARC
  5
280
100
AcDbEntity
  8
L1_120
  6
CONTINUOUS
 62
         7
100
AcDbCircle
 10
1545.5975047567
 20
-347.7852315141
 30
0.0
 40
1.0
100
AcDbArc
 50
274.5
 51
359.9999999999
  0
LINE
  5
281
100
AcDbEntity
  8
L1_120
  6
CONTINUOUS
 62
         7
100
AcDbLine
 10
1546.5975047567
 20
-328.5520124974
 30
0.0
 11
1546.5975047567
 21
-347.7852315141
 31
0.0
  0
LINE
  5
282
100
AcDbEntity
  8
L1_120
  6
CONTINUOUS
 62
         7
100
AcDbLine
 10
1408.6775047567
 20
-324.7066220057
 30
0.0
 11
1509.4826807224
 21
-324.7066220057
 31
0.0
  0
LINE
  5
283
100
AcDbEntity
  8
L1_120
  6
CONTINUOUS
 62
         7
100
AcDbLine
 10
1545.6759638525
 20
-327.5550951636
 30
0.0
 11
1509.4826807224
 21
-324.7066220057
 31
0.0
  0
ARC
  5
284
100
AcDbEntity
  8
L1_120
  6
CONTINUOUS
 62
         7
100
AcDbCircle
 10
1545.5975047567
 20
-328.5520124974
 30
0.0
 40
1.0
100
AcDbArc
 50
0.0
 51
85.5
  0
LINE
  5
285
100
AcDbEntity
  8
L1_120
  6
CONTINUOUS
 62
         7
100
AcDbLine
 10
1396.1275017539
 20
-317.6292158422
 30
0.0
 11
1396.1274964869
 21
-331.1686220057
 31
0.0
  0
LINE
  5
286
100
AcDbEntity
  8
L1_120
  6
CONTINUOUS
 62
         7
100
AcDbLine
 10
1399.4275016116
 20
-317.9949690369
 30
0.0
 11
1399.4274964868
 21
-331.1686220057
 31
0.0
  0
LINE
  5
287
100
AcDbEntity
  8
L1_120
  6
CONTINUOUS
 62
         4
100
AcDbLine
 10
1397.8179283682
 20
-314.7843091574
 30
0.0
 11
1399.2353520225
 21
-315.776799885
 31
0.0
  0
LINE
  5
288
100
AcDbEntity
  8
L1_120
  6
CONTINUOUS
 62
         7
100
AcDbLine
 10
1399.6530031702
 20
-316.0692423669
 30
0.0
 11
1399.4869491781
 21
-317.9672481814
 31
0.0
  0
LINE
  5
289
100
AcDbEntity
  8
L1_120
  6
CONTINUOUS
 62
         7
100
AcDbLine
 10
1399.4275024222
 20
-315.9113450433
 30
0.0
 11
1399.6530031702
 21
-316.0692423669
 31
0.0
  0
LINE
  5
28A
100
AcDbEntity
  8
L1_120
  6
CONTINUOUS
 62
         7
100
AcDbLine
 10
1399.4275030702
 20
-314.2456946453
 30
0.0
 11
1399.4275024222
 21
-315.9113450433
 31
0.0
  0
LINE
  5
28B
100
AcDbEntity
  8
L1_120
  6
CONTINUOUS
 62
         7
100
AcDbLine
 10
1399.7775031488
 20
-314.0436220057
 30
0.0
 11
1399.4275030702
 21
-314.2456946453
 31
0.0
  0
LINE
  5
28C
100
AcDbEntity
  8
L1_120
  6
CONTINUOUS
 62
         7
100
AcDbLine
 10
1399.4275030702
 20
-314.2456946453
 30
0.0
 11
1397.0487058047
 21
-314.2456937199
 31
0.0
  0
LINE
  5
28D
100
AcDbEntity
  8
L1_120
  6
CONTINUOUS
 62
         4
100
AcDbLine
 10
1399.7775031488
 20
-314.0436220057
 30
0.0
 11
1396.7601158125
 21
-314.0436208319
 31
0.0
  0
LINE
  5
28E
100
AcDbEntity
  8
L1_120
  6
CONTINUOUS
 62
         7
100
AcDbLine
 10
1393.463688956
 20
-316.1912651468
 30
0.0
 11
1395.7866735232
 21
-312.8736993675
 31
0.0
  0
LINE
  5
28F
100
AcDbEntity
  8
L1_120
  6
CONTINUOUS
 62
         4
100
AcDbLine
 10
1396.1506268762
 20
-317.6454082272
 30
0.0
 11
1397.5680505305
 21
-318.6378989547
 31
0.0
  0
LINE
  5
290
100
AcDbEntity
  8
L1_120
  6
CONTINUOUS
 62
         4
100
AcDbLine
 10
1399.1834563026
 20
-318.1087692334
 30
0.0
 11
1397.7602009302
 21
-318.7724441131
 31
0.0
  0
LINE
  5
291
100
AcDbEntity
  8
L1_120
  6
CONTINUOUS
 62
         4
100
AcDbLine
 10
1399.6530031702
 20
-316.0692423669
 30
0.0
 11
1397.7602009302
 21
-318.7724441131
 31
0.0
  0
LINE
  5
292
100
AcDbEntity
  8
L1_120
  6
CONTINUOUS
 62
         7
100
AcDbLine
 10
1399.777505157
 20
-308.8813146165
 30
0.0
 11
1399.7775031488
 21
-314.0436220057
 31
0.0
  0
LINE
  5
293
100
AcDbEntity
  8
L1_120
  6
CONTINUOUS
 62
         7
100
AcDbLine
 10
1395.7775050223
 20
-309.2277259313
 30
0.0
 11
1395.7775034165
 21
-313.3555882251
 31
0.0
  0
LINE
  5
294
100
AcDbEntity
  8
L1_120
  6
CONTINUOUS
 62
         4
100
AcDbLine
 10
1392.0718105021
 20
-310.3335630061
 30
0.0
 11
1395.7579947014
 21
-312.9146569697
 31
0.0
  0
LINE
  5
295
100
AcDbEntity
  8
L1_120
  6
CONTINUOUS
 62
         7
100
AcDbLine
 10
1391.8710587494
 20
-310.6202662216
 30
0.0
 11
1397.0487058047
 21
-314.2456937199
 31
0.0
  0
LINE
  5
296
100
AcDbEntity
  8
L1_120
  6
CONTINUOUS
 62
         7
100
AcDbLine
 10
1389.9782565095
 20
-313.3234679677
 30
0.0
 11
1396.1275017539
 21
-317.6292158422
 31
0.0
  0
LINE
  5
297
100
AcDbEntity
  8
L1_120
  6
CONTINUOUS
 62
         4
100
AcDbLine
 10
1389.7775047567
 20
-313.6101711832
 30
0.0
 11
1393.463688956
 21
-316.1912651468
 31
0.0
  0
LINE
  5
298
100
AcDbEntity
  8
L1_120
  6
CONTINUOUS
 62
         7
100
AcDbLine
 10
1389.7775047567
 20
-313.6101711832
 30
0.0
 11
1392.1004893239
 21
-310.2926054039
 31
0.0
  0
LINE
  5
299
100
AcDbEntity
  8
L1_120
  6
CONTINUOUS
 62
         7
100
AcDbLine
 10
1389.7775047567
 20
-308.6660340988
 30
0.0
 11
1392.1004893239
 21
-310.2926054039
 31
0.0
  0
LINE
  5
29A
100
AcDbEntity
  8
L1_120
  6
CENTER
 62
         1
100
AcDbLine
 10
1389.0668741014
 20
-310.671033064
 30
0.0
 11
1400.0207623477
 21
-318.3410281868
 31
0.0
  0
LINE
  5
29B
100
AcDbEntity
  8
L1_120
  6
CONTINUOUS
 62
         7
100
AcDbLine
 10
1415.8849142291
 20
-344.6306220057
 30
0.0
 11
1413.2899142291
 21
-343.1323980572
 31
0.0
  0
LINE
  5
29C
100
AcDbEntity
  8
L1_120
  6
CONTINUOUS
 62
         7
100
AcDbLine
 10
1410.6949142291
 20
-344.6306220057
 30
0.0
 11
1413.2899142291
 21
-343.1323980572
 31
0.0
  0
LINE
  5
29D
100
AcDbEntity
  8
L1_120
  6
CONTINUOUS
 62
         4
100
AcDbLine
 10
1410.2899142291
 20
-346.6306220057
 30
0.0
 11
1416.2899142291
 21
-346.6306220057
 31
0.0
  0
LINE
  5
29E
100
AcDbEntity
  8
L1_120
  6
CONTINUOUS
 62
         7
100
AcDbLine
 10
1410.6949142291
 20
-344.6306220057
 30
0.0
 11
1415.8849142291
 21
-344.6306220057
 31
0.0
  0
LINE
  5
29F
100
AcDbEntity
  8
L1_120
  6
CONTINUOUS
 62
         7
100
AcDbLine
 10
1415.8849142291
 20
-344.6306220057
 30
0.0
 11
1415.8849142291
 21
-351.5582154036
 31
0.0
  0
LINE
  5
2A0
100
AcDbEntity
  8
L1_120
  6
CONTINUOUS
 62
         7
100
AcDbLine
 10
1410.6949142291
 20
-344.6306220057
 30
0.0
 11
1410.6949142291
 21
-351.6306220057
 31
0.0
  0
LINE
  5
2A1
100
AcDbEntity
  8
L1_120
  6
CONTINUOUS
 62
         4
100
AcDbLine
 10
1416.2899142291
 20
-346.6306220057
 30
0.0
 11
1416.2899142291
 21
-351.5263412123
 31
0.0
  0
LINE
  5
2A2
100
AcDbEntity
  8
L1_120
  6
CONTINUOUS
 62
         4
100
AcDbLine
 10
1410.2899142291
 20
-346.6306220057
 30
0.0
 11
1410.2899142291
 21
-351.6306220057
 31
0.0
  0
LINE
  5
2A3
100
AcDbEntity
  8
L1_120
  6
CONTINUOUS
 62
         4
100
AcDbLine
 10
1410.2899142291
 20
-329.7066220057
 30
0.0
 11
1410.2899142291
 21
-324.7066220057
 31
0.0
  0
LINE
  5
2A4
100
AcDbEntity
  8
L1_120
  6
CONTINUOUS
 62
         4
100
AcDbLine
 10
1416.2899142291
 20
-329.7066220057
 30
0.0
 11
1416.2899142291
 21
-324.8109027991
 31
0.0
  0
LINE
  5
2A5
100
AcDbEntity
  8
L1_120
  6
CONTINUOUS
 62
         7
100
AcDbLine
 10
1410.6949142291
 20
-331.7066220057
 30
0.0
 11
1410.6949142291
 21
-324.7066220057
 31
0.0
  0
LINE
  5
2A6
100
AcDbEntity
  8
L1_120
  6
CONTINUOUS
 62
         7
100
AcDbLine
 10
1415.8849142291
 20
-331.7066220057
 30
0.0
 11
1415.8849142291
 21
-324.7790286078
 31
0.0
  0
LINE
  5
2A7
100
AcDbEntity
  8
L1_120
  6
CONTINUOUS
 62
         7
100
AcDbLine
 10
1410.6949142291
 20
-331.7066220057
 30
0.0
 11
1415.8849142291
 21
-331.7066220057
 31
0.0
  0
LINE
  5
2A8
100
AcDbEntity
  8
L1_120
  6
CONTINUOUS
 62
         4
100
AcDbLine
 10
1410.2899142291
 20
-329.7066220057
 30
0.0
 11
1416.2899142291
 21
-329.7066220057
 31
0.0
  0
LINE
  5
2A9
100
AcDbEntity
  8
L1_120
  6
CONTINUOUS
 62
         7
100
AcDbLine
 10
1410.6949142291
 20
-331.7066220057
 30
0.0
 11
1413.2899142291
 21
-333.2048459543
 31
0.0
  0
LINE
  5
2AA
100
AcDbEntity
  8
L1_120
  6
CONTINUOUS
 62
         7
100
AcDbLine
 10
1415.8849142291
 20
-331.7066220057
 30
0.0
 11
1413.2899142291
 21
-333.2048459543
 31
0.0
  0
LINE
  5
2AB
100
AcDbEntity
  8
L1_120
  6
CENTER
 62
         1
100
AcDbLine
 10
1413.2775047567
 20
-356.248910796
 30
0.0
 11
1413.2775047567
 21
-317.3309671617
 31
0.0
  0
ARC
  5
2AC
100
AcDbEntity
  8
L1_120
  6
CONTINUOUS
 62
         7
100
AcDbCircle
 10
1408.6775047567
 20
-354.6306220057
 30
0.0
 40
3.0
100
AcDbArc
 50
90.0
 51
180.0
  0
ARC
  5
2AD
100
AcDbEntity
  8
L1_120
  6
CONTINUOUS
 62
         7
100
AcDbCircle
 10
1408.6775047567
 20
-321.7066220057
 30
0.0
 40
3.0
100
AcDbArc
 50
180.0
 51
270.0
  0
LINE
  5
2AE
100
AcDbEntity
  8
L1_120
  6
CONTINUOUS
 62
         7
100
AcDbLine
 10
1402.7584884377
 20
-331.1686220057
 30
0.0
 11
1405.5875047567
 21
-336.0686220057
 31
0.0
  0
LINE
  5
2AF
100
AcDbEntity
  8
L1_120
  6
CONTINUOUS
 62
         7
100
AcDbLine
 10
1405.5875047567
 20
-340.2686220057
 30
0.0
 11
1402.7584884377
 21
-345.1686220057
 31
0.0
  0
LINE
  5
2B0
100
AcDbEntity
  8
L1_120
  6
CONTINUOUS
 62
         7
100
AcDbLine
 10
1405.5875047567
 20
-336.0686220057
 30
0.0
 11
1405.5875047567
 21
-340.2686220057
 31
0.0
  0
LINE
  5
2B1
100
AcDbEntity
  8
L1_120
  6
CONTINUOUS
 62
         7
100
AcDbLine
 10
1510.5975047567
 20
-342.1686220057
 30
0.0
 11
1520.5975047567
 21
-342.1686220057
 31
0.0
  0
LINE
  5
2B2
100
AcDbEntity
  8
L1_120
  6
CONTINUOUS
 62
         7
100
AcDbLine
 10
1510.5975047567
 20
-334.1686220057
 30
0.0
 11
1520.5975047567
 21
-334.1686220057
 31
0.0
  0
LINE
  5
2B3
100
AcDbEntity
  8
L1_120
  6
CONTINUOUS
 62
         7
100
AcDbLine
 10
1520.5975047567
 20
-335.0028220057
 30
0.0
 11
1545.5975047567
 21
-335.0028220057
 31
0.0
  0
LINE
  5
2B4
100
AcDbEntity
  8
L1_120
  6
CONTINUOUS
 62
         7
100
AcDbLine
 10
1510.5975047567
 20
-334.1686220057
 30
0.0
 11
1510.5975047567
 21
-342.1686220057
 31
0.0
  0
LINE
  5
2B5
100
AcDbEntity
  8
L1_120
  6
CONTINUOUS
 62
         7
100
AcDbLine
 10
1520.5975047567
 20
-334.1686220057
 30
0.0
 11
1520.5975047567
 21
-342.1686220057
 31
0.0
  0
LINE
  5
2B6
100
AcDbEntity
  8
L1_120
  6
CONTINUOUS
 62
         4
100
AcDbLine
 10
1545.5975047567
 20
-335.0028220057
 30
0.0
 11
1545.5975047567
 21
-341.3344220057
 31
0.0
  0
ARC
  5
2B7
100
AcDbEntity
  8
L1_120
  6
CONTINUOUS
 62
         7
100
AcDbCircle
 10
1545.5975047567
 20
-334.0028220057
 30
0.0
 40
1.0
100
AcDbArc
 50
270.0
 51
360.0
  0
ARC
  5
2B8
100
AcDbEntity
  8
L1_120
  6
CONTINUOUS
 62
         7
100
AcDbCircle
 10
1545.5975047567
 20
-342.3344220057
 30
0.0
 40
1.0
100
AcDbArc
 50
0.0
 51
90.0
  0
LINE
  5
2B9
100
AcDbEntity
  8
L1_120
  6
CONTINUOUS
 62
         7
100
AcDbLine
 10
1405.5875047567
 20
-336.0686220057
 30
0.0
 11
1510.5975047567
 21
-336.0686220057
 31
0.0
  0
LINE
  5
2BA
100
AcDbEntity
  8
L1_120
  6
CONTINUOUS
 62
         7
100
AcDbLine
 10
1405.5875047567
 20
-340.2686220057
 30
0.0
 11
1510.5975047567
 21
-340.2686220057
 31
0.0
  0
LINE
  5
2BB
100
AcDbEntity
  8
L1_120
  6
CONTINUOUS
 62
         4
100
AcDbLine
 10
1490.5975047567
 20
-335.6686220057
 30
0.0
 11
1510.5975047567
 21
-335.6686220057
 31
0.0
  0
LINE
  5
2BC
100
AcDbEntity
  8
L1_120
  6
CONTINUOUS
 62
         4
100
AcDbLine
 10
1490.5975047567
 20
-340.6686220057
 30
0.0
 11
1510.5975047567
 21
-340.6686220057
 31
0.0
  0
LINE
  5
2BD
100
AcDbEntity
  8
L1_120
  6
CONTINUOUS
 62
         7
100
AcDbLine
 10
1402.7584884377
 20
-331.1686220057
 30
0.0
 11
1402.7584884377
 21
-345.1686220057
 31
0.0
  0
LINE
  5
2BE
100
AcDbEntity
  8
L1_120
  6
CONTINUOUS
 62
         7
100
AcDbLine
 10
1520.5975047567
 20
-341.3344220057
 30
0.0
 11
1545.5975047567
 21
-341.3344220057
 31
0.0
  0
DIMENSION
  5
2C1
100
AcDbEntity
  8
L1_120
  6
CONTINUOUS
 62
         4
100
AcDbDimension
  2
*D5
 10
1510.5975047567
 20
-370.6061025954
 30
0.0
 11
1525.6725047567
 21
-367.4741025954
 31
0.0
  3
DIMSTYLE1
100
AcDbAlignedDimension
 13
1510.5975047567
 23
-342.1686220057
 33
0.0
 14
1546.5975047567
 24
-347.7852315141
 34
0.0
100
AcDbRotatedDimension
  0
LINE
  5
2CD
100
AcDbEntity
  8
L1_120
  6
CONTINUOUS
 62
         7
100
AcDbLine
 10
1490.5975047567
 20
-335.6686220057
 30
0.0
 11
1490.5975047567
 21
-340.6686220057
 31
0.0
  0
INSERT
  5
34C
100
AcDbEntity
  8
0
  6
CONTINUOUS
100
AcDbBlockReference
  2
*X6
 10
0.0
 20
0.0
 30
0.0
  0
LINE
  5
34D
100
AcDbEntity
  8
L1_120
  6
CONTINUOUS
 62
         7
100
AcDbLine
 10
1575.786110121
 20
-312.7179762947
 30
0.0
 11
1575.786110121
 21
-309.4500271023
 31
0.0
  0
LINE
  5
34E
100
AcDbEntity
  8
L1_120
  6
CENTER
 62
         1
100
AcDbLine
 10
1596.9052974757
 20
-311.0840016985
 30
0.0
 11
1575.1252688369
 21
-311.0840016985
 31
0.0
  0
LINE
  5
34F
100
AcDbEntity
  8
L1_120
  6
CONTINUOUS
 62
         7
100
AcDbLine
 10
1594.886110121
 20
-308.5840016985
 30
0.0
 11
1576.286110121
 21
-308.5840016985
 31
0.0
  0
LINE
  5
350
100
AcDbEntity
  8
L1_120
  6
CONTINUOUS
 62
         7
100
AcDbLine
 10
1576.286110121
 20
-313.5840016985
 30
0.0
 11
1594.886110121
 21
-313.5840016985
 31
0.0
  0
LINE
  5
351
100
AcDbEntity
  8
L1_120
  6
CONTINUOUS
 62
         7
100
AcDbLine
 10
1595.786110121
 20
-312.6840016985
 30
0.0
 11
1595.786110121
 21
-309.4840016985
 31
0.0
  0
LINE
  5
352
100
AcDbEntity
  8
L1_120
  6
CONTINUOUS
 62
         4
100
AcDbLine
 10
1576.286110121
 20
-308.5840016985
 30
0.0
 11
1576.286110121
 21
-313.5840016985
 31
0.0
  0
LINE
  5
353
100
AcDbEntity
  8
L1_120
  6
CONTINUOUS
 62
         7
100
AcDbLine
 10
1575.786110121
 20
-312.7179762947
 30
0.0
 11
1576.286110121
 21
-313.5840016985
 31
0.0
  0
LINE
  5
354
100
AcDbEntity
  8
L1_120
  6
CONTINUOUS
 62
         7
100
AcDbLine
 10
1576.286110121
 20
-308.5840016985
 30
0.0
 11
1575.786110121
 21
-309.4500271023
 31
0.0
  0
LINE
  5
355
100
AcDbEntity
  8
L1_120
  6
CONTINUOUS
 62
         4
100
AcDbLine
 10
1575.786110121
 20
-309.4500271023
 30
0.0
 11
1595.7521355248
 21
-309.4500271023
 31
0.0
  0
LINE
  5
356
100
AcDbEntity
  8
L1_120
  6
CONTINUOUS
 62
         4
100
AcDbLine
 10
1575.786110121
 20
-312.7179762947
 30
0.0
 11
1595.7521355248
 21
-312.7179762947
 31
0.0
  0
LINE
  5
357
100
AcDbEntity
  8
L1_120
  6
CONTINUOUS
 62
         4
100
AcDbLine
 10
1594.886110121
 20
-313.5840016985
 30
0.0
 11
1594.886110121
 21
-308.5840016985
 31
0.0
  0
LINE
  5
358
100
AcDbEntity
  8
L1_120
  6
CONTINUOUS
 62
         7
100
AcDbLine
 10
1594.886110121
 20
-308.5840016985
 30
0.0
 11
1595.786110121
 21
-309.4840016985
 31
0.0
  0
LINE
  5
359
100
AcDbEntity
  8
L1_120
  6
CONTINUOUS
 62
         7
100
AcDbLine
 10
1594.886110121
 20
-313.5840016985
 30
0.0
 11
1595.786110121
 21
-312.6840016985
 31
0.0
  0
LINE
  5
35A
100
AcDbEntity
  8
L1_120
  6
CENTER
 62
         1
100
AcDbLine
 10
1565.2816432124
 20
-315.6187092596
 30
0.0
 11
1565.2816432124
 21
-307.4020176331
 31
0.0
  0
CIRCLE
  5
35B
100
AcDbEntity
  8
L1_120
  6
CONTINUOUS
 62
         7
100
AcDbCircle
 10
1565.2816432124
 20
-311.0840016985
 30
0.0
 40
1.6339745962
  0
CIRCLE
  5
35C
100
AcDbEntity
  8
L1_120
  6
CONTINUOUS
 62
         7
100
AcDbCircle
 10
1565.2816432124
 20
-311.0840016985
 30
0.0
 40
2.5
  0
LINE
  5
35D
100
AcDbEntity
  8
L1_120
  6
DASHED
 62
         2
100
AcDbLine
 10
1575.786110121
 20
-309.6406260255
 30
0.0
 11
1578.286110121
 21
-309.6406260255
 31
0.0
  0
LINE
  5
35E
100
AcDbEntity
  8
L1_120
  6
DASHED
 62
         2
100
AcDbLine
 10
1575.786110121
 20
-310.362313862
 30
0.0
 11
1578.286110121
 21
-310.362313862
 31
0.0
  0
LINE
  5
35F
100
AcDbEntity
  8
L1_120
  6
DASHED
 62
         2
100
AcDbLine
 10
1578.286110121
 20
-312.5273773715
 30
0.0
 11
1578.286110121
 21
-309.6406260255
 31
0.0
  0
LINE
  5
360
100
AcDbEntity
  8
L1_120
  6
DASHED
 62
         2
100
AcDbLine
 10
1575.786110121
 20
-311.805689535
 30
0.0
 11
1578.286110121
 21
-311.805689535
 31
0.0
  0
LINE
  5
361
100
AcDbEntity
  8
L1_120
  6
DASHED
 62
         2
100
AcDbLine
 10
1578.286110121
 20
-312.5273773715
 30
0.0
 11
1575.786110121
 21
-312.5273773715
 31
0.0
  0
LINE
  5
362
100
AcDbEntity
  8
L1_120
  6
CENTER
 62
         1
100
AcDbLine
 10
1570.3662129226
 20
-311.0840016985
 30
0.0
 11
1561.2148551858
 21
-311.0840016985
 31
0.0
  0
LINE
  5
363
100
AcDbEntity
  8
L1_120
  6
CONTINUOUS
 62
         7
100
AcDbLine
 10
1566.5316432124
 20
-310.362313862
 30
0.0
 11
1565.2816432124
 21
-309.6406260255
 31
0.0
  0
LINE
  5
364
100
AcDbEntity
  8
L1_120
  6
CONTINUOUS
 62
         7
100
AcDbLine
 10
1565.2816432124
 20
-309.6406260255
 30
0.0
 11
1564.0316432124
 21
-310.362313862
 31
0.0
  0
LINE
  5
365
100
AcDbEntity
  8
L1_120
  6
CONTINUOUS
 62
         7
100
AcDbLine
 10
1564.0316432124
 20
-310.362313862
 30
0.0
 11
1564.0316432124
 21
-311.805689535
 31
0.0
  0
LINE
  5
366
100
AcDbEntity
  8
L1_120
  6
CONTINUOUS
 62
         7
100
AcDbLine
 10
1564.0316432124
 20
-311.805689535
 30
0.0
 11
1565.2816432124
 21
-312.5273773715
 31
0.0
  0
LINE
  5
367
100
AcDbEntity
  8
L1_120
  6
CONTINUOUS
 62
         7
100
AcDbLine
 10
1565.2816432124
 20
-312.5273773715
 30
0.0
 11
1566.5316432124
 21
-311.805689535
 31
0.0
  0
LINE
  5
368
100
AcDbEntity
  8
L1_120
  6
CONTINUOUS
 62
         7
100
AcDbLine
 10
1566.5316432124
 20
-311.805689535
 30
0.0
 11
1566.5316432124
 21
-310.362313862
 31
0.0
  0
CIRCLE
  5
369
100
AcDbEntity
  8
L1_120
  6
CONTINUOUS
 62
         7
100
AcDbCircle
 10
1565.2816432124
 20
-311.0840016985
 30
0.0
 40
1.443375673
  0
DIMENSION
  5
36C
100
AcDbEntity
  8
L1_120
  6
CONTINUOUS
 62
         4
100
AcDbDimension
  2
*D7
 10
1575.786110121
 20
-320.8296818452
 30
0.0
 11
1583.1402475318
 21
-318.8046818452
 31
0.0
  3
DIMSTYLE1
100
AcDbAlignedDimension
 13
1575.786110121
 23
-312.7179762947
 33
0.0
 14
1595.786110121
 24
-312.6840016985
 34
0.0
100
AcDbRotatedDimension
  0
LINE
  5
378
100
AcDbEntity
  8
L1_120
  6
DASHED
 62
         2
100
AcDbLine
 10
1595.786110121
 20
-309.8340016985
 30
0.0
 11
1578.286110121
 21
-309.8340016985
 31
0.0
  0
LINE
  5
379
100
AcDbEntity
  8
L1_120
  6
DASHED
 62
         2
100
AcDbLine
 10
1595.786110121
 20
-312.3340016985
 30
0.0
 11
1578.286110121
 21
-312.3340016985
 31
0.0
  0
DIMENSION
  5
37C
100
AcDbEntity
  8
L1_120
  6
CONTINUOUS
 62
         4
100
AcDbDimension
  2
*D8
 10
1611.2491652152
 20
-308.5840016985
 30
0.0
 11
1609.2241652152
 21
-306.5841782246
 31
0.0
  3
DIMSTYLE1
100
AcDbAlignedDimension
 13
1594.886110121
 23
-308.5840016985
 33
0.0
 14
1594.886110121
 24
-313.5840016985
 34
0.0
 50
90.0
100
AcDbRotatedDimension
  0
DIMENSION
  5
38C
100
AcDbEntity
  8
L1_120
  6
CONTINUOUS
 62
         4
100
AcDbDimension
  2
*D9
 10
1564.0316432124
 20
-304.5152920619
 30
0.0
 11
1561.0066432124
 21
-301.3832920619
 31
0.0
  3
DIMSTYLE1
100
AcDbAlignedDimension
 13
1564.0316432124
 23
-310.362313862
 33
0.0
 14
1566.5316432124
 24
-310.362313862
 34
0.0
100
AcDbRotatedDimension
  0
DIMENSION
  5
39C
100
AcDbEntity
  8
L1_120
  6
CONTINUOUS
 62
         4
100
AcDbDimension
  2
*D10
 10
1602.8974930514
 20
-312.3340016985
 30
0.0
 11
1599.7654930514
 21
-306.5327332214
 31
0.0
  3
DIMSTYLE1
100
AcDbAlignedDimension
 13
1595.786110121
 23
-312.3340016985
 33
0.0
 14
1595.786110121
 24
-309.8340016985
 34
0.0
 50
90.0
100
AcDbRotatedDimension
  0
LINE
  5
3AA
100
AcDbEntity
  8
L1_120
  6
CENTER
 62
         1
100
AcDbLine
 10
1315.1297717813
 20
-338.1686220057
 30
0.0
 11
1546.5975047567
 21
-338.1686220057
 31
0.0
  0
ENDSEC
  0
SECTION
  2
OBJECTS
  0
DICTIONARY
  5
19
100
AcDbDictionary
  3
ACAD_GROUP
350
1A
  3
ACAD_MLINESTYLE
350
1B
  0
DICTIONARY
  5
1A
102
{ACAD_REACTORS
330
19
102
}
100
AcDbDictionary
  0
DICTIONARY
  5
1B
102
{ACAD_REACTORS
330
19
102
}
100
AcDbDictionary
  3
STANDARD
350
1C
  0
MLINESTYLE
  5
1C
102
{ACAD_REACTORS
330
1B
102
}
100
AcDbMlineStyle
  2
STANDARD
 70
         0
  3

 62
         0
 51
90.0
 52
90.0
 71
         2
 49
0.5
 62
       256
  6
BYLAYER
 49
-0.5
 62
       256
  6
BYLAYER
  0
ENDSEC
  0
EOF
