  0
SECTION
  2
HEADER
  9
$ACADVER
  1
AC1014
  9
$ACADMAINTVER
 70
         0
  9
$DWGCODEPAGE
  3
BIG5
  9
$INSBASE
 10
0.0
 20
0.0
 30
0.0
  9
$EXTMIN
 10
1108.0594475617
 20
-409.1444385795
 30
0.0
  9
$EXTMAX
 10
1707.3843342982
 20
-116.573621554
 30
0.0
  9
$LIMMIN
 10
0.0
 20
0.0
  9
$LIMMAX
 10
0.0
 20
0.0
  9
$ORTHOMODE
 70
         0
  9
$REGENMODE
 70
         1
  9
$FILLMODE
 70
         1
  9
$QTEXTMODE
 70
         0
  9
$MIRRTEXT
 70
         1
  9
$DRAGMODE
 70
         2
  9
$LTSCALE
 40
1.0
  9
$OSMODE
 70
         0
  9
$ATTMODE
 70
         1
  9
$TEXTSIZE
 40
1.7
  9
$TRACEWID
 40
0.05
  9
$TEXTSTYLE
  7
STANDARD
  9
$CLAYER
  8
0
  9
$CELTYPE
  6
CONTINUOUS
  9
$CECOLOR
 62
         1
  9
$CELTSCALE
 40
1.0
  9
$DELOBJ
 70
         1
  9
$DISPSILH
 70
         0
  9
$DIMSCALE
 40
1.0
  9
$DIMASZ
 40
0.18
  9
$DIMEXO
 40
0.0625
  9
$DIMDLI
 40
0.38
  9
$DIMRND
 40
0.0
  9
$DIMDLE
 40
0.0
  9
$DIMEXE
 40
0.25
  9
$DIMTP
 40
0.01
  9
$DIMTM
 40
-0.01
  9
$DIMTXT
 40
2.7
  9
$DIMCEN
 40
0.09
  9
$DIMTSZ
 40
0.0
  9
$DIMTOL
 70
         0
  9
$DIMLIM
 70
         0
  9
$DIMTIH
 70
         1
  9
$DIMTOH
 70
         1
  9
$DIMSE1
 70
         0
  9
$DIMSE2
 70
         0
  9
$DIMTAD
 70
         0
  9
$DIMZIN
 70
         0
  9
$DIMBLK
  1

  9
$DIMASO
 70
         1
  9
$DIMSHO
 70
         1
  9
$DIMPOST
  1

  9
$DIMAPOST
  1

  9
$DIMALT
 70
         0
  9
$DIMALTD
 70
         2
  9
$DIMALTF
 40
25.4
  9
$DIMLFAC
 40
1.0
  9
$DIMTOFL
 70
         0
  9
$DIMTVP
 40
0.0
  9
$DIMTIX
 70
         0
  9
$DIMSOXD
 70
         0
  9
$DIMSAH
 70
         0
  9
$DIMBLK1
  1

  9
$DIMBLK2
  1

  9
$DIMSTYLE
  2
STANDARD
  9
$DIMCLRD
 70
         0
  9
$DIMCLRE
 70
         0
  9
$DIMCLRT
 70
         1
  9
$DIMTFAC
 40
1.0
  9
$DIMGAP
 40
0.09
  9
$DIMJUST
 70
         0
  9
$DIMSD1
 70
         0
  9
$DIMSD2
 70
         0
  9
$DIMTOLJ
 70
         1
  9
$DIMTZIN
 70
         0
  9
$DIMALTZ
 70
         0
  9
$DIMALTTZ
 70
         0
  9
$DIMFIT
 70
         3
  9
$DIMUPT
 70
         0
  9
$DIMUNIT
 70
         2
  9
$DIMDEC
 70
         4
  9
$DIMTDEC
 70
         4
  9
$DIMALTU
 70
         2
  9
$DIMALTTD
 70
         2
  9
$DIMTXSTY
  7
STANDARD
  9
$DIMAUNIT
 70
         0
  9
$LUNITS
 70
         2
  9
$LUPREC
 70
        10
  9
$SKETCHINC
 40
0.1
  9
$FILLETRAD
 40
0.0
  9
$AUNITS
 70
         0
  9
$AUPREC
 70
         0
  9
$MENU
  1
acad
  9
$ELEVATION
 40
0.0
  9
$PELEVATION
 40
0.0
  9
$THICKNESS
 40
0.0
  9
$LIMCHECK
 70
         0
  9
$BLIPMODE
 70
         1
  9
$CHAMFERA
 40
0.0
  9
$CHAMFERB
 40
0.0
  9
$CHAMFERC
 40
0.0
  9
$CHAMFERD
 40
0.0
  9
$SKPOLY
 70
         0
  9
$TDCREATE
 40
0.000000000
  9
$TDUPDATE
 40
0.000000000
  9
$TDINDWG
 40
0.0000000000
  9
$TDUSRTIMER
 40
0.0000000000
  9
$USRTIMER
 70
         1
  9
$ANGBASE
 50
0.0
  9
$ANGDIR
 70
         0
  9
$PDMODE
 70
         2
  9
$PDSIZE
 40
0.0
  9
$PLINEWID
 40
0.0
  9
$COORDS
 70
         0
  9
$SPLFRAME
 70
         0
  9
$SPLINETYPE
 70
         6
  9
$SPLINESEGS
 70
         8
  9
$ATTDIA
 70
         0
  9
$ATTREQ
 70
         1
  9
$HANDLING
 70
         1
  9
$HANDSEED
  5
482
  9
$SURFTAB1
 70
         6
  9
$SURFTAB2
 70
         6
  9
$SURFTYPE
 70
         6
  9
$SURFU
 70
         6
  9
$SURFV
 70
         6
  9
$UCSNAME
  2

  9
$UCSORG
 10
0.0
 20
0.0
 30
0.0
  9
$UCSXDIR
 10
1.0
 20
0.0
 30
0.0
  9
$UCSYDIR
 10
0.0
 20
1.0
 30
0.0
  9
$PUCSNAME
  2

  9
$PUCSORG
 10
0.0
 20
0.0
 30
0.0
  9
$PUCSXDIR
 10
1.0
 20
0.0
 30
0.0
  9
$PUCSYDIR
 10
0.0
 20
1.0
 30
0.0
  9
$USERI1
 70
         0
  9
$USERI2
 70
         0
  9
$USERI3
 70
         0
  9
$USERI4
 70
         0
  9
$USERI5
 70
         0
  9
$USERR1
 40
0.0
  9
$USERR2
 40
0.0
  9
$USERR3
 40
0.0
  9
$USERR4
 40
0.0
  9
$USERR5
 40
0.0
  9
$WORLDVIEW
 70
         1
  9
$SHADEDGE
 70
         3
  9
$SHADEDIF
 70
        70
  9
$TILEMODE
 70
         1
  9
$MAXACTVP
 70
        16
  9
$PINSBASE
 10
0.0
 20
0.0
 30
0.0
  9
$PLIMCHECK
 70
         0
  9
$PEXTMIN
 10
1.0000000000E+20
 20
1.0000000000E+20
 30
1.0000000000E+20
  9
$PEXTMAX
 10
-1.0000000000E+20
 20
-1.0000000000E+20
 30
-1.0000000000E+20
  9
$PLIMMIN
 10
0.0
 20
0.0
  9
$PLIMMAX
 10
12.0
 20
9.0
  9
$UNITMODE
 70
         0
  9
$VISRETAIN
 70
         0
  9
$PLINEGEN
 70
         1
  9
$PSLTSCALE
 70
         0
  9
$TREEDEPTH
 70
      3020
  9
$PICKSTYLE
 70
         1
  9
$CMLSTYLE
  2
STANDARD
  9
$CMLJUST
 70
         0
  9
$CMLSCALE
 40
1.0
  9
$PROXYGRAPHICS
 70
         0
  9
$MEASUREMENT
 70
         0
  0
ENDSEC
  0
SECTION
  2
CLASSES
  0
CLASS
  1
LWPOLYLINE
  2
AcDbPolyline
  3
"AutoCAD"
 90
        0
280
         0
281
         1
  0
CLASS
  1
IMAGE
  2
AcDbRasterImage
  3
ISM
 90
      127
280
         0
281
         1
  0
CLASS
  1
OLE2FRAME
  2
AcDbOle2Frame
  3
""
 90
        0
280
         0
281
         1
  0
CLASS
  1
HATCH
  2
AcDbHatch
  3
"ACAD_SEDONA"
 90
        0
280
         0
281
         1
  0
CLASS
  1
DICTIONARYVAR
  2
AcDbDictionaryVar
  3
"AutoCAD"
 90
        0
280
         0
281
         0
  0
CLASS
  1
RASTERVARIABLES
  2
AcDbRasterVariables
  3
ISM
 90
        0
280
         0
281
         0
  0
CLASS
  1
IMAGEDEF
  2
AcDbRasterImageDef
  3
ISM
 90
        0
280
         0
281
         0
  0
CLASS
  1
IMAGEDEF_REACTOR
  2
AcDbRasterImageDefReactor
  3
ISM
 90
        1
280
         0
281
         0
  0
CLASS
  1
IDBUFFER
  2
AcDbIdBuffer
  3
"Acad"
 90
        0
280
         0
281
         0
  0
CLASS
  1
SPATIAL_FILTER
  2
AcDbSpatialFilter
  3
"Acad"
 90
        0
280
         0
281
         0
  0
CLASS
  1
XRECORD
  2
AcDbXrecord
  3
"<Built In>"
 90
        0
280
         0
281
         0
  0
CLASS
  1
SORTENTSTABLE
  2
AcDbSortentsTable
  3
"AutoCAD"
 90
        0
280
         0
281
         0
  0
CLASS
  1
LAYER_INDEX
  2
AcDbLayerIndex
  3
"Acad"
 90
        0
280
         0
281
         0
  0
CLASS
  1
SPATIAL_INDEX
  2
AcDbSpatialIndex
  3
"Acad"
 90
        0
280
         0
281
         0
  0
CLASS
  1
OBJECT_PTR
  2
CAseDLPNTableRecord
  3
"ASE-LPNTableRecord"
 90
        1
280
         0
281
         0
  0
CLASS
  1
LAYOUT
  2
AcDbLayout
  3
"AutoCAD 2000"
 90
        1
280
         0
281
         0
  0
CLASS
  1
PLOTSETTINGS
  2
AcDbPlotSettings
  3
"AutoCAD 2000"
 90
        1
280
         0
281
         0
  0
CLASS
  1
ACDBDICTIONARYWDFLT
  2
AcDbDictionaryWithDefault
  3
"AutoCAD 2000"
 90
        1
280
         0
281
         0
  0
CLASS
  1
ACDBPLACEHOLDER
  2
AcDbPlaceHolder
  3
"AutoCAD 2000"
 90
        1
280
         0
281
         0
  0
CLASS
  1
VBA_PROJECT
  2
AcDbVbaProject
  3
"acadvba"
 90
        1
280
         0
281
         0
  0
CLASS
  1
WIPEOUT
  2
AcDbWipeout
  3
WipeOut|AutoCAD Express Tool|expresstools@autodesk.com
 90
      127
280
         0
281
         1
  0
CLASS
  1
WIPEOUTVARIABLES
  2
AcDbWipeoutVariables
  3
WipeOut|AutoCAD Express Tool|expresstools@autodesk.com
 90
        0
280
         0
281
         0
  0
CLASS
  1
RTEXT
  2
RText
  3
RText|AutoCAD Express Tool|expresstools@autodesk.com
 90
        0
280
         0
281
         1
  0
CLASS
  1
ARCALIGNEDTEXT
  2
AcDbArcAlignedText
  3
ATEXT|AutoCAD Express Tool|expresstools@autodesk.com
 90
        0
280
         0
281
         1
  0
ENDSEC
  0
SECTION
  2
TABLES
  0
TABLE
  2
VPORT
  5
7
100
AcDbSymbolTable
 70
         1
  0
VPORT
  5
15
100
AcDbSymbolTableRecord
100
AcDbViewportTableRecord
  2
*ACTIVE
 70
         0
 10
0.0
 20
0.0
 11
1.0
 21
1.0
 12
1407.72189093
 22
-262.8590300668
 13
0.0
 23
0.0
 14
1.0
 24
1.0
 15
0.0
 25
0.0
 16
0.0
 26
0.0
 36
1.0
 17
0.0
 27
0.0
 37
0.0
 40
292.5708170255
 41
2.0484780158
 42
50.0
 43
0.0
 44
0.0
 50
0.0
 51
0.0
 71
         0
 72
       100
 73
         1
 74
         1
 75
         0
 76
         0
 77
         0
 78
         0
  0
ENDTAB
  0
TABLE
  2
LTYPE
  5
4
100
AcDbSymbolTable
 70
         6
  0
LTYPE
  5
11
100
AcDbSymbolTableRecord
100
AcDbLinetypeTableRecord
  2
BYBLOCK
 70
        64
  3

 72
        65
 73
         0
 40
0.0
  0
LTYPE
  5
12
100
AcDbSymbolTableRecord
100
AcDbLinetypeTableRecord
  2
BYLAYER
 70
        64
  3

 72
        65
 73
         0
 40
0.0
  0
LTYPE
  5
13
100
AcDbSymbolTableRecord
100
AcDbLinetypeTableRecord
  2
CONTINUOUS
 70
        64
  3
Solid line
 72
        65
 73
         0
 40
0.0
  0
LTYPE
  5
1D
100
AcDbSymbolTableRecord
100
AcDbLinetypeTableRecord
  2
DASHED
 70
        64
  3
_ _ _ _ _ _ _ _ _ _ _ _ _ _ _ _
 72
        65
 73
         2
 40
0.2
 49
0.1
 74
         0
 49
-0.1
 74
         0
  0
LTYPE
  5
1E
100
AcDbSymbolTableRecord
100
AcDbLinetypeTableRecord
  2
CENTER
 70
        64
  3
___ _ ___ _ ___ _ ___ _ ___ _ ___ _ ___ _ ___ _
 72
        65
 73
         4
 40
0.95
 49
0.625
 74
         0
 49
-0.125
 74
         0
 49
0.075
 74
         0
 49
-0.125
 74
         0
  0
LTYPE
  5
1F
100
AcDbSymbolTableRecord
100
AcDbLinetypeTableRecord
  2
PHANTOM
 70
        64
  3
______  __  __  ______  __  __  ______  __  __  
 72
        65
 73
         6
 40
1.025
 49
0.625
 74
         0
 49
-0.125
 74
         0
 49
0.075
 74
         0
 49
-0.125
 74
         0
 49
0.075
 74
         0
 49
-0.125
 74
         0
  0
ENDTAB
  0
TABLE
  2
LAYER
  5
2
100
AcDbSymbolTable
 70
         6
  0
LAYER
  5
14
100
AcDbSymbolTableRecord
100
AcDbLayerTableRecord
  2
0
 70
         0
 62
         7
  6
CONTINUOUS
  0
LAYER
  5
21
100
AcDbSymbolTableRecord
100
AcDbLayerTableRecord
  2
_____U
 70
         1
 62
         7
  6
CONTINUOUS
  0
LAYER
  5
22
100
AcDbSymbolTableRecord
100
AcDbLayerTableRecord
  2
_____T______
 70
         1
 62
         7
  6
CONTINUOUS
  0
LAYER
  5
23
100
AcDbSymbolTableRecord
100
AcDbLayerTableRecord
  2
______L_______
 70
         1
 62
         7
  6
CONTINUOUS
  0
LAYER
  5
24
100
AcDbSymbolTableRecord
100
AcDbLayerTableRecord
  2
L1_120
 70
         0
 62
         7
  6
CONTINUOUS
  0
LAYER
  5
3B
100
AcDbSymbolTableRecord
100
AcDbLayerTableRecord
  2
DEFPOINTS
 70
         0
 62
        -7
  6
CONTINUOUS
  0
ENDTAB
  0
TABLE
  2
STYLE
  5
3
100
AcDbSymbolTable
 70
        11
  0
STYLE
  5
17
100
AcDbSymbolTableRecord
100
AcDbTextStyleTableRecord
  2
STANDARD
 70
         0
 40
0.0
 41
1.0
 50
0.0
 71
         0
 42
0.0
  3
txt
  4

  0
STYLE
  5
46
100
AcDbSymbolTableRecord
100
AcDbTextStyleTableRecord
  2
BOX
 70
         0
 40
1.0
 41
1.0
 50
0.0
 71
         0
 42
0.2
  3
txt.shx
  4

  0
STYLE
  5
54
100
AcDbSymbolTableRecord
100
AcDbTextStyleTableRecord
  2
BOX
 70
         0
 40
1.0
 41
1.0
 50
0.0
 71
         0
 42
0.2
  3
txt.shx
  4

  0
STYLE
  5
70
100
AcDbSymbolTableRecord
100
AcDbTextStyleTableRecord
  2
BOX
 70
         0
 40
1.0
 41
1.0
 50
0.0
 71
         0
 42
0.2
  3
txt.shx
  4

  0
STYLE
  5
E1
100
AcDbSymbolTableRecord
100
AcDbTextStyleTableRecord
  2
BOX
 70
         0
 40
1.0
 41
1.0
 50
0.0
 71
         0
 42
0.2
  3
txt.shx
  4

  0
STYLE
  5
14E
100
AcDbSymbolTableRecord
100
AcDbTextStyleTableRecord
  2
BOX
 70
         0
 40
1.0
 41
1.0
 50
0.0
 71
         0
 42
0.2
  3
txt.shx
  4

  0
STYLE
  5
15C
100
AcDbSymbolTableRecord
100
AcDbTextStyleTableRecord
  2
BOX
 70
         0
 40
1.0
 41
1.0
 50
0.0
 71
         0
 42
0.2
  3
txt.shx
  4

  0
STYLE
  5
2BF
100
AcDbSymbolTableRecord
100
AcDbTextStyleTableRecord
  2
BOX
 70
         0
 40
1.0
 41
1.0
 50
0.0
 71
         0
 42
0.2
  3
txt.shx
  4

  0
STYLE
  5
2CD
100
AcDbSymbolTableRecord
100
AcDbTextStyleTableRecord
  2
BOX
 70
         0
 40
1.0
 41
1.0
 50
0.0
 71
         0
 42
0.2
  3
txt.shx
  4

  0
STYLE
  5
2DD
100
AcDbSymbolTableRecord
100
AcDbTextStyleTableRecord
  2
BOX
 70
         0
 40
1.0
 41
1.0
 50
0.0
 71
         0
 42
0.2
  3
txt.shx
  4

  0
STYLE
  5
480
100
AcDbSymbolTableRecord
100
AcDbTextStyleTableRecord
  2
BOX
 70
         0
 40
1.0
 41
1.0
 50
0.0
 71
         0
 42
0.2
  3
txt.shx
  4

  0
ENDTAB
  0
TABLE
  2
VIEW
  5
5
100
AcDbSymbolTable
 70
         0
  0
ENDTAB
  0
TABLE
  2
UCS
  5
6
100
AcDbSymbolTable
 70
         1
  0
UCS
  5
20
100
AcDbSymbolTableRecord
100
AcDbUCSTableRecord
  2
CK_VIEW_1
 70
         0
 10
0.0
 20
0.0
 30
1.0
 11
1.0
 21
0.0
 31
0.0
 12
0.0
 22
1.0
 32
0.0
  0
ENDTAB
  0
TABLE
  2
APPID
  5
8
100
AcDbSymbolTable
 70
         1
  0
APPID
  5
16
100
AcDbSymbolTableRecord
100
AcDbRegAppTableRecord
  2
ACAD
 70
         0
  0
ENDTAB
  0
TABLE
  2
DIMSTYLE
  5
9
100
AcDbSymbolTable
 70
         2
  0
DIMSTYLE
105
18
100
AcDbSymbolTableRecord
100
AcDbDimStyleTableRecord
  2
STANDARD
 70
         0
  3

  4

  5

  6

  7

 40
1.0
 41
0.18
 42
0.0625
 43
0.38
 44
0.18
 45
0.0
 46
0.0
 47
0.0
 48
0.0
 71
         0
 72
         0
 73
         1
 74
         1
 75
         0
 76
         0
 77
         0
 78
         0
140
0.18
141
0.09
142
0.0
143
25.4
144
1.0
145
0.0
146
1.0
147
0.09
170
         0
171
         2
172
         0
173
         0
174
         0
175
         0
176
         0
177
         0
178
         0
270
         2
271
         4
272
         4
273
         2
274
         2
275
         0
280
         0
281
         0
282
         0
283
         1
284
         0
285
         0
286
         0
287
         0
288
         0
340
17
  0
DIMSTYLE
105
37
100
AcDbSymbolTableRecord
100
AcDbDimStyleTableRecord
  2
DIMSTYLE1
 70
         0
  3

  4

  5

  6

  7

 40
1.0
 41
2.7
 42
0.0625
 43
0.38
 44
2.7
 45
0.0
 46
0.0
 47
0.0
 48
0.0
 71
         0
 72
         0
 73
         1
 74
         1
 75
         0
 76
         0
 77
         0
 78
         0
140
2.7
141
0.09
142
0.0
143
25.4
144
1.0
145
0.0
146
1.0
147
0.09
170
         0
171
         2
172
         0
173
         0
174
         0
175
         0
176
         0
177
         0
178
         0
270
         2
271
         4
272
         4
273
         2
274
         2
275
         0
280
         0
281
         0
282
         0
283
         1
284
         0
285
         0
286
         0
287
         0
288
         0
340
17
  0
ENDTAB
  0
TABLE
  2
BLOCK_RECORD
  5
1
100
AcDbSymbolTable
 70
        10
  0
BLOCK_RECORD
  5
A
100
AcDbSymbolTableRecord
100
AcDbBlockTableRecord
  2
*MODEL_SPACE
  0
BLOCK_RECORD
  5
B
100
AcDbSymbolTableRecord
100
AcDbBlockTableRecord
  2
*PAPER_SPACE
  0
BLOCK_RECORD
  5
38
100
AcDbSymbolTableRecord
100
AcDbBlockTableRecord
  2
*D0
  0
BLOCK_RECORD
  5
49
100
AcDbSymbolTableRecord
100
AcDbBlockTableRecord
  2
*D1
  0
BLOCK_RECORD
  5
63
100
AcDbSymbolTableRecord
100
AcDbBlockTableRecord
  2
*D2
  0
BLOCK_RECORD
  5
79
100
AcDbSymbolTableRecord
100
AcDbBlockTableRecord
  2
*X3
  0
BLOCK_RECORD
  5
D6
100
AcDbSymbolTableRecord
100
AcDbBlockTableRecord
  2
*D4
  0
BLOCK_RECORD
  5
143
100
AcDbSymbolTableRecord
100
AcDbBlockTableRecord
  2
*D5
  0
BLOCK_RECORD
  5
151
100
AcDbSymbolTableRecord
100
AcDbBlockTableRecord
  2
*D6
  0
BLOCK_RECORD
  5
2B4
100
AcDbSymbolTableRecord
100
AcDbBlockTableRecord
  2
*D7
  0
BLOCK_RECORD
  5
2C2
100
AcDbSymbolTableRecord
100
AcDbBlockTableRecord
  2
*D8
  0
BLOCK_RECORD
  5
2D0
100
AcDbSymbolTableRecord
100
AcDbBlockTableRecord
  2
*D9
  0
ENDTAB
  0
ENDSEC
  0
SECTION
  2
BLOCKS
  0
BLOCK
  5
D
100
AcDbEntity
  8
0
100
AcDbBlockBegin
  2
*MODEL_SPACE
 70
         0
 10
0.0
 20
0.0
 30
0.0
  3
*MODEL_SPACE
  1

  0
ENDBLK
  5
E
100
AcDbEntity
  8
0
100
AcDbBlockEnd
  0
BLOCK
  5
F
100
AcDbEntity
 67
         1
  8
0
100
AcDbBlockBegin
  2
*PAPER_SPACE
 70
         0
 10
0.0
 20
0.0
 30
0.0
  3
*PAPER_SPACE
  1

  0
ENDBLK
  5
10
100
AcDbEntity
 67
         1
  8
0
100
AcDbBlockEnd
  0
BLOCK
  5
39
100
AcDbEntity
  8
0
100
AcDbBlockBegin
  2
*D0
 70
        65
 10
0.0
 20
0.0
 30
0.0
  3
*D0
  1

  0
POINT
  5
3C
100
AcDbEntity
  8
DEFPOINTS
  6
CONTINUOUS
 62
         0
100
AcDbPoint
 10
1516.0153574178
 20
-298.3440686104
 30
0.0
  0
POINT
  5
3D
100
AcDbEntity
  8
DEFPOINTS
  6
CONTINUOUS
 62
         0
100
AcDbPoint
 10
1499.472859385
 20
-298.3440686104
 30
0.0
  0
POINT
  5
3E
100
AcDbEntity
  8
DEFPOINTS
  6
CONTINUOUS
 62
         0
100
AcDbPoint
 10
1499.472859385
 20
-308.3440686104
 30
0.0
  0
LINE
  5
3F
100
AcDbEntity
  8
L1_120
  6
CONTINUOUS
 62
         4
100
AcDbLine
 10
1500.822859385
 20
-298.3440686104
 30
0.0
 11
1516.6903574178
 21
-298.3440686104
 31
0.0
  0
LINE
  5
40
100
AcDbEntity
  8
L1_120
  6
CONTINUOUS
 62
         4
100
AcDbLine
 10
1500.822859385
 20
-308.3440686104
 30
0.0
 11
1516.6903574178
 21
-308.3440686104
 31
0.0
  0
LINE
  5
41
100
AcDbEntity
  8
L1_120
  6
CONTINUOUS
 62
         4
100
AcDbLine
 10
1516.0153574178
 20
-298.3440686104
 30
0.0
 11
1516.0153574178
 21
-271.6148583739
 31
0.0
  0
SOLID
  5
42
100
AcDbEntity
  8
L1_120
  6
CONTINUOUS
 62
         4
100
AcDbTrace
 10
1516.0153574178
 20
-298.3440686104
 30
0.0
 11
1515.6103574178
 21
-295.6440686104
 31
0.0
 12
1516.4203574178
 22
-295.6440686104
 32
0.0
 13
1516.0153574178
 23
-298.3440686104
 33
0.0
  0
LINE
  5
43
100
AcDbEntity
  8
L1_120
  6
CONTINUOUS
 62
         4
100
AcDbLine
 10
1516.0153574178
 20
-308.3440686104
 30
0.0
 11
1516.0153574178
 21
-313.7440686104
 31
0.0
  0
SOLID
  5
44
100
AcDbEntity
  8
L1_120
  6
CONTINUOUS
 62
         4
100
AcDbTrace
 10
1516.0153574178
 20
-308.3440686104
 30
0.0
 11
1516.4203574178
 21
-311.0440686104
 31
0.0
 12
1515.6103574178
 22
-311.0440686104
 32
0.0
 13
1516.0153574178
 23
-308.3440686104
 33
0.0
  0
LINE
  5
45
100
AcDbEntity
  8
L1_120
  6
CONTINUOUS
 62
         4
100
AcDbLine
 10
1516.0153574178
 20
-298.3440686104
 30
0.0
 11
1516.0153574178
 21
-308.3440686104
 31
0.0
  0
TEXT
  5
47
100
AcDbEntity
  8
L1_120
  6
CONTINUOUS
 62
         4
100
AcDbText
 10
1513.9903574178
 20
-294.5648583739
 30
0.0
 40
2.7
  1
M12xP1.0
 50
90.0
  7
BOX
100
AcDbText
  0
ENDBLK
  5
48
100
AcDbEntity
  8
0
  6
CONTINUOUS
100
AcDbBlockEnd
  0
BLOCK
  5
4A
100
AcDbEntity
  8
0
100
AcDbBlockBegin
  2
*D1
 70
        65
 10
0.0
 20
0.0
 30
0.0
  3
*D1
  1

  0
POINT
  5
4C
100
AcDbEntity
  8
DEFPOINTS
  6
CONTINUOUS
 62
         0
100
AcDbPoint
 10
1480.972859385
 20
-320.5255780666
 30
0.0
  0
POINT
  5
4D
100
AcDbEntity
  8
DEFPOINTS
  6
CONTINUOUS
 62
         0
100
AcDbPoint
 10
1480.972859385
 20
-306.9584279643
 30
0.0
  0
POINT
  5
4E
100
AcDbEntity
  8
DEFPOINTS
  6
CONTINUOUS
 62
         0
100
AcDbPoint
 10
1500.972859385
 20
-306.8440686104
 30
0.0
  0
LINE
  5
4F
100
AcDbEntity
  8
L1_120
  6
CONTINUOUS
 62
         4
100
AcDbLine
 10
1480.972859385
 20
-308.3084279643
 30
0.0
 11
1480.972859385
 21
-321.2005780666
 31
0.0
  0
LINE
  5
50
100
AcDbEntity
  8
L1_120
  6
CONTINUOUS
 62
         4
100
AcDbLine
 10
1500.972859385
 20
-308.1940686104
 30
0.0
 11
1500.972859385
 21
-321.2005780666
 31
0.0
  0
LINE
  5
51
100
AcDbEntity
  8
L1_120
  6
CONTINUOUS
 62
         4
100
AcDbLine
 10
1480.972859385
 20
-320.5255780666
 30
0.0
 11
1500.972859385
 21
-320.5255780666
 31
0.0
  0
SOLID
  5
52
100
AcDbEntity
  8
L1_120
  6
CONTINUOUS
 62
         4
100
AcDbTrace
 10
1480.972859385
 20
-320.5255780666
 30
0.0
 11
1483.672859385
 21
-320.1205780666
 31
0.0
 12
1483.672859385
 22
-320.9305780666
 32
0.0
 13
1480.972859385
 23
-320.5255780666
 33
0.0
  0
SOLID
  5
53
100
AcDbEntity
  8
L1_120
  6
CONTINUOUS
 62
         4
100
AcDbTrace
 10
1500.972859385
 20
-320.5255780666
 30
0.0
 11
1498.272859385
 21
-320.9305780666
 31
0.0
 12
1498.272859385
 22
-320.1205780666
 32
0.0
 13
1500.972859385
 23
-320.5255780666
 33
0.0
  0
TEXT
  5
55
100
AcDbEntity
  8
L1_120
  6
CONTINUOUS
 62
         4
100
AcDbText
 10
1487.7898661781
 20
-318.5005780666
 30
0.0
 40
2.7
  1
20
  7
BOX
100
AcDbText
  0
ENDBLK
  5
56
100
AcDbEntity
  8
0
  6
CONTINUOUS
100
AcDbBlockEnd
  0
BLOCK
  5
64
100
AcDbEntity
  8
0
100
AcDbBlockBegin
  2
*D2
 70
        65
 10
0.0
 20
0.0
 30
0.0
  3
*D2
  1

  0
POINT
  5
66
100
AcDbEntity
  8
DEFPOINTS
  6
CONTINUOUS
 62
         0
100
AcDbPoint
 10
1457.8212931532
 20
-293.2540208065
 30
0.0
  0
POINT
  5
67
100
AcDbEntity
  8
DEFPOINTS
  6
CONTINUOUS
 62
         0
100
AcDbPoint
 10
1457.8212931532
 20
-301.9006929374
 30
0.0
  0
POINT
  5
68
100
AcDbEntity
  8
DEFPOINTS
  6
CONTINUOUS
 62
         0
100
AcDbPoint
 10
1462.8212931532
 20
-301.9006929374
 30
0.0
  0
LINE
  5
69
100
AcDbEntity
  8
L1_120
  6
CONTINUOUS
 62
         4
100
AcDbLine
 10
1457.8212931532
 20
-300.5506929374
 30
0.0
 11
1457.8212931532
 21
-292.5790208065
 31
0.0
  0
LINE
  5
6A
100
AcDbEntity
  8
L1_120
  6
CONTINUOUS
 62
         4
100
AcDbLine
 10
1462.8212931532
 20
-300.5506929374
 30
0.0
 11
1462.8212931532
 21
-292.5790208065
 31
0.0
  0
LINE
  5
6B
100
AcDbEntity
  8
L1_120
  6
CONTINUOUS
 62
         4
100
AcDbLine
 10
1457.8212931532
 20
-293.2540208065
 30
0.0
 11
1452.4212931532
 21
-293.2540208065
 31
0.0
  0
SOLID
  5
6C
100
AcDbEntity
  8
L1_120
  6
CONTINUOUS
 62
         4
100
AcDbTrace
 10
1457.8212931532
 20
-293.2540208065
 30
0.0
 11
1455.1212931532
 21
-293.6590208065
 31
0.0
 12
1455.1212931532
 22
-292.8490208065
 32
0.0
 13
1457.8212931532
 23
-293.2540208065
 33
0.0
  0
LINE
  5
6D
100
AcDbEntity
  8
L1_120
  6
CONTINUOUS
 62
         4
100
AcDbLine
 10
1462.8212931532
 20
-293.2540208065
 30
0.0
 11
1468.2212931532
 21
-293.2540208065
 31
0.0
  0
SOLID
  5
6E
100
AcDbEntity
  8
L1_120
  6
CONTINUOUS
 62
         4
100
AcDbTrace
 10
1462.8212931532
 20
-293.2540208065
 30
0.0
 11
1465.5212931532
 21
-292.8490208065
 31
0.0
 12
1465.5212931532
 22
-293.6590208065
 32
0.0
 13
1462.8212931532
 23
-293.2540208065
 33
0.0
  0
LINE
  5
6F
100
AcDbEntity
  8
L1_120
  6
CONTINUOUS
 62
         4
100
AcDbLine
 10
1457.8212931532
 20
-293.2540208065
 30
0.0
 11
1462.8212931532
 21
-293.2540208065
 31
0.0
  0
TEXT
  5
71
100
AcDbEntity
  8
L1_120
  6
CONTINUOUS
 62
         4
100
AcDbText
 10
1459.4984301434
 20
-291.2290208065
 30
0.0
 40
2.7
  1
6
  7
BOX
100
AcDbText
  0
ENDBLK
  5
72
100
AcDbEntity
  8
0
  6
CONTINUOUS
100
AcDbBlockEnd
  0
BLOCK
  5
7A
100
AcDbEntity
  8
0
100
AcDbBlockBegin
  2
*X3
 70
        65
 10
0.0
 20
0.0
 30
0.0
  3
*X3
  1

  0
LINE
  5
7B
100
AcDbEntity
  8
L1_120
  6
CONTINUOUS
 62
         4
100
AcDbLine
 10
1462.7698410079
 20
-350.4070786588
 30
0.0
 11
1466.4965327398
 21
-346.6803869269
 31
0.0
  0
LINE
  5
7C
100
AcDbEntity
  8
L1_120
  6
CONTINUOUS
 62
         4
100
AcDbLine
 10
1458.1647736605
 20
-350.7695053191
 30
0.0
 11
1462.8371569739
 21
-346.0971220057
 31
0.0
  0
LINE
  5
7D
100
AcDbEntity
  8
L1_120
  6
CONTINUOUS
 62
         4
100
AcDbLine
 10
1453.5597063131
 20
-351.1319319794
 30
0.0
 11
1458.5945162868
 21
-346.0971220057
 31
0.0
  0
LINE
  5
7E
100
AcDbEntity
  8
L1_120
  6
CONTINUOUS
 62
         4
100
AcDbLine
 10
1448.9546389657
 20
-351.4943586397
 30
0.0
 11
1454.3518755997
 21
-346.0971220057
 31
0.0
  0
LINE
  5
7F
100
AcDbEntity
  8
L1_120
  6
CONTINUOUS
 62
         4
100
AcDbLine
 10
1444.3495716183
 20
-351.8567853
 30
0.0
 11
1450.1092349126
 21
-346.0971220057
 31
0.0
  0
LINE
  5
80
100
AcDbEntity
  8
L1_120
  6
CONTINUOUS
 62
         4
100
AcDbLine
 10
1466.1194665648
 20
-330.0868903535
 30
0.0
 11
1466.4342731045
 21
-329.7720838138
 31
0.0
  0
LINE
  5
81
100
AcDbEntity
  8
L1_120
  6
CONTINUOUS
 62
         4
100
AcDbLine
 10
1439.7445042709
 20
-352.2192119602
 30
0.0
 11
1445.8665942254
 21
-346.0971220057
 31
0.0
  0
LINE
  5
82
100
AcDbEntity
  8
L1_120
  6
CONTINUOUS
 62
         4
100
AcDbLine
 10
1461.7235942254
 20
-330.2401220057
 30
0.0
 11
1465.7883306778
 21
-326.1753855534
 31
0.0
  0
LINE
  5
83
100
AcDbEntity
  8
L1_120
  6
CONTINUOUS
 62
         4
100
AcDbLine
 10
1435.1394369235
 20
-352.5816386205
 30
0.0
 11
1441.6239535383
 21
-346.0971220057
 31
0.0
  0
LINE
  5
84
100
AcDbEntity
  8
L1_120
  6
CONTINUOUS
 62
         4
100
AcDbLine
 10
1457.4809535383
 20
-330.2401220057
 30
0.0
 11
1461.8623326483
 21
-325.8587428957
 31
0.0
  0
LINE
  5
85
100
AcDbEntity
  8
L1_120
  6
CONTINUOUS
 62
         4
100
AcDbLine
 10
1430.5343695761
 20
-352.9440652808
 30
0.0
 11
1437.3813128512
 21
-346.0971220057
 31
0.0
  0
LINE
  5
86
100
AcDbEntity
  8
L1_120
  6
CONTINUOUS
 62
         4
100
AcDbLine
 10
1453.2383128512
 20
-330.2401220057
 30
0.0
 11
1457.9292335716
 21
-325.5492012853
 31
0.0
  0
LINE
  5
87
100
AcDbEntity
  8
L1_120
  6
CONTINUOUS
 62
         4
100
AcDbLine
 10
1425.9293022287
 20
-353.3064919411
 30
0.0
 11
1433.1386721641
 21
-346.0971220057
 31
0.0
  0
LINE
  5
88
100
AcDbEntity
  8
L1_120
  6
CONTINUOUS
 62
         4
100
AcDbLine
 10
1448.9956721641
 20
-330.2401220057
 30
0.0
 11
1453.9961344949
 21
-325.2396596749
 31
0.0
  0
LINE
  5
89
100
AcDbEntity
  8
L1_120
  6
CONTINUOUS
 62
         4
100
AcDbLine
 10
1405.1920956278
 20
-369.8010578548
 30
0.0
 11
1405.5349406059
 21
-369.4582128768
 31
0.0
  0
LINE
  5
8A
100
AcDbEntity
  8
L1_120
  6
CONTINUOUS
 62
         4
100
AcDbLine
 10
1421.3242348813
 20
-353.6689186014
 30
0.0
 11
1428.896031477
 21
-346.0971220057
 31
0.0
  0
LINE
  5
8B
100
AcDbEntity
  8
L1_120
  6
CONTINUOUS
 62
         4
100
AcDbLine
 10
1444.753031477
 20
-330.2401220057
 30
0.0
 11
1450.0630354183
 21
-324.9301180644
 31
0.0
  0
LINE
  5
8C
100
AcDbEntity
  8
L1_120
  6
CONTINUOUS
 62
         4
100
AcDbLine
 10
1401.0648451413
 20
-369.6856676543
 30
0.0
 11
1405.6775047567
 21
-365.0730080388
 31
0.0
  0
LINE
  5
8D
100
AcDbEntity
  8
L1_120
  6
CONTINUOUS
 62
         4
100
AcDbLine
 10
1416.7191675339
 20
-354.0313452617
 30
0.0
 11
1424.0818907898
 21
-346.6686220057
 31
0.0
  0
LINE
  5
8E
100
AcDbEntity
  8
L1_120
  6
CONTINUOUS
 62
         4
100
AcDbLine
 10
1440.5103907898
 20
-330.2401220057
 30
0.0
 11
1446.1299363416
 21
-324.620576454
 31
0.0
  0
LINE
  5
8F
100
AcDbEntity
  8
L1_120
  6
CONTINUOUS
 62
         4
100
AcDbLine
 10
1399.5281578974
 20
-366.979714211
 30
0.0
 11
1405.6775047567
 21
-360.8303673517
 31
0.0
  0
LINE
  5
90
100
AcDbEntity
  8
L1_120
  6
CONTINUOUS
 62
         4
100
AcDbLine
 10
1415.8973237014
 20
-350.610548407
 30
0.0
 11
1419.8392501027
 21
-346.6686220057
 31
0.0
  0
LINE
  5
91
100
AcDbEntity
  8
L1_120
  6
CONTINUOUS
 62
         4
100
AcDbLine
 10
1436.2677501027
 20
-330.2401220057
 30
0.0
 11
1442.1968372649
 21
-324.3110348435
 31
0.0
  0
LINE
  5
92
100
AcDbEntity
  8
L1_120
  6
CONTINUOUS
 62
         4
100
AcDbLine
 10
1392.3216094154
 20
-369.9436220059
 30
0.0
 11
1405.7499605922
 21
-356.5152708291
 31
0.0
  0
LINE
  5
93
100
AcDbEntity
  8
L1_120
  6
CONTINUOUS
 62
         4
100
AcDbLine
 10
1408.0221535801
 20
-354.2430778412
 30
0.0
 11
1410.7073237014
 21
-351.5579077199
 31
0.0
  0
LINE
  5
94
100
AcDbEntity
  8
L1_120
  6
CONTINUOUS
 62
         4
100
AcDbLine
 10
1415.3884232362
 20
-346.8768081851
 30
0.0
 11
1416.5875047567
 21
-345.6777266646
 31
0.0
  0
LINE
  5
95
100
AcDbEntity
  8
L1_120
  6
CONTINUOUS
 62
         4
100
AcDbLine
 10
1432.0251094156
 20
-330.2401220057
 30
0.0
 11
1438.2637381882
 21
-324.0014932331
 31
0.0
  0
LINE
  5
96
100
AcDbEntity
  8
L1_120
  6
CONTINUOUS
 62
         4
100
AcDbLine
 10
1389.7775047567
 20
-368.2450859775
 30
0.0
 11
1410.7073237014
 21
-347.3152670328
 31
0.0
  0
LINE
  5
97
100
AcDbEntity
  8
L1_120
  6
CONTINUOUS
 62
         4
100
AcDbLine
 10
1411.04955751
 20
-346.9730332242
 30
0.0
 11
1414.3539687285
 21
-343.6686220057
 31
0.0
  0
LINE
  5
98
100
AcDbEntity
  8
L1_120
  6
CONTINUOUS
 62
         4
100
AcDbLine
 10
1427.7824687285
 20
-330.2401220057
 30
0.0
 11
1434.3306391116
 21
-323.6919516226
 31
0.0
  0
LINE
  5
99
100
AcDbEntity
  8
L1_120
  6
CONTINUOUS
 62
         4
100
AcDbLine
 10
1389.7775047567
 20
-364.0024452904
 30
0.0
 11
1410.1113280414
 21
-343.6686220057
 31
0.0
  0
LINE
  5
9A
100
AcDbEntity
  8
L1_120
  6
CONTINUOUS
 62
         4
100
AcDbLine
 10
1424.1113280414
 20
-329.6686220057
 30
0.0
 11
1430.3975400349
 21
-323.3824100122
 31
0.0
  0
LINE
  5
9B
100
AcDbEntity
  8
L1_120
  6
CONTINUOUS
 62
         4
100
AcDbLine
 10
1388.9686873542
 20
-360.5686220057
 30
0.0
 11
1405.8686873542
 21
-343.6686220057
 31
0.0
  0
LINE
  5
9C
100
AcDbEntity
  8
L1_120
  6
CONTINUOUS
 62
         4
100
AcDbLine
 10
1419.8686873542
 20
-329.6686220057
 30
0.0
 11
1426.4644409582
 21
-323.0728684017
 31
0.0
  0
LINE
  5
9D
100
AcDbEntity
  8
L1_120
  6
CONTINUOUS
 62
         4
100
AcDbLine
 10
1385.1144140603
 20
-360.1802546125
 30
0.0
 11
1401.6260466671
 21
-343.6686220057
 31
0.0
  0
LINE
  5
9E
100
AcDbEntity
  8
L1_120
  6
CONTINUOUS
 62
         4
100
AcDbLine
 10
1412.6260466671
 20
-332.6686220057
 30
0.0
 11
1422.5313418815
 21
-322.7633267913
 31
0.0
  0
LINE
  5
9F
100
AcDbEntity
  8
L1_120
  6
CONTINUOUS
 62
         4
100
AcDbLine
 10
1381.4117458243
 20
-359.6402821614
 30
0.0
 11
1397.38340598
 21
-343.6686220057
 31
0.0
  0
LINE
  5
A0
100
AcDbEntity
  8
L1_120
  6
CONTINUOUS
 62
         4
100
AcDbLine
 10
1408.38340598
 20
-332.6686220057
 30
0.0
 11
1411.4541979383
 21
-329.5978300474
 31
0.0
  0
LINE
  5
A1
100
AcDbEntity
  8
L1_120
  6
CONTINUOUS
 62
         4
100
AcDbLine
 10
1415.8973237014
 20
-325.1547042843
 30
0.0
 11
1418.5982428049
 21
-322.4537851809
 31
0.0
  0
LINE
  5
A2
100
AcDbEntity
  8
L1_120
  6
CONTINUOUS
 62
         4
100
AcDbLine
 10
1377.7090775883
 20
-359.1003097103
 30
0.0
 11
1391.6407652929
 21
-345.1686220057
 31
0.0
  0
LINE
  5
A3
100
AcDbEntity
  8
L1_120
  6
CONTINUOUS
 62
         4
100
AcDbLine
 10
1404.1407652929
 20
-332.6686220057
 30
0.0
 11
1410.7073237014
 21
-326.1020635972
 31
0.0
  0
LINE
  5
A4
100
AcDbEntity
  8
L1_120
  6
CONTINUOUS
 62
         4
100
AcDbLine
 10
1374.0064093523
 20
-358.5603372592
 30
0.0
 11
1387.3981246058
 21
-345.1686220057
 31
0.0
  0
LINE
  5
A5
100
AcDbEntity
  8
L1_120
  6
CONTINUOUS
 62
         4
100
AcDbLine
 10
1399.8981246058
 20
-332.6686220057
 30
0.0
 11
1410.4001246058
 21
-322.1666220057
 31
0.0
  0
LINE
  5
A6
100
AcDbEntity
  8
L1_120
  6
CONTINUOUS
 62
         4
100
AcDbLine
 10
1370.3037411162
 20
-358.0203648081
 30
0.0
 11
1383.1554839186
 21
-345.1686220057
 31
0.0
  0
LINE
  5
A7
100
AcDbEntity
  8
L1_120
  6
CONTINUOUS
 62
         4
100
AcDbLine
 10
1396.2463614531
 20
-332.0777444712
 30
0.0
 11
1406.8097929829
 21
-321.5143129415
 31
0.0
  0
LINE
  5
A8
100
AcDbEntity
  8
L1_120
  6
CONTINUOUS
 62
         4
100
AcDbLine
 10
1366.6010728802
 20
-357.4803923571
 30
0.0
 11
1378.9128432315
 21
-345.1686220057
 31
0.0
  0
LINE
  5
A9
100
AcDbEntity
  8
L1_120
  6
CONTINUOUS
 62
         4
100
AcDbLine
 10
1392.9128432315
 20
-331.1686220057
 30
0.0
 11
1405.6775047567
 21
-318.4039604805
 31
0.0
  0
LINE
  5
AA
100
AcDbEntity
  8
L1_120
  6
CONTINUOUS
 62
         4
100
AcDbLine
 10
1362.8984046442
 20
-356.940419906
 30
0.0
 11
1374.6702025444
 21
-345.1686220057
 31
0.0
  0
LINE
  5
AB
100
AcDbEntity
  8
L1_120
  6
CONTINUOUS
 62
         4
100
AcDbLine
 10
1359.1957364081
 20
-356.4004474549
 30
0.0
 11
1370.4275618573
 21
-345.1686220057
 31
0.0
  0
LINE
  5
AC
100
AcDbEntity
  8
L1_120
  6
CONTINUOUS
 62
         4
100
AcDbLine
 10
1384.4275618573
 20
-331.1686220057
 30
0.0
 11
1397.2094086538
 21
-318.3867752092
 31
0.0
  0
LINE
  5
AD
100
AcDbEntity
  8
L1_120
  6
CONTINUOUS
 62
         4
100
AcDbLine
 10
1355.4930681721
 20
-355.8604750038
 30
0.0
 11
1366.1849211702
 21
-345.1686220057
 31
0.0
  0
LINE
  5
AE
100
AcDbEntity
  8
L1_120
  6
CONTINUOUS
 62
         4
100
AcDbLine
 10
1380.1849211702
 20
-331.1686220057
 30
0.0
 11
1394.8217445554
 21
-316.5317986205
 31
0.0
  0
LINE
  5
AF
100
AcDbEntity
  8
L1_120
  6
CONTINUOUS
 62
         4
100
AcDbLine
 10
1396.9757896846
 20
-314.3777534913
 30
0.0
 11
1404.9280309831
 21
-306.4255121928
 31
0.0
  0
LINE
  5
B0
100
AcDbEntity
  8
L1_120
  6
CONTINUOUS
 62
         4
100
AcDbLine
 10
1351.7903999361
 20
-355.3205025527
 30
0.0
 11
1361.942280483
 21
-345.1686220057
 31
0.0
  0
LINE
  5
B1
100
AcDbEntity
  8
L1_120
  6
CONTINUOUS
 62
         4
100
AcDbLine
 10
1375.9422804831
 20
-331.1686220057
 30
0.0
 11
1392.3263782006
 21
-314.7845242882
 31
0.0
  0
LINE
  5
B2
100
AcDbEntity
  8
L1_120
  6
CONTINUOUS
 62
         4
100
AcDbLine
 10
1394.4804233298
 20
-312.630479159
 30
0.0
 11
1397.0672804832
 21
-310.0436220055
 31
0.0
  0
LINE
  5
B3
100
AcDbEntity
  8
L1_120
  6
CONTINUOUS
 62
         4
100
AcDbLine
 10
1348.0877317
 20
-354.7805301016
 30
0.0
 11
1357.6996397959
 21
-345.1686220057
 31
0.0
  0
LINE
  5
B4
100
AcDbEntity
  8
L1_120
  6
CONTINUOUS
 62
         4
100
AcDbLine
 10
1371.6996397959
 20
-331.1686220057
 30
0.0
 11
1386.9839067539
 21
-315.8843550478
 31
0.0
  0
LINE
  5
B5
100
AcDbEntity
  8
L1_120
  6
CONTINUOUS
 62
         4
100
AcDbLine
 10
1391.9850569749
 20
-310.8832048267
 30
0.0
 11
1394.9953200256
 21
-307.8729417761
 31
0.0
  0
LINE
  5
B6
100
AcDbEntity
  8
L1_120
  6
CONTINUOUS
 62
         4
100
AcDbLine
 10
1344.385063464
 20
-354.2405576505
 30
0.0
 11
1353.4569991088
 21
-345.1686220057
 31
0.0
  0
LINE
  5
B7
100
AcDbEntity
  8
L1_120
  6
CONTINUOUS
 62
         4
100
AcDbLine
 10
1367.4569991088
 20
-331.1686220057
 30
0.0
 11
1382.0169127787
 21
-316.6087083358
 31
0.0
  0
LINE
  5
B8
100
AcDbEntity
  8
L1_120
  6
CONTINUOUS
 62
         4
100
AcDbLine
 10
1389.8845988937
 20
-308.7410222208
 30
0.0
 11
1392.231999109
 21
-306.3936220055
 31
0.0
  0
LINE
  5
B9
100
AcDbEntity
  8
L1_120
  6
CONTINUOUS
 62
         4
100
AcDbLine
 10
1340.682395228
 20
-353.7005851994
 30
0.0
 11
1349.2143584217
 21
-345.1686220057
 31
0.0
  0
LINE
  5
BA
100
AcDbEntity
  8
L1_120
  6
CONTINUOUS
 62
         4
100
AcDbLine
 10
1363.2143584217
 20
-331.1686220057
 30
0.0
 11
1377.0499188035
 21
-317.3330616239
 31
0.0
  0
LINE
  5
BB
100
AcDbEntity
  8
L1_120
  6
CONTINUOUS
 62
         4
100
AcDbLine
 10
1336.9797269919
 20
-353.1606127484
 30
0.0
 11
1344.9717177346
 21
-345.1686220057
 31
0.0
  0
LINE
  5
BC
100
AcDbEntity
  8
L1_120
  6
CONTINUOUS
 62
         4
100
AcDbLine
 10
1358.9717177346
 20
-331.1686220057
 30
0.0
 11
1372.0829248284
 21
-318.0574149119
 31
0.0
  0
LINE
  5
BD
100
AcDbEntity
  8
L1_120
  6
CONTINUOUS
 62
         4
100
AcDbLine
 10
1333.2770587559
 20
-352.6206402973
 30
0.0
 11
1340.7290770475
 21
-345.1686220057
 31
0.0
  0
LINE
  5
BE
100
AcDbEntity
  8
L1_120
  6
CONTINUOUS
 62
         4
100
AcDbLine
 10
1354.7290770475
 20
-331.1686220057
 30
0.0
 11
1367.1159308532
 21
-318.7817682
 31
0.0
  0
LINE
  5
BF
100
AcDbEntity
  8
L1_120
  6
CONTINUOUS
 62
         4
100
AcDbLine
 10
1329.5743905199
 20
-352.0806678462
 30
0.0
 11
1336.4864363603
 21
-345.1686220057
 31
0.0
  0
LINE
  5
C0
100
AcDbEntity
  8
L1_120
  6
CONTINUOUS
 62
         4
100
AcDbLine
 10
1350.4864363603
 20
-331.1686220057
 30
0.0
 11
1362.148936878
 21
-319.506121488
 31
0.0
  0
LINE
  5
C1
100
AcDbEntity
  8
L1_120
  6
CONTINUOUS
 62
         4
100
AcDbLine
 10
1325.8717222838
 20
-351.5406953951
 30
0.0
 11
1332.2437956732
 21
-345.1686220057
 31
0.0
  0
LINE
  5
C2
100
AcDbEntity
  8
L1_120
  6
CONTINUOUS
 62
         4
100
AcDbLine
 10
1346.2437956732
 20
-331.1686220057
 30
0.0
 11
1357.1819429029
 21
-320.2304747761
 31
0.0
  0
LINE
  5
C3
100
AcDbEntity
  8
L1_120
  6
CONTINUOUS
 62
         4
100
AcDbLine
 10
1322.1690540478
 20
-351.000722944
 30
0.0
 11
1328.0011549861
 21
-345.1686220057
 31
0.0
  0
LINE
  5
C4
100
AcDbEntity
  8
L1_120
  6
CONTINUOUS
 62
         4
100
AcDbLine
 10
1342.0011549861
 20
-331.1686220057
 30
0.0
 11
1352.2149489277
 21
-320.9548280641
 31
0.0
  0
LINE
  5
C5
100
AcDbEntity
  8
L1_120
  6
CONTINUOUS
 62
         4
100
AcDbLine
 10
1318.6773920146
 20
-350.2497442901
 30
0.0
 11
1322.508514299
 21
-346.4186220057
 31
0.0
  0
LINE
  5
C6
100
AcDbEntity
  8
L1_120
  6
CONTINUOUS
 62
         4
100
AcDbLine
 10
1337.758514299
 20
-331.1686220057
 30
0.0
 11
1347.2479549525
 21
-321.6791813522
 31
0.0
  0
LINE
  5
C7
100
AcDbEntity
  8
L1_120
  6
CONTINUOUS
 62
         4
100
AcDbLine
 10
1333.5158736119
 20
-331.1686220057
 30
0.0
 11
1342.2809609774
 21
-322.4035346402
 31
0.0
  0
LINE
  5
C8
100
AcDbEntity
  8
L1_120
  6
CONTINUOUS
 62
         4
100
AcDbLine
 10
1329.2732329247
 20
-331.1686220057
 30
0.0
 11
1337.3139670022
 21
-323.1278879283
 31
0.0
  0
LINE
  5
C9
100
AcDbEntity
  8
L1_120
  6
CONTINUOUS
 62
         4
100
AcDbLine
 10
1325.0305922376
 20
-331.1686220057
 30
0.0
 11
1332.346973027
 21
-323.8522412163
 31
0.0
  0
LINE
  5
CA
100
AcDbEntity
  8
L1_120
  6
CONTINUOUS
 62
         4
100
AcDbLine
 10
1321.9379515505
 20
-330.0186220057
 30
0.0
 11
1327.3799790519
 21
-324.5765945043
 31
0.0
  0
LINE
  5
CB
100
AcDbEntity
  8
L1_120
  6
CONTINUOUS
 62
         4
100
AcDbLine
 10
1318.3788868853
 20
-329.3350459838
 30
0.0
 11
1322.4129850767
 21
-325.3009477924
 31
0.0
  0
ENDBLK
  5
CC
100
AcDbEntity
  8
0
  6
CONTINUOUS
100
AcDbBlockEnd
  0
BLOCK
  5
D7
100
AcDbEntity
  8
0
100
AcDbBlockBegin
  2
*D4
 70
        65
 10
0.0
 20
0.0
 30
0.0
  3
*D4
  1

  0
POINT
  5
D9
100
AcDbEntity
  8
DEFPOINTS
  6
CONTINUOUS
 62
         0
100
AcDbPoint
 10
1416.5875047567
 20
-368.9454554978
 30
0.0
  0
POINT
  5
DA
100
AcDbEntity
  8
DEFPOINTS
  6
CONTINUOUS
 62
         0
100
AcDbPoint
 10
1416.5875047567
 20
-344.6686220057
 30
0.0
  0
POINT
  5
DB
100
AcDbEntity
  8
DEFPOINTS
  6
CONTINUOUS
 62
         0
100
AcDbPoint
 10
1466.5875047567
 20
-349.2578410224
 30
0.0
  0
LINE
  5
DC
100
AcDbEntity
  8
L1_120
  6
CONTINUOUS
 62
         4
100
AcDbLine
 10
1416.5875047567
 20
-346.0186220057
 30
0.0
 11
1416.5875047567
 21
-369.6204554978
 31
0.0
  0
LINE
  5
DD
100
AcDbEntity
  8
L1_120
  6
CONTINUOUS
 62
         4
100
AcDbLine
 10
1466.5875047567
 20
-350.6078410224
 30
0.0
 11
1466.5875047567
 21
-369.6204554978
 31
0.0
  0
LINE
  5
DE
100
AcDbEntity
  8
L1_120
  6
CONTINUOUS
 62
         4
100
AcDbLine
 10
1416.5875047567
 20
-368.9454554978
 30
0.0
 11
1466.5875047567
 21
-368.9454554978
 31
0.0
  0
SOLID
  5
DF
100
AcDbEntity
  8
L1_120
  6
CONTINUOUS
 62
         4
100
AcDbTrace
 10
1416.5875047567
 20
-368.9454554978
 30
0.0
 11
1419.2875047567
 21
-368.5404554978
 31
0.0
 12
1419.2875047567
 22
-369.3504554978
 32
0.0
 13
1416.5875047567
 23
-368.9454554978
 33
0.0
  0
SOLID
  5
E0
100
AcDbEntity
  8
L1_120
  6
CONTINUOUS
 62
         4
100
AcDbTrace
 10
1466.5875047567
 20
-368.9454554978
 30
0.0
 11
1463.8875047567
 21
-369.3504554978
 31
0.0
 12
1463.8875047567
 22
-368.5404554978
 32
0.0
 13
1466.5875047567
 23
-368.9454554978
 33
0.0
  0
TEXT
  5
E2
100
AcDbEntity
  8
L1_120
  6
CONTINUOUS
 62
         4
100
AcDbText
 10
1441.019551901
 20
-365.8134554978
 30
0.0
 40
2.7
  1
50
  7
BOX
100
AcDbText
  0
ENDBLK
  5
E3
100
AcDbEntity
  8
0
  6
CONTINUOUS
100
AcDbBlockEnd
  0
BLOCK
  5
144
100
AcDbEntity
  8
0
100
AcDbBlockBegin
  2
*D5
 70
        65
 10
0.0
 20
0.0
 30
0.0
  3
*D5
  1

  0
POINT
  5
146
100
AcDbEntity
  8
DEFPOINTS
  6
CONTINUOUS
 62
         0
100
AcDbPoint
 10
1386.5775047567
 20
-164.3252716143
 30
0.0
  0
POINT
  5
147
100
AcDbEntity
  8
DEFPOINTS
  6
CONTINUOUS
 62
         0
100
AcDbPoint
 10
1386.5775047567
 20
-202.8156455357
 30
0.0
  0
POINT
  5
148
100
AcDbEntity
  8
DEFPOINTS
  6
CONTINUOUS
 62
         0
100
AcDbPoint
 10
1466.5875047567
 20
-214.0270360273
 30
0.0
  0
LINE
  5
149
100
AcDbEntity
  8
L1_120
  6
CONTINUOUS
 62
         4
100
AcDbLine
 10
1386.5775047567
 20
-201.4656455357
 30
0.0
 11
1386.5775047567
 21
-163.6502716143
 31
0.0
  0
LINE
  5
14A
100
AcDbEntity
  8
L1_120
  6
CONTINUOUS
 62
         4
100
AcDbLine
 10
1466.5875047567
 20
-212.6770360273
 30
0.0
 11
1466.5875047567
 21
-163.6502716143
 31
0.0
  0
LINE
  5
14B
100
AcDbEntity
  8
L1_120
  6
CONTINUOUS
 62
         4
100
AcDbLine
 10
1386.5775047567
 20
-164.3252716143
 30
0.0
 11
1466.5875047567
 21
-164.3252716143
 31
0.0
  0
SOLID
  5
14C
100
AcDbEntity
  8
L1_120
  6
CONTINUOUS
 62
         4
100
AcDbTrace
 10
1386.5775047567
 20
-164.3252716143
 30
0.0
 11
1389.2775047567
 21
-163.9202716143
 31
0.0
 12
1389.2775047567
 22
-164.7302716143
 32
0.0
 13
1386.5775047567
 23
-164.3252716143
 33
0.0
  0
SOLID
  5
14D
100
AcDbEntity
  8
L1_120
  6
CONTINUOUS
 62
         4
100
AcDbTrace
 10
1466.5875047567
 20
-164.3252716143
 30
0.0
 11
1463.8875047567
 21
-164.7302716143
 31
0.0
 12
1463.8875047567
 22
-163.9202716143
 32
0.0
 13
1466.5875047567
 23
-164.3252716143
 33
0.0
  0
TEXT
  5
14F
100
AcDbEntity
  8
L1_120
  6
CONTINUOUS
 62
         4
100
AcDbText
 10
1426.9564561297
 20
-162.3002716143
 30
0.0
 40
2.7
  1
80
  7
BOX
100
AcDbText
  0
ENDBLK
  5
150
100
AcDbEntity
  8
0
  6
CONTINUOUS
100
AcDbBlockEnd
  0
BLOCK
  5
152
100
AcDbEntity
  8
0
100
AcDbBlockBegin
  2
*D6
 70
        65
 10
0.0
 20
0.0
 30
0.0
  3
*D6
  1

  0
POINT
  5
154
100
AcDbEntity
  8
DEFPOINTS
  6
CONTINUOUS
 62
         0
100
AcDbPoint
 10
1318.3275047567
 20
-151.3840885591
 30
0.0
  0
POINT
  5
155
100
AcDbEntity
  8
DEFPOINTS
  6
CONTINUOUS
 62
         0
100
AcDbPoint
 10
1318.3275047567
 20
-213.8064638192
 30
0.0
  0
POINT
  5
156
100
AcDbEntity
  8
DEFPOINTS
  6
CONTINUOUS
 62
         0
100
AcDbPoint
 10
1466.5875047567
 20
-214.0270360273
 30
0.0
  0
LINE
  5
157
100
AcDbEntity
  8
L1_120
  6
CONTINUOUS
 62
         4
100
AcDbLine
 10
1318.3275047567
 20
-212.4564638192
 30
0.0
 11
1318.3275047567
 21
-150.7090885591
 31
0.0
  0
LINE
  5
158
100
AcDbEntity
  8
L1_120
  6
CONTINUOUS
 62
         4
100
AcDbLine
 10
1466.5875047567
 20
-212.6770360273
 30
0.0
 11
1466.5875047567
 21
-150.7090885591
 31
0.0
  0
LINE
  5
159
100
AcDbEntity
  8
L1_120
  6
CONTINUOUS
 62
         4
100
AcDbLine
 10
1318.3275047567
 20
-151.3840885591
 30
0.0
 11
1466.5875047567
 21
-151.3840885591
 31
0.0
  0
SOLID
  5
15A
100
AcDbEntity
  8
L1_120
  6
CONTINUOUS
 62
         4
100
AcDbTrace
 10
1318.3275047567
 20
-151.3840885591
 30
0.0
 11
1321.0275047567
 21
-150.9790885591
 31
0.0
 12
1321.0275047567
 22
-151.7890885591
 32
0.0
 13
1318.3275047567
 23
-151.3840885591
 33
0.0
  0
SOLID
  5
15B
100
AcDbEntity
  8
L1_120
  6
CONTINUOUS
 62
         4
100
AcDbTrace
 10
1466.5875047567
 20
-151.3840885591
 30
0.0
 11
1463.8875047567
 21
-151.7890885591
 31
0.0
 12
1463.8875047567
 22
-150.9790885591
 32
0.0
 13
1466.5875047567
 23
-151.3840885591
 33
0.0
  0
TEXT
  5
15D
100
AcDbEntity
  8
L1_120
  6
CONTINUOUS
 62
         4
100
AcDbText
 10
1387.0597094705
 20
-149.3590885591
 30
0.0
 40
2.7
  1
148.26
  7
BOX
100
AcDbText
  0
ENDBLK
  5
15E
100
AcDbEntity
  8
0
  6
CONTINUOUS
100
AcDbBlockEnd
  0
BLOCK
  5
2B5
100
AcDbEntity
  8
0
100
AcDbBlockBegin
  2
*D7
 70
        65
 10
0.0
 20
0.0
 30
0.0
  3
*D7
  1

  0
POINT
  5
2B7
100
AcDbEntity
  8
DEFPOINTS
  6
CONTINUOUS
 62
         0
100
AcDbPoint
 10
1499.308812878
 20
-209.0386455357
 30
0.0
  0
POINT
  5
2B8
100
AcDbEntity
  8
DEFPOINTS
  6
CONTINUOUS
 62
         0
100
AcDbPoint
 10
1414.9494887089
 20
-209.0386455357
 30
0.0
  0
POINT
  5
2B9
100
AcDbEntity
  8
DEFPOINTS
  6
CONTINUOUS
 62
         0
100
AcDbPoint
 10
1414.9494887089
 20
-241.0426455357
 30
0.0
  0
LINE
  5
2BA
100
AcDbEntity
  8
L1_120
  6
CONTINUOUS
 62
         4
100
AcDbLine
 10
1416.2994887089
 20
-209.0386455357
 30
0.0
 11
1499.983812878
 21
-209.0386455357
 31
0.0
  0
LINE
  5
2BB
100
AcDbEntity
  8
L1_120
  6
CONTINUOUS
 62
         4
100
AcDbLine
 10
1416.2994887089
 20
-241.0426455357
 30
0.0
 11
1499.983812878
 21
-241.0426455357
 31
0.0
  0
LINE
  5
2BC
100
AcDbEntity
  8
L1_120
  6
CONTINUOUS
 62
         4
100
AcDbLine
 10
1499.308812878
 20
-209.0386455357
 30
0.0
 11
1499.308812878
 21
-241.0426455357
 31
0.0
  0
SOLID
  5
2BD
100
AcDbEntity
  8
L1_120
  6
CONTINUOUS
 62
         4
100
AcDbTrace
 10
1499.308812878
 20
-209.0386455357
 30
0.0
 11
1499.713812878
 21
-211.7386455357
 31
0.0
 12
1498.903812878
 22
-211.7386455357
 32
0.0
 13
1499.308812878
 23
-209.0386455357
 33
0.0
  0
SOLID
  5
2BE
100
AcDbEntity
  8
L1_120
  6
CONTINUOUS
 62
         4
100
AcDbTrace
 10
1499.308812878
 20
-241.0426455357
 30
0.0
 11
1498.903812878
 21
-238.3426455357
 31
0.0
 12
1499.713812878
 22
-238.3426455357
 32
0.0
 13
1499.308812878
 23
-241.0426455357
 33
0.0
  0
TEXT
  5
2C0
100
AcDbEntity
  8
L1_120
  6
CONTINUOUS
 62
         4
100
AcDbText
 10
1497.283812878
 20
-230.4376800267
 30
0.0
 40
2.7
  1
崷34
 50
90.0
  7
BOX
100
AcDbText
  0
ENDBLK
  5
2C1
100
AcDbEntity
  8
0
  6
CONTINUOUS
100
AcDbBlockEnd
  0
BLOCK
  5
2C3
100
AcDbEntity
  8
0
100
AcDbBlockBegin
  2
*D8
 70
        65
 10
0.0
 20
0.0
 30
0.0
  3
*D8
  1

  0
POINT
  5
2C5
100
AcDbEntity
  8
DEFPOINTS
  6
CONTINUOUS
 62
         0
100
AcDbPoint
 10
1490.0328067262
 20
-213.1026455357
 30
0.0
  0
POINT
  5
2C6
100
AcDbEntity
  8
DEFPOINTS
  6
CONTINUOUS
 62
         0
100
AcDbPoint
 10
1466.5875047567
 20
-213.1026455357
 30
0.0
  0
POINT
  5
2C7
100
AcDbEntity
  8
DEFPOINTS
  6
CONTINUOUS
 62
         0
100
AcDbPoint
 10
1466.5875047567
 20
-236.9786455357
 30
0.0
  0
LINE
  5
2C8
100
AcDbEntity
  8
L1_120
  6
CONTINUOUS
 62
         4
100
AcDbLine
 10
1467.9375047567
 20
-213.1026455357
 30
0.0
 11
1490.7078067262
 21
-213.1026455357
 31
0.0
  0
LINE
  5
2C9
100
AcDbEntity
  8
L1_120
  6
CONTINUOUS
 62
         4
100
AcDbLine
 10
1467.9375047567
 20
-236.9786455357
 30
0.0
 11
1490.7078067262
 21
-236.9786455357
 31
0.0
  0
LINE
  5
2CA
100
AcDbEntity
  8
L1_120
  6
CONTINUOUS
 62
         4
100
AcDbLine
 10
1490.0328067262
 20
-213.1026455357
 30
0.0
 11
1490.0328067262
 21
-236.9786455357
 31
0.0
  0
SOLID
  5
2CB
100
AcDbEntity
  8
L1_120
  6
CONTINUOUS
 62
         4
100
AcDbTrace
 10
1490.0328067262
 20
-213.1026455357
 30
0.0
 11
1490.4378067262
 21
-215.8026455357
 31
0.0
 12
1489.6278067262
 22
-215.8026455357
 32
0.0
 13
1490.0328067262
 23
-213.1026455357
 33
0.0
  0
SOLID
  5
2CC
100
AcDbEntity
  8
L1_120
  6
CONTINUOUS
 62
         4
100
AcDbTrace
 10
1490.0328067262
 20
-236.9786455357
 30
0.0
 11
1489.6278067262
 21
-234.2786455357
 31
0.0
 12
1490.4378067262
 22
-234.2786455357
 32
0.0
 13
1490.0328067262
 23
-236.9786455357
 33
0.0
  0
TEXT
  5
2CE
100
AcDbEntity
  8
L1_120
  6
CONTINUOUS
 62
         4
100
AcDbText
 10
1488.0078067262
 20
-230.5703384061
 30
0.0
 40
2.7
  1
崷27
 50
90.0
  7
BOX
100
AcDbText
  0
ENDBLK
  5
2CF
100
AcDbEntity
  8
0
  6
CONTINUOUS
100
AcDbBlockEnd
  0
BLOCK
  5
2D1
100
AcDbEntity
  8
0
100
AcDbBlockBegin
  2
*D9
 70
        65
 10
0.0
 20
0.0
 30
0.0
  3
*D9
  1

  0
POINT
  5
2D3
100
AcDbEntity
  8
DEFPOINTS
  6
CONTINUOUS
 62
         0
100
AcDbPoint
 10
1379.592202381
 20
-209.0386455357
 30
0.0
  0
POINT
  5
2D4
100
AcDbEntity
  8
DEFPOINTS
  6
CONTINUOUS
 62
         0
100
AcDbPoint
 10
1476.3887064707
 20
-209.0386455357
 30
0.0
  0
POINT
  5
2D5
100
AcDbEntity
  8
DEFPOINTS
  6
CONTINUOUS
 62
         0
100
AcDbPoint
 10
1414.9494887089
 20
-209.0386455357
 30
0.0
  0
POINT
  5
2D6
100
AcDbEntity
  8
DEFPOINTS
  6
CONTINUOUS
 62
         0
100
AcDbPoint
 10
1464.7444229482
 20
-212.9575918515
 30
0.0
  0
ARC
  5
2D7
100
AcDbEntity
  8
L1_120
  6
CONTINUOUS
 62
         4
100
AcDbCircle
 10
1414.9494887089
 20
-209.0386455357
 30
0.0
 40
40.2487978161
100
AcDbArc
 50
347.8128832125
 51
355.5
  0
SOLID
  5
2D8
100
AcDbEntity
  8
L1_120
  6
CONTINUOUS
 62
         4
100
AcDbTrace
 10
1455.0742129137
 20
-212.1965298164
 30
0.0
 11
1455.1747028699
 21
-214.9248858725
 31
0.0
 12
1454.3697846647
 22
-214.8342951286
 32
0.0
 13
1455.0742129137
 23
-212.1965298164
 33
0.0
  0
ARC
  5
2D9
100
AcDbEntity
  8
L1_120
  6
CONTINUOUS
 62
         4
100
AcDbCircle
 10
1414.9494887089
 20
-209.0386455357
 30
0.0
 40
40.2487978161
100
AcDbArc
 50
0.0
 51
0.6418700222
  0
SOLID
  5
2DA
100
AcDbEntity
  8
L1_120
  6
CONTINUOUS
 62
         4
100
AcDbTrace
 10
1455.198286525
 20
-209.0386455357
 30
0.0
 11
1454.7029864744
 21
-206.3537427702
 31
0.0
 12
1455.5125310532
 22
-206.3265844419
 32
0.0
 13
1455.198286525
 23
-209.0386455357
 33
0.0
  0
ARC
  5
2DB
100
AcDbEntity
  8
L1_120
  6
CONTINUOUS
 62
         4
100
AcDbCircle
 10
1414.9494887089
 20
-209.0386455357
 30
0.0
 40
40.2487978161
100
AcDbArc
 50
355.5
 51
360.0
  0
SOLID
  5
2DC
100
AcDbEntity
  8
L1_120
  6
CONTINUOUS
 62
         4
100
AcDbTrace
 10
1414.9494887089
 20
-209.0386455357
 30
0.0
 11
1416.0232421513
 21
-206.5284506139
 31
0.0
 12
1416.7124740061
 22
-206.9539614249
 32
0.0
 13
1414.9494887089
 23
-209.0386455357
 33
0.0
  0
TEXT
  5
2DE
100
AcDbEntity
  8
L1_120
  6
CONTINUOUS
 62
         4
100
AcDbText
 10
1456.5457609091
 20
-207.2377579381
 30
0.0
 40
2.7
  1
4.5%%d
  7
BOX
100
AcDbText
  0
ENDBLK
  5
2DF
100
AcDbEntity
  8
0
  6
CONTINUOUS
100
AcDbBlockEnd
  0
ENDSEC
  0
SECTION
  2
ENTITIES
  0
CIRCLE
  5
25
100
AcDbEntity
  8
L1_120
  6
CONTINUOUS
 62
         7
100
AcDbCircle
 10
1460.3212931532
 20
-303.3440686104
 30
0.0
 40
1.75
  0
LINE
  5
26
100
AcDbEntity
  8
L1_120
  6
CENTER
 62
         1
100
AcDbLine
 10
1504.360571755
 20
-303.3440686104
 30
0.0
 11
1477.764351436
 21
-303.3440686104
 31
0.0
  0
LINE
  5
27
100
AcDbEntity
  8
L1_120
  6
CONTINUOUS
 62
         7
100
AcDbLine
 10
1499.472859385
 20
-298.3440686104
 30
0.0
 11
1481.772859385
 21
-298.3440686104
 31
0.0
  0
LINE
  5
28
100
AcDbEntity
  8
L1_120
  6
CONTINUOUS
 62
         7
100
AcDbLine
 10
1481.772859385
 20
-308.3440686104
 30
0.0
 11
1499.472859385
 21
-308.3440686104
 31
0.0
  0
LINE
  5
29
100
AcDbEntity
  8
L1_120
  6
CONTINUOUS
 62
         7
100
AcDbLine
 10
1500.972859385
 20
-299.8440686104
 30
0.0
 11
1500.972859385
 21
-306.8440686104
 31
0.0
  0
LINE
  5
2A
100
AcDbEntity
  8
L1_120
  6
CONTINUOUS
 62
         7
100
AcDbLine
 10
1480.972859385
 20
-299.7297092564
 30
0.0
 11
1480.972859385
 21
-306.9584279643
 31
0.0
  0
LINE
  5
2B
100
AcDbEntity
  8
L1_120
  6
CONTINUOUS
 62
         4
100
AcDbLine
 10
1481.772859385
 20
-298.3440686104
 30
0.0
 11
1481.772859385
 21
-308.3440686104
 31
0.0
  0
LINE
  5
2C
100
AcDbEntity
  8
L1_120
  6
CONTINUOUS
 62
         4
100
AcDbLine
 10
1499.472859385
 20
-298.3440686104
 30
0.0
 11
1499.472859385
 21
-308.3440686104
 31
0.0
  0
LINE
  5
2D
100
AcDbEntity
  8
L1_120
  6
CONTINUOUS
 62
         7
100
AcDbLine
 10
1481.772859385
 20
-298.3440686104
 30
0.0
 11
1480.972859385
 21
-299.7297092564
 31
0.0
  0
LINE
  5
2E
100
AcDbEntity
  8
L1_120
  6
CONTINUOUS
 62
         7
100
AcDbLine
 10
1481.772859385
 20
-308.3440686104
 30
0.0
 11
1480.972859385
 21
-306.9584279643
 31
0.0
  0
LINE
  5
2F
100
AcDbEntity
  8
L1_120
  6
CONTINUOUS
 62
         7
100
AcDbLine
 10
1499.472859385
 20
-298.3440686104
 30
0.0
 11
1500.972859385
 21
-299.8440686104
 31
0.0
  0
LINE
  5
30
100
AcDbEntity
  8
L1_120
  6
CONTINUOUS
 62
         7
100
AcDbLine
 10
1499.472859385
 20
-308.3440686104
 30
0.0
 11
1500.972859385
 21
-306.8440686104
 31
0.0
  0
LINE
  5
31
100
AcDbEntity
  8
L1_120
  6
CONTINUOUS
 62
         4
100
AcDbLine
 10
1500.8585000311
 20
-299.7297092564
 30
0.0
 11
1480.972859385
 21
-299.7297092564
 31
0.0
  0
LINE
  5
32
100
AcDbEntity
  8
L1_120
  6
CONTINUOUS
 62
         4
100
AcDbLine
 10
1500.8585000311
 20
-306.9584279643
 30
0.0
 11
1480.972859385
 21
-306.9584279643
 31
0.0
  0
LINE
  5
33
100
AcDbEntity
  8
L1_120
  6
CENTER
 62
         1
100
AcDbLine
 10
1468.6152963563
 20
-303.3440686104
 30
0.0
 11
1451.7561375294
 21
-303.3440686104
 31
0.0
  0
LINE
  5
34
100
AcDbEntity
  8
L1_120
  6
CENTER
 62
         1
100
AcDbLine
 10
1460.3212931532
 20
-312.9010842522
 30
0.0
 11
1460.3212931532
 21
-296.1076060082
 31
0.0
  0
CIRCLE
  5
35
100
AcDbEntity
  8
L1_120
  6
CONTINUOUS
 62
         7
100
AcDbCircle
 10
1460.3212931532
 20
-303.3440686104
 30
0.0
 40
3.6143593539
  0
CIRCLE
  5
36
100
AcDbEntity
  8
L1_120
  6
CONTINUOUS
 62
         7
100
AcDbCircle
 10
1460.3212931532
 20
-303.3440686104
 30
0.0
 40
5.0
  0
DIMENSION
  5
3A
100
AcDbEntity
  8
L1_120
  6
CONTINUOUS
 62
         4
100
AcDbDimension
  2
*D0
 10
1516.0153574178
 20
-298.3440686104
 30
0.0
 11
1513.9903574178
 21
-294.5648583739
 31
0.0
  3
DIMSTYLE1
100
AcDbAlignedDimension
 13
1499.472859385
 23
-298.3440686104
 33
0.0
 14
1499.472859385
 24
-308.3440686104
 34
0.0
 50
90.0
100
AcDbRotatedDimension
  0
DIMENSION
  5
4B
100
AcDbEntity
  8
L1_120
  6
CONTINUOUS
 62
         4
100
AcDbDimension
  2
*D1
 10
1480.972859385
 20
-320.5255780666
 30
0.0
 11
1487.7898661781
 21
-318.5005780666
 31
0.0
  3
DIMSTYLE1
100
AcDbAlignedDimension
 13
1480.972859385
 23
-306.9584279643
 33
0.0
 14
1500.972859385
 24
-306.8440686104
 34
0.0
100
AcDbRotatedDimension
  0
LINE
  5
57
100
AcDbEntity
  8
L1_120
  6
DASHED
 62
         2
100
AcDbLine
 10
1484.972859385
 20
-300.4573172644
 30
0.0
 11
1484.972859385
 21
-306.2308199563
 31
0.0
  0
LINE
  5
58
100
AcDbEntity
  8
L1_120
  6
CONTINUOUS
 62
         7
100
AcDbLine
 10
1462.8212931532
 20
-301.9006929374
 30
0.0
 11
1460.3212931532
 21
-300.4573172644
 31
0.0
  0
LINE
  5
59
100
AcDbEntity
  8
L1_120
  6
CONTINUOUS
 62
         7
100
AcDbLine
 10
1460.3212931532
 20
-300.4573172644
 30
0.0
 11
1457.8212931532
 21
-301.9006929374
 31
0.0
  0
LINE
  5
5A
100
AcDbEntity
  8
L1_120
  6
CONTINUOUS
 62
         7
100
AcDbLine
 10
1457.8212931532
 20
-301.9006929374
 30
0.0
 11
1457.8212931532
 21
-304.7874442833
 31
0.0
  0
LINE
  5
5B
100
AcDbEntity
  8
L1_120
  6
CONTINUOUS
 62
         7
100
AcDbLine
 10
1457.8212931532
 20
-304.7874442833
 30
0.0
 11
1460.3212931532
 21
-306.2308199563
 31
0.0
  0
LINE
  5
5C
100
AcDbEntity
  8
L1_120
  6
CONTINUOUS
 62
         7
100
AcDbLine
 10
1460.3212931532
 20
-306.2308199563
 30
0.0
 11
1462.8212931532
 21
-304.7874442833
 31
0.0
  0
LINE
  5
5D
100
AcDbEntity
  8
L1_120
  6
CONTINUOUS
 62
         7
100
AcDbLine
 10
1462.8212931532
 20
-304.7874442833
 30
0.0
 11
1462.8212931532
 21
-301.9006929374
 31
0.0
  0
LINE
  5
5E
100
AcDbEntity
  8
L1_120
  6
DASHED
 62
         2
100
AcDbLine
 10
1480.972859385
 20
-300.4573172644
 30
0.0
 11
1484.972859385
 21
-300.4573172644
 31
0.0
  0
LINE
  5
5F
100
AcDbEntity
  8
L1_120
  6
DASHED
 62
         2
100
AcDbLine
 10
1480.972859385
 20
-301.9006929374
 30
0.0
 11
1484.972859385
 21
-301.9006929374
 31
0.0
  0
LINE
  5
60
100
AcDbEntity
  8
L1_120
  6
DASHED
 62
         2
100
AcDbLine
 10
1480.972859385
 20
-306.2308199563
 30
0.0
 11
1484.972859385
 21
-306.2308199563
 31
0.0
  0
LINE
  5
61
100
AcDbEntity
  8
L1_120
  6
DASHED
 62
         2
100
AcDbLine
 10
1480.972859385
 20
-304.7874442833
 30
0.0
 11
1484.972859385
 21
-304.7874442833
 31
0.0
  0
CIRCLE
  5
62
100
AcDbEntity
  8
L1_120
  6
CONTINUOUS
 62
         7
100
AcDbCircle
 10
1460.3212931532
 20
-303.3440686104
 30
0.0
 40
2.8867513459
  0
DIMENSION
  5
65
100
AcDbEntity
  8
L1_120
  6
CONTINUOUS
 62
         4
100
AcDbDimension
  2
*D2
 10
1457.8212931532
 20
-293.2540208065
 30
0.0
 11
1459.4984301434
 21
-291.2290208065
 31
0.0
  3
DIMSTYLE1
100
AcDbAlignedDimension
 13
1457.8212931532
 23
-301.9006929374
 33
0.0
 14
1462.8212931532
 24
-301.9006929374
 34
0.0
100
AcDbRotatedDimension
  0
LINE
  5
73
100
AcDbEntity
  8
L1_120
  6
DASHED
 62
         2
100
AcDbLine
 10
1500.972859385
 20
-301.5940686104
 30
0.0
 11
1484.972859385
 21
-301.5940686104
 31
0.0
  0
LINE
  5
74
100
AcDbEntity
  8
L1_120
  6
DASHED
 62
         2
100
AcDbLine
 10
1484.972859385
 20
-305.0940686104
 30
0.0
 11
1500.972859385
 21
-305.0940686104
 31
0.0
  0
LINE
  5
75
100
AcDbEntity
  8
L1_120
  6
CENTER
 62
         1
100
AcDbLine
 10
1528.1264807161
 20
-311.6357200881
 30
0.0
 11
1528.1264807161
 21
-295.9251678811
 31
0.0
  0
CIRCLE
  5
76
100
AcDbEntity
  8
L1_120
  6
CONTINUOUS
 62
         7
100
AcDbCircle
 10
1528.1264807161
 20
-303.3440686104
 30
0.0
 40
5.0
  0
ARC
  5
77
100
AcDbEntity
  8
L1_120
  6
CONTINUOUS
 62
         4
100
AcDbCircle
 10
1528.1264807161
 20
-303.3440686104
 30
0.0
 40
3.6143593539
100
AcDbArc
 50
180.0
 51
450.0
  0
CIRCLE
  5
78
100
AcDbEntity
  8
L1_120
  6
CONTINUOUS
 62
         7
100
AcDbCircle
 10
1528.1264807161
 20
-303.3440686104
 30
0.0
 40
1.75
  0
INSERT
  5
CE
100
AcDbEntity
  8
0
  6
CONTINUOUS
100
AcDbBlockReference
  2
*X3
 10
0.0
 20
0.0
 30
0.0
  0
LINE
  5
CF
100
AcDbEntity
  8
L1_120
  6
CONTINUOUS
 62
         7
100
AcDbLine
 10
1402.3633244698
 20
-317.6852525834
 30
0.0
 11
1391.0494341606
 21
-331.1686220057
 31
0.0
  0
LINE
  5
D0
100
AcDbEntity
  8
L1_120
  6
CONTINUOUS
 62
         7
100
AcDbLine
 10
1400.0850888015
 20
-320.400348126
 30
0.0
 11
1401.4750639513
 21
-321.3736192039
 31
0.0
  0
LINE
  5
D1
100
AcDbEntity
  8
L1_120
  6
CONTINUOUS
 62
         7
100
AcDbLine
 10
1399.8353778076
 20
-315.5640534715
 30
0.0
 11
1386.7415901058
 21
-331.1686220057
 31
0.0
  0
LINE
  5
D2
100
AcDbEntity
  8
L1_120
  6
CONTINUOUS
 62
         7
100
AcDbLine
 10
1395.7214793529
 20
-331.1686220057
 30
0.0
 11
1395.7214793529
 21
-345.1686220057
 31
0.0
  0
LINE
  5
D3
100
AcDbEntity
  8
L1_120
  6
CONTINUOUS
 62
         7
100
AcDbLine
 10
1396.5875047567
 20
-343.6686220057
 30
0.0
 11
1395.7214793529
 21
-345.1686220057
 31
0.0
  0
LINE
  5
D4
100
AcDbEntity
  8
L1_120
  6
CONTINUOUS
 62
         7
100
AcDbLine
 10
1396.5875047567
 20
-332.6686220057
 30
0.0
 11
1395.7214793529
 21
-331.1686220057
 31
0.0
  0
LINE
  5
D5
100
AcDbEntity
  8
L1_120
  6
CONTINUOUS
 62
         7
100
AcDbLine
 10
1396.5875047567
 20
-332.6686220057
 30
0.0
 11
1396.5875047567
 21
-343.6686220057
 31
0.0
  0
DIMENSION
  5
D8
100
AcDbEntity
  8
L1_120
  6
CONTINUOUS
 62
         4
100
AcDbDimension
  2
*D4
 10
1416.5875047567
 20
-368.9454554978
 30
0.0
 11
1441.019551901
 21
-365.8134554978
 31
0.0
  3
DIMSTYLE1
100
AcDbAlignedDimension
 13
1416.5875047567
 23
-344.6686220057
 33
0.0
 14
1466.5875047567
 24
-349.2578410224
 34
0.0
100
AcDbRotatedDimension
  0
LINE
  5
E4
100
AcDbEntity
  8
L1_120
  6
CONTINUOUS
 62
         7
100
AcDbLine
 10
1416.5875047567
 20
-346.6686220057
 30
0.0
 11
1426.5875047567
 21
-346.6686220057
 31
0.0
  0
LINE
  5
E5
100
AcDbEntity
  8
L1_120
  6
CONTINUOUS
 62
         7
100
AcDbLine
 10
1416.5875047567
 20
-329.6686220057
 30
0.0
 11
1426.5875047567
 21
-329.6686220057
 31
0.0
  0
ARC
  5
E6
100
AcDbEntity
  8
L1_120
  6
CONTINUOUS
 62
         7
100
AcDbCircle
 10
1465.5875047567
 20
-347.0971220057
 30
0.0
 40
1.0
100
AcDbArc
 50
0.0
 51
90.0
  0
ARC
  5
E7
100
AcDbEntity
  8
L1_120
  6
CONTINUOUS
 62
         7
100
AcDbCircle
 10
1465.5875047567
 20
-329.2401220057
 30
0.0
 40
1.0
100
AcDbArc
 50
270.0
 51
360.0
  0
LINE
  5
E8
100
AcDbEntity
  8
L1_120
  6
CONTINUOUS
 62
         7
100
AcDbLine
 10
1426.5875047567
 20
-346.0971220057
 30
0.0
 11
1465.5875047567
 21
-346.0971220057
 31
0.0
  0
LINE
  5
E9
100
AcDbEntity
  8
L1_120
  6
CONTINUOUS
 62
         7
100
AcDbLine
 10
1426.5875047567
 20
-330.2401220057
 30
0.0
 11
1465.5875047567
 21
-330.2401220057
 31
0.0
  0
LINE
  5
EA
100
AcDbEntity
  8
L1_120
  6
CONTINUOUS
 62
         7
100
AcDbLine
 10
1416.5875047567
 20
-329.6686220057
 30
0.0
 11
1416.5875047567
 21
-346.6686220057
 31
0.0
  0
LINE
  5
EB
100
AcDbEntity
  8
L1_120
  6
CONTINUOUS
 62
         7
100
AcDbLine
 10
1426.5875047567
 20
-329.6686220057
 30
0.0
 11
1426.5875047567
 21
-346.6686220057
 31
0.0
  0
LINE
  5
EC
100
AcDbEntity
  8
L1_120
  6
CONTINUOUS
 62
         4
100
AcDbLine
 10
1465.5875047567
 20
-330.2401220057
 30
0.0
 11
1465.5875047567
 21
-346.0971220057
 31
0.0
  0
LINE
  5
ED
100
AcDbEntity
  8
L1_120
  6
CONTINUOUS
 62
         4
100
AcDbLine
 10
1396.2988296221
 20
-332.1686220057
 30
0.0
 11
1416.5875047567
 21
-332.1686220057
 31
0.0
  0
LINE
  5
EE
100
AcDbEntity
  8
L1_120
  6
CONTINUOUS
 62
         4
100
AcDbLine
 10
1396.2988296221
 20
-344.1686220057
 30
0.0
 11
1416.5875047567
 21
-344.1686220057
 31
0.0
  0
LINE
  5
EF
100
AcDbEntity
  8
L1_120
  6
CONTINUOUS
 62
         7
100
AcDbLine
 10
1396.5875047567
 20
-332.6686220057
 30
0.0
 11
1416.5875047567
 21
-332.6686220057
 31
0.0
  0
LINE
  5
F0
100
AcDbEntity
  8
L1_120
  6
CONTINUOUS
 62
         7
100
AcDbLine
 10
1396.5875047567
 20
-343.6686220057
 30
0.0
 11
1416.5875047567
 21
-343.6686220057
 31
0.0
  0
LINE
  5
F1
100
AcDbEntity
  8
L1_120
  6
CENTER
 62
         1
100
AcDbLine
 10
1397.6775047567
 20
-306.272140775
 30
0.0
 11
1397.6775047567
 21
-368.2936220057
 31
0.0
  0
LINE
  5
F2
100
AcDbEntity
  8
L1_120
  6
CONTINUOUS
 62
         7
100
AcDbLine
 10
1405.6775047567
 20
-308.057174352
 30
0.0
 11
1399.6971520123
 21
-315.1842812202
 31
0.0
  0
LINE
  5
F3
100
AcDbEntity
  8
L1_120
  6
CONTINUOUS
 62
         7
100
AcDbLine
 10
1405.6775047567
 20
-314.2800696594
 30
0.0
 11
1402.7613297848
 21
-317.7554316589
 31
0.0
  0
LINE
  5
F4
100
AcDbEntity
  8
L1_120
  6
CENTER
 62
         1
100
AcDbLine
 10
1406.9630799761
 20
-309.6365331195
 30
0.0
 11
1388.0391539005
 21
-332.1891900061
 31
0.0
  0
LINE
  5
F5
100
AcDbEntity
  8
L1_120
  6
CONTINUOUS
 62
         7
100
AcDbLine
 10
1402.7613297848
 20
-317.7554316589
 30
0.0
 11
1402.3633244698
 21
-317.6852525834
 31
0.0
  0
LINE
  5
F6
100
AcDbEntity
  8
L1_120
  6
CONTINUOUS
 62
         7
100
AcDbLine
 10
1399.6971520123
 20
-315.1842812202
 30
0.0
 11
1399.8353778076
 21
-315.5640534715
 31
0.0
  0
LINE
  5
F7
100
AcDbEntity
  8
L1_120
  6
CONTINUOUS
 62
         7
100
AcDbLine
 10
1402.7613297848
 20
-317.7554316589
 30
0.0
 11
1399.6971520123
 21
-315.1842812202
 31
0.0
  0
LINE
  5
F8
100
AcDbEntity
  8
L1_120
  6
CONTINUOUS
 62
         7
100
AcDbLine
 10
1402.3633244698
 20
-317.6852525834
 30
0.0
 11
1399.8353778076
 21
-315.5640534715
 31
0.0
  0
LINE
  5
F9
100
AcDbEntity
  8
L1_120
  6
CONTINUOUS
 62
         7
100
AcDbLine
 10
1398.6946632805
 20
-314.9709344459
 30
0.0
 11
1396.4003575351
 21
-318.2475426231
 31
0.0
  0
LINE
  5
FA
100
AcDbEntity
  8
L1_120
  6
CONTINUOUS
 62
         7
100
AcDbLine
 10
1403.3678661913
 20
-318.6704174577
 30
0.0
 11
1401.4750639513
 21
-321.3736192039
 31
0.0
  0
LINE
  5
FB
100
AcDbEntity
  8
L1_120
  6
CONTINUOUS
 62
         7
100
AcDbLine
 10
1401.4750639513
 20
-321.3736192039
 30
0.0
 11
1403.2018121992
 21
-320.5684232722
 31
0.0
  0
LINE
  5
FC
100
AcDbEntity
  8
L1_120
  6
CONTINUOUS
 62
         7
100
AcDbLine
 10
1403.3678661913
 20
-318.6704174577
 30
0.0
 11
1403.2018121992
 21
-320.5684232722
 31
0.0
  0
LINE
  5
FD
100
AcDbEntity
  8
L1_120
  6
CONTINUOUS
 62
         7
100
AcDbLine
 10
1396.6011092878
 20
-317.9608394076
 30
0.0
 11
1397.3715612638
 21
-318.500315689
 31
0.0
  0
LINE
  5
FE
100
AcDbEntity
  8
L1_120
  6
CONTINUOUS
 62
         7
100
AcDbLine
 10
1400.0850888015
 20
-320.400348126
 30
0.0
 11
1401.4750639513
 21
-321.3736192039
 31
0.0
  0
LINE
  5
FF
100
AcDbEntity
  8
L1_120
  6
CONTINUOUS
 62
         7
100
AcDbLine
 10
1398.4939115277
 20
-315.2576376614
 30
0.0
 11
1399.5008630117
 21
-315.9627126811
 31
0.0
  0
LINE
  5
100
100
AcDbEntity
  8
L1_120
  6
CONTINUOUS
 62
         7
100
AcDbLine
 10
1402.2143905494
 20
-317.8627451182
 30
0.0
 11
1403.3678661913
 21
-318.6704174577
 31
0.0
  0
LINE
  5
101
100
AcDbEntity
  8
L1_120
  6
CONTINUOUS
 62
         7
100
AcDbLine
 10
1402.3633244698
 20
-317.6852525834
 30
0.0
 11
1391.0494341606
 21
-331.1686220057
 31
0.0
  0
LINE
  5
102
100
AcDbEntity
  8
L1_120
  6
CENTER
 62
         1
100
AcDbLine
 10
1388.1392006681
 20
-310.021469133
 30
0.0
 11
1402.8116386352
 21
-320.2952208015
 31
0.0
  0
LINE
  5
103
100
AcDbEntity
  8
L1_120
  6
CONTINUOUS
 62
         7
100
AcDbLine
 10
1390.0929717967
 20
-313.2206762883
 30
0.0
 11
1396.6871457532
 21
-317.8379666009
 31
0.0
  0
LINE
  5
104
100
AcDbEntity
  8
L1_120
  6
CONTINUOUS
 62
         4
100
AcDbLine
 10
1392.1004893239
 20
-310.3536441333
 30
0.0
 11
1398.6946632805
 21
-314.9709344459
 31
0.0
  0
LINE
  5
105
100
AcDbEntity
  8
L1_120
  6
CONTINUOUS
 62
         4
100
AcDbLine
 10
1389.8061835785
 20
-313.6302523105
 30
0.0
 11
1396.4003575351
 21
-318.2475426231
 31
0.0
  0
LINE
  5
106
100
AcDbEntity
  8
L1_120
  6
CONTINUOUS
 62
         7
100
AcDbLine
 10
1391.8137011058
 20
-310.7632201555
 30
0.0
 11
1398.4078750623
 21
-315.3805104681
 31
0.0
  0
LINE
  5
107
100
AcDbEntity
  8
L1_120
  6
CONTINUOUS
 62
         7
100
AcDbLine
 10
1392.1291681458
 20
-310.3126865311
 30
0.0
 11
1389.7775047567
 21
-313.6712099127
 31
0.0
  0
LINE
  5
108
100
AcDbEntity
  8
L1_120
  6
CONTINUOUS
 62
         7
100
AcDbLine
 10
1389.7775047567
 20
-308.6660340988
 30
0.0
 11
1392.1291681458
 21
-310.3126865311
 31
0.0
  0
LINE
  5
109
100
AcDbEntity
  8
L1_120
  6
CONTINUOUS
 62
         4
100
AcDbLine
 10
1410.3023237014
 20
-349.1706220057
 30
0.0
 11
1410.3023237014
 21
-354.1706220057
 31
0.0
  0
LINE
  5
10A
100
AcDbEntity
  8
L1_120
  6
CONTINUOUS
 62
         4
100
AcDbLine
 10
1416.3023237014
 20
-349.1706220057
 30
0.0
 11
1416.3023237014
 21
-354.1706220057
 31
0.0
  0
LINE
  5
10B
100
AcDbEntity
  8
L1_120
  6
CONTINUOUS
 62
         7
100
AcDbLine
 10
1410.7073237014
 20
-347.1706220057
 30
0.0
 11
1410.7073237014
 21
-354.1706220057
 31
0.0
  0
LINE
  5
10C
100
AcDbEntity
  8
L1_120
  6
CONTINUOUS
 62
         7
100
AcDbLine
 10
1415.8973237014
 20
-347.1706220057
 30
0.0
 11
1415.8973237014
 21
-354.1706220057
 31
0.0
  0
LINE
  5
10D
100
AcDbEntity
  8
L1_120
  6
CONTINUOUS
 62
         7
100
AcDbLine
 10
1410.7073237014
 20
-347.1706220057
 30
0.0
 11
1415.8973237014
 21
-347.1706220057
 31
0.0
  0
LINE
  5
10E
100
AcDbEntity
  8
L1_120
  6
CONTINUOUS
 62
         4
100
AcDbLine
 10
1410.3023237014
 20
-349.1706220057
 30
0.0
 11
1416.3023237014
 21
-349.1706220057
 31
0.0
  0
LINE
  5
10F
100
AcDbEntity
  8
L1_120
  6
CONTINUOUS
 62
         7
100
AcDbLine
 10
1410.7073237014
 20
-347.1706220057
 30
0.0
 11
1413.3023237014
 21
-345.6723980572
 31
0.0
  0
LINE
  5
110
100
AcDbEntity
  8
L1_120
  6
CONTINUOUS
 62
         7
100
AcDbLine
 10
1415.8973237014
 20
-347.1706220057
 30
0.0
 11
1413.3023237014
 21
-345.6723980572
 31
0.0
  0
LINE
  5
111
100
AcDbEntity
  8
L1_120
  6
CONTINUOUS
 62
         7
100
AcDbLine
 10
1415.8973237014
 20
-329.1666220057
 30
0.0
 11
1413.3023237014
 21
-330.6648459543
 31
0.0
  0
LINE
  5
112
100
AcDbEntity
  8
L1_120
  6
CONTINUOUS
 62
         7
100
AcDbLine
 10
1410.7073237014
 20
-329.1666220057
 30
0.0
 11
1413.3023237014
 21
-330.6648459543
 31
0.0
  0
LINE
  5
113
100
AcDbEntity
  8
L1_120
  6
CONTINUOUS
 62
         4
100
AcDbLine
 10
1410.3023237014
 20
-327.1666220057
 30
0.0
 11
1416.3023237014
 21
-327.1666220057
 31
0.0
  0
LINE
  5
114
100
AcDbEntity
  8
L1_120
  6
CONTINUOUS
 62
         7
100
AcDbLine
 10
1410.7073237014
 20
-329.1666220057
 30
0.0
 11
1415.8973237014
 21
-329.1666220057
 31
0.0
  0
LINE
  5
115
100
AcDbEntity
  8
L1_120
  6
CONTINUOUS
 62
         7
100
AcDbLine
 10
1415.8973237014
 20
-329.1666220057
 30
0.0
 11
1415.8973237014
 21
-322.2390286078
 31
0.0
  0
LINE
  5
116
100
AcDbEntity
  8
L1_120
  6
CONTINUOUS
 62
         7
100
AcDbLine
 10
1410.7073237014
 20
-329.1666220057
 30
0.0
 11
1410.7073237014
 21
-322.1666220057
 31
0.0
  0
LINE
  5
117
100
AcDbEntity
  8
L1_120
  6
CONTINUOUS
 62
         4
100
AcDbLine
 10
1416.3023237014
 20
-327.1666220057
 30
0.0
 11
1416.3023237014
 21
-322.2709027991
 31
0.0
  0
LINE
  5
118
100
AcDbEntity
  8
L1_120
  6
CONTINUOUS
 62
         4
100
AcDbLine
 10
1410.3023237014
 20
-327.1666220057
 30
0.0
 11
1410.3023237014
 21
-322.1666220057
 31
0.0
  0
LINE
  5
119
100
AcDbEntity
  8
L1_120
  6
CENTER
 62
         1
100
AcDbLine
 10
1413.2899142291
 20
-356.248910796
 30
0.0
 11
1413.2899142291
 21
-317.3309671617
 31
0.0
  0
ARC
  5
11A
100
AcDbEntity
  8
L1_120
  6
CONTINUOUS
 62
         7
100
AcDbCircle
 10
1408.6775047567
 20
-357.1706220057
 30
0.0
 40
3.0
100
AcDbArc
 50
90.0
 51
180.0
  0
ARC
  5
11B
100
AcDbEntity
  8
L1_120
  6
CONTINUOUS
 62
         7
100
AcDbCircle
 10
1408.6775047567
 20
-319.1666220057
 30
0.0
 40
3.0
100
AcDbArc
 50
180.0
 51
270.0
  0
LINE
  5
11C
100
AcDbEntity
  8
L1_120
  6
CONTINUOUS
 62
         7
100
AcDbLine
 10
1466.5875047567
 20
-327.1550124974
 30
0.0
 11
1466.5875047567
 21
-349.1822315141
 31
0.0
  0
ARC
  5
11D
100
AcDbEntity
  8
L1_120
  6
CONTINUOUS
 62
         7
100
AcDbCircle
 10
1465.5875047567
 20
-327.1550124974
 30
0.0
 40
1.0
100
AcDbArc
 50
0.0
 51
85.5
  0
ARC
  5
11E
100
AcDbEntity
  8
L1_120
  6
CONTINUOUS
 62
         7
100
AcDbCircle
 10
1465.5875047567
 20
-349.1822315141
 30
0.0
 40
1.0
100
AcDbArc
 50
274.5
 51
360.0
  0
LINE
  5
11F
100
AcDbEntity
  8
L1_120
  6
CONTINUOUS
 62
         7
100
AcDbLine
 10
1465.6659638525
 20
-350.1791488478
 30
0.0
 11
1414.9494887089
 21
-354.1706220057
 31
0.0
  0
LINE
  5
120
100
AcDbEntity
  8
L1_120
  6
CONTINUOUS
 62
         7
100
AcDbLine
 10
1408.6775047567
 20
-354.1706220057
 30
0.0
 11
1414.9494887089
 21
-354.1706220057
 31
0.0
  0
LINE
  5
121
100
AcDbEntity
  8
L1_120
  6
CONTINUOUS
 62
         7
100
AcDbLine
 10
1408.6775047567
 20
-322.1666220057
 30
0.0
 11
1414.9494887089
 21
-322.1666220057
 31
0.0
  0
LINE
  5
122
100
AcDbEntity
  8
L1_120
  6
CONTINUOUS
 62
         7
100
AcDbLine
 10
1465.6659638525
 20
-326.1580951636
 30
0.0
 11
1414.9494887089
 21
-322.1666220057
 31
0.0
  0
LINE
  5
123
100
AcDbEntity
  8
L1_120
  6
CONTINUOUS
 62
         7
100
AcDbLine
 10
1388.9775047567
 20
-315.7686220057
 30
0.0
 11
1387.7775047567
 21
-315.7686220057
 31
0.0
  0
ARC
  5
124
100
AcDbEntity
  8
L1_120
  6
CONTINUOUS
 62
         7
100
AcDbCircle
 10
1388.9775047567
 20
-314.9686220057
 30
0.0
 40
0.8
100
AcDbArc
 50
269.9999999999
 51
360.0
  0
ARC
  5
125
100
AcDbEntity
  8
L1_120
  6
CONTINUOUS
 62
         7
100
AcDbCircle
 10
1388.9775047567
 20
-361.3686220057
 30
0.0
 40
0.8
100
AcDbArc
 50
0.0
 51
90.0000000001
  0
LINE
  5
126
100
AcDbEntity
  8
L1_120
  6
CONTINUOUS
 62
         7
100
AcDbLine
 10
1388.9775047567
 20
-360.5686220057
 30
0.0
 11
1387.7775047567
 21
-360.5686220057
 31
0.0
  0
LINE
  5
127
100
AcDbEntity
  8
L1_120
  6
CONTINUOUS
 62
         7
100
AcDbLine
 10
1401.2137751555
 20
-369.9436220059
 30
0.0
 11
1404.6775047567
 21
-369.9436220059
 31
0.0
  0
LINE
  5
128
100
AcDbEntity
  8
L1_120
  6
CONTINUOUS
 62
         7
100
AcDbLine
 10
1399.5525047567
 20
-367.0662172699
 30
0.0
 11
1401.2137751555
 21
-369.9436220057
 31
0.0
  0
ARC
  5
129
100
AcDbEntity
  8
L1_120
  6
CONTINUOUS
 62
         7
100
AcDbCircle
 10
1398.578704425
 20
-367.2936220059
 30
0.0
 40
1.0
100
AcDbArc
 50
13.1443256895
 51
90.0
  0
LINE
  5
12A
100
AcDbEntity
  8
L1_120
  6
CONTINUOUS
 62
         7
100
AcDbLine
 10
1396.7763050885
 20
-366.2936220057
 30
0.0
 11
1398.578704425
 21
-366.2936220057
 31
0.0
  0
ARC
  5
12B
100
AcDbEntity
  8
L1_120
  6
CONTINUOUS
 62
         7
100
AcDbCircle
 10
1396.7763050885
 20
-367.2936220057
 30
0.0
 40
1.0
100
AcDbArc
 50
90.0
 51
166.8556743105
  0
LINE
  5
12C
100
AcDbEntity
  8
L1_120
  6
CONTINUOUS
 62
         7
100
AcDbLine
 10
1395.8025047567
 20
-367.0662172699
 30
0.0
 11
1394.1412343579
 21
-369.9436220057
 31
0.0
  0
LINE
  5
12D
100
AcDbEntity
  8
L1_120
  6
CONTINUOUS
 62
         7
100
AcDbLine
 10
1389.7775047567
 20
-361.3686220057
 30
0.0
 11
1389.7775047567
 21
-368.9436220059
 31
0.0
  0
LINE
  5
12E
100
AcDbEntity
  8
L1_120
  6
CONTINUOUS
 62
         7
100
AcDbLine
 10
1390.7775047567
 20
-369.9436220059
 30
0.0
 11
1394.1412343579
 21
-369.9436220059
 31
0.0
  0
LINE
  5
12F
100
AcDbEntity
  8
L1_120
  6
CONTINUOUS
 62
         7
100
AcDbLine
 10
1389.7775047567
 20
-314.9686220057
 30
0.0
 11
1389.7775047567
 21
-307.3936220055
 31
0.0
  0
LINE
  5
130
100
AcDbEntity
  8
L1_120
  6
CONTINUOUS
 62
         7
100
AcDbLine
 10
1390.7775047567
 20
-306.3936220055
 30
0.0
 11
1394.1412343579
 21
-306.3936220055
 31
0.0
  0
LINE
  5
131
100
AcDbEntity
  8
L1_120
  6
CONTINUOUS
 62
         7
100
AcDbLine
 10
1395.8025047567
 20
-309.2710267415
 30
0.0
 11
1394.1412343579
 21
-306.3936220057
 31
0.0
  0
ARC
  5
132
100
AcDbEntity
  8
L1_120
  6
CONTINUOUS
 62
         7
100
AcDbCircle
 10
1396.7763050885
 20
-309.0436220055
 30
0.0
 40
1.0
100
AcDbArc
 50
193.1443256895
 51
270.0
  0
LINE
  5
133
100
AcDbEntity
  8
L1_120
  6
CONTINUOUS
 62
         7
100
AcDbLine
 10
1396.7763050885
 20
-310.0436220055
 30
0.0
 11
1398.578704425
 21
-310.0436220055
 31
0.0
  0
ARC
  5
134
100
AcDbEntity
  8
L1_120
  6
CONTINUOUS
 62
         7
100
AcDbCircle
 10
1398.578704425
 20
-309.0436220055
 30
0.0
 40
1.0
100
AcDbArc
 50
270.0
 51
346.8556743105
  0
LINE
  5
135
100
AcDbEntity
  8
L1_120
  6
CONTINUOUS
 62
         7
100
AcDbLine
 10
1399.5525047567
 20
-309.2710267413
 30
0.0
 11
1401.2137751555
 21
-306.3936220055
 31
0.0
  0
LINE
  5
136
100
AcDbEntity
  8
L1_120
  6
CONTINUOUS
 62
         7
100
AcDbLine
 10
1401.2137751555
 20
-306.3936220055
 30
0.0
 11
1404.6775047567
 21
-306.3936220055
 31
0.0
  0
ARC
  5
137
100
AcDbEntity
  8
L1_120
  6
CONTINUOUS
 62
         7
100
AcDbCircle
 10
1390.7775047567
 20
-307.3936220057
 30
0.0
 40
1.0
100
AcDbArc
 50
90.0
 51
180.0
  0
LINE
  5
138
100
AcDbEntity
  8
L1_120
  6
CONTINUOUS
 62
         7
100
AcDbLine
 10
1390.7775047567
 20
-306.3936220057
 30
0.0
 11
1391.7775047567
 21
-306.3936220057
 31
0.0
  0
LINE
  5
139
100
AcDbEntity
  8
L1_120
  6
CONTINUOUS
 62
         7
100
AcDbLine
 10
1389.7775047567
 20
-307.3936220057
 30
0.0
 11
1389.7775047567
 21
-308.3936220057
 31
0.0
  0
LINE
  5
13A
100
AcDbEntity
  8
L1_120
  6
CONTINUOUS
 62
         7
100
AcDbLine
 10
1403.6775047567
 20
-306.3936220057
 30
0.0
 11
1404.6775047567
 21
-306.3936220057
 31
0.0
  0
ARC
  5
13B
100
AcDbEntity
  8
L1_120
  6
CONTINUOUS
 62
         7
100
AcDbCircle
 10
1404.6775047567
 20
-307.3936220057
 30
0.0
 40
1.0
100
AcDbArc
 50
0.0
 51
90.0
  0
ARC
  5
13C
100
AcDbEntity
  8
L1_120
  6
CONTINUOUS
 62
         7
100
AcDbCircle
 10
1390.7775047567
 20
-368.9436220057
 30
0.0
 40
1.0
100
AcDbArc
 50
180.0
 51
270.0
  0
LINE
  5
13D
100
AcDbEntity
  8
L1_120
  6
CONTINUOUS
 62
         7
100
AcDbLine
 10
1390.7775047567
 20
-369.9436220057
 30
0.0
 11
1391.7775047567
 21
-369.9436220057
 31
0.0
  0
LINE
  5
13E
100
AcDbEntity
  8
L1_120
  6
CONTINUOUS
 62
         7
100
AcDbLine
 10
1403.6775047567
 20
-369.9436220057
 30
0.0
 11
1404.6775047567
 21
-369.9436220057
 31
0.0
  0
ARC
  5
13F
100
AcDbEntity
  8
L1_120
  6
CONTINUOUS
 62
         7
100
AcDbCircle
 10
1404.6775047567
 20
-368.9436220057
 30
0.0
 40
1.0
100
AcDbArc
 50
270.0
 51
360.0
  0
LINE
  5
140
100
AcDbEntity
  8
L1_120
  6
CONTINUOUS
 62
         7
100
AcDbLine
 10
1405.6775047567
 20
-307.3936220057
 30
0.0
 11
1405.6775047567
 21
-319.1666220057
 31
0.0
  0
LINE
  5
141
100
AcDbEntity
  8
L1_120
  6
CONTINUOUS
 62
         7
100
AcDbLine
 10
1389.7775047567
 20
-367.9436220057
 30
0.0
 11
1389.7775047567
 21
-368.9436220057
 31
0.0
  0
LINE
  5
142
100
AcDbEntity
  8
L1_120
  6
CONTINUOUS
 62
         7
100
AcDbLine
 10
1405.6775047567
 20
-357.1706220057
 30
0.0
 11
1405.6775047567
 21
-368.9436220057
 31
0.0
  0
DIMENSION
  5
145
100
AcDbEntity
  8
L1_120
  6
CONTINUOUS
 62
         4
100
AcDbDimension
  2
*D5
 10
1386.5775047567
 20
-164.3252716143
 30
0.0
 11
1426.9564561297
 21
-162.3002716143
 31
0.0
  3
DIMSTYLE1
100
AcDbAlignedDimension
 13
1386.5775047567
 23
-202.8156455357
 33
0.0
 14
1466.5875047567
 24
-214.0270360273
 34
0.0
100
AcDbRotatedDimension
  0
DIMENSION
  5
153
100
AcDbEntity
  8
L1_120
  6
CONTINUOUS
 62
         4
100
AcDbDimension
  2
*D6
 10
1318.3275047567
 20
-151.3840885591
 30
0.0
 11
1387.0597094705
 21
-149.3590885591
 31
0.0
  3
DIMSTYLE1
100
AcDbAlignedDimension
 13
1318.3275047567
 23
-213.8064638192
 33
0.0
 14
1466.5875047567
 24
-214.0270360273
 34
0.0
100
AcDbRotatedDimension
  0
CIRCLE
  5
15F
100
AcDbEntity
  8
L1_120
  6
CONTINUOUS
 62
         7
100
AcDbCircle
 10
1554.8575047567
 20
-225.0406455357
 30
0.0
 40
7.9285
  0
LINE
  5
160
100
AcDbEntity
  8
L1_120
  6
CENTER
 62
         1
100
AcDbLine
 10
1542.8038830246
 20
-200.6950052044
 30
0.0
 11
1548.4420387493
 21
-198.6428843445
 31
0.0
  0
ARC
  5
161
100
AcDbEntity
  8
L1_120
  6
CONTINUOUS
 62
         7
100
AcDbCircle
 10
1544.709367075
 20
-200.0014657282
 30
0.0
 40
2.9722262277
100
AcDbArc
 50
1.2577258579
 51
20.0
  0
ARC
  5
162
100
AcDbEntity
  8
L1_120
  6
CONTINUOUS
 62
         7
100
AcDbCircle
 10
1545.211929301
 20
-199.9904319826
 30
0.0
 40
2.4695428935
100
AcDbArc
 50
340.6773100903
 51
361.2577258579
  0
ARC
  5
163
100
AcDbEntity
  8
L1_120
  6
CONTINUOUS
 62
         7
100
AcDbCircle
 10
1545.5813655689
 20
-200.1199709902
 30
0.0
 40
2.0780540551
100
AcDbArc
 50
316.8239621527
 51
340.6773100903
  0
ARC
  5
164
100
AcDbEntity
  8
L1_120
  6
CONTINUOUS
 62
         7
100
AcDbCircle
 10
1545.8938284836
 20
-200.41314738
 30
0.0
 40
1.6495853065
100
AcDbArc
 50
290.0000000001
 51
316.8239621528
  0
ARC
  5
165
100
AcDbEntity
  8
L1_120
  6
CONTINUOUS
 62
         7
100
AcDbCircle
 10
1545.8938284836
 20
-200.41314738
 30
0.0
 40
1.6495853065
100
AcDbArc
 50
263.1760378472
 51
290.0
  0
ARC
  5
166
100
AcDbEntity
  8
L1_120
  6
CONTINUOUS
 62
         7
100
AcDbCircle
 10
1545.9447388123
 20
-199.9877139457
 30
0.0
 40
2.0780540551
100
AcDbArc
 50
239.3226899096
 51
263.1760378472
  0
ARC
  5
167
100
AcDbEntity
  8
L1_120
  6
CONTINUOUS
 62
         7
100
AcDbCircle
 10
1546.1444773434
 20
-199.6510122532
 30
0.0
 40
2.4695428935
100
AcDbArc
 50
218.742274142
 51
239.3226899097
  0
ARC
  5
168
100
AcDbEntity
  8
L1_120
  6
CONTINUOUS
 62
         7
100
AcDbCircle
 10
1546.5365546989
 20
-199.3364238207
 30
0.0
 40
2.9722262277
100
AcDbArc
 50
200.0
 51
218.742274142
  0
ARC
  5
169
100
AcDbEntity
  8
L1_120
  6
CONTINUOUS
 62
         7
100
AcDbCircle
 10
1546.5365546989
 20
-199.3364238207
 30
0.0
 40
2.9722262277
100
AcDbArc
 50
181.257725858
 51
200.0000000001
  0
ARC
  5
16A
100
AcDbEntity
  8
L1_120
  6
CONTINUOUS
 62
         7
100
AcDbCircle
 10
1546.0339924729
 20
-199.3474575663
 30
0.0
 40
2.4695428935
100
AcDbArc
 50
160.6773100903
 51
181.257725858
  0
ARC
  5
16B
100
AcDbEntity
  8
L1_120
  6
CONTINUOUS
 62
         7
100
AcDbCircle
 10
1545.6645562049
 20
-199.2179185586
 30
0.0
 40
2.0780540551
100
AcDbArc
 50
136.8239621528
 51
160.6773100904
  0
ARC
  5
16C
100
AcDbEntity
  8
L1_120
  6
CONTINUOUS
 62
         7
100
AcDbCircle
 10
1545.3520932903
 20
-198.9247421689
 30
0.0
 40
1.6495853065
100
AcDbArc
 50
110.0
 51
136.8239621528
  0
ARC
  5
16D
100
AcDbEntity
  8
L1_120
  6
CONTINUOUS
 62
         7
100
AcDbCircle
 10
1545.3520932902
 20
-198.9247421689
 30
0.0
 40
1.6495853065
100
AcDbArc
 50
83.1760378471
 51
109.9999999999
  0
ARC
  5
16E
100
AcDbEntity
  8
L1_120
  6
CONTINUOUS
 62
         7
100
AcDbCircle
 10
1545.3011829616
 20
-199.3501756031
 30
0.0
 40
2.0780540551
100
AcDbArc
 50
59.3226899096
 51
83.1760378472
  0
ARC
  5
16F
100
AcDbEntity
  8
L1_120
  6
CONTINUOUS
 62
         7
100
AcDbCircle
 10
1545.1014444305
 20
-199.6868772957
 30
0.0
 40
2.4695428935
100
AcDbArc
 50
38.742274142
 51
59.3226899097
  0
ARC
  5
170
100
AcDbEntity
  8
L1_120
  6
CONTINUOUS
 62
         7
100
AcDbCircle
 10
1544.709367075
 20
-200.0014657282
 30
0.0
 40
2.9722262277
100
AcDbArc
 50
20.0
 51
38.742274142
  0
POLYLINE
  5
172
100
AcDbEntity
  8
L1_120
  6
CONTINUOUS
 62
         7
100
AcDb3dPolyline
 66
         1
 10
0.0
 20
0.0
 30
0.0
 70
         8
  0
VERTEX
  5
174
100
AcDbEntity
  8
L1_120
  6
CONTINUOUS
 62
         7
100
AcDbVertex
100
AcDb3dPolylineVertex
 10
1547.5023461285
 20
-198.9849044878
 30
0.0
 70
        32
  0
VERTEX
  5
176
100
AcDbEntity
  8
L1_120
  6
CONTINUOUS
 62
         7
100
AcDbVertex
100
AcDb3dPolylineVertex
 10
1547.5023461285
 20
-198.9849044878
 30
0.0
 70
        32
  0
SEQEND
  5
178
100
AcDbEntity
  8
L1_120
  6
CONTINUOUS
 62
         7
  0
POLYLINE
  5
17A
100
AcDbEntity
  8
L1_120
  6
CONTINUOUS
 62
         7
100
AcDb3dPolyline
 66
         1
 10
0.0
 20
0.0
 30
0.0
 70
         8
  0
VERTEX
  5
17C
100
AcDbEntity
  8
L1_120
  6
CONTINUOUS
 62
         7
100
AcDbVertex
100
AcDb3dPolylineVertex
 10
1547.6808772234
 20
-199.9362262708
 30
0.0
 70
        32
  0
VERTEX
  5
17E
100
AcDbEntity
  8
L1_120
  6
CONTINUOUS
 62
         7
100
AcDbVertex
100
AcDb3dPolylineVertex
 10
1547.6808772234
 20
-199.9362262708
 30
0.0
 70
        32
  0
SEQEND
  5
180
100
AcDbEntity
  8
L1_120
  6
CONTINUOUS
 62
         7
  0
POLYLINE
  5
182
100
AcDbEntity
  8
L1_120
  6
CONTINUOUS
 62
         7
100
AcDb3dPolyline
 66
         1
 10
0.0
 20
0.0
 30
0.0
 70
         8
  0
VERTEX
  5
184
100
AcDbEntity
  8
L1_120
  6
CONTINUOUS
 62
         7
100
AcDbVertex
100
AcDb3dPolylineVertex
 10
1547.542362817
 20
-200.8075743998
 30
0.0
 70
        32
  0
VERTEX
  5
186
100
AcDbEntity
  8
L1_120
  6
CONTINUOUS
 62
         7
100
AcDbVertex
100
AcDb3dPolylineVertex
 10
1547.542362817
 20
-200.8075743998
 30
0.0
 70
        32
  0
SEQEND
  5
188
100
AcDbEntity
  8
L1_120
  6
CONTINUOUS
 62
         7
  0
POLYLINE
  5
18A
100
AcDbEntity
  8
L1_120
  6
CONTINUOUS
 62
         7
100
AcDb3dPolyline
 66
         1
 10
0.0
 20
0.0
 30
0.0
 70
         8
  0
VERTEX
  5
18C
100
AcDbEntity
  8
L1_120
  6
CONTINUOUS
 62
         7
100
AcDbVertex
100
AcDb3dPolylineVertex
 10
1547.0967965753
 20
-201.5418632228
 30
0.0
 70
        32
  0
VERTEX
  5
18E
100
AcDbEntity
  8
L1_120
  6
CONTINUOUS
 62
         7
100
AcDbVertex
100
AcDb3dPolylineVertex
 10
1547.0967965753
 20
-201.5418632228
 30
0.0
 70
        32
  0
SEQEND
  5
190
100
AcDbEntity
  8
L1_120
  6
CONTINUOUS
 62
         7
  0
POLYLINE
  5
192
100
AcDbEntity
  8
L1_120
  6
CONTINUOUS
 62
         7
100
AcDb3dPolyline
 66
         1
 10
0.0
 20
0.0
 30
0.0
 70
         8
  0
VERTEX
  5
194
100
AcDbEntity
  8
L1_120
  6
CONTINUOUS
 62
         7
100
AcDbVertex
100
AcDb3dPolylineVertex
 10
1546.4580198866
 20
-201.9632505198
 30
0.0
 70
        32
  0
VERTEX
  5
196
100
AcDbEntity
  8
L1_120
  6
CONTINUOUS
 62
         7
100
AcDbVertex
100
AcDb3dPolylineVertex
 10
1546.4580198866
 20
-201.9632505198
 30
0.0
 70
        32
  0
SEQEND
  5
198
100
AcDbEntity
  8
L1_120
  6
CONTINUOUS
 62
         7
  0
POLYLINE
  5
19A
100
AcDbEntity
  8
L1_120
  6
CONTINUOUS
 62
         7
100
AcDb3dPolyline
 66
         1
 10
0.0
 20
0.0
 30
0.0
 70
         8
  0
VERTEX
  5
19C
100
AcDbEntity
  8
L1_120
  6
CONTINUOUS
 62
         7
100
AcDbVertex
100
AcDb3dPolylineVertex
 10
1545.6978260203
 20
-202.0510468634
 30
0.0
 70
        32
  0
VERTEX
  5
19E
100
AcDbEntity
  8
L1_120
  6
CONTINUOUS
 62
         7
100
AcDbVertex
100
AcDb3dPolylineVertex
 10
1545.6978260203
 20
-202.0510468634
 30
0.0
 70
        32
  0
SEQEND
  5
1A0
100
AcDbEntity
  8
L1_120
  6
CONTINUOUS
 62
         7
  0
POLYLINE
  5
1A2
100
AcDbEntity
  8
L1_120
  6
CONTINUOUS
 62
         7
100
AcDb3dPolyline
 66
         1
 10
0.0
 20
0.0
 30
0.0
 70
         8
  0
VERTEX
  5
1A4
100
AcDbEntity
  8
L1_120
  6
CONTINUOUS
 62
         7
100
AcDbVertex
100
AcDb3dPolylineVertex
 10
1544.8845107195
 20
-201.7749534504
 30
0.0
 70
        32
  0
VERTEX
  5
1A6
100
AcDbEntity
  8
L1_120
  6
CONTINUOUS
 62
         7
100
AcDbVertex
100
AcDb3dPolylineVertex
 10
1544.8845107195
 20
-201.7749534504
 30
0.0
 70
        32
  0
SEQEND
  5
1A8
100
AcDbEntity
  8
L1_120
  6
CONTINUOUS
 62
         7
  0
POLYLINE
  5
1AA
100
AcDbEntity
  8
L1_120
  6
CONTINUOUS
 62
         7
100
AcDb3dPolyline
 66
         1
 10
0.0
 20
0.0
 30
0.0
 70
         8
  0
VERTEX
  5
1AC
100
AcDbEntity
  8
L1_120
  6
CONTINUOUS
 62
         7
100
AcDbVertex
100
AcDb3dPolylineVertex
 10
1544.2183107471
 20
-201.1964974023
 30
0.0
 70
        32
  0
VERTEX
  5
1AE
100
AcDbEntity
  8
L1_120
  6
CONTINUOUS
 62
         7
100
AcDbVertex
100
AcDb3dPolylineVertex
 10
1544.2183107471
 20
-201.1964974023
 30
0.0
 70
        32
  0
SEQEND
  5
1B0
100
AcDbEntity
  8
L1_120
  6
CONTINUOUS
 62
         7
  0
POLYLINE
  5
1B2
100
AcDbEntity
  8
L1_120
  6
CONTINUOUS
 62
         7
100
AcDb3dPolyline
 66
         1
 10
0.0
 20
0.0
 30
0.0
 70
         8
  0
VERTEX
  5
1B4
100
AcDbEntity
  8
L1_120
  6
CONTINUOUS
 62
         7
100
AcDbVertex
100
AcDb3dPolylineVertex
 10
1543.7435756454
 20
-200.3529850611
 30
0.0
 70
        32
  0
VERTEX
  5
1B6
100
AcDbEntity
  8
L1_120
  6
CONTINUOUS
 62
         7
100
AcDbVertex
100
AcDb3dPolylineVertex
 10
1543.7435756454
 20
-200.3529850611
 30
0.0
 70
        32
  0
SEQEND
  5
1B8
100
AcDbEntity
  8
L1_120
  6
CONTINUOUS
 62
         7
  0
POLYLINE
  5
1BA
100
AcDbEntity
  8
L1_120
  6
CONTINUOUS
 62
         7
100
AcDb3dPolyline
 66
         1
 10
0.0
 20
0.0
 30
0.0
 70
         8
  0
VERTEX
  5
1BC
100
AcDbEntity
  8
L1_120
  6
CONTINUOUS
 62
         7
100
AcDbVertex
100
AcDb3dPolylineVertex
 10
1543.5650445505
 20
-199.4016632781
 30
0.0
 70
        32
  0
VERTEX
  5
1BE
100
AcDbEntity
  8
L1_120
  6
CONTINUOUS
 62
         7
100
AcDbVertex
100
AcDb3dPolylineVertex
 10
1543.5650445505
 20
-199.4016632781
 30
0.0
 70
        32
  0
SEQEND
  5
1C0
100
AcDbEntity
  8
L1_120
  6
CONTINUOUS
 62
         7
  0
POLYLINE
  5
1C2
100
AcDbEntity
  8
L1_120
  6
CONTINUOUS
 62
         7
100
AcDb3dPolyline
 66
         1
 10
0.0
 20
0.0
 30
0.0
 70
         8
  0
VERTEX
  5
1C4
100
AcDbEntity
  8
L1_120
  6
CONTINUOUS
 62
         7
100
AcDbVertex
100
AcDb3dPolylineVertex
 10
1543.7035589568
 20
-198.530315149
 30
0.0
 70
        32
  0
VERTEX
  5
1C6
100
AcDbEntity
  8
L1_120
  6
CONTINUOUS
 62
         7
100
AcDbVertex
100
AcDb3dPolylineVertex
 10
1543.7035589568
 20
-198.530315149
 30
0.0
 70
        32
  0
SEQEND
  5
1C8
100
AcDbEntity
  8
L1_120
  6
CONTINUOUS
 62
         7
  0
POLYLINE
  5
1CA
100
AcDbEntity
  8
L1_120
  6
CONTINUOUS
 62
         7
100
AcDb3dPolyline
 66
         1
 10
0.0
 20
0.0
 30
0.0
 70
         8
  0
VERTEX
  5
1CC
100
AcDbEntity
  8
L1_120
  6
CONTINUOUS
 62
         7
100
AcDbVertex
100
AcDb3dPolylineVertex
 10
1544.1491251986
 20
-197.7960263261
 30
0.0
 70
        32
  0
VERTEX
  5
1CE
100
AcDbEntity
  8
L1_120
  6
CONTINUOUS
 62
         7
100
AcDbVertex
100
AcDb3dPolylineVertex
 10
1544.1491251986
 20
-197.7960263261
 30
0.0
 70
        32
  0
SEQEND
  5
1D0
100
AcDbEntity
  8
L1_120
  6
CONTINUOUS
 62
         7
  0
POLYLINE
  5
1D2
100
AcDbEntity
  8
L1_120
  6
CONTINUOUS
 62
         7
100
AcDb3dPolyline
 66
         1
 10
0.0
 20
0.0
 30
0.0
 70
         8
  0
VERTEX
  5
1D4
100
AcDbEntity
  8
L1_120
  6
CONTINUOUS
 62
         7
100
AcDbVertex
100
AcDb3dPolylineVertex
 10
1544.7879018873
 20
-197.374639029
 30
0.0
 70
        32
  0
VERTEX
  5
1D6
100
AcDbEntity
  8
L1_120
  6
CONTINUOUS
 62
         7
100
AcDbVertex
100
AcDb3dPolylineVertex
 10
1544.7879018873
 20
-197.374639029
 30
0.0
 70
        32
  0
SEQEND
  5
1D8
100
AcDbEntity
  8
L1_120
  6
CONTINUOUS
 62
         7
  0
POLYLINE
  5
1DA
100
AcDbEntity
  8
L1_120
  6
CONTINUOUS
 62
         7
100
AcDb3dPolyline
 66
         1
 10
0.0
 20
0.0
 30
0.0
 70
         8
  0
VERTEX
  5
1DC
100
AcDbEntity
  8
L1_120
  6
CONTINUOUS
 62
         7
100
AcDbVertex
100
AcDb3dPolylineVertex
 10
1545.5480957535
 20
-197.2868426855
 30
0.0
 70
        32
  0
VERTEX
  5
1DE
100
AcDbEntity
  8
L1_120
  6
CONTINUOUS
 62
         7
100
AcDbVertex
100
AcDb3dPolylineVertex
 10
1545.5480957535
 20
-197.2868426855
 30
0.0
 70
        32
  0
SEQEND
  5
1E0
100
AcDbEntity
  8
L1_120
  6
CONTINUOUS
 62
         7
  0
POLYLINE
  5
1E2
100
AcDbEntity
  8
L1_120
  6
CONTINUOUS
 62
         7
100
AcDb3dPolyline
 66
         1
 10
0.0
 20
0.0
 30
0.0
 70
         8
  0
VERTEX
  5
1E4
100
AcDbEntity
  8
L1_120
  6
CONTINUOUS
 62
         7
100
AcDbVertex
100
AcDb3dPolylineVertex
 10
1546.3614110544
 20
-197.5629360984
 30
0.0
 70
        32
  0
VERTEX
  5
1E6
100
AcDbEntity
  8
L1_120
  6
CONTINUOUS
 62
         7
100
AcDbVertex
100
AcDb3dPolylineVertex
 10
1546.3614110544
 20
-197.5629360984
 30
0.0
 70
        32
  0
SEQEND
  5
1E8
100
AcDbEntity
  8
L1_120
  6
CONTINUOUS
 62
         7
  0
LINE
  5
1E9
100
AcDbEntity
  8
L1_120
  6
CENTER
 62
         1
100
AcDbLine
 10
1561.2729707642
 20
-251.4384067269
 30
0.0
 11
1566.9111264889
 21
-249.3862858669
 31
0.0
  0
ARC
  5
1EA
100
AcDbEntity
  8
L1_120
  6
CONTINUOUS
 62
         7
100
AcDbCircle
 10
1563.1784548146
 20
-250.7448672506
 30
0.0
 40
2.9722262277
100
AcDbArc
 50
20.0
 51
38.742274142
  0
ARC
  5
1EB
100
AcDbEntity
  8
L1_120
  6
CONTINUOUS
 62
         7
100
AcDbCircle
 10
1563.57053217
 20
-250.4302788182
 30
0.0
 40
2.4695428935
100
AcDbArc
 50
38.742274142
 51
59.3226899096
  0
ARC
  5
1EC
100
AcDbEntity
  8
L1_120
  6
CONTINUOUS
 62
         7
100
AcDbCircle
 10
1563.7702707011
 20
-250.0935771256
 30
0.0
 40
2.0780540551
100
AcDbArc
 50
59.3226899096
 51
83.1760378472
  0
ARC
  5
1ED
100
AcDbEntity
  8
L1_120
  6
CONTINUOUS
 62
         7
100
AcDbCircle
 10
1563.8211810298
 20
-249.6681436913
 30
0.0
 40
1.6495853065
100
AcDbArc
 50
83.1760378472
 51
110.0
  0
ARC
  5
1EE
100
AcDbEntity
  8
L1_120
  6
CONTINUOUS
 62
         7
100
AcDbCircle
 10
1563.8211810298
 20
-249.6681436913
 30
0.0
 40
1.6495853065
100
AcDbArc
 50
110.0
 51
136.8239621528
  0
ARC
  5
1EF
100
AcDbEntity
  8
L1_120
  6
CONTINUOUS
 62
         7
100
AcDbCircle
 10
1564.1336439445
 20
-249.9613200811
 30
0.0
 40
2.0780540551
100
AcDbArc
 50
136.8239621527
 51
160.6773100903
  0
ARC
  5
1F0
100
AcDbEntity
  8
L1_120
  6
CONTINUOUS
 62
         7
100
AcDbCircle
 10
1564.5030802125
 20
-250.0908590887
 30
0.0
 40
2.4695428935
100
AcDbArc
 50
160.6773100904
 51
181.257725858
  0
ARC
  5
1F1
100
AcDbEntity
  8
L1_120
  6
CONTINUOUS
 62
         7
100
AcDbCircle
 10
1565.0056424384
 20
-250.0798253431
 30
0.0
 40
2.9722262277
100
AcDbArc
 50
181.257725858
 51
200.0000000001
  0
ARC
  5
1F2
100
AcDbEntity
  8
L1_120
  6
CONTINUOUS
 62
         7
100
AcDbCircle
 10
1565.0056424384
 20
-250.0798253431
 30
0.0
 40
2.9722262277
100
AcDbArc
 50
200.0
 51
218.742274142
  0
ARC
  5
1F3
100
AcDbEntity
  8
L1_120
  6
CONTINUOUS
 62
         7
100
AcDbCircle
 10
1564.613565083
 20
-250.3944137756
 30
0.0
 40
2.4695428935
100
AcDbArc
 50
218.7422741419
 51
239.3226899096
  0
ARC
  5
1F4
100
AcDbEntity
  8
L1_120
  6
CONTINUOUS
 62
         7
100
AcDbCircle
 10
1564.4138265519
 20
-250.7311154682
 30
0.0
 40
2.0780540551
100
AcDbArc
 50
239.3226899097
 51
263.1760378472
  0
ARC
  5
1F5
100
AcDbEntity
  8
L1_120
  6
CONTINUOUS
 62
         7
100
AcDbCircle
 10
1564.3629162232
 20
-251.1565489024
 30
0.0
 40
1.6495853065
100
AcDbArc
 50
263.1760378472
 51
290.0
  0
ARC
  5
1F6
100
AcDbEntity
  8
L1_120
  6
CONTINUOUS
 62
         7
100
AcDbCircle
 10
1564.3629162232
 20
-251.1565489024
 30
0.0
 40
1.6495853065
100
AcDbArc
 50
290.0
 51
316.8239621528
  0
ARC
  5
1F7
100
AcDbEntity
  8
L1_120
  6
CONTINUOUS
 62
         7
100
AcDbCircle
 10
1564.0504533085
 20
-250.8633725127
 30
0.0
 40
2.0780540551
100
AcDbArc
 50
316.8239621527
 51
340.6773100903
  0
ARC
  5
1F8
100
AcDbEntity
  8
L1_120
  6
CONTINUOUS
 62
         7
100
AcDbCircle
 10
1563.6810170406
 20
-250.7338335051
 30
0.0
 40
2.4695428935
100
AcDbArc
 50
340.6773100904
 51
361.257725858
  0
ARC
  5
1F9
100
AcDbEntity
  8
L1_120
  6
CONTINUOUS
 62
         7
100
AcDbCircle
 10
1563.1784548146
 20
-250.7448672506
 30
0.0
 40
2.9722262277
100
AcDbArc
 50
1.257725858
 51
20.0
  0
POLYLINE
  5
1FB
100
AcDbEntity
  8
L1_120
  6
CONTINUOUS
 62
         7
100
AcDb3dPolyline
 66
         1
 10
0.0
 20
0.0
 30
0.0
 70
         8
  0
VERTEX
  5
1FD
100
AcDbEntity
  8
L1_120
  6
CONTINUOUS
 62
         7
100
AcDbVertex
100
AcDb3dPolylineVertex
 10
1565.9714338681
 20
-249.7283060102
 30
0.0
 70
        32
  0
VERTEX
  5
1FF
100
AcDbEntity
  8
L1_120
  6
CONTINUOUS
 62
         7
100
AcDbVertex
100
AcDb3dPolylineVertex
 10
1565.9714338681
 20
-249.7283060102
 30
0.0
 70
        32
  0
SEQEND
  5
201
100
AcDbEntity
  8
L1_120
  6
CONTINUOUS
 62
         7
  0
POLYLINE
  5
203
100
AcDbEntity
  8
L1_120
  6
CONTINUOUS
 62
         7
100
AcDb3dPolyline
 66
         1
 10
0.0
 20
0.0
 30
0.0
 70
         8
  0
VERTEX
  5
205
100
AcDbEntity
  8
L1_120
  6
CONTINUOUS
 62
         7
100
AcDbVertex
100
AcDb3dPolylineVertex
 10
1565.4966987663
 20
-248.884793669
 30
0.0
 70
        32
  0
VERTEX
  5
207
100
AcDbEntity
  8
L1_120
  6
CONTINUOUS
 62
         7
100
AcDbVertex
100
AcDb3dPolylineVertex
 10
1565.4966987663
 20
-248.884793669
 30
0.0
 70
        32
  0
SEQEND
  5
209
100
AcDbEntity
  8
L1_120
  6
CONTINUOUS
 62
         7
  0
POLYLINE
  5
20B
100
AcDbEntity
  8
L1_120
  6
CONTINUOUS
 62
         7
100
AcDb3dPolyline
 66
         1
 10
0.0
 20
0.0
 30
0.0
 70
         8
  0
VERTEX
  5
20D
100
AcDbEntity
  8
L1_120
  6
CONTINUOUS
 62
         7
100
AcDbVertex
100
AcDb3dPolylineVertex
 10
1564.830498794
 20
-248.3063376209
 30
0.0
 70
        32
  0
VERTEX
  5
20F
100
AcDbEntity
  8
L1_120
  6
CONTINUOUS
 62
         7
100
AcDbVertex
100
AcDb3dPolylineVertex
 10
1564.830498794
 20
-248.3063376209
 30
0.0
 70
        32
  0
SEQEND
  5
211
100
AcDbEntity
  8
L1_120
  6
CONTINUOUS
 62
         7
  0
POLYLINE
  5
213
100
AcDbEntity
  8
L1_120
  6
CONTINUOUS
 62
         7
100
AcDb3dPolyline
 66
         1
 10
0.0
 20
0.0
 30
0.0
 70
         8
  0
VERTEX
  5
215
100
AcDbEntity
  8
L1_120
  6
CONTINUOUS
 62
         7
100
AcDbVertex
100
AcDb3dPolylineVertex
 10
1564.0171834931
 20
-248.0302442079
 30
0.0
 70
        32
  0
VERTEX
  5
217
100
AcDbEntity
  8
L1_120
  6
CONTINUOUS
 62
         7
100
AcDbVertex
100
AcDb3dPolylineVertex
 10
1564.0171834931
 20
-248.0302442079
 30
0.0
 70
        32
  0
SEQEND
  5
219
100
AcDbEntity
  8
L1_120
  6
CONTINUOUS
 62
         7
  0
POLYLINE
  5
21B
100
AcDbEntity
  8
L1_120
  6
CONTINUOUS
 62
         7
100
AcDb3dPolyline
 66
         1
 10
0.0
 20
0.0
 30
0.0
 70
         8
  0
VERTEX
  5
21D
100
AcDbEntity
  8
L1_120
  6
CONTINUOUS
 62
         7
100
AcDbVertex
100
AcDb3dPolylineVertex
 10
1563.2569896269
 20
-248.1180405515
 30
0.0
 70
        32
  0
VERTEX
  5
21F
100
AcDbEntity
  8
L1_120
  6
CONTINUOUS
 62
         7
100
AcDbVertex
100
AcDb3dPolylineVertex
 10
1563.2569896269
 20
-248.1180405515
 30
0.0
 70
        32
  0
SEQEND
  5
221
100
AcDbEntity
  8
L1_120
  6
CONTINUOUS
 62
         7
  0
POLYLINE
  5
223
100
AcDbEntity
  8
L1_120
  6
CONTINUOUS
 62
         7
100
AcDb3dPolyline
 66
         1
 10
0.0
 20
0.0
 30
0.0
 70
         8
  0
VERTEX
  5
225
100
AcDbEntity
  8
L1_120
  6
CONTINUOUS
 62
         7
100
AcDbVertex
100
AcDb3dPolylineVertex
 10
1562.6182129382
 20
-248.5394278485
 30
0.0
 70
        32
  0
VERTEX
  5
227
100
AcDbEntity
  8
L1_120
  6
CONTINUOUS
 62
         7
100
AcDbVertex
100
AcDb3dPolylineVertex
 10
1562.6182129382
 20
-248.5394278485
 30
0.0
 70
        32
  0
SEQEND
  5
229
100
AcDbEntity
  8
L1_120
  6
CONTINUOUS
 62
         7
  0
POLYLINE
  5
22B
100
AcDbEntity
  8
L1_120
  6
CONTINUOUS
 62
         7
100
AcDb3dPolyline
 66
         1
 10
0.0
 20
0.0
 30
0.0
 70
         8
  0
VERTEX
  5
22D
100
AcDbEntity
  8
L1_120
  6
CONTINUOUS
 62
         7
100
AcDbVertex
100
AcDb3dPolylineVertex
 10
1562.1726466964
 20
-249.2737166715
 30
0.0
 70
        32
  0
VERTEX
  5
22F
100
AcDbEntity
  8
L1_120
  6
CONTINUOUS
 62
         7
100
AcDbVertex
100
AcDb3dPolylineVertex
 10
1562.1726466964
 20
-249.2737166715
 30
0.0
 70
        32
  0
SEQEND
  5
231
100
AcDbEntity
  8
L1_120
  6
CONTINUOUS
 62
         7
  0
POLYLINE
  5
233
100
AcDbEntity
  8
L1_120
  6
CONTINUOUS
 62
         7
100
AcDb3dPolyline
 66
         1
 10
0.0
 20
0.0
 30
0.0
 70
         8
  0
VERTEX
  5
235
100
AcDbEntity
  8
L1_120
  6
CONTINUOUS
 62
         7
100
AcDbVertex
100
AcDb3dPolylineVertex
 10
1562.0341322901
 20
-250.1450648005
 30
0.0
 70
        32
  0
VERTEX
  5
237
100
AcDbEntity
  8
L1_120
  6
CONTINUOUS
 62
         7
100
AcDbVertex
100
AcDb3dPolylineVertex
 10
1562.0341322901
 20
-250.1450648005
 30
0.0
 70
        32
  0
SEQEND
  5
239
100
AcDbEntity
  8
L1_120
  6
CONTINUOUS
 62
         7
  0
POLYLINE
  5
23B
100
AcDbEntity
  8
L1_120
  6
CONTINUOUS
 62
         7
100
AcDb3dPolyline
 66
         1
 10
0.0
 20
0.0
 30
0.0
 70
         8
  0
VERTEX
  5
23D
100
AcDbEntity
  8
L1_120
  6
CONTINUOUS
 62
         7
100
AcDbVertex
100
AcDb3dPolylineVertex
 10
1562.2126633849
 20
-251.0963865835
 30
0.0
 70
        32
  0
VERTEX
  5
23F
100
AcDbEntity
  8
L1_120
  6
CONTINUOUS
 62
         7
100
AcDbVertex
100
AcDb3dPolylineVertex
 10
1562.2126633849
 20
-251.0963865835
 30
0.0
 70
        32
  0
SEQEND
  5
241
100
AcDbEntity
  8
L1_120
  6
CONTINUOUS
 62
         7
  0
POLYLINE
  5
243
100
AcDbEntity
  8
L1_120
  6
CONTINUOUS
 62
         7
100
AcDb3dPolyline
 66
         1
 10
0.0
 20
0.0
 30
0.0
 70
         8
  0
VERTEX
  5
245
100
AcDbEntity
  8
L1_120
  6
CONTINUOUS
 62
         7
100
AcDbVertex
100
AcDb3dPolylineVertex
 10
1563.3535984591
 20
-252.5183549729
 30
0.0
 70
        32
  0
VERTEX
  5
247
100
AcDbEntity
  8
L1_120
  6
CONTINUOUS
 62
         7
100
AcDbVertex
100
AcDb3dPolylineVertex
 10
1563.3535984591
 20
-252.5183549729
 30
0.0
 70
        32
  0
SEQEND
  5
249
100
AcDbEntity
  8
L1_120
  6
CONTINUOUS
 62
         7
  0
POLYLINE
  5
24B
100
AcDbEntity
  8
L1_120
  6
CONTINUOUS
 62
         7
100
AcDb3dPolyline
 66
         1
 10
0.0
 20
0.0
 30
0.0
 70
         8
  0
VERTEX
  5
24D
100
AcDbEntity
  8
L1_120
  6
CONTINUOUS
 62
         7
100
AcDbVertex
100
AcDb3dPolylineVertex
 10
1564.1669137599
 20
-252.7944483858
 30
0.0
 70
        32
  0
VERTEX
  5
24F
100
AcDbEntity
  8
L1_120
  6
CONTINUOUS
 62
         7
100
AcDbVertex
100
AcDb3dPolylineVertex
 10
1564.1669137599
 20
-252.7944483858
 30
0.0
 70
        32
  0
SEQEND
  5
251
100
AcDbEntity
  8
L1_120
  6
CONTINUOUS
 62
         7
  0
POLYLINE
  5
253
100
AcDbEntity
  8
L1_120
  6
CONTINUOUS
 62
         7
100
AcDb3dPolyline
 66
         1
 10
0.0
 20
0.0
 30
0.0
 70
         8
  0
VERTEX
  5
255
100
AcDbEntity
  8
L1_120
  6
CONTINUOUS
 62
         7
100
AcDbVertex
100
AcDb3dPolylineVertex
 10
1564.9271076261
 20
-252.7066520423
 30
0.0
 70
        32
  0
VERTEX
  5
257
100
AcDbEntity
  8
L1_120
  6
CONTINUOUS
 62
         7
100
AcDbVertex
100
AcDb3dPolylineVertex
 10
1564.9271076261
 20
-252.7066520423
 30
0.0
 70
        32
  0
SEQEND
  5
259
100
AcDbEntity
  8
L1_120
  6
CONTINUOUS
 62
         7
  0
POLYLINE
  5
25B
100
AcDbEntity
  8
L1_120
  6
CONTINUOUS
 62
         7
100
AcDb3dPolyline
 66
         1
 10
0.0
 20
0.0
 30
0.0
 70
         8
  0
VERTEX
  5
25D
100
AcDbEntity
  8
L1_120
  6
CONTINUOUS
 62
         7
100
AcDbVertex
100
AcDb3dPolylineVertex
 10
1565.5658843149
 20
-252.2852647452
 30
0.0
 70
        32
  0
VERTEX
  5
25F
100
AcDbEntity
  8
L1_120
  6
CONTINUOUS
 62
         7
100
AcDbVertex
100
AcDb3dPolylineVertex
 10
1565.5658843149
 20
-252.2852647452
 30
0.0
 70
        32
  0
SEQEND
  5
261
100
AcDbEntity
  8
L1_120
  6
CONTINUOUS
 62
         7
  0
POLYLINE
  5
263
100
AcDbEntity
  8
L1_120
  6
CONTINUOUS
 62
         7
100
AcDb3dPolyline
 66
         1
 10
0.0
 20
0.0
 30
0.0
 70
         8
  0
VERTEX
  5
265
100
AcDbEntity
  8
L1_120
  6
CONTINUOUS
 62
         7
100
AcDbVertex
100
AcDb3dPolylineVertex
 10
1566.0114505566
 20
-251.5509759223
 30
0.0
 70
        32
  0
VERTEX
  5
267
100
AcDbEntity
  8
L1_120
  6
CONTINUOUS
 62
         7
100
AcDbVertex
100
AcDb3dPolylineVertex
 10
1566.0114505566
 20
-251.5509759223
 30
0.0
 70
        32
  0
SEQEND
  5
269
100
AcDbEntity
  8
L1_120
  6
CONTINUOUS
 62
         7
  0
LINE
  5
26A
100
AcDbEntity
  8
L1_120
  6
CENTER
 62
         1
100
AcDbLine
 10
1542.9637542726
 20
-192.3628346478
 30
0.0
 11
1566.898378016
 21
-258.122672926
 31
0.0
  0
LINE
  5
26B
100
AcDbEntity
  8
L1_120
  6
DASHED
 62
         2
100
AcDbLine
 10
1548.5784103267
 20
-201.9413665743
 30
0.0
 11
1547.1419257248
 21
-197.994657567
 31
0.0
  0
LINE
  5
26C
100
AcDbEntity
  8
L1_120
  6
DASHED
 62
         2
100
AcDbLine
 10
1544.8196398436
 20
-203.3094471476
 30
0.0
 11
1543.3831552416
 21
-199.3627381403
 31
0.0
  0
LINE
  5
26D
100
AcDbEntity
  8
L1_120
  6
DASHED
 62
         2
100
AcDbLine
 10
1548.2495179095
 20
-202.0610736244
 30
0.0
 11
1553.9056930361
 21
-217.6012870654
 31
0.0
  0
LINE
  5
26E
100
AcDbEntity
  8
L1_120
  6
DASHED
 62
         2
100
AcDbLine
 10
1545.1485322609
 20
-203.1897400974
 30
0.0
 11
1550.8047073875
 21
-218.7299535384
 31
0.0
  0
LINE
  5
26F
100
AcDbEntity
  8
L1_120
  6
DASHED
 62
         2
100
AcDbLine
 10
1548.5784103267
 20
-201.9413665743
 30
0.0
 11
1544.8196398436
 21
-203.3094471476
 31
0.0
  0
LINE
  5
270
100
AcDbEntity
  8
L1_120
  6
DASHED
 62
         2
100
AcDbLine
 10
1561.1365991867
 20
-248.139924497
 30
0.0
 11
1562.5730837887
 21
-252.0866335043
 31
0.0
  0
LINE
  5
271
100
AcDbEntity
  8
L1_120
  6
DASHED
 62
         2
100
AcDbLine
 10
1564.8953696699
 20
-246.7718439237
 30
0.0
 11
1561.1365991867
 21
-248.139924497
 31
0.0
  0
LINE
  5
272
100
AcDbEntity
  8
L1_120
  6
DASHED
 62
         2
100
AcDbLine
 10
1564.8953696699
 20
-246.7718439237
 30
0.0
 11
1566.3318542718
 21
-250.718552931
 31
0.0
  0
LINE
  5
273
100
AcDbEntity
  8
L1_120
  6
DASHED
 62
         2
100
AcDbLine
 10
1558.9103021259
 20
-231.3513375329
 30
0.0
 11
1564.5664772526
 21
-246.8915509739
 31
0.0
  0
LINE
  5
274
100
AcDbEntity
  8
L1_120
  6
DASHED
 62
         2
100
AcDbLine
 10
1555.8093164773
 20
-232.4800040059
 30
0.0
 11
1561.465491604
 21
-248.0202174469
 31
0.0
  0
LINE
  5
275
100
AcDbEntity
  8
L1_120
  6
DASHED
 62
         2
100
AcDbLine
 10
1564.1432711112
 20
-222.4456455357
 30
0.0
 11
1562.6450471627
 21
-225.0406455357
 31
0.0
  0
LINE
  5
276
100
AcDbEntity
  8
L1_120
  6
DASHED
 62
         2
100
AcDbLine
 10
1564.1432711112
 20
-227.6356455357
 30
0.0
 11
1562.6450471627
 21
-225.0406455357
 31
0.0
  0
LINE
  5
277
100
AcDbEntity
  8
L1_120
  6
DASHED
 62
         2
100
AcDbLine
 10
1564.1432711112
 20
-222.4456455357
 30
0.0
 11
1564.1432711112
 21
-227.6356455357
 31
0.0
  0
LINE
  5
278
100
AcDbEntity
  8
L1_120
  6
DASHED
 62
         2
100
AcDbLine
 10
1566.1432711112
 20
-222.0406455357
 30
0.0
 11
1566.1432711112
 21
-228.0406455357
 31
0.0
  0
LINE
  5
279
100
AcDbEntity
  8
L1_120
  6
DASHED
 62
         2
100
AcDbLine
 10
1566.1432711112
 20
-222.0406455357
 30
0.0
 11
1570.5209739627
 21
-222.0406455357
 31
0.0
  0
LINE
  5
27A
100
AcDbEntity
  8
L1_120
  6
DASHED
 62
         2
100
AcDbLine
 10
1564.1432711112
 20
-222.4456455357
 30
0.0
 11
1570.6070247707
 21
-222.4456455357
 31
0.0
  0
LINE
  5
27B
100
AcDbEntity
  8
L1_120
  6
DASHED
 62
         2
100
AcDbLine
 10
1566.1432711112
 20
-228.0406455357
 30
0.0
 11
1570.5209739627
 21
-228.0406455357
 31
0.0
  0
LINE
  5
27C
100
AcDbEntity
  8
L1_120
  6
DASHED
 62
         2
100
AcDbLine
 10
1564.1432711112
 20
-227.6356455357
 30
0.0
 11
1570.6070247707
 21
-227.6356455357
 31
0.0
  0
LINE
  5
27D
100
AcDbEntity
  8
L1_120
  6
DASHED
 62
         2
100
AcDbLine
 10
1557.4525047567
 20
-234.3264118902
 30
0.0
 11
1554.8575047567
 21
-232.8281879416
 31
0.0
  0
LINE
  5
27E
100
AcDbEntity
  8
L1_120
  6
DASHED
 62
         2
100
AcDbLine
 10
1552.2625047567
 20
-234.3264118902
 30
0.0
 11
1554.8575047567
 21
-232.8281879416
 31
0.0
  0
LINE
  5
27F
100
AcDbEntity
  8
L1_120
  6
DASHED
 62
         2
100
AcDbLine
 10
1557.4525047567
 20
-234.3264118902
 30
0.0
 11
1552.2625047567
 21
-234.3264118902
 31
0.0
  0
LINE
  5
280
100
AcDbEntity
  8
L1_120
  6
DASHED
 62
         2
100
AcDbLine
 10
1557.8575047567
 20
-236.3264118902
 30
0.0
 11
1551.8575047567
 21
-236.3264118902
 31
0.0
  0
LINE
  5
281
100
AcDbEntity
  8
L1_120
  6
DASHED
 62
         2
100
AcDbLine
 10
1557.8575047567
 20
-236.3264118902
 30
0.0
 11
1557.8575047567
 21
-240.7041147416
 31
0.0
  0
LINE
  5
282
100
AcDbEntity
  8
L1_120
  6
DASHED
 62
         2
100
AcDbLine
 10
1557.4525047567
 20
-234.3264118902
 30
0.0
 11
1557.4525047567
 21
-240.7901655496
 31
0.0
  0
LINE
  5
283
100
AcDbEntity
  8
L1_120
  6
DASHED
 62
         2
100
AcDbLine
 10
1551.8575047567
 20
-236.3264118902
 30
0.0
 11
1551.8575047567
 21
-240.7041147416
 31
0.0
  0
LINE
  5
284
100
AcDbEntity
  8
L1_120
  6
DASHED
 62
         2
100
AcDbLine
 10
1552.2625047567
 20
-234.3264118902
 30
0.0
 11
1552.2625047567
 21
-240.7901655496
 31
0.0
  0
LINE
  5
285
100
AcDbEntity
  8
L1_120
  6
DASHED
 62
         2
100
AcDbLine
 10
1545.5717384022
 20
-227.6356455357
 30
0.0
 11
1547.0699623508
 21
-225.0406455357
 31
0.0
  0
LINE
  5
286
100
AcDbEntity
  8
L1_120
  6
DASHED
 62
         2
100
AcDbLine
 10
1545.5717384022
 20
-222.4456455357
 30
0.0
 11
1547.0699623508
 21
-225.0406455357
 31
0.0
  0
LINE
  5
287
100
AcDbEntity
  8
L1_120
  6
DASHED
 62
         2
100
AcDbLine
 10
1545.5717384022
 20
-227.6356455357
 30
0.0
 11
1545.5717384022
 21
-222.4456455357
 31
0.0
  0
LINE
  5
288
100
AcDbEntity
  8
L1_120
  6
DASHED
 62
         2
100
AcDbLine
 10
1543.5717384022
 20
-228.0406455357
 30
0.0
 11
1543.5717384022
 21
-222.0406455357
 31
0.0
  0
LINE
  5
289
100
AcDbEntity
  8
L1_120
  6
DASHED
 62
         2
100
AcDbLine
 10
1543.5717384022
 20
-228.0406455357
 30
0.0
 11
1539.1940355508
 21
-228.0406455357
 31
0.0
  0
LINE
  5
28A
100
AcDbEntity
  8
L1_120
  6
DASHED
 62
         2
100
AcDbLine
 10
1545.5717384022
 20
-227.6356455357
 30
0.0
 11
1539.1079847427
 21
-227.6356455357
 31
0.0
  0
LINE
  5
28B
100
AcDbEntity
  8
L1_120
  6
DASHED
 62
         2
100
AcDbLine
 10
1543.5717384022
 20
-222.0406455357
 30
0.0
 11
1539.1940355508
 21
-222.0406455357
 31
0.0
  0
LINE
  5
28C
100
AcDbEntity
  8
L1_120
  6
DASHED
 62
         2
100
AcDbLine
 10
1545.5717384022
 20
-222.4456455357
 30
0.0
 11
1539.1079847427
 21
-222.4456455357
 31
0.0
  0
LINE
  5
28D
100
AcDbEntity
  8
L1_120
  6
DASHED
 62
         2
100
AcDbLine
 10
1552.2625047567
 20
-215.7548791812
 30
0.0
 11
1554.8575047567
 21
-217.2531031297
 31
0.0
  0
LINE
  5
28E
100
AcDbEntity
  8
L1_120
  6
DASHED
 62
         2
100
AcDbLine
 10
1557.4525047567
 20
-215.7548791812
 30
0.0
 11
1554.8575047567
 21
-217.2531031297
 31
0.0
  0
LINE
  5
28F
100
AcDbEntity
  8
L1_120
  6
DASHED
 62
         2
100
AcDbLine
 10
1552.2625047567
 20
-215.7548791812
 30
0.0
 11
1557.4525047567
 21
-215.7548791812
 31
0.0
  0
LINE
  5
290
100
AcDbEntity
  8
L1_120
  6
DASHED
 62
         2
100
AcDbLine
 10
1551.8575047567
 20
-213.7548791812
 30
0.0
 11
1557.8575047567
 21
-213.7548791812
 31
0.0
  0
LINE
  5
291
100
AcDbEntity
  8
L1_120
  6
DASHED
 62
         2
100
AcDbLine
 10
1551.8575047567
 20
-213.7548791812
 30
0.0
 11
1551.8575047567
 21
-209.3771763297
 31
0.0
  0
LINE
  5
292
100
AcDbEntity
  8
L1_120
  6
DASHED
 62
         2
100
AcDbLine
 10
1552.2625047567
 20
-215.7548791812
 30
0.0
 11
1552.2625047567
 21
-209.2911255217
 31
0.0
  0
LINE
  5
293
100
AcDbEntity
  8
L1_120
  6
DASHED
 62
         2
100
AcDbLine
 10
1557.8575047567
 20
-213.7548791812
 30
0.0
 11
1557.8575047567
 21
-209.3771763297
 31
0.0
  0
LINE
  5
294
100
AcDbEntity
  8
L1_120
  6
DASHED
 62
         2
100
AcDbLine
 10
1557.4525047567
 20
-215.7548791812
 30
0.0
 11
1557.4525047567
 21
-209.2911255217
 31
0.0
  0
CIRCLE
  5
295
100
AcDbEntity
  8
L1_120
  6
CONTINUOUS
 62
         7
100
AcDbCircle
 10
1554.8575047567
 20
-225.0406455357
 30
0.0
 40
11.938
  0
CIRCLE
  5
296
100
AcDbEntity
  8
L1_120
  6
CONTINUOUS
 62
         7
100
AcDbCircle
 10
1554.8575047567
 20
-225.0406455357
 30
0.0
 40
16.002
  0
LINE
  5
297
100
AcDbEntity
  8
L1_120
  6
DASHED
 62
         2
100
AcDbLine
 10
1415.8849142291
 20
-216.0386455357
 30
0.0
 11
1413.2899142291
 21
-217.5368694842
 31
0.0
  0
LINE
  5
298
100
AcDbEntity
  8
L1_120
  6
DASHED
 62
         2
100
AcDbLine
 10
1410.6949142291
 20
-216.0386455357
 30
0.0
 11
1413.2899142291
 21
-217.5368694842
 31
0.0
  0
LINE
  5
299
100
AcDbEntity
  8
L1_120
  6
DASHED
 62
         2
100
AcDbLine
 10
1410.6949142291
 20
-216.0386455357
 30
0.0
 11
1415.8849142291
 21
-216.0386455357
 31
0.0
  0
LINE
  5
29A
100
AcDbEntity
  8
L1_120
  6
DASHED
 62
         2
100
AcDbLine
 10
1410.2899142291
 20
-214.0386455357
 30
0.0
 11
1416.2899142291
 21
-214.0386455357
 31
0.0
  0
LINE
  5
29B
100
AcDbEntity
  8
L1_120
  6
DASHED
 62
         2
100
AcDbLine
 10
1410.6949142291
 20
-216.0386455357
 30
0.0
 11
1410.6949142291
 21
-209.0386455357
 31
0.0
  0
LINE
  5
29C
100
AcDbEntity
  8
L1_120
  6
DASHED
 62
         2
100
AcDbLine
 10
1410.2899142291
 20
-214.0386455357
 30
0.0
 11
1410.2899142291
 21
-209.0386455357
 31
0.0
  0
LINE
  5
29D
100
AcDbEntity
  8
L1_120
  6
DASHED
 62
         2
100
AcDbLine
 10
1416.2899142291
 20
-214.0386455357
 30
0.0
 11
1416.2899142291
 21
-209.142926329
 31
0.0
  0
LINE
  5
29E
100
AcDbEntity
  8
L1_120
  6
DASHED
 62
         2
100
AcDbLine
 10
1415.8849142291
 20
-216.0386455357
 30
0.0
 11
1415.8849142291
 21
-209.1110521378
 31
0.0
  0
LINE
  5
29F
100
AcDbEntity
  8
L1_120
  6
CENTER
 62
         1
100
AcDbLine
 10
1413.2899142291
 20
-244.9404805307
 30
0.0
 11
1413.2899142291
 21
-202.5447645491
 31
0.0
  0
ARC
  5
2A0
100
AcDbEntity
  8
L1_120
  6
CONTINUOUS
 62
         4
100
AcDbCircle
 10
1413.2775047567
 20
-225.0406455357
 30
0.0
 40
3.0
100
AcDbArc
 50
248.8783472373
 51
540.0
  0
CIRCLE
  5
2A1
100
AcDbEntity
  8
L1_120
  6
CONTINUOUS
 62
         7
100
AcDbCircle
 10
1413.2775047567
 20
-225.0406455357
 30
0.0
 40
2.595
  0
LINE
  5
2A2
100
AcDbEntity
  8
L1_120
  6
DASHED
 62
         2
100
AcDbLine
 10
1410.6949142291
 20
-234.0426455357
 30
0.0
 11
1415.8849142291
 21
-234.0426455357
 31
0.0
  0
LINE
  5
2A3
100
AcDbEntity
  8
L1_120
  6
DASHED
 62
         2
100
AcDbLine
 10
1410.6949142291
 20
-234.0426455357
 30
0.0
 11
1413.2899142291
 21
-232.5444215871
 31
0.0
  0
LINE
  5
2A4
100
AcDbEntity
  8
L1_120
  6
DASHED
 62
         2
100
AcDbLine
 10
1415.8849142291
 20
-234.0426455357
 30
0.0
 11
1413.2899142291
 21
-232.5444215871
 31
0.0
  0
LINE
  5
2A5
100
AcDbEntity
  8
L1_120
  6
DASHED
 62
         2
100
AcDbLine
 10
1416.2899142291
 20
-236.0426455357
 30
0.0
 11
1416.2899142291
 21
-241.0426455357
 31
0.0
  0
LINE
  5
2A6
100
AcDbEntity
  8
L1_120
  6
DASHED
 62
         2
100
AcDbLine
 10
1415.8849142291
 20
-234.0426455357
 30
0.0
 11
1415.8849142291
 21
-240.9702389335
 31
0.0
  0
LINE
  5
2A7
100
AcDbEntity
  8
L1_120
  6
DASHED
 62
         2
100
AcDbLine
 10
1410.2899142291
 20
-236.0426455357
 30
0.0
 11
1416.2899142291
 21
-236.0426455357
 31
0.0
  0
LINE
  5
2A8
100
AcDbEntity
  8
L1_120
  6
DASHED
 62
         2
100
AcDbLine
 10
1410.2899142291
 20
-236.0426455357
 30
0.0
 11
1410.2899142291
 21
-241.0426455357
 31
0.0
  0
LINE
  5
2A9
100
AcDbEntity
  8
L1_120
  6
DASHED
 62
         2
100
AcDbLine
 10
1410.6949142291
 20
-234.0426455357
 30
0.0
 11
1410.6949142291
 21
-241.0426455357
 31
0.0
  0
ARC
  5
2AA
100
AcDbEntity
  8
L1_120
  6
CONTINUOUS
 62
         7
100
AcDbCircle
 10
1408.6775047567
 20
-244.0426455357
 30
0.0
 40
3.0
100
AcDbArc
 50
90.0
 51
180.0
  0
ARC
  5
2AB
100
AcDbEntity
  8
L1_120
  6
CONTINUOUS
 62
         7
100
AcDbCircle
 10
1408.6775047567
 20
-206.0386455357
 30
0.0
 40
3.0
100
AcDbArc
 50
180.0
 51
270.0
  0
LINE
  5
2AC
100
AcDbEntity
  8
L1_120
  6
CONTINUOUS
 62
         4
100
AcDbLine
 10
1414.9494887089
 20
-209.0386455357
 30
0.0
 11
1414.9494887089
 21
-241.0426455357
 31
0.0
  0
LINE
  5
2AD
100
AcDbEntity
  8
L1_120
  6
CONTINUOUS
 62
         7
100
AcDbLine
 10
1408.6775047567
 20
-209.0386455357
 30
0.0
 11
1414.9494887089
 21
-209.0386455357
 31
0.0
  0
LINE
  5
2AE
100
AcDbEntity
  8
L1_120
  6
CONTINUOUS
 62
         7
100
AcDbLine
 10
1408.6775047567
 20
-241.0426455357
 30
0.0
 11
1414.9494887089
 21
-241.0426455357
 31
0.0
  0
LINE
  5
2AF
100
AcDbEntity
  8
L1_120
  6
CONTINUOUS
 62
         7
100
AcDbLine
 10
1465.6659638525
 20
-237.0511723777
 30
0.0
 11
1414.9494887089
 21
-241.0426455357
 31
0.0
  0
ARC
  5
2B0
100
AcDbEntity
  8
L1_120
  6
CONTINUOUS
 62
         7
100
AcDbCircle
 10
1465.5875047567
 20
-236.054255044
 30
0.0
 40
1.0
100
AcDbArc
 50
274.5
 51
360.0
  0
LINE
  5
2B1
100
AcDbEntity
  8
L1_120
  6
CONTINUOUS
 62
         7
100
AcDbLine
 10
1466.5875047567
 20
-214.0270360273
 30
0.0
 11
1466.5875047567
 21
-236.054255044
 31
0.0
  0
ARC
  5
2B2
100
AcDbEntity
  8
L1_120
  6
CONTINUOUS
 62
         7
100
AcDbCircle
 10
1465.5875047567
 20
-214.0270360273
 30
0.0
 40
1.0
100
AcDbArc
 50
0.0
 51
85.5
  0
LINE
  5
2B3
100
AcDbEntity
  8
L1_120
  6
CONTINUOUS
 62
         7
100
AcDbLine
 10
1465.6659638525
 20
-213.0301186936
 30
0.0
 11
1414.9494887089
 21
-209.0386455357
 31
0.0
  0
DIMENSION
  5
2B6
100
AcDbEntity
  8
L1_120
  6
CONTINUOUS
 62
         4
100
AcDbDimension
  2
*D7
 10
1499.308812878
 20
-209.0386455357
 30
0.0
 11
1497.283812878
 21
-230.4376800267
 31
0.0
  3
DIMSTYLE1
100
AcDbAlignedDimension
 13
1414.9494887089
 23
-209.0386455357
 33
0.0
 14
1414.9494887089
 24
-241.0426455357
 34
0.0
 50
90.0
100
AcDbRotatedDimension
  0
DIMENSION
  5
2C4
100
AcDbEntity
  8
L1_120
  6
CONTINUOUS
 62
         4
100
AcDbDimension
  2
*D8
 10
1490.0328067262
 20
-213.1026455357
 30
0.0
 11
1488.0078067262
 21
-230.5703384061
 31
0.0
  3
DIMSTYLE1
100
AcDbAlignedDimension
 13
1466.5875047567
 23
-213.1026455357
 33
0.0
 14
1466.5875047567
 24
-236.9786455357
 34
0.0
 50
90.0
100
AcDbRotatedDimension
  0
DIMENSION
  5
2D2
100
AcDbEntity
  8
L1_120
  6
CONTINUOUS
 62
         4
100
AcDbDimension
  2
*D9
 10
1414.9494887089
 20
-209.0386455357
 30
0.0
 11
1456.5457609091
 21
-207.2377579381
 31
0.0
 70
         2
  3
DIMSTYLE1
100
AcDb2LineAngularDimension
 13
1379.592202381
 23
-209.0386455357
 33
0.0
 14
1476.3887064707
 24
-209.0386455357
 34
0.0
 15
1464.7444229482
 25
-212.9575918515
 35
0.0
 16
1455.198286525
 26
-209.0386455357
 36
0.0
  0
ARC
  5
2E0
100
AcDbEntity
  8
L1_120
  6
CONTINUOUS
 62
         7
100
AcDbCircle
 10
1554.8575047567
 20
-225.0406455357
 30
0.0
 40
31.775
100
AcDbArc
 50
195.411296411
 51
344.588703589
  0
ARC
  5
2E1
100
AcDbEntity
  8
L1_120
  6
CONTINUOUS
 62
         7
100
AcDbCircle
 10
1554.8575047567
 20
-225.0406455357
 30
0.0
 40
31.775
100
AcDbArc
 50
15.411296411
 51
164.588703589
  0
LINE
  5
2E2
100
AcDbEntity
  8
L1_120
  6
CENTER
 62
         1
100
AcDbLine
 10
1554.8575047567
 20
-190.2656455357
 30
0.0
 11
1554.8575047567
 21
-259.8156455357
 31
0.0
  0
ARC
  5
2E3
100
AcDbEntity
  8
L1_120
  6
DASHED
 62
         2
100
AcDbCircle
 10
1554.8575047567
 20
-225.0406455357
 30
0.0
 40
28.125
100
AcDbArc
 50
16.6319205355
 51
163.3680794645
  0
ARC
  5
2E4
100
AcDbEntity
  8
L1_120
  6
DASHED
 62
         2
100
AcDbCircle
 10
1554.8575047567
 20
-225.0406455357
 30
0.0
 40
28.125
100
AcDbArc
 50
196.6319205355
 51
343.3680794645
  0
LINE
  5
2E5
100
AcDbEntity
  8
L1_120
  6
CONTINUOUS
 62
         7
100
AcDbLine
 10
1577.6575047567
 20
-217.4906455357
 30
0.0
 11
1577.6575047567
 21
-232.5906455357
 31
0.0
  0
LINE
  5
2E6
100
AcDbEntity
  8
L1_120
  6
CONTINUOUS
 62
         7
100
AcDbLine
 10
1577.6575047567
 20
-217.4906455357
 30
0.0
 11
1578.1575047567
 21
-216.9906455357
 31
0.0
  0
LINE
  5
2E7
100
AcDbEntity
  8
L1_120
  6
CONTINUOUS
 62
         7
100
AcDbLine
 10
1578.1575047567
 20
-216.9906455357
 30
0.0
 11
1585.0958867083
 21
-216.9906455357
 31
0.0
  0
LINE
  5
2E8
100
AcDbEntity
  8
L1_120
  6
CONTINUOUS
 62
         7
100
AcDbLine
 10
1585.4899719895
 20
-216.5965602545
 30
0.0
 11
1585.0958867083
 21
-216.9906455357
 31
0.0
  0
LINE
  5
2E9
100
AcDbEntity
  8
L1_120
  6
CONTINUOUS
 62
         7
100
AcDbLine
 10
1578.1575047567
 20
-233.0906455357
 30
0.0
 11
1585.0958867083
 21
-233.0906455357
 31
0.0
  0
LINE
  5
2EA
100
AcDbEntity
  8
L1_120
  6
CONTINUOUS
 62
         7
100
AcDbLine
 10
1577.6575047567
 20
-232.5906455357
 30
0.0
 11
1578.1575047567
 21
-233.0906455357
 31
0.0
  0
LINE
  5
2EB
100
AcDbEntity
  8
L1_120
  6
CONTINUOUS
 62
         7
100
AcDbLine
 10
1585.4899719895
 20
-233.4847308168
 30
0.0
 11
1585.0958867083
 21
-233.0906455357
 31
0.0
  0
LINE
  5
2EC
100
AcDbEntity
  8
L1_120
  6
CONTINUOUS
 62
         7
100
AcDbLine
 10
1524.6191228052
 20
-216.9906455357
 30
0.0
 11
1529.3575047567
 21
-216.9906455357
 31
0.0
  0
LINE
  5
2ED
100
AcDbEntity
  8
L1_120
  6
CONTINUOUS
 62
         7
100
AcDbLine
 10
1529.8575047567
 20
-217.4906455357
 30
0.0
 11
1529.8575047567
 21
-232.5906455357
 31
0.0
  0
LINE
  5
2EE
100
AcDbEntity
  8
L1_120
  6
CONTINUOUS
 62
         7
100
AcDbLine
 10
1529.8575047567
 20
-217.4906455357
 30
0.0
 11
1529.3575047567
 21
-216.9906455357
 31
0.0
  0
LINE
  5
2EF
100
AcDbEntity
  8
L1_120
  6
CONTINUOUS
 62
         7
100
AcDbLine
 10
1524.225037524
 20
-216.5965602545
 30
0.0
 11
1524.6191228052
 21
-216.9906455357
 31
0.0
  0
LINE
  5
2F0
100
AcDbEntity
  8
L1_120
  6
CONTINUOUS
 62
         7
100
AcDbLine
 10
1529.8575047567
 20
-232.5906455357
 30
0.0
 11
1529.3575047567
 21
-233.0906455357
 31
0.0
  0
LINE
  5
2F1
100
AcDbEntity
  8
L1_120
  6
CONTINUOUS
 62
         7
100
AcDbLine
 10
1524.225037524
 20
-233.4847308168
 30
0.0
 11
1524.6191228052
 21
-233.0906455357
 31
0.0
  0
LINE
  5
2F2
100
AcDbEntity
  8
L1_120
  6
CONTINUOUS
 62
         7
100
AcDbLine
 10
1524.6191228052
 20
-233.0906455357
 30
0.0
 11
1529.3575047567
 21
-233.0906455357
 31
0.0
  0
LINE
  5
2F3
100
AcDbEntity
  8
L1_120
  6
CENTER
 62
         1
100
AcDbLine
 10
1523.0825047567
 20
-225.0406455357
 30
0.0
 11
1586.6325047567
 21
-225.0406455357
 31
0.0
  0
LINE
  5
2F4
100
AcDbEntity
  8
L1_120
  6
CENTER
 62
         1
100
AcDbLine
 10
1521.4965556982
 20
-207.302314272
 30
0.0
 11
1554.8310752864
 21
-225.026592737
 31
0.0
  0
LINE
  5
2F5
100
AcDbEntity
  8
L1_120
  6
DASHED
 62
         2
100
AcDbLine
 10
1529.8575047567
 20
-230.2406455357
 30
0.0
 11
1530.0575047567
 21
-230.0406455357
 31
0.0
  0
LINE
  5
2F6
100
AcDbEntity
  8
L1_120
  6
DASHED
 62
         2
100
AcDbLine
 10
1529.8575047567
 20
-219.8406455357
 30
0.0
 11
1530.0575047567
 21
-220.0406455357
 31
0.0
  0
LINE
  5
2F7
100
AcDbEntity
  8
L1_120
  6
DASHED
 62
         2
100
AcDbLine
 10
1530.0575047567
 20
-220.0406455357
 30
0.0
 11
1530.0575047567
 21
-230.0406455357
 31
0.0
  0
ARC
  5
2F8
100
AcDbEntity
  8
L1_120
  6
DASHED
 62
         2
100
AcDbCircle
 10
1534.3075047567
 20
-229.8406455357
 30
0.0
 40
0.2
100
AcDbArc
 50
270.0
 51
360.0
  0
ARC
  5
2F9
100
AcDbEntity
  8
L1_120
  6
DASHED
 62
         2
100
AcDbCircle
 10
1534.3075047567
 20
-220.2406455357
 30
0.0
 40
0.2
100
AcDbArc
 50
0.0
 51
90.0
  0
LINE
  5
2FA
100
AcDbEntity
  8
L1_120
  6
DASHED
 62
         2
100
AcDbLine
 10
1534.5075047567
 20
-220.2406455357
 30
0.0
 11
1534.5075047567
 21
-229.8406455357
 31
0.0
  0
LINE
  5
2FB
100
AcDbEntity
  8
L1_120
  6
DASHED
 62
         2
100
AcDbLine
 10
1530.0575047567
 20
-220.0406455357
 30
0.0
 11
1534.3075047567
 21
-220.0406455357
 31
0.0
  0
LINE
  5
2FC
100
AcDbEntity
  8
L1_120
  6
DASHED
 62
         2
100
AcDbLine
 10
1530.0575047567
 20
-230.0406455357
 30
0.0
 11
1534.3075047567
 21
-230.0406455357
 31
0.0
  0
LINE
  5
2FD
100
AcDbEntity
  8
L1_120
  6
CENTER
 62
         1
100
AcDbLine
 10
1521.4965556982
 20
-242.7789767993
 30
0.0
 11
1554.8310752864
 21
-225.0546983343
 31
0.0
  0
LINE
  5
2FE
100
AcDbEntity
  8
L1_120
  6
DASHED
 62
         2
100
AcDbLine
 10
1529.1485275434
 20
-236.445211097
 30
0.0
 11
1536.0126488569
 21
-232.7954930545
 31
0.0
  0
LINE
  5
2FF
100
AcDbEntity
  8
L1_120
  6
DASHED
 62
         2
100
AcDbLine
 10
1531.0264137945
 20
-239.9770014684
 30
0.0
 11
1537.890535108
 21
-236.327283426
 31
0.0
  0
LINE
  5
300
100
AcDbEntity
  8
L1_120
  6
DASHED
 62
         2
100
AcDbLine
 10
1536.0126488569
 20
-232.7954930545
 30
0.0
 11
1537.890535108
 21
-236.327283426
 31
0.0
  0
LINE
  5
301
100
AcDbEntity
  8
L1_120
  6
DASHED
 62
         2
100
AcDbLine
 10
1537.9711320433
 20
-234.0192891739
 30
0.0
 11
1537.890535108
 21
-236.327283426
 31
0.0
  0
LINE
  5
302
100
AcDbEntity
  8
L1_120
  6
DASHED
 62
         2
100
AcDbLine
 10
1536.0126488569
 20
-232.7954930545
 30
0.0
 11
1537.9711320433
 21
-234.0192891739
 31
0.0
  0
LINE
  5
303
100
AcDbEntity
  8
L1_120
  6
DASHED
 62
         2
100
AcDbLine
 10
1529.1485275434
 20
-213.6360799743
 30
0.0
 11
1536.0126488569
 21
-217.2857980168
 31
0.0
  0
LINE
  5
304
100
AcDbEntity
  8
L1_120
  6
DASHED
 62
         2
100
AcDbLine
 10
1536.0126488569
 20
-217.2857980168
 30
0.0
 11
1537.890535108
 21
-213.7540076454
 31
0.0
  0
LINE
  5
305
100
AcDbEntity
  8
L1_120
  6
DASHED
 62
         2
100
AcDbLine
 10
1536.0126488569
 20
-217.2857980168
 30
0.0
 11
1537.9711320433
 21
-216.0620018974
 31
0.0
  0
LINE
  5
306
100
AcDbEntity
  8
L1_120
  6
DASHED
 62
         2
100
AcDbLine
 10
1537.9711320433
 20
-216.0620018974
 30
0.0
 11
1537.890535108
 21
-213.7540076454
 31
0.0
  0
LINE
  5
307
100
AcDbEntity
  8
L1_120
  6
DASHED
 62
         2
100
AcDbLine
 10
1531.0264137945
 20
-210.1042896029
 30
0.0
 11
1537.890535108
 21
-213.7540076454
 31
0.0
  0
LINE
  5
308
100
AcDbEntity
  8
L1_120
  6
CONTINUOUS
 62
         7
100
AcDbLine
 10
1529.8575047567
 20
-219.8406455357
 30
0.0
 11
1529.8575047567
 21
-230.2406455357
 31
0.0
  0
LINE
  5
309
100
AcDbEntity
  8
L1_120
  6
CENTER
 62
         1
100
AcDbLine
 10
1315.9340030258
 20
-338.1686220057
 30
0.0
 11
1466.5875047567
 21
-338.1686220057
 31
0.0
  0
LINE
  5
30A
100
AcDbEntity
  8
L1_120
  6
CONTINUOUS
 62
         7
100
AcDbLine
 10
1405.6775047567
 20
-216.1906455357
 30
0.0
 11
1404.8775047567
 21
-216.9906455357
 31
0.0
  0
LINE
  5
30B
100
AcDbEntity
  8
L1_120
  6
CONTINUOUS
 62
         7
100
AcDbLine
 10
1404.8775047567
 20
-216.9906455357
 30
0.0
 11
1404.8775047567
 21
-233.0906455357
 31
0.0
  0
LINE
  5
30C
100
AcDbEntity
  8
L1_120
  6
CONTINUOUS
 62
         7
100
AcDbLine
 10
1319.204336485
 20
-325.768875712
 30
0.0
 11
1387.7775047567
 21
-315.7686220057
 31
0.0
  0
LINE
  5
30D
100
AcDbEntity
  8
L1_120
  6
CONTINUOUS
 62
         7
100
AcDbLine
 10
1319.204336485
 20
-350.5683682994
 30
0.0
 11
1387.7775047572
 21
-360.5686220058
 31
0.0
  0
LINE
  5
30E
100
AcDbEntity
  8
L1_120
  6
CONTINUOUS
 62
         7
100
AcDbLine
 10
1318.3275047567
 20
-326.9344402893
 30
0.0
 11
1318.3275047567
 21
-349.4028037222
 31
0.0
  0
ARC
  5
30F
100
AcDbEntity
  8
L1_120
  6
CONTINUOUS
 62
         7
100
AcDbCircle
 10
1319.5275047567
 20
-326.9344402893
 30
0.0
 40
1.2
100
AcDbArc
 50
98.2971449698
 51
180.0
  0
ARC
  5
310
100
AcDbEntity
  8
L1_120
  6
CONTINUOUS
 62
         7
100
AcDbCircle
 10
1319.5275047567
 20
-349.4028037222
 30
0.0
 40
1.2
100
AcDbArc
 50
180.0
 51
261.7028550302
  0
LINE
  5
311
100
AcDbEntity
  8
L1_120
  6
CONTINUOUS
 62
         7
100
AcDbLine
 10
1346.7775047567
 20
-330.1686220057
 30
0.0
 11
1346.7775047567
 21
-346.1686220057
 31
0.0
  0
LINE
  5
312
100
AcDbEntity
  8
L1_120
  6
CONTINUOUS
 62
         5
100
AcDbLine
 10
1323.2303474692
 20
-346.1686220057
 30
0.0
 11
1346.7775047567
 21
-346.1686220057
 31
0.0
  0
ARC
  5
313
100
AcDbEntity
  8
L1_120
  6
CONTINUOUS
 62
         7
100
AcDbCircle
 10
1319.3275047567
 20
-347.3186220057
 30
0.0
 40
1.0
100
AcDbArc
 50
90.0
 51
180.0
  0
LINE
  5
314
100
AcDbEntity
  8
L1_120
  6
CONTINUOUS
 62
         7
100
AcDbLine
 10
1319.3275047567
 20
-346.3186220057
 30
0.0
 11
1322.0975047567
 21
-346.3186220057
 31
0.0
  0
LINE
  5
315
100
AcDbEntity
  8
L1_120
  6
CONTINUOUS
 62
         7
100
AcDbLine
 10
1322.445276528
 20
-346.411807171
 30
0.0
 11
1322.0975047567
 21
-346.3186220057
 31
0.0
  0
LINE
  5
316
100
AcDbEntity
  8
L1_120
  6
CONTINUOUS
 62
         7
100
AcDbLine
 10
1322.497040337
 20
-346.4186220057
 30
0.0
 11
1322.8975047567
 21
-346.4186220057
 31
0.0
  0
ARC
  5
317
100
AcDbEntity
  8
L1_120
  6
CONTINUOUS
 62
         7
100
AcDbCircle
 10
1322.8975047567
 20
-346.2186220057
 30
0.0
 40
0.2
100
AcDbArc
 50
270.0
 51
314.9999999962
  0
LINE
  5
318
100
AcDbEntity
  8
L1_120
  6
CONTINUOUS
 62
         7
100
AcDbLine
 10
1323.038926113
 20
-346.360043362
 30
0.0
 11
1324.2303474692
 21
-345.1686220057
 31
0.0
  0
LINE
  5
319
100
AcDbEntity
  8
L1_120
  6
CONTINUOUS
 62
         7
100
AcDbLine
 10
1324.2303474692
 20
-345.1686220057
 30
0.0
 11
1397.6775047567
 21
-345.1686220057
 31
0.0
  0
LINE
  5
31A
100
AcDbEntity
  8
L1_120
  6
CONTINUOUS
 62
         7
100
AcDbLine
 10
1324.2303474692
 20
-331.1686220057
 30
0.0
 11
1324.2303474692
 21
-345.1686220057
 31
0.0
  0
LINE
  5
31B
100
AcDbEntity
  8
L1_120
  6
CONTINUOUS
 62
         7
100
AcDbLine
 10
1324.2303474692
 20
-331.1686220057
 30
0.0
 11
1397.6775047567
 21
-331.1686220057
 31
0.0
  0
LINE
  5
31C
100
AcDbEntity
  8
L1_120
  6
CONTINUOUS
 62
         5
100
AcDbLine
 10
1323.2303474692
 20
-330.1686220057
 30
0.0
 11
1346.7775047567
 21
-330.1686220057
 31
0.0
  0
LINE
  5
31D
100
AcDbEntity
  8
L1_120
  6
CONTINUOUS
 62
         7
100
AcDbLine
 10
1322.0975047567
 20
-330.0186220057
 30
0.0
 11
1322.0975047567
 21
-346.3186220057
 31
0.0
  0
LINE
  5
31E
100
AcDbEntity
  8
L1_120
  6
CONTINUOUS
 62
         7
100
AcDbLine
 10
1323.0975047567
 20
-330.375099165
 30
0.0
 11
1323.0975047567
 21
-345.8473753412
 31
0.0
  0
ARC
  5
31F
100
AcDbEntity
  8
L1_120
  6
CONTINUOUS
 62
         7
100
AcDbCircle
 10
1322.8975047567
 20
-330.1186220057
 30
0.0
 40
0.2
100
AcDbArc
 50
45.0000000038
 51
90.0
  0
LINE
  5
320
100
AcDbEntity
  8
L1_120
  6
CONTINUOUS
 62
         7
100
AcDbLine
 10
1323.038926113
 20
-329.9772006495
 30
0.0
 11
1324.2303474692
 21
-331.1686220057
 31
0.0
  0
LINE
  5
321
100
AcDbEntity
  8
L1_120
  6
CONTINUOUS
 62
         7
100
AcDbLine
 10
1322.497040337
 20
-329.9186220057
 30
0.0
 11
1322.8975047567
 21
-329.9186220057
 31
0.0
  0
LINE
  5
322
100
AcDbEntity
  8
L1_120
  6
CONTINUOUS
 62
         7
100
AcDbLine
 10
1322.445276528
 20
-329.9254368405
 30
0.0
 11
1322.0975047567
 21
-330.0186220057
 31
0.0
  0
ARC
  5
323
100
AcDbEntity
  8
L1_120
  6
CONTINUOUS
 62
         7
100
AcDbCircle
 10
1322.497040337
 20
-330.1186220057
 30
0.0
 40
0.2
100
AcDbArc
 50
90.0
 51
105.0
  0
LINE
  5
324
100
AcDbEntity
  8
L1_120
  6
CONTINUOUS
 62
         7
100
AcDbLine
 10
1319.3275047567
 20
-330.0186220057
 30
0.0
 11
1322.0975047567
 21
-330.0186220057
 31
0.0
  0
ARC
  5
325
100
AcDbEntity
  8
L1_120
  6
CONTINUOUS
 62
         7
100
AcDbCircle
 10
1319.3275047567
 20
-329.0186220057
 30
0.0
 40
1.0
100
AcDbArc
 50
180.0
 51
270.0
  0
LINE
  5
326
100
AcDbEntity
  8
L1_120
  6
CONTINUOUS
 62
         5
100
AcDbLine
 10
1346.7775047567
 20
-346.1686220057
 30
0.0
 11
1351.5275047567
 21
-345.1686220057
 31
0.0
  0
LINE
  5
327
100
AcDbEntity
  8
L1_120
  6
CONTINUOUS
 62
         5
100
AcDbLine
 10
1346.7775047567
 20
-330.1686220057
 30
0.0
 11
1351.5275047567
 21
-331.1686220057
 31
0.0
  0
POLYLINE
  5
329
100
AcDbEntity
  8
L1_120
  6
CONTINUOUS
 62
         7
100
AcDb3dPolyline
 66
         1
 10
0.0
 20
0.0
 30
0.0
 70
         8
  0
VERTEX
  5
32B
100
AcDbEntity
  8
L1_120
  6
CONTINUOUS
 62
         7
100
AcDbVertex
100
AcDb3dPolylineVertex
 10
1240.3835756454
 20
-249.7283060102
 30
0.0
 70
        32
  0
VERTEX
  5
32D
100
AcDbEntity
  8
L1_120
  6
CONTINUOUS
 62
         7
100
AcDbVertex
100
AcDb3dPolylineVertex
 10
1240.3835756454
 20
-249.7283060102
 30
0.0
 70
        32
  0
SEQEND
  5
32F
100
AcDbEntity
  8
L1_120
  6
CONTINUOUS
 62
         7
  0
POLYLINE
  5
331
100
AcDbEntity
  8
L1_120
  6
CONTINUOUS
 62
         7
100
AcDb3dPolyline
 66
         1
 10
0.0
 20
0.0
 30
0.0
 70
         8
  0
VERTEX
  5
333
100
AcDbEntity
  8
L1_120
  6
CONTINUOUS
 62
         7
100
AcDbVertex
100
AcDb3dPolylineVertex
 10
1240.8583107471
 20
-248.884793669
 30
0.0
 70
        32
  0
VERTEX
  5
335
100
AcDbEntity
  8
L1_120
  6
CONTINUOUS
 62
         7
100
AcDbVertex
100
AcDb3dPolylineVertex
 10
1240.8583107471
 20
-248.884793669
 30
0.0
 70
        32
  0
SEQEND
  5
337
100
AcDbEntity
  8
L1_120
  6
CONTINUOUS
 62
         7
  0
POLYLINE
  5
339
100
AcDbEntity
  8
L1_120
  6
CONTINUOUS
 62
         7
100
AcDb3dPolyline
 66
         1
 10
0.0
 20
0.0
 30
0.0
 70
         8
  0
VERTEX
  5
33B
100
AcDbEntity
  8
L1_120
  6
CONTINUOUS
 62
         7
100
AcDbVertex
100
AcDb3dPolylineVertex
 10
1241.5245107195
 20
-248.3063376209
 30
0.0
 70
        32
  0
VERTEX
  5
33D
100
AcDbEntity
  8
L1_120
  6
CONTINUOUS
 62
         7
100
AcDbVertex
100
AcDb3dPolylineVertex
 10
1241.5245107195
 20
-248.3063376209
 30
0.0
 70
        32
  0
SEQEND
  5
33F
100
AcDbEntity
  8
L1_120
  6
CONTINUOUS
 62
         7
  0
POLYLINE
  5
341
100
AcDbEntity
  8
L1_120
  6
CONTINUOUS
 62
         7
100
AcDb3dPolyline
 66
         1
 10
0.0
 20
0.0
 30
0.0
 70
         8
  0
VERTEX
  5
343
100
AcDbEntity
  8
L1_120
  6
CONTINUOUS
 62
         7
100
AcDbVertex
100
AcDb3dPolylineVertex
 10
1243.0980198866
 20
-248.1180405515
 30
0.0
 70
        32
  0
VERTEX
  5
345
100
AcDbEntity
  8
L1_120
  6
CONTINUOUS
 62
         7
100
AcDbVertex
100
AcDb3dPolylineVertex
 10
1243.0980198866
 20
-248.1180405515
 30
0.0
 70
        32
  0
SEQEND
  5
347
100
AcDbEntity
  8
L1_120
  6
CONTINUOUS
 62
         7
  0
POLYLINE
  5
349
100
AcDbEntity
  8
L1_120
  6
CONTINUOUS
 62
         7
100
AcDb3dPolyline
 66
         1
 10
0.0
 20
0.0
 30
0.0
 70
         8
  0
VERTEX
  5
34B
100
AcDbEntity
  8
L1_120
  6
CONTINUOUS
 62
         7
100
AcDbVertex
100
AcDb3dPolylineVertex
 10
1243.7367965753
 20
-248.5394278485
 30
0.0
 70
        32
  0
VERTEX
  5
34D
100
AcDbEntity
  8
L1_120
  6
CONTINUOUS
 62
         7
100
AcDbVertex
100
AcDb3dPolylineVertex
 10
1243.7367965753
 20
-248.5394278485
 30
0.0
 70
        32
  0
SEQEND
  5
34F
100
AcDbEntity
  8
L1_120
  6
CONTINUOUS
 62
         7
  0
POLYLINE
  5
351
100
AcDbEntity
  8
L1_120
  6
CONTINUOUS
 62
         7
100
AcDb3dPolyline
 66
         1
 10
0.0
 20
0.0
 30
0.0
 70
         8
  0
VERTEX
  5
353
100
AcDbEntity
  8
L1_120
  6
CONTINUOUS
 62
         7
100
AcDbVertex
100
AcDb3dPolylineVertex
 10
1244.3208772234
 20
-250.1450648005
 30
0.0
 70
        32
  0
VERTEX
  5
355
100
AcDbEntity
  8
L1_120
  6
CONTINUOUS
 62
         7
100
AcDbVertex
100
AcDb3dPolylineVertex
 10
1244.3208772234
 20
-250.1450648005
 30
0.0
 70
        32
  0
SEQEND
  5
357
100
AcDbEntity
  8
L1_120
  6
CONTINUOUS
 62
         7
  0
POLYLINE
  5
359
100
AcDbEntity
  8
L1_120
  6
CONTINUOUS
 62
         7
100
AcDb3dPolyline
 66
         1
 10
0.0
 20
0.0
 30
0.0
 70
         8
  0
VERTEX
  5
35B
100
AcDbEntity
  8
L1_120
  6
CONTINUOUS
 62
         7
100
AcDbVertex
100
AcDb3dPolylineVertex
 10
1244.1423461285
 20
-251.0963865835
 30
0.0
 70
        32
  0
VERTEX
  5
35D
100
AcDbEntity
  8
L1_120
  6
CONTINUOUS
 62
         7
100
AcDbVertex
100
AcDb3dPolylineVertex
 10
1244.1423461285
 20
-251.0963865835
 30
0.0
 70
        32
  0
SEQEND
  5
35F
100
AcDbEntity
  8
L1_120
  6
CONTINUOUS
 62
         7
  0
POLYLINE
  5
361
100
AcDbEntity
  8
L1_120
  6
CONTINUOUS
 62
         7
100
AcDb3dPolyline
 66
         1
 10
0.0
 20
0.0
 30
0.0
 70
         8
  0
VERTEX
  5
363
100
AcDbEntity
  8
L1_120
  6
CONTINUOUS
 62
         7
100
AcDbVertex
100
AcDb3dPolylineVertex
 10
1243.6676110267
 20
-251.9398989247
 30
0.0
 70
        32
  0
VERTEX
  5
365
100
AcDbEntity
  8
L1_120
  6
CONTINUOUS
 62
         7
100
AcDbVertex
100
AcDb3dPolylineVertex
 10
1243.6676110267
 20
-251.9398989247
 30
0.0
 70
        32
  0
SEQEND
  5
367
100
AcDbEntity
  8
L1_120
  6
CONTINUOUS
 62
         7
  0
POLYLINE
  5
369
100
AcDbEntity
  8
L1_120
  6
CONTINUOUS
 62
         7
100
AcDb3dPolyline
 66
         1
 10
0.0
 20
0.0
 30
0.0
 70
         8
  0
VERTEX
  5
36B
100
AcDbEntity
  8
L1_120
  6
CONTINUOUS
 62
         7
100
AcDbVertex
100
AcDb3dPolylineVertex
 10
1243.0014110544
 20
-252.5183549729
 30
0.0
 70
        32
  0
VERTEX
  5
36D
100
AcDbEntity
  8
L1_120
  6
CONTINUOUS
 62
         7
100
AcDbVertex
100
AcDb3dPolylineVertex
 10
1243.0014110544
 20
-252.5183549729
 30
0.0
 70
        32
  0
SEQEND
  5
36F
100
AcDbEntity
  8
L1_120
  6
CONTINUOUS
 62
         7
  0
POLYLINE
  5
371
100
AcDbEntity
  8
L1_120
  6
CONTINUOUS
 62
         7
100
AcDb3dPolyline
 66
         1
 10
0.0
 20
0.0
 30
0.0
 70
         8
  0
VERTEX
  5
373
100
AcDbEntity
  8
L1_120
  6
CONTINUOUS
 62
         7
100
AcDbVertex
100
AcDb3dPolylineVertex
 10
1242.1880957535
 20
-252.7944483858
 30
0.0
 70
        32
  0
VERTEX
  5
375
100
AcDbEntity
  8
L1_120
  6
CONTINUOUS
 62
         7
100
AcDbVertex
100
AcDb3dPolylineVertex
 10
1242.1880957535
 20
-252.7944483858
 30
0.0
 70
        32
  0
SEQEND
  5
377
100
AcDbEntity
  8
L1_120
  6
CONTINUOUS
 62
         7
  0
POLYLINE
  5
379
100
AcDbEntity
  8
L1_120
  6
CONTINUOUS
 62
         7
100
AcDb3dPolyline
 66
         1
 10
0.0
 20
0.0
 30
0.0
 70
         8
  0
VERTEX
  5
37B
100
AcDbEntity
  8
L1_120
  6
CONTINUOUS
 62
         7
100
AcDbVertex
100
AcDb3dPolylineVertex
 10
1241.4279018873
 20
-252.7066520423
 30
0.0
 70
        32
  0
VERTEX
  5
37D
100
AcDbEntity
  8
L1_120
  6
CONTINUOUS
 62
         7
100
AcDbVertex
100
AcDb3dPolylineVertex
 10
1241.4279018873
 20
-252.7066520423
 30
0.0
 70
        32
  0
SEQEND
  5
37F
100
AcDbEntity
  8
L1_120
  6
CONTINUOUS
 62
         7
  0
POLYLINE
  5
381
100
AcDbEntity
  8
L1_120
  6
CONTINUOUS
 62
         7
100
AcDb3dPolyline
 66
         1
 10
0.0
 20
0.0
 30
0.0
 70
         8
  0
VERTEX
  5
383
100
AcDbEntity
  8
L1_120
  6
CONTINUOUS
 62
         7
100
AcDbVertex
100
AcDb3dPolylineVertex
 10
1240.7891251986
 20
-252.2852647452
 30
0.0
 70
        32
  0
VERTEX
  5
385
100
AcDbEntity
  8
L1_120
  6
CONTINUOUS
 62
         7
100
AcDbVertex
100
AcDb3dPolylineVertex
 10
1240.7891251986
 20
-252.2852647452
 30
0.0
 70
        32
  0
SEQEND
  5
387
100
AcDbEntity
  8
L1_120
  6
CONTINUOUS
 62
         7
  0
POLYLINE
  5
389
100
AcDbEntity
  8
L1_120
  6
CONTINUOUS
 62
         7
100
AcDb3dPolyline
 66
         1
 10
0.0
 20
0.0
 30
0.0
 70
         8
  0
VERTEX
  5
38B
100
AcDbEntity
  8
L1_120
  6
CONTINUOUS
 62
         7
100
AcDbVertex
100
AcDb3dPolylineVertex
 10
1258.8526633849
 20
-198.9849044878
 30
0.0
 70
        32
  0
VERTEX
  5
38D
100
AcDbEntity
  8
L1_120
  6
CONTINUOUS
 62
         7
100
AcDbVertex
100
AcDb3dPolylineVertex
 10
1258.8526633849
 20
-198.9849044878
 30
0.0
 70
        32
  0
SEQEND
  5
38F
100
AcDbEntity
  8
L1_120
  6
CONTINUOUS
 62
         7
  0
POLYLINE
  5
391
100
AcDbEntity
  8
L1_120
  6
CONTINUOUS
 62
         7
100
AcDb3dPolyline
 66
         1
 10
0.0
 20
0.0
 30
0.0
 70
         8
  0
VERTEX
  5
393
100
AcDbEntity
  8
L1_120
  6
CONTINUOUS
 62
         7
100
AcDbVertex
100
AcDb3dPolylineVertex
 10
1258.6741322901
 20
-199.9362262708
 30
0.0
 70
        32
  0
VERTEX
  5
395
100
AcDbEntity
  8
L1_120
  6
CONTINUOUS
 62
         7
100
AcDbVertex
100
AcDb3dPolylineVertex
 10
1258.6741322901
 20
-199.9362262708
 30
0.0
 70
        32
  0
SEQEND
  5
397
100
AcDbEntity
  8
L1_120
  6
CONTINUOUS
 62
         7
  0
POLYLINE
  5
399
100
AcDbEntity
  8
L1_120
  6
CONTINUOUS
 62
         7
100
AcDb3dPolyline
 66
         1
 10
0.0
 20
0.0
 30
0.0
 70
         8
  0
VERTEX
  5
39B
100
AcDbEntity
  8
L1_120
  6
CONTINUOUS
 62
         7
100
AcDbVertex
100
AcDb3dPolylineVertex
 10
1258.8126466964
 20
-200.8075743998
 30
0.0
 70
        32
  0
VERTEX
  5
39D
100
AcDbEntity
  8
L1_120
  6
CONTINUOUS
 62
         7
100
AcDbVertex
100
AcDb3dPolylineVertex
 10
1258.8126466964
 20
-200.8075743998
 30
0.0
 70
        32
  0
SEQEND
  5
39F
100
AcDbEntity
  8
L1_120
  6
CONTINUOUS
 62
         7
  0
POLYLINE
  5
3A1
100
AcDbEntity
  8
L1_120
  6
CONTINUOUS
 62
         7
100
AcDb3dPolyline
 66
         1
 10
0.0
 20
0.0
 30
0.0
 70
         8
  0
VERTEX
  5
3A3
100
AcDbEntity
  8
L1_120
  6
CONTINUOUS
 62
         7
100
AcDbVertex
100
AcDb3dPolylineVertex
 10
1259.2582129382
 20
-201.5418632228
 30
0.0
 70
        32
  0
VERTEX
  5
3A5
100
AcDbEntity
  8
L1_120
  6
CONTINUOUS
 62
         7
100
AcDbVertex
100
AcDb3dPolylineVertex
 10
1259.2582129382
 20
-201.5418632228
 30
0.0
 70
        32
  0
SEQEND
  5
3A7
100
AcDbEntity
  8
L1_120
  6
CONTINUOUS
 62
         7
  0
POLYLINE
  5
3A9
100
AcDbEntity
  8
L1_120
  6
CONTINUOUS
 62
         7
100
AcDb3dPolyline
 66
         1
 10
0.0
 20
0.0
 30
0.0
 70
         8
  0
VERTEX
  5
3AB
100
AcDbEntity
  8
L1_120
  6
CONTINUOUS
 62
         7
100
AcDbVertex
100
AcDb3dPolylineVertex
 10
1259.8969896269
 20
-201.9632505198
 30
0.0
 70
        32
  0
VERTEX
  5
3AD
100
AcDbEntity
  8
L1_120
  6
CONTINUOUS
 62
         7
100
AcDbVertex
100
AcDb3dPolylineVertex
 10
1259.8969896269
 20
-201.9632505198
 30
0.0
 70
        32
  0
SEQEND
  5
3AF
100
AcDbEntity
  8
L1_120
  6
CONTINUOUS
 62
         7
  0
POLYLINE
  5
3B1
100
AcDbEntity
  8
L1_120
  6
CONTINUOUS
 62
         7
100
AcDb3dPolyline
 66
         1
 10
0.0
 20
0.0
 30
0.0
 70
         8
  0
VERTEX
  5
3B3
100
AcDbEntity
  8
L1_120
  6
CONTINUOUS
 62
         7
100
AcDbVertex
100
AcDb3dPolylineVertex
 10
1260.6571834931
 20
-202.0510468634
 30
0.0
 70
        32
  0
VERTEX
  5
3B5
100
AcDbEntity
  8
L1_120
  6
CONTINUOUS
 62
         7
100
AcDbVertex
100
AcDb3dPolylineVertex
 10
1260.6571834931
 20
-202.0510468634
 30
0.0
 70
        32
  0
SEQEND
  5
3B7
100
AcDbEntity
  8
L1_120
  6
CONTINUOUS
 62
         7
  0
POLYLINE
  5
3B9
100
AcDbEntity
  8
L1_120
  6
CONTINUOUS
 62
         7
100
AcDb3dPolyline
 66
         1
 10
0.0
 20
0.0
 30
0.0
 70
         8
  0
VERTEX
  5
3BB
100
AcDbEntity
  8
L1_120
  6
CONTINUOUS
 62
         7
100
AcDbVertex
100
AcDb3dPolylineVertex
 10
1261.470498794
 20
-201.7749534504
 30
0.0
 70
        32
  0
VERTEX
  5
3BD
100
AcDbEntity
  8
L1_120
  6
CONTINUOUS
 62
         7
100
AcDbVertex
100
AcDb3dPolylineVertex
 10
1261.470498794
 20
-201.7749534504
 30
0.0
 70
        32
  0
SEQEND
  5
3BF
100
AcDbEntity
  8
L1_120
  6
CONTINUOUS
 62
         7
  0
POLYLINE
  5
3C1
100
AcDbEntity
  8
L1_120
  6
CONTINUOUS
 62
         7
100
AcDb3dPolyline
 66
         1
 10
0.0
 20
0.0
 30
0.0
 70
         8
  0
VERTEX
  5
3C3
100
AcDbEntity
  8
L1_120
  6
CONTINUOUS
 62
         7
100
AcDbVertex
100
AcDb3dPolylineVertex
 10
1262.1366987663
 20
-201.1964974023
 30
0.0
 70
        32
  0
VERTEX
  5
3C5
100
AcDbEntity
  8
L1_120
  6
CONTINUOUS
 62
         7
100
AcDbVertex
100
AcDb3dPolylineVertex
 10
1262.1366987663
 20
-201.1964974023
 30
0.0
 70
        32
  0
SEQEND
  5
3C7
100
AcDbEntity
  8
L1_120
  6
CONTINUOUS
 62
         7
  0
POLYLINE
  5
3C9
100
AcDbEntity
  8
L1_120
  6
CONTINUOUS
 62
         7
100
AcDb3dPolyline
 66
         1
 10
0.0
 20
0.0
 30
0.0
 70
         8
  0
VERTEX
  5
3CB
100
AcDbEntity
  8
L1_120
  6
CONTINUOUS
 62
         7
100
AcDbVertex
100
AcDb3dPolylineVertex
 10
1262.6114338681
 20
-200.3529850611
 30
0.0
 70
        32
  0
VERTEX
  5
3CD
100
AcDbEntity
  8
L1_120
  6
CONTINUOUS
 62
         7
100
AcDbVertex
100
AcDb3dPolylineVertex
 10
1262.6114338681
 20
-200.3529850611
 30
0.0
 70
        32
  0
SEQEND
  5
3CF
100
AcDbEntity
  8
L1_120
  6
CONTINUOUS
 62
         7
  0
POLYLINE
  5
3D1
100
AcDbEntity
  8
L1_120
  6
CONTINUOUS
 62
         7
100
AcDb3dPolyline
 66
         1
 10
0.0
 20
0.0
 30
0.0
 70
         8
  0
VERTEX
  5
3D3
100
AcDbEntity
  8
L1_120
  6
CONTINUOUS
 62
         7
100
AcDbVertex
100
AcDb3dPolylineVertex
 10
1262.789964963
 20
-199.4016632781
 30
0.0
 70
        32
  0
VERTEX
  5
3D5
100
AcDbEntity
  8
L1_120
  6
CONTINUOUS
 62
         7
100
AcDbVertex
100
AcDb3dPolylineVertex
 10
1262.789964963
 20
-199.4016632781
 30
0.0
 70
        32
  0
SEQEND
  5
3D7
100
AcDbEntity
  8
L1_120
  6
CONTINUOUS
 62
         7
  0
POLYLINE
  5
3D9
100
AcDbEntity
  8
L1_120
  6
CONTINUOUS
 62
         7
100
AcDb3dPolyline
 66
         1
 10
0.0
 20
0.0
 30
0.0
 70
         8
  0
VERTEX
  5
3DB
100
AcDbEntity
  8
L1_120
  6
CONTINUOUS
 62
         7
100
AcDbVertex
100
AcDb3dPolylineVertex
 10
1262.6514505566
 20
-198.530315149
 30
0.0
 70
        32
  0
VERTEX
  5
3DD
100
AcDbEntity
  8
L1_120
  6
CONTINUOUS
 62
         7
100
AcDbVertex
100
AcDb3dPolylineVertex
 10
1262.6514505566
 20
-198.530315149
 30
0.0
 70
        32
  0
SEQEND
  5
3DF
100
AcDbEntity
  8
L1_120
  6
CONTINUOUS
 62
         7
  0
POLYLINE
  5
3E1
100
AcDbEntity
  8
L1_120
  6
CONTINUOUS
 62
         7
100
AcDb3dPolyline
 66
         1
 10
0.0
 20
0.0
 30
0.0
 70
         8
  0
VERTEX
  5
3E3
100
AcDbEntity
  8
L1_120
  6
CONTINUOUS
 62
         7
100
AcDbVertex
100
AcDb3dPolylineVertex
 10
1262.2058843149
 20
-197.7960263261
 30
0.0
 70
        32
  0
VERTEX
  5
3E5
100
AcDbEntity
  8
L1_120
  6
CONTINUOUS
 62
         7
100
AcDbVertex
100
AcDb3dPolylineVertex
 10
1262.2058843149
 20
-197.7960263261
 30
0.0
 70
        32
  0
SEQEND
  5
3E7
100
AcDbEntity
  8
L1_120
  6
CONTINUOUS
 62
         7
  0
POLYLINE
  5
3E9
100
AcDbEntity
  8
L1_120
  6
CONTINUOUS
 62
         7
100
AcDb3dPolyline
 66
         1
 10
0.0
 20
0.0
 30
0.0
 70
         8
  0
VERTEX
  5
3EB
100
AcDbEntity
  8
L1_120
  6
CONTINUOUS
 62
         7
100
AcDbVertex
100
AcDb3dPolylineVertex
 10
1261.5671076262
 20
-197.374639029
 30
0.0
 70
        32
  0
VERTEX
  5
3ED
100
AcDbEntity
  8
L1_120
  6
CONTINUOUS
 62
         7
100
AcDbVertex
100
AcDb3dPolylineVertex
 10
1261.5671076262
 20
-197.374639029
 30
0.0
 70
        32
  0
SEQEND
  5
3EF
100
AcDbEntity
  8
L1_120
  6
CONTINUOUS
 62
         7
  0
POLYLINE
  5
3F1
100
AcDbEntity
  8
L1_120
  6
CONTINUOUS
 62
         7
100
AcDb3dPolyline
 66
         1
 10
0.0
 20
0.0
 30
0.0
 70
         8
  0
VERTEX
  5
3F3
100
AcDbEntity
  8
L1_120
  6
CONTINUOUS
 62
         7
100
AcDbVertex
100
AcDb3dPolylineVertex
 10
1260.8069137599
 20
-197.2868426855
 30
0.0
 70
        32
  0
VERTEX
  5
3F5
100
AcDbEntity
  8
L1_120
  6
CONTINUOUS
 62
         7
100
AcDbVertex
100
AcDb3dPolylineVertex
 10
1260.8069137599
 20
-197.2868426855
 30
0.0
 70
        32
  0
SEQEND
  5
3F7
100
AcDbEntity
  8
L1_120
  6
CONTINUOUS
 62
         7
  0
POLYLINE
  5
3F9
100
AcDbEntity
  8
L1_120
  6
CONTINUOUS
 62
         7
100
AcDb3dPolyline
 66
         1
 10
0.0
 20
0.0
 30
0.0
 70
         8
  0
VERTEX
  5
3FB
100
AcDbEntity
  8
L1_120
  6
CONTINUOUS
 62
         7
100
AcDbVertex
100
AcDb3dPolylineVertex
 10
1259.9935984591
 20
-197.5629360984
 30
0.0
 70
        32
  0
VERTEX
  5
3FD
100
AcDbEntity
  8
L1_120
  6
CONTINUOUS
 62
         7
100
AcDbVertex
100
AcDb3dPolylineVertex
 10
1259.9935984591
 20
-197.5629360984
 30
0.0
 70
        32
  0
SEQEND
  5
3FF
100
AcDbEntity
  8
L1_120
  6
CONTINUOUS
 62
         7
  0
LINE
  5
400
100
AcDbEntity
  8
L1_120
  6
CENTER
 62
         1
100
AcDbLine
 10
1245.0820387493
 20
-251.4384067269
 30
0.0
 11
1239.4438830246
 21
-249.3862858669
 31
0.0
  0
ARC
  5
401
100
AcDbEntity
  8
L1_120
  6
CONTINUOUS
 62
         7
100
AcDbCircle
 10
1243.1765546989
 20
-250.7448672506
 30
0.0
 40
2.9722262277
100
AcDbArc
 50
141.257725858
 51
160.0
  0
ARC
  5
402
100
AcDbEntity
  8
L1_120
  6
CONTINUOUS
 62
         7
100
AcDbCircle
 10
1242.7844773434
 20
-250.4302788182
 30
0.0
 40
2.4695428935
100
AcDbArc
 50
120.6773100904
 51
141.257725858
  0
ARC
  5
403
100
AcDbEntity
  8
L1_120
  6
CONTINUOUS
 62
         7
100
AcDbCircle
 10
1242.5847388123
 20
-250.0935771256
 30
0.0
 40
2.0780540551
100
AcDbArc
 50
96.8239621528
 51
120.6773100904
  0
ARC
  5
404
100
AcDbEntity
  8
L1_120
  6
CONTINUOUS
 62
         7
100
AcDbCircle
 10
1242.5338284836
 20
-249.6681436913
 30
0.0
 40
1.6495853065
100
AcDbArc
 50
70.0
 51
96.8239621528
  0
ARC
  5
405
100
AcDbEntity
  8
L1_120
  6
CONTINUOUS
 62
         7
100
AcDbCircle
 10
1242.5338284836
 20
-249.6681436913
 30
0.0
 40
1.6495853065
100
AcDbArc
 50
43.1760378472
 51
70.0
  0
ARC
  5
406
100
AcDbEntity
  8
L1_120
  6
CONTINUOUS
 62
         7
100
AcDbCircle
 10
1241.349367075
 20
-250.0798253431
 30
0.0
 40
2.9722262277
100
AcDbArc
 50
339.9999999999
 51
358.742274142
  0
ARC
  5
407
100
AcDbEntity
  8
L1_120
  6
CONTINUOUS
 62
         7
100
AcDbCircle
 10
1241.349367075
 20
-250.0798253431
 30
0.0
 40
2.9722262277
100
AcDbArc
 50
321.257725858
 51
340.0
  0
ARC
  5
408
100
AcDbEntity
  8
L1_120
  6
CONTINUOUS
 62
         7
100
AcDbCircle
 10
1241.7414444305
 20
-250.3944137756
 30
0.0
 40
2.4695428935
100
AcDbArc
 50
300.6773100904
 51
321.2577258581
  0
ARC
  5
409
100
AcDbEntity
  8
L1_120
  6
CONTINUOUS
 62
         7
100
AcDbCircle
 10
1241.9411829616
 20
-250.7311154682
 30
0.0
 40
2.0780540551
100
AcDbArc
 50
276.8239621528
 51
300.6773100903
  0
ARC
  5
40A
100
AcDbEntity
  8
L1_120
  6
CONTINUOUS
 62
         7
100
AcDbCircle
 10
1241.9920932903
 20
-251.1565489024
 30
0.0
 40
1.6495853065
100
AcDbArc
 50
250.0
 51
276.8239621528
  0
ARC
  5
40B
100
AcDbEntity
  8
L1_120
  6
CONTINUOUS
 62
         7
100
AcDbCircle
 10
1241.9920932903
 20
-251.1565489024
 30
0.0
 40
1.6495853065
100
AcDbArc
 50
223.1760378472
 51
250.0
  0
ARC
  5
40C
100
AcDbEntity
  8
L1_120
  6
CONTINUOUS
 62
         7
100
AcDbCircle
 10
1242.3045562049
 20
-250.8633725127
 30
0.0
 40
2.0780540551
100
AcDbArc
 50
199.3226899096
 51
223.1760378473
  0
ARC
  5
40D
100
AcDbEntity
  8
L1_120
  6
CONTINUOUS
 62
         7
100
AcDbCircle
 10
1242.6739924729
 20
-250.7338335051
 30
0.0
 40
2.4695428935
100
AcDbArc
 50
178.742274142
 51
199.3226899096
  0
ARC
  5
40E
100
AcDbEntity
  8
L1_120
  6
CONTINUOUS
 62
         7
100
AcDbCircle
 10
1243.1765546989
 20
-250.7448672506
 30
0.0
 40
2.9722262277
100
AcDbArc
 50
160.0
 51
178.742274142
  0
ARC
  5
40F
100
AcDbEntity
  8
L1_120
  6
CONTINUOUS
 62
         7
100
AcDbCircle
 10
1241.851929301
 20
-250.0908590887
 30
0.0
 40
2.4695428935
100
AcDbArc
 50
358.742274142
 51
379.3226899097
  0
ARC
  5
410
100
AcDbEntity
  8
L1_120
  6
CONTINUOUS
 62
         7
100
AcDbCircle
 10
1242.2213655689
 20
-249.9613200811
 30
0.0
 40
2.0780540551
100
AcDbArc
 50
19.3226899096
 51
43.1760378472
  0
ARC
  5
411
100
AcDbEntity
  8
L1_120
  6
CONTINUOUS
 62
         7
100
AcDbCircle
 10
1261.6456424385
 20
-200.0014657282
 30
0.0
 40
2.9722262277
100
AcDbArc
 50
160.0
 51
178.7422741421
  0
ARC
  5
412
100
AcDbEntity
  8
L1_120
  6
CONTINUOUS
 62
         7
100
AcDbCircle
 10
1261.1430802125
 20
-199.9904319826
 30
0.0
 40
2.4695428935
100
AcDbArc
 50
178.7422741421
 51
199.3226899097
  0
ARC
  5
413
100
AcDbEntity
  8
L1_120
  6
CONTINUOUS
 62
         7
100
AcDbCircle
 10
1260.7736439445
 20
-200.1199709902
 30
0.0
 40
2.0780540551
100
AcDbArc
 50
199.3226899097
 51
223.1760378473
  0
ARC
  5
414
100
AcDbEntity
  8
L1_120
  6
CONTINUOUS
 62
         7
100
AcDbCircle
 10
1260.4611810298
 20
-200.41314738
 30
0.0
 40
1.6495853065
100
AcDbArc
 50
223.1760378472
 51
249.9999999999
  0
ARC
  5
415
100
AcDbEntity
  8
L1_120
  6
CONTINUOUS
 62
         7
100
AcDbCircle
 10
1260.4611810298
 20
-200.41314738
 30
0.0
 40
1.6495853065
100
AcDbArc
 50
250.0
 51
276.8239621528
  0
ARC
  5
416
100
AcDbEntity
  8
L1_120
  6
CONTINUOUS
 62
         7
100
AcDbCircle
 10
1260.4102707011
 20
-199.9877139457
 30
0.0
 40
2.0780540551
100
AcDbArc
 50
276.8239621528
 51
300.6773100904
  0
ARC
  5
417
100
AcDbEntity
  8
L1_120
  6
CONTINUOUS
 62
         7
100
AcDbCircle
 10
1260.2105321701
 20
-199.6510122532
 30
0.0
 40
2.4695428935
100
AcDbArc
 50
300.6773100903
 51
321.257725858
  0
ARC
  5
418
100
AcDbEntity
  8
L1_120
  6
CONTINUOUS
 62
         7
100
AcDbCircle
 10
1259.8184548146
 20
-199.3364238207
 30
0.0
 40
2.9722262277
100
AcDbArc
 50
321.257725858
 51
340.0
  0
ARC
  5
419
100
AcDbEntity
  8
L1_120
  6
CONTINUOUS
 62
         7
100
AcDbCircle
 10
1259.8184548146
 20
-199.3364238207
 30
0.0
 40
2.9722262277
100
AcDbArc
 50
339.9999999999
 51
358.742274142
  0
ARC
  5
41A
100
AcDbEntity
  8
L1_120
  6
CONTINUOUS
 62
         7
100
AcDbCircle
 10
1260.3210170406
 20
-199.3474575663
 30
0.0
 40
2.4695428935
100
AcDbArc
 50
358.742274142
 51
379.3226899097
  0
ARC
  5
41B
100
AcDbEntity
  8
L1_120
  6
CONTINUOUS
 62
         7
100
AcDbCircle
 10
1260.6904533085
 20
-199.2179185586
 30
0.0
 40
2.0780540551
100
AcDbArc
 50
19.3226899096
 51
43.1760378472
  0
ARC
  5
41C
100
AcDbEntity
  8
L1_120
  6
CONTINUOUS
 62
         7
100
AcDbCircle
 10
1261.0029162232
 20
-198.9247421689
 30
0.0
 40
1.6495853065
100
AcDbArc
 50
43.1760378472
 51
70.0
  0
ARC
  5
41D
100
AcDbEntity
  8
L1_120
  6
CONTINUOUS
 62
         7
100
AcDbCircle
 10
1261.0029162232
 20
-198.9247421689
 30
0.0
 40
1.6495853065
100
AcDbArc
 50
70.0000000001
 51
96.8239621529
  0
ARC
  5
41E
100
AcDbEntity
  8
L1_120
  6
CONTINUOUS
 62
         7
100
AcDbCircle
 10
1261.0538265519
 20
-199.3501756031
 30
0.0
 40
2.0780540551
100
AcDbArc
 50
96.8239621528
 51
120.6773100904
  0
ARC
  5
41F
100
AcDbEntity
  8
L1_120
  6
CONTINUOUS
 62
         7
100
AcDbCircle
 10
1261.253565083
 20
-199.6868772957
 30
0.0
 40
2.4695428935
100
AcDbArc
 50
120.6773100903
 51
141.257725858
  0
ARC
  5
420
100
AcDbEntity
  8
L1_120
  6
CONTINUOUS
 62
         7
100
AcDbCircle
 10
1261.6456424385
 20
-200.0014657282
 30
0.0
 40
2.9722262277
100
AcDbArc
 50
141.257725858
 51
160.0
  0
LINE
  5
421
100
AcDbEntity
  8
L1_120
  6
CENTER
 62
         1
100
AcDbLine
 10
1263.5511264889
 20
-200.6950052044
 30
0.0
 11
1257.9129707642
 21
-198.6428843445
 31
0.0
  0
LINE
  5
422
100
AcDbEntity
  8
L1_120
  6
CENTER
 62
         1
100
AcDbLine
 10
1263.6773045514
 20
-191.5769206263
 30
0.0
 11
1239.4472088831
 21
-258.1485613461
 31
0.0
  0
LINE
  5
423
100
AcDbEntity
  8
L1_120
  6
CENTER
 62
         1
100
AcDbLine
 10
1219.7225047567
 20
-225.0406455357
 30
0.0
 11
1283.2725047567
 21
-225.0406455357
 31
0.0
  0
ARC
  5
424
100
AcDbEntity
  8
L1_120
  6
CONTINUOUS
 62
         7
100
AcDbCircle
 10
1251.4975047567
 20
-225.0406455357
 30
0.0
 40
31.775
100
AcDbArc
 50
195.411296411
 51
344.588703589
  0
ARC
  5
425
100
AcDbEntity
  8
L1_120
  6
CONTINUOUS
 62
         7
100
AcDbCircle
 10
1251.4975047567
 20
-225.0406455357
 30
0.0
 40
31.775
100
AcDbArc
 50
15.411296411
 51
164.588703589
  0
LINE
  5
426
100
AcDbEntity
  8
L1_120
  6
CENTER
 62
         1
100
AcDbLine
 10
1251.4975047567
 20
-260.6519977685
 30
0.0
 11
1251.4975047567
 21
-189.8079374371
 31
0.0
  0
CIRCLE
  5
427
100
AcDbEntity
  8
L1_120
  6
CONTINUOUS
 62
         7
100
AcDbCircle
 10
1251.4975047567
 20
-225.0406455357
 30
0.0
 40
12.7165768873
  0
CIRCLE
  5
428
100
AcDbEntity
  8
L1_120
  6
CONTINUOUS
 62
         7
100
AcDbCircle
 10
1251.4975047567
 20
-225.0406455357
 30
0.0
 40
7.0
  0
ARC
  5
429
100
AcDbEntity
  8
L1_120
  6
CONTINUOUS
 62
         5
100
AcDbCircle
 10
1251.4975047567
 20
-225.0406455357
 30
0.0
 40
8.0
100
AcDbArc
 50
352.9901372228
 51
621.2264515101
  0
CIRCLE
  5
42A
100
AcDbEntity
  8
L1_120
  6
CONTINUOUS
 62
         7
100
AcDbCircle
 10
1251.4975047567
 20
-225.0406455357
 30
0.0
 40
9.5
  0
CIRCLE
  5
42B
100
AcDbEntity
  8
L1_120
  6
CONTINUOUS
 62
         7
100
AcDbCircle
 10
1251.4975047567
 20
-225.0406455357
 30
0.0
 40
8.5
  0
CIRCLE
  5
42C
100
AcDbEntity
  8
L1_120
  6
CONTINUOUS
 62
         7
100
AcDbCircle
 10
1251.4975047567
 20
-225.0406455357
 30
0.0
 40
22.225
  0
LINE
  5
42D
100
AcDbEntity
  8
L1_120
  6
CONTINUOUS
 62
         7
100
AcDbLine
 10
1281.7358867083
 20
-216.9906455357
 30
0.0
 11
1276.9975047567
 21
-216.9906455357
 31
0.0
  0
LINE
  5
42E
100
AcDbEntity
  8
L1_120
  6
CONTINUOUS
 62
         7
100
AcDbLine
 10
1282.1299719895
 20
-216.5965602545
 30
0.0
 11
1281.7358867083
 21
-216.9906455357
 31
0.0
  0
LINE
  5
42F
100
AcDbEntity
  8
L1_120
  6
CONTINUOUS
 62
         7
100
AcDbLine
 10
1276.4975047567
 20
-217.4906455357
 30
0.0
 11
1276.9975047567
 21
-216.9906455357
 31
0.0
  0
LINE
  5
430
100
AcDbEntity
  8
L1_120
  6
CONTINUOUS
 62
         7
100
AcDbLine
 10
1282.1299719895
 20
-233.4847308168
 30
0.0
 11
1281.7358867083
 21
-233.0906455357
 31
0.0
  0
LINE
  5
431
100
AcDbEntity
  8
L1_120
  6
CONTINUOUS
 62
         7
100
AcDbLine
 10
1276.4975047567
 20
-232.5906455357
 30
0.0
 11
1276.9975047567
 21
-233.0906455357
 31
0.0
  0
LINE
  5
432
100
AcDbEntity
  8
L1_120
  6
CONTINUOUS
 62
         7
100
AcDbLine
 10
1276.4975047567
 20
-232.5906455357
 30
0.0
 11
1276.4975047567
 21
-217.4906455357
 31
0.0
  0
LINE
  5
433
100
AcDbEntity
  8
L1_120
  6
CONTINUOUS
 62
         7
100
AcDbLine
 10
1281.7358867083
 20
-233.0906455357
 30
0.0
 11
1276.9975047567
 21
-233.0906455357
 31
0.0
  0
LINE
  5
434
100
AcDbEntity
  8
L1_120
  6
CONTINUOUS
 62
         7
100
AcDbLine
 10
1220.865037524
 20
-216.5965602545
 30
0.0
 11
1221.2591228052
 21
-216.9906455357
 31
0.0
  0
LINE
  5
435
100
AcDbEntity
  8
L1_120
  6
CONTINUOUS
 62
         7
100
AcDbLine
 10
1228.6975047567
 20
-217.4906455357
 30
0.0
 11
1228.1975047567
 21
-216.9906455357
 31
0.0
  0
LINE
  5
436
100
AcDbEntity
  8
L1_120
  6
CONTINUOUS
 62
         7
100
AcDbLine
 10
1228.1975047567
 20
-216.9906455357
 30
0.0
 11
1221.2591228052
 21
-216.9906455357
 31
0.0
  0
LINE
  5
437
100
AcDbEntity
  8
L1_120
  6
CONTINUOUS
 62
         7
100
AcDbLine
 10
1220.865037524
 20
-233.4847308168
 30
0.0
 11
1221.2591228052
 21
-233.0906455357
 31
0.0
  0
LINE
  5
438
100
AcDbEntity
  8
L1_120
  6
CONTINUOUS
 62
         7
100
AcDbLine
 10
1228.1975047567
 20
-233.0906455357
 30
0.0
 11
1221.2591228052
 21
-233.0906455357
 31
0.0
  0
LINE
  5
439
100
AcDbEntity
  8
L1_120
  6
CONTINUOUS
 62
         7
100
AcDbLine
 10
1228.6975047567
 20
-232.5906455357
 30
0.0
 11
1228.1975047567
 21
-233.0906455357
 31
0.0
  0
LINE
  5
43A
100
AcDbEntity
  8
L1_120
  6
CONTINUOUS
 62
         7
100
AcDbLine
 10
1228.6975047567
 20
-232.5906455357
 30
0.0
 11
1228.6975047567
 21
-217.4906455357
 31
0.0
  0
ARC
  5
43B
100
AcDbEntity
  8
L1_120
  6
CONTINUOUS
 62
         7
100
AcDbCircle
 10
1319.5275047567
 20
-236.2748272521
 30
0.0
 40
1.2
100
AcDbArc
 50
180.0
 51
261.7028550302
  0
ARC
  5
43C
100
AcDbEntity
  8
L1_120
  6
CONTINUOUS
 62
         7
100
AcDbCircle
 10
1319.5275047567
 20
-213.8064638192
 30
0.0
 40
1.2
100
AcDbArc
 50
98.2971449698
 51
180.0
  0
LINE
  5
43D
100
AcDbEntity
  8
L1_120
  6
CONTINUOUS
 62
         7
100
AcDbLine
 10
1318.3275047567
 20
-213.8064638192
 30
0.0
 11
1318.3275047567
 21
-236.2748272521
 31
0.0
  0
LINE
  5
43E
100
AcDbEntity
  8
L1_120
  6
CONTINUOUS
 62
         7
100
AcDbLine
 10
1319.354336485
 20
-237.4622668294
 30
0.0
 11
1387.7775047567
 21
-247.4406455357
 31
0.0
  0
LINE
  5
43F
100
AcDbEntity
  8
L1_120
  6
CENTER
 62
         1
100
AcDbLine
 10
1315.9340030258
 20
-225.0406455357
 30
0.0
 11
1466.5875047567
 21
-225.0406455357
 31
0.0
  0
LINE
  5
440
100
AcDbEntity
  8
L1_120
  6
CONTINUOUS
 62
         7
100
AcDbLine
 10
1319.354336485
 20
-212.6190242419
 30
0.0
 11
1387.7775047567
 21
-202.6406455357
 31
0.0
  0
LINE
  5
441
100
AcDbEntity
  8
L1_120
  6
CONTINUOUS
 62
         7
100
AcDbLine
 10
1388.9775047567
 20
-202.6406455357
 30
0.0
 11
1387.7775047567
 21
-202.6406455357
 31
0.0
  0
ARC
  5
442
100
AcDbEntity
  8
L1_120
  6
CONTINUOUS
 62
         7
100
AcDbCircle
 10
1388.9775047567
 20
-201.8406455357
 30
0.0
 40
0.8
100
AcDbArc
 50
269.9999999999
 51
360.0
  0
ARC
  5
443
100
AcDbEntity
  8
L1_120
  6
CONTINUOUS
 62
         7
100
AcDbCircle
 10
1388.9775047567
 20
-248.2406455357
 30
0.0
 40
0.8
100
AcDbArc
 50
0.0
 51
90.0000000001
  0
LINE
  5
444
100
AcDbEntity
  8
L1_120
  6
CONTINUOUS
 62
         7
100
AcDbLine
 10
1388.9775047567
 20
-247.4406455357
 30
0.0
 11
1387.7775047567
 21
-247.4406455357
 31
0.0
  0
LINE
  5
445
100
AcDbEntity
  8
L1_120
  6
CONTINUOUS
 62
         4
100
AcDbLine
 10
1405.1775047567
 20
-256.8156455357
 30
0.0
 11
1405.1775047567
 21
-233.8906455357
 31
0.0
  0
LINE
  5
446
100
AcDbEntity
  8
L1_120
  6
CONTINUOUS
 62
         4
100
AcDbLine
 10
1390.2775047567
 20
-256.8156455357
 30
0.0
 11
1390.2775047567
 21
-233.8906455357
 31
0.0
  0
LINE
  5
447
100
AcDbEntity
  8
L1_120
  6
CONTINUOUS
 62
         4
100
AcDbLine
 10
1405.1775047567
 20
-216.1906455357
 30
0.0
 11
1405.1775047567
 21
-193.2656455357
 31
0.0
  0
LINE
  5
448
100
AcDbEntity
  8
L1_120
  6
CONTINUOUS
 62
         4
100
AcDbLine
 10
1390.2775047567
 20
-216.1906455357
 30
0.0
 11
1390.2775047567
 21
-193.2656455357
 31
0.0
  0
LINE
  5
449
100
AcDbEntity
  8
L1_120
  6
CONTINUOUS
 62
         7
100
AcDbLine
 10
1401.2137751555
 20
-233.8906455357
 30
0.0
 11
1401.2137751555
 21
-256.8156455357
 31
0.0
  0
LINE
  5
44A
100
AcDbEntity
  8
L1_120
  6
CONTINUOUS
 62
         7
100
AcDbLine
 10
1399.5525047567
 20
-233.0906455357
 30
0.0
 11
1399.5525047567
 21
-253.9382407999
 31
0.0
  0
LINE
  5
44B
100
AcDbEntity
  8
L1_120
  6
CONTINUOUS
 62
         7
100
AcDbLine
 10
1395.8025047567
 20
-233.0906455357
 30
0.0
 11
1395.8025047567
 21
-253.9382407998
 31
0.0
  0
LINE
  5
44C
100
AcDbEntity
  8
L1_120
  6
CONTINUOUS
 62
         7
100
AcDbLine
 10
1394.1412343579
 20
-233.8906455357
 30
0.0
 11
1394.1412343579
 21
-256.8156455357
 31
0.0
  0
LINE
  5
44D
100
AcDbEntity
  8
L1_120
  6
CONTINUOUS
 62
         7
100
AcDbLine
 10
1405.6775047567
 20
-216.1906455357
 30
0.0
 11
1401.2137751555
 21
-216.1906455357
 31
0.0
  0
LINE
  5
44E
100
AcDbEntity
  8
L1_120
  6
CONTINUOUS
 62
         7
100
AcDbLine
 10
1399.5525047567
 20
-216.9906455357
 30
0.0
 11
1401.2137751555
 21
-216.1906455357
 31
0.0
  0
LINE
  5
44F
100
AcDbEntity
  8
L1_120
  6
CONTINUOUS
 62
         7
100
AcDbLine
 10
1399.5525047567
 20
-233.0906455357
 30
0.0
 11
1401.2137751555
 21
-233.8906455357
 31
0.0
  0
LINE
  5
450
100
AcDbEntity
  8
L1_120
  6
CONTINUOUS
 62
         7
100
AcDbLine
 10
1405.6775047567
 20
-233.8906455357
 30
0.0
 11
1401.2137751555
 21
-233.8906455357
 31
0.0
  0
LINE
  5
451
100
AcDbEntity
  8
L1_120
  6
CONTINUOUS
 62
         7
100
AcDbLine
 10
1394.1412343579
 20
-216.1906455357
 30
0.0
 11
1389.7775047567
 21
-216.1906455357
 31
0.0
  0
LINE
  5
452
100
AcDbEntity
  8
L1_120
  6
CONTINUOUS
 62
         7
100
AcDbLine
 10
1389.7775047567
 20
-216.1906455357
 30
0.0
 11
1390.5775047567
 21
-216.9906455357
 31
0.0
  0
LINE
  5
453
100
AcDbEntity
  8
L1_120
  6
CONTINUOUS
 62
         7
100
AcDbLine
 10
1390.5775047567
 20
-233.0906455357
 30
0.0
 11
1389.7775047567
 21
-233.8906455357
 31
0.0
  0
LINE
  5
454
100
AcDbEntity
  8
L1_120
  6
CONTINUOUS
 62
         7
100
AcDbLine
 10
1394.1412343579
 20
-233.8906455357
 30
0.0
 11
1389.7775047567
 21
-233.8906455357
 31
0.0
  0
LINE
  5
455
100
AcDbEntity
  8
L1_120
  6
CONTINUOUS
 62
         7
100
AcDbLine
 10
1390.5775047567
 20
-216.9906455357
 30
0.0
 11
1390.5775047567
 21
-233.0906455357
 31
0.0
  0
LINE
  5
456
100
AcDbEntity
  8
L1_120
  6
CONTINUOUS
 62
         7
100
AcDbLine
 10
1394.1412343579
 20
-233.8906455357
 30
0.0
 11
1395.8025047567
 21
-233.0906455357
 31
0.0
  0
LINE
  5
457
100
AcDbEntity
  8
L1_120
  6
CONTINUOUS
 62
         7
100
AcDbLine
 10
1394.1412343579
 20
-216.1906455357
 30
0.0
 11
1395.8025047567
 21
-216.9906455357
 31
0.0
  0
LINE
  5
458
100
AcDbEntity
  8
L1_120
  6
CONTINUOUS
 62
         7
100
AcDbLine
 10
1404.8775047567
 20
-233.0906455357
 30
0.0
 11
1390.5775047567
 21
-233.0906455357
 31
0.0
  0
LINE
  5
459
100
AcDbEntity
  8
L1_120
  6
CONTINUOUS
 62
         7
100
AcDbLine
 10
1404.8775047567
 20
-216.9906455357
 30
0.0
 11
1390.5775047567
 21
-216.9906455357
 31
0.0
  0
LINE
  5
45A
100
AcDbEntity
  8
L1_120
  6
CONTINUOUS
 62
         7
100
AcDbLine
 10
1401.2137751555
 20
-193.2656455357
 30
0.0
 11
1401.2137751555
 21
-216.1906455357
 31
0.0
  0
LINE
  5
45B
100
AcDbEntity
  8
L1_120
  6
CONTINUOUS
 62
         7
100
AcDbLine
 10
1399.5525047567
 20
-196.1430502715
 30
0.0
 11
1399.5525047567
 21
-216.9906455357
 31
0.0
  0
LINE
  5
45C
100
AcDbEntity
  8
L1_120
  6
CONTINUOUS
 62
         7
100
AcDbLine
 10
1395.8025047567
 20
-196.1430502715
 30
0.0
 11
1395.8025047567
 21
-216.9906455357
 31
0.0
  0
LINE
  5
45D
100
AcDbEntity
  8
L1_120
  6
CONTINUOUS
 62
         7
100
AcDbLine
 10
1394.1412343579
 20
-193.2656455357
 30
0.0
 11
1394.1412343579
 21
-216.1906455357
 31
0.0
  0
LINE
  5
45E
100
AcDbEntity
  8
L1_120
  6
CONTINUOUS
 62
         7
100
AcDbLine
 10
1395.8025047567
 20
-196.1430502715
 30
0.0
 11
1394.1412343579
 21
-193.2656455357
 31
0.0
  0
LINE
  5
45F
100
AcDbEntity
  8
L1_120
  6
CONTINUOUS
 62
         7
100
AcDbLine
 10
1395.8025047567
 20
-253.9382407998
 30
0.0
 11
1394.1412343579
 21
-256.8156455357
 31
0.0
  0
LINE
  5
460
100
AcDbEntity
  8
L1_120
  6
CONTINUOUS
 62
         7
100
AcDbLine
 10
1389.7775047567
 20
-194.2656455357
 30
0.0
 11
1389.7775047567
 21
-255.8156455357
 31
0.0
  0
LINE
  5
461
100
AcDbEntity
  8
L1_120
  6
CENTER
 62
         1
100
AcDbLine
 10
1386.5775047567
 20
-202.8156455357
 30
0.0
 11
1386.5775047567
 21
-247.2656455357
 31
0.0
  0
LINE
  5
462
100
AcDbEntity
  8
L1_120
  6
CONTINUOUS
 62
         7
100
AcDbLine
 10
1390.7775047567
 20
-256.8156455357
 30
0.0
 11
1394.1412343579
 21
-256.8156455357
 31
0.0
  0
LINE
  5
463
100
AcDbEntity
  8
L1_120
  6
CONTINUOUS
 62
         7
100
AcDbLine
 10
1390.7775047567
 20
-193.2656455357
 30
0.0
 11
1394.1412343579
 21
-193.2656455357
 31
0.0
  0
LINE
  5
464
100
AcDbEntity
  8
L1_120
  6
CONTINUOUS
 62
         7
100
AcDbLine
 10
1405.6775047567
 20
-194.2656455357
 30
0.0
 11
1405.6775047567
 21
-255.8156455357
 31
0.0
  0
LINE
  5
465
100
AcDbEntity
  8
L1_120
  6
CONTINUOUS
 62
         7
100
AcDbLine
 10
1405.6775047567
 20
-194.2656455357
 30
0.0
 11
1405.6775047567
 21
-206.0406455357
 31
0.0
  0
LINE
  5
466
100
AcDbEntity
  8
L1_120
  6
CONTINUOUS
 62
         7
100
AcDbLine
 10
1396.7763050885
 20
-253.1656455357
 30
0.0
 11
1398.578704425
 21
-253.1656455357
 31
0.0
  0
ARC
  5
467
100
AcDbEntity
  8
L1_120
  6
CONTINUOUS
 62
         7
100
AcDbCircle
 10
1396.7763050885
 20
-254.1656455357
 30
0.0
 40
1.0
100
AcDbArc
 50
90.0
 51
166.8556743105
  0
LINE
  5
468
100
AcDbEntity
  8
L1_120
  6
CONTINUOUS
 62
         7
100
AcDbLine
 10
1399.5525047567
 20
-253.9382407998
 30
0.0
 11
1401.2137751555
 21
-256.8156455357
 31
0.0
  0
ARC
  5
469
100
AcDbEntity
  8
L1_120
  6
CONTINUOUS
 62
         7
100
AcDbCircle
 10
1398.578704425
 20
-254.1656455357
 30
0.0
 40
1.0
100
AcDbArc
 50
13.1443256895
 51
90.0
  0
LINE
  5
46A
100
AcDbEntity
  8
L1_120
  6
CONTINUOUS
 62
         7
100
AcDbLine
 10
1401.2137751555
 20
-256.8156455357
 30
0.0
 11
1404.6775047567
 21
-256.8156455357
 31
0.0
  0
LINE
  5
46B
100
AcDbEntity
  8
L1_120
  6
CONTINUOUS
 62
         7
100
AcDbLine
 10
1399.5525047567
 20
-196.1430502715
 30
0.0
 11
1401.2137751555
 21
-193.2656455357
 31
0.0
  0
LINE
  5
46C
100
AcDbEntity
  8
L1_120
  6
CONTINUOUS
 62
         7
100
AcDbLine
 10
1401.2137751555
 20
-193.2656455357
 30
0.0
 11
1404.6775047567
 21
-193.2656455357
 31
0.0
  0
LINE
  5
46D
100
AcDbEntity
  8
L1_120
  6
CONTINUOUS
 62
         7
100
AcDbLine
 10
1396.7763050885
 20
-196.9156455357
 30
0.0
 11
1398.578704425
 21
-196.9156455357
 31
0.0
  0
ARC
  5
46E
100
AcDbEntity
  8
L1_120
  6
CONTINUOUS
 62
         7
100
AcDbCircle
 10
1396.7763050885
 20
-195.9156455357
 30
0.0
 40
1.0
100
AcDbArc
 50
193.1443256895
 51
270.0
  0
ARC
  5
46F
100
AcDbEntity
  8
L1_120
  6
CONTINUOUS
 62
         7
100
AcDbCircle
 10
1398.578704425
 20
-195.9156455357
 30
0.0
 40
1.0
100
AcDbArc
 50
270.0
 51
346.8556743105
  0
LINE
  5
470
100
AcDbEntity
  8
L1_120
  6
CONTINUOUS
 62
         7
100
AcDbLine
 10
1387.7775047567
 20
-247.4406455357
 30
0.0
 11
1387.7775047567
 21
-202.6406455357
 31
0.0
  0
LINE
  5
471
100
AcDbEntity
  8
L1_120
  6
CONTINUOUS
 62
         7
100
AcDbLine
 10
1389.7775047567
 20
-256.3156455357
 30
0.0
 11
1390.2775047567
 21
-256.8156455357
 31
0.0
  0
LINE
  5
472
100
AcDbEntity
  8
L1_120
  6
CONTINUOUS
 62
         7
100
AcDbLine
 10
1405.6775047567
 20
-256.3156455357
 30
0.0
 11
1405.1775047567
 21
-256.8156455357
 31
0.0
  0
LINE
  5
473
100
AcDbEntity
  8
L1_120
  6
CONTINUOUS
 62
         7
100
AcDbLine
 10
1390.2775047567
 20
-256.8156455357
 30
0.0
 11
1391.7775047567
 21
-256.8156455357
 31
0.0
  0
LINE
  5
474
100
AcDbEntity
  8
L1_120
  6
CONTINUOUS
 62
         7
100
AcDbLine
 10
1403.6775047567
 20
-256.8156455357
 30
0.0
 11
1405.1775047567
 21
-256.8156455357
 31
0.0
  0
LINE
  5
475
100
AcDbEntity
  8
L1_120
  6
CONTINUOUS
 62
         7
100
AcDbLine
 10
1389.7775047567
 20
-254.8156455357
 30
0.0
 11
1389.7775047567
 21
-256.3156455357
 31
0.0
  0
LINE
  5
476
100
AcDbEntity
  8
L1_120
  6
CONTINUOUS
 62
         7
100
AcDbLine
 10
1405.6775047567
 20
-254.8156455357
 30
0.0
 11
1405.6775047567
 21
-256.3156455357
 31
0.0
  0
LINE
  5
477
100
AcDbEntity
  8
L1_120
  6
CONTINUOUS
 62
         7
100
AcDbLine
 10
1390.2775047567
 20
-193.2656455357
 30
0.0
 11
1391.7775047567
 21
-193.2656455357
 31
0.0
  0
LINE
  5
478
100
AcDbEntity
  8
L1_120
  6
CONTINUOUS
 62
         7
100
AcDbLine
 10
1389.7775047567
 20
-193.7656455357
 30
0.0
 11
1389.7775047567
 21
-195.2656455357
 31
0.0
  0
LINE
  5
479
100
AcDbEntity
  8
L1_120
  6
CONTINUOUS
 62
         7
100
AcDbLine
 10
1403.6775047567
 20
-193.2656455357
 30
0.0
 11
1405.1775047567
 21
-193.2656455357
 31
0.0
  0
LINE
  5
47A
100
AcDbEntity
  8
L1_120
  6
CONTINUOUS
 62
         7
100
AcDbLine
 10
1405.6775047567
 20
-193.7656455357
 30
0.0
 11
1405.6775047567
 21
-195.2656455357
 31
0.0
  0
LINE
  5
47B
100
AcDbEntity
  8
L1_120
  6
CONTINUOUS
 62
         7
100
AcDbLine
 10
1390.2775047567
 20
-193.2656455357
 30
0.0
 11
1389.7775047567
 21
-193.7656455357
 31
0.0
  0
LINE
  5
47C
100
AcDbEntity
  8
L1_120
  6
CONTINUOUS
 62
         7
100
AcDbLine
 10
1405.1775047567
 20
-193.2656455357
 30
0.0
 11
1405.6775047567
 21
-193.7656455357
 31
0.0
  0
CIRCLE
  5
47D
100
AcDbEntity
  8
L1_120
  6
CONTINUOUS
 62
         7
100
AcDbCircle
 10
1397.6775047567
 20
-225.0406455357
 30
0.0
 40
5.0
  0
CIRCLE
  5
47E
100
AcDbEntity
  8
L1_120
  6
CONTINUOUS
 62
         7
100
AcDbCircle
 10
1397.6775047567
 20
-211.8367578323
 30
0.0
 40
1.875
  0
CIRCLE
  5
47F
100
AcDbEntity
  8
L1_120
  6
CONTINUOUS
 62
         7
100
AcDbCircle
 10
1397.6775047567
 20
-238.244533239
 30
0.0
 40
1.875
  0
TEXT
  5
481
100
AcDbEntity
  8
L1_120
  6
CONTINUOUS
 62
         2
100
AcDbText
 10
1522.968284762
 20
-158.0601748184
 30
0.0
 40
4.5
  1
531858
 41
0.98
  7
BOX
100
AcDbText
  0
ENDSEC
  0
SECTION
  2
OBJECTS
  0
DICTIONARY
  5
19
100
AcDbDictionary
  3
ACAD_GROUP
350
1A
  3
ACAD_MLINESTYLE
350
1B
  0
DICTIONARY
  5
1A
102
{ACAD_REACTORS
330
19
102
}
100
AcDbDictionary
  0
DICTIONARY
  5
1B
102
{ACAD_REACTORS
330
19
102
}
100
AcDbDictionary
  3
STANDARD
350
1C
  0
MLINESTYLE
  5
1C
102
{ACAD_REACTORS
330
1B
102
}
100
AcDbMlineStyle
  2
STANDARD
 70
         0
  3

 62
         0
 51
90.0
 52
90.0
 71
         2
 49
0.5
 62
       256
  6
BYLAYER
 49
-0.5
 62
       256
  6
BYLAYER
  0
ENDSEC
  0
EOF
