  0
SECTION
  2
HEADER
  9
$ACADVER
  1
AC1014
  9
$ACADMAINTVER
 70
         0
  9
$DWGCODEPAGE
  3
BIG5
  9
$INSBASE
 10
0.0
 20
0.0
 30
0.0
  9
$EXTMIN
 10
1075.1435451169
 20
-439.7908606419
 30
0.0
  9
$EXTMAX
 10
1859.7341349363
 20
-56.7793839386
 30
0.0
  9
$LIMMIN
 10
0.0
 20
0.0
  9
$LIMMAX
 10
0.0
 20
0.0
  9
$ORTHOMODE
 70
         0
  9
$REGENMODE
 70
         1
  9
$FILLMODE
 70
         1
  9
$QTEXTMODE
 70
         0
  9
$MIRRTEXT
 70
         1
  9
$DRAGMODE
 70
         2
  9
$LTSCALE
 40
1.0
  9
$OSMODE
 70
         0
  9
$ATTMODE
 70
         1
  9
$TEXTSIZE
 40
1.7
  9
$TRACEWID
 40
0.05
  9
$TEXTSTYLE
  7
STANDARD
  9
$CLAYER
  8
0
  9
$CELTYPE
  6
CONTINUOUS
  9
$CECOLOR
 62
        16
  9
$CELTSCALE
 40
1.0
  9
$DELOBJ
 70
         1
  9
$DISPSILH
 70
         0
  9
$DIMSCALE
 40
1.0
  9
$DIMASZ
 40
0.18
  9
$DIMEXO
 40
0.0625
  9
$DIMDLI
 40
0.38
  9
$DIMRND
 40
0.0
  9
$DIMDLE
 40
0.0
  9
$DIMEXE
 40
0.25
  9
$DIMTP
 40
0.01
  9
$DIMTM
 40
-0.01
  9
$DIMTXT
 40
2.7
  9
$DIMCEN
 40
0.09
  9
$DIMTSZ
 40
0.0
  9
$DIMTOL
 70
         0
  9
$DIMLIM
 70
         0
  9
$DIMTIH
 70
         1
  9
$DIMTOH
 70
         1
  9
$DIMSE1
 70
         0
  9
$DIMSE2
 70
         0
  9
$DIMTAD
 70
         0
  9
$DIMZIN
 70
         0
  9
$DIMBLK
  1

  9
$DIMASO
 70
         1
  9
$DIMSHO
 70
         1
  9
$DIMPOST
  1

  9
$DIMAPOST
  1

  9
$DIMALT
 70
         0
  9
$DIMALTD
 70
         2
  9
$DIMALTF
 40
25.4
  9
$DIMLFAC
 40
1.0
  9
$DIMTOFL
 70
         0
  9
$DIMTVP
 40
0.0
  9
$DIMTIX
 70
         0
  9
$DIMSOXD
 70
         0
  9
$DIMSAH
 70
         0
  9
$DIMBLK1
  1

  9
$DIMBLK2
  1

  9
$DIMSTYLE
  2
STANDARD
  9
$DIMCLRD
 70
         0
  9
$DIMCLRE
 70
         0
  9
$DIMCLRT
 70
        16
  9
$DIMTFAC
 40
1.0
  9
$DIMGAP
 40
0.09
  9
$DIMJUST
 70
         0
  9
$DIMSD1
 70
         0
  9
$DIMSD2
 70
         0
  9
$DIMTOLJ
 70
         1
  9
$DIMTZIN
 70
         0
  9
$DIMALTZ
 70
         0
  9
$DIMALTTZ
 70
         0
  9
$DIMFIT
 70
         3
  9
$DIMUPT
 70
         0
  9
$DIMUNIT
 70
         2
  9
$DIMDEC
 70
         4
  9
$DIMTDEC
 70
         4
  9
$DIMALTU
 70
         2
  9
$DIMALTTD
 70
         2
  9
$DIMTXSTY
  7
STANDARD
  9
$DIMAUNIT
 70
         0
  9
$LUNITS
 70
         2
  9
$LUPREC
 70
        10
  9
$SKETCHINC
 40
0.1
  9
$FILLETRAD
 40
0.0
  9
$AUNITS
 70
         0
  9
$AUPREC
 70
         0
  9
$MENU
  1
acad
  9
$ELEVATION
 40
0.0
  9
$PELEVATION
 40
0.0
  9
$THICKNESS
 40
0.0
  9
$LIMCHECK
 70
         0
  9
$BLIPMODE
 70
         1
  9
$CHAMFERA
 40
0.0
  9
$CHAMFERB
 40
0.0
  9
$CHAMFERC
 40
0.0
  9
$CHAMFERD
 40
0.0
  9
$SKPOLY
 70
         0
  9
$TDCREATE
 40
0.000000000
  9
$TDUPDATE
 40
0.000000000
  9
$TDINDWG
 40
0.0000000000
  9
$TDUSRTIMER
 40
0.0000000000
  9
$USRTIMER
 70
         1
  9
$ANGBASE
 50
0.0
  9
$ANGDIR
 70
         0
  9
$PDMODE
 70
         2
  9
$PDSIZE
 40
0.0
  9
$PLINEWID
 40
0.0
  9
$COORDS
 70
         0
  9
$SPLFRAME
 70
         0
  9
$SPLINETYPE
 70
         6
  9
$SPLINESEGS
 70
         8
  9
$ATTDIA
 70
         0
  9
$ATTREQ
 70
         1
  9
$HANDLING
 70
         1
  9
$HANDSEED
  5
537
  9
$SURFTAB1
 70
         6
  9
$SURFTAB2
 70
         6
  9
$SURFTYPE
 70
         6
  9
$SURFU
 70
         6
  9
$SURFV
 70
         6
  9
$UCSNAME
  2

  9
$UCSORG
 10
0.0
 20
0.0
 30
0.0
  9
$UCSXDIR
 10
1.0
 20
0.0
 30
0.0
  9
$UCSYDIR
 10
0.0
 20
1.0
 30
0.0
  9
$PUCSNAME
  2

  9
$PUCSORG
 10
0.0
 20
0.0
 30
0.0
  9
$PUCSXDIR
 10
1.0
 20
0.0
 30
0.0
  9
$PUCSYDIR
 10
0.0
 20
1.0
 30
0.0
  9
$USERI1
 70
         0
  9
$USERI2
 70
         0
  9
$USERI3
 70
         0
  9
$USERI4
 70
         0
  9
$USERI5
 70
         0
  9
$USERR1
 40
0.0
  9
$USERR2
 40
0.0
  9
$USERR3
 40
0.0
  9
$USERR4
 40
0.0
  9
$USERR5
 40
0.0
  9
$WORLDVIEW
 70
         1
  9
$SHADEDGE
 70
         3
  9
$SHADEDIF
 70
        70
  9
$TILEMODE
 70
         1
  9
$MAXACTVP
 70
        16
  9
$PINSBASE
 10
0.0
 20
0.0
 30
0.0
  9
$PLIMCHECK
 70
         0
  9
$PEXTMIN
 10
1.0000000000E+20
 20
1.0000000000E+20
 30
1.0000000000E+20
  9
$PEXTMAX
 10
-1.0000000000E+20
 20
-1.0000000000E+20
 30
-1.0000000000E+20
  9
$PLIMMIN
 10
0.0
 20
0.0
  9
$PLIMMAX
 10
12.0
 20
9.0
  9
$UNITMODE
 70
         0
  9
$VISRETAIN
 70
         0
  9
$PLINEGEN
 70
         1
  9
$PSLTSCALE
 70
         0
  9
$TREEDEPTH
 70
      3020
  9
$PICKSTYLE
 70
         1
  9
$CMLSTYLE
  2
STANDARD
  9
$CMLJUST
 70
         0
  9
$CMLSCALE
 40
1.0
  9
$PROXYGRAPHICS
 70
         0
  9
$MEASUREMENT
 70
         0
  0
ENDSEC
  0
SECTION
  2
CLASSES
  0
CLASS
  1
LWPOLYLINE
  2
AcDbPolyline
  3
"AutoCAD"
 90
        0
280
         0
281
         1
  0
CLASS
  1
IMAGE
  2
AcDbRasterImage
  3
ISM
 90
      127
280
         0
281
         1
  0
CLASS
  1
OLE2FRAME
  2
AcDbOle2Frame
  3
""
 90
        0
280
         0
281
         1
  0
CLASS
  1
HATCH
  2
AcDbHatch
  3
"ACAD_SEDONA"
 90
        0
280
         0
281
         1
  0
CLASS
  1
DICTIONARYVAR
  2
AcDbDictionaryVar
  3
"AutoCAD"
 90
        0
280
         0
281
         0
  0
CLASS
  1
RASTERVARIABLES
  2
AcDbRasterVariables
  3
ISM
 90
        0
280
         0
281
         0
  0
CLASS
  1
IMAGEDEF
  2
AcDbRasterImageDef
  3
ISM
 90
        0
280
         0
281
         0
  0
CLASS
  1
IMAGEDEF_REACTOR
  2
AcDbRasterImageDefReactor
  3
ISM
 90
        1
280
         0
281
         0
  0
CLASS
  1
IDBUFFER
  2
AcDbIdBuffer
  3
"Acad"
 90
        0
280
         0
281
         0
  0
CLASS
  1
SPATIAL_FILTER
  2
AcDbSpatialFilter
  3
"Acad"
 90
        0
280
         0
281
         0
  0
CLASS
  1
XRECORD
  2
AcDbXrecord
  3
"<Built In>"
 90
        0
280
         0
281
         0
  0
CLASS
  1
SORTENTSTABLE
  2
AcDbSortentsTable
  3
"AutoCAD"
 90
        0
280
         0
281
         0
  0
CLASS
  1
LAYER_INDEX
  2
AcDbLayerIndex
  3
"Acad"
 90
        0
280
         0
281
         0
  0
CLASS
  1
SPATIAL_INDEX
  2
AcDbSpatialIndex
  3
"Acad"
 90
        0
280
         0
281
         0
  0
CLASS
  1
OBJECT_PTR
  2
CAseDLPNTableRecord
  3
"ASE-LPNTableRecord"
 90
        1
280
         0
281
         0
  0
CLASS
  1
LAYOUT
  2
AcDbLayout
  3
"AutoCAD 2000"
 90
        1
280
         0
281
         0
  0
CLASS
  1
PLOTSETTINGS
  2
AcDbPlotSettings
  3
"AutoCAD 2000"
 90
        1
280
         0
281
         0
  0
CLASS
  1
ACDBDICTIONARYWDFLT
  2
AcDbDictionaryWithDefault
  3
"AutoCAD 2000"
 90
        1
280
         0
281
         0
  0
CLASS
  1
ACDBPLACEHOLDER
  2
AcDbPlaceHolder
  3
"AutoCAD 2000"
 90
        1
280
         0
281
         0
  0
CLASS
  1
VBA_PROJECT
  2
AcDbVbaProject
  3
"acadvba"
 90
        1
280
         0
281
         0
  0
CLASS
  1
WIPEOUT
  2
AcDbWipeout
  3
WipeOut|AutoCAD Express Tool|expresstools@autodesk.com
 90
      127
280
         0
281
         1
  0
CLASS
  1
WIPEOUTVARIABLES
  2
AcDbWipeoutVariables
  3
WipeOut|AutoCAD Express Tool|expresstools@autodesk.com
 90
        0
280
         0
281
         0
  0
CLASS
  1
RTEXT
  2
RText
  3
RText|AutoCAD Express Tool|expresstools@autodesk.com
 90
        0
280
         0
281
         1
  0
CLASS
  1
ARCALIGNEDTEXT
  2
AcDbArcAlignedText
  3
ATEXT|AutoCAD Express Tool|expresstools@autodesk.com
 90
        0
280
         0
281
         1
  0
ENDSEC
  0
SECTION
  2
TABLES
  0
TABLE
  2
VPORT
  5
7
100
AcDbSymbolTable
 70
         1
  0
VPORT
  5
15
100
AcDbSymbolTableRecord
100
AcDbViewportTableRecord
  2
*ACTIVE
 70
         0
 10
0.0
 20
0.0
 11
1.0
 21
1.0
 12
1467.4388400266
 22
-248.2851222902
 13
0.0
 23
0.0
 14
1.0
 24
1.0
 15
0.0
 25
0.0
 16
0.0
 26
0.0
 36
1.0
 17
0.0
 27
0.0
 37
0.0
 40
383.0114767033
 41
2.0484780158
 42
50.0
 43
0.0
 44
0.0
 50
0.0
 51
0.0
 71
         0
 72
       100
 73
         1
 74
         1
 75
         0
 76
         0
 77
         0
 78
         0
  0
ENDTAB
  0
TABLE
  2
LTYPE
  5
4
100
AcDbSymbolTable
 70
         6
  0
LTYPE
  5
11
100
AcDbSymbolTableRecord
100
AcDbLinetypeTableRecord
  2
BYBLOCK
 70
        64
  3

 72
        65
 73
         0
 40
0.0
  0
LTYPE
  5
12
100
AcDbSymbolTableRecord
100
AcDbLinetypeTableRecord
  2
BYLAYER
 70
        64
  3

 72
        65
 73
         0
 40
0.0
  0
LTYPE
  5
13
100
AcDbSymbolTableRecord
100
AcDbLinetypeTableRecord
  2
CONTINUOUS
 70
        64
  3
Solid line
 72
        65
 73
         0
 40
0.0
  0
LTYPE
  5
1D
100
AcDbSymbolTableRecord
100
AcDbLinetypeTableRecord
  2
DASHED
 70
        64
  3
_ _ _ _ _ _ _ _ _ _ _ _ _ _ _ _
 72
        65
 73
         2
 40
0.2
 49
0.1
 74
         0
 49
-0.1
 74
         0
  0
LTYPE
  5
1E
100
AcDbSymbolTableRecord
100
AcDbLinetypeTableRecord
  2
CENTER
 70
        64
  3
___ _ ___ _ ___ _ ___ _ ___ _ ___ _ ___ _ ___ _
 72
        65
 73
         4
 40
0.95
 49
0.625
 74
         0
 49
-0.125
 74
         0
 49
0.075
 74
         0
 49
-0.125
 74
         0
  0
LTYPE
  5
1F
100
AcDbSymbolTableRecord
100
AcDbLinetypeTableRecord
  2
PHANTOM
 70
        64
  3
______  __  __  ______  __  __  ______  __  __  
 72
        65
 73
         6
 40
1.025
 49
0.625
 74
         0
 49
-0.125
 74
         0
 49
0.075
 74
         0
 49
-0.125
 74
         0
 49
0.075
 74
         0
 49
-0.125
 74
         0
  0
ENDTAB
  0
TABLE
  2
LAYER
  5
2
100
AcDbSymbolTable
 70
         6
  0
LAYER
  5
14
100
AcDbSymbolTableRecord
100
AcDbLayerTableRecord
  2
0
 70
         0
 62
         7
  6
CONTINUOUS
  0
LAYER
  5
21
100
AcDbSymbolTableRecord
100
AcDbLayerTableRecord
  2
_____U
 70
         1
 62
         7
  6
CONTINUOUS
  0
LAYER
  5
22
100
AcDbSymbolTableRecord
100
AcDbLayerTableRecord
  2
_____T______
 70
         1
 62
         7
  6
CONTINUOUS
  0
LAYER
  5
23
100
AcDbSymbolTableRecord
100
AcDbLayerTableRecord
  2
______L_______
 70
         1
 62
         7
  6
CONTINUOUS
  0
LAYER
  5
24
100
AcDbSymbolTableRecord
100
AcDbLayerTableRecord
  2
L1_120
 70
         0
 62
         7
  6
CONTINUOUS
  0
LAYER
  5
1F8
100
AcDbSymbolTableRecord
100
AcDbLayerTableRecord
  2
DEFPOINTS
 70
         0
 62
        -7
  6
CONTINUOUS
  0
ENDTAB
  0
TABLE
  2
STYLE
  5
3
100
AcDbSymbolTable
 70
        11
  0
STYLE
  5
17
100
AcDbSymbolTableRecord
100
AcDbTextStyleTableRecord
  2
STANDARD
 70
         0
 40
0.0
 41
1.0
 50
0.0
 71
         0
 42
0.0
  3
txt
  4

  0
STYLE
  5
203
100
AcDbSymbolTableRecord
100
AcDbTextStyleTableRecord
  2
BOX
 70
         0
 40
1.0
 41
1.0
 50
0.0
 71
         0
 42
0.2
  3
txt.shx
  4

  0
STYLE
  5
27D
100
AcDbSymbolTableRecord
100
AcDbTextStyleTableRecord
  2
BOX
 70
         0
 40
1.0
 41
1.0
 50
0.0
 71
         0
 42
0.2
  3
txt.shx
  4

  0
STYLE
  5
28B
100
AcDbSymbolTableRecord
100
AcDbTextStyleTableRecord
  2
BOX
 70
         0
 40
1.0
 41
1.0
 50
0.0
 71
         0
 42
0.2
  3
txt.shx
  4

  0
STYLE
  5
299
100
AcDbSymbolTableRecord
100
AcDbTextStyleTableRecord
  2
BOX
 70
         0
 40
1.0
 41
1.0
 50
0.0
 71
         0
 42
0.2
  3
txt.shx
  4

  0
STYLE
  5
2A7
100
AcDbSymbolTableRecord
100
AcDbTextStyleTableRecord
  2
BOX
 70
         0
 40
1.0
 41
1.0
 50
0.0
 71
         0
 42
0.2
  3
txt.shx
  4

  0
STYLE
  5
2B5
100
AcDbSymbolTableRecord
100
AcDbTextStyleTableRecord
  2
BOX
 70
         0
 40
1.0
 41
1.0
 50
0.0
 71
         0
 42
0.2
  3
txt.shx
  4

  0
STYLE
  5
34F
100
AcDbSymbolTableRecord
100
AcDbTextStyleTableRecord
  2
BOX
 70
         0
 40
1.0
 41
1.0
 50
0.0
 71
         0
 42
0.2
  3
txt.shx
  4

  0
STYLE
  5
508
100
AcDbSymbolTableRecord
100
AcDbTextStyleTableRecord
  2
BOX
 70
         0
 40
1.0
 41
1.0
 50
0.0
 71
         0
 42
0.2
  3
txt.shx
  4

  0
STYLE
  5
516
100
AcDbSymbolTableRecord
100
AcDbTextStyleTableRecord
  2
BOX
 70
         0
 40
1.0
 41
1.0
 50
0.0
 71
         0
 42
0.2
  3
txt.shx
  4

  0
STYLE
  5
532
100
AcDbSymbolTableRecord
100
AcDbTextStyleTableRecord
  2
BOX
 70
         0
 40
1.0
 41
1.0
 50
0.0
 71
         0
 42
0.2
  3
txt.shx
  4

  0
ENDTAB
  0
TABLE
  2
VIEW
  5
5
100
AcDbSymbolTable
 70
         0
  0
ENDTAB
  0
TABLE
  2
UCS
  5
6
100
AcDbSymbolTable
 70
         1
  0
UCS
  5
20
100
AcDbSymbolTableRecord
100
AcDbUCSTableRecord
  2
CK_VIEW_1
 70
         0
 10
0.0
 20
0.0
 30
1.0
 11
1.0
 21
0.0
 31
0.0
 12
0.0
 22
1.0
 32
0.0
  0
ENDTAB
  0
TABLE
  2
APPID
  5
8
100
AcDbSymbolTable
 70
         1
  0
APPID
  5
16
100
AcDbSymbolTableRecord
100
AcDbRegAppTableRecord
  2
ACAD
 70
         0
  0
ENDTAB
  0
TABLE
  2
DIMSTYLE
  5
9
100
AcDbSymbolTable
 70
         2
  0
DIMSTYLE
105
18
100
AcDbSymbolTableRecord
100
AcDbDimStyleTableRecord
  2
STANDARD
 70
         0
  3

  4

  5

  6

  7

 40
1.0
 41
0.18
 42
0.0625
 43
0.38
 44
0.18
 45
0.0
 46
0.0
 47
0.0
 48
0.0
 71
         0
 72
         0
 73
         1
 74
         1
 75
         0
 76
         0
 77
         0
 78
         0
140
0.18
141
0.09
142
0.0
143
25.4
144
1.0
145
0.0
146
1.0
147
0.09
170
         0
171
         2
172
         0
173
         0
174
         0
175
         0
176
         0
177
         0
178
         0
270
         2
271
         4
272
         4
273
         2
274
         2
275
         0
280
         0
281
         0
282
         0
283
         1
284
         0
285
         0
286
         0
287
         0
288
         0
340
17
  0
DIMSTYLE
105
1F4
100
AcDbSymbolTableRecord
100
AcDbDimStyleTableRecord
  2
DIMSTYLE1
 70
         0
  3

  4

  5

  6

  7

 40
1.0
 41
3.5
 42
0.0625
 43
0.38
 44
3.5
 45
0.0
 46
0.0
 47
0.0
 48
0.0
 71
         0
 72
         0
 73
         1
 74
         1
 75
         0
 76
         0
 77
         0
 78
         0
140
3.5
141
0.09
142
0.0
143
25.4
144
1.0
145
0.0
146
1.0
147
0.09
170
         0
171
         2
172
         0
173
         0
174
         0
175
         0
176
         0
177
         0
178
         0
270
         2
271
         4
272
         4
273
         2
274
         2
275
         0
280
         0
281
         0
282
         0
283
         1
284
         0
285
         0
286
         0
287
         0
288
         0
340
17
  0
ENDTAB
  0
TABLE
  2
BLOCK_RECORD
  5
1
100
AcDbSymbolTable
 70
        10
  0
BLOCK_RECORD
  5
A
100
AcDbSymbolTableRecord
100
AcDbBlockTableRecord
  2
*MODEL_SPACE
  0
BLOCK_RECORD
  5
B
100
AcDbSymbolTableRecord
100
AcDbBlockTableRecord
  2
*PAPER_SPACE
  0
BLOCK_RECORD
  5
1F5
100
AcDbSymbolTableRecord
100
AcDbBlockTableRecord
  2
*D0
  0
BLOCK_RECORD
  5
272
100
AcDbSymbolTableRecord
100
AcDbBlockTableRecord
  2
*D1
  0
BLOCK_RECORD
  5
280
100
AcDbSymbolTableRecord
100
AcDbBlockTableRecord
  2
*D2
  0
BLOCK_RECORD
  5
28E
100
AcDbSymbolTableRecord
100
AcDbBlockTableRecord
  2
*D3
  0
BLOCK_RECORD
  5
29C
100
AcDbSymbolTableRecord
100
AcDbBlockTableRecord
  2
*D4
  0
BLOCK_RECORD
  5
2AA
100
AcDbSymbolTableRecord
100
AcDbBlockTableRecord
  2
*D5
  0
BLOCK_RECORD
  5
2B8
100
AcDbSymbolTableRecord
100
AcDbBlockTableRecord
  2
*X6
  0
BLOCK_RECORD
  5
4FB
100
AcDbSymbolTableRecord
100
AcDbBlockTableRecord
  2
*D7
  0
BLOCK_RECORD
  5
50B
100
AcDbSymbolTableRecord
100
AcDbBlockTableRecord
  2
*D8
  0
BLOCK_RECORD
  5
525
100
AcDbSymbolTableRecord
100
AcDbBlockTableRecord
  2
*D9
  0
ENDTAB
  0
ENDSEC
  0
SECTION
  2
BLOCKS
  0
BLOCK
  5
D
100
AcDbEntity
  8
0
100
AcDbBlockBegin
  2
*MODEL_SPACE
 70
         0
 10
0.0
 20
0.0
 30
0.0
  3
*MODEL_SPACE
  1

  0
ENDBLK
  5
E
100
AcDbEntity
  8
0
100
AcDbBlockEnd
  0
BLOCK
  5
F
100
AcDbEntity
 67
         1
  8
0
100
AcDbBlockBegin
  2
*PAPER_SPACE
 70
         0
 10
0.0
 20
0.0
 30
0.0
  3
*PAPER_SPACE
  1

  0
ENDBLK
  5
10
100
AcDbEntity
 67
         1
  8
0
100
AcDbBlockEnd
  0
BLOCK
  5
1F6
100
AcDbEntity
  8
0
100
AcDbBlockBegin
  2
*D0
 70
        65
 10
0.0
 20
0.0
 30
0.0
  3
*D0
  1

  0
POINT
  5
1F9
100
AcDbEntity
  8
DEFPOINTS
  6
CONTINUOUS
 62
         0
100
AcDbPoint
 10
1408.758202381
 20
-209.0386399942
 30
0.0
  0
POINT
  5
1FA
100
AcDbEntity
  8
DEFPOINTS
  6
CONTINUOUS
 62
         0
100
AcDbPoint
 10
1589.7487064707
 20
-208.0386399942
 30
0.0
  0
POINT
  5
1FB
100
AcDbEntity
  8
DEFPOINTS
  6
CONTINUOUS
 62
         0
100
AcDbPoint
 10
1528.3094887089
 20
-208.0386399942
 30
0.0
  0
POINT
  5
1FC
100
AcDbEntity
  8
DEFPOINTS
  6
CONTINUOUS
 62
         0
100
AcDbPoint
 10
1578.1044229482
 20
-211.9575863101
 30
0.0
  0
ARC
  5
1FD
100
AcDbEntity
  8
L1_120
  6
CONTINUOUS
 62
         4
100
AcDbCircle
 10
1532.3398064383
 20
-208.3558328786
 30
0.0
 40
20.2208325758
100
AcDbArc
 50
335.6654825494
 51
355.5
  0
SOLID
  5
1FE
100
AcDbEntity
  8
L1_120
  6
CONTINUOUS
 62
         4
100
AcDbTrace
 10
1552.4983049357
 20
-209.9423411173
 30
0.0
 11
1552.4413755278
 21
-213.481039189
 31
0.0
 12
1551.4056321555
 22
-213.3085988608
 32
0.0
 13
1552.4983049357
 23
-209.9423411173
 33
0.0
  0
ARC
  5
1FF
100
AcDbEntity
  8
L1_120
  6
CONTINUOUS
 62
         4
100
AcDbCircle
 10
1532.3398064383
 20
-208.3558328786
 30
0.0
 40
20.2208325758
100
AcDbArc
 50
0.3165646551
 51
12.5134905232
  0
SOLID
  5
200
100
AcDbEntity
  8
L1_120
  6
CONTINUOUS
 62
         4
100
AcDbTrace
 10
1552.5603303775
 20
-208.2441114154
 30
0.0
 11
1551.7161369448
 21
-204.8071123685
 31
0.0
 12
1552.7617001903
 22
-204.7106888255
 32
0.0
 13
1552.5603303775
 23
-208.2441114154
 33
0.0
  0
ARC
  5
201
100
AcDbEntity
  8
L1_120
  6
CONTINUOUS
 62
         4
100
AcDbCircle
 10
1532.3398064383
 20
-208.3558328786
 30
0.0
 40
20.2208325758
100
AcDbArc
 50
355.5
 51
360.3165646551
  0
SOLID
  5
202
100
AcDbEntity
  8
L1_120
  6
CONTINUOUS
 62
         4
100
AcDbTrace
 10
1532.3398064383
 20
-208.3558328786
 30
0.0
 11
1533.7317090488
 21
-205.1018764986
 31
0.0
 12
1534.6251577496
 22
-205.6534645868
 32
0.0
 13
1532.3398064383
 23
-208.3558328786
 33
0.0
  0
TEXT
  5
204
100
AcDbEntity
  8
L1_120
  6
CONTINUOUS
 62
         4
100
AcDbText
 10
1553.8302935099
 20
-202.2245955834
 30
0.0
 40
3.5
  1
4.5%%d 
  7
BOX
100
AcDbText
  0
ENDBLK
  5
205
100
AcDbEntity
  8
0
  6
CONTINUOUS
100
AcDbBlockEnd
  0
BLOCK
  5
273
100
AcDbEntity
  8
0
100
AcDbBlockBegin
  2
*D1
 70
        65
 10
0.0
 20
0.0
 30
0.0
  3
*D1
  1

  0
POINT
  5
275
100
AcDbEntity
  8
DEFPOINTS
  6
CONTINUOUS
 62
         0
100
AcDbPoint
 10
1419.9275047567
 20
-159.1471286798
 30
0.0
  0
POINT
  5
276
100
AcDbEntity
  8
DEFPOINTS
  6
CONTINUOUS
 62
         0
100
AcDbPoint
 10
1419.9275047567
 20
-185.3156455357
 30
0.0
  0
POINT
  5
277
100
AcDbEntity
  8
DEFPOINTS
  6
CONTINUOUS
 62
         0
100
AcDbPoint
 10
1579.9475047567
 20
-225.0406455357
 30
0.0
  0
LINE
  5
278
100
AcDbEntity
  8
L1_120
  6
CONTINUOUS
 62
         4
100
AcDbLine
 10
1419.9275047567
 20
-183.5656455357
 30
0.0
 11
1419.9275047567
 21
-158.2721286798
 31
0.0
  0
LINE
  5
279
100
AcDbEntity
  8
L1_120
  6
CONTINUOUS
 62
         4
100
AcDbLine
 10
1579.9475047567
 20
-223.2906455357
 30
0.0
 11
1579.9475047567
 21
-158.2721286798
 31
0.0
  0
LINE
  5
27A
100
AcDbEntity
  8
L1_120
  6
CONTINUOUS
 62
         4
100
AcDbLine
 10
1419.9275047567
 20
-159.1471286798
 30
0.0
 11
1579.9475047567
 21
-159.1471286798
 31
0.0
  0
SOLID
  5
27B
100
AcDbEntity
  8
L1_120
  6
CONTINUOUS
 62
         4
100
AcDbTrace
 10
1419.9275047567
 20
-159.1471286798
 30
0.0
 11
1423.4275047567
 21
-158.6221286798
 31
0.0
 12
1423.4275047567
 22
-159.6721286798
 32
0.0
 13
1419.9275047567
 23
-159.1471286798
 33
0.0
  0
SOLID
  5
27C
100
AcDbEntity
  8
L1_120
  6
CONTINUOUS
 62
         4
100
AcDbTrace
 10
1579.9475047567
 20
-159.1471286798
 30
0.0
 11
1576.4475047567
 21
-159.6721286798
 31
0.0
 12
1576.4475047567
 22
-158.6221286798
 32
0.0
 13
1579.9475047567
 23
-159.1471286798
 33
0.0
  0
TEXT
  5
27E
100
AcDbEntity
  8
L1_120
  6
CONTINUOUS
 62
         4
100
AcDbText
 10
1500.0485768958
 20
-156.5221286798
 30
0.0
 40
3.5
  1
160
  7
BOX
100
AcDbText
  0
ENDBLK
  5
27F
100
AcDbEntity
  8
0
  6
CONTINUOUS
100
AcDbBlockEnd
  0
BLOCK
  5
281
100
AcDbEntity
  8
0
100
AcDbBlockBegin
  2
*D2
 70
        65
 10
0.0
 20
0.0
 30
0.0
  3
*D2
  1

  0
POINT
  5
283
100
AcDbEntity
  8
DEFPOINTS
  6
CONTINUOUS
 62
         0
100
AcDbPoint
 10
1318.3275047567
 20
-144.9657208857
 30
0.0
  0
POINT
  5
284
100
AcDbEntity
  8
DEFPOINTS
  6
CONTINUOUS
 62
         0
100
AcDbPoint
 10
1318.3275047567
 20
-207.0943097716
 30
0.0
  0
POINT
  5
285
100
AcDbEntity
  8
DEFPOINTS
  6
CONTINUOUS
 62
         0
100
AcDbPoint
 10
1579.9475047567
 20
-213.0270360273
 30
0.0
  0
LINE
  5
286
100
AcDbEntity
  8
L1_120
  6
CONTINUOUS
 62
         4
100
AcDbLine
 10
1318.3275047567
 20
-205.3443097716
 30
0.0
 11
1318.3275047567
 21
-144.0907208857
 31
0.0
  0
LINE
  5
287
100
AcDbEntity
  8
L1_120
  6
CONTINUOUS
 62
         4
100
AcDbLine
 10
1579.9475047567
 20
-211.2770360273
 30
0.0
 11
1579.9475047567
 21
-144.0907208857
 31
0.0
  0
LINE
  5
288
100
AcDbEntity
  8
L1_120
  6
CONTINUOUS
 62
         4
100
AcDbLine
 10
1318.3275047567
 20
-144.9657208857
 30
0.0
 11
1579.9475047567
 21
-144.9657208857
 31
0.0
  0
SOLID
  5
289
100
AcDbEntity
  8
L1_120
  6
CONTINUOUS
 62
         4
100
AcDbTrace
 10
1318.3275047567
 20
-144.9657208857
 30
0.0
 11
1321.8275047567
 21
-144.4407208857
 31
0.0
 12
1321.8275047567
 22
-145.4907208857
 32
0.0
 13
1318.3275047567
 23
-144.9657208857
 33
0.0
  0
SOLID
  5
28A
100
AcDbEntity
  8
L1_120
  6
CONTINUOUS
 62
         4
100
AcDbTrace
 10
1579.9475047567
 20
-144.9657208857
 30
0.0
 11
1576.4475047567
 21
-145.4907208857
 31
0.0
 12
1576.4475047567
 22
-144.4407208857
 32
0.0
 13
1579.9475047567
 23
-144.9657208857
 33
0.0
  0
TEXT
  5
28C
100
AcDbEntity
  8
L1_120
  6
CONTINUOUS
 62
         4
100
AcDbText
 10
1440.0672061906
 20
-142.3407208857
 30
0.0
 40
3.5
  1
261.62
  7
BOX
100
AcDbText
  0
ENDBLK
  5
28D
100
AcDbEntity
  8
0
  6
CONTINUOUS
100
AcDbBlockEnd
  0
BLOCK
  5
28F
100
AcDbEntity
  8
0
100
AcDbBlockBegin
  2
*D3
 70
        65
 10
0.0
 20
0.0
 30
0.0
  3
*D3
  1

  0
POINT
  5
291
100
AcDbEntity
  8
DEFPOINTS
  6
CONTINUOUS
 62
         0
100
AcDbPoint
 10
1601.4095585636
 20
-212.1026455357
 30
0.0
  0
POINT
  5
292
100
AcDbEntity
  8
DEFPOINTS
  6
CONTINUOUS
 62
         0
100
AcDbPoint
 10
1579.9475047567
 20
-212.1026455357
 30
0.0
  0
POINT
  5
293
100
AcDbEntity
  8
DEFPOINTS
  6
CONTINUOUS
 62
         0
100
AcDbPoint
 10
1579.9475047567
 20
-237.9786455357
 30
0.0
  0
LINE
  5
294
100
AcDbEntity
  8
L1_120
  6
CONTINUOUS
 62
         4
100
AcDbLine
 10
1581.6975047567
 20
-212.1026455357
 30
0.0
 11
1602.2845585636
 21
-212.1026455357
 31
0.0
  0
LINE
  5
295
100
AcDbEntity
  8
L1_120
  6
CONTINUOUS
 62
         4
100
AcDbLine
 10
1581.6975047567
 20
-237.9786455357
 30
0.0
 11
1602.2845585636
 21
-237.9786455357
 31
0.0
  0
LINE
  5
296
100
AcDbEntity
  8
L1_120
  6
CONTINUOUS
 62
         4
100
AcDbLine
 10
1601.4095585636
 20
-212.1026455357
 30
0.0
 11
1601.4095585636
 21
-237.9786455357
 31
0.0
  0
SOLID
  5
297
100
AcDbEntity
  8
L1_120
  6
CONTINUOUS
 62
         4
100
AcDbTrace
 10
1601.4095585636
 20
-212.1026455357
 30
0.0
 11
1601.9345585636
 21
-215.6026455357
 31
0.0
 12
1600.8845585636
 22
-215.6026455357
 32
0.0
 13
1601.4095585636
 23
-212.1026455357
 33
0.0
  0
SOLID
  5
298
100
AcDbEntity
  8
L1_120
  6
CONTINUOUS
 62
         4
100
AcDbTrace
 10
1601.4095585636
 20
-237.9786455357
 30
0.0
 11
1600.8845585636
 21
-234.4786455357
 31
0.0
 12
1601.9345585636
 22
-234.4786455357
 32
0.0
 13
1601.4095585636
 23
-237.9786455357
 33
0.0
  0
TEXT
  5
29A
100
AcDbEntity
  8
L1_120
  6
CONTINUOUS
 62
         4
100
AcDbText
 10
1598.7845585636
 20
-232.2359986565
 30
0.0
 40
3.5
  1
崷27
 50
90.0
  7
BOX
100
AcDbText
  0
ENDBLK
  5
29B
100
AcDbEntity
  8
0
  6
CONTINUOUS
100
AcDbBlockEnd
  0
BLOCK
  5
29D
100
AcDbEntity
  8
0
100
AcDbBlockBegin
  2
*D4
 70
        65
 10
0.0
 20
0.0
 30
0.0
  3
*D4
  1

  0
POINT
  5
29F
100
AcDbEntity
  8
DEFPOINTS
  6
CONTINUOUS
 62
         0
100
AcDbPoint
 10
1613.1535368931
 20
-208.0386455357
 30
0.0
  0
POINT
  5
2A0
100
AcDbEntity
  8
DEFPOINTS
  6
CONTINUOUS
 62
         0
100
AcDbPoint
 10
1533.3894887089
 20
-208.0386455357
 30
0.0
  0
POINT
  5
2A1
100
AcDbEntity
  8
DEFPOINTS
  6
CONTINUOUS
 62
         0
100
AcDbPoint
 10
1533.3894887089
 20
-242.0426455357
 30
0.0
  0
LINE
  5
2A2
100
AcDbEntity
  8
L1_120
  6
CONTINUOUS
 62
         4
100
AcDbLine
 10
1535.1394887089
 20
-208.0386455357
 30
0.0
 11
1614.0285368931
 21
-208.0386455357
 31
0.0
  0
LINE
  5
2A3
100
AcDbEntity
  8
L1_120
  6
CONTINUOUS
 62
         4
100
AcDbLine
 10
1535.1394887089
 20
-242.0426455357
 30
0.0
 11
1614.0285368931
 21
-242.0426455357
 31
0.0
  0
LINE
  5
2A4
100
AcDbEntity
  8
L1_120
  6
CONTINUOUS
 62
         4
100
AcDbLine
 10
1613.1535368931
 20
-208.0386455357
 30
0.0
 11
1613.1535368931
 21
-242.0426455357
 31
0.0
  0
SOLID
  5
2A5
100
AcDbEntity
  8
L1_120
  6
CONTINUOUS
 62
         4
100
AcDbTrace
 10
1613.1535368931
 20
-208.0386455357
 30
0.0
 11
1613.6785368931
 21
-211.5386455357
 31
0.0
 12
1612.6285368931
 22
-211.5386455357
 32
0.0
 13
1613.1535368931
 23
-208.0386455357
 33
0.0
  0
SOLID
  5
2A6
100
AcDbEntity
  8
L1_120
  6
CONTINUOUS
 62
         4
100
AcDbTrace
 10
1613.1535368931
 20
-242.0426455357
 30
0.0
 11
1612.6285368931
 21
-238.5426455357
 31
0.0
 12
1613.6785368931
 22
-238.5426455357
 32
0.0
 13
1613.1535368931
 23
-242.0426455357
 33
0.0
  0
TEXT
  5
2A8
100
AcDbEntity
  8
L1_120
  6
CONTINUOUS
 62
         4
100
AcDbText
 10
1610.5285368931
 20
-232.0144141597
 30
0.0
 40
3.5
  1
崷34
 50
90.0
  7
BOX
100
AcDbText
  0
ENDBLK
  5
2A9
100
AcDbEntity
  8
0
  6
CONTINUOUS
100
AcDbBlockEnd
  0
BLOCK
  5
2AB
100
AcDbEntity
  8
0
100
AcDbBlockBegin
  2
*D5
 70
        65
 10
0.0
 20
0.0
 30
0.0
  3
*D5
  1

  0
POINT
  5
2AD
100
AcDbEntity
  8
DEFPOINTS
  6
CONTINUOUS
 62
         0
100
AcDbPoint
 10
1530.3975047567
 20
-373.0595026442
 30
0.0
  0
POINT
  5
2AE
100
AcDbEntity
  8
DEFPOINTS
  6
CONTINUOUS
 62
         0
100
AcDbPoint
 10
1530.3975047567
 20
-344.6686220057
 30
0.0
  0
POINT
  5
2AF
100
AcDbEntity
  8
DEFPOINTS
  6
CONTINUOUS
 62
         0
100
AcDbPoint
 10
1580.3975047567
 20
-349.2578410224
 30
0.0
  0
LINE
  5
2B0
100
AcDbEntity
  8
L1_120
  6
CONTINUOUS
 62
         4
100
AcDbLine
 10
1530.3975047567
 20
-346.4186220057
 30
0.0
 11
1530.3975047567
 21
-373.9345026442
 31
0.0
  0
LINE
  5
2B1
100
AcDbEntity
  8
L1_120
  6
CONTINUOUS
 62
         4
100
AcDbLine
 10
1580.3975047567
 20
-351.0078410224
 30
0.0
 11
1580.3975047567
 21
-373.9345026442
 31
0.0
  0
LINE
  5
2B2
100
AcDbEntity
  8
L1_120
  6
CONTINUOUS
 62
         4
100
AcDbLine
 10
1530.3975047567
 20
-373.0595026442
 30
0.0
 11
1580.3975047567
 21
-373.0595026442
 31
0.0
  0
SOLID
  5
2B3
100
AcDbEntity
  8
L1_120
  6
CONTINUOUS
 62
         4
100
AcDbTrace
 10
1530.3975047567
 20
-373.0595026442
 30
0.0
 11
1533.8975047567
 21
-372.5345026442
 31
0.0
 12
1533.8975047567
 22
-373.5845026442
 32
0.0
 13
1530.3975047567
 23
-373.0595026442
 33
0.0
  0
SOLID
  5
2B4
100
AcDbEntity
  8
L1_120
  6
CONTINUOUS
 62
         4
100
AcDbTrace
 10
1580.3975047567
 20
-373.0595026442
 30
0.0
 11
1576.8975047567
 21
-373.5845026442
 31
0.0
 12
1576.8975047567
 22
-372.5345026442
 32
0.0
 13
1580.3975047567
 23
-373.0595026442
 33
0.0
  0
TEXT
  5
2B6
100
AcDbEntity
  8
L1_120
  6
CONTINUOUS
 62
         4
100
AcDbText
 10
1553.0660158095
 20
-368.9995026442
 30
0.0
 40
3.5
  1
50
  7
BOX
100
AcDbText
  0
ENDBLK
  5
2B7
100
AcDbEntity
  8
0
  6
CONTINUOUS
100
AcDbBlockEnd
  0
BLOCK
  5
2B9
100
AcDbEntity
  8
0
100
AcDbBlockBegin
  2
*X6
 70
        65
 10
0.0
 20
0.0
 30
0.0
  3
*X6
  1

  0
LINE
  5
2BA
100
AcDbEntity
  8
L1_120
  6
CONTINUOUS
 62
         4
100
AcDbLine
 10
1577.1192082399
 20
-351.3646295371
 30
0.0
 11
1580.3975047567
 21
-348.0863330202
 31
0.0
  0
LINE
  5
2BB
100
AcDbEntity
  8
L1_120
  6
CONTINUOUS
 62
         4
100
AcDbLine
 10
1572.5141408925
 20
-351.7270561974
 30
0.0
 11
1578.1440750841
 21
-346.0971220057
 31
0.0
  0
LINE
  5
2BC
100
AcDbEntity
  8
L1_120
  6
CONTINUOUS
 62
         4
100
AcDbLine
 10
1567.9090735451
 20
-352.0894828576
 30
0.0
 11
1573.901434397
 21
-346.0971220057
 31
0.0
  0
LINE
  5
2BD
100
AcDbEntity
  8
L1_120
  6
CONTINUOUS
 62
         4
100
AcDbLine
 10
1563.3040061976
 20
-352.4519095179
 30
0.0
 11
1569.6587937099
 21
-346.0971220057
 31
0.0
  0
LINE
  5
2BE
100
AcDbEntity
  8
L1_120
  6
CONTINUOUS
 62
         4
100
AcDbLine
 10
1558.6989388502
 20
-352.8143361782
 30
0.0
 11
1565.4161530227
 21
-346.0971220057
 31
0.0
  0
LINE
  5
2BF
100
AcDbEntity
  8
L1_120
  6
CONTINUOUS
 62
         4
100
AcDbLine
 10
1554.0938715028
 20
-353.1767628385
 30
0.0
 11
1561.1735123356
 21
-346.0971220057
 31
0.0
  0
LINE
  5
2C0
100
AcDbEntity
  8
L1_120
  6
CONTINUOUS
 62
         4
100
AcDbLine
 10
1577.0305123356
 20
-330.2401220057
 30
0.0
 11
1580.3878195738
 21
-326.8828147675
 31
0.0
  0
LINE
  5
2C1
100
AcDbEntity
  8
L1_120
  6
CONTINUOUS
 62
         4
100
AcDbLine
 10
1549.4888041554
 20
-353.5391894988
 30
0.0
 11
1556.9308716485
 21
-346.0971220057
 31
0.0
  0
LINE
  5
2C2
100
AcDbEntity
  8
L1_120
  6
CONTINUOUS
 62
         4
100
AcDbLine
 10
1572.7878716485
 20
-330.2401220057
 30
0.0
 11
1577.9870764689
 21
-325.0409171853
 31
0.0
  0
LINE
  5
2C3
100
AcDbEntity
  8
L1_120
  6
CONTINUOUS
 62
         4
100
AcDbLine
 10
1544.883736808
 20
-353.9016161591
 30
0.0
 11
1552.6882309614
 21
-346.0971220057
 31
0.0
  0
LINE
  5
2C4
100
AcDbEntity
  8
L1_120
  6
CONTINUOUS
 62
         4
100
AcDbLine
 10
1568.5452309614
 20
-330.2401220057
 30
0.0
 11
1574.0539773922
 21
-324.7313755748
 31
0.0
  0
LINE
  5
2C5
100
AcDbEntity
  8
L1_120
  6
CONTINUOUS
 62
         4
100
AcDbLine
 10
1540.2786694606
 20
-354.2640428193
 30
0.0
 11
1548.4455902743
 21
-346.0971220057
 31
0.0
  0
LINE
  5
2C6
100
AcDbEntity
  8
L1_120
  6
CONTINUOUS
 62
         4
100
AcDbLine
 10
1564.3025902743
 20
-330.2401220057
 30
0.0
 11
1570.1208783156
 21
-324.4218339644
 31
0.0
  0
LINE
  5
2C7
100
AcDbEntity
  8
L1_120
  6
CONTINUOUS
 62
         4
100
AcDbLine
 10
1535.6736021132
 20
-354.6264694796
 30
0.0
 11
1544.2029495871
 21
-346.0971220057
 31
0.0
  0
LINE
  5
2C8
100
AcDbEntity
  8
L1_120
  6
CONTINUOUS
 62
         4
100
AcDbLine
 10
1560.0599495871
 20
-330.2401220057
 30
0.0
 11
1566.1877792389
 21
-324.112292354
 31
0.0
  0
LINE
  5
2C9
100
AcDbEntity
  8
L1_120
  6
CONTINUOUS
 62
         4
100
AcDbLine
 10
1531.0685347658
 20
-354.9888961399
 30
0.0
 11
1539.3888089
 21
-346.6686220057
 31
0.0
  0
LINE
  5
2CA
100
AcDbEntity
  8
L1_120
  6
CONTINUOUS
 62
         4
100
AcDbLine
 10
1555.8173089
 20
-330.2401220057
 30
0.0
 11
1562.2546801622
 21
-323.8027507435
 31
0.0
  0
LINE
  5
2CB
100
AcDbEntity
  8
L1_120
  6
CONTINUOUS
 62
         4
100
AcDbLine
 10
1526.6441682129
 20
-355.1706220057
 30
0.0
 11
1535.1461682129
 21
-346.6686220057
 31
0.0
  0
LINE
  5
2CC
100
AcDbEntity
  8
L1_120
  6
CONTINUOUS
 62
         4
100
AcDbLine
 10
1551.5746682129
 20
-330.2401220057
 30
0.0
 11
1558.3215810855
 21
-323.4932091331
 31
0.0
  0
LINE
  5
2CD
100
AcDbEntity
  8
L1_120
  6
CONTINUOUS
 62
         4
100
AcDbLine
 10
1522.4015275258
 20
-355.1706220057
 30
0.0
 11
1530.9035275258
 21
-346.6686220057
 31
0.0
  0
LINE
  5
2CE
100
AcDbEntity
  8
L1_120
  6
CONTINUOUS
 62
         4
100
AcDbLine
 10
1547.3320275258
 20
-330.2401220057
 30
0.0
 11
1554.3884820089
 21
-323.1836675226
 31
0.0
  0
LINE
  5
2CF
100
AcDbEntity
  8
L1_120
  6
CONTINUOUS
 62
         4
100
AcDbLine
 10
1518.1588868387
 20
-355.1706220057
 30
0.0
 11
1529.6608868387
 21
-343.6686220057
 31
0.0
  0
LINE
  5
2D0
100
AcDbEntity
  8
L1_120
  6
CONTINUOUS
 62
         4
100
AcDbLine
 10
1543.0893868387
 20
-330.2401220057
 30
0.0
 11
1550.4553829322
 21
-322.8741259122
 31
0.0
  0
LINE
  5
2D1
100
AcDbEntity
  8
L1_120
  6
CONTINUOUS
 62
         4
100
AcDbLine
 10
1513.9162461515
 20
-355.1706220057
 30
0.0
 11
1525.4182461515
 21
-343.6686220057
 31
0.0
  0
LINE
  5
2D2
100
AcDbEntity
  8
L1_120
  6
CONTINUOUS
 62
         4
100
AcDbLine
 10
1539.4182461515
 20
-329.6686220057
 30
0.0
 11
1546.5222838555
 21
-322.5645843017
 31
0.0
  0
LINE
  5
2D3
100
AcDbEntity
  8
L1_120
  6
CONTINUOUS
 62
         4
100
AcDbLine
 10
1509.6736054644
 20
-355.1706220057
 30
0.0
 11
1521.1756054644
 21
-343.6686220057
 31
0.0
  0
LINE
  5
2D4
100
AcDbEntity
  8
L1_120
  6
CONTINUOUS
 62
         4
100
AcDbLine
 10
1535.1756054644
 20
-329.6686220057
 30
0.0
 11
1542.5891847788
 21
-322.2550426913
 31
0.0
  0
LINE
  5
2D5
100
AcDbEntity
  8
L1_120
  6
CONTINUOUS
 62
         4
100
AcDbLine
 10
1505.4309647773
 20
-355.1706220057
 30
0.0
 11
1516.9329647773
 21
-343.6686220057
 31
0.0
  0
LINE
  5
2D6
100
AcDbEntity
  8
L1_120
  6
CONTINUOUS
 62
         4
100
AcDbLine
 10
1527.9329647773
 20
-332.6686220057
 30
0.0
 11
1530.3975047567
 21
-330.2040820263
 31
0.0
  0
LINE
  5
2D7
100
AcDbEntity
  8
L1_120
  6
CONTINUOUS
 62
         4
100
AcDbLine
 10
1530.9329647773
 20
-329.6686220057
 30
0.0
 11
1538.6560857022
 21
-321.9455010808
 31
0.0
  0
LINE
  5
2D8
100
AcDbEntity
  8
L1_120
  6
CONTINUOUS
 62
         4
100
AcDbLine
 10
1501.1883240902
 20
-355.1706220057
 30
0.0
 11
1512.6903240902
 21
-343.6686220057
 31
0.0
  0
LINE
  5
2D9
100
AcDbEntity
  8
L1_120
  6
CONTINUOUS
 62
         4
100
AcDbLine
 10
1523.6903240902
 20
-332.6686220057
 30
0.0
 11
1534.7229866255
 21
-321.6359594704
 31
0.0
  0
LINE
  5
2DA
100
AcDbEntity
  8
L1_120
  6
CONTINUOUS
 62
         4
100
AcDbLine
 10
1496.9456834031
 20
-355.1706220057
 30
0.0
 11
1508.4476834031
 21
-343.6686220057
 31
0.0
  0
LINE
  5
2DB
100
AcDbEntity
  8
L1_120
  6
CONTINUOUS
 62
         4
100
AcDbLine
 10
1519.4476834031
 20
-332.6686220057
 30
0.0
 11
1530.7898875488
 21
-321.32641786
 31
0.0
  0
LINE
  5
2DC
100
AcDbEntity
  8
L1_120
  6
CONTINUOUS
 62
         4
100
AcDbLine
 10
1492.7030427159
 20
-355.1706220057
 30
0.0
 11
1504.2050427159
 21
-343.6686220057
 31
0.0
  0
LINE
  5
2DD
100
AcDbEntity
  8
L1_120
  6
CONTINUOUS
 62
         4
100
AcDbLine
 10
1515.2050427159
 20
-332.6686220057
 30
0.0
 11
1526.7070427159
 21
-321.1666220057
 31
0.0
  0
LINE
  5
2DE
100
AcDbEntity
  8
L1_120
  6
CONTINUOUS
 62
         4
100
AcDbLine
 10
1488.4604020288
 20
-355.1706220057
 30
0.0
 11
1499.9624020288
 21
-343.6686220057
 31
0.0
  0
LINE
  5
2DF
100
AcDbEntity
  8
L1_120
  6
CONTINUOUS
 62
         4
100
AcDbLine
 10
1510.9624020288
 20
-332.6686220057
 30
0.0
 11
1522.4644020288
 21
-321.1666220057
 31
0.0
  0
LINE
  5
2E0
100
AcDbEntity
  8
L1_120
  6
CONTINUOUS
 62
         4
100
AcDbLine
 10
1484.2177613417
 20
-355.1706220057
 30
0.0
 11
1495.7197613417
 21
-343.6686220057
 31
0.0
  0
LINE
  5
2E1
100
AcDbEntity
  8
L1_120
  6
CONTINUOUS
 62
         4
100
AcDbLine
 10
1506.7197613417
 20
-332.6686220057
 30
0.0
 11
1518.2217613417
 21
-321.1666220057
 31
0.0
  0
LINE
  5
2E2
100
AcDbEntity
  8
L1_120
  6
CONTINUOUS
 62
         4
100
AcDbLine
 10
1479.9751206546
 20
-355.1706220057
 30
0.0
 11
1491.4771206546
 21
-343.6686220057
 31
0.0
  0
LINE
  5
2E3
100
AcDbEntity
  8
L1_120
  6
CONTINUOUS
 62
         4
100
AcDbLine
 10
1502.4771206546
 20
-332.6686220057
 30
0.0
 11
1513.9791206546
 21
-321.1666220057
 31
0.0
  0
LINE
  5
2E4
100
AcDbEntity
  8
L1_120
  6
CONTINUOUS
 62
         4
100
AcDbLine
 10
1475.7324799675
 20
-355.1706220057
 30
0.0
 11
1487.2344799675
 21
-343.6686220057
 31
0.0
  0
LINE
  5
2E5
100
AcDbEntity
  8
L1_120
  6
CONTINUOUS
 62
         4
100
AcDbLine
 10
1498.2344799675
 20
-332.6686220057
 30
0.0
 11
1509.7364799675
 21
-321.1666220057
 31
0.0
  0
LINE
  5
2E6
100
AcDbEntity
  8
L1_120
  6
CONTINUOUS
 62
         4
100
AcDbLine
 10
1471.4898392803
 20
-355.1706220057
 30
0.0
 11
1482.9918392803
 21
-343.6686220057
 31
0.0
  0
LINE
  5
2E7
100
AcDbEntity
  8
L1_120
  6
CONTINUOUS
 62
         4
100
AcDbLine
 10
1493.9918392803
 20
-332.6686220057
 30
0.0
 11
1505.4938392803
 21
-321.1666220057
 31
0.0
  0
LINE
  5
2E8
100
AcDbEntity
  8
L1_120
  6
CONTINUOUS
 62
         4
100
AcDbLine
 10
1435.4991985932
 20
-386.9186220057
 30
0.0
 11
1439.4775047567
 21
-382.9403158422
 31
0.0
  0
LINE
  5
2E9
100
AcDbEntity
  8
L1_120
  6
CONTINUOUS
 62
         4
100
AcDbLine
 10
1467.2471985932
 20
-355.1706220057
 30
0.0
 11
1478.7491985932
 21
-343.6686220057
 31
0.0
  0
LINE
  5
2EA
100
AcDbEntity
  8
L1_120
  6
CONTINUOUS
 62
         4
100
AcDbLine
 10
1489.7491985932
 20
-332.6686220057
 30
0.0
 11
1501.2511985932
 21
-321.1666220057
 31
0.0
  0
LINE
  5
2EB
100
AcDbEntity
  8
L1_120
  6
CONTINUOUS
 62
         4
100
AcDbLine
 10
1433.6385381947
 20
-384.5366417171
 30
0.0
 11
1439.4775047567
 21
-378.6976751551
 31
0.0
  0
LINE
  5
2EC
100
AcDbEntity
  8
L1_120
  6
CONTINUOUS
 62
         4
100
AcDbLine
 10
1463.0045579061
 20
-355.1706220057
 30
0.0
 11
1474.5065579061
 21
-343.6686220057
 31
0.0
  0
LINE
  5
2ED
100
AcDbEntity
  8
L1_120
  6
CONTINUOUS
 62
         4
100
AcDbLine
 10
1485.5065579061
 20
-332.6686220057
 30
0.0
 11
1497.0085579061
 21
-321.1666220057
 31
0.0
  0
LINE
  5
2EE
100
AcDbEntity
  8
L1_120
  6
CONTINUOUS
 62
         4
100
AcDbLine
 10
1427.013917219
 20
-386.9186220057
 30
0.0
 11
1429.2079731271
 21
-384.7245660976
 31
0.0
  0
LINE
  5
2EF
100
AcDbEntity
  8
L1_120
  6
CONTINUOUS
 62
         4
100
AcDbLine
 10
1430.138917219
 20
-383.7936220057
 30
0.0
 11
1439.4775047567
 21
-374.455034468
 31
0.0
  0
LINE
  5
2F0
100
AcDbEntity
  8
L1_120
  6
CONTINUOUS
 62
         4
100
AcDbLine
 10
1458.761917219
 20
-355.1706220057
 30
0.0
 11
1470.263917219
 21
-343.6686220057
 31
0.0
  0
LINE
  5
2F1
100
AcDbEntity
  8
L1_120
  6
CONTINUOUS
 62
         4
100
AcDbLine
 10
1481.263917219
 20
-332.6686220057
 30
0.0
 11
1492.765917219
 21
-321.1666220057
 31
0.0
  0
LINE
  5
2F2
100
AcDbEntity
  8
L1_120
  6
CONTINUOUS
 62
         4
100
AcDbLine
 10
1423.6933203041
 20
-385.9965782335
 30
0.0
 11
1439.4775047567
 21
-370.2123937809
 31
0.0
  0
LINE
  5
2F3
100
AcDbEntity
  8
L1_120
  6
CONTINUOUS
 62
         4
100
AcDbLine
 10
1454.5192765319
 20
-355.1706220057
 30
0.0
 11
1466.0212765319
 21
-343.6686220057
 31
0.0
  0
LINE
  5
2F4
100
AcDbEntity
  8
L1_120
  6
CONTINUOUS
 62
         4
100
AcDbLine
 10
1477.0212765319
 20
-332.6686220057
 30
0.0
 11
1488.5232765319
 21
-321.1666220057
 31
0.0
  0
LINE
  5
2F5
100
AcDbEntity
  8
L1_120
  6
CONTINUOUS
 62
         4
100
AcDbLine
 10
1423.5775047567
 20
-381.8697530938
 30
0.0
 11
1439.4775047567
 21
-365.9697530937
 31
0.0
  0
LINE
  5
2F6
100
AcDbEntity
  8
L1_120
  6
CONTINUOUS
 62
         4
100
AcDbLine
 10
1450.2766358448
 20
-355.1706220057
 30
0.0
 11
1461.7786358448
 21
-343.6686220057
 31
0.0
  0
LINE
  5
2F7
100
AcDbEntity
  8
L1_120
  6
CONTINUOUS
 62
         4
100
AcDbLine
 10
1472.7786358448
 20
-332.6686220057
 30
0.0
 11
1484.2806358448
 21
-321.1666220057
 31
0.0
  0
LINE
  5
2F8
100
AcDbEntity
  8
L1_120
  6
CONTINUOUS
 62
         4
100
AcDbLine
 10
1423.5775047567
 20
-377.6271124066
 30
0.0
 11
1439.4775047567
 21
-361.7271124066
 31
0.0
  0
LINE
  5
2F9
100
AcDbEntity
  8
L1_120
  6
CONTINUOUS
 62
         4
100
AcDbLine
 10
1449.6849142291
 20
-351.5197029343
 30
0.0
 11
1457.5359951576
 21
-343.6686220057
 31
0.0
  0
LINE
  5
2FA
100
AcDbEntity
  8
L1_120
  6
CONTINUOUS
 62
         4
100
AcDbLine
 10
1468.5359951576
 20
-332.6686220057
 30
0.0
 11
1480.0379951576
 21
-321.1666220057
 31
0.0
  0
LINE
  5
2FB
100
AcDbEntity
  8
L1_120
  6
CONTINUOUS
 62
         4
100
AcDbLine
 10
1423.3981408
 20
-373.5638356763
 30
0.0
 11
1439.5841563078
 21
-357.3778201684
 31
0.0
  0
LINE
  5
2FC
100
AcDbEntity
  8
L1_120
  6
CONTINUOUS
 62
         4
100
AcDbLine
 10
1441.6847029194
 20
-355.2772735568
 30
0.0
 11
1444.4949142291
 21
-352.4670622472
 31
0.0
  0
LINE
  5
2FD
100
AcDbEntity
  8
L1_120
  6
CONTINUOUS
 62
         4
100
AcDbLine
 10
1449.1184200419
 20
-347.8435564343
 30
0.0
 11
1453.2933544705
 21
-343.6686220057
 31
0.0
  0
LINE
  5
2FE
100
AcDbEntity
  8
L1_120
  6
CONTINUOUS
 62
         4
100
AcDbLine
 10
1464.2933544705
 20
-332.6686220057
 30
0.0
 11
1475.7953544705
 21
-321.1666220057
 31
0.0
  0
LINE
  5
2FF
100
AcDbEntity
  8
L1_120
  6
CONTINUOUS
 62
         4
100
AcDbLine
 10
1419.7213970571
 20
-372.997938732
 30
0.0
 11
1444.4949142291
 21
-348.22442156
 31
0.0
  0
LINE
  5
300
100
AcDbEntity
  8
L1_120
  6
CONTINUOUS
 62
         4
100
AcDbLine
 10
1444.6222053413
 20
-348.0971304478
 30
0.0
 11
1449.0507137834
 21
-343.6686220057
 31
0.0
  0
LINE
  5
301
100
AcDbEntity
  8
L1_120
  6
CONTINUOUS
 62
         4
100
AcDbLine
 10
1460.0507137834
 20
-332.6686220057
 30
0.0
 11
1471.5527137834
 21
-321.1666220057
 31
0.0
  0
LINE
  5
302
100
AcDbEntity
  8
L1_120
  6
CONTINUOUS
 62
         4
100
AcDbLine
 10
1416.0187332579
 20
-372.4579618441
 30
0.0
 11
1444.8080730963
 21
-343.6686220057
 31
0.0
  0
LINE
  5
303
100
AcDbEntity
  8
L1_120
  6
CONTINUOUS
 62
         4
100
AcDbLine
 10
1455.8080730963
 20
-332.6686220057
 30
0.0
 11
1467.3100730963
 21
-321.1666220057
 31
0.0
  0
LINE
  5
304
100
AcDbEntity
  8
L1_120
  6
CONTINUOUS
 62
         4
100
AcDbLine
 10
1412.3160694587
 20
-371.9179849562
 30
0.0
 11
1440.5654324092
 21
-343.6686220057
 31
0.0
  0
LINE
  5
305
100
AcDbEntity
  8
L1_120
  6
CONTINUOUS
 62
         4
100
AcDbLine
 10
1451.5654324092
 20
-332.6686220057
 30
0.0
 11
1463.0674324092
 21
-321.1666220057
 31
0.0
  0
LINE
  5
306
100
AcDbEntity
  8
L1_120
  6
CONTINUOUS
 62
         4
100
AcDbLine
 10
1408.6134056594
 20
-371.3780080683
 30
0.0
 11
1436.322791722
 21
-343.6686220057
 31
0.0
  0
LINE
  5
307
100
AcDbEntity
  8
L1_120
  6
CONTINUOUS
 62
         4
100
AcDbLine
 10
1447.322791722
 20
-332.6686220057
 30
0.0
 11
1458.824791722
 21
-321.1666220057
 31
0.0
  0
LINE
  5
308
100
AcDbEntity
  8
L1_120
  6
CONTINUOUS
 62
         4
100
AcDbLine
 10
1404.9107418602
 20
-370.8380311804
 30
0.0
 11
1427.1838095715
 21
-348.5649634691
 31
0.0
  0
LINE
  5
309
100
AcDbEntity
  8
L1_120
  6
CONTINUOUS
 62
         4
100
AcDbLine
 10
1428.0748089137
 20
-347.6739641269
 30
0.0
 11
1432.0801510349
 21
-343.6686220057
 31
0.0
  0
LINE
  5
30A
100
AcDbEntity
  8
L1_120
  6
CONTINUOUS
 62
         4
100
AcDbLine
 10
1443.0801510349
 20
-332.6686220057
 30
0.0
 11
1446.4521439365
 21
-329.2966291042
 31
0.0
  0
LINE
  5
30B
100
AcDbEntity
  8
L1_120
  6
CONTINUOUS
 62
         4
100
AcDbLine
 10
1449.6849142291
 20
-326.0638588116
 30
0.0
 11
1454.5821510349
 21
-321.1666220057
 31
0.0
  0
LINE
  5
30C
100
AcDbEntity
  8
L1_120
  6
CONTINUOUS
 62
         4
100
AcDbLine
 10
1401.208078061
 20
-370.2980542925
 30
0.0
 11
1422.9411688844
 21
-348.5649634691
 31
0.0
  0
LINE
  5
30D
100
AcDbEntity
  8
L1_120
  6
CONTINUOUS
 62
         4
100
AcDbLine
 10
1438.8375103478
 20
-332.6686220057
 30
0.0
 11
1444.4949142291
 21
-327.0112181244
 31
0.0
  0
LINE
  5
30E
100
AcDbEntity
  8
L1_120
  6
CONTINUOUS
 62
         4
100
AcDbLine
 10
1449.6849142291
 20
-321.8212181244
 30
0.0
 11
1450.3395103478
 21
-321.1666220057
 31
0.0
  0
LINE
  5
30F
100
AcDbEntity
  8
L1_120
  6
CONTINUOUS
 62
         4
100
AcDbLine
 10
1397.5054142618
 20
-369.7580774046
 30
0.0
 11
1418.6985281973
 21
-348.5649634691
 31
0.0
  0
LINE
  5
310
100
AcDbEntity
  8
L1_120
  6
CONTINUOUS
 62
         4
100
AcDbLine
 10
1434.5948696607
 20
-332.6686220057
 30
0.0
 11
1444.4949142291
 21
-322.7685774373
 31
0.0
  0
LINE
  5
311
100
AcDbEntity
  8
L1_120
  6
CONTINUOUS
 62
         4
100
AcDbLine
 10
1393.8027504625
 20
-369.2181005167
 30
0.0
 11
1414.4558875101
 21
-348.5649634691
 31
0.0
  0
LINE
  5
312
100
AcDbEntity
  8
L1_120
  6
CONTINUOUS
 62
         4
100
AcDbLine
 10
1430.37472637
 20
-332.6461246093
 30
0.0
 11
1441.9086544422
 21
-321.1121965371
 31
0.0
  0
LINE
  5
313
100
AcDbEntity
  8
L1_120
  6
CONTINUOUS
 62
         4
100
AcDbLine
 10
1390.1000866633
 20
-368.6781236288
 30
0.0
 11
1410.213246823
 21
-348.5649634691
 31
0.0
  0
LINE
  5
314
100
AcDbEntity
  8
L1_120
  6
CONTINUOUS
 62
         4
100
AcDbLine
 10
1428.8218120994
 20
-329.9563981928
 30
0.0
 11
1439.6393985138
 21
-319.1388117783
 31
0.0
  0
LINE
  5
315
100
AcDbEntity
  8
L1_120
  6
CONTINUOUS
 62
         4
100
AcDbLine
 10
1386.3974228641
 20
-368.138146741
 30
0.0
 11
1405.9706061359
 21
-348.5649634691
 31
0.0
  0
LINE
  5
316
100
AcDbEntity
  8
L1_120
  6
CONTINUOUS
 62
         4
100
AcDbLine
 10
1426.7632890627
 20
-327.7722805423
 30
0.0
 11
1439.4775047567
 21
-315.0580648483
 31
0.0
  0
LINE
  5
317
100
AcDbEntity
  8
L1_120
  6
CONTINUOUS
 62
         4
100
AcDbLine
 10
1382.6947590649
 20
-367.5981698531
 30
0.0
 11
1401.7279654488
 21
-348.5649634691
 31
0.0
  0
LINE
  5
318
100
AcDbEntity
  8
L1_120
  6
CONTINUOUS
 62
         4
100
AcDbLine
 10
1422.5206483756
 20
-327.7722805423
 30
0.0
 11
1439.4775047567
 21
-310.8154241612
 31
0.0
  0
LINE
  5
319
100
AcDbEntity
  8
L1_120
  6
CONTINUOUS
 62
         4
100
AcDbLine
 10
1378.9920952656
 20
-367.0581929652
 30
0.0
 11
1397.4853247617
 21
-348.5649634691
 31
0.0
  0
LINE
  5
31A
100
AcDbEntity
  8
L1_120
  6
CONTINUOUS
 62
         4
100
AcDbLine
 10
1418.2780076885
 20
-327.7722805423
 30
0.0
 11
1439.4775047567
 21
-306.5727834741
 31
0.0
  0
LINE
  5
31B
100
AcDbEntity
  8
L1_120
  6
CONTINUOUS
 62
         4
100
AcDbLine
 10
1375.2894314664
 20
-366.5182160773
 30
0.0
 11
1393.2426840745
 21
-348.5649634691
 31
0.0
  0
LINE
  5
31C
100
AcDbEntity
  8
L1_120
  6
CONTINUOUS
 62
         4
100
AcDbLine
 10
1419.1401016273
 20
-322.6675459164
 30
0.0
 11
1439.4775047567
 21
-302.330142787
 31
0.0
  0
LINE
  5
31D
100
AcDbEntity
  8
L1_120
  6
CONTINUOUS
 62
         4
100
AcDbLine
 10
1371.5867676672
 20
-365.9782391894
 30
0.0
 11
1389.0000433874
 21
-348.5649634691
 31
0.0
  0
LINE
  5
31E
100
AcDbEntity
  8
L1_120
  6
CONTINUOUS
 62
         4
100
AcDbLine
 10
1409.7927263143
 20
-327.7722805423
 30
0.0
 11
1414.4922203049
 21
-323.0727865517
 31
0.0
  0
LINE
  5
31F
100
AcDbEntity
  8
L1_120
  6
CONTINUOUS
 62
         4
100
AcDbLine
 10
1367.884103868
 20
-365.4382623015
 30
0.0
 11
1384.7574027003
 21
-348.5649634691
 31
0.0
  0
LINE
  5
320
100
AcDbEntity
  8
L1_120
  6
CONTINUOUS
 62
         4
100
AcDbLine
 10
1405.5500856271
 20
-327.7722805423
 30
0.0
 11
1429.7675155046
 21
-303.5548506649
 31
0.0
  0
LINE
  5
321
100
AcDbEntity
  8
L1_120
  6
CONTINUOUS
 62
         4
100
AcDbLine
 10
1433.3575907199
 20
-299.9647754496
 30
0.0
 11
1433.8454550917
 21
-299.4769110777
 31
0.0
  0
LINE
  5
322
100
AcDbEntity
  8
L1_120
  6
CONTINUOUS
 62
         4
100
AcDbLine
 10
1364.1814400687
 20
-364.8982854136
 30
0.0
 11
1380.5147620132
 21
-348.5649634691
 31
0.0
  0
LINE
  5
323
100
AcDbEntity
  8
L1_120
  6
CONTINUOUS
 62
         4
100
AcDbLine
 10
1401.30744494
 20
-327.7722805423
 30
0.0
 11
1427.2721491497
 21
-301.8075763326
 31
0.0
  0
LINE
  5
324
100
AcDbEntity
  8
L1_120
  6
CONTINUOUS
 62
         4
100
AcDbLine
 10
1430.862224365
 20
-298.2175011173
 30
0.0
 11
1439.1259842374
 21
-289.9537412449
 31
0.0
  0
LINE
  5
325
100
AcDbEntity
  8
L1_120
  6
CONTINUOUS
 62
         4
100
AcDbLine
 10
1360.4787762695
 20
-364.3583085257
 30
0.0
 11
1376.2721213261
 21
-348.5649634691
 31
0.0
  0
LINE
  5
326
100
AcDbEntity
  8
L1_120
  6
CONTINUOUS
 62
         4
100
AcDbLine
 10
1397.0648042529
 20
-327.7722805423
 30
0.0
 11
1421.7684644371
 21
-303.0686203581
 31
0.0
  0
LINE
  5
327
100
AcDbEntity
  8
L1_120
  6
CONTINUOUS
 62
         4
100
AcDbLine
 10
1423.5775047567
 20
-301.2595800385
 30
0.0
 11
1424.7767827949
 21
-300.0603020003
 31
0.0
  0
LINE
  5
328
100
AcDbEntity
  8
L1_120
  6
CONTINUOUS
 62
         4
100
AcDbLine
 10
1428.3668580102
 20
-296.470226785
 30
0.0
 11
1432.2934627895
 21
-292.5436220057
 31
0.0
  0
LINE
  5
329
100
AcDbEntity
  8
L1_120
  6
CONTINUOUS
 62
         4
100
AcDbLine
 10
1434.4609615669
 20
-290.3761232283
 30
0.0
 11
1435.4184627895
 21
-289.4186220057
 31
0.0
  0
LINE
  5
32A
100
AcDbEntity
  8
L1_120
  6
CONTINUOUS
 62
         4
100
AcDbLine
 10
1356.7761124703
 20
-363.8183316378
 30
0.0
 11
1372.029480639
 21
-348.5649634691
 31
0.0
  0
LINE
  5
32B
100
AcDbEntity
  8
L1_120
  6
CONTINUOUS
 62
         4
100
AcDbLine
 10
1392.8221635658
 20
-327.7722805423
 30
0.0
 11
1416.8340657094
 21
-303.7603783987
 31
0.0
  0
LINE
  5
32C
100
AcDbEntity
  8
L1_120
  6
CONTINUOUS
 62
         4
100
AcDbLine
 10
1426.266399929
 20
-294.3280441791
 30
0.0
 11
1429.1251756432
 21
-291.4692684649
 31
0.0
  0
LINE
  5
32D
100
AcDbEntity
  8
L1_120
  6
CONTINUOUS
 62
         4
100
AcDbLine
 10
1353.0734486711
 20
-363.2783547499
 30
0.0
 11
1367.7868399518
 21
-348.5649634691
 31
0.0
  0
LINE
  5
32E
100
AcDbEntity
  8
L1_120
  6
CONTINUOUS
 62
         4
100
AcDbLine
 10
1388.5795228787
 20
-327.7722805423
 30
0.0
 11
1411.8670637501
 21
-304.4847396709
 31
0.0
  0
LINE
  5
32F
100
AcDbEntity
  8
L1_120
  6
CONTINUOUS
 62
         4
100
AcDbLine
 10
1423.7710335741
 20
-292.5807698468
 30
0.0
 11
1426.9331814152
 21
-289.4186220057
 31
0.0
  0
LINE
  5
330
100
AcDbEntity
  8
L1_120
  6
CONTINUOUS
 62
         4
100
AcDbLine
 10
1349.3707848718
 20
-362.738377862
 30
0.0
 11
1363.5441992647
 21
-348.5649634691
 31
0.0
  0
LINE
  5
331
100
AcDbEntity
  8
L1_120
  6
CONTINUOUS
 62
         4
100
AcDbLine
 10
1384.3368821915
 20
-327.7722805423
 30
0.0
 11
1406.9000617908
 21
-305.2091009431
 31
0.0
  0
LINE
  5
332
100
AcDbEntity
  8
L1_120
  6
CONTINUOUS
 62
         4
100
AcDbLine
 10
1345.6681210726
 20
-362.1984009741
 30
0.0
 11
1359.3015585776
 21
-348.5649634691
 31
0.0
  0
LINE
  5
333
100
AcDbEntity
  8
L1_120
  6
CONTINUOUS
 62
         4
100
AcDbLine
 10
1380.0942415044
 20
-327.7722805423
 30
0.0
 11
1401.9330598314
 21
-305.9334622153
 31
0.0
  0
LINE
  5
334
100
AcDbEntity
  8
L1_120
  6
CONTINUOUS
 62
         4
100
AcDbLine
 10
1341.9654572734
 20
-361.6584240862
 30
0.0
 11
1355.0589178905
 21
-348.5649634691
 31
0.0
  0
LINE
  5
335
100
AcDbEntity
  8
L1_120
  6
CONTINUOUS
 62
         4
100
AcDbLine
 10
1375.8516008173
 20
-327.7722805423
 30
0.0
 11
1396.9660578721
 21
-306.6578234875
 31
0.0
  0
LINE
  5
336
100
AcDbEntity
  8
L1_120
  6
CONTINUOUS
 62
         4
100
AcDbLine
 10
1338.2627934742
 20
-361.1184471983
 30
0.0
 11
1350.8162772034
 21
-348.5649634691
 31
0.0
  0
LINE
  5
337
100
AcDbEntity
  8
L1_120
  6
CONTINUOUS
 62
         4
100
AcDbLine
 10
1371.6089601302
 20
-327.7722805423
 30
0.0
 11
1391.9990559128
 21
-307.3821847597
 31
0.0
  0
LINE
  5
338
100
AcDbEntity
  8
L1_120
  6
CONTINUOUS
 62
         4
100
AcDbLine
 10
1334.5601296749
 20
-360.5784703104
 30
0.0
 11
1346.5736365162
 21
-348.5649634691
 31
0.0
  0
LINE
  5
339
100
AcDbEntity
  8
L1_120
  6
CONTINUOUS
 62
         4
100
AcDbLine
 10
1367.3663194431
 20
-327.7722805423
 30
0.0
 11
1387.0320539534
 21
-308.1065460319
 31
0.0
  0
LINE
  5
33A
100
AcDbEntity
  8
L1_120
  6
CONTINUOUS
 62
         4
100
AcDbLine
 10
1330.8574658757
 20
-360.0384934225
 30
0.0
 11
1342.3309958291
 21
-348.5649634691
 31
0.0
  0
LINE
  5
33B
100
AcDbEntity
  8
L1_120
  6
CONTINUOUS
 62
         4
100
AcDbLine
 10
1363.1236787559
 20
-327.7722805423
 30
0.0
 11
1382.0650519941
 21
-308.8309073041
 31
0.0
  0
LINE
  5
33C
100
AcDbEntity
  8
L1_120
  6
CONTINUOUS
 62
         4
100
AcDbLine
 10
1327.1548020765
 20
-359.4985165346
 30
0.0
 11
1338.088355142
 21
-348.5649634691
 31
0.0
  0
LINE
  5
33D
100
AcDbEntity
  8
L1_120
  6
CONTINUOUS
 62
         4
100
AcDbLine
 10
1358.8810380688
 20
-327.7722805423
 30
0.0
 11
1377.0980500348
 21
-309.5552685763
 31
0.0
  0
LINE
  5
33E
100
AcDbEntity
  8
L1_120
  6
CONTINUOUS
 62
         4
100
AcDbLine
 10
1323.4521382773
 20
-358.9585396467
 30
0.0
 11
1333.8457144549
 21
-348.5649634691
 31
0.0
  0
LINE
  5
33F
100
AcDbEntity
  8
L1_120
  6
CONTINUOUS
 62
         4
100
AcDbLine
 10
1354.6383973817
 20
-327.7722805423
 30
0.0
 11
1372.1310480755
 21
-310.2796298486
 31
0.0
  0
LINE
  5
340
100
AcDbEntity
  8
L1_120
  6
CONTINUOUS
 62
         4
100
AcDbLine
 10
1319.9405831605
 20
-358.2274540764
 30
0.0
 11
1329.6030737678
 21
-348.5649634691
 31
0.0
  0
LINE
  5
341
100
AcDbEntity
  8
L1_120
  6
CONTINUOUS
 62
         4
100
AcDbLine
 10
1350.3957566946
 20
-327.7722805423
 30
0.0
 11
1367.1640461161
 21
-311.0039911208
 31
0.0
  0
LINE
  5
342
100
AcDbEntity
  8
L1_120
  6
CONTINUOUS
 62
         4
100
AcDbLine
 10
1318.7775047567
 20
-355.1478917931
 30
0.0
 11
1323.1977578938
 21
-350.7276386559
 31
0.0
  0
LINE
  5
343
100
AcDbEntity
  8
L1_120
  6
CONTINUOUS
 62
         4
100
AcDbLine
 10
1346.1531160075
 20
-327.7722805423
 30
0.0
 11
1362.1970441568
 21
-311.728352393
 31
0.0
  0
LINE
  5
344
100
AcDbEntity
  8
L1_120
  6
CONTINUOUS
 62
         4
100
AcDbLine
 10
1341.9104753203
 20
-327.7722805423
 30
0.0
 11
1357.2300421975
 21
-312.4527136652
 31
0.0
  0
LINE
  5
345
100
AcDbEntity
  8
L1_120
  6
CONTINUOUS
 62
         4
100
AcDbLine
 10
1337.6678346332
 20
-327.7722805423
 30
0.0
 11
1352.2630402381
 21
-313.1770749374
 31
0.0
  0
LINE
  5
346
100
AcDbEntity
  8
L1_120
  6
CONTINUOUS
 62
         4
100
AcDbLine
 10
1333.4251939461
 20
-327.7722805423
 30
0.0
 11
1347.2960382788
 21
-313.9014362096
 31
0.0
  0
LINE
  5
347
100
AcDbEntity
  8
L1_120
  6
CONTINUOUS
 62
         4
100
AcDbLine
 10
1329.182553259
 20
-327.7722805423
 30
0.0
 11
1342.3290363195
 21
-314.6257974818
 31
0.0
  0
LINE
  5
348
100
AcDbEntity
  8
L1_120
  6
CONTINUOUS
 62
         4
100
AcDbLine
 10
1325.9933806451
 20
-326.7188124691
 30
0.0
 11
1337.3620343602
 21
-315.350158754
 31
0.0
  0
LINE
  5
349
100
AcDbEntity
  8
L1_120
  6
CONTINUOUS
 62
         4
100
AcDbLine
 10
1322.8009304213
 20
-325.6686220057
 30
0.0
 11
1332.3950324008
 21
-316.0745200262
 31
0.0
  0
LINE
  5
34A
100
AcDbEntity
  8
L1_120
  6
CONTINUOUS
 62
         4
100
AcDbLine
 10
1319.0328018157
 20
-325.1941099242
 30
0.0
 11
1327.4280304415
 21
-316.7988812984
 31
0.0
  0
LINE
  5
34B
100
AcDbEntity
  8
L1_120
  6
CONTINUOUS
 62
         4
100
AcDbLine
 10
1318.7775047567
 20
-321.2067662961
 30
0.0
 11
1322.4610284822
 21
-317.5232425706
 31
0.0
  0
ENDBLK
  5
34C
100
AcDbEntity
  8
0
  6
CONTINUOUS
100
AcDbBlockEnd
  0
BLOCK
  5
4FC
100
AcDbEntity
  8
0
100
AcDbBlockBegin
  2
*D7
 70
        65
 10
0.0
 20
0.0
 30
0.0
  3
*D7
  1

  0
POINT
  5
4FE
100
AcDbEntity
  8
DEFPOINTS
  6
CONTINUOUS
 62
         0
100
AcDbPoint
 10
1651.0283278224
 20
-304.5053098686
 30
0.0
  0
POINT
  5
4FF
100
AcDbEntity
  8
DEFPOINTS
  6
CONTINUOUS
 62
         0
100
AcDbPoint
 10
1633.8858297896
 20
-304.5053098686
 30
0.0
  0
POINT
  5
500
100
AcDbEntity
  8
DEFPOINTS
  6
CONTINUOUS
 62
         0
100
AcDbPoint
 10
1633.8858297896
 20
-314.5053098686
 30
0.0
  0
LINE
  5
501
100
AcDbEntity
  8
L1_120
  6
CONTINUOUS
 62
         4
100
AcDbLine
 10
1635.6358297896
 20
-304.5053098686
 30
0.0
 11
1651.9033278224
 21
-304.5053098686
 31
0.0
  0
LINE
  5
502
100
AcDbEntity
  8
L1_120
  6
CONTINUOUS
 62
         4
100
AcDbLine
 10
1635.6358297896
 20
-314.5053098686
 30
0.0
 11
1651.9033278224
 21
-314.5053098686
 31
0.0
  0
LINE
  5
503
100
AcDbEntity
  8
L1_120
  6
CONTINUOUS
 62
         4
100
AcDbLine
 10
1651.0283278224
 20
-304.5053098686
 30
0.0
 11
1651.0283278224
 21
-270.9760996322
 31
0.0
  0
SOLID
  5
504
100
AcDbEntity
  8
L1_120
  6
CONTINUOUS
 62
         4
100
AcDbTrace
 10
1651.0283278224
 20
-304.5053098686
 30
0.0
 11
1650.5033278224
 21
-301.0053098686
 31
0.0
 12
1651.5533278224
 22
-301.0053098686
 32
0.0
 13
1651.0283278224
 23
-304.5053098686
 33
0.0
  0
LINE
  5
505
100
AcDbEntity
  8
L1_120
  6
CONTINUOUS
 62
         4
100
AcDbLine
 10
1651.0283278224
 20
-314.5053098686
 30
0.0
 11
1651.0283278224
 21
-321.5053098686
 31
0.0
  0
SOLID
  5
506
100
AcDbEntity
  8
L1_120
  6
CONTINUOUS
 62
         4
100
AcDbTrace
 10
1651.0283278224
 20
-314.5053098686
 30
0.0
 11
1651.5533278224
 21
-318.0053098686
 31
0.0
 12
1650.5033278224
 22
-318.0053098686
 32
0.0
 13
1651.0283278224
 23
-314.5053098686
 33
0.0
  0
LINE
  5
507
100
AcDbEntity
  8
L1_120
  6
CONTINUOUS
 62
         4
100
AcDbLine
 10
1651.0283278224
 20
-304.5053098686
 30
0.0
 11
1651.0283278224
 21
-314.5053098686
 31
0.0
  0
TEXT
  5
509
100
AcDbEntity
  8
L1_120
  6
CONTINUOUS
 62
         4
100
AcDbText
 10
1648.4033278224
 20
-300.7260996322
 30
0.0
 40
3.5
  1
M12xP1.0
 50
90.0
  7
BOX
100
AcDbText
  0
ENDBLK
  5
50A
100
AcDbEntity
  8
0
  6
CONTINUOUS
100
AcDbBlockEnd
  0
BLOCK
  5
50C
100
AcDbEntity
  8
0
100
AcDbBlockBegin
  2
*D8
 70
        65
 10
0.0
 20
0.0
 30
0.0
  3
*D8
  1

  0
POINT
  5
50E
100
AcDbEntity
  8
DEFPOINTS
  6
CONTINUOUS
 62
         0
100
AcDbPoint
 10
1615.3858297896
 20
-327.2868193249
 30
0.0
  0
POINT
  5
50F
100
AcDbEntity
  8
DEFPOINTS
  6
CONTINUOUS
 62
         0
100
AcDbPoint
 10
1615.3858297896
 20
-313.1196692226
 30
0.0
  0
POINT
  5
510
100
AcDbEntity
  8
DEFPOINTS
  6
CONTINUOUS
 62
         0
100
AcDbPoint
 10
1635.3858297896
 20
-313.0053098686
 30
0.0
  0
LINE
  5
511
100
AcDbEntity
  8
L1_120
  6
CONTINUOUS
 62
         4
100
AcDbLine
 10
1615.3858297896
 20
-314.8696692226
 30
0.0
 11
1615.3858297896
 21
-328.1618193249
 31
0.0
  0
LINE
  5
512
100
AcDbEntity
  8
L1_120
  6
CONTINUOUS
 62
         4
100
AcDbLine
 10
1635.3858297896
 20
-314.7553098686
 30
0.0
 11
1635.3858297896
 21
-328.1618193249
 31
0.0
  0
LINE
  5
513
100
AcDbEntity
  8
L1_120
  6
CONTINUOUS
 62
         4
100
AcDbLine
 10
1615.3858297896
 20
-327.2868193249
 30
0.0
 11
1635.3858297896
 21
-327.2868193249
 31
0.0
  0
SOLID
  5
514
100
AcDbEntity
  8
L1_120
  6
CONTINUOUS
 62
         4
100
AcDbTrace
 10
1615.3858297896
 20
-327.2868193249
 30
0.0
 11
1618.8858297896
 21
-326.7618193249
 31
0.0
 12
1618.8858297896
 22
-327.8118193249
 32
0.0
 13
1615.3858297896
 23
-327.2868193249
 33
0.0
  0
SOLID
  5
515
100
AcDbEntity
  8
L1_120
  6
CONTINUOUS
 62
         4
100
AcDbTrace
 10
1635.3858297896
 20
-327.2868193249
 30
0.0
 11
1631.8858297896
 21
-327.8118193249
 31
0.0
 12
1631.8858297896
 22
-326.7618193249
 32
0.0
 13
1635.3858297896
 23
-327.2868193249
 33
0.0
  0
TEXT
  5
517
100
AcDbEntity
  8
L1_120
  6
CONTINUOUS
 62
         4
100
AcDbText
 10
1622.2028365827
 20
-324.6618193249
 30
0.0
 40
3.5
  1
20
  7
BOX
100
AcDbText
  0
ENDBLK
  5
518
100
AcDbEntity
  8
0
  6
CONTINUOUS
100
AcDbBlockEnd
  0
BLOCK
  5
526
100
AcDbEntity
  8
0
100
AcDbBlockBegin
  2
*D9
 70
        65
 10
0.0
 20
0.0
 30
0.0
  3
*D9
  1

  0
POINT
  5
528
100
AcDbEntity
  8
DEFPOINTS
  6
CONTINUOUS
 62
         0
100
AcDbPoint
 10
1592.2342635578
 20
-303.4058967409
 30
0.0
  0
POINT
  5
529
100
AcDbEntity
  8
DEFPOINTS
  6
CONTINUOUS
 62
         0
100
AcDbPoint
 10
1592.2342635578
 20
-308.0619341957
 30
0.0
  0
POINT
  5
52A
100
AcDbEntity
  8
DEFPOINTS
  6
CONTINUOUS
 62
         0
100
AcDbPoint
 10
1597.2342635578
 20
-308.0619341957
 30
0.0
  0
LINE
  5
52B
100
AcDbEntity
  8
L1_120
  6
CONTINUOUS
 62
         4
100
AcDbLine
 10
1592.2342635578
 20
-306.3119341957
 30
0.0
 11
1592.2342635578
 21
-302.5308967409
 31
0.0
  0
LINE
  5
52C
100
AcDbEntity
  8
L1_120
  6
CONTINUOUS
 62
         4
100
AcDbLine
 10
1597.2342635578
 20
-306.3119341957
 30
0.0
 11
1597.2342635578
 21
-302.5308967409
 31
0.0
  0
LINE
  5
52D
100
AcDbEntity
  8
L1_120
  6
CONTINUOUS
 62
         4
100
AcDbLine
 10
1592.2342635578
 20
-303.4058967409
 30
0.0
 11
1585.2342635578
 21
-303.4058967409
 31
0.0
  0
SOLID
  5
52E
100
AcDbEntity
  8
L1_120
  6
CONTINUOUS
 62
         4
100
AcDbTrace
 10
1592.2342635578
 20
-303.4058967409
 30
0.0
 11
1588.7342635578
 21
-303.9308967409
 31
0.0
 12
1588.7342635578
 22
-302.8808967409
 32
0.0
 13
1592.2342635578
 23
-303.4058967409
 33
0.0
  0
LINE
  5
52F
100
AcDbEntity
  8
L1_120
  6
CONTINUOUS
 62
         4
100
AcDbLine
 10
1597.2342635578
 20
-303.4058967409
 30
0.0
 11
1604.2342635578
 21
-303.4058967409
 31
0.0
  0
SOLID
  5
530
100
AcDbEntity
  8
L1_120
  6
CONTINUOUS
 62
         4
100
AcDbTrace
 10
1597.2342635578
 20
-303.4058967409
 30
0.0
 11
1600.7342635578
 21
-302.8808967409
 31
0.0
 12
1600.7342635578
 22
-303.9308967409
 32
0.0
 13
1597.2342635578
 23
-303.4058967409
 33
0.0
  0
LINE
  5
531
100
AcDbEntity
  8
L1_120
  6
CONTINUOUS
 62
         4
100
AcDbLine
 10
1592.2342635578
 20
-303.4058967409
 30
0.0
 11
1597.2342635578
 21
-303.4058967409
 31
0.0
  0
TEXT
  5
533
100
AcDbEntity
  8
L1_120
  6
CONTINUOUS
 62
         4
100
AcDbText
 10
1593.0950073021
 20
-300.7808967409
 30
0.0
 40
3.5
  1
6
  7
BOX
100
AcDbText
  0
ENDBLK
  5
534
100
AcDbEntity
  8
0
  6
CONTINUOUS
100
AcDbBlockEnd
  0
ENDSEC
  0
SECTION
  2
ENTITIES
  0
LINE
  5
25
100
AcDbEntity
  8
L1_120
  6
CONTINUOUS
 62
         7
100
AcDbLine
 10
1326.8968487183
 20
-348.5649634691
 30
0.0
 11
1326.8968487183
 21
-327.7722805423
 31
0.0
  0
LINE
  5
26
100
AcDbEntity
  8
L1_120
  6
CONTINUOUS
 62
         7
100
AcDbLine
 10
1324.7103474692
 20
-350.7514647182
 30
0.0
 11
1326.8968487183
 21
-348.5649634691
 31
0.0
  0
ARC
  5
27
100
AcDbEntity
  8
L1_120
  6
CONTINUOUS
 62
         7
100
AcDbCircle
 10
1324.4275047567
 20
-350.4686220057
 30
0.0
 40
0.4
100
AcDbArc
 50
270.0
 51
315.0
  0
ARC
  5
28
100
AcDbEntity
  8
L1_120
  6
CONTINUOUS
 62
         7
100
AcDbCircle
 10
1319.9775047567
 20
-352.1686220057
 30
0.0
 40
1.5
100
AcDbArc
 50
90.0
 51
154.1580672375
  0
LINE
  5
29
100
AcDbEntity
  8
L1_120
  6
CONTINUOUS
 62
         7
100
AcDbLine
 10
1323.5739149182
 20
-350.8686220057
 30
0.0
 11
1322.8275047567
 21
-350.6686220057
 31
0.0
  0
LINE
  5
2A
100
AcDbEntity
  8
L1_120
  6
CONTINUOUS
 62
         7
100
AcDbLine
 10
1323.5739149182
 20
-350.8686220057
 30
0.0
 11
1324.4275047567
 21
-350.8686220057
 31
0.0
  0
LINE
  5
2B
100
AcDbEntity
  8
L1_120
  6
CONTINUOUS
 62
         7
100
AcDbLine
 10
1319.9775047567
 20
-350.6686220057
 30
0.0
 11
1322.8275047567
 21
-350.6686220057
 31
0.0
  0
LINE
  5
2C
100
AcDbEntity
  8
L1_120
  6
CONTINUOUS
 62
         7
100
AcDbLine
 10
1324.7103474692
 20
-325.5857792932
 30
0.0
 11
1326.8968487183
 21
-327.7722805423
 31
0.0
  0
ARC
  5
2D
100
AcDbEntity
  8
L1_120
  6
CONTINUOUS
 62
         7
100
AcDbCircle
 10
1319.9775047567
 20
-324.1686220057
 30
0.0
 40
1.5
100
AcDbArc
 50
205.8419327625
 51
270.0
  0
LINE
  5
2E
100
AcDbEntity
  8
L1_120
  6
CONTINUOUS
 62
         7
100
AcDbLine
 10
1323.5739149182
 20
-325.4686220057
 30
0.0
 11
1322.8275047567
 21
-325.6686220057
 31
0.0
  0
ARC
  5
2F
100
AcDbEntity
  8
L1_120
  6
CONTINUOUS
 62
         7
100
AcDbCircle
 10
1324.4275047567
 20
-325.8686220057
 30
0.0
 40
0.4
100
AcDbArc
 50
45.0
 51
90.0
  0
LINE
  5
30
100
AcDbEntity
  8
L1_120
  6
CONTINUOUS
 62
         7
100
AcDbLine
 10
1322.8275047567
 20
-350.6686220057
 30
0.0
 11
1322.8275047567
 21
-325.6686220057
 31
0.0
  0
LINE
  5
31
100
AcDbEntity
  8
L1_120
  6
CONTINUOUS
 62
         7
100
AcDbLine
 10
1323.5739149182
 20
-325.4686220057
 30
0.0
 11
1324.4275047567
 21
-325.4686220057
 31
0.0
  0
LINE
  5
32
100
AcDbEntity
  8
L1_120
  6
CONTINUOUS
 62
         7
100
AcDbLine
 10
1324.8275047567
 20
-350.6343074307
 30
0.0
 11
1324.8275047567
 21
-325.7029365808
 31
0.0
  0
LINE
  5
33
100
AcDbEntity
  8
L1_120
  6
CONTINUOUS
 62
         5
100
AcDbLine
 10
1325.2931901817
 20
-326.1686220057
 30
0.0
 11
1363.1275047567
 21
-326.1686220057
 31
0.0
  0
LINE
  5
34
100
AcDbEntity
  8
L1_120
  6
CONTINUOUS
 62
         7
100
AcDbLine
 10
1326.8968487183
 20
-327.7722805423
 30
0.0
 11
1427.4108111859
 21
-327.7722805423
 31
0.0
  0
LINE
  5
35
100
AcDbEntity
  8
L1_120
  6
CONTINUOUS
 62
         7
100
AcDbLine
 10
1421.4275047567
 20
-303.0686203581
 30
0.0
 11
1320.6167341981
 21
-317.77032948
 31
0.0
  0
LINE
  5
36
100
AcDbEntity
  8
L1_120
  6
CONTINUOUS
 62
         5
100
AcDbLine
 10
1325.2931901817
 20
-350.1686220057
 30
0.0
 11
1363.1275047567
 21
-350.1686220057
 31
0.0
  0
LINE
  5
37
100
AcDbEntity
  8
L1_120
  6
CONTINUOUS
 62
         7
100
AcDbLine
 10
1326.8968487183
 20
-348.5649634691
 30
0.0
 11
1427.4103902036
 21
-348.5649634691
 31
0.0
  0
LINE
  5
38
100
AcDbEntity
  8
L1_120
  6
CONTINUOUS
 62
         7
100
AcDbLine
 10
1421.4275047567
 20
-373.2686236533
 30
0.0
 11
1320.6167341981
 21
-358.5669145314
 31
0.0
  0
LINE
  5
39
100
AcDbEntity
  8
L1_120
  6
CONTINUOUS
 62
         7
100
AcDbLine
 10
1319.9775047567
 20
-325.6686220057
 30
0.0
 11
1322.8275047567
 21
-325.6686220057
 31
0.0
  0
LINE
  5
3A
100
AcDbEntity
  8
L1_120
  6
CONTINUOUS
 62
         7
100
AcDbLine
 10
1363.1275047567
 20
-326.1686220057
 30
0.0
 11
1363.1275047567
 21
-350.1686220057
 31
0.0
  0
ARC
  5
3B
100
AcDbEntity
  8
L1_120
  6
CONTINUOUS
 62
         7
100
AcDbCircle
 10
1321.1275047567
 20
-320.2222862417
 30
0.0
 40
2.5
100
AcDbArc
 50
98.297222
 51
180.0
  0
LINE
  5
3C
100
AcDbEntity
  8
L1_120
  6
CONTINUOUS
 62
         7
100
AcDbLine
 10
1318.6275047567
 20
-320.2222862417
 30
0.0
 11
1318.6275047567
 21
-356.1149577697
 31
0.0
  0
ARC
  5
3D
100
AcDbEntity
  8
L1_120
  6
CONTINUOUS
 62
         7
100
AcDbCircle
 10
1321.1275047567
 20
-356.1149577697
 30
0.0
 40
2.5
100
AcDbArc
 50
180.0
 51
261.702778
  0
LINE
  5
3E
100
AcDbEntity
  8
L1_120
  6
CONTINUOUS
 62
         5
100
AcDbLine
 10
1363.1275047567
 20
-350.1686220057
 30
0.0
 11
1369.5275047567
 21
-348.5649634691
 31
0.0
  0
LINE
  5
3F
100
AcDbEntity
  8
L1_120
  6
CONTINUOUS
 62
         5
100
AcDbLine
 10
1363.1275047567
 20
-326.1686220057
 30
0.0
 11
1369.5275047567
 21
-327.7722805423
 31
0.0
  0
LINE
  5
40
100
AcDbEntity
  8
L1_120
  6
CENTER
 62
         1
100
AcDbLine
 10
1237.7864309139
 20
-179.2455022008
 30
0.0
 11
1201.6553190697
 21
-278.2404263056
 31
0.0
  0
LINE
  5
41
100
AcDbEntity
  8
L1_120
  6
CENTER
 62
         1
100
AcDbLine
 10
1211.7134654464
 20
-265.2656360314
 30
0.0
 11
1202.3165392385
 21
-261.8454345981
 31
0.0
  0
POLYLINE
  5
43
100
AcDbEntity
  8
L1_120
  6
CONTINUOUS
 62
         7
100
AcDb2dPolyline
 66
         1
 10
0.0
 20
0.0
 30
0.0
 70
         2
  0
VERTEX
  5
45
100
AcDbEntity
  8
L1_120
  6
CONTINUOUS
 62
         7
100
AcDbVertex
100
AcDb2dVertex
 10
1208.2120728441
 20
-260.266611142
 30
0.0
 70
         1
  0
VERTEX
  5
47
100
AcDbEntity
  8
L1_120
  6
CONTINUOUS
 62
         7
100
AcDbVertex
100
AcDb2dVertex
 10
1207.8320717794
 20
-260.173639797
 30
0.0
 70
         1
  0
VERTEX
  5
49
100
AcDbEntity
  8
L1_120
  6
CONTINUOUS
 62
         7
100
AcDbVertex
100
AcDb2dVertex
 10
1207.655003112
 20
-260.1586382992
 30
0.0
 70
         1
  0
VERTEX
  5
4B
100
AcDbEntity
  8
L1_120
  6
CONTINUOUS
 62
         7
100
AcDbVertex
100
AcDb2dVertex
 10
1207.4703758419
 20
-260.1604714386
 30
0.0
 70
         1
  0
VERTEX
  5
4D
100
AcDbEntity
  8
L1_120
  6
CONTINUOUS
 62
         7
100
AcDbVertex
100
AcDb2dVertex
 10
1207.2793689923
 20
-260.1803084897
 30
0.0
 70
         1
  0
VERTEX
  5
4F
100
AcDbEntity
  8
L1_120
  6
CONTINUOUS
 62
         7
100
AcDbVertex
100
AcDb2dVertex
 10
1207.0833842646
 20
-260.219064761
 30
0.0
 70
         1
  0
VERTEX
  5
51
100
AcDbEntity
  8
L1_120
  6
CONTINUOUS
 62
         7
100
AcDbVertex
100
AcDb2dVertex
 10
1206.8840216325
 20
-260.2773466202
 30
0.0
 70
         1
  0
VERTEX
  5
53
100
AcDbEntity
  8
L1_120
  6
CONTINUOUS
 62
         7
100
AcDbVertex
100
AcDb2dVertex
 10
1206.6830424001
 20
-260.3554059808
 30
0.0
 70
         1
  0
VERTEX
  5
55
100
AcDbEntity
  8
L1_120
  6
CONTINUOUS
 62
         7
100
AcDbVertex
100
AcDb2dVertex
 10
1206.4823208734
 20
-260.4531085431
 30
0.0
 70
         1
  0
VERTEX
  5
57
100
AcDbEntity
  8
L1_120
  6
CONTINUOUS
 62
         7
100
AcDbVertex
100
AcDb2dVertex
 10
1206.2837870034
 20
-260.5699192997
 30
0.0
 70
         1
  0
VERTEX
  5
59
100
AcDbEntity
  8
L1_120
  6
CONTINUOUS
 62
         7
100
AcDbVertex
100
AcDb2dVertex
 10
1206.0893634238
 20
-260.7049075132
 30
0.0
 70
         1
  0
VERTEX
  5
5B
100
AcDbEntity
  8
L1_120
  6
CONTINUOUS
 62
         7
100
AcDbVertex
100
AcDb2dVertex
 10
1205.9009010531
 20
-260.8567716961
 30
0.0
 70
         1
  0
VERTEX
  5
5D
100
AcDbEntity
  8
L1_120
  6
CONTINUOUS
 62
         7
100
AcDbVertex
100
AcDb2dVertex
 10
1205.6605722527
 20
-261.0839542467
 30
0.0
 70
         1
  0
VERTEX
  5
5F
100
AcDbEntity
  8
L1_120
  6
CONTINUOUS
 62
         7
100
AcDbVertex
100
AcDb2dVertex
 10
1205.437612173
 20
-261.3338629228
 30
0.0
 70
         1
  0
VERTEX
  5
61
100
AcDbEntity
  8
L1_120
  6
CONTINUOUS
 62
         7
100
AcDbVertex
100
AcDb2dVertex
 10
1205.2348338188
 20
-261.6013000349
 30
0.0
 70
         1
  0
VERTEX
  5
63
100
AcDbEntity
  8
L1_120
  6
CONTINUOUS
 62
         7
100
AcDbVertex
100
AcDb2dVertex
 10
1205.0541742516
 20
-261.88084697
 30
0.0
 70
         1
  0
VERTEX
  5
65
100
AcDbEntity
  8
L1_120
  6
CONTINUOUS
 62
         7
100
AcDbVertex
100
AcDb2dVertex
 10
1204.8966769773
 20
-262.1671794799
 30
0.0
 70
         1
  0
VERTEX
  5
67
100
AcDbEntity
  8
L1_120
  6
CONTINUOUS
 62
         7
100
AcDbVertex
100
AcDb2dVertex
 10
1204.7625466823
 20
-262.4553343145
 30
0.0
 70
         1
  0
VERTEX
  5
69
100
AcDbEntity
  8
L1_120
  6
CONTINUOUS
 62
         7
100
AcDbVertex
100
AcDb2dVertex
 10
1204.6181476196
 20
-262.8376169904
 30
0.0
 70
         1
  0
VERTEX
  5
6B
100
AcDbEntity
  8
L1_120
  6
CONTINUOUS
 62
         7
100
AcDbVertex
100
AcDb2dVertex
 10
1204.512024794
 20
-263.2066116008
 30
0.0
 70
         1
  0
VERTEX
  5
6D
100
AcDbEntity
  8
L1_120
  6
CONTINUOUS
 62
         7
100
AcDbVertex
100
AcDb2dVertex
 10
1204.4400776727
 20
-263.5559746412
 30
0.0
 70
         1
  0
VERTEX
  5
6F
100
AcDbEntity
  8
L1_120
  6
CONTINUOUS
 62
         7
100
AcDbVertex
100
AcDb2dVertex
 10
1204.3975831289
 20
-263.8816016792
 30
0.0
 70
         1
  0
VERTEX
  5
71
100
AcDbEntity
  8
L1_120
  6
CONTINUOUS
 62
         7
100
AcDbVertex
100
AcDb2dVertex
 10
1204.379689006
 20
-264.1813054727
 30
0.0
 70
         1
  0
VERTEX
  5
73
100
AcDbEntity
  8
L1_120
  6
CONTINUOUS
 62
         7
100
AcDbVertex
100
AcDb2dVertex
 10
1204.3817618477
 20
-264.4544130864
 30
0.0
 70
         1
  0
VERTEX
  5
75
100
AcDbEntity
  8
L1_120
  6
CONTINUOUS
 62
         7
100
AcDbVertex
100
AcDb2dVertex
 10
1204.4087751198
 20
-264.7810609381
 30
0.0
 70
         1
  0
VERTEX
  5
77
100
AcDbEntity
  8
L1_120
  6
CONTINUOUS
 62
         7
100
AcDbVertex
100
AcDb2dVertex
 10
1204.4557251316
 20
-265.0634453862
 30
0.0
 70
         1
  0
VERTEX
  5
79
100
AcDbEntity
  8
L1_120
  6
CONTINUOUS
 62
         7
100
AcDbVertex
100
AcDb2dVertex
 10
1204.5157076848
 20
-265.3059239068
 30
0.0
 70
         1
  0
VERTEX
  5
7B
100
AcDbEntity
  8
L1_120
  6
CONTINUOUS
 62
         7
100
AcDbVertex
100
AcDb2dVertex
 10
1204.6083761028
 20
-265.5787264891
 30
0.0
 70
         1
  0
VERTEX
  5
7D
100
AcDbEntity
  8
L1_120
  6
CONTINUOUS
 62
         7
100
AcDbVertex
100
AcDb2dVertex
 10
1204.7063307758
 20
-265.7988788324
 30
0.0
 70
         1
  0
VERTEX
  5
7F
100
AcDbEntity
  8
L1_120
  6
CONTINUOUS
 62
         7
100
AcDbVertex
100
AcDb2dVertex
 10
1204.8038523996
 20
-265.9765665574
 30
0.0
 70
         1
  0
VERTEX
  5
81
100
AcDbEntity
  8
L1_120
  6
CONTINUOUS
 62
         7
100
AcDbVertex
100
AcDb2dVertex
 10
1204.929791495
 20
-266.1649350149
 30
0.0
 70
         1
  0
VERTEX
  5
83
100
AcDbEntity
  8
L1_120
  6
CONTINUOUS
 62
         7
100
AcDbVertex
100
AcDb2dVertex
 10
1205.0837299316
 20
-266.3505419547
 30
0.0
 70
         1
  0
VERTEX
  5
85
100
AcDbEntity
  8
L1_120
  6
CONTINUOUS
 62
         7
100
AcDbVertex
100
AcDb2dVertex
 10
1205.2143547741
 20
-266.4792012644
 30
0.0
 70
         1
  0
VERTEX
  5
87
100
AcDbEntity
  8
L1_120
  6
CONTINUOUS
 62
         7
100
AcDbVertex
100
AcDb2dVertex
 10
1205.3593812726
 20
-266.5975689134
 30
0.0
 70
         1
  0
VERTEX
  5
89
100
AcDbEntity
  8
L1_120
  6
CONTINUOUS
 62
         7
100
AcDbVertex
100
AcDb2dVertex
 10
1205.5068411973
 20
-266.695986599
 30
0.0
 70
         1
  0
VERTEX
  5
8B
100
AcDbEntity
  8
L1_120
  6
CONTINUOUS
 62
         7
100
AcDbVertex
100
AcDb2dVertex
 10
1205.6836268891
 20
-266.7893002485
 30
0.0
 70
         1
  0
VERTEX
  5
8D
100
AcDbEntity
  8
L1_120
  6
CONTINUOUS
 62
         7
100
AcDbVertex
100
AcDb2dVertex
 10
1205.8179318408
 20
-266.8444594875
 30
0.0
 70
         1
  0
VERTEX
  5
8F
100
AcDbEntity
  8
L1_120
  6
CONTINUOUS
 62
         7
100
AcDbVertex
100
AcDb2dVertex
 10
1205.8179318408
 20
-266.8444594875
 30
0.0
 70
         1
  0
VERTEX
  5
91
100
AcDbEntity
  8
L1_120
  6
CONTINUOUS
 62
         7
100
AcDbVertex
100
AcDb2dVertex
 10
1206.1979329055
 20
-266.9374308324
 30
0.0
 70
         1
  0
VERTEX
  5
93
100
AcDbEntity
  8
L1_120
  6
CONTINUOUS
 62
         7
100
AcDbVertex
100
AcDb2dVertex
 10
1206.3750015728
 20
-266.9524323303
 30
0.0
 70
         1
  0
VERTEX
  5
95
100
AcDbEntity
  8
L1_120
  6
CONTINUOUS
 62
         7
100
AcDbVertex
100
AcDb2dVertex
 10
1206.559628843
 20
-266.9505991908
 30
0.0
 70
         1
  0
VERTEX
  5
97
100
AcDbEntity
  8
L1_120
  6
CONTINUOUS
 62
         7
100
AcDbVertex
100
AcDb2dVertex
 10
1206.7506356926
 20
-266.9307621397
 30
0.0
 70
         1
  0
VERTEX
  5
99
100
AcDbEntity
  8
L1_120
  6
CONTINUOUS
 62
         7
100
AcDbVertex
100
AcDb2dVertex
 10
1206.9466204203
 20
-266.8920058684
 30
0.0
 70
         1
  0
VERTEX
  5
9B
100
AcDbEntity
  8
L1_120
  6
CONTINUOUS
 62
         7
100
AcDbVertex
100
AcDb2dVertex
 10
1207.1459830524
 20
-266.8337240092
 30
0.0
 70
         1
  0
VERTEX
  5
9D
100
AcDbEntity
  8
L1_120
  6
CONTINUOUS
 62
         7
100
AcDbVertex
100
AcDb2dVertex
 10
1207.3469622848
 20
-266.7556646487
 30
0.0
 70
         1
  0
VERTEX
  5
9F
100
AcDbEntity
  8
L1_120
  6
CONTINUOUS
 62
         7
100
AcDbVertex
100
AcDb2dVertex
 10
1207.5476838115
 20
-266.6579620864
 30
0.0
 70
         1
  0
VERTEX
  5
A1
100
AcDbEntity
  8
L1_120
  6
CONTINUOUS
 62
         7
100
AcDbVertex
100
AcDb2dVertex
 10
1207.7462176815
 20
-266.5411513297
 30
0.0
 70
         1
  0
VERTEX
  5
A3
100
AcDbEntity
  8
L1_120
  6
CONTINUOUS
 62
         7
100
AcDbVertex
100
AcDb2dVertex
 10
1207.940641261
 20
-266.4061631163
 30
0.0
 70
         1
  0
VERTEX
  5
A5
100
AcDbEntity
  8
L1_120
  6
CONTINUOUS
 62
         7
100
AcDbVertex
100
AcDb2dVertex
 10
1208.1291036318
 20
-266.2542989334
 30
0.0
 70
         1
  0
VERTEX
  5
A7
100
AcDbEntity
  8
L1_120
  6
CONTINUOUS
 62
         7
100
AcDbVertex
100
AcDb2dVertex
 10
1208.3694324321
 20
-266.0271163828
 30
0.0
 70
         1
  0
VERTEX
  5
A9
100
AcDbEntity
  8
L1_120
  6
CONTINUOUS
 62
         7
100
AcDbVertex
100
AcDb2dVertex
 10
1208.5923925119
 20
-265.7772077066
 30
0.0
 70
         1
  0
VERTEX
  5
AB
100
AcDbEntity
  8
L1_120
  6
CONTINUOUS
 62
         7
100
AcDbVertex
100
AcDb2dVertex
 10
1208.7951708661
 20
-265.5097705945
 30
0.0
 70
         1
  0
VERTEX
  5
AD
100
AcDbEntity
  8
L1_120
  6
CONTINUOUS
 62
         7
100
AcDbVertex
100
AcDb2dVertex
 10
1208.9758304333
 20
-265.2302236594
 30
0.0
 70
         1
  0
VERTEX
  5
AF
100
AcDbEntity
  8
L1_120
  6
CONTINUOUS
 62
         7
100
AcDbVertex
100
AcDb2dVertex
 10
1209.1333277075
 20
-264.9438911496
 30
0.0
 70
         1
  0
VERTEX
  5
B1
100
AcDbEntity
  8
L1_120
  6
CONTINUOUS
 62
         7
100
AcDbVertex
100
AcDb2dVertex
 10
1209.2674580026
 20
-264.655736315
 30
0.0
 70
         1
  0
VERTEX
  5
B3
100
AcDbEntity
  8
L1_120
  6
CONTINUOUS
 62
         7
100
AcDbVertex
100
AcDb2dVertex
 10
1209.4118570652
 20
-264.2734536391
 30
0.0
 70
         1
  0
VERTEX
  5
B5
100
AcDbEntity
  8
L1_120
  6
CONTINUOUS
 62
         7
100
AcDbVertex
100
AcDb2dVertex
 10
1209.5179798908
 20
-263.9044590287
 30
0.0
 70
         1
  0
VERTEX
  5
B7
100
AcDbEntity
  8
L1_120
  6
CONTINUOUS
 62
         7
100
AcDbVertex
100
AcDb2dVertex
 10
1209.5899270121
 20
-263.5550959882
 30
0.0
 70
         1
  0
VERTEX
  5
B9
100
AcDbEntity
  8
L1_120
  6
CONTINUOUS
 62
         7
100
AcDbVertex
100
AcDb2dVertex
 10
1209.6324215559
 20
-263.2294689502
 30
0.0
 70
         1
  0
VERTEX
  5
BB
100
AcDbEntity
  8
L1_120
  6
CONTINUOUS
 62
         7
100
AcDbVertex
100
AcDb2dVertex
 10
1209.6503156789
 20
-262.9297651568
 30
0.0
 70
         1
  0
VERTEX
  5
BD
100
AcDbEntity
  8
L1_120
  6
CONTINUOUS
 62
         7
100
AcDbVertex
100
AcDb2dVertex
 10
1209.6482428372
 20
-262.6566575431
 30
0.0
 70
         1
  0
VERTEX
  5
BF
100
AcDbEntity
  8
L1_120
  6
CONTINUOUS
 62
         7
100
AcDbVertex
100
AcDb2dVertex
 10
1209.6212295651
 20
-262.3300096913
 30
0.0
 70
         1
  0
VERTEX
  5
C1
100
AcDbEntity
  8
L1_120
  6
CONTINUOUS
 62
         7
100
AcDbVertex
100
AcDb2dVertex
 10
1209.5742795532
 20
-262.0476252432
 30
0.0
 70
         1
  0
VERTEX
  5
C3
100
AcDbEntity
  8
L1_120
  6
CONTINUOUS
 62
         7
100
AcDbVertex
100
AcDb2dVertex
 10
1209.514297
 20
-261.8051467227
 30
0.0
 70
         1
  0
VERTEX
  5
C5
100
AcDbEntity
  8
L1_120
  6
CONTINUOUS
 62
         7
100
AcDbVertex
100
AcDb2dVertex
 10
1209.4216285821
 20
-261.5323441403
 30
0.0
 70
         1
  0
VERTEX
  5
C7
100
AcDbEntity
  8
L1_120
  6
CONTINUOUS
 62
         7
100
AcDbVertex
100
AcDb2dVertex
 10
1209.3236739091
 20
-261.3121917971
 30
0.0
 70
         1
  0
VERTEX
  5
C9
100
AcDbEntity
  8
L1_120
  6
CONTINUOUS
 62
         7
100
AcDbVertex
100
AcDb2dVertex
 10
1209.2261522853
 20
-261.1345040721
 30
0.0
 70
         1
  0
VERTEX
  5
CB
100
AcDbEntity
  8
L1_120
  6
CONTINUOUS
 62
         7
100
AcDbVertex
100
AcDb2dVertex
 10
1209.1002131899
 20
-260.9461356146
 30
0.0
 70
         1
  0
VERTEX
  5
CD
100
AcDbEntity
  8
L1_120
  6
CONTINUOUS
 62
         7
100
AcDbVertex
100
AcDb2dVertex
 10
1208.9462747533
 20
-260.7605286747
 30
0.0
 70
         1
  0
VERTEX
  5
CF
100
AcDbEntity
  8
L1_120
  6
CONTINUOUS
 62
         7
100
AcDbVertex
100
AcDb2dVertex
 10
1208.8156499108
 20
-260.631869365
 30
0.0
 70
         1
  0
VERTEX
  5
D1
100
AcDbEntity
  8
L1_120
  6
CONTINUOUS
 62
         7
100
AcDbVertex
100
AcDb2dVertex
 10
1208.6706234123
 20
-260.513501716
 30
0.0
 70
         1
  0
VERTEX
  5
D3
100
AcDbEntity
  8
L1_120
  6
CONTINUOUS
 62
         7
100
AcDbVertex
100
AcDb2dVertex
 10
1208.5231634876
 20
-260.4150840304
 30
0.0
 70
         1
  0
VERTEX
  5
D5
100
AcDbEntity
  8
L1_120
  6
CONTINUOUS
 62
         7
100
AcDbVertex
100
AcDb2dVertex
 10
1208.3463777958
 20
-260.3217703809
 30
0.0
 70
         1
  0
VERTEX
  5
D7
100
AcDbEntity
  8
L1_120
  6
CONTINUOUS
 62
         7
100
AcDbVertex
100
AcDb2dVertex
 10
1208.2120728441
 20
-260.266611142
 30
0.0
 70
         1
  0
SEQEND
  5
D9
100
AcDbEntity
  8
L1_120
  6
CONTINUOUS
 62
         7
  0
POLYLINE
  5
DB
100
AcDbEntity
  8
L1_120
  6
CONTINUOUS
 62
         7
100
AcDb3dPolyline
 66
         1
 10
0.0
 20
0.0
 30
0.0
 70
         8
  0
VERTEX
  5
DD
100
AcDbEntity
  8
L1_120
  6
CONTINUOUS
 62
         7
100
AcDbVertex
100
AcDb3dPolylineVertex
 10
1234.3375717432
 20
-183.9801326266
 30
0.0
 70
        32
  0
VERTEX
  5
DF
100
AcDbEntity
  8
L1_120
  6
CONTINUOUS
 62
         7
100
AcDbVertex
100
AcDb3dPolylineVertex
 10
1234.3375717432
 20
-183.9801326266
 30
0.0
 70
        32
  0
SEQEND
  5
E1
100
AcDbEntity
  8
L1_120
  6
CONTINUOUS
 62
         7
  0
LINE
  5
E2
100
AcDbEntity
  8
L1_120
  6
CENTER
 62
         1
100
AcDbLine
 10
1239.8277511607
 20
-188.2358564732
 30
0.0
 11
1230.4308249528
 21
-184.81565504
 31
0.0
  0
POLYLINE
  5
E4
100
AcDbEntity
  8
L1_120
  6
CONTINUOUS
 62
         7
100
AcDb2dPolyline
 66
         1
 10
0.0
 20
0.0
 30
0.0
 70
         2
  0
VERTEX
  5
E6
100
AcDbEntity
  8
L1_120
  6
CONTINUOUS
 62
         7
100
AcDbVertex
100
AcDb2dVertex
 10
1236.3263585584
 20
-183.2368315838
 30
0.0
 70
         1
  0
VERTEX
  5
E8
100
AcDbEntity
  8
L1_120
  6
CONTINUOUS
 62
         7
100
AcDbVertex
100
AcDb2dVertex
 10
1235.9463574937
 20
-183.1438602389
 30
0.0
 70
         1
  0
VERTEX
  5
EA
100
AcDbEntity
  8
L1_120
  6
CONTINUOUS
 62
         7
100
AcDbVertex
100
AcDb2dVertex
 10
1235.7692888263
 20
-183.128858741
 30
0.0
 70
         1
  0
VERTEX
  5
EC
100
AcDbEntity
  8
L1_120
  6
CONTINUOUS
 62
         7
100
AcDbVertex
100
AcDb2dVertex
 10
1235.5846615562
 20
-183.1306918805
 30
0.0
 70
         1
  0
VERTEX
  5
EE
100
AcDbEntity
  8
L1_120
  6
CONTINUOUS
 62
         7
100
AcDbVertex
100
AcDb2dVertex
 10
1235.3936547066
 20
-183.1505289316
 30
0.0
 70
         1
  0
VERTEX
  5
F0
100
AcDbEntity
  8
L1_120
  6
CONTINUOUS
 62
         7
100
AcDbVertex
100
AcDb2dVertex
 10
1235.1976699789
 20
-183.1892852029
 30
0.0
 70
         1
  0
VERTEX
  5
F2
100
AcDbEntity
  8
L1_120
  6
CONTINUOUS
 62
         7
100
AcDbVertex
100
AcDb2dVertex
 10
1234.9983073468
 20
-183.2475670621
 30
0.0
 70
         1
  0
VERTEX
  5
F4
100
AcDbEntity
  8
L1_120
  6
CONTINUOUS
 62
         7
100
AcDbVertex
100
AcDb2dVertex
 10
1234.7973281144
 20
-183.3256264226
 30
0.0
 70
         1
  0
VERTEX
  5
F6
100
AcDbEntity
  8
L1_120
  6
CONTINUOUS
 62
         7
100
AcDbVertex
100
AcDb2dVertex
 10
1234.5966065876
 20
-183.423328985
 30
0.0
 70
         1
  0
VERTEX
  5
F8
100
AcDbEntity
  8
L1_120
  6
CONTINUOUS
 62
         7
100
AcDbVertex
100
AcDb2dVertex
 10
1234.3980727177
 20
-183.5401397416
 30
0.0
 70
         1
  0
VERTEX
  5
FA
100
AcDbEntity
  8
L1_120
  6
CONTINUOUS
 62
         7
100
AcDbVertex
100
AcDb2dVertex
 10
1234.2036491381
 20
-183.675127955
 30
0.0
 70
         1
  0
VERTEX
  5
FC
100
AcDbEntity
  8
L1_120
  6
CONTINUOUS
 62
         7
100
AcDbVertex
100
AcDb2dVertex
 10
1234.0151867674
 20
-183.8269921379
 30
0.0
 70
         1
  0
VERTEX
  5
FE
100
AcDbEntity
  8
L1_120
  6
CONTINUOUS
 62
         7
100
AcDbVertex
100
AcDb2dVertex
 10
1233.774857967
 20
-184.0541746885
 30
0.0
 70
         1
  0
VERTEX
  5
100
100
AcDbEntity
  8
L1_120
  6
CONTINUOUS
 62
         7
100
AcDbVertex
100
AcDb2dVertex
 10
1233.5518978873
 20
-184.3040833647
 30
0.0
 70
         1
  0
VERTEX
  5
102
100
AcDbEntity
  8
L1_120
  6
CONTINUOUS
 62
         7
100
AcDbVertex
100
AcDb2dVertex
 10
1233.3491195331
 20
-184.5715204768
 30
0.0
 70
         1
  0
VERTEX
  5
104
100
AcDbEntity
  8
L1_120
  6
CONTINUOUS
 62
         7
100
AcDbVertex
100
AcDb2dVertex
 10
1233.1684599659
 20
-184.8510674119
 30
0.0
 70
         1
  0
VERTEX
  5
106
100
AcDbEntity
  8
L1_120
  6
CONTINUOUS
 62
         7
100
AcDbVertex
100
AcDb2dVertex
 10
1233.0109626916
 20
-185.1373999217
 30
0.0
 70
         1
  0
VERTEX
  5
108
100
AcDbEntity
  8
L1_120
  6
CONTINUOUS
 62
         7
100
AcDbVertex
100
AcDb2dVertex
 10
1232.8768323966
 20
-185.4255547563
 30
0.0
 70
         1
  0
VERTEX
  5
10A
100
AcDbEntity
  8
L1_120
  6
CONTINUOUS
 62
         7
100
AcDbVertex
100
AcDb2dVertex
 10
1232.7324333339
 20
-185.8078374322
 30
0.0
 70
         1
  0
VERTEX
  5
10C
100
AcDbEntity
  8
L1_120
  6
CONTINUOUS
 62
         7
100
AcDbVertex
100
AcDb2dVertex
 10
1232.6263105083
 20
-186.1768320427
 30
0.0
 70
         1
  0
VERTEX
  5
10E
100
AcDbEntity
  8
L1_120
  6
CONTINUOUS
 62
         7
100
AcDbVertex
100
AcDb2dVertex
 10
1232.554363387
 20
-186.5261950831
 30
0.0
 70
         1
  0
VERTEX
  5
110
100
AcDbEntity
  8
L1_120
  6
CONTINUOUS
 62
         7
100
AcDbVertex
100
AcDb2dVertex
 10
1232.5118688432
 20
-186.8518221211
 30
0.0
 70
         1
  0
VERTEX
  5
112
100
AcDbEntity
  8
L1_120
  6
CONTINUOUS
 62
         7
100
AcDbVertex
100
AcDb2dVertex
 10
1232.4939747203
 20
-187.1515259146
 30
0.0
 70
         1
  0
VERTEX
  5
114
100
AcDbEntity
  8
L1_120
  6
CONTINUOUS
 62
         7
100
AcDbVertex
100
AcDb2dVertex
 10
1232.496047562
 20
-187.4246335283
 30
0.0
 70
         1
  0
VERTEX
  5
116
100
AcDbEntity
  8
L1_120
  6
CONTINUOUS
 62
         7
100
AcDbVertex
100
AcDb2dVertex
 10
1232.5230608341
 20
-187.75128138
 30
0.0
 70
         1
  0
VERTEX
  5
118
100
AcDbEntity
  8
L1_120
  6
CONTINUOUS
 62
         7
100
AcDbVertex
100
AcDb2dVertex
 10
1232.5700108459
 20
-188.0336658281
 30
0.0
 70
         1
  0
VERTEX
  5
11A
100
AcDbEntity
  8
L1_120
  6
CONTINUOUS
 62
         7
100
AcDbVertex
100
AcDb2dVertex
 10
1232.6299933991
 20
-188.2761443487
 30
0.0
 70
         1
  0
VERTEX
  5
11C
100
AcDbEntity
  8
L1_120
  6
CONTINUOUS
 62
         7
100
AcDbVertex
100
AcDb2dVertex
 10
1232.7226618171
 20
-188.548946931
 30
0.0
 70
         1
  0
VERTEX
  5
11E
100
AcDbEntity
  8
L1_120
  6
CONTINUOUS
 62
         7
100
AcDbVertex
100
AcDb2dVertex
 10
1232.8206164901
 20
-188.7690992743
 30
0.0
 70
         1
  0
VERTEX
  5
120
100
AcDbEntity
  8
L1_120
  6
CONTINUOUS
 62
         7
100
AcDbVertex
100
AcDb2dVertex
 10
1232.9181381139
 20
-188.9467869992
 30
0.0
 70
         1
  0
VERTEX
  5
122
100
AcDbEntity
  8
L1_120
  6
CONTINUOUS
 62
         7
100
AcDbVertex
100
AcDb2dVertex
 10
1233.0440772093
 20
-189.1351554567
 30
0.0
 70
         1
  0
VERTEX
  5
124
100
AcDbEntity
  8
L1_120
  6
CONTINUOUS
 62
         7
100
AcDbVertex
100
AcDb2dVertex
 10
1233.1980156459
 20
-189.3207623966
 30
0.0
 70
         1
  0
VERTEX
  5
126
100
AcDbEntity
  8
L1_120
  6
CONTINUOUS
 62
         7
100
AcDbVertex
100
AcDb2dVertex
 10
1233.3286404884
 20
-189.4494217063
 30
0.0
 70
         1
  0
VERTEX
  5
128
100
AcDbEntity
  8
L1_120
  6
CONTINUOUS
 62
         7
100
AcDbVertex
100
AcDb2dVertex
 10
1233.4736669869
 20
-189.5677893553
 30
0.0
 70
         1
  0
VERTEX
  5
12A
100
AcDbEntity
  8
L1_120
  6
CONTINUOUS
 62
         7
100
AcDbVertex
100
AcDb2dVertex
 10
1233.6211269116
 20
-189.6662070409
 30
0.0
 70
         1
  0
VERTEX
  5
12C
100
AcDbEntity
  8
L1_120
  6
CONTINUOUS
 62
         7
100
AcDbVertex
100
AcDb2dVertex
 10
1233.7979126034
 20
-189.7595206904
 30
0.0
 70
         1
  0
VERTEX
  5
12E
100
AcDbEntity
  8
L1_120
  6
CONTINUOUS
 62
         7
100
AcDbVertex
100
AcDb2dVertex
 10
1233.9322175551
 20
-189.8146799293
 30
0.0
 70
         1
  0
VERTEX
  5
130
100
AcDbEntity
  8
L1_120
  6
CONTINUOUS
 62
         7
100
AcDbVertex
100
AcDb2dVertex
 10
1233.9322175551
 20
-189.8146799293
 30
0.0
 70
         1
  0
VERTEX
  5
132
100
AcDbEntity
  8
L1_120
  6
CONTINUOUS
 62
         7
100
AcDbVertex
100
AcDb2dVertex
 10
1234.3122186198
 20
-189.9076512743
 30
0.0
 70
         1
  0
VERTEX
  5
134
100
AcDbEntity
  8
L1_120
  6
CONTINUOUS
 62
         7
100
AcDbVertex
100
AcDb2dVertex
 10
1234.4892872871
 20
-189.9226527721
 30
0.0
 70
         1
  0
VERTEX
  5
136
100
AcDbEntity
  8
L1_120
  6
CONTINUOUS
 62
         7
100
AcDbVertex
100
AcDb2dVertex
 10
1234.6739145572
 20
-189.9208196327
 30
0.0
 70
         1
  0
VERTEX
  5
138
100
AcDbEntity
  8
L1_120
  6
CONTINUOUS
 62
         7
100
AcDbVertex
100
AcDb2dVertex
 10
1234.8649214069
 20
-189.9009825816
 30
0.0
 70
         1
  0
VERTEX
  5
13A
100
AcDbEntity
  8
L1_120
  6
CONTINUOUS
 62
         7
100
AcDbVertex
100
AcDb2dVertex
 10
1235.0609061346
 20
-189.8622263103
 30
0.0
 70
         1
  0
VERTEX
  5
13C
100
AcDbEntity
  8
L1_120
  6
CONTINUOUS
 62
         7
100
AcDbVertex
100
AcDb2dVertex
 10
1235.2602687667
 20
-189.8039444511
 30
0.0
 70
         1
  0
VERTEX
  5
13E
100
AcDbEntity
  8
L1_120
  6
CONTINUOUS
 62
         7
100
AcDbVertex
100
AcDb2dVertex
 10
1235.4612479991
 20
-189.7258850906
 30
0.0
 70
         1
  0
VERTEX
  5
140
100
AcDbEntity
  8
L1_120
  6
CONTINUOUS
 62
         7
100
AcDbVertex
100
AcDb2dVertex
 10
1235.6619695258
 20
-189.6281825282
 30
0.0
 70
         1
  0
VERTEX
  5
142
100
AcDbEntity
  8
L1_120
  6
CONTINUOUS
 62
         7
100
AcDbVertex
100
AcDb2dVertex
 10
1235.8605033958
 20
-189.5113717716
 30
0.0
 70
         1
  0
VERTEX
  5
144
100
AcDbEntity
  8
L1_120
  6
CONTINUOUS
 62
         7
100
AcDbVertex
100
AcDb2dVertex
 10
1236.0549269753
 20
-189.3763835581
 30
0.0
 70
         1
  0
VERTEX
  5
146
100
AcDbEntity
  8
L1_120
  6
CONTINUOUS
 62
         7
100
AcDbVertex
100
AcDb2dVertex
 10
1236.243389346
 20
-189.2245193752
 30
0.0
 70
         1
  0
VERTEX
  5
148
100
AcDbEntity
  8
L1_120
  6
CONTINUOUS
 62
         7
100
AcDbVertex
100
AcDb2dVertex
 10
1236.4837181464
 20
-188.9973368246
 30
0.0
 70
         1
  0
VERTEX
  5
14A
100
AcDbEntity
  8
L1_120
  6
CONTINUOUS
 62
         7
100
AcDbVertex
100
AcDb2dVertex
 10
1236.7066782262
 20
-188.7474281485
 30
0.0
 70
         1
  0
VERTEX
  5
14C
100
AcDbEntity
  8
L1_120
  6
CONTINUOUS
 62
         7
100
AcDbVertex
100
AcDb2dVertex
 10
1236.9094565804
 20
-188.4799910364
 30
0.0
 70
         1
  0
VERTEX
  5
14E
100
AcDbEntity
  8
L1_120
  6
CONTINUOUS
 62
         7
100
AcDbVertex
100
AcDb2dVertex
 10
1237.0901161476
 20
-188.2004441013
 30
0.0
 70
         1
  0
VERTEX
  5
150
100
AcDbEntity
  8
L1_120
  6
CONTINUOUS
 62
         7
100
AcDbVertex
100
AcDb2dVertex
 10
1237.2476134218
 20
-187.9141115914
 30
0.0
 70
         1
  0
VERTEX
  5
152
100
AcDbEntity
  8
L1_120
  6
CONTINUOUS
 62
         7
100
AcDbVertex
100
AcDb2dVertex
 10
1237.3817437169
 20
-187.6259567569
 30
0.0
 70
         1
  0
VERTEX
  5
154
100
AcDbEntity
  8
L1_120
  6
CONTINUOUS
 62
         7
100
AcDbVertex
100
AcDb2dVertex
 10
1237.5261427795
 20
-187.2436740809
 30
0.0
 70
         1
  0
VERTEX
  5
156
100
AcDbEntity
  8
L1_120
  6
CONTINUOUS
 62
         7
100
AcDbVertex
100
AcDb2dVertex
 10
1237.6322656051
 20
-186.8746794705
 30
0.0
 70
         1
  0
VERTEX
  5
158
100
AcDbEntity
  8
L1_120
  6
CONTINUOUS
 62
         7
100
AcDbVertex
100
AcDb2dVertex
 10
1237.7042127264
 20
-186.5253164301
 30
0.0
 70
         1
  0
VERTEX
  5
15A
100
AcDbEntity
  8
L1_120
  6
CONTINUOUS
 62
         7
100
AcDbVertex
100
AcDb2dVertex
 10
1237.7467072702
 20
-186.1996893921
 30
0.0
 70
         1
  0
VERTEX
  5
15C
100
AcDbEntity
  8
L1_120
  6
CONTINUOUS
 62
         7
100
AcDbVertex
100
AcDb2dVertex
 10
1237.7646013931
 20
-185.8999855986
 30
0.0
 70
         1
  0
VERTEX
  5
15E
100
AcDbEntity
  8
L1_120
  6
CONTINUOUS
 62
         7
100
AcDbVertex
100
AcDb2dVertex
 10
1237.7625285515
 20
-185.6268779849
 30
0.0
 70
         1
  0
VERTEX
  5
160
100
AcDbEntity
  8
L1_120
  6
CONTINUOUS
 62
         7
100
AcDbVertex
100
AcDb2dVertex
 10
1237.7355152794
 20
-185.3002301332
 30
0.0
 70
         1
  0
VERTEX
  5
162
100
AcDbEntity
  8
L1_120
  6
CONTINUOUS
 62
         7
100
AcDbVertex
100
AcDb2dVertex
 10
1237.6885652675
 20
-185.0178456851
 30
0.0
 70
         1
  0
VERTEX
  5
164
100
AcDbEntity
  8
L1_120
  6
CONTINUOUS
 62
         7
100
AcDbVertex
100
AcDb2dVertex
 10
1237.6285827143
 20
-184.7753671645
 30
0.0
 70
         1
  0
VERTEX
  5
166
100
AcDbEntity
  8
L1_120
  6
CONTINUOUS
 62
         7
100
AcDbVertex
100
AcDb2dVertex
 10
1237.5359142964
 20
-184.5025645822
 30
0.0
 70
         1
  0
VERTEX
  5
168
100
AcDbEntity
  8
L1_120
  6
CONTINUOUS
 62
         7
100
AcDbVertex
100
AcDb2dVertex
 10
1237.4379596234
 20
-184.2824122389
 30
0.0
 70
         1
  0
VERTEX
  5
16A
100
AcDbEntity
  8
L1_120
  6
CONTINUOUS
 62
         7
100
AcDbVertex
100
AcDb2dVertex
 10
1237.3404379996
 20
-184.1047245139
 30
0.0
 70
         1
  0
VERTEX
  5
16C
100
AcDbEntity
  8
L1_120
  6
CONTINUOUS
 62
         7
100
AcDbVertex
100
AcDb2dVertex
 10
1237.2144989042
 20
-183.9163560564
 30
0.0
 70
         1
  0
VERTEX
  5
16E
100
AcDbEntity
  8
L1_120
  6
CONTINUOUS
 62
         7
100
AcDbVertex
100
AcDb2dVertex
 10
1237.0605604676
 20
-183.7307491166
 30
0.0
 70
         1
  0
VERTEX
  5
170
100
AcDbEntity
  8
L1_120
  6
CONTINUOUS
 62
         7
100
AcDbVertex
100
AcDb2dVertex
 10
1236.9299356251
 20
-183.6020898069
 30
0.0
 70
         1
  0
VERTEX
  5
172
100
AcDbEntity
  8
L1_120
  6
CONTINUOUS
 62
         7
100
AcDbVertex
100
AcDb2dVertex
 10
1236.7849091266
 20
-183.4837221579
 30
0.0
 70
         1
  0
VERTEX
  5
174
100
AcDbEntity
  8
L1_120
  6
CONTINUOUS
 62
         7
100
AcDbVertex
100
AcDb2dVertex
 10
1236.6374492019
 20
-183.3853044723
 30
0.0
 70
         1
  0
VERTEX
  5
176
100
AcDbEntity
  8
L1_120
  6
CONTINUOUS
 62
         7
100
AcDbVertex
100
AcDb2dVertex
 10
1236.4606635101
 20
-183.2919908228
 30
0.0
 70
         1
  0
VERTEX
  5
178
100
AcDbEntity
  8
L1_120
  6
CONTINUOUS
 62
         7
100
AcDbVertex
100
AcDb2dVertex
 10
1236.3263585584
 20
-183.2368315838
 30
0.0
 70
         1
  0
SEQEND
  5
17A
100
AcDbEntity
  8
L1_120
  6
CONTINUOUS
 62
         7
  0
ARC
  5
17B
100
AcDbEntity
  8
L1_120
  6
CONTINUOUS
 62
         7
100
AcDbCircle
 10
1221.0721451996
 20
-225.0406455357
 30
0.0
 40
48.75
100
AcDbArc
 50
16.5052120024
 51
163.4947879976
  0
LINE
  5
17C
100
AcDbEntity
  8
L1_120
  6
CENTER
 62
         1
100
AcDbLine
 10
1264.4375549365
 20
-225.0406455357
 30
0.0
 11
1174.5075996042
 21
-225.0406455357
 31
0.0
  0
ARC
  5
17D
100
AcDbEntity
  8
L1_120
  6
CONTINUOUS
 62
         7
100
AcDbCircle
 10
1221.0721451996
 20
-225.0406455357
 30
0.0
 40
48.75
100
AcDbArc
 50
196.5052120024
 51
343.4947879976
  0
CIRCLE
  5
17E
100
AcDbEntity
  8
L1_120
  6
CONTINUOUS
 62
         7
100
AcDbCircle
 10
1221.0721451996
 20
-225.0406455357
 30
0.0
 40
34.925
  0
CIRCLE
  5
17F
100
AcDbEntity
  8
L1_120
  6
CONTINUOUS
 62
         7
100
AcDbCircle
 10
1221.0721451996
 20
-225.0406455357
 30
0.0
 40
20.3982925257
  0
CIRCLE
  5
180
100
AcDbEntity
  8
L1_120
  6
CONTINUOUS
 62
         7
100
AcDbCircle
 10
1221.0721451996
 20
-225.0406455357
 30
0.0
 40
10.3963414634
  0
ARC
  5
181
100
AcDbEntity
  8
L1_120
  6
CONTINUOUS
 62
         4
100
AcDbCircle
 10
1221.0721451996
 20
-225.0406455357
 30
0.0
 40
12.0
100
AcDbArc
 50
278.1340859252
 51
549.6704111119
  0
CIRCLE
  5
182
100
AcDbEntity
  8
L1_120
  6
CONTINUOUS
 62
         7
100
AcDbCircle
 10
1221.0721451996
 20
-225.0406455357
 30
0.0
 40
12.6589889012
  0
LINE
  5
183
100
AcDbEntity
  8
L1_120
  6
CONTINUOUS
 62
         7
100
AcDbLine
 10
1185.0721451996
 20
-237.3906455357
 30
0.0
 11
1185.0721451996
 21
-212.6906455357
 31
0.0
  0
LINE
  5
184
100
AcDbEntity
  8
L1_120
  6
CONTINUOUS
 62
         7
100
AcDbLine
 10
1175.3309428188
 20
-237.8906455357
 30
0.0
 11
1184.5721451996
 21
-237.8906455357
 31
0.0
  0
LINE
  5
185
100
AcDbEntity
  8
L1_120
  6
CONTINUOUS
 62
         7
100
AcDbLine
 10
1174.3309428188
 20
-238.8906455357
 30
0.0
 11
1175.3309428188
 21
-237.8906455357
 31
0.0
  0
LINE
  5
186
100
AcDbEntity
  8
L1_120
  6
CONTINUOUS
 62
         7
100
AcDbLine
 10
1174.3309428188
 20
-211.1906455357
 30
0.0
 11
1175.3309428188
 21
-212.1906455357
 31
0.0
  0
LINE
  5
187
100
AcDbEntity
  8
L1_120
  6
CONTINUOUS
 62
         7
100
AcDbLine
 10
1175.3309428188
 20
-212.1906455357
 30
0.0
 11
1184.5721451996
 21
-212.1906455357
 31
0.0
  0
LINE
  5
188
100
AcDbEntity
  8
L1_120
  6
CONTINUOUS
 62
         7
100
AcDbLine
 10
1258.7721451996
 20
-237.3906455357
 30
0.0
 11
1258.7721451996
 21
-212.6906455357
 31
0.0
  0
LINE
  5
189
100
AcDbEntity
  8
L1_120
  6
CONTINUOUS
 62
         7
100
AcDbLine
 10
1266.8133475804
 20
-212.1906455357
 30
0.0
 11
1259.2721451996
 21
-212.1906455357
 31
0.0
  0
LINE
  5
18A
100
AcDbEntity
  8
L1_120
  6
CONTINUOUS
 62
         7
100
AcDbLine
 10
1267.8133475804
 20
-211.1906455357
 30
0.0
 11
1266.8133475804
 21
-212.1906455357
 31
0.0
  0
LINE
  5
18B
100
AcDbEntity
  8
L1_120
  6
CONTINUOUS
 62
         7
100
AcDbLine
 10
1266.8133475804
 20
-237.8906455357
 30
0.0
 11
1259.2721451996
 21
-237.8906455357
 31
0.0
  0
LINE
  5
18C
100
AcDbEntity
  8
L1_120
  6
CONTINUOUS
 62
         7
100
AcDbLine
 10
1267.8133475804
 20
-238.8906455357
 30
0.0
 11
1266.8133475804
 21
-237.8906455357
 31
0.0
  0
LINE
  5
18D
100
AcDbEntity
  8
L1_120
  6
CONTINUOUS
 62
         7
100
AcDbLine
 10
1184.5721451996
 20
-237.8906455357
 30
0.0
 11
1185.0721451996
 21
-237.3906455357
 31
0.0
  0
LINE
  5
18E
100
AcDbEntity
  8
L1_120
  6
CONTINUOUS
 62
         7
100
AcDbLine
 10
1185.0721451996
 20
-212.6906455357
 30
0.0
 11
1184.5721451996
 21
-212.1906455357
 31
0.0
  0
LINE
  5
18F
100
AcDbEntity
  8
L1_120
  6
CONTINUOUS
 62
         7
100
AcDbLine
 10
1259.2721451996
 20
-212.1906455357
 30
0.0
 11
1258.7721451996
 21
-212.6906455357
 31
0.0
  0
LINE
  5
190
100
AcDbEntity
  8
L1_120
  6
CONTINUOUS
 62
         7
100
AcDbLine
 10
1258.7721451996
 20
-237.3906455357
 30
0.0
 11
1259.2721451996
 21
-237.8906455357
 31
0.0
  0
CIRCLE
  5
191
100
AcDbEntity
  8
L1_120
  6
CONTINUOUS
 62
         7
100
AcDbCircle
 10
1431.0275047567
 20
-254.3396396875
 30
0.0
 40
1.5320888862
  0
CIRCLE
  5
192
100
AcDbEntity
  8
L1_120
  6
CONTINUOUS
 62
         7
100
AcDbCircle
 10
1431.0275047567
 20
-244.3040690874
 30
0.0
 40
1.8126155741
  0
CIRCLE
  5
193
100
AcDbEntity
  8
L1_120
  6
CONTINUOUS
 62
         7
100
AcDbCircle
 10
1431.0275047567
 20
-205.7772219839
 30
0.0
 40
1.8126155741
  0
CIRCLE
  5
194
100
AcDbEntity
  8
L1_120
  6
CONTINUOUS
 62
         7
100
AcDbCircle
 10
1431.0275047567
 20
-195.7416513838
 30
0.0
 40
1.5320888862
  0
LINE
  5
195
100
AcDbEntity
  8
L1_120
  6
CONTINUOUS
 62
         4
100
AcDbLine
 10
1438.5275047567
 20
-273.7906455357
 30
0.0
 11
1438.5275047567
 21
-238.8906455357
 31
0.0
  0
LINE
  5
196
100
AcDbEntity
  8
L1_120
  6
CONTINUOUS
 62
         4
100
AcDbLine
 10
1423.6275047567
 20
-273.7906455357
 30
0.0
 11
1423.6275047567
 21
-238.8906455357
 31
0.0
  0
LINE
  5
197
100
AcDbEntity
  8
L1_120
  6
CONTINUOUS
 62
         4
100
AcDbLine
 10
1438.5275047567
 20
-211.1906455357
 30
0.0
 11
1438.5275047567
 21
-176.2906455357
 31
0.0
  0
LINE
  5
198
100
AcDbEntity
  8
L1_120
  6
CONTINUOUS
 62
         4
100
AcDbLine
 10
1423.6275047567
 20
-211.1906455357
 30
0.0
 11
1423.6275047567
 21
-176.2906455357
 31
0.0
  0
LINE
  5
199
100
AcDbEntity
  8
L1_120
  6
CONTINUOUS
 62
         7
100
AcDbLine
 10
1421.1275047567
 20
-189.940643888
 30
0.0
 11
1320.4667341982
 21
-204.620477804
 31
0.0
  0
LINE
  5
19A
100
AcDbEntity
  8
L1_120
  6
CONTINUOUS
 62
         7
100
AcDbLine
 10
1421.1275047567
 20
-260.1406471833
 30
0.0
 11
1320.4667341981
 21
-245.4608132673
 31
0.0
  0
LINE
  5
19B
100
AcDbEntity
  8
L1_120
  6
CONTINUOUS
 62
         7
100
AcDbLine
 10
1421.1275047567
 20
-189.940643888
 30
0.0
 11
1421.1275047567
 21
-260.1406471833
 31
0.0
  0
LINE
  5
19C
100
AcDbEntity
  8
L1_120
  6
CENTER
 62
         1
100
AcDbLine
 10
1419.9265047567
 20
-185.3156455357
 30
0.0
 11
1419.9275047567
 21
-263.3116998812
 31
0.0
  0
LINE
  5
19D
100
AcDbEntity
  8
L1_120
  6
CONTINUOUS
 62
         7
100
AcDbLine
 10
1423.1275047567
 20
-177.7906455357
 30
0.0
 11
1423.1275047567
 21
-272.2906455357
 31
0.0
  0
LINE
  5
19E
100
AcDbEntity
  8
L1_120
  6
CONTINUOUS
 62
         7
100
AcDbLine
 10
1434.5637751555
 20
-273.7906455357
 30
0.0
 11
1437.5275047567
 21
-273.7906455357
 31
0.0
  0
ARC
  5
19F
100
AcDbEntity
  8
L1_120
  6
CONTINUOUS
 62
         7
100
AcDbCircle
 10
1432.4708804297
 20
-271.1656455357
 30
0.0
 40
0.5
100
AcDbArc
 50
30.0
 51
90.0
  0
LINE
  5
1A0
100
AcDbEntity
  8
L1_120
  6
CONTINUOUS
 62
         7
100
AcDbLine
 10
1429.1511163819
 20
-270.9156455357
 30
0.0
 11
1427.4912343579
 21
-273.7906455357
 31
0.0
  0
LINE
  5
1A1
100
AcDbEntity
  8
L1_120
  6
CONTINUOUS
 62
         7
100
AcDbLine
 10
1424.6275047567
 20
-273.7906455357
 30
0.0
 11
1427.4912343579
 21
-273.7906455357
 31
0.0
  0
ARC
  5
1A2
100
AcDbEntity
  8
L1_120
  6
CONTINUOUS
 62
         7
100
AcDbCircle
 10
1429.5841290838
 20
-271.1656455357
 30
0.0
 40
0.5
100
AcDbArc
 50
90.0
 51
150.0
  0
LINE
  5
1A3
100
AcDbEntity
  8
L1_120
  6
CONTINUOUS
 62
         7
100
AcDbLine
 10
1429.5841290838
 20
-270.6656455357
 30
0.0
 11
1432.4708804297
 21
-270.6656455357
 31
0.0
  0
LINE
  5
1A4
100
AcDbEntity
  8
L1_120
  6
CONTINUOUS
 62
         7
100
AcDbLine
 10
1432.9038931316
 20
-270.9156455357
 30
0.0
 11
1434.5637751555
 21
-273.7906455357
 31
0.0
  0
LINE
  5
1A5
100
AcDbEntity
  8
L1_120
  6
CONTINUOUS
 62
         7
100
AcDbLine
 10
1434.5637751555
 20
-176.2906455357
 30
0.0
 11
1437.5275047567
 21
-176.2906455357
 31
0.0
  0
ARC
  5
1A6
100
AcDbEntity
  8
L1_120
  6
CONTINUOUS
 62
         7
100
AcDbCircle
 10
1432.4708804297
 20
-178.9156455357
 30
0.0
 40
0.5
100
AcDbArc
 50
270.0
 51
330.0
  0
LINE
  5
1A7
100
AcDbEntity
  8
L1_120
  6
CONTINUOUS
 62
         7
100
AcDbLine
 10
1429.1511163819
 20
-179.1656455357
 30
0.0
 11
1427.4912343579
 21
-176.2906455357
 31
0.0
  0
ARC
  5
1A8
100
AcDbEntity
  8
L1_120
  6
CONTINUOUS
 62
         7
100
AcDbCircle
 10
1429.5841290838
 20
-178.9156455357
 30
0.0
 40
0.5
100
AcDbArc
 50
210.0
 51
270.0
  0
LINE
  5
1A9
100
AcDbEntity
  8
L1_120
  6
CONTINUOUS
 62
         7
100
AcDbLine
 10
1424.6275047567
 20
-176.2906455357
 30
0.0
 11
1427.4912343579
 21
-176.2906455357
 31
0.0
  0
LINE
  5
1AA
100
AcDbEntity
  8
L1_120
  6
CONTINUOUS
 62
         7
100
AcDbLine
 10
1429.5841290838
 20
-179.4156455357
 30
0.0
 11
1432.4708804297
 21
-179.4156455357
 31
0.0
  0
LINE
  5
1AB
100
AcDbEntity
  8
L1_120
  6
CONTINUOUS
 62
         7
100
AcDbLine
 10
1432.9038931316
 20
-179.1656455357
 30
0.0
 11
1434.5637751555
 21
-176.2906455357
 31
0.0
  0
LINE
  5
1AC
100
AcDbEntity
  8
L1_120
  6
CONTINUOUS
 62
         7
100
AcDbLine
 10
1439.0275047567
 20
-177.7906455357
 30
0.0
 11
1439.0275047567
 21
-272.2906455357
 31
0.0
  0
LINE
  5
1AD
100
AcDbEntity
  8
L1_120
  6
CONTINUOUS
 62
         7
100
AcDbLine
 10
1318.3275047567
 20
-207.0943097716
 30
0.0
 11
1318.3275047567
 21
-242.9869812997
 31
0.0
  0
ARC
  5
1AE
100
AcDbEntity
  8
L1_120
  6
CONTINUOUS
 62
         7
100
AcDbCircle
 10
1320.8275047567
 20
-207.0943097716
 30
0.0
 40
2.5
100
AcDbArc
 50
98.297222
 51
180.0
  0
ARC
  5
1AF
100
AcDbEntity
  8
L1_120
  6
CONTINUOUS
 62
         7
100
AcDbCircle
 10
1320.8275047567
 20
-242.9869812997
 30
0.0
 40
2.5
100
AcDbArc
 50
180.0
 51
261.702778
  0
CIRCLE
  5
1B0
100
AcDbEntity
  8
L1_120
  6
CONTINUOUS
 62
         7
100
AcDbCircle
 10
1431.0275047567
 20
-225.0367920108
 30
0.0
 40
4.76
  0
LINE
  5
1B1
100
AcDbEntity
  8
L1_120
  6
CONTINUOUS
 62
         7
100
AcDbLine
 10
1439.0275047567
 20
-238.8906455357
 30
0.0
 11
1434.5637751555
 21
-238.8906455357
 31
0.0
  0
LINE
  5
1B2
100
AcDbEntity
  8
L1_120
  6
CONTINUOUS
 62
         7
100
AcDbLine
 10
1427.4912343579
 20
-238.8906455357
 30
0.0
 11
1423.1275047567
 21
-238.8906455357
 31
0.0
  0
LINE
  5
1B3
100
AcDbEntity
  8
L1_120
  6
CONTINUOUS
 62
         7
100
AcDbLine
 10
1423.1275047567
 20
-238.8906455357
 30
0.0
 11
1424.1475989216
 21
-237.8705513707
 31
0.0
  0
LINE
  5
1B4
100
AcDbEntity
  8
L1_120
  6
CONTINUOUS
 62
         7
100
AcDbLine
 10
1427.4912343579
 20
-238.8906455357
 30
0.0
 11
1429.1525047567
 21
-237.8705513707
 31
0.0
  0
LINE
  5
1B5
100
AcDbEntity
  8
L1_120
  6
CONTINUOUS
 62
         7
100
AcDbLine
 10
1437.9074105918
 20
-237.8705513707
 30
0.0
 11
1424.1475989216
 21
-237.8705513707
 31
0.0
  0
LINE
  5
1B6
100
AcDbEntity
  8
L1_120
  6
CONTINUOUS
 62
         7
100
AcDbLine
 10
1437.9074105918
 20
-237.8705513707
 30
0.0
 11
1424.1475989216
 21
-237.8705513707
 31
0.0
  0
LINE
  5
1B7
100
AcDbEntity
  8
L1_120
  6
CONTINUOUS
 62
         7
100
AcDbLine
 10
1432.9025047567
 20
-237.8705513707
 30
0.0
 11
1434.5637751555
 21
-238.8906455357
 31
0.0
  0
LINE
  5
1B8
100
AcDbEntity
  8
L1_120
  6
CONTINUOUS
 62
         7
100
AcDbLine
 10
1434.5637751555
 20
-238.8906455357
 30
0.0
 11
1434.5637751555
 21
-273.7906455357
 31
0.0
  0
LINE
  5
1B9
100
AcDbEntity
  8
L1_120
  6
CONTINUOUS
 62
         7
100
AcDbLine
 10
1432.9025047567
 20
-237.8705513707
 30
0.0
 11
1432.9025047567
 21
-270.9132560741
 31
0.0
  0
LINE
  5
1BA
100
AcDbEntity
  8
L1_120
  6
CONTINUOUS
 62
         7
100
AcDbLine
 10
1429.1525047567
 20
-237.8705513707
 30
0.0
 11
1429.1525047567
 21
-270.9132560741
 31
0.0
  0
LINE
  5
1BB
100
AcDbEntity
  8
L1_120
  6
CONTINUOUS
 62
         7
100
AcDbLine
 10
1427.4912343579
 20
-238.8906455357
 30
0.0
 11
1427.4912343579
 21
-273.7906455357
 31
0.0
  0
LINE
  5
1BC
100
AcDbEntity
  8
L1_120
  6
CONTINUOUS
 62
         7
100
AcDbLine
 10
1439.0275047567
 20
-211.1906455357
 30
0.0
 11
1434.5637751555
 21
-211.1906455357
 31
0.0
  0
LINE
  5
1BD
100
AcDbEntity
  8
L1_120
  6
CONTINUOUS
 62
         7
100
AcDbLine
 10
1427.4912343579
 20
-211.1906455357
 30
0.0
 11
1429.1525047567
 21
-212.2107397006
 31
0.0
  0
LINE
  5
1BE
100
AcDbEntity
  8
L1_120
  6
CONTINUOUS
 62
         7
100
AcDbLine
 10
1423.1275047567
 20
-211.1906455357
 30
0.0
 11
1424.1475989216
 21
-212.2107397006
 31
0.0
  0
LINE
  5
1BF
100
AcDbEntity
  8
L1_120
  6
CONTINUOUS
 62
         7
100
AcDbLine
 10
1427.4912343579
 20
-211.1906455357
 30
0.0
 11
1423.1275047567
 21
-211.1906455357
 31
0.0
  0
LINE
  5
1C0
100
AcDbEntity
  8
L1_120
  6
CONTINUOUS
 62
         7
100
AcDbLine
 10
1437.9074105918
 20
-212.2107397006
 30
0.0
 11
1424.1475989216
 21
-212.2107397006
 31
0.0
  0
LINE
  5
1C1
100
AcDbEntity
  8
L1_120
  6
CONTINUOUS
 62
         7
100
AcDbLine
 10
1437.9074105918
 20
-212.2107397006
 30
0.0
 11
1424.1475989216
 21
-212.2107397006
 31
0.0
  0
LINE
  5
1C2
100
AcDbEntity
  8
L1_120
  6
CONTINUOUS
 62
         7
100
AcDbLine
 10
1432.9025047567
 20
-212.2107397006
 30
0.0
 11
1434.5637751555
 21
-211.1906455357
 31
0.0
  0
LINE
  5
1C3
100
AcDbEntity
  8
L1_120
  6
CONTINUOUS
 62
         7
100
AcDbLine
 10
1438.9275047567
 20
-211.1906455357
 30
0.0
 11
1437.9074105918
 21
-212.2107397006
 31
0.0
  0
LINE
  5
1C4
100
AcDbEntity
  8
L1_120
  6
CONTINUOUS
 62
         7
100
AcDbLine
 10
1434.5637751555
 20
-176.2906455357
 30
0.0
 11
1434.5637751555
 21
-211.1906455357
 31
0.0
  0
LINE
  5
1C5
100
AcDbEntity
  8
L1_120
  6
CONTINUOUS
 62
         7
100
AcDbLine
 10
1432.9025047567
 20
-179.1680349972
 30
0.0
 11
1432.9025047567
 21
-212.2107397006
 31
0.0
  0
LINE
  5
1C6
100
AcDbEntity
  8
L1_120
  6
CONTINUOUS
 62
         7
100
AcDbLine
 10
1429.1525047567
 20
-179.1680349972
 30
0.0
 11
1429.1525047567
 21
-212.2107397006
 31
0.0
  0
LINE
  5
1C7
100
AcDbEntity
  8
L1_120
  6
CONTINUOUS
 62
         7
100
AcDbLine
 10
1427.4912343579
 20
-176.2906455357
 30
0.0
 11
1427.4912343579
 21
-211.1906455357
 31
0.0
  0
LINE
  5
1C8
100
AcDbEntity
  8
L1_120
  6
CONTINUOUS
 62
         7
100
AcDbLine
 10
1423.1275047567
 20
-271.2906455357
 30
0.0
 11
1423.1275047567
 21
-273.2906455357
 31
0.0
  0
LINE
  5
1C9
100
AcDbEntity
  8
L1_120
  6
CONTINUOUS
 62
         7
100
AcDbLine
 10
1439.0275047567
 20
-271.2906455357
 30
0.0
 11
1439.0275047567
 21
-273.2906455357
 31
0.0
  0
LINE
  5
1CA
100
AcDbEntity
  8
L1_120
  6
CONTINUOUS
 62
         7
100
AcDbLine
 10
1436.5275047567
 20
-273.7906455357
 30
0.0
 11
1438.5275047567
 21
-273.7906455357
 31
0.0
  0
LINE
  5
1CB
100
AcDbEntity
  8
L1_120
  6
CONTINUOUS
 62
         7
100
AcDbLine
 10
1423.6275047567
 20
-273.7906455357
 30
0.0
 11
1425.6275047567
 21
-273.7906455357
 31
0.0
  0
LINE
  5
1CC
100
AcDbEntity
  8
L1_120
  6
CONTINUOUS
 62
         7
100
AcDbLine
 10
1439.0275047567
 20
-176.7906455357
 30
0.0
 11
1439.0275047567
 21
-178.7906455357
 31
0.0
  0
LINE
  5
1CD
100
AcDbEntity
  8
L1_120
  6
CONTINUOUS
 62
         7
100
AcDbLine
 10
1436.5275047567
 20
-176.2906455357
 30
0.0
 11
1438.5275047567
 21
-176.2906455357
 31
0.0
  0
LINE
  5
1CE
100
AcDbEntity
  8
L1_120
  6
CONTINUOUS
 62
         7
100
AcDbLine
 10
1423.6275047567
 20
-176.2906455357
 30
0.0
 11
1425.6275047567
 21
-176.2906455357
 31
0.0
  0
LINE
  5
1CF
100
AcDbEntity
  8
L1_120
  6
CONTINUOUS
 62
         7
100
AcDbLine
 10
1423.1275047567
 20
-176.7906455357
 30
0.0
 11
1423.1275047567
 21
-178.7906455357
 31
0.0
  0
LINE
  5
1D0
100
AcDbEntity
  8
L1_120
  6
CONTINUOUS
 62
         7
100
AcDbLine
 10
1423.6275047567
 20
-176.2906455357
 30
0.0
 11
1423.1275047567
 21
-176.7906455357
 31
0.0
  0
LINE
  5
1D1
100
AcDbEntity
  8
L1_120
  6
CONTINUOUS
 62
         7
100
AcDbLine
 10
1438.5275047567
 20
-176.2906455357
 30
0.0
 11
1439.0275047567
 21
-176.7906455357
 31
0.0
  0
LINE
  5
1D2
100
AcDbEntity
  8
L1_120
  6
CONTINUOUS
 62
         7
100
AcDbLine
 10
1423.1275047567
 20
-273.2906455357
 30
0.0
 11
1423.6275047567
 21
-273.7906455357
 31
0.0
  0
LINE
  5
1D3
100
AcDbEntity
  8
L1_120
  6
CONTINUOUS
 62
         7
100
AcDbLine
 10
1438.5275047567
 20
-273.7906455357
 30
0.0
 11
1439.0275047567
 21
-273.2906455357
 31
0.0
  0
LINE
  5
1D4
100
AcDbEntity
  8
L1_120
  6
CONTINUOUS
 62
         7
100
AcDbLine
 10
1422.3275047567
 20
-189.940643888
 30
0.0
 11
1421.1275047567
 21
-189.940643888
 31
0.0
  0
ARC
  5
1D5
100
AcDbEntity
  8
L1_120
  6
CONTINUOUS
 62
         7
100
AcDbCircle
 10
1422.3275047567
 20
-189.140643888
 30
0.0
 40
0.8
100
AcDbArc
 50
270.0
 51
360.0
  0
LINE
  5
1D6
100
AcDbEntity
  8
L1_120
  6
CONTINUOUS
 62
         7
100
AcDbLine
 10
1422.3275047567
 20
-260.1406471833
 30
0.0
 11
1421.1275047567
 21
-260.1406471833
 31
0.0
  0
ARC
  5
1D7
100
AcDbEntity
  8
L1_120
  6
CONTINUOUS
 62
         7
100
AcDbCircle
 10
1422.3275047567
 20
-260.9406471833
 30
0.0
 40
0.8
100
AcDbArc
 50
0.0
 51
90.0000000001
  0
LINE
  5
1D8
100
AcDbEntity
  8
L1_120
  6
CONTINUOUS
 62
         7
100
AcDbLine
 10
1318.3275047567
 20
-213.8064638192
 30
0.0
 11
1318.3275047567
 21
-236.2748272521
 31
0.0
  0
ARC
  5
1D9
100
AcDbEntity
  8
L1_120
  6
CONTINUOUS
 62
         7
100
AcDbCircle
 10
1442.0275047567
 20
-245.0425540547
 30
0.0
 40
3.0
100
AcDbArc
 50
90.0
 51
180.0
  0
ARC
  5
1DA
100
AcDbEntity
  8
L1_120
  6
CONTINUOUS
 62
         7
100
AcDbCircle
 10
1442.0275047567
 20
-205.0385540547
 30
0.0
 40
3.0
100
AcDbArc
 50
180.0
 51
270.0
  0
LINE
  5
1DB
100
AcDbEntity
  8
L1_120
  6
DASHED
 62
         2
100
AcDbLine
 10
1449.2349142291
 20
-235.0425540547
 30
0.0
 11
1446.6399142291
 21
-233.5443301062
 31
0.0
  0
LINE
  5
1DC
100
AcDbEntity
  8
L1_120
  6
DASHED
 62
         2
100
AcDbLine
 10
1444.0449142291
 20
-235.0425540547
 30
0.0
 11
1446.6399142291
 21
-233.5443301062
 31
0.0
  0
LINE
  5
1DD
100
AcDbEntity
  8
L1_120
  6
DASHED
 62
         2
100
AcDbLine
 10
1443.6399142291
 20
-237.0425540547
 30
0.0
 11
1449.6399142291
 21
-237.0425540547
 31
0.0
  0
LINE
  5
1DE
100
AcDbEntity
  8
L1_120
  6
DASHED
 62
         2
100
AcDbLine
 10
1444.0449142291
 20
-235.0425540547
 30
0.0
 11
1449.2349142291
 21
-235.0425540547
 31
0.0
  0
LINE
  5
1DF
100
AcDbEntity
  8
L1_120
  6
DASHED
 62
         2
100
AcDbLine
 10
1449.2349142291
 20
-235.0425540547
 30
0.0
 11
1449.2349142291
 21
-241.9701474526
 31
0.0
  0
LINE
  5
1E0
100
AcDbEntity
  8
L1_120
  6
DASHED
 62
         2
100
AcDbLine
 10
1444.0449142291
 20
-235.0425540547
 30
0.0
 11
1444.0449142291
 21
-242.0425540547
 31
0.0
  0
LINE
  5
1E1
100
AcDbEntity
  8
L1_120
  6
DASHED
 62
         2
100
AcDbLine
 10
1449.6399142291
 20
-237.0425540547
 30
0.0
 11
1449.6399142291
 21
-242.0425540547
 31
0.0
  0
LINE
  5
1E2
100
AcDbEntity
  8
L1_120
  6
DASHED
 62
         2
100
AcDbLine
 10
1443.6399142291
 20
-237.0425540547
 30
0.0
 11
1443.6399142291
 21
-242.0425540547
 31
0.0
  0
LINE
  5
1E3
100
AcDbEntity
  8
L1_120
  6
DASHED
 62
         2
100
AcDbLine
 10
1443.6399142291
 20
-213.0385540547
 30
0.0
 11
1443.6399142291
 21
-208.0385540547
 31
0.0
  0
LINE
  5
1E4
100
AcDbEntity
  8
L1_120
  6
DASHED
 62
         2
100
AcDbLine
 10
1449.6399142291
 20
-213.0385540547
 30
0.0
 11
1449.6399142291
 21
-208.1428348481
 31
0.0
  0
LINE
  5
1E5
100
AcDbEntity
  8
L1_120
  6
DASHED
 62
         2
100
AcDbLine
 10
1444.0449142291
 20
-215.0385540547
 30
0.0
 11
1444.0449142291
 21
-208.0385540547
 31
0.0
  0
LINE
  5
1E6
100
AcDbEntity
  8
L1_120
  6
DASHED
 62
         2
100
AcDbLine
 10
1449.2349142291
 20
-215.0385540547
 30
0.0
 11
1449.2349142291
 21
-208.1109606569
 31
0.0
  0
LINE
  5
1E7
100
AcDbEntity
  8
L1_120
  6
DASHED
 62
         2
100
AcDbLine
 10
1444.0449142291
 20
-215.0385540547
 30
0.0
 11
1449.2349142291
 21
-215.0385540547
 31
0.0
  0
LINE
  5
1E8
100
AcDbEntity
  8
L1_120
  6
DASHED
 62
         2
100
AcDbLine
 10
1443.6399142291
 20
-213.0385540547
 30
0.0
 11
1449.6399142291
 21
-213.0385540547
 31
0.0
  0
LINE
  5
1E9
100
AcDbEntity
  8
L1_120
  6
DASHED
 62
         2
100
AcDbLine
 10
1444.0449142291
 20
-215.0385540547
 30
0.0
 11
1446.6399142291
 21
-216.5367780033
 31
0.0
  0
LINE
  5
1EA
100
AcDbEntity
  8
L1_120
  6
DASHED
 62
         2
100
AcDbLine
 10
1449.2349142291
 20
-215.0385540547
 30
0.0
 11
1446.6399142291
 21
-216.5367780033
 31
0.0
  0
CIRCLE
  5
1EB
100
AcDbEntity
  8
L1_120
  6
CONTINUOUS
 62
         7
100
AcDbCircle
 10
1446.6275047567
 20
-225.0405540547
 30
0.0
 40
2.595
  0
ARC
  5
1EC
100
AcDbEntity
  8
L1_120
  6
CONTINUOUS
 62
         4
100
AcDbCircle
 10
1446.6275047567
 20
-225.0405540547
 30
0.0
 40
3.0
100
AcDbArc
 50
248.8783472373
 51
540.0
  0
LINE
  5
1ED
100
AcDbEntity
  8
L1_120
  6
CONTINUOUS
 62
         7
100
AcDbLine
 10
1442.0275047567
 20
-242.0425540547
 30
0.0
 11
1528.3094887089
 21
-242.0425540547
 31
0.0
  0
LINE
  5
1EE
100
AcDbEntity
  8
L1_120
  6
CONTINUOUS
 62
         7
100
AcDbLine
 10
1442.0275047567
 20
-208.0385540547
 30
0.0
 11
1528.3083263337
 21
-208.0385540547
 31
0.0
  0
LINE
  5
1EF
100
AcDbEntity
  8
L1_120
  6
CONTINUOUS
 62
         7
100
AcDbLine
 10
1578.1044229482
 20
-211.9575918515
 30
0.0
 11
1528.3094887089
 21
-208.0386455357
 31
0.0
  0
ARC
  5
1F0
100
AcDbEntity
  8
L1_120
  6
CONTINUOUS
 62
         7
100
AcDbCircle
 10
1577.9475047567
 20
-236.1298645523
 30
0.0
 40
2.0
100
AcDbArc
 50
274.5
 51
360.0
  0
ARC
  5
1F1
100
AcDbEntity
  8
L1_120
  6
CONTINUOUS
 62
         7
100
AcDbCircle
 10
1577.9475047567
 20
-213.951426519
 30
0.0
 40
2.0
100
AcDbArc
 50
0.0
 51
85.5
  0
LINE
  5
1F2
100
AcDbEntity
  8
L1_120
  6
CONTINUOUS
 62
         7
100
AcDbLine
 10
1578.1044229482
 20
-238.1236992198
 30
0.0
 11
1528.3094887089
 21
-242.0426455357
 31
0.0
  0
LINE
  5
1F3
100
AcDbEntity
  8
L1_120
  6
CONTINUOUS
 62
         7
100
AcDbLine
 10
1579.9475047567
 20
-213.951426519
 30
0.0
 11
1579.9475047567
 21
-236.1298645523
 31
0.0
  0
DIMENSION
  5
1F7
100
AcDbEntity
  8
L1_120
  6
CONTINUOUS
 62
         4
100
AcDbDimension
  2
*D0
 10
1528.3094887089
 20
-208.0386399942
 30
0.0
 11
1553.8302935099
 21
-202.2245955834
 31
0.0
 70
         2
  3
DIMSTYLE1
100
AcDb2LineAngularDimension
 13
1408.758202381
 23
-209.0386399942
 33
0.0
 14
1589.7487064707
 24
-208.0386399942
 34
0.0
 15
1578.1044229482
 25
-211.9575863101
 35
0.0
 16
1550.7641231325
 26
-216.6880969415
 36
0.0
  0
LINE
  5
206
100
AcDbEntity
  8
L1_120
  6
CONTINUOUS
 62
         4
100
AcDbLine
 10
1528.3094887089
 20
-208.0386455357
 30
0.0
 11
1528.3094887089
 21
-242.0426455357
 31
0.0
  0
LINE
  5
207
100
AcDbEntity
  8
L1_120
  6
CENTER
 62
         1
100
AcDbLine
 10
1313.3813621887
 20
-225.0406455357
 30
0.0
 11
1579.9475047567
 21
-225.0406455357
 31
0.0
  0
LINE
  5
208
100
AcDbEntity
  8
L1_120
  6
CONTINUOUS
 62
         4
100
AcDbLine
 10
1444.0899142291
 20
-350.1706220057
 30
0.0
 11
1444.0899142291
 21
-355.1706220057
 31
0.0
  0
LINE
  5
209
100
AcDbEntity
  8
L1_120
  6
CONTINUOUS
 62
         4
100
AcDbLine
 10
1450.0899142291
 20
-350.1706220057
 30
0.0
 11
1450.0899142291
 21
-355.1706220057
 31
0.0
  0
LINE
  5
20A
100
AcDbEntity
  8
L1_120
  6
CONTINUOUS
 62
         7
100
AcDbLine
 10
1444.4949142291
 20
-348.1706220057
 30
0.0
 11
1444.4949142291
 21
-355.1706220057
 31
0.0
  0
LINE
  5
20B
100
AcDbEntity
  8
L1_120
  6
CONTINUOUS
 62
         7
100
AcDbLine
 10
1449.6849142291
 20
-348.1706220057
 30
0.0
 11
1449.6849142291
 21
-355.1706220057
 31
0.0
  0
LINE
  5
20C
100
AcDbEntity
  8
L1_120
  6
CONTINUOUS
 62
         7
100
AcDbLine
 10
1444.4949142291
 20
-348.1706220057
 30
0.0
 11
1449.6849142291
 21
-348.1706220057
 31
0.0
  0
LINE
  5
20D
100
AcDbEntity
  8
L1_120
  6
CONTINUOUS
 62
         4
100
AcDbLine
 10
1444.0899142291
 20
-350.1706220057
 30
0.0
 11
1450.0899142291
 21
-350.1706220057
 31
0.0
  0
LINE
  5
20E
100
AcDbEntity
  8
L1_120
  6
CONTINUOUS
 62
         7
100
AcDbLine
 10
1444.4949142291
 20
-348.1706220057
 30
0.0
 11
1447.0899142291
 21
-346.6723980572
 31
0.0
  0
LINE
  5
20F
100
AcDbEntity
  8
L1_120
  6
CONTINUOUS
 62
         7
100
AcDbLine
 10
1449.6849142291
 20
-348.1706220057
 30
0.0
 11
1447.0899142291
 21
-346.6723980572
 31
0.0
  0
LINE
  5
210
100
AcDbEntity
  8
L1_120
  6
CONTINUOUS
 62
         7
100
AcDbLine
 10
1449.6849142291
 20
-328.1666220057
 30
0.0
 11
1447.0899142291
 21
-329.6648459543
 31
0.0
  0
LINE
  5
211
100
AcDbEntity
  8
L1_120
  6
CONTINUOUS
 62
         7
100
AcDbLine
 10
1444.4949142291
 20
-328.1666220057
 30
0.0
 11
1447.0899142291
 21
-329.6648459543
 31
0.0
  0
LINE
  5
212
100
AcDbEntity
  8
L1_120
  6
CONTINUOUS
 62
         4
100
AcDbLine
 10
1444.0899142291
 20
-326.1666220057
 30
0.0
 11
1450.0899142291
 21
-326.1666220057
 31
0.0
  0
LINE
  5
213
100
AcDbEntity
  8
L1_120
  6
CONTINUOUS
 62
         7
100
AcDbLine
 10
1444.4949142291
 20
-328.1666220057
 30
0.0
 11
1449.6849142291
 21
-328.1666220057
 31
0.0
  0
LINE
  5
214
100
AcDbEntity
  8
L1_120
  6
CONTINUOUS
 62
         7
100
AcDbLine
 10
1449.6849142291
 20
-328.1666220057
 30
0.0
 11
1449.6849142291
 21
-321.2390286078
 31
0.0
  0
LINE
  5
215
100
AcDbEntity
  8
L1_120
  6
CONTINUOUS
 62
         7
100
AcDbLine
 10
1444.4949142291
 20
-328.1666220057
 30
0.0
 11
1444.4949142291
 21
-321.1666220057
 31
0.0
  0
LINE
  5
216
100
AcDbEntity
  8
L1_120
  6
CONTINUOUS
 62
         4
100
AcDbLine
 10
1450.0899142291
 20
-326.1666220057
 30
0.0
 11
1450.0899142291
 21
-321.2709027991
 31
0.0
  0
LINE
  5
217
100
AcDbEntity
  8
L1_120
  6
CONTINUOUS
 62
         4
100
AcDbLine
 10
1444.0899142291
 20
-326.1666220057
 30
0.0
 11
1444.0899142291
 21
-321.1666220057
 31
0.0
  0
ARC
  5
218
100
AcDbEntity
  8
L1_120
  6
CONTINUOUS
 62
         7
100
AcDbCircle
 10
1442.4775047567
 20
-358.1706220057
 30
0.0
 40
3.0
100
AcDbArc
 50
90.0
 51
180.0
  0
ARC
  5
219
100
AcDbEntity
  8
L1_120
  6
CONTINUOUS
 62
         7
100
AcDbCircle
 10
1442.4775047567
 20
-318.1666220057
 30
0.0
 40
3.0
100
AcDbArc
 50
180.0
 51
270.0
  0
LINE
  5
21A
100
AcDbEntity
  8
L1_120
  6
CENTER
 62
         1
100
AcDbLine
 10
1447.0775047567
 20
-357.248910796
 30
0.0
 11
1447.0775047567
 21
-316.3309671617
 31
0.0
  0
LINE
  5
21B
100
AcDbEntity
  8
L1_120
  6
CONTINUOUS
 62
         7
100
AcDbLine
 10
1442.4775047567
 20
-355.1706220057
 30
0.0
 11
1528.7594887089
 21
-355.1706220057
 31
0.0
  0
LINE
  5
21C
100
AcDbEntity
  8
L1_120
  6
CONTINUOUS
 62
         7
100
AcDbLine
 10
1442.4775047567
 20
-321.1666220057
 30
0.0
 11
1528.7594887089
 21
-321.1666220057
 31
0.0
  0
LINE
  5
21D
100
AcDbEntity
  8
L1_120
  6
CONTINUOUS
 62
         7
100
AcDbLine
 10
1578.5544229482
 20
-325.0855683216
 30
0.0
 11
1528.7594887089
 21
-321.1666220057
 31
0.0
  0
ARC
  5
21E
100
AcDbEntity
  8
L1_120
  6
CONTINUOUS
 62
         7
100
AcDbCircle
 10
1578.3975047567
 20
-327.079402989
 30
0.0
 40
2.0
100
AcDbArc
 50
0.0
 51
85.5
  0
LINE
  5
21F
100
AcDbEntity
  8
L1_120
  6
CONTINUOUS
 62
         7
100
AcDbLine
 10
1578.5544229482
 20
-351.2516756899
 30
0.0
 11
1528.7594887089
 21
-355.1706220057
 31
0.0
  0
LINE
  5
220
100
AcDbEntity
  8
L1_120
  6
CONTINUOUS
 62
         7
100
AcDbLine
 10
1580.3975047567
 20
-327.079402989
 30
0.0
 11
1580.3975047567
 21
-349.2578410224
 31
0.0
  0
ARC
  5
221
100
AcDbEntity
  8
L1_120
  6
CONTINUOUS
 62
         7
100
AcDbCircle
 10
1578.3975047567
 20
-349.2578410224
 30
0.0
 40
2.0
100
AcDbArc
 50
274.5
 51
360.0
  0
LINE
  5
222
100
AcDbEntity
  8
L1_120
  6
CONTINUOUS
 62
         7
100
AcDbLine
 10
1530.3975047567
 20
-346.6686220057
 30
0.0
 11
1540.3975047567
 21
-346.6686220057
 31
0.0
  0
LINE
  5
223
100
AcDbEntity
  8
L1_120
  6
CONTINUOUS
 62
         7
100
AcDbLine
 10
1530.3975047567
 20
-329.6686220057
 30
0.0
 11
1540.3975047567
 21
-329.6686220057
 31
0.0
  0
ARC
  5
224
100
AcDbEntity
  8
L1_120
  6
CONTINUOUS
 62
         7
100
AcDbCircle
 10
1579.3975047567
 20
-347.0971220057
 30
0.0
 40
1.0
100
AcDbArc
 50
0.0
 51
90.0
  0
LINE
  5
225
100
AcDbEntity
  8
L1_120
  6
CONTINUOUS
 62
         7
100
AcDbLine
 10
1540.3975047567
 20
-346.0971220057
 30
0.0
 11
1579.3975047567
 21
-346.0971220057
 31
0.0
  0
LINE
  5
226
100
AcDbEntity
  8
L1_120
  6
CONTINUOUS
 62
         7
100
AcDbLine
 10
1540.3975047567
 20
-330.2401220057
 30
0.0
 11
1579.3975047567
 21
-330.2401220057
 31
0.0
  0
LINE
  5
227
100
AcDbEntity
  8
L1_120
  6
CONTINUOUS
 62
         7
100
AcDbLine
 10
1530.3975047567
 20
-329.6686220057
 30
0.0
 11
1530.3975047567
 21
-346.6686220057
 31
0.0
  0
LINE
  5
228
100
AcDbEntity
  8
L1_120
  6
CONTINUOUS
 62
         7
100
AcDbLine
 10
1540.3975047567
 20
-329.6686220057
 30
0.0
 11
1540.3975047567
 21
-346.6686220057
 31
0.0
  0
LINE
  5
229
100
AcDbEntity
  8
L1_120
  6
CONTINUOUS
 62
         4
100
AcDbLine
 10
1579.3975047567
 20
-330.2401220057
 30
0.0
 11
1579.3975047567
 21
-346.0971220057
 31
0.0
  0
LINE
  5
22A
100
AcDbEntity
  8
L1_120
  6
CONTINUOUS
 62
         4
100
AcDbLine
 10
1510.3975047567
 20
-332.1686220057
 30
0.0
 11
1530.3975047567
 21
-332.1686220057
 31
0.0
  0
LINE
  5
22B
100
AcDbEntity
  8
L1_120
  6
CONTINUOUS
 62
         4
100
AcDbLine
 10
1510.3975047567
 20
-344.1686220057
 30
0.0
 11
1530.3975047567
 21
-344.1686220057
 31
0.0
  0
LINE
  5
22C
100
AcDbEntity
  8
L1_120
  6
CONTINUOUS
 62
         7
100
AcDbLine
 10
1430.3872942656
 20
-343.6686220057
 30
0.0
 11
1530.3975047567
 21
-343.6686220057
 31
0.0
  0
LINE
  5
22D
100
AcDbEntity
  8
L1_120
  6
CONTINUOUS
 62
         7
100
AcDbLine
 10
1430.3877152479
 20
-332.6686220057
 30
0.0
 11
1530.3975047567
 21
-332.6686220057
 31
0.0
  0
ARC
  5
22E
100
AcDbEntity
  8
L1_120
  6
CONTINUOUS
 62
         7
100
AcDbCircle
 10
1432.6322052951
 20
-384.7936220057
 30
0.0
 40
1.0
100
AcDbArc
 50
30.0
 51
90.0
  0
LINE
  5
22F
100
AcDbEntity
  8
L1_120
  6
CONTINUOUS
 62
         7
100
AcDbLine
 10
1435.0137751555
 20
-386.9186220057
 30
0.0
 11
1437.9775047567
 21
-386.9186220057
 31
0.0
  0
ARC
  5
230
100
AcDbEntity
  8
L1_120
  6
CONTINUOUS
 62
         7
100
AcDbCircle
 10
1430.0341290837
 20
-384.2936220057
 30
0.0
 40
0.5
100
AcDbArc
 50
90.0
 51
150.0
  0
LINE
  5
231
100
AcDbEntity
  8
L1_120
  6
CONTINUOUS
 62
         7
100
AcDbLine
 10
1429.6011163819
 20
-384.0436220057
 30
0.0
 11
1427.9412343579
 21
-386.9186220057
 31
0.0
  0
LINE
  5
232
100
AcDbEntity
  8
L1_120
  6
CONTINUOUS
 62
         7
100
AcDbLine
 10
1425.0775047567
 20
-386.9186220057
 30
0.0
 11
1427.9412343579
 21
-386.9186220057
 31
0.0
  0
LINE
  5
233
100
AcDbEntity
  8
L1_120
  6
CONTINUOUS
 62
         7
100
AcDbLine
 10
1430.0341290837
 20
-383.7936220057
 30
0.0
 11
1432.6322052951
 21
-383.7936220057
 31
0.0
  0
LINE
  5
234
100
AcDbEntity
  8
L1_120
  6
CONTINUOUS
 62
         7
100
AcDbLine
 10
1423.5775047567
 20
-374.0686236533
 30
0.0
 11
1423.5775047567
 21
-385.4186220057
 31
0.0
  0
LINE
  5
235
100
AcDbEntity
  8
L1_120
  6
CONTINUOUS
 62
         7
100
AcDbLine
 10
1433.4982306989
 20
-384.2936220057
 30
0.0
 11
1435.0137751555
 21
-386.9186220057
 31
0.0
  0
LINE
  5
236
100
AcDbEntity
  8
L1_120
  6
CONTINUOUS
 62
         7
100
AcDbLine
 10
1435.0137751555
 20
-289.4186220057
 30
0.0
 11
1437.9775047567
 21
-289.4186220057
 31
0.0
  0
LINE
  5
237
100
AcDbEntity
  8
L1_120
  6
CONTINUOUS
 62
         7
100
AcDbLine
 10
1429.6011163819
 20
-292.2936220057
 30
0.0
 11
1427.9412343579
 21
-289.4186220057
 31
0.0
  0
ARC
  5
238
100
AcDbEntity
  8
L1_120
  6
CONTINUOUS
 62
         7
100
AcDbCircle
 10
1432.9208804297
 20
-292.0436220057
 30
0.0
 40
0.5
100
AcDbArc
 50
270.0
 51
330.0
  0
ARC
  5
239
100
AcDbEntity
  8
L1_120
  6
CONTINUOUS
 62
         7
100
AcDbCircle
 10
1430.0341290837
 20
-292.0436220057
 30
0.0
 40
0.5
100
AcDbArc
 50
210.0
 51
270.0
  0
LINE
  5
23A
100
AcDbEntity
  8
L1_120
  6
CONTINUOUS
 62
         7
100
AcDbLine
 10
1430.0341290837
 20
-292.5436220057
 30
0.0
 11
1432.9208804297
 21
-292.5436220057
 31
0.0
  0
LINE
  5
23B
100
AcDbEntity
  8
L1_120
  6
CONTINUOUS
 62
         7
100
AcDbLine
 10
1425.0775047567
 20
-289.4186220057
 30
0.0
 11
1427.9412343579
 21
-289.4186220057
 31
0.0
  0
LINE
  5
23C
100
AcDbEntity
  8
L1_120
  6
CONTINUOUS
 62
         7
100
AcDbLine
 10
1433.3538931316
 20
-292.2936220057
 30
0.0
 11
1435.0137751555
 21
-289.4186220057
 31
0.0
  0
LINE
  5
23D
100
AcDbEntity
  8
L1_120
  6
CONTINUOUS
 62
         7
100
AcDbLine
 10
1430.0341290837
 20
-292.5436220057
 30
0.0
 11
1432.9208804297
 21
-292.5436220057
 31
0.0
  0
LINE
  5
23E
100
AcDbEntity
  8
L1_120
  6
CONTINUOUS
 62
         7
100
AcDbLine
 10
1423.5775047567
 20
-290.9186220057
 30
0.0
 11
1423.5775047567
 21
-302.2686203581
 31
0.0
  0
ARC
  5
23F
100
AcDbEntity
  8
L1_120
  6
CONTINUOUS
 62
         7
100
AcDbCircle
 10
1430.0341290837
 20
-292.0436220057
 30
0.0
 40
0.5
100
AcDbArc
 50
210.0
 51
270.0
  0
ARC
  5
240
100
AcDbEntity
  8
L1_120
  6
CONTINUOUS
 62
         7
100
AcDbCircle
 10
1432.9208804297
 20
-292.0436220057
 30
0.0
 40
0.5
100
AcDbArc
 50
270.0
 51
330.0
  0
LINE
  5
241
100
AcDbEntity
  8
L1_120
  6
CONTINUOUS
 62
         7
100
AcDbLine
 10
1423.5775047567
 20
-384.4186220057
 30
0.0
 11
1423.5775047567
 21
-385.4186220057
 31
0.0
  0
LINE
  5
242
100
AcDbEntity
  8
L1_120
  6
CONTINUOUS
 62
         7
100
AcDbLine
 10
1439.4775047567
 20
-358.1702574244
 30
0.0
 11
1439.4775047567
 21
-385.4186220057
 31
0.0
  0
ARC
  5
243
100
AcDbEntity
  8
L1_120
  6
CONTINUOUS
 62
         7
100
AcDbCircle
 10
1425.0775047567
 20
-385.4186220057
 30
0.0
 40
1.5
100
AcDbArc
 50
180.0
 51
270.0
  0
ARC
  5
244
100
AcDbEntity
  8
L1_120
  6
CONTINUOUS
 62
         7
100
AcDbCircle
 10
1437.9775047567
 20
-385.4186220057
 30
0.0
 40
1.5
100
AcDbArc
 50
270.0
 51
360.0
  0
ARC
  5
245
100
AcDbEntity
  8
L1_120
  6
CONTINUOUS
 62
         7
100
AcDbCircle
 10
1425.0775047567
 20
-290.9186220057
 30
0.0
 40
1.5
100
AcDbArc
 50
90.0
 51
180.0
  0
ARC
  5
246
100
AcDbEntity
  8
L1_120
  6
CONTINUOUS
 62
         7
100
AcDbCircle
 10
1437.9775047567
 20
-290.9186220057
 30
0.0
 40
1.5
100
AcDbArc
 50
0.0
 51
90.0
  0
LINE
  5
247
100
AcDbEntity
  8
L1_120
  6
CONTINUOUS
 62
         7
100
AcDbLine
 10
1436.9775047567
 20
-386.9186220057
 30
0.0
 11
1437.9775047567
 21
-386.9186220057
 31
0.0
  0
LINE
  5
248
100
AcDbEntity
  8
L1_120
  6
CONTINUOUS
 62
         7
100
AcDbLine
 10
1425.0775047567
 20
-386.9186220057
 30
0.0
 11
1426.0775047567
 21
-386.9186220057
 31
0.0
  0
LINE
  5
249
100
AcDbEntity
  8
L1_120
  6
CONTINUOUS
 62
         7
100
AcDbLine
 10
1439.4775047567
 20
-290.9186220057
 30
0.0
 11
1439.4775047567
 21
-318.1662574244
 31
0.0
  0
LINE
  5
24A
100
AcDbEntity
  8
L1_120
  6
CONTINUOUS
 62
         7
100
AcDbLine
 10
1436.9775047567
 20
-289.4186220057
 30
0.0
 11
1437.9775047567
 21
-289.4186220057
 31
0.0
  0
LINE
  5
24B
100
AcDbEntity
  8
L1_120
  6
CONTINUOUS
 62
         7
100
AcDbLine
 10
1425.0775047567
 20
-289.4186220057
 30
0.0
 11
1426.0775047567
 21
-289.4186220057
 31
0.0
  0
LINE
  5
24C
100
AcDbEntity
  8
L1_120
  6
CONTINUOUS
 62
         7
100
AcDbLine
 10
1423.5775047567
 20
-290.9186220057
 30
0.0
 11
1423.5775047567
 21
-291.9186220057
 31
0.0
  0
LINE
  5
24D
100
AcDbEntity
  8
L1_120
  6
CONTINUOUS
 62
         7
100
AcDbLine
 10
1422.7775047567
 20
-303.0686203581
 30
0.0
 11
1421.5775047567
 21
-303.0686203581
 31
0.0
  0
ARC
  5
24E
100
AcDbEntity
  8
L1_120
  6
CONTINUOUS
 62
         7
100
AcDbCircle
 10
1422.7775047567
 20
-302.2686203581
 30
0.0
 40
0.8
100
AcDbArc
 50
270.0
 51
360.0
  0
LINE
  5
24F
100
AcDbEntity
  8
L1_120
  6
CONTINUOUS
 62
         7
100
AcDbLine
 10
1422.7775047567
 20
-373.2686236534
 30
0.0
 11
1421.5775047567
 21
-373.2686236534
 31
0.0
  0
ARC
  5
250
100
AcDbEntity
  8
L1_120
  6
CONTINUOUS
 62
         7
100
AcDbCircle
 10
1422.7775047567
 20
-374.0686236533
 30
0.0
 40
0.8
100
AcDbArc
 50
0.0
 51
90.0000000001
  0
LINE
  5
251
100
AcDbEntity
  8
L1_120
  6
CONTINUOUS
 62
         7
100
AcDbLine
 10
1410.5488766306
 20
-327.7722805423
 30
0.0
 11
1430.4617940145
 21
-304.0409897111
 31
0.0
  0
LINE
  5
252
100
AcDbEntity
  8
L1_120
  6
CENTER
 62
         1
100
AcDbLine
 10
1439.4775047567
 20
-295.8634283585
 30
0.0
 11
1412.391206173
 21
-328.1436220057
 31
0.0
  0
LINE
  5
253
100
AcDbEntity
  8
L1_120
  6
CONTINUOUS
 62
         7
100
AcDbLine
 10
1436.5083490031
 20
-301.9688747092
 30
0.0
 11
1414.8567206854
 21
-327.7722805423
 31
0.0
  0
LINE
  5
254
100
AcDbEntity
  8
L1_120
  6
CONTINUOUS
 62
         4
100
AcDbLine
 10
1431.6749162175
 20
-304.8904270224
 30
0.0
 11
1430.446188151
 21
-304.0300623679
 31
0.0
  0
LINE
  5
255
100
AcDbEntity
  8
L1_120
  6
CONTINUOUS
 62
         4
100
AcDbLine
 10
1433.6880087841
 20
-300.1961366689
 30
0.0
 11
1430.4617940145
 21
-304.0409897111
 31
0.0
  0
LINE
  5
256
100
AcDbEntity
  8
L1_120
  6
CONTINUOUS
 62
         7
100
AcDbLine
 10
1433.6880087841
 20
-300.1961366689
 30
0.0
 11
1433.9804023408
 21
-299.8476755973
 31
0.0
  0
LINE
  5
257
100
AcDbEntity
  8
L1_120
  6
CONTINUOUS
 62
         7
100
AcDbLine
 10
1434.5427983992
 20
-300.794666801
 30
0.0
 11
1433.3140703328
 21
-299.9343021464
 31
0.0
  0
LINE
  5
258
100
AcDbEntity
  8
L1_120
  6
CONTINUOUS
 62
         7
100
AcDbLine
 10
1433.3140703328
 20
-299.9343021464
 30
0.0
 11
1426.7608539785
 21
-295.3456906556
 31
0.0
  0
LINE
  5
259
100
AcDbEntity
  8
L1_120
  6
CONTINUOUS
 62
         7
100
AcDbLine
 10
1427.0476421966
 20
-294.9361146335
 30
0.0
 11
1427.0763210185
 21
-294.8951570313
 31
0.0
  0
LINE
  5
25A
100
AcDbEntity
  8
L1_120
  6
CONTINUOUS
 62
         4
100
AcDbLine
 10
1427.0476421966
 20
-294.9361146335
 30
0.0
 11
1431.1434024181
 21
-297.8039968152
 31
0.0
  0
LINE
  5
25B
100
AcDbEntity
  8
L1_120
  6
CONTINUOUS
 62
         7
100
AcDbLine
 10
1429.8275047567
 20
-296.8825953532
 30
0.0
 11
1431.1434024181
 21
-297.8039968152
 31
0.0
  0
LINE
  5
25C
100
AcDbEntity
  8
L1_120
  6
CONTINUOUS
 62
         7
100
AcDbLine
 10
1427.7019438
 20
-302.718909081
 30
0.0
 11
1431.1434024181
 21
-297.8039968152
 31
0.0
  0
LINE
  5
25D
100
AcDbEntity
  8
L1_120
  6
CONTINUOUS
 62
         7
100
AcDbLine
 10
1439.4775047567
 20
-292.7519807048
 30
0.0
 11
1433.8421765455
 21
-299.467903346
 31
0.0
  0
LINE
  5
25E
100
AcDbEntity
  8
L1_120
  6
CONTINUOUS
 62
         7
100
AcDbLine
 10
1439.4775047567
 20
-298.9748760123
 30
0.0
 11
1436.906354318
 21
-302.0390537847
 31
0.0
  0
LINE
  5
25F
100
AcDbEntity
  8
L1_120
  6
CONTINUOUS
 62
         4
100
AcDbLine
 10
1427.7019438
 20
-302.718909081
 30
0.0
 11
1423.6061835785
 21
-299.8510268992
 31
0.0
  0
LINE
  5
260
100
AcDbEntity
  8
L1_120
  6
CONTINUOUS
 62
         7
100
AcDbLine
 10
1430.446188151
 20
-304.0300623679
 30
0.0
 11
1423.8929717967
 21
-299.4414508771
 31
0.0
  0
LINE
  5
261
100
AcDbEntity
  8
L1_120
  6
CONTINUOUS
 62
         7
100
AcDbLine
 10
1423.6061835785
 20
-299.8510268992
 30
0.0
 11
1427.0476421966
 21
-294.9361146335
 31
0.0
  0
LINE
  5
262
100
AcDbEntity
  8
L1_120
  6
CENTER
 62
         1
100
AcDbLine
 10
1435.6633236171
 20
-304.32600983
 30
0.0
 11
1422.5067383181
 21
-295.1136696265
 31
0.0
  0
LINE
  5
263
100
AcDbEntity
  8
L1_120
  6
CONTINUOUS
 62
         7
100
AcDbLine
 10
1427.0763210185
 20
-294.8951570313
 30
0.0
 11
1423.5775047567
 21
-292.44525951
 31
0.0
  0
LINE
  5
264
100
AcDbEntity
  8
L1_120
  6
CONTINUOUS
 62
         7
100
AcDbLine
 10
1431.6749162175
 20
-304.8904270224
 30
0.0
 11
1434.5427983992
 21
-300.794666801
 31
0.0
  0
LINE
  5
265
100
AcDbEntity
  8
L1_120
  6
CONTINUOUS
 62
         7
100
AcDbLine
 10
1434.2912014415
 20
-303.6704331865
 30
0.0
 11
1434.5427983992
 21
-300.794666801
 31
0.0
  0
LINE
  5
266
100
AcDbEntity
  8
L1_120
  6
CONTINUOUS
 62
         7
100
AcDbLine
 10
1434.2912014415
 20
-303.6704331865
 30
0.0
 11
1431.6749162175
 21
-304.8904270224
 31
0.0
  0
LINE
  5
267
100
AcDbEntity
  8
L1_120
  6
CONTINUOUS
 62
         4
100
AcDbLine
 10
1433.8421765455
 20
-299.467903346
 30
0.0
 11
1436.906354318
 21
-302.0390537847
 31
0.0
  0
LINE
  5
268
100
AcDbEntity
  8
L1_120
  6
CONTINUOUS
 62
         7
100
AcDbLine
 10
1436.906354318
 20
-302.0390537847
 30
0.0
 11
1436.5083490031
 21
-301.9688747092
 31
0.0
  0
LINE
  5
269
100
AcDbEntity
  8
L1_120
  6
CONTINUOUS
 62
         7
100
AcDbLine
 10
1433.9804023408
 20
-299.8476755973
 30
0.0
 11
1436.5083490031
 21
-301.9688747092
 31
0.0
  0
LINE
  5
26A
100
AcDbEntity
  8
L1_120
  6
CONTINUOUS
 62
         7
100
AcDbLine
 10
1433.8421765455
 20
-299.467903346
 30
0.0
 11
1433.9804023408
 21
-299.8476755973
 31
0.0
  0
LINE
  5
26B
100
AcDbEntity
  8
L1_120
  6
CONTINUOUS
 62
         7
100
AcDbLine
 10
1427.5608111859
 20
-327.7722805423
 30
0.0
 11
1427.5603902036
 21
-348.5649634691
 31
0.0
  0
LINE
  5
26C
100
AcDbEntity
  8
L1_120
  6
CONTINUOUS
 62
         7
100
AcDbLine
 10
1427.5608111859
 20
-327.7722805423
 30
0.0
 11
1430.3877152479
 21
-332.6686220057
 31
0.0
  0
LINE
  5
26D
100
AcDbEntity
  8
L1_120
  6
CONTINUOUS
 62
         7
100
AcDbLine
 10
1427.5603902036
 20
-348.5649634691
 30
0.0
 11
1430.3872942656
 21
-343.6686220057
 31
0.0
  0
LINE
  5
26E
100
AcDbEntity
  8
L1_120
  6
CONTINUOUS
 62
         7
100
AcDbLine
 10
1430.3877152478
 20
-332.6686220057
 30
0.0
 11
1430.3872942656
 21
-343.6686220057
 31
0.0
  0
LINE
  5
26F
100
AcDbEntity
  8
L1_120
  6
CONTINUOUS
 62
         4
100
AcDbLine
 10
1510.3975047567
 20
-332.1686220057
 30
0.0
 11
1510.3975047567
 21
-344.1686220057
 31
0.0
  0
LINE
  5
270
100
AcDbEntity
  8
L1_120
  6
CENTER
 62
         1
100
AcDbLine
 10
1315.9340030258
 20
-338.1686220057
 30
0.0
 11
1580.3975047567
 21
-338.1686220057
 31
0.0
  0
LINE
  5
271
100
AcDbEntity
  8
L1_120
  6
CENTER
 62
         1
100
AcDbLine
 10
1446.6399142291
 20
-243.6990206047
 30
0.0
 11
1446.6399142291
 21
-204.8213284874
 31
0.0
  0
DIMENSION
  5
274
100
AcDbEntity
  8
L1_120
  6
CONTINUOUS
 62
         4
100
AcDbDimension
  2
*D1
 10
1419.9275047567
 20
-159.1471286798
 30
0.0
 11
1500.0485768958
 21
-156.5221286798
 31
0.0
  3
DIMSTYLE1
100
AcDbAlignedDimension
 13
1419.9275047567
 23
-185.3156455357
 33
0.0
 14
1579.9475047567
 24
-225.0406455357
 34
0.0
100
AcDbRotatedDimension
  0
DIMENSION
  5
282
100
AcDbEntity
  8
L1_120
  6
CONTINUOUS
 62
         4
100
AcDbDimension
  2
*D2
 10
1318.3275047567
 20
-144.9657208857
 30
0.0
 11
1440.0672061906
 21
-142.3407208857
 31
0.0
  3
DIMSTYLE1
100
AcDbAlignedDimension
 13
1318.3275047567
 23
-207.0943097716
 33
0.0
 14
1579.9475047567
 24
-213.0270360273
 34
0.0
100
AcDbRotatedDimension
  0
DIMENSION
  5
290
100
AcDbEntity
  8
L1_120
  6
CONTINUOUS
 62
         4
100
AcDbDimension
  2
*D3
 10
1601.4095585636
 20
-212.1026455357
 30
0.0
 11
1598.7845585636
 21
-232.2359986565
 31
0.0
  3
DIMSTYLE1
100
AcDbAlignedDimension
 13
1579.9475047567
 23
-212.1026455357
 33
0.0
 14
1579.9475047567
 24
-237.9786455357
 34
0.0
 50
90.0
100
AcDbRotatedDimension
  0
DIMENSION
  5
29E
100
AcDbEntity
  8
L1_120
  6
CONTINUOUS
 62
         4
100
AcDbDimension
  2
*D4
 10
1613.1535368931
 20
-208.0386455357
 30
0.0
 11
1610.5285368931
 21
-232.0144141597
 31
0.0
  3
DIMSTYLE1
100
AcDbAlignedDimension
 13
1533.3894887089
 23
-208.0386455357
 33
0.0
 14
1533.3894887089
 24
-242.0426455357
 34
0.0
 50
90.0
100
AcDbRotatedDimension
  0
DIMENSION
  5
2AC
100
AcDbEntity
  8
L1_120
  6
CONTINUOUS
 62
         4
100
AcDbDimension
  2
*D5
 10
1530.3975047567
 20
-373.0595026442
 30
0.0
 11
1553.0660158095
 21
-368.9995026442
 31
0.0
  3
DIMSTYLE1
100
AcDbAlignedDimension
 13
1530.3975047567
 23
-344.6686220057
 33
0.0
 14
1580.3975047567
 24
-349.2578410224
 34
0.0
100
AcDbRotatedDimension
  0
INSERT
  5
34E
100
AcDbEntity
  8
0
  6
CONTINUOUS
100
AcDbBlockReference
  2
*X6
 10
0.0
 20
0.0
 30
0.0
  0
TEXT
  5
350
100
AcDbEntity
  8
L1_120
  6
CONTINUOUS
 62
         2
100
AcDbText
 10
1649.5887640908
 20
-143.0150657815
 30
0.0
 40
4.5
  1
531950
 41
0.98
  7
BOX
100
AcDbText
  0
CIRCLE
  5
351
100
AcDbEntity
  8
L1_120
  6
DASHED
 62
         2
100
AcDbCircle
 10
1676.9828643139
 20
-225.0406455357
 30
0.0
 40
10.3963414634
  0
POLYLINE
  5
353
100
AcDbEntity
  8
L1_120
  6
CONTINUOUS
 62
         7
100
AcDb2dPolyline
 66
         1
 10
0.0
 20
0.0
 30
0.0
 70
         2
  0
VERTEX
  5
355
100
AcDbEntity
  8
L1_120
  6
CONTINUOUS
 62
         7
100
AcDbVertex
100
AcDb2dVertex
 10
1692.2370776726
 20
-266.8444594875
 30
0.0
 70
         1
  0
VERTEX
  5
357
100
AcDbEntity
  8
L1_120
  6
CONTINUOUS
 62
         7
100
AcDbVertex
100
AcDb2dVertex
 10
1692.5879362052
 20
-266.6714196936
 30
0.0
 70
         1
  0
VERTEX
  5
359
100
AcDbEntity
  8
L1_120
  6
CONTINUOUS
 62
         7
100
AcDbVertex
100
AcDb2dVertex
 10
1692.7332214508
 20
-266.5690939622
 30
0.0
 70
         1
  0
VERTEX
  5
35B
100
AcDbEntity
  8
L1_120
  6
CONTINUOUS
 62
         7
100
AcDbVertex
100
AcDb2dVertex
 10
1692.8734758258
 20
-266.4490135743
 30
0.0
 70
         1
  0
VERTEX
  5
35D
100
AcDbEntity
  8
L1_120
  6
CONTINUOUS
 62
         7
100
AcDbVertex
100
AcDb2dVertex
 10
1693.007044551
 20
-266.3110406752
 30
0.0
 70
         1
  0
VERTEX
  5
35F
100
AcDbEntity
  8
L1_120
  6
CONTINUOUS
 62
         7
100
AcDbVertex
100
AcDb2dVertex
 10
1693.1322655116
 20
-266.1553750943
 30
0.0
 70
         1
  0
VERTEX
  5
361
100
AcDbEntity
  8
L1_120
  6
CONTINUOUS
 62
         7
100
AcDbVertex
100
AcDb2dVertex
 10
1693.247523291
 20
-265.9825807702
 30
0.0
 70
         1
  0
VERTEX
  5
363
100
AcDbEntity
  8
L1_120
  6
CONTINUOUS
 62
         7
100
AcDbVertex
100
AcDb2dVertex
 10
1693.3513067254
 20
-265.7935968704
 30
0.0
 70
         1
  0
VERTEX
  5
365
100
AcDbEntity
  8
L1_120
  6
CONTINUOUS
 62
         7
100
AcDbVertex
100
AcDb2dVertex
 10
1693.4422663391
 20
-265.5897310551
 30
0.0
 70
         1
  0
VERTEX
  5
367
100
AcDbEntity
  8
L1_120
  6
CONTINUOUS
 62
         7
100
AcDbVertex
100
AcDb2dVertex
 10
1693.5192675999
 20
-265.3726337124
 30
0.0
 70
         1
  0
VERTEX
  5
369
100
AcDbEntity
  8
L1_120
  6
CONTINUOUS
 62
         7
100
AcDbVertex
100
AcDb2dVertex
 10
1693.5814359516
 20
-265.1442536736
 30
0.0
 70
         1
  0
VERTEX
  5
36B
100
AcDbEntity
  8
L1_120
  6
CONTINUOUS
 62
         7
100
AcDbVertex
100
AcDb2dVertex
 10
1693.6281900883
 20
-264.9067776834
 30
0.0
 70
         1
  0
VERTEX
  5
36D
100
AcDbEntity
  8
L1_120
  6
CONTINUOUS
 62
         7
100
AcDbVertex
100
AcDb2dVertex
 10
1693.6662625017
 20
-264.5782653778
 30
0.0
 70
         1
  0
VERTEX
  5
36F
100
AcDbEntity
  8
L1_120
  6
CONTINUOUS
 62
         7
100
AcDbVertex
100
AcDb2dVertex
 10
1693.6764216312
 20
-264.2435082484
 30
0.0
 70
         1
  0
VERTEX
  5
371
100
AcDbEntity
  8
L1_120
  6
CONTINUOUS
 62
         7
100
AcDbVertex
100
AcDb2dVertex
 10
1693.6598536006
 20
-263.9082961212
 30
0.0
 70
         1
  0
VERTEX
  5
373
100
AcDbEntity
  8
L1_120
  6
CONTINUOUS
 62
         7
100
AcDbVertex
100
AcDb2dVertex
 10
1693.618557552
 20
-263.5780250136
 30
0.0
 70
         1
  0
VERTEX
  5
375
100
AcDbEntity
  8
L1_120
  6
CONTINUOUS
 62
         7
100
AcDbVertex
100
AcDb2dVertex
 10
1693.5551564741
 20
-263.2574442891
 30
0.0
 70
         1
  0
VERTEX
  5
377
100
AcDbEntity
  8
L1_120
  6
CONTINUOUS
 62
         7
100
AcDbVertex
100
AcDb2dVertex
 10
1693.472683884
 20
-262.9504875876
 30
0.0
 70
         1
  0
VERTEX
  5
379
100
AcDbEntity
  8
L1_120
  6
CONTINUOUS
 62
         7
100
AcDbVertex
100
AcDb2dVertex
 10
1693.337573416
 20
-262.5648241397
 30
0.0
 70
         1
  0
VERTEX
  5
37B
100
AcDbEntity
  8
L1_120
  6
CONTINUOUS
 62
         7
100
AcDbVertex
100
AcDb2dVertex
 10
1693.1816830533
 20
-262.2139434314
 30
0.0
 70
         1
  0
VERTEX
  5
37D
100
AcDbEntity
  8
L1_120
  6
CONTINUOUS
 62
         7
100
AcDbVertex
100
AcDb2dVertex
 10
1693.0122315121
 20
-261.9000690976
 30
0.0
 70
         1
  0
VERTEX
  5
37F
100
AcDbEntity
  8
L1_120
  6
CONTINUOUS
 62
         7
100
AcDbVertex
100
AcDb2dVertex
 10
1692.8354751958
 20
-261.6233093483
 30
0.0
 70
         1
  0
VERTEX
  5
381
100
AcDbEntity
  8
L1_120
  6
CONTINUOUS
 62
         7
100
AcDbVertex
100
AcDb2dVertex
 10
1692.6565370042
 20
-261.3822208023
 30
0.0
 70
         1
  0
VERTEX
  5
383
100
AcDbEntity
  8
L1_120
  6
CONTINUOUS
 62
         7
100
AcDbVertex
100
AcDb2dVertex
 10
1692.4793989252
 20
-261.1743406293
 30
0.0
 70
         1
  0
VERTEX
  5
385
100
AcDbEntity
  8
L1_120
  6
CONTINUOUS
 62
         7
100
AcDbVertex
100
AcDb2dVertex
 10
1692.2487403664
 20
-260.9414776542
 30
0.0
 70
         1
  0
VERTEX
  5
387
100
AcDbEntity
  8
L1_120
  6
CONTINUOUS
 62
         7
100
AcDbVertex
100
AcDb2dVertex
 10
1692.0312613463
 20
-260.7553375029
 30
0.0
 70
         1
  0
VERTEX
  5
389
100
AcDbEntity
  8
L1_120
  6
CONTINUOUS
 62
         7
100
AcDbVertex
100
AcDb2dVertex
 10
1691.8294498561
 20
-260.6081442216
 30
0.0
 70
         1
  0
VERTEX
  5
38B
100
AcDbEntity
  8
L1_120
  6
CONTINUOUS
 62
         7
100
AcDbVertex
100
AcDb2dVertex
 10
1691.5831076096
 20
-260.4587314302
 30
0.0
 70
         1
  0
VERTEX
  5
38D
100
AcDbEntity
  8
L1_120
  6
CONTINUOUS
 62
         7
100
AcDbVertex
100
AcDb2dVertex
 10
1691.3665587782
 20
-260.3530490011
 30
0.0
 70
         1
  0
VERTEX
  5
38F
100
AcDbEntity
  8
L1_120
  6
CONTINUOUS
 62
         7
100
AcDbVertex
100
AcDb2dVertex
 10
1691.1776374122
 20
-260.2796179983
 30
0.0
 70
         1
  0
VERTEX
  5
391
100
AcDbEntity
  8
L1_120
  6
CONTINUOUS
 62
         7
100
AcDbVertex
100
AcDb2dVertex
 10
1690.9600815575
 20
-260.2162714782
 30
0.0
 70
         1
  0
VERTEX
  5
393
100
AcDbEntity
  8
L1_120
  6
CONTINUOUS
 62
         7
100
AcDbVertex
100
AcDb2dVertex
 10
1690.7228520323
 20
-260.173038033
 30
0.0
 70
         1
  0
VERTEX
  5
395
100
AcDbEntity
  8
L1_120
  6
CONTINUOUS
 62
         7
100
AcDbVertex
100
AcDb2dVertex
 10
1690.5400869874
 20
-260.1584433141
 30
0.0
 70
         1
  0
VERTEX
  5
397
100
AcDbEntity
  8
L1_120
  6
CONTINUOUS
 62
         7
100
AcDbVertex
100
AcDb2dVertex
 10
1690.352904986
 20
-260.1609896706
 30
0.0
 70
         1
  0
VERTEX
  5
399
100
AcDbEntity
  8
L1_120
  6
CONTINUOUS
 62
         7
100
AcDbVertex
100
AcDb2dVertex
 10
1690.1766824612
 20
-260.180382762
 30
0.0
 70
         1
  0
VERTEX
  5
39B
100
AcDbEntity
  8
L1_120
  6
CONTINUOUS
 62
         7
100
AcDbVertex
100
AcDb2dVertex
 10
1689.9812759067
 20
-260.2225360116
 30
0.0
 70
         1
  0
VERTEX
  5
39D
100
AcDbEntity
  8
L1_120
  6
CONTINUOUS
 62
         7
100
AcDbVertex
100
AcDb2dVertex
 10
1689.8429366694
 20
-260.266611142
 30
0.0
 70
         1
  0
VERTEX
  5
39F
100
AcDbEntity
  8
L1_120
  6
CONTINUOUS
 62
         7
100
AcDbVertex
100
AcDb2dVertex
 10
1689.8429366694
 20
-260.266611142
 30
0.0
 70
         1
  0
VERTEX
  5
3A1
100
AcDbEntity
  8
L1_120
  6
CONTINUOUS
 62
         7
100
AcDbVertex
100
AcDb2dVertex
 10
1689.4920781368
 20
-260.4396509359
 30
0.0
 70
         1
  0
VERTEX
  5
3A3
100
AcDbEntity
  8
L1_120
  6
CONTINUOUS
 62
         7
100
AcDbVertex
100
AcDb2dVertex
 10
1689.3467928912
 20
-260.5419766672
 30
0.0
 70
         1
  0
VERTEX
  5
3A5
100
AcDbEntity
  8
L1_120
  6
CONTINUOUS
 62
         7
100
AcDbVertex
100
AcDb2dVertex
 10
1689.2065385162
 20
-260.6620570552
 30
0.0
 70
         1
  0
VERTEX
  5
3A7
100
AcDbEntity
  8
L1_120
  6
CONTINUOUS
 62
         7
100
AcDbVertex
100
AcDb2dVertex
 10
1689.0729697911
 20
-260.8000299542
 30
0.0
 70
         1
  0
VERTEX
  5
3A9
100
AcDbEntity
  8
L1_120
  6
CONTINUOUS
 62
         7
100
AcDbVertex
100
AcDb2dVertex
 10
1688.9477488305
 20
-260.9556955352
 30
0.0
 70
         1
  0
VERTEX
  5
3AB
100
AcDbEntity
  8
L1_120
  6
CONTINUOUS
 62
         7
100
AcDbVertex
100
AcDb2dVertex
 10
1688.832491051
 20
-261.1284898593
 30
0.0
 70
         1
  0
VERTEX
  5
3AD
100
AcDbEntity
  8
L1_120
  6
CONTINUOUS
 62
         7
100
AcDbVertex
100
AcDb2dVertex
 10
1688.7287076166
 20
-261.317473759
 30
0.0
 70
         1
  0
VERTEX
  5
3AF
100
AcDbEntity
  8
L1_120
  6
CONTINUOUS
 62
         7
100
AcDbVertex
100
AcDb2dVertex
 10
1688.6377480029
 20
-261.5213395744
 30
0.0
 70
         1
  0
VERTEX
  5
3B1
100
AcDbEntity
  8
L1_120
  6
CONTINUOUS
 62
         7
100
AcDbVertex
100
AcDb2dVertex
 10
1688.5607467421
 20
-261.7384369171
 30
0.0
 70
         1
  0
VERTEX
  5
3B3
100
AcDbEntity
  8
L1_120
  6
CONTINUOUS
 62
         7
100
AcDbVertex
100
AcDb2dVertex
 10
1688.4985783904
 20
-261.9668169559
 30
0.0
 70
         1
  0
VERTEX
  5
3B5
100
AcDbEntity
  8
L1_120
  6
CONTINUOUS
 62
         7
100
AcDbVertex
100
AcDb2dVertex
 10
1688.4518242537
 20
-262.2042929461
 30
0.0
 70
         1
  0
VERTEX
  5
3B7
100
AcDbEntity
  8
L1_120
  6
CONTINUOUS
 62
         7
100
AcDbVertex
100
AcDb2dVertex
 10
1688.4137518403
 20
-262.5328052517
 30
0.0
 70
         1
  0
VERTEX
  5
3B9
100
AcDbEntity
  8
L1_120
  6
CONTINUOUS
 62
         7
100
AcDbVertex
100
AcDb2dVertex
 10
1688.4035927108
 20
-262.867562381
 30
0.0
 70
         1
  0
VERTEX
  5
3BB
100
AcDbEntity
  8
L1_120
  6
CONTINUOUS
 62
         7
100
AcDbVertex
100
AcDb2dVertex
 10
1688.4201607414
 20
-263.2027745082
 30
0.0
 70
         1
  0
VERTEX
  5
3BD
100
AcDbEntity
  8
L1_120
  6
CONTINUOUS
 62
         7
100
AcDbVertex
100
AcDb2dVertex
 10
1688.46145679
 20
-263.5330456158
 30
0.0
 70
         1
  0
VERTEX
  5
3BF
100
AcDbEntity
  8
L1_120
  6
CONTINUOUS
 62
         7
100
AcDbVertex
100
AcDb2dVertex
 10
1688.5248578679
 20
-263.8536263403
 30
0.0
 70
         1
  0
VERTEX
  5
3C1
100
AcDbEntity
  8
L1_120
  6
CONTINUOUS
 62
         7
100
AcDbVertex
100
AcDb2dVertex
 10
1688.6073304581
 20
-264.1605830419
 30
0.0
 70
         1
  0
VERTEX
  5
3C3
100
AcDbEntity
  8
L1_120
  6
CONTINUOUS
 62
         7
100
AcDbVertex
100
AcDb2dVertex
 10
1688.742440926
 20
-264.5462464898
 30
0.0
 70
         1
  0
VERTEX
  5
3C5
100
AcDbEntity
  8
L1_120
  6
CONTINUOUS
 62
         7
100
AcDbVertex
100
AcDb2dVertex
 10
1688.8983312888
 20
-264.897127198
 30
0.0
 70
         1
  0
VERTEX
  5
3C7
100
AcDbEntity
  8
L1_120
  6
CONTINUOUS
 62
         7
100
AcDbVertex
100
AcDb2dVertex
 10
1689.06778283
 20
-265.2110015319
 30
0.0
 70
         1
  0
VERTEX
  5
3C9
100
AcDbEntity
  8
L1_120
  6
CONTINUOUS
 62
         7
100
AcDbVertex
100
AcDb2dVertex
 10
1689.2445391462
 20
-265.4877612812
 30
0.0
 70
         1
  0
VERTEX
  5
3CB
100
AcDbEntity
  8
L1_120
  6
CONTINUOUS
 62
         7
100
AcDbVertex
100
AcDb2dVertex
 10
1689.4234773378
 20
-265.7288498272
 30
0.0
 70
         1
  0
VERTEX
  5
3CD
100
AcDbEntity
  8
L1_120
  6
CONTINUOUS
 62
         7
100
AcDbVertex
100
AcDb2dVertex
 10
1689.6006154168
 20
-265.9367300001
 30
0.0
 70
         1
  0
VERTEX
  5
3CF
100
AcDbEntity
  8
L1_120
  6
CONTINUOUS
 62
         7
100
AcDbVertex
100
AcDb2dVertex
 10
1689.8312739757
 20
-266.1695929752
 30
0.0
 70
         1
  0
VERTEX
  5
3D1
100
AcDbEntity
  8
L1_120
  6
CONTINUOUS
 62
         7
100
AcDbVertex
100
AcDb2dVertex
 10
1690.0487529958
 20
-266.3557331266
 30
0.0
 70
         1
  0
VERTEX
  5
3D3
100
AcDbEntity
  8
L1_120
  6
CONTINUOUS
 62
         7
100
AcDbVertex
100
AcDb2dVertex
 10
1690.2505644859
 20
-266.5029264078
 30
0.0
 70
         1
  0
VERTEX
  5
3D5
100
AcDbEntity
  8
L1_120
  6
CONTINUOUS
 62
         7
100
AcDbVertex
100
AcDb2dVertex
 10
1690.4969067324
 20
-266.6523391992
 30
0.0
 70
         1
  0
VERTEX
  5
3D7
100
AcDbEntity
  8
L1_120
  6
CONTINUOUS
 62
         7
100
AcDbVertex
100
AcDb2dVertex
 10
1690.7134555638
 20
-266.7580216283
 30
0.0
 70
         1
  0
VERTEX
  5
3D9
100
AcDbEntity
  8
L1_120
  6
CONTINUOUS
 62
         7
100
AcDbVertex
100
AcDb2dVertex
 10
1690.9023769298
 20
-266.8314526312
 30
0.0
 70
         1
  0
VERTEX
  5
3DB
100
AcDbEntity
  8
L1_120
  6
CONTINUOUS
 62
         7
100
AcDbVertex
100
AcDb2dVertex
 10
1691.1199327845
 20
-266.8947991512
 30
0.0
 70
         1
  0
VERTEX
  5
3DD
100
AcDbEntity
  8
L1_120
  6
CONTINUOUS
 62
         7
100
AcDbVertex
100
AcDb2dVertex
 10
1691.3571623097
 20
-266.9380325964
 30
0.0
 70
         1
  0
VERTEX
  5
3DF
100
AcDbEntity
  8
L1_120
  6
CONTINUOUS
 62
         7
100
AcDbVertex
100
AcDb2dVertex
 10
1691.5399273546
 20
-266.9526273154
 30
0.0
 70
         1
  0
VERTEX
  5
3E1
100
AcDbEntity
  8
L1_120
  6
CONTINUOUS
 62
         7
100
AcDbVertex
100
AcDb2dVertex
 10
1691.727109356
 20
-266.9500809588
 30
0.0
 70
         1
  0
VERTEX
  5
3E3
100
AcDbEntity
  8
L1_120
  6
CONTINUOUS
 62
         7
100
AcDbVertex
100
AcDb2dVertex
 10
1691.9033318808
 20
-266.9306878674
 30
0.0
 70
         1
  0
VERTEX
  5
3E5
100
AcDbEntity
  8
L1_120
  6
CONTINUOUS
 62
         7
100
AcDbVertex
100
AcDb2dVertex
 10
1692.0987384353
 20
-266.8885346178
 30
0.0
 70
         1
  0
VERTEX
  5
3E7
100
AcDbEntity
  8
L1_120
  6
CONTINUOUS
 62
         7
100
AcDbVertex
100
AcDb2dVertex
 10
1692.2370776726
 20
-266.8444594875
 30
0.0
 70
         1
  0
SEQEND
  5
3E9
100
AcDbEntity
  8
L1_120
  6
CONTINUOUS
 62
         7
  0
LINE
  5
3EA
100
AcDbEntity
  8
L1_120
  6
CENTER
 62
         1
100
AcDbLine
 10
1686.3415440671
 20
-265.2656360314
 30
0.0
 11
1695.7384702749
 21
-261.8454345981
 31
0.0
  0
POLYLINE
  5
3EC
100
AcDbEntity
  8
L1_120
  6
CONTINUOUS
 62
         7
100
AcDb2dPolyline
 66
         1
 10
0.0
 20
0.0
 30
0.0
 70
         2
  0
VERTEX
  5
3EE
100
AcDbEntity
  8
L1_120
  6
CONTINUOUS
 62
         7
100
AcDbVertex
100
AcDb2dVertex
 10
1664.1227919584
 20
-189.8146799293
 30
0.0
 70
         1
  0
VERTEX
  5
3F0
100
AcDbEntity
  8
L1_120
  6
CONTINUOUS
 62
         7
100
AcDbVertex
100
AcDb2dVertex
 10
1664.473650491
 20
-189.6416401355
 30
0.0
 70
         1
  0
VERTEX
  5
3F2
100
AcDbEntity
  8
L1_120
  6
CONTINUOUS
 62
         7
100
AcDbVertex
100
AcDb2dVertex
 10
1664.6189357366
 20
-189.5393144041
 30
0.0
 70
         1
  0
VERTEX
  5
3F4
100
AcDbEntity
  8
L1_120
  6
CONTINUOUS
 62
         7
100
AcDbVertex
100
AcDb2dVertex
 10
1664.7591901116
 20
-189.4192340162
 30
0.0
 70
         1
  0
VERTEX
  5
3F6
100
AcDbEntity
  8
L1_120
  6
CONTINUOUS
 62
         7
100
AcDbVertex
100
AcDb2dVertex
 10
1664.8927588367
 20
-189.2812611171
 30
0.0
 70
         1
  0
VERTEX
  5
3F8
100
AcDbEntity
  8
L1_120
  6
CONTINUOUS
 62
         7
100
AcDbVertex
100
AcDb2dVertex
 10
1665.0179797973
 20
-189.1255955361
 30
0.0
 70
         1
  0
VERTEX
  5
3FA
100
AcDbEntity
  8
L1_120
  6
CONTINUOUS
 62
         7
100
AcDbVertex
100
AcDb2dVertex
 10
1665.1332375768
 20
-188.9528012121
 30
0.0
 70
         1
  0
VERTEX
  5
3FC
100
AcDbEntity
  8
L1_120
  6
CONTINUOUS
 62
         7
100
AcDbVertex
100
AcDb2dVertex
 10
1665.2370210112
 20
-188.7638173123
 30
0.0
 70
         1
  0
VERTEX
  5
3FE
100
AcDbEntity
  8
L1_120
  6
CONTINUOUS
 62
         7
100
AcDbVertex
100
AcDb2dVertex
 10
1665.3279806248
 20
-188.5599514969
 30
0.0
 70
         1
  0
VERTEX
  5
400
100
AcDbEntity
  8
L1_120
  6
CONTINUOUS
 62
         7
100
AcDbVertex
100
AcDb2dVertex
 10
1665.4049818856
 20
-188.3428541542
 30
0.0
 70
         1
  0
VERTEX
  5
402
100
AcDbEntity
  8
L1_120
  6
CONTINUOUS
 62
         7
100
AcDbVertex
100
AcDb2dVertex
 10
1665.4671502373
 20
-188.1144741154
 30
0.0
 70
         1
  0
VERTEX
  5
404
100
AcDbEntity
  8
L1_120
  6
CONTINUOUS
 62
         7
100
AcDbVertex
100
AcDb2dVertex
 10
1665.513904374
 20
-187.8769981252
 30
0.0
 70
         1
  0
VERTEX
  5
406
100
AcDbEntity
  8
L1_120
  6
CONTINUOUS
 62
         7
100
AcDbVertex
100
AcDb2dVertex
 10
1665.5519767874
 20
-187.5484858196
 30
0.0
 70
         1
  0
VERTEX
  5
408
100
AcDbEntity
  8
L1_120
  6
CONTINUOUS
 62
         7
100
AcDbVertex
100
AcDb2dVertex
 10
1665.5621359169
 20
-187.2137286903
 30
0.0
 70
         1
  0
VERTEX
  5
40A
100
AcDbEntity
  8
L1_120
  6
CONTINUOUS
 62
         7
100
AcDbVertex
100
AcDb2dVertex
 10
1665.5455678863
 20
-186.8785165631
 30
0.0
 70
         1
  0
VERTEX
  5
40C
100
AcDbEntity
  8
L1_120
  6
CONTINUOUS
 62
         7
100
AcDbVertex
100
AcDb2dVertex
 10
1665.5042718377
 20
-186.5482454555
 30
0.0
 70
         1
  0
VERTEX
  5
40E
100
AcDbEntity
  8
L1_120
  6
CONTINUOUS
 62
         7
100
AcDbVertex
100
AcDb2dVertex
 10
1665.4408707598
 20
-186.227664731
 30
0.0
 70
         1
  0
VERTEX
  5
410
100
AcDbEntity
  8
L1_120
  6
CONTINUOUS
 62
         7
100
AcDbVertex
100
AcDb2dVertex
 10
1665.3583981697
 20
-185.9207080295
 30
0.0
 70
         1
  0
VERTEX
  5
412
100
AcDbEntity
  8
L1_120
  6
CONTINUOUS
 62
         7
100
AcDbVertex
100
AcDb2dVertex
 10
1665.2232877017
 20
-185.5350445815
 30
0.0
 70
         1
  0
VERTEX
  5
414
100
AcDbEntity
  8
L1_120
  6
CONTINUOUS
 62
         7
100
AcDbVertex
100
AcDb2dVertex
 10
1665.067397339
 20
-185.1841638733
 30
0.0
 70
         1
  0
VERTEX
  5
416
100
AcDbEntity
  8
L1_120
  6
CONTINUOUS
 62
         7
100
AcDbVertex
100
AcDb2dVertex
 10
1664.8979457978
 20
-184.8702895394
 30
0.0
 70
         1
  0
VERTEX
  5
418
100
AcDbEntity
  8
L1_120
  6
CONTINUOUS
 62
         7
100
AcDbVertex
100
AcDb2dVertex
 10
1664.7211894815
 20
-184.5935297902
 30
0.0
 70
         1
  0
VERTEX
  5
41A
100
AcDbEntity
  8
L1_120
  6
CONTINUOUS
 62
         7
100
AcDbVertex
100
AcDb2dVertex
 10
1664.5422512899
 20
-184.3524412441
 30
0.0
 70
         1
  0
VERTEX
  5
41C
100
AcDbEntity
  8
L1_120
  6
CONTINUOUS
 62
         7
100
AcDbVertex
100
AcDb2dVertex
 10
1664.3651132109
 20
-184.1445610712
 30
0.0
 70
         1
  0
VERTEX
  5
41E
100
AcDbEntity
  8
L1_120
  6
CONTINUOUS
 62
         7
100
AcDbVertex
100
AcDb2dVertex
 10
1664.1344546521
 20
-183.9116980961
 30
0.0
 70
         1
  0
VERTEX
  5
420
100
AcDbEntity
  8
L1_120
  6
CONTINUOUS
 62
         7
100
AcDbVertex
100
AcDb2dVertex
 10
1663.916975632
 20
-183.7255579447
 30
0.0
 70
         1
  0
VERTEX
  5
422
100
AcDbEntity
  8
L1_120
  6
CONTINUOUS
 62
         7
100
AcDbVertex
100
AcDb2dVertex
 10
1663.7151641418
 20
-183.5783646635
 30
0.0
 70
         1
  0
VERTEX
  5
424
100
AcDbEntity
  8
L1_120
  6
CONTINUOUS
 62
         7
100
AcDbVertex
100
AcDb2dVertex
 10
1663.4688218953
 20
-183.4289518721
 30
0.0
 70
         1
  0
VERTEX
  5
426
100
AcDbEntity
  8
L1_120
  6
CONTINUOUS
 62
         7
100
AcDbVertex
100
AcDb2dVertex
 10
1663.2522730639
 20
-183.323269443
 30
0.0
 70
         1
  0
VERTEX
  5
428
100
AcDbEntity
  8
L1_120
  6
CONTINUOUS
 62
         7
100
AcDbVertex
100
AcDb2dVertex
 10
1663.0633516979
 20
-183.2498384401
 30
0.0
 70
         1
  0
VERTEX
  5
42A
100
AcDbEntity
  8
L1_120
  6
CONTINUOUS
 62
         7
100
AcDbVertex
100
AcDb2dVertex
 10
1662.8457958432
 20
-183.1864919201
 30
0.0
 70
         1
  0
VERTEX
  5
42C
100
AcDbEntity
  8
L1_120
  6
CONTINUOUS
 62
         7
100
AcDbVertex
100
AcDb2dVertex
 10
1662.608566318
 20
-183.1432584749
 30
0.0
 70
         1
  0
VERTEX
  5
42E
100
AcDbEntity
  8
L1_120
  6
CONTINUOUS
 62
         7
100
AcDbVertex
100
AcDb2dVertex
 10
1662.4258012731
 20
-183.1286637559
 30
0.0
 70
         1
  0
VERTEX
  5
430
100
AcDbEntity
  8
L1_120
  6
CONTINUOUS
 62
         7
100
AcDbVertex
100
AcDb2dVertex
 10
1662.2386192717
 20
-183.1312101125
 30
0.0
 70
         1
  0
VERTEX
  5
432
100
AcDbEntity
  8
L1_120
  6
CONTINUOUS
 62
         7
100
AcDbVertex
100
AcDb2dVertex
 10
1662.0623967469
 20
-183.1506032039
 30
0.0
 70
         1
  0
VERTEX
  5
434
100
AcDbEntity
  8
L1_120
  6
CONTINUOUS
 62
         7
100
AcDbVertex
100
AcDb2dVertex
 10
1661.8669901924
 20
-183.1927564535
 30
0.0
 70
         1
  0
VERTEX
  5
436
100
AcDbEntity
  8
L1_120
  6
CONTINUOUS
 62
         7
100
AcDbVertex
100
AcDb2dVertex
 10
1661.7286509551
 20
-183.2368315838
 30
0.0
 70
         1
  0
VERTEX
  5
438
100
AcDbEntity
  8
L1_120
  6
CONTINUOUS
 62
         7
100
AcDbVertex
100
AcDb2dVertex
 10
1661.7286509551
 20
-183.2368315838
 30
0.0
 70
         1
  0
VERTEX
  5
43A
100
AcDbEntity
  8
L1_120
  6
CONTINUOUS
 62
         7
100
AcDbVertex
100
AcDb2dVertex
 10
1661.3777924225
 20
-183.4098713777
 30
0.0
 70
         1
  0
VERTEX
  5
43C
100
AcDbEntity
  8
L1_120
  6
CONTINUOUS
 62
         7
100
AcDbVertex
100
AcDb2dVertex
 10
1661.2325071769
 20
-183.5121971091
 30
0.0
 70
         1
  0
VERTEX
  5
43E
100
AcDbEntity
  8
L1_120
  6
CONTINUOUS
 62
         7
100
AcDbVertex
100
AcDb2dVertex
 10
1661.0922528019
 20
-183.632277497
 30
0.0
 70
         1
  0
VERTEX
  5
440
100
AcDbEntity
  8
L1_120
  6
CONTINUOUS
 62
         7
100
AcDbVertex
100
AcDb2dVertex
 10
1660.9586840768
 20
-183.7702503961
 30
0.0
 70
         1
  0
VERTEX
  5
442
100
AcDbEntity
  8
L1_120
  6
CONTINUOUS
 62
         7
100
AcDbVertex
100
AcDb2dVertex
 10
1660.8334631162
 20
-183.925915977
 30
0.0
 70
         1
  0
VERTEX
  5
444
100
AcDbEntity
  8
L1_120
  6
CONTINUOUS
 62
         7
100
AcDbVertex
100
AcDb2dVertex
 10
1660.7182053367
 20
-184.0987103011
 30
0.0
 70
         1
  0
VERTEX
  5
446
100
AcDbEntity
  8
L1_120
  6
CONTINUOUS
 62
         7
100
AcDbVertex
100
AcDb2dVertex
 10
1660.6144219023
 20
-184.2876942009
 30
0.0
 70
         1
  0
VERTEX
  5
448
100
AcDbEntity
  8
L1_120
  6
CONTINUOUS
 62
         7
100
AcDbVertex
100
AcDb2dVertex
 10
1660.5234622886
 20
-184.4915600162
 30
0.0
 70
         1
  0
VERTEX
  5
44A
100
AcDbEntity
  8
L1_120
  6
CONTINUOUS
 62
         7
100
AcDbVertex
100
AcDb2dVertex
 10
1660.4464610278
 20
-184.708657359
 30
0.0
 70
         1
  0
VERTEX
  5
44C
100
AcDbEntity
  8
L1_120
  6
CONTINUOUS
 62
         7
100
AcDbVertex
100
AcDb2dVertex
 10
1660.3842926761
 20
-184.9370373977
 30
0.0
 70
         1
  0
VERTEX
  5
44E
100
AcDbEntity
  8
L1_120
  6
CONTINUOUS
 62
         7
100
AcDbVertex
100
AcDb2dVertex
 10
1660.3375385394
 20
-185.1745133879
 30
0.0
 70
         1
  0
VERTEX
  5
450
100
AcDbEntity
  8
L1_120
  6
CONTINUOUS
 62
         7
100
AcDbVertex
100
AcDb2dVertex
 10
1660.299466126
 20
-185.5030256935
 30
0.0
 70
         1
  0
VERTEX
  5
452
100
AcDbEntity
  8
L1_120
  6
CONTINUOUS
 62
         7
100
AcDbVertex
100
AcDb2dVertex
 10
1660.2893069965
 20
-185.8377828229
 30
0.0
 70
         1
  0
VERTEX
  5
454
100
AcDbEntity
  8
L1_120
  6
CONTINUOUS
 62
         7
100
AcDbVertex
100
AcDb2dVertex
 10
1660.3058750271
 20
-186.1729949501
 30
0.0
 70
         1
  0
VERTEX
  5
456
100
AcDbEntity
  8
L1_120
  6
CONTINUOUS
 62
         7
100
AcDbVertex
100
AcDb2dVertex
 10
1660.3471710757
 20
-186.5032660577
 30
0.0
 70
         1
  0
VERTEX
  5
458
100
AcDbEntity
  8
L1_120
  6
CONTINUOUS
 62
         7
100
AcDbVertex
100
AcDb2dVertex
 10
1660.4105721536
 20
-186.8238467822
 30
0.0
 70
         1
  0
VERTEX
  5
45A
100
AcDbEntity
  8
L1_120
  6
CONTINUOUS
 62
         7
100
AcDbVertex
100
AcDb2dVertex
 10
1660.4930447438
 20
-187.1308034837
 30
0.0
 70
         1
  0
VERTEX
  5
45C
100
AcDbEntity
  8
L1_120
  6
CONTINUOUS
 62
         7
100
AcDbVertex
100
AcDb2dVertex
 10
1660.6281552117
 20
-187.5164669316
 30
0.0
 70
         1
  0
VERTEX
  5
45E
100
AcDbEntity
  8
L1_120
  6
CONTINUOUS
 62
         7
100
AcDbVertex
100
AcDb2dVertex
 10
1660.7840455745
 20
-187.8673476399
 30
0.0
 70
         1
  0
VERTEX
  5
460
100
AcDbEntity
  8
L1_120
  6
CONTINUOUS
 62
         7
100
AcDbVertex
100
AcDb2dVertex
 10
1660.9534971157
 20
-188.1812219738
 30
0.0
 70
         1
  0
VERTEX
  5
462
100
AcDbEntity
  8
L1_120
  6
CONTINUOUS
 62
         7
100
AcDbVertex
100
AcDb2dVertex
 10
1661.130253432
 20
-188.457981723
 30
0.0
 70
         1
  0
VERTEX
  5
464
100
AcDbEntity
  8
L1_120
  6
CONTINUOUS
 62
         7
100
AcDbVertex
100
AcDb2dVertex
 10
1661.3091916235
 20
-188.6990702691
 30
0.0
 70
         1
  0
VERTEX
  5
466
100
AcDbEntity
  8
L1_120
  6
CONTINUOUS
 62
         7
100
AcDbVertex
100
AcDb2dVertex
 10
1661.4863297026
 20
-188.906950442
 30
0.0
 70
         1
  0
VERTEX
  5
468
100
AcDbEntity
  8
L1_120
  6
CONTINUOUS
 62
         7
100
AcDbVertex
100
AcDb2dVertex
 10
1661.7169882614
 20
-189.1398134171
 30
0.0
 70
         1
  0
VERTEX
  5
46A
100
AcDbEntity
  8
L1_120
  6
CONTINUOUS
 62
         7
100
AcDbVertex
100
AcDb2dVertex
 10
1661.9344672815
 20
-189.3259535684
 30
0.0
 70
         1
  0
VERTEX
  5
46C
100
AcDbEntity
  8
L1_120
  6
CONTINUOUS
 62
         7
100
AcDbVertex
100
AcDb2dVertex
 10
1662.1362787717
 20
-189.4731468497
 30
0.0
 70
         1
  0
VERTEX
  5
46E
100
AcDbEntity
  8
L1_120
  6
CONTINUOUS
 62
         7
100
AcDbVertex
100
AcDb2dVertex
 10
1662.3826210181
 20
-189.6225596411
 30
0.0
 70
         1
  0
VERTEX
  5
470
100
AcDbEntity
  8
L1_120
  6
CONTINUOUS
 62
         7
100
AcDbVertex
100
AcDb2dVertex
 10
1662.5991698495
 20
-189.7282420702
 30
0.0
 70
         1
  0
VERTEX
  5
472
100
AcDbEntity
  8
L1_120
  6
CONTINUOUS
 62
         7
100
AcDbVertex
100
AcDb2dVertex
 10
1662.7880912156
 20
-189.801673073
 30
0.0
 70
         1
  0
VERTEX
  5
474
100
AcDbEntity
  8
L1_120
  6
CONTINUOUS
 62
         7
100
AcDbVertex
100
AcDb2dVertex
 10
1663.0056470703
 20
-189.8650195931
 30
0.0
 70
         1
  0
VERTEX
  5
476
100
AcDbEntity
  8
L1_120
  6
CONTINUOUS
 62
         7
100
AcDbVertex
100
AcDb2dVertex
 10
1663.2428765954
 20
-189.9082530383
 30
0.0
 70
         1
  0
VERTEX
  5
478
100
AcDbEntity
  8
L1_120
  6
CONTINUOUS
 62
         7
100
AcDbVertex
100
AcDb2dVertex
 10
1663.4256416403
 20
-189.9228477572
 30
0.0
 70
         1
  0
VERTEX
  5
47A
100
AcDbEntity
  8
L1_120
  6
CONTINUOUS
 62
         7
100
AcDbVertex
100
AcDb2dVertex
 10
1663.6128236418
 20
-189.9203014007
 30
0.0
 70
         1
  0
VERTEX
  5
47C
100
AcDbEntity
  8
L1_120
  6
CONTINUOUS
 62
         7
100
AcDbVertex
100
AcDb2dVertex
 10
1663.7890461665
 20
-189.9009083093
 30
0.0
 70
         1
  0
VERTEX
  5
47E
100
AcDbEntity
  8
L1_120
  6
CONTINUOUS
 62
         7
100
AcDbVertex
100
AcDb2dVertex
 10
1663.9844527211
 20
-189.8587550597
 30
0.0
 70
         1
  0
VERTEX
  5
480
100
AcDbEntity
  8
L1_120
  6
CONTINUOUS
 62
         7
100
AcDbVertex
100
AcDb2dVertex
 10
1664.1227919584
 20
-189.8146799293
 30
0.0
 70
         1
  0
SEQEND
  5
482
100
AcDbEntity
  8
L1_120
  6
CONTINUOUS
 62
         7
  0
LINE
  5
483
100
AcDbEntity
  8
L1_120
  6
CENTER
 62
         1
100
AcDbLine
 10
1667.6241845607
 20
-184.81565504
 30
0.0
 11
1658.2272583528
 21
-188.2358564732
 31
0.0
  0
LINE
  5
484
100
AcDbEntity
  8
L1_120
  6
CENTER
 62
         1
100
AcDbLine
 10
1658.7053532228
 20
-174.8235965292
 30
0.0
 11
1698.0684166598
 21
-282.9727244828
 31
0.0
  0
LINE
  5
485
100
AcDbEntity
  8
L1_120
  6
DASHED
 62
         2
100
AcDbLine
 10
1678.943061501
 20
-235.2505203053
 30
0.0
 11
1689.5855560538
 21
-264.4905337756
 31
0.0
  0
LINE
  5
486
100
AcDbEntity
  8
L1_120
  6
DASHED
 62
         2
100
AcDbLine
 10
1690.6931482384
 20
-268.5569498331
 30
0.0
 11
1689.2566636365
 21
-264.6102408258
 31
0.0
  0
LINE
  5
487
100
AcDbEntity
  8
L1_120
  6
DASHED
 62
         2
100
AcDbLine
 10
1693.0154341196
 20
-263.2421602525
 30
0.0
 11
1689.2566636365
 21
-264.6102408258
 31
0.0
  0
LINE
  5
488
100
AcDbEntity
  8
L1_120
  6
DASHED
 62
         2
100
AcDbLine
 10
1694.4519187216
 20
-267.1888692598
 30
0.0
 11
1693.0154341196
 21
-263.2421602525
 31
0.0
  0
LINE
  5
489
100
AcDbEntity
  8
L1_120
  6
DASHED
 62
         2
100
AcDbLine
 10
1682.0440471496
 20
-234.1218538323
 30
0.0
 11
1692.6865417024
 21
-263.3618673027
 31
0.0
  0
LINE
  5
48A
100
AcDbEntity
  8
L1_120
  6
DASHED
 62
         2
100
AcDbLine
 10
1659.5138099061
 20
-182.8924218115
 30
0.0
 11
1660.9502945081
 21
-186.8391308188
 31
0.0
  0
LINE
  5
48B
100
AcDbEntity
  8
L1_120
  6
DASHED
 62
         2
100
AcDbLine
 10
1661.2791869254
 20
-186.7194237687
 30
0.0
 11
1671.9216814781
 21
-215.959437239
 31
0.0
  0
LINE
  5
48C
100
AcDbEntity
  8
L1_120
  6
DASHED
 62
         2
100
AcDbLine
 10
1663.2725803893
 20
-181.5243412382
 30
0.0
 11
1664.7090649912
 21
-185.4710502455
 31
0.0
  0
LINE
  5
48D
100
AcDbEntity
  8
L1_120
  6
DASHED
 62
         2
100
AcDbLine
 10
1660.9502945081
 20
-186.8391308188
 30
0.0
 11
1664.7090649912
 21
-185.4710502455
 31
0.0
  0
LINE
  5
48E
100
AcDbEntity
  8
L1_120
  6
DASHED
 62
         2
100
AcDbLine
 10
1664.380172574
 20
-185.5907572957
 30
0.0
 11
1675.0226671267
 21
-214.830770766
 31
0.0
  0
LINE
  5
48F
100
AcDbEntity
  8
L1_120
  6
DASHED
 62
         2
100
AcDbLine
 10
1654.8419246401
 20
-246.2299144285
 30
0.0
 11
1654.2707742014
 21
-244.0983519723
 31
0.0
  0
LINE
  5
490
100
AcDbEntity
  8
L1_120
  6
DASHED
 62
         2
100
AcDbLine
 10
1652.2707742014
 20
-243.165736656
 30
0.0
 11
1654.2707742014
 21
-244.0983519723
 31
0.0
  0
LINE
  5
491
100
AcDbEntity
  8
L1_120
  6
DASHED
 62
         2
100
AcDbLine
 10
1654.8419246401
 20
-246.2299144285
 30
0.0
 11
1652.2707742014
 21
-243.165736656
 31
0.0
  0
LINE
  5
492
100
AcDbEntity
  8
L1_120
  6
DASHED
 62
         2
100
AcDbLine
 10
1650.1121725234
 20
-239.7774107354
 30
0.0
 11
1650.1121725234
 21
-237.5706548974
 31
0.0
  0
LINE
  5
493
100
AcDbEntity
  8
L1_120
  6
DASHED
 62
         2
100
AcDbLine
 10
1648.4216994765
 20
-236.1521795872
 30
0.0
 11
1650.1121725234
 21
-237.5706548974
 31
0.0
  0
LINE
  5
494
100
AcDbEntity
  8
L1_120
  6
DASHED
 62
         2
100
AcDbLine
 10
1650.1121725234
 20
-239.7774107354
 30
0.0
 11
1648.4216994765
 21
-236.1521795872
 31
0.0
  0
LINE
  5
495
100
AcDbEntity
  8
L1_120
  6
DASHED
 62
         2
100
AcDbLine
 10
1643.3512579934
 20
-255.8717285738
 30
0.0
 11
1654.8419246401
 21
-246.2299144285
 31
0.0
  0
LINE
  5
496
100
AcDbEntity
  8
L1_120
  6
DASHED
 62
         2
100
AcDbLine
 10
1640.7801075546
 20
-252.8075508013
 30
0.0
 11
1652.2707742014
 21
-243.165736656
 31
0.0
  0
LINE
  5
497
100
AcDbEntity
  8
L1_120
  6
DASHED
 62
         2
100
AcDbLine
 10
1636.5175557179
 20
-246.1166846615
 30
0.0
 11
1650.1121725234
 21
-239.7774107354
 31
0.0
  0
LINE
  5
498
100
AcDbEntity
  8
L1_120
  6
DASHED
 62
         2
100
AcDbLine
 10
1634.8270826709
 20
-242.4914535133
 30
0.0
 11
1648.4216994765
 21
-236.1521795872
 31
0.0
  0
LINE
  5
499
100
AcDbEntity
  8
L1_120
  6
DASHED
 62
         2
100
AcDbLine
 10
1654.8419246401
 20
-203.8513766429
 30
0.0
 11
1654.2707742014
 21
-205.982939099
 31
0.0
  0
LINE
  5
49A
100
AcDbEntity
  8
L1_120
  6
DASHED
 62
         2
100
AcDbLine
 10
1654.8419246401
 20
-203.8513766428
 30
0.0
 11
1652.2707742014
 21
-206.9155544153
 31
0.0
  0
LINE
  5
49B
100
AcDbEntity
  8
L1_120
  6
DASHED
 62
         2
100
AcDbLine
 10
1652.2707742014
 20
-206.9155544153
 30
0.0
 11
1654.2707742014
 21
-205.982939099
 31
0.0
  0
LINE
  5
49C
100
AcDbEntity
  8
L1_120
  6
DASHED
 62
         2
100
AcDbLine
 10
1650.1121725234
 20
-210.3038803359
 30
0.0
 11
1650.1121725234
 21
-212.5106361739
 31
0.0
  0
LINE
  5
49D
100
AcDbEntity
  8
L1_120
  6
DASHED
 62
         2
100
AcDbLine
 10
1648.4216994765
 20
-213.9291114841
 30
0.0
 11
1650.1121725234
 21
-212.5106361739
 31
0.0
  0
LINE
  5
49E
100
AcDbEntity
  8
L1_120
  6
DASHED
 62
         2
100
AcDbLine
 10
1650.1121725234
 20
-210.3038803359
 30
0.0
 11
1648.4216994765
 21
-213.9291114841
 31
0.0
  0
LINE
  5
49F
100
AcDbEntity
  8
L1_120
  6
DASHED
 62
         2
100
AcDbLine
 10
1634.8270826709
 20
-207.589837558
 30
0.0
 11
1648.4216994765
 21
-213.9291114841
 31
0.0
  0
LINE
  5
4A0
100
AcDbEntity
  8
L1_120
  6
DASHED
 62
         2
100
AcDbLine
 10
1636.5175557179
 20
-203.9646064098
 30
0.0
 11
1650.1121725234
 21
-210.3038803359
 31
0.0
  0
LINE
  5
4A1
100
AcDbEntity
  8
L1_120
  6
DASHED
 62
         2
100
AcDbLine
 10
1640.7801075546
 20
-197.27374027
 30
0.0
 11
1652.2707742014
 21
-206.9155544153
 31
0.0
  0
LINE
  5
4A2
100
AcDbEntity
  8
L1_120
  6
DASHED
 62
         2
100
AcDbLine
 10
1643.3512579934
 20
-194.2095624976
 30
0.0
 11
1654.8419246401
 21
-203.8513766429
 31
0.0
  0
LINE
  5
4A3
100
AcDbEntity
  8
L1_120
  6
CENTER
 62
         1
100
AcDbLine
 10
1639.6381977118
 20
-256.3765415079
 30
0.0
 11
1676.9828643139
 21
-225.0406455357
 31
0.0
  0
LINE
  5
4A4
100
AcDbEntity
  8
L1_120
  6
CENTER
 62
         1
100
AcDbLine
 10
1632.8003596958
 20
-245.6432857955
 30
0.0
 11
1676.9828643139
 21
-225.0406455357
 31
0.0
  0
LINE
  5
4A5
100
AcDbEntity
  8
L1_120
  6
CENTER
 62
         1
100
AcDbLine
 10
1632.8003596958
 20
-204.4380052758
 30
0.0
 11
1676.9828643139
 21
-225.0406455357
 31
0.0
  0
LINE
  5
4A6
100
AcDbEntity
  8
L1_120
  6
CENTER
 62
         1
100
AcDbLine
 10
1639.6381977118
 20
-193.7047495634
 30
0.0
 11
1676.9828643139
 21
-225.0406455357
 31
0.0
  0
LINE
  5
4A7
100
AcDbEntity
  8
L1_120
  6
DASHED
 62
         2
100
AcDbLine
 10
1639.7828643139
 20
-220.0406455357
 30
0.0
 11
1639.7828643139
 21
-230.0406455357
 31
0.0
  0
LINE
  5
4A8
100
AcDbEntity
  8
L1_120
  6
DASHED
 62
         2
100
AcDbLine
 10
1639.7828643139
 20
-220.0406455357
 30
0.0
 11
1639.2828643139
 21
-219.5406455357
 31
0.0
  0
LINE
  5
4A9
100
AcDbEntity
  8
L1_120
  6
DASHED
 62
         2
100
AcDbLine
 10
1639.7828643139
 20
-230.0406455357
 30
0.0
 11
1639.2828643139
 21
-230.5406455357
 31
0.0
  0
LINE
  5
4AA
100
AcDbEntity
  8
L1_120
  6
DASHED
 62
         2
100
AcDbLine
 10
1639.4828643139
 20
-220.0406455357
 30
0.0
 11
1643.7328643139
 21
-220.0406455357
 31
0.0
  0
LINE
  5
4AB
100
AcDbEntity
  8
L1_120
  6
DASHED
 62
         2
100
AcDbLine
 10
1639.2828643139
 20
-230.2406455357
 30
0.0
 11
1639.4828643139
 21
-230.0406455357
 31
0.0
  0
LINE
  5
4AC
100
AcDbEntity
  8
L1_120
  6
DASHED
 62
         2
100
AcDbLine
 10
1639.2828643139
 20
-219.8406455357
 30
0.0
 11
1639.4828643139
 21
-220.0406455357
 31
0.0
  0
LINE
  5
4AD
100
AcDbEntity
  8
L1_120
  6
DASHED
 62
         2
100
AcDbLine
 10
1639.4828643139
 20
-220.0406455357
 30
0.0
 11
1639.4828643139
 21
-230.0406455357
 31
0.0
  0
ARC
  5
4AE
100
AcDbEntity
  8
L1_120
  6
DASHED
 62
         2
100
AcDbCircle
 10
1643.7328643139
 20
-229.8406455357
 30
0.0
 40
0.2
100
AcDbArc
 50
270.0
 51
360.0
  0
ARC
  5
4AF
100
AcDbEntity
  8
L1_120
  6
DASHED
 62
         2
100
AcDbCircle
 10
1643.7328643139
 20
-220.2406455357
 30
0.0
 40
0.2
100
AcDbArc
 50
0.0
 51
90.0
  0
LINE
  5
4B0
100
AcDbEntity
  8
L1_120
  6
DASHED
 62
         2
100
AcDbLine
 10
1643.9328643139
 20
-220.2406455357
 30
0.0
 11
1643.9328643139
 21
-229.8406455357
 31
0.0
  0
LINE
  5
4B1
100
AcDbEntity
  8
L1_120
  6
DASHED
 62
         2
100
AcDbLine
 10
1639.4828643139
 20
-230.0406455357
 30
0.0
 11
1643.7328643139
 21
-230.0406455357
 31
0.0
  0
ARC
  5
4B2
100
AcDbEntity
  8
L1_120
  6
DASHED
 62
         2
100
AcDbCircle
 10
1676.9828643139
 20
-225.0406455357
 30
0.0
 40
45.625
100
AcDbArc
 50
197.6716498685
 51
343.6416615206
  0
ARC
  5
4B3
100
AcDbEntity
  8
L1_120
  6
CONTINUOUS
 62
         7
100
AcDbCircle
 10
1676.9828643139
 20
-225.0406455357
 30
0.0
 40
48.75
100
AcDbArc
 50
16.5052120024
 51
163.4947879976
  0
ARC
  5
4B4
100
AcDbEntity
  8
L1_120
  6
DASHED
 62
         2
100
AcDbCircle
 10
1676.9828643139
 20
-225.0406455357
 30
0.0
 40
45.625
100
AcDbArc
 50
16.3583384794
 51
163.6416615206
  0
ARC
  5
4B5
100
AcDbEntity
  8
L1_120
  6
CONTINUOUS
 62
         7
100
AcDbCircle
 10
1676.9828643139
 20
-225.0406455357
 30
0.0
 40
48.75
100
AcDbArc
 50
196.5052120024
 51
343.4947879976
  0
LINE
  5
4B6
100
AcDbEntity
  8
L1_120
  6
CENTER
 62
         1
100
AcDbLine
 10
1622.2328643139
 20
-225.0406455357
 30
0.0
 11
1731.7328643139
 21
-225.0406455357
 31
0.0
  0
LINE
  5
4B7
100
AcDbEntity
  8
L1_120
  6
CENTER
 62
         1
100
AcDbLine
 10
1676.9828643139
 20
-279.7906455357
 30
0.0
 11
1676.9828643139
 21
-172.8760226608
 31
0.0
  0
LINE
  5
4B8
100
AcDbEntity
  8
L1_120
  6
CONTINUOUS
 62
         7
100
AcDbLine
 10
1712.4828643139
 20
-212.6906455357
 30
0.0
 11
1712.4828643139
 21
-237.3906455357
 31
0.0
  0
LINE
  5
4B9
100
AcDbEntity
  8
L1_120
  6
CONTINUOUS
 62
         7
100
AcDbLine
 10
1722.7240666946
 20
-212.1906455357
 30
0.0
 11
1712.9828643139
 21
-212.1906455357
 31
0.0
  0
LINE
  5
4BA
100
AcDbEntity
  8
L1_120
  6
CONTINUOUS
 62
         7
100
AcDbLine
 10
1723.7240666946
 20
-211.1906455357
 30
0.0
 11
1722.7240666946
 21
-212.1906455357
 31
0.0
  0
LINE
  5
4BB
100
AcDbEntity
  8
L1_120
  6
CONTINUOUS
 62
         7
100
AcDbLine
 10
1723.7240666946
 20
-238.8906455357
 30
0.0
 11
1722.7240666946
 21
-237.8906455357
 31
0.0
  0
LINE
  5
4BC
100
AcDbEntity
  8
L1_120
  6
CONTINUOUS
 62
         7
100
AcDbLine
 10
1722.7240666946
 20
-237.8906455357
 30
0.0
 11
1712.9828643139
 21
-237.8906455357
 31
0.0
  0
LINE
  5
4BD
100
AcDbEntity
  8
L1_120
  6
CONTINUOUS
 62
         7
100
AcDbLine
 10
1712.4828643139
 20
-212.6906455357
 30
0.0
 11
1712.9828643139
 21
-212.1906455357
 31
0.0
  0
LINE
  5
4BE
100
AcDbEntity
  8
L1_120
  6
CONTINUOUS
 62
         7
100
AcDbLine
 10
1712.4828643139
 20
-237.3906455357
 30
0.0
 11
1712.9828643139
 21
-237.8906455357
 31
0.0
  0
LINE
  5
4BF
100
AcDbEntity
  8
L1_120
  6
CONTINUOUS
 62
         7
100
AcDbLine
 10
1639.2828643139
 20
-237.3906455357
 30
0.0
 11
1638.7828643139
 21
-237.8906455357
 31
0.0
  0
LINE
  5
4C0
100
AcDbEntity
  8
L1_120
  6
CONTINUOUS
 62
         7
100
AcDbLine
 10
1638.7828643139
 20
-212.1906455357
 30
0.0
 11
1639.2828643139
 21
-212.6906455357
 31
0.0
  0
LINE
  5
4C1
100
AcDbEntity
  8
L1_120
  6
CONTINUOUS
 62
         7
100
AcDbLine
 10
1639.2828643139
 20
-212.6906455357
 30
0.0
 11
1639.2828643139
 21
-237.3906455357
 31
0.0
  0
LINE
  5
4C2
100
AcDbEntity
  8
L1_120
  6
CONTINUOUS
 62
         7
100
AcDbLine
 10
1630.2416619331
 20
-211.1906455357
 30
0.0
 11
1631.2416619331
 21
-212.1906455357
 31
0.0
  0
LINE
  5
4C3
100
AcDbEntity
  8
L1_120
  6
CONTINUOUS
 62
         7
100
AcDbLine
 10
1631.2416619331
 20
-212.1906455357
 30
0.0
 11
1638.7828643139
 21
-212.1906455357
 31
0.0
  0
LINE
  5
4C4
100
AcDbEntity
  8
L1_120
  6
CONTINUOUS
 62
         7
100
AcDbLine
 10
1630.2416619331
 20
-238.8906455357
 30
0.0
 11
1631.2416619331
 21
-237.8906455357
 31
0.0
  0
LINE
  5
4C5
100
AcDbEntity
  8
L1_120
  6
CONTINUOUS
 62
         7
100
AcDbLine
 10
1631.2416619331
 20
-237.8906455357
 30
0.0
 11
1638.7828643139
 21
-237.8906455357
 31
0.0
  0
CIRCLE
  5
4C6
100
AcDbEntity
  8
L1_120
  6
CONTINUOUS
 62
         7
100
AcDbCircle
 10
1676.9828643139
 20
-225.0406455357
 30
0.0
 40
16.002
  0
CIRCLE
  5
4C7
100
AcDbEntity
  8
L1_120
  6
CONTINUOUS
 62
         7
100
AcDbCircle
 10
1676.9828643139
 20
-225.0406455357
 30
0.0
 40
11.938
  0
CIRCLE
  5
4C8
100
AcDbEntity
  8
L1_120
  6
CONTINUOUS
 62
         7
100
AcDbCircle
 10
1676.9828643139
 20
-225.0406455357
 30
0.0
 40
4.75
  0
LINE
  5
4C9
100
AcDbEntity
  8
L1_120
  6
DASHED
 62
         2
100
AcDbLine
 10
1679.5778643139
 20
-215.7548791812
 30
0.0
 11
1679.5778643139
 21
-209.2911255217
 31
0.0
  0
LINE
  5
4CA
100
AcDbEntity
  8
L1_120
  6
DASHED
 62
         2
100
AcDbLine
 10
1679.9828643139
 20
-213.7548791812
 30
0.0
 11
1679.9828643139
 21
-209.3771763297
 31
0.0
  0
LINE
  5
4CB
100
AcDbEntity
  8
L1_120
  6
DASHED
 62
         2
100
AcDbLine
 10
1674.3878643139
 20
-215.7548791812
 30
0.0
 11
1674.3878643139
 21
-209.2911255217
 31
0.0
  0
LINE
  5
4CC
100
AcDbEntity
  8
L1_120
  6
DASHED
 62
         2
100
AcDbLine
 10
1673.9828643139
 20
-213.7548791812
 30
0.0
 11
1673.9828643139
 21
-209.3771763297
 31
0.0
  0
LINE
  5
4CD
100
AcDbEntity
  8
L1_120
  6
DASHED
 62
         2
100
AcDbLine
 10
1673.9828643139
 20
-213.7548791812
 30
0.0
 11
1679.9828643139
 21
-213.7548791812
 31
0.0
  0
LINE
  5
4CE
100
AcDbEntity
  8
L1_120
  6
DASHED
 62
         2
100
AcDbLine
 10
1674.3878643139
 20
-215.7548791812
 30
0.0
 11
1679.5778643139
 21
-215.7548791812
 31
0.0
  0
LINE
  5
4CF
100
AcDbEntity
  8
L1_120
  6
DASHED
 62
         2
100
AcDbLine
 10
1679.5778643139
 20
-215.7548791812
 30
0.0
 11
1676.9828643139
 21
-217.2531031297
 31
0.0
  0
LINE
  5
4D0
100
AcDbEntity
  8
L1_120
  6
DASHED
 62
         2
100
AcDbLine
 10
1674.3878643139
 20
-215.7548791812
 30
0.0
 11
1676.9828643139
 21
-217.2531031297
 31
0.0
  0
LINE
  5
4D1
100
AcDbEntity
  8
L1_120
  6
DASHED
 62
         2
100
AcDbLine
 10
1667.6970979594
 20
-222.4456455357
 30
0.0
 11
1661.2333442999
 21
-222.4456455357
 31
0.0
  0
LINE
  5
4D2
100
AcDbEntity
  8
L1_120
  6
DASHED
 62
         2
100
AcDbLine
 10
1665.6970979594
 20
-222.0406455357
 30
0.0
 11
1661.3193951079
 21
-222.0406455357
 31
0.0
  0
LINE
  5
4D3
100
AcDbEntity
  8
L1_120
  6
DASHED
 62
         2
100
AcDbLine
 10
1667.6970979594
 20
-227.6356455357
 30
0.0
 11
1661.2333442999
 21
-227.6356455357
 31
0.0
  0
LINE
  5
4D4
100
AcDbEntity
  8
L1_120
  6
DASHED
 62
         2
100
AcDbLine
 10
1665.6970979594
 20
-228.0406455357
 30
0.0
 11
1661.3193951079
 21
-228.0406455357
 31
0.0
  0
LINE
  5
4D5
100
AcDbEntity
  8
L1_120
  6
DASHED
 62
         2
100
AcDbLine
 10
1665.6970979594
 20
-228.0406455357
 30
0.0
 11
1665.6970979594
 21
-222.0406455357
 31
0.0
  0
LINE
  5
4D6
100
AcDbEntity
  8
L1_120
  6
DASHED
 62
         2
100
AcDbLine
 10
1667.6970979594
 20
-227.6356455357
 30
0.0
 11
1667.6970979594
 21
-222.4456455357
 31
0.0
  0
LINE
  5
4D7
100
AcDbEntity
  8
L1_120
  6
DASHED
 62
         2
100
AcDbLine
 10
1667.6970979594
 20
-222.4456455357
 30
0.0
 11
1669.1953219079
 21
-225.0406455357
 31
0.0
  0
LINE
  5
4D8
100
AcDbEntity
  8
L1_120
  6
DASHED
 62
         2
100
AcDbLine
 10
1667.6970979594
 20
-227.6356455357
 30
0.0
 11
1669.1953219079
 21
-225.0406455357
 31
0.0
  0
LINE
  5
4D9
100
AcDbEntity
  8
L1_120
  6
DASHED
 62
         2
100
AcDbLine
 10
1674.3878643139
 20
-234.3264118902
 30
0.0
 11
1674.3878643139
 21
-240.7901655496
 31
0.0
  0
LINE
  5
4DA
100
AcDbEntity
  8
L1_120
  6
DASHED
 62
         2
100
AcDbLine
 10
1673.9828643139
 20
-236.3264118902
 30
0.0
 11
1673.9828643139
 21
-240.7041147416
 31
0.0
  0
LINE
  5
4DB
100
AcDbEntity
  8
L1_120
  6
DASHED
 62
         2
100
AcDbLine
 10
1679.5778643139
 20
-234.3264118902
 30
0.0
 11
1679.5778643139
 21
-240.7901655496
 31
0.0
  0
LINE
  5
4DC
100
AcDbEntity
  8
L1_120
  6
DASHED
 62
         2
100
AcDbLine
 10
1679.9828643139
 20
-236.3264118902
 30
0.0
 11
1679.9828643139
 21
-240.7041147416
 31
0.0
  0
LINE
  5
4DD
100
AcDbEntity
  8
L1_120
  6
DASHED
 62
         2
100
AcDbLine
 10
1679.9828643139
 20
-236.3264118902
 30
0.0
 11
1673.9828643139
 21
-236.3264118902
 31
0.0
  0
LINE
  5
4DE
100
AcDbEntity
  8
L1_120
  6
DASHED
 62
         2
100
AcDbLine
 10
1679.5778643139
 20
-234.3264118902
 30
0.0
 11
1674.3878643139
 21
-234.3264118902
 31
0.0
  0
LINE
  5
4DF
100
AcDbEntity
  8
L1_120
  6
DASHED
 62
         2
100
AcDbLine
 10
1674.3878643139
 20
-234.3264118902
 30
0.0
 11
1676.9828643139
 21
-232.8281879416
 31
0.0
  0
LINE
  5
4E0
100
AcDbEntity
  8
L1_120
  6
DASHED
 62
         2
100
AcDbLine
 10
1679.5778643139
 20
-234.3264118902
 30
0.0
 11
1676.9828643139
 21
-232.8281879416
 31
0.0
  0
LINE
  5
4E1
100
AcDbEntity
  8
L1_120
  6
DASHED
 62
         2
100
AcDbLine
 10
1686.2686306684
 20
-227.6356455357
 30
0.0
 11
1692.7323843279
 21
-227.6356455357
 31
0.0
  0
LINE
  5
4E2
100
AcDbEntity
  8
L1_120
  6
DASHED
 62
         2
100
AcDbLine
 10
1688.2686306684
 20
-228.0406455357
 30
0.0
 11
1692.6463335198
 21
-228.0406455357
 31
0.0
  0
LINE
  5
4E3
100
AcDbEntity
  8
L1_120
  6
DASHED
 62
         2
100
AcDbLine
 10
1686.2686306684
 20
-222.4456455357
 30
0.0
 11
1692.7323843279
 21
-222.4456455357
 31
0.0
  0
LINE
  5
4E4
100
AcDbEntity
  8
L1_120
  6
DASHED
 62
         2
100
AcDbLine
 10
1688.2686306684
 20
-222.0406455357
 30
0.0
 11
1692.6463335198
 21
-222.0406455357
 31
0.0
  0
LINE
  5
4E5
100
AcDbEntity
  8
L1_120
  6
DASHED
 62
         2
100
AcDbLine
 10
1688.2686306684
 20
-222.0406455357
 30
0.0
 11
1688.2686306684
 21
-228.0406455357
 31
0.0
  0
LINE
  5
4E6
100
AcDbEntity
  8
L1_120
  6
DASHED
 62
         2
100
AcDbLine
 10
1686.2686306684
 20
-222.4456455357
 30
0.0
 11
1686.2686306684
 21
-227.6356455357
 31
0.0
  0
LINE
  5
4E7
100
AcDbEntity
  8
L1_120
  6
DASHED
 62
         2
100
AcDbLine
 10
1686.2686306684
 20
-227.6356455357
 30
0.0
 11
1684.7704067198
 21
-225.0406455357
 31
0.0
  0
LINE
  5
4E8
100
AcDbEntity
  8
L1_120
  6
DASHED
 62
         2
100
AcDbLine
 10
1686.2686306684
 20
-222.4456455357
 30
0.0
 11
1684.7704067198
 21
-225.0406455357
 31
0.0
  0
CIRCLE
  5
4E9
100
AcDbEntity
  8
L1_120
  6
CONTINUOUS
 62
         7
100
AcDbCircle
 10
1594.7342635578
 20
-309.5053098686
 30
0.0
 40
1.75
  0
LINE
  5
4EA
100
AcDbEntity
  8
L1_120
  6
CENTER
 62
         1
100
AcDbLine
 10
1638.7735421596
 20
-309.5053098686
 30
0.0
 11
1612.1773218406
 21
-309.5053098686
 31
0.0
  0
LINE
  5
4EB
100
AcDbEntity
  8
L1_120
  6
CONTINUOUS
 62
         7
100
AcDbLine
 10
1633.8858297896
 20
-304.5053098686
 30
0.0
 11
1616.1858297896
 21
-304.5053098686
 31
0.0
  0
LINE
  5
4EC
100
AcDbEntity
  8
L1_120
  6
CONTINUOUS
 62
         7
100
AcDbLine
 10
1616.1858297896
 20
-314.5053098686
 30
0.0
 11
1633.8858297896
 21
-314.5053098686
 31
0.0
  0
LINE
  5
4ED
100
AcDbEntity
  8
L1_120
  6
CONTINUOUS
 62
         7
100
AcDbLine
 10
1635.3858297896
 20
-306.0053098686
 30
0.0
 11
1635.3858297896
 21
-313.0053098686
 31
0.0
  0
LINE
  5
4EE
100
AcDbEntity
  8
L1_120
  6
CONTINUOUS
 62
         7
100
AcDbLine
 10
1615.3858297896
 20
-305.8909505147
 30
0.0
 11
1615.3858297896
 21
-313.1196692226
 31
0.0
  0
LINE
  5
4EF
100
AcDbEntity
  8
L1_120
  6
CONTINUOUS
 62
         4
100
AcDbLine
 10
1616.1858297896
 20
-304.5053098686
 30
0.0
 11
1616.1858297896
 21
-314.5053098686
 31
0.0
  0
LINE
  5
4F0
100
AcDbEntity
  8
L1_120
  6
CONTINUOUS
 62
         4
100
AcDbLine
 10
1633.8858297896
 20
-304.5053098686
 30
0.0
 11
1633.8858297896
 21
-314.5053098686
 31
0.0
  0
LINE
  5
4F1
100
AcDbEntity
  8
L1_120
  6
CONTINUOUS
 62
         7
100
AcDbLine
 10
1616.1858297896
 20
-304.5053098686
 30
0.0
 11
1615.3858297896
 21
-305.8909505147
 31
0.0
  0
LINE
  5
4F2
100
AcDbEntity
  8
L1_120
  6
CONTINUOUS
 62
         7
100
AcDbLine
 10
1616.1858297896
 20
-314.5053098686
 30
0.0
 11
1615.3858297896
 21
-313.1196692226
 31
0.0
  0
LINE
  5
4F3
100
AcDbEntity
  8
L1_120
  6
CONTINUOUS
 62
         7
100
AcDbLine
 10
1633.8858297896
 20
-304.5053098686
 30
0.0
 11
1635.3858297896
 21
-306.0053098686
 31
0.0
  0
LINE
  5
4F4
100
AcDbEntity
  8
L1_120
  6
CONTINUOUS
 62
         7
100
AcDbLine
 10
1633.8858297896
 20
-314.5053098686
 30
0.0
 11
1635.3858297896
 21
-313.0053098686
 31
0.0
  0
LINE
  5
4F5
100
AcDbEntity
  8
L1_120
  6
CONTINUOUS
 62
         4
100
AcDbLine
 10
1635.2714704357
 20
-305.8909505147
 30
0.0
 11
1615.3858297896
 21
-305.8909505147
 31
0.0
  0
LINE
  5
4F6
100
AcDbEntity
  8
L1_120
  6
CONTINUOUS
 62
         4
100
AcDbLine
 10
1635.2714704357
 20
-313.1196692226
 30
0.0
 11
1615.3858297896
 21
-313.1196692226
 31
0.0
  0
LINE
  5
4F7
100
AcDbEntity
  8
L1_120
  6
CENTER
 62
         1
100
AcDbLine
 10
1603.0282667609
 20
-309.5053098686
 30
0.0
 11
1586.169107934
 21
-309.5053098686
 31
0.0
  0
LINE
  5
4F8
100
AcDbEntity
  8
L1_120
  6
CENTER
 62
         1
100
AcDbLine
 10
1594.7342635578
 20
-319.0623255105
 30
0.0
 11
1594.7342635578
 21
-302.2688472665
 31
0.0
  0
CIRCLE
  5
4F9
100
AcDbEntity
  8
L1_120
  6
CONTINUOUS
 62
         7
100
AcDbCircle
 10
1594.7342635578
 20
-309.5053098686
 30
0.0
 40
3.6143593539
  0
CIRCLE
  5
4FA
100
AcDbEntity
  8
L1_120
  6
CONTINUOUS
 62
         7
100
AcDbCircle
 10
1594.7342635578
 20
-309.5053098686
 30
0.0
 40
5.0
  0
DIMENSION
  5
4FD
100
AcDbEntity
  8
L1_120
  6
CONTINUOUS
 62
         4
100
AcDbDimension
  2
*D7
 10
1651.0283278224
 20
-304.5053098686
 30
0.0
 11
1648.4033278224
 21
-300.7260996322
 31
0.0
  3
DIMSTYLE1
100
AcDbAlignedDimension
 13
1633.8858297896
 23
-304.5053098686
 33
0.0
 14
1633.8858297896
 24
-314.5053098686
 34
0.0
 50
90.0
100
AcDbRotatedDimension
  0
DIMENSION
  5
50D
100
AcDbEntity
  8
L1_120
  6
CONTINUOUS
 62
         4
100
AcDbDimension
  2
*D8
 10
1615.3858297896
 20
-327.2868193249
 30
0.0
 11
1622.2028365827
 21
-324.6618193249
 31
0.0
  3
DIMSTYLE1
100
AcDbAlignedDimension
 13
1615.3858297896
 23
-313.1196692226
 33
0.0
 14
1635.3858297896
 24
-313.0053098686
 34
0.0
100
AcDbRotatedDimension
  0
LINE
  5
519
100
AcDbEntity
  8
L1_120
  6
DASHED
 62
         2
100
AcDbLine
 10
1619.3858297896
 20
-306.6185585227
 30
0.0
 11
1619.3858297896
 21
-312.3920612146
 31
0.0
  0
LINE
  5
51A
100
AcDbEntity
  8
L1_120
  6
CONTINUOUS
 62
         7
100
AcDbLine
 10
1597.2342635578
 20
-308.0619341957
 30
0.0
 11
1594.7342635578
 21
-306.6185585227
 31
0.0
  0
LINE
  5
51B
100
AcDbEntity
  8
L1_120
  6
CONTINUOUS
 62
         7
100
AcDbLine
 10
1594.7342635578
 20
-306.6185585227
 30
0.0
 11
1592.2342635578
 21
-308.0619341957
 31
0.0
  0
LINE
  5
51C
100
AcDbEntity
  8
L1_120
  6
CONTINUOUS
 62
         7
100
AcDbLine
 10
1592.2342635578
 20
-308.0619341957
 30
0.0
 11
1592.2342635578
 21
-310.9486855416
 31
0.0
  0
LINE
  5
51D
100
AcDbEntity
  8
L1_120
  6
CONTINUOUS
 62
         7
100
AcDbLine
 10
1592.2342635578
 20
-310.9486855416
 30
0.0
 11
1594.7342635578
 21
-312.3920612146
 31
0.0
  0
LINE
  5
51E
100
AcDbEntity
  8
L1_120
  6
CONTINUOUS
 62
         7
100
AcDbLine
 10
1594.7342635578
 20
-312.3920612146
 30
0.0
 11
1597.2342635578
 21
-310.9486855416
 31
0.0
  0
LINE
  5
51F
100
AcDbEntity
  8
L1_120
  6
CONTINUOUS
 62
         7
100
AcDbLine
 10
1597.2342635578
 20
-310.9486855416
 30
0.0
 11
1597.2342635578
 21
-308.0619341957
 31
0.0
  0
LINE
  5
520
100
AcDbEntity
  8
L1_120
  6
DASHED
 62
         2
100
AcDbLine
 10
1615.3858297896
 20
-306.6185585227
 30
0.0
 11
1619.3858297896
 21
-306.6185585227
 31
0.0
  0
LINE
  5
521
100
AcDbEntity
  8
L1_120
  6
DASHED
 62
         2
100
AcDbLine
 10
1615.3858297896
 20
-308.0619341957
 30
0.0
 11
1619.3858297896
 21
-308.0619341957
 31
0.0
  0
LINE
  5
522
100
AcDbEntity
  8
L1_120
  6
DASHED
 62
         2
100
AcDbLine
 10
1615.3858297896
 20
-312.3920612146
 30
0.0
 11
1619.3858297896
 21
-312.3920612146
 31
0.0
  0
LINE
  5
523
100
AcDbEntity
  8
L1_120
  6
DASHED
 62
         2
100
AcDbLine
 10
1615.3858297896
 20
-310.9486855416
 30
0.0
 11
1619.3858297896
 21
-310.9486855416
 31
0.0
  0
CIRCLE
  5
524
100
AcDbEntity
  8
L1_120
  6
CONTINUOUS
 62
         7
100
AcDbCircle
 10
1594.7342635578
 20
-309.5053098686
 30
0.0
 40
2.8867513459
  0
DIMENSION
  5
527
100
AcDbEntity
  8
L1_120
  6
CONTINUOUS
 62
         4
100
AcDbDimension
  2
*D9
 10
1592.2342635578
 20
-303.4058967409
 30
0.0
 11
1593.0950073021
 21
-300.7808967409
 31
0.0
  3
DIMSTYLE1
100
AcDbAlignedDimension
 13
1592.2342635578
 23
-308.0619341957
 33
0.0
 14
1597.2342635578
 24
-308.0619341957
 34
0.0
100
AcDbRotatedDimension
  0
LINE
  5
535
100
AcDbEntity
  8
L1_120
  6
DASHED
 62
         2
100
AcDbLine
 10
1635.3858297896
 20
-307.7553098686
 30
0.0
 11
1619.3858297896
 21
-307.7553098686
 31
0.0
  0
LINE
  5
536
100
AcDbEntity
  8
L1_120
  6
DASHED
 62
         2
100
AcDbLine
 10
1619.3858297896
 20
-311.2553098686
 30
0.0
 11
1635.3858297896
 21
-311.2553098686
 31
0.0
  0
ENDSEC
  0
SECTION
  2
OBJECTS
  0
DICTIONARY
  5
19
100
AcDbDictionary
  3
ACAD_GROUP
350
1A
  3
ACAD_MLINESTYLE
350
1B
  0
DICTIONARY
  5
1A
102
{ACAD_REACTORS
330
19
102
}
100
AcDbDictionary
  0
DICTIONARY
  5
1B
102
{ACAD_REACTORS
330
19
102
}
100
AcDbDictionary
  3
STANDARD
350
1C
  0
MLINESTYLE
  5
1C
102
{ACAD_REACTORS
330
1B
102
}
100
AcDbMlineStyle
  2
STANDARD
 70
         0
  3

 62
         0
 51
90.0
 52
90.0
 71
         2
 49
0.5
 62
       256
  6
BYLAYER
 49
-0.5
 62
       256
  6
BYLAYER
  0
ENDSEC
  0
EOF
