  0
SECTION
  2
HEADER
  9
$ACADVER
  1
AC1014
  9
$ACADMAINTVER
 70
         0
  9
$DWGCODEPAGE
  3
BIG5
  9
$INSBASE
 10
0.0
 20
0.0
 30
0.0
  9
$EXTMIN
 10
-11981.6550292432
 20
12912.3287831971
 30
0.0
  9
$EXTMAX
 10
-11385.7012246648
 20
13212.7902066283
 30
0.0
  9
$LIMMIN
 10
0.0
 20
0.0
  9
$LIMMAX
 10
0.0
 20
0.0
  9
$ORTHOMODE
 70
         0
  9
$REGENMODE
 70
         1
  9
$FILLMODE
 70
         1
  9
$QTEXTMODE
 70
         0
  9
$MIRRTEXT
 70
         1
  9
$DRAGMODE
 70
         2
  9
$LTSCALE
 40
1.0
  9
$OSMODE
 70
         0
  9
$ATTMODE
 70
         1
  9
$TEXTSIZE
 40
6.0
  9
$TRACEWID
 40
0.05
  9
$TEXTSTYLE
  7
STANDARD
  9
$CLAYER
  8
0
  9
$CELTYPE
  6
CONTINUOUS
  9
$CECOLOR
 62
        16
  9
$CELTSCALE
 40
1.0
  9
$DELOBJ
 70
         1
  9
$DISPSILH
 70
         0
  9
$DIMSCALE
 40
1.0
  9
$DIMASZ
 40
0.18
  9
$DIMEXO
 40
0.0625
  9
$DIMDLI
 40
0.38
  9
$DIMRND
 40
0.0
  9
$DIMDLE
 40
0.0
  9
$DIMEXE
 40
0.25
  9
$DIMTP
 40
0.01
  9
$DIMTM
 40
-0.01
  9
$DIMTXT
 40
2.7
  9
$DIMCEN
 40
0.09
  9
$DIMTSZ
 40
0.0
  9
$DIMTOL
 70
         0
  9
$DIMLIM
 70
         0
  9
$DIMTIH
 70
         1
  9
$DIMTOH
 70
         1
  9
$DIMSE1
 70
         0
  9
$DIMSE2
 70
         0
  9
$DIMTAD
 70
         0
  9
$DIMZIN
 70
         0
  9
$DIMBLK
  1

  9
$DIMASO
 70
         1
  9
$DIMSHO
 70
         1
  9
$DIMPOST
  1

  9
$DIMAPOST
  1

  9
$DIMALT
 70
         0
  9
$DIMALTD
 70
         2
  9
$DIMALTF
 40
25.4
  9
$DIMLFAC
 40
1.0
  9
$DIMTOFL
 70
         0
  9
$DIMTVP
 40
0.0
  9
$DIMTIX
 70
         0
  9
$DIMSOXD
 70
         0
  9
$DIMSAH
 70
         0
  9
$DIMBLK1
  1

  9
$DIMBLK2
  1

  9
$DIMSTYLE
  2
STANDARD
  9
$DIMCLRD
 70
         0
  9
$DIMCLRE
 70
         0
  9
$DIMCLRT
 70
        16
  9
$DIMTFAC
 40
0.7
  9
$DIMGAP
 40
0.09
  9
$DIMJUST
 70
         0
  9
$DIMSD1
 70
         0
  9
$DIMSD2
 70
         0
  9
$DIMTOLJ
 70
         1
  9
$DIMTZIN
 70
         0
  9
$DIMALTZ
 70
         0
  9
$DIMALTTZ
 70
         0
  9
$DIMFIT
 70
         3
  9
$DIMUPT
 70
         0
  9
$DIMUNIT
 70
         2
  9
$DIMDEC
 70
         4
  9
$DIMTDEC
 70
         4
  9
$DIMALTU
 70
         2
  9
$DIMALTTD
 70
         2
  9
$DIMTXSTY
  7
STANDARD
  9
$DIMAUNIT
 70
         0
  9
$LUNITS
 70
         2
  9
$LUPREC
 70
        10
  9
$SKETCHINC
 40
0.1
  9
$FILLETRAD
 40
0.0
  9
$AUNITS
 70
         0
  9
$AUPREC
 70
         0
  9
$MENU
  1
acad
  9
$ELEVATION
 40
0.0
  9
$PELEVATION
 40
0.0
  9
$THICKNESS
 40
0.0
  9
$LIMCHECK
 70
         0
  9
$BLIPMODE
 70
         1
  9
$CHAMFERA
 40
0.0
  9
$CHAMFERB
 40
0.0
  9
$CHAMFERC
 40
0.0
  9
$CHAMFERD
 40
0.0
  9
$SKPOLY
 70
         0
  9
$TDCREATE
 40
0.000000000
  9
$TDUPDATE
 40
0.000000000
  9
$TDINDWG
 40
0.0000000000
  9
$TDUSRTIMER
 40
0.0000000000
  9
$USRTIMER
 70
         1
  9
$ANGBASE
 50
0.0
  9
$ANGDIR
 70
         0
  9
$PDMODE
 70
         2
  9
$PDSIZE
 40
0.0
  9
$PLINEWID
 40
0.0
  9
$COORDS
 70
         1
  9
$SPLFRAME
 70
         0
  9
$SPLINETYPE
 70
         6
  9
$SPLINESEGS
 70
         8
  9
$ATTDIA
 70
         0
  9
$ATTREQ
 70
         1
  9
$HANDLING
 70
         1
  9
$HANDSEED
  5
1B1
  9
$SURFTAB1
 70
         6
  9
$SURFTAB2
 70
         6
  9
$SURFTYPE
 70
         6
  9
$SURFU
 70
         6
  9
$SURFV
 70
         6
  9
$UCSNAME
  2

  9
$UCSORG
 10
0.0
 20
0.0
 30
0.0
  9
$UCSXDIR
 10
1.0
 20
0.0
 30
0.0
  9
$UCSYDIR
 10
0.0
 20
1.0
 30
0.0
  9
$PUCSNAME
  2

  9
$PUCSORG
 10
0.0
 20
0.0
 30
0.0
  9
$PUCSXDIR
 10
1.0
 20
0.0
 30
0.0
  9
$PUCSYDIR
 10
0.0
 20
1.0
 30
0.0
  9
$USERI1
 70
         0
  9
$USERI2
 70
         0
  9
$USERI3
 70
         0
  9
$USERI4
 70
         0
  9
$USERI5
 70
         0
  9
$USERR1
 40
0.0
  9
$USERR2
 40
0.0
  9
$USERR3
 40
0.0
  9
$USERR4
 40
0.0
  9
$USERR5
 40
0.0
  9
$WORLDVIEW
 70
         1
  9
$SHADEDGE
 70
         3
  9
$SHADEDIF
 70
        70
  9
$TILEMODE
 70
         1
  9
$MAXACTVP
 70
        16
  9
$PINSBASE
 10
0.0
 20
0.0
 30
0.0
  9
$PLIMCHECK
 70
         0
  9
$PEXTMIN
 10
1.0000000000E+20
 20
1.0000000000E+20
 30
1.0000000000E+20
  9
$PEXTMAX
 10
-1.0000000000E+20
 20
-1.0000000000E+20
 30
-1.0000000000E+20
  9
$PLIMMIN
 10
0.0
 20
0.0
  9
$PLIMMAX
 10
12.0
 20
9.0
  9
$UNITMODE
 70
         0
  9
$VISRETAIN
 70
         0
  9
$PLINEGEN
 70
         1
  9
$PSLTSCALE
 70
         0
  9
$TREEDEPTH
 70
      3020
  9
$PICKSTYLE
 70
         1
  9
$CMLSTYLE
  2
STANDARD
  9
$CMLJUST
 70
         0
  9
$CMLSCALE
 40
1.0
  9
$PROXYGRAPHICS
 70
         0
  9
$MEASUREMENT
 70
         0
  0
ENDSEC
  0
SECTION
  2
CLASSES
  0
CLASS
  1
LWPOLYLINE
  2
AcDbPolyline
  3
"AutoCAD"
 90
        0
280
         0
281
         1
  0
CLASS
  1
IMAGE
  2
AcDbRasterImage
  3
ISM
 90
      127
280
         0
281
         1
  0
CLASS
  1
OLE2FRAME
  2
AcDbOle2Frame
  3
""
 90
        0
280
         0
281
         1
  0
CLASS
  1
HATCH
  2
AcDbHatch
  3
"ACAD_SEDONA"
 90
        0
280
         0
281
         1
  0
CLASS
  1
DICTIONARYVAR
  2
AcDbDictionaryVar
  3
"AutoCAD"
 90
        0
280
         0
281
         0
  0
CLASS
  1
RASTERVARIABLES
  2
AcDbRasterVariables
  3
ISM
 90
        0
280
         0
281
         0
  0
CLASS
  1
IMAGEDEF
  2
AcDbRasterImageDef
  3
ISM
 90
        0
280
         0
281
         0
  0
CLASS
  1
IMAGEDEF_REACTOR
  2
AcDbRasterImageDefReactor
  3
ISM
 90
        1
280
         0
281
         0
  0
CLASS
  1
IDBUFFER
  2
AcDbIdBuffer
  3
"Acad"
 90
        0
280
         0
281
         0
  0
CLASS
  1
SPATIAL_FILTER
  2
AcDbSpatialFilter
  3
"Acad"
 90
        0
280
         0
281
         0
  0
CLASS
  1
XRECORD
  2
AcDbXrecord
  3
"<Built In>"
 90
        0
280
         0
281
         0
  0
CLASS
  1
SORTENTSTABLE
  2
AcDbSortentsTable
  3
"AutoCAD"
 90
        0
280
         0
281
         0
  0
CLASS
  1
LAYER_INDEX
  2
AcDbLayerIndex
  3
"Acad"
 90
        0
280
         0
281
         0
  0
CLASS
  1
SPATIAL_INDEX
  2
AcDbSpatialIndex
  3
"Acad"
 90
        0
280
         0
281
         0
  0
CLASS
  1
OBJECT_PTR
  2
CAseDLPNTableRecord
  3
"ASE-LPNTableRecord"
 90
        1
280
         0
281
         0
  0
CLASS
  1
LAYOUT
  2
AcDbLayout
  3
"AutoCAD 2000"
 90
        1
280
         0
281
         0
  0
CLASS
  1
PLOTSETTINGS
  2
AcDbPlotSettings
  3
"AutoCAD 2000"
 90
        1
280
         0
281
         0
  0
CLASS
  1
ACDBDICTIONARYWDFLT
  2
AcDbDictionaryWithDefault
  3
"AutoCAD 2000"
 90
        1
280
         0
281
         0
  0
CLASS
  1
ACDBPLACEHOLDER
  2
AcDbPlaceHolder
  3
"AutoCAD 2000"
 90
        1
280
         0
281
         0
  0
CLASS
  1
VBA_PROJECT
  2
AcDbVbaProject
  3
"acadvba"
 90
        1
280
         0
281
         0
  0
CLASS
  1
WIPEOUT
  2
AcDbWipeout
  3
WipeOut|AutoCAD Express Tool|expresstools@autodesk.com
 90
      127
280
         0
281
         1
  0
CLASS
  1
WIPEOUTVARIABLES
  2
AcDbWipeoutVariables
  3
WipeOut|AutoCAD Express Tool|expresstools@autodesk.com
 90
        0
280
         0
281
         0
  0
CLASS
  1
RTEXT
  2
RText
  3
RText|AutoCAD Express Tool|expresstools@autodesk.com
 90
        0
280
         0
281
         1
  0
CLASS
  1
ARCALIGNEDTEXT
  2
AcDbArcAlignedText
  3
ATEXT|AutoCAD Express Tool|expresstools@autodesk.com
 90
        0
280
         0
281
         1
  0
ENDSEC
  0
SECTION
  2
TABLES
  0
TABLE
  2
VPORT
  5
7
100
AcDbSymbolTable
 70
         1
  0
VPORT
  5
15
100
AcDbSymbolTableRecord
100
AcDbViewportTableRecord
  2
*ACTIVE
 70
         0
 10
0.0
 20
0.0
 11
1.0
 21
1.0
 12
-11683.678126954
 22
13062.5594949127
 13
0.0
 23
0.0
 14
1.0
 24
1.0
 15
0.0
 25
0.0
 16
0.0
 26
0.0
 36
1.0
 17
0.0
 27
0.0
 37
0.0
 40
300.4614234311
 41
1.9834619625
 42
50.0
 43
0.0
 44
0.0
 50
0.0
 51
0.0
 71
         0
 72
       100
 73
         1
 74
         1
 75
         0
 76
         0
 77
         0
 78
         0
  0
ENDTAB
  0
TABLE
  2
LTYPE
  5
4
100
AcDbSymbolTable
 70
         6
  0
LTYPE
  5
11
100
AcDbSymbolTableRecord
100
AcDbLinetypeTableRecord
  2
BYBLOCK
 70
        64
  3

 72
        65
 73
         0
 40
0.0
  0
LTYPE
  5
12
100
AcDbSymbolTableRecord
100
AcDbLinetypeTableRecord
  2
BYLAYER
 70
        64
  3

 72
        65
 73
         0
 40
0.0
  0
LTYPE
  5
13
100
AcDbSymbolTableRecord
100
AcDbLinetypeTableRecord
  2
CONTINUOUS
 70
        64
  3
Solid line
 72
        65
 73
         0
 40
0.0
  0
LTYPE
  5
1D
100
AcDbSymbolTableRecord
100
AcDbLinetypeTableRecord
  2
DASHED
 70
        64
  3
_ _ _ _ _ _ _ _ _ _ _ _ _ _ _ _
 72
        65
 73
         2
 40
0.2
 49
0.1
 74
         0
 49
-0.1
 74
         0
  0
LTYPE
  5
1E
100
AcDbSymbolTableRecord
100
AcDbLinetypeTableRecord
  2
CENTER
 70
        64
  3
___ _ ___ _ ___ _ ___ _ ___ _ ___ _ ___ _ ___ _
 72
        65
 73
         4
 40
0.95
 49
0.625
 74
         0
 49
-0.125
 74
         0
 49
0.075
 74
         0
 49
-0.125
 74
         0
  0
LTYPE
  5
1F
100
AcDbSymbolTableRecord
100
AcDbLinetypeTableRecord
  2
PHANTOM
 70
        64
  3
______  __  __  ______  __  __  ______  __  __  
 72
        65
 73
         6
 40
1.025
 49
0.625
 74
         0
 49
-0.125
 74
         0
 49
0.075
 74
         0
 49
-0.125
 74
         0
 49
0.075
 74
         0
 49
-0.125
 74
         0
  0
ENDTAB
  0
TABLE
  2
LAYER
  5
2
100
AcDbSymbolTable
 70
         8
  0
LAYER
  5
14
100
AcDbSymbolTableRecord
100
AcDbLayerTableRecord
  2
0
 70
         0
 62
         7
  6
CONTINUOUS
  0
LAYER
  5
21
100
AcDbSymbolTableRecord
100
AcDbLayerTableRecord
  2
_____U
 70
         1
 62
         7
  6
CONTINUOUS
  0
LAYER
  5
22
100
AcDbSymbolTableRecord
100
AcDbLayerTableRecord
  2
ERP__________T_____
 70
         1
 62
         7
  6
CONTINUOUS
  0
LAYER
  5
23
100
AcDbSymbolTableRecord
100
AcDbLayerTableRecord
  2
ERP______L_______
 70
         1
 62
         7
  6
CONTINUOUS
  0
LAYER
  5
24
100
AcDbSymbolTableRecord
100
AcDbLayerTableRecord
  2
_Y__________
 70
         0
 62
         7
  6
CONTINUOUS
  0
LAYER
  5
25
100
AcDbSymbolTableRecord
100
AcDbLayerTableRecord
  2
_X______
 70
         0
 62
         7
  6
CONTINUOUS
  0
LAYER
  5
26
100
AcDbSymbolTableRecord
100
AcDbLayerTableRecord
  2
L1_80
 70
         0
 62
         7
  6
CONTINUOUS
  0
LAYER
  5
110
100
AcDbSymbolTableRecord
100
AcDbLayerTableRecord
  2
DEFPOINTS
 70
         0
 62
        -7
  6
CONTINUOUS
  0
ENDTAB
  0
TABLE
  2
STYLE
  5
3
100
AcDbSymbolTable
 70
        10
  0
STYLE
  5
17
100
AcDbSymbolTableRecord
100
AcDbTextStyleTableRecord
  2
STANDARD
 70
         0
 40
0.0
 41
1.0
 50
0.0
 71
         0
 42
0.0
  3
txt
  4

  0
STYLE
  5
119
100
AcDbSymbolTableRecord
100
AcDbTextStyleTableRecord
  2
BOX
 70
         0
 40
1.0
 41
1.0
 50
0.0
 71
         0
 42
0.2
  3
txt.shx
  4

  0
STYLE
  5
12E
100
AcDbSymbolTableRecord
100
AcDbTextStyleTableRecord
  2
BOX
 70
         0
 40
1.0
 41
1.0
 50
0.0
 71
         0
 42
0.2
  3
txt.shx
  4

  0
STYLE
  5
141
100
AcDbSymbolTableRecord
100
AcDbTextStyleTableRecord
  2
BOX
 70
         0
 40
1.0
 41
1.0
 50
0.0
 71
         0
 42
0.2
  3
txt.shx
  4

  0
STYLE
  5
14F
100
AcDbSymbolTableRecord
100
AcDbTextStyleTableRecord
  2
BOX
 70
         0
 40
1.0
 41
1.0
 50
0.0
 71
         0
 42
0.2
  3
txt.shx
  4

  0
STYLE
  5
161
100
AcDbSymbolTableRecord
100
AcDbTextStyleTableRecord
  2
BOX
 70
         0
 40
1.0
 41
1.0
 50
0.0
 71
         0
 42
0.2
  3
txt.shx
  4

  0
STYLE
  5
16F
100
AcDbSymbolTableRecord
100
AcDbTextStyleTableRecord
  2
BOX
 70
         0
 40
1.0
 41
1.0
 50
0.0
 71
         0
 42
0.2
  3
txt.shx
  4

  0
STYLE
  5
184
100
AcDbSymbolTableRecord
100
AcDbTextStyleTableRecord
  2
BOX
 70
         0
 40
1.0
 41
1.0
 50
0.0
 71
         0
 42
0.2
  3
txt.shx
  4

  0
STYLE
  5
192
100
AcDbSymbolTableRecord
100
AcDbTextStyleTableRecord
  2
BOX
 70
         0
 40
1.0
 41
1.0
 50
0.0
 71
         0
 42
0.2
  3
txt.shx
  4

  0
STYLE
  5
1AF
100
AcDbSymbolTableRecord
100
AcDbTextStyleTableRecord
  2
BOX
 70
         0
 40
1.0
 41
1.0
 50
0.0
 71
         0
 42
0.2
  3
txt.shx
  4

  0
ENDTAB
  0
TABLE
  2
VIEW
  5
5
100
AcDbSymbolTable
 70
         0
  0
ENDTAB
  0
TABLE
  2
UCS
  5
6
100
AcDbSymbolTable
 70
         1
  0
UCS
  5
20
100
AcDbSymbolTableRecord
100
AcDbUCSTableRecord
  2
CK_VIEW_1
 70
         0
 10
0.0
 20
0.0
 30
1.0
 11
1.0
 21
0.0
 31
0.0
 12
0.0
 22
1.0
 32
0.0
  0
ENDTAB
  0
TABLE
  2
APPID
  5
8
100
AcDbSymbolTable
 70
         1
  0
APPID
  5
16
100
AcDbSymbolTableRecord
100
AcDbRegAppTableRecord
  2
ACAD
 70
         0
  0
ENDTAB
  0
TABLE
  2
DIMSTYLE
  5
9
100
AcDbSymbolTable
 70
         2
  0
DIMSTYLE
105
18
100
AcDbSymbolTableRecord
100
AcDbDimStyleTableRecord
  2
STANDARD
 70
         0
  3

  4

  5

  6

  7

 40
1.0
 41
0.18
 42
0.0625
 43
0.38
 44
0.18
 45
0.0
 46
0.0
 47
0.0
 48
0.0
 71
         0
 72
         0
 73
         1
 74
         1
 75
         0
 76
         0
 77
         0
 78
         0
140
0.18
141
0.09
142
0.0
143
25.4
144
1.0
145
0.0
146
1.0
147
0.09
170
         0
171
         2
172
         0
173
         0
174
         0
175
         0
176
         0
177
         0
178
         0
270
         2
271
         4
272
         4
273
         2
274
         2
275
         0
280
         0
281
         0
282
         0
283
         1
284
         0
285
         0
286
         0
287
         0
288
         0
340
17
  0
DIMSTYLE
105
10C
100
AcDbSymbolTableRecord
100
AcDbDimStyleTableRecord
  2
DIMSTYLE1
 70
         0
  3

  4

  5

  6

  7

 40
1.0
 41
2.7
 42
0.0625
 43
0.38
 44
2.7
 45
0.0
 46
0.0
 47
0.0
 48
0.0
 71
         0
 72
         0
 73
         1
 74
         1
 75
         0
 76
         0
 77
         0
 78
         0
140
2.7
141
0.09
142
0.0
143
25.4
144
1.0
145
0.0
146
1.0
147
0.09
170
         0
171
         2
172
         0
173
         0
174
         0
175
         0
176
         0
177
         0
178
         0
270
         2
271
         4
272
         4
273
         2
274
         2
275
         0
280
         0
281
         0
282
         0
283
         1
284
         0
285
         0
286
         0
287
         0
288
         0
340
17
  0
ENDTAB
  0
TABLE
  2
BLOCK_RECORD
  5
1
100
AcDbSymbolTable
 70
         9
  0
BLOCK_RECORD
  5
A
100
AcDbSymbolTableRecord
100
AcDbBlockTableRecord
  2
*MODEL_SPACE
  0
BLOCK_RECORD
  5
B
100
AcDbSymbolTableRecord
100
AcDbBlockTableRecord
  2
*PAPER_SPACE
  0
BLOCK_RECORD
  5
27
100
AcDbSymbolTableRecord
100
AcDbBlockTableRecord
  2
*X0
  0
BLOCK_RECORD
  5
10D
100
AcDbSymbolTableRecord
100
AcDbBlockTableRecord
  2
*D1
  0
BLOCK_RECORD
  5
121
100
AcDbSymbolTableRecord
100
AcDbBlockTableRecord
  2
*D2
  0
BLOCK_RECORD
  5
136
100
AcDbSymbolTableRecord
100
AcDbBlockTableRecord
  2
*D3
  0
BLOCK_RECORD
  5
144
100
AcDbSymbolTableRecord
100
AcDbBlockTableRecord
  2
*D4
  0
BLOCK_RECORD
  5
156
100
AcDbSymbolTableRecord
100
AcDbBlockTableRecord
  2
*D5
  0
BLOCK_RECORD
  5
164
100
AcDbSymbolTableRecord
100
AcDbBlockTableRecord
  2
*D6
  0
BLOCK_RECORD
  5
177
100
AcDbSymbolTableRecord
100
AcDbBlockTableRecord
  2
*D7
  0
BLOCK_RECORD
  5
187
100
AcDbSymbolTableRecord
100
AcDbBlockTableRecord
  2
*D8
  0
ENDTAB
  0
ENDSEC
  0
SECTION
  2
BLOCKS
  0
BLOCK
  5
D
100
AcDbEntity
  8
0
100
AcDbBlockBegin
  2
*MODEL_SPACE
 70
         0
 10
0.0
 20
0.0
 30
0.0
  3
*MODEL_SPACE
  1

  0
ENDBLK
  5
E
100
AcDbEntity
  8
0
100
AcDbBlockEnd
  0
BLOCK
  5
F
100
AcDbEntity
 67
         1
  8
0
100
AcDbBlockBegin
  2
*PAPER_SPACE
 70
         0
 10
0.0
 20
0.0
 30
0.0
  3
*PAPER_SPACE
  1

  0
ENDBLK
  5
10
100
AcDbEntity
 67
         1
  8
0
100
AcDbBlockEnd
  0
BLOCK
  5
28
100
AcDbEntity
  8
0
100
AcDbBlockBegin
  2
*X0
 70
        65
 10
0.0
 20
0.0
 30
0.0
  3
*X0
  1

  0
LINE
  5
29
100
AcDbEntity
  8
L1_80
  6
CONTINUOUS
 62
         4
100
AcDbLine
 10
-11636.2374161226
 20
12948.0198048199
 30
0.0
 11
-11634.722126954
 21
12949.5350939886
 31
0.0
  0
LINE
  5
2A
100
AcDbEntity
  8
L1_80
  6
CONTINUOUS
 62
         4
100
AcDbLine
 10
-11640.5960803767
 20
12947.903781253
 30
0.0
 11
-11634.722126954
 21
12953.7777346757
 31
0.0
  0
LINE
  5
2B
100
AcDbEntity
  8
L1_80
  6
CONTINUOUS
 62
         4
100
AcDbLine
 10
-11644.9547446307
 20
12947.7877576861
 30
0.0
 11
-11636.3089775874
 21
12956.4335247294
 31
0.0
  0
LINE
  5
2C
100
AcDbEntity
  8
L1_80
  6
CONTINUOUS
 62
         4
100
AcDbLine
 10
-11649.3134088847
 20
12947.6717341192
 30
0.0
 11
-11634.722126954
 21
12962.26301605
 31
0.0
  0
LINE
  5
2D
100
AcDbEntity
  8
L1_80
  6
CONTINUOUS
 62
         4
100
AcDbLine
 10
-11653.6720731388
 20
12947.5557105523
 30
0.0
 11
-11635.2489405983
 21
12965.9788430927
 31
0.0
  0
LINE
  5
2E
100
AcDbEntity
  8
L1_80
  6
CONTINUOUS
 62
         4
100
AcDbLine
 10
-11658.0307373928
 20
12947.4396869853
 30
0.0
 11
-11638.4588553123
 21
12967.0115690658
 31
0.0
  0
LINE
  5
2F
100
AcDbEntity
  8
L1_80
  6
CONTINUOUS
 62
         4
100
AcDbLine
 10
-11662.3894016469
 20
12947.3236634184
 30
0.0
 11
-11642.5914891509
 21
12967.1215759144
 31
0.0
  0
LINE
  5
30
100
AcDbEntity
  8
L1_80
  6
CONTINUOUS
 62
         4
100
AcDbLine
 10
-11687.9695851266
 20
12925.9861206258
 30
0.0
 11
-11683.678126954
 21
12930.2775787985
 31
0.0
  0
LINE
  5
31
100
AcDbEntity
  8
L1_80
  6
CONTINUOUS
 62
         4
100
AcDbLine
 10
-11673.9508205898
 20
12940.0048851626
 30
0.0
 11
-11670.678126954
 21
12943.2775787985
 31
0.0
  0
LINE
  5
32
100
AcDbEntity
  8
L1_80
  6
CONTINUOUS
 62
         4
100
AcDbLine
 10
-11666.7480659009
 20
12947.2076398515
 30
0.0
 11
-11646.7241229894
 21
12967.231582763
 31
0.0
  0
LINE
  5
33
100
AcDbEntity
  8
L1_80
  6
CONTINUOUS
 62
         4
100
AcDbLine
 10
-11690.2251967262
 20
12927.9731497133
 30
0.0
 11
-11683.678126954
 21
12934.5202194856
 31
0.0
  0
LINE
  5
34
100
AcDbEntity
  8
L1_80
  6
CONTINUOUS
 62
         4
100
AcDbLine
 10
-11678.1934612769
 20
12940.0048851626
 30
0.0
 11
-11650.8567568279
 21
12967.3415896116
 31
0.0
  0
LINE
  5
35
100
AcDbEntity
  8
L1_80
  6
CONTINUOUS
 62
         4
100
AcDbLine
 10
-11691.578126954
 20
12930.8628601727
 30
0.0
 11
-11654.9893906664
 21
12967.4515964602
 31
0.0
  0
LINE
  5
36
100
AcDbEntity
  8
L1_80
  6
CONTINUOUS
 62
         4
100
AcDbLine
 10
-11700.6975071879
 20
12925.9861206258
 30
0.0
 11
-11696.8663484065
 21
12929.8172794072
 31
0.0
  0
LINE
  5
37
100
AcDbEntity
  8
L1_80
  6
CONTINUOUS
 62
         4
100
AcDbLine
 10
-11695.6975071879
 20
12930.9861206258
 30
0.0
 11
-11659.1220245049
 21
12967.5616033089
 31
0.0
  0
LINE
  5
38
100
AcDbEntity
  8
L1_80
  6
CONTINUOUS
 62
         4
100
AcDbLine
 10
-11704.940147875
 20
12925.9861206258
 30
0.0
 11
-11663.2546583434
 21
12967.6716101575
 31
0.0
  0
LINE
  5
39
100
AcDbEntity
  8
L1_80
  6
CONTINUOUS
 62
         4
100
AcDbLine
 10
-11708.591009925
 20
12926.577899263
 30
0.0
 11
-11667.3872921819
 21
12967.7816170061
 31
0.0
  0
LINE
  5
3A
100
AcDbEntity
  8
L1_80
  6
CONTINUOUS
 62
         4
100
AcDbLine
 10
-11708.678126954
 20
12930.7334229212
 30
0.0
 11
-11670.4697828271
 21
12968.941767048
 31
0.0
  0
LINE
  5
3B
100
AcDbEntity
  8
L1_80
  6
CONTINUOUS
 62
         4
100
AcDbLine
 10
-11708.678126954
 20
12934.9760636083
 30
0.0
 11
-11670.678126954
 21
12972.9760636083
 31
0.0
  0
LINE
  5
3C
100
AcDbEntity
  8
L1_80
  6
CONTINUOUS
 62
         4
100
AcDbLine
 10
-11712.3865648062
 20
12935.5102664432
 30
0.0
 11
-11672.8919460868
 21
12975.0048851626
 31
0.0
  0
LINE
  5
3D
100
AcDbEntity
  8
L1_80
  6
CONTINUOUS
 62
         4
100
AcDbLine
 10
-11716.0892356324
 20
12936.0502363041
 30
0.0
 11
-11677.1345867739
 21
12975.0048851626
 31
0.0
  0
LINE
  5
3E
100
AcDbEntity
  8
L1_80
  6
CONTINUOUS
 62
         4
100
AcDbLine
 10
-11719.7919064586
 20
12936.590206165
 30
0.0
 11
-11681.3099413239
 21
12975.0721712997
 31
0.0
  0
LINE
  5
3F
100
AcDbEntity
  8
L1_80
  6
CONTINUOUS
 62
         4
100
AcDbLine
 10
-11723.4945772848
 20
12937.1301760259
 30
0.0
 11
-11683.5351073792
 21
12977.0896459316
 31
0.0
  0
LINE
  5
40
100
AcDbEntity
  8
L1_80
  6
CONTINUOUS
 62
         4
100
AcDbLine
 10
-11727.1972481111
 20
12937.6701458868
 30
0.0
 11
-11683.678126954
 21
12981.1892670439
 31
0.0
  0
LINE
  5
41
100
AcDbEntity
  8
L1_80
  6
CONTINUOUS
 62
         4
100
AcDbLine
 10
-11730.8999189373
 20
12938.2101157477
 30
0.0
 11
-11683.678126954
 21
12985.431907731
 31
0.0
  0
LINE
  5
42
100
AcDbEntity
  8
L1_80
  6
CONTINUOUS
 62
         4
100
AcDbLine
 10
-11734.6025897635
 20
12938.7500856086
 30
0.0
 11
-11684.4046703929
 21
12988.9480049792
 31
0.0
  0
LINE
  5
43
100
AcDbEntity
  8
L1_80
  6
CONTINUOUS
 62
         4
100
AcDbLine
 10
-11738.3052605897
 20
12939.2900554695
 30
0.0
 11
-11693.6091954334
 21
12983.9861206258
 31
0.0
  0
LINE
  5
44
100
AcDbEntity
  8
L1_80
  6
CONTINUOUS
 62
         4
100
AcDbLine
 10
-11689.7183633332
 20
12987.876952726
 30
0.0
 11
-11688.6091954334
 21
12988.9861206258
 31
0.0
  0
LINE
  5
45
100
AcDbEntity
  8
L1_80
  6
CONTINUOUS
 62
         4
100
AcDbLine
 10
-11742.0079314159
 20
12939.8300253304
 30
0.0
 11
-11696.7992363659
 21
12985.0387203804
 31
0.0
  0
LINE
  5
46
100
AcDbEntity
  8
L1_80
  6
CONTINUOUS
 62
         4
100
AcDbLine
 10
-11745.7106022422
 20
12940.3699951913
 30
0.0
 11
-11735.6444768076
 21
12950.4361206258
 31
0.0
  0
LINE
  5
47
100
AcDbEntity
  8
L1_80
  6
CONTINUOUS
 62
         4
100
AcDbLine
 10
-11734.3044786664
 20
12951.776118767
 30
0.0
 11
-11698.3521506366
 21
12987.7284467969
 31
0.0
  0
LINE
  5
48
100
AcDbEntity
  8
L1_80
  6
CONTINUOUS
 62
         4
100
AcDbLine
 10
-11749.4132730684
 20
12940.9099650522
 30
0.0
 11
-11739.8871174947
 21
12950.4361206258
 31
0.0
  0
LINE
  5
49
100
AcDbEntity
  8
L1_80
  6
CONTINUOUS
 62
         4
100
AcDbLine
 10
-11731.6773814651
 20
12958.6458566555
 30
0.0
 11
-11710.6008476596
 21
12979.722390461
 31
0.0
  0
LINE
  5
4A
100
AcDbEntity
  8
L1_80
  6
CONTINUOUS
 62
         4
100
AcDbLine
 10
-11708.678126954
 20
12981.6451111666
 30
0.0
 11
-11701.3371174947
 21
12988.9861206258
 31
0.0
  0
LINE
  5
4B
100
AcDbEntity
  8
L1_80
  6
CONTINUOUS
 62
         4
100
AcDbLine
 10
-11753.1159438946
 20
12941.4499349131
 30
0.0
 11
-11744.1297581818
 21
12950.4361206258
 31
0.0
  0
LINE
  5
4C
100
AcDbEntity
  8
L1_80
  6
CONTINUOUS
 62
         4
100
AcDbLine
 10
-11733.2302957357
 20
12961.335583072
 30
0.0
 11
-11715.5678369736
 21
12978.998041834
 31
0.0
  0
LINE
  5
4D
100
AcDbEntity
  8
L1_80
  6
CONTINUOUS
 62
         4
100
AcDbLine
 10
-11708.678126954
 20
12985.8877518537
 30
0.0
 11
-11705.5797581818
 21
12988.9861206258
 31
0.0
  0
LINE
  5
4E
100
AcDbEntity
  8
L1_80
  6
CONTINUOUS
 62
         4
100
AcDbLine
 10
-11756.8186147208
 20
12941.989904774
 30
0.0
 11
-11748.372398869
 21
12950.4361206258
 31
0.0
  0
LINE
  5
4F
100
AcDbEntity
  8
L1_80
  6
CONTINUOUS
 62
         4
100
AcDbLine
 10
-11734.7832100063
 20
12964.0253094885
 30
0.0
 11
-11720.5348262877
 21
12978.2736932071
 31
0.0
  0
LINE
  5
50
100
AcDbEntity
  8
L1_80
  6
CONTINUOUS
 62
         4
100
AcDbLine
 10
-11760.521285547
 20
12942.5298746349
 30
0.0
 11
-11752.6150395561
 21
12950.4361206258
 31
0.0
  0
LINE
  5
51
100
AcDbEntity
  8
L1_80
  6
CONTINUOUS
 62
         4
100
AcDbLine
 10
-11738.5150395561
 20
12964.5361206258
 30
0.0
 11
-11725.5018156017
 21
12977.5493445802
 31
0.0
  0
LINE
  5
52
100
AcDbEntity
  8
L1_80
  6
CONTINUOUS
 62
         4
100
AcDbLine
 10
-11764.2239563733
 20
12943.0698444958
 30
0.0
 11
-11756.8576802432
 21
12950.4361206258
 31
0.0
  0
LINE
  5
53
100
AcDbEntity
  8
L1_80
  6
CONTINUOUS
 62
         4
100
AcDbLine
 10
-11742.7576802432
 20
12964.5361206258
 30
0.0
 11
-11730.4688049158
 21
12976.8249959532
 31
0.0
  0
LINE
  5
54
100
AcDbEntity
  8
L1_80
  6
CONTINUOUS
 62
         4
100
AcDbLine
 10
-11767.9266271995
 20
12943.6098143567
 30
0.0
 11
-11761.1003209303
 21
12950.4361206258
 31
0.0
  0
LINE
  5
55
100
AcDbEntity
  8
L1_80
  6
CONTINUOUS
 62
         4
100
AcDbLine
 10
-11747.0003209303
 20
12964.5361206258
 30
0.0
 11
-11735.4357942299
 21
12976.1006473263
 31
0.0
  0
LINE
  5
56
100
AcDbEntity
  8
L1_80
  6
CONTINUOUS
 62
         4
100
AcDbLine
 10
-11771.6292980257
 20
12944.1497842176
 30
0.0
 11
-11765.3429616174
 21
12950.4361206258
 31
0.0
  0
LINE
  5
57
100
AcDbEntity
  8
L1_80
  6
CONTINUOUS
 62
         4
100
AcDbLine
 10
-11751.2429616174
 20
12964.5361206258
 30
0.0
 11
-11740.4027835439
 21
12975.3762986993
 31
0.0
  0
LINE
  5
58
100
AcDbEntity
  8
L1_80
  6
CONTINUOUS
 62
         4
100
AcDbLine
 10
-11775.3269568421
 20
12944.6947660882
 30
0.0
 11
-11771.0356023046
 21
12948.9861206258
 31
0.0
  0
LINE
  5
59
100
AcDbEntity
  8
L1_80
  6
CONTINUOUS
 62
         4
100
AcDbLine
 10
-11755.4856023046
 20
12964.5361206258
 30
0.0
 11
-11745.369772858
 21
12974.6519500724
 31
0.0
  0
LINE
  5
5A
100
AcDbEntity
  8
L1_80
  6
CONTINUOUS
 62
         4
100
AcDbLine
 10
-11759.7282429917
 20
12964.5361206258
 30
0.0
 11
-11750.336762172
 21
12973.9276014455
 31
0.0
  0
LINE
  5
5B
100
AcDbEntity
  8
L1_80
  6
CONTINUOUS
 62
         4
100
AcDbLine
 10
-11763.9708836788
 20
12964.5361206258
 30
0.0
 11
-11755.3037514861
 21
12973.2032528185
 31
0.0
  0
LINE
  5
5C
100
AcDbEntity
  8
L1_80
  6
CONTINUOUS
 62
         4
100
AcDbLine
 10
-11767.0834889675
 20
12965.6661560243
 30
0.0
 11
-11760.2707408002
 21
12972.4789041916
 31
0.0
  0
LINE
  5
5D
100
AcDbEntity
  8
L1_80
  6
CONTINUOUS
 62
         4
100
AcDbLine
 10
-11771.006165053
 20
12965.9861206258
 30
0.0
 11
-11765.2377301142
 21
12971.7545555646
 31
0.0
  0
LINE
  5
5E
100
AcDbEntity
  8
L1_80
  6
CONTINUOUS
 62
         4
100
AcDbLine
 10
-11775.1397125153
 20
12966.0952138507
 30
0.0
 11
-11770.2047194283
 21
12971.0302069377
 31
0.0
  0
LINE
  5
5F
100
AcDbEntity
  8
L1_80
  6
CONTINUOUS
 62
         4
100
AcDbLine
 10
-11776.0736005471
 20
12969.403966506
 30
0.0
 11
-11775.1717087424
 21
12970.3058583107
 31
0.0
  0
ENDBLK
  5
60
100
AcDbEntity
  8
0
  6
CONTINUOUS
100
AcDbBlockEnd
  0
BLOCK
  5
10E
100
AcDbEntity
  8
0
100
AcDbBlockBegin
  2
*D1
 70
        65
 10
0.0
 20
0.0
 30
0.0
  3
*D1
  1

  0
POINT
  5
111
100
AcDbEntity
  8
DEFPOINTS
  6
CONTINUOUS
 62
         0
100
AcDbPoint
 10
-11602.4381385567
 20
13138.1140970959
 30
0.0
  0
POINT
  5
112
100
AcDbEntity
  8
DEFPOINTS
  6
CONTINUOUS
 62
         0
100
AcDbPoint
 10
-11671.678126954
 20
13138.1140970959
 30
0.0
  0
POINT
  5
113
100
AcDbEntity
  8
DEFPOINTS
  6
CONTINUOUS
 62
         0
100
AcDbPoint
 10
-11671.678126954
 20
13103.1140970959
 30
0.0
  0
LINE
  5
114
100
AcDbEntity
  8
L1_80
  6
CONTINUOUS
 62
         4
100
AcDbLine
 10
-11670.328126954
 20
13138.1140970959
 30
0.0
 11
-11601.7631385567
 21
13138.1140970959
 31
0.0
  0
LINE
  5
115
100
AcDbEntity
  8
L1_80
  6
CONTINUOUS
 62
         4
100
AcDbLine
 10
-11670.328126954
 20
13103.1140970959
 30
0.0
 11
-11601.7631385567
 21
13103.1140970959
 31
0.0
  0
LINE
  5
116
100
AcDbEntity
  8
L1_80
  6
CONTINUOUS
 62
         4
100
AcDbLine
 10
-11602.4381385567
 20
13138.1140970959
 30
0.0
 11
-11602.4381385567
 21
13103.1140970959
 31
0.0
  0
SOLID
  5
117
100
AcDbEntity
  8
L1_80
  6
CONTINUOUS
 62
         4
100
AcDbTrace
 10
-11602.4381385567
 20
13138.1140970959
 30
0.0
 11
-11602.0331385567
 21
13135.4140970959
 31
0.0
 12
-11602.8431385567
 22
13135.4140970959
 32
0.0
 13
-11602.4381385567
 23
13138.1140970959
 33
0.0
  0
SOLID
  5
118
100
AcDbEntity
  8
L1_80
  6
CONTINUOUS
 62
         4
100
AcDbTrace
 10
-11602.4381385567
 20
13103.1140970959
 30
0.0
 11
-11602.8431385567
 21
13105.8140970959
 31
0.0
 12
-11602.0331385567
 22
13105.8140970959
 32
0.0
 13
-11602.4381385567
 23
13103.1140970959
 33
0.0
  0
TEXT
  5
11A
100
AcDbEntity
  8
L1_80
  6
CONTINUOUS
 62
         4
100
AcDbText
 10
-11604.4631385567
 20
13115.2140970959
 30
0.0
 40
2.7
  1
崷35
 50
90.0
  7
BOX
100
AcDbText
  0
ENDBLK
  5
11B
100
AcDbEntity
  8
0
  6
CONTINUOUS
100
AcDbBlockEnd
  0
BLOCK
  5
122
100
AcDbEntity
  8
0
100
AcDbBlockBegin
  2
*D2
 70
        65
 10
0.0
 20
0.0
 30
0.0
  3
*D2
  1

  0
POINT
  5
124
100
AcDbEntity
  8
DEFPOINTS
  6
CONTINUOUS
 62
         0
100
AcDbPoint
 10
-11670.678126954
 20
13094.4652850149
 30
0.0
  0
POINT
  5
125
100
AcDbEntity
  8
DEFPOINTS
  6
CONTINUOUS
 62
         0
100
AcDbPoint
 10
-11670.678126954
 20
13103.1140970959
 30
0.0
  0
POINT
  5
126
100
AcDbEntity
  8
DEFPOINTS
  6
CONTINUOUS
 62
         0
100
AcDbPoint
 10
-11665.678126954
 20
13106.6657916547
 30
0.0
  0
LINE
  5
127
100
AcDbEntity
  8
L1_80
  6
CONTINUOUS
 62
         4
100
AcDbLine
 10
-11670.678126954
 20
13101.7640970959
 30
0.0
 11
-11670.678126954
 21
13093.7902850149
 31
0.0
  0
LINE
  5
128
100
AcDbEntity
  8
L1_80
  6
CONTINUOUS
 62
         4
100
AcDbLine
 10
-11665.678126954
 20
13105.3157916547
 30
0.0
 11
-11665.678126954
 21
13093.7902850149
 31
0.0
  0
LINE
  5
129
100
AcDbEntity
  8
L1_80
  6
CONTINUOUS
 62
         4
100
AcDbLine
 10
-11670.678126954
 20
13094.4652850149
 30
0.0
 11
-11676.078126954
 21
13094.4652850149
 31
0.0
  0
SOLID
  5
12A
100
AcDbEntity
  8
L1_80
  6
CONTINUOUS
 62
         4
100
AcDbTrace
 10
-11670.678126954
 20
13094.4652850149
 30
0.0
 11
-11673.378126954
 21
13094.0602850149
 31
0.0
 12
-11673.378126954
 22
13094.8702850149
 32
0.0
 13
-11670.678126954
 23
13094.4652850149
 33
0.0
  0
LINE
  5
12B
100
AcDbEntity
  8
L1_80
  6
CONTINUOUS
 62
         4
100
AcDbLine
 10
-11665.678126954
 20
13094.4652850149
 30
0.0
 11
-11660.278126954
 21
13094.4652850149
 31
0.0
  0
SOLID
  5
12C
100
AcDbEntity
  8
L1_80
  6
CONTINUOUS
 62
         4
100
AcDbTrace
 10
-11665.678126954
 20
13094.4652850149
 30
0.0
 11
-11662.978126954
 21
13094.8702850149
 31
0.0
 12
-11662.978126954
 22
13094.0602850149
 32
0.0
 13
-11665.678126954
 23
13094.4652850149
 33
0.0
  0
LINE
  5
12D
100
AcDbEntity
  8
L1_80
  6
CONTINUOUS
 62
         4
100
AcDbLine
 10
-11670.678126954
 20
13094.4652850149
 30
0.0
 11
-11665.678126954
 21
13094.4652850149
 31
0.0
  0
TEXT
  5
12F
100
AcDbEntity
  8
L1_80
  6
CONTINUOUS
 62
         4
100
AcDbText
 10
-11669.2187594559
 20
13096.4902850149
 30
0.0
 40
2.7
  1
5
  7
BOX
100
AcDbText
  0
ENDBLK
  5
130
100
AcDbEntity
  8
0
  6
CONTINUOUS
100
AcDbBlockEnd
  0
BLOCK
  5
137
100
AcDbEntity
  8
0
100
AcDbBlockBegin
  2
*D3
 70
        65
 10
0.0
 20
0.0
 30
0.0
  3
*D3
  1

  0
POINT
  5
139
100
AcDbEntity
  8
DEFPOINTS
  6
CONTINUOUS
 62
         0
100
AcDbPoint
 10
-11665.678126954
 20
13155.8145688442
 30
0.0
  0
POINT
  5
13A
100
AcDbEntity
  8
DEFPOINTS
  6
CONTINUOUS
 62
         0
100
AcDbPoint
 10
-11665.678126954
 20
13130.8640970959
 30
0.0
  0
POINT
  5
13B
100
AcDbEntity
  8
DEFPOINTS
  6
CONTINUOUS
 62
         0
100
AcDbPoint
 10
-11634.722126954
 20
13128.6271261694
 30
0.0
  0
LINE
  5
13C
100
AcDbEntity
  8
L1_80
  6
CONTINUOUS
 62
         4
100
AcDbLine
 10
-11665.678126954
 20
13132.2140970959
 30
0.0
 11
-11665.678126954
 21
13156.4895688442
 31
0.0
  0
LINE
  5
13D
100
AcDbEntity
  8
L1_80
  6
CONTINUOUS
 62
         4
100
AcDbLine
 10
-11634.722126954
 20
13129.9771261694
 30
0.0
 11
-11634.722126954
 21
13156.4895688442
 31
0.0
  0
LINE
  5
13E
100
AcDbEntity
  8
L1_80
  6
CONTINUOUS
 62
         4
100
AcDbLine
 10
-11665.678126954
 20
13155.8145688442
 30
0.0
 11
-11634.722126954
 21
13155.8145688442
 31
0.0
  0
SOLID
  5
13F
100
AcDbEntity
  8
L1_80
  6
CONTINUOUS
 62
         4
100
AcDbTrace
 10
-11665.678126954
 20
13155.8145688442
 30
0.0
 11
-11662.978126954
 21
13156.2195688442
 31
0.0
 12
-11662.978126954
 22
13155.4095688442
 32
0.0
 13
-11665.678126954
 23
13155.8145688442
 33
0.0
  0
SOLID
  5
140
100
AcDbEntity
  8
L1_80
  6
CONTINUOUS
 62
         4
100
AcDbTrace
 10
-11634.722126954
 20
13155.8145688442
 30
0.0
 11
-11637.422126954
 21
13155.4095688442
 31
0.0
 12
-11637.422126954
 22
13156.2195688442
 32
0.0
 13
-11634.722126954
 23
13155.8145688442
 33
0.0
  0
TEXT
  5
142
100
AcDbEntity
  8
L1_80
  6
CONTINUOUS
 62
         4
100
AcDbText
 10
-11660.280319124
 20
13157.8395688442
 30
0.0
 40
2.7
  1
30.956
  7
BOX
100
AcDbText
  0
ENDBLK
  5
143
100
AcDbEntity
  8
0
  6
CONTINUOUS
100
AcDbBlockEnd
  0
BLOCK
  5
145
100
AcDbEntity
  8
0
100
AcDbBlockBegin
  2
*D4
 70
        65
 10
0.0
 20
0.0
 30
0.0
  3
*D4
  1

  0
POINT
  5
147
100
AcDbEntity
  8
DEFPOINTS
  6
CONTINUOUS
 62
         0
100
AcDbPoint
 10
-11618.5608153265
 20
13110.3640970959
 30
0.0
  0
POINT
  5
148
100
AcDbEntity
  8
DEFPOINTS
  6
CONTINUOUS
 62
         0
100
AcDbPoint
 10
-11665.678126954
 20
13110.3640970959
 30
0.0
  0
POINT
  5
149
100
AcDbEntity
  8
DEFPOINTS
  6
CONTINUOUS
 62
         0
100
AcDbPoint
 10
-11665.678126954
 20
13130.8640970959
 30
0.0
  0
LINE
  5
14A
100
AcDbEntity
  8
L1_80
  6
CONTINUOUS
 62
         4
100
AcDbLine
 10
-11664.328126954
 20
13110.3640970959
 30
0.0
 11
-11617.8858153265
 21
13110.3640970959
 31
0.0
  0
LINE
  5
14B
100
AcDbEntity
  8
L1_80
  6
CONTINUOUS
 62
         4
100
AcDbLine
 10
-11664.328126954
 20
13130.8640970959
 30
0.0
 11
-11617.8858153265
 21
13130.8640970959
 31
0.0
  0
LINE
  5
14C
100
AcDbEntity
  8
L1_80
  6
CONTINUOUS
 62
         4
100
AcDbLine
 10
-11618.5608153265
 20
13110.3640970959
 30
0.0
 11
-11618.5608153265
 21
13130.8640970959
 31
0.0
  0
SOLID
  5
14D
100
AcDbEntity
  8
L1_80
  6
CONTINUOUS
 62
         4
100
AcDbTrace
 10
-11618.5608153265
 20
13110.3640970959
 30
0.0
 11
-11618.9658153265
 21
13113.0640970959
 31
0.0
 12
-11618.1558153265
 22
13113.0640970959
 32
0.0
 13
-11618.5608153265
 23
13110.3640970959
 33
0.0
  0
SOLID
  5
14E
100
AcDbEntity
  8
L1_80
  6
CONTINUOUS
 62
         4
100
AcDbTrace
 10
-11618.5608153265
 20
13130.8640970959
 30
0.0
 11
-11618.1558153265
 21
13128.1640970959
 31
0.0
 12
-11618.9658153265
 22
13128.1640970959
 32
0.0
 13
-11618.5608153265
 23
13130.8640970959
 33
0.0
  0
TEXT
  5
150
100
AcDbEntity
  8
L1_80
  6
CONTINUOUS
 62
         4
100
AcDbText
 10
-11620.5858153265
 20
13111.3594446708
 30
0.0
 40
2.7
  1
崷20.599
 50
90.0
  7
BOX
100
AcDbText
  0
ENDBLK
  5
151
100
AcDbEntity
  8
0
  6
CONTINUOUS
100
AcDbBlockEnd
  0
BLOCK
  5
157
100
AcDbEntity
  8
0
100
AcDbBlockBegin
  2
*D5
 70
        65
 10
0.0
 20
0.0
 30
0.0
  3
*D5
  1

  0
POINT
  5
159
100
AcDbEntity
  8
DEFPOINTS
  6
CONTINUOUS
 62
         0
100
AcDbPoint
 10
-11776.078126954
 20
13194.4078691996
 30
0.0
  0
POINT
  5
15A
100
AcDbEntity
  8
DEFPOINTS
  6
CONTINUOUS
 62
         0
100
AcDbPoint
 10
-11776.078126954
 20
13132.4369044293
 30
0.0
  0
POINT
  5
15B
100
AcDbEntity
  8
DEFPOINTS
  6
CONTINUOUS
 62
         0
100
AcDbPoint
 10
-11634.722126954
 20
13128.5800059184
 30
0.0
  0
LINE
  5
15C
100
AcDbEntity
  8
L1_80
  6
CONTINUOUS
 62
         4
100
AcDbLine
 10
-11776.078126954
 20
13133.7869044293
 30
0.0
 11
-11776.078126954
 21
13195.0828691996
 31
0.0
  0
LINE
  5
15D
100
AcDbEntity
  8
L1_80
  6
CONTINUOUS
 62
         4
100
AcDbLine
 10
-11634.722126954
 20
13129.9300059184
 30
0.0
 11
-11634.722126954
 21
13195.0828691996
 31
0.0
  0
LINE
  5
15E
100
AcDbEntity
  8
L1_80
  6
CONTINUOUS
 62
         4
100
AcDbLine
 10
-11776.078126954
 20
13194.4078691996
 30
0.0
 11
-11634.722126954
 21
13194.4078691996
 31
0.0
  0
SOLID
  5
15F
100
AcDbEntity
  8
L1_80
  6
CONTINUOUS
 62
         4
100
AcDbTrace
 10
-11776.078126954
 20
13194.4078691996
 30
0.0
 11
-11773.378126954
 21
13194.8128691996
 31
0.0
 12
-11773.378126954
 22
13194.0028691996
 32
0.0
 13
-11776.078126954
 23
13194.4078691996
 33
0.0
  0
SOLID
  5
160
100
AcDbEntity
  8
L1_80
  6
CONTINUOUS
 62
         4
100
AcDbTrace
 10
-11634.722126954
 20
13194.4078691996
 30
0.0
 11
-11637.422126954
 21
13194.0028691996
 31
0.0
 12
-11637.422126954
 22
13194.8128691996
 32
0.0
 13
-11634.722126954
 23
13194.4078691996
 33
0.0
  0
TEXT
  5
162
100
AcDbEntity
  8
L1_80
  6
CONTINUOUS
 62
         4
100
AcDbText
 10
-11713.500126954
 20
13196.4328691996
 30
0.0
 40
2.7
  1
141.36
  7
BOX
100
AcDbText
  0
ENDBLK
  5
163
100
AcDbEntity
  8
0
  6
CONTINUOUS
100
AcDbBlockEnd
  0
BLOCK
  5
165
100
AcDbEntity
  8
0
100
AcDbBlockBegin
  2
*D6
 70
        65
 10
0.0
 20
0.0
 30
0.0
  3
*D6
  1

  0
POINT
  5
167
100
AcDbEntity
  8
DEFPOINTS
  6
CONTINUOUS
 62
         0
100
AcDbPoint
 10
-11710.678126954
 20
13186.5222212367
 30
0.0
  0
POINT
  5
168
100
AcDbEntity
  8
DEFPOINTS
  6
CONTINUOUS
 62
         0
100
AcDbPoint
 10
-11710.678126954
 20
13142.8390970959
 30
0.0
  0
POINT
  5
169
100
AcDbEntity
  8
DEFPOINTS
  6
CONTINUOUS
 62
         0
100
AcDbPoint
 10
-11665.678126954
 20
13133.9702180005
 30
0.0
  0
LINE
  5
16A
100
AcDbEntity
  8
L1_80
  6
CONTINUOUS
 62
         4
100
AcDbLine
 10
-11710.678126954
 20
13144.1890970959
 30
0.0
 11
-11710.678126954
 21
13187.1972212367
 31
0.0
  0
LINE
  5
16B
100
AcDbEntity
  8
L1_80
  6
CONTINUOUS
 62
         4
100
AcDbLine
 10
-11665.678126954
 20
13135.3202180005
 30
0.0
 11
-11665.678126954
 21
13187.1972212367
 31
0.0
  0
LINE
  5
16C
100
AcDbEntity
  8
L1_80
  6
CONTINUOUS
 62
         4
100
AcDbLine
 10
-11710.678126954
 20
13186.5222212367
 30
0.0
 11
-11665.678126954
 21
13186.5222212367
 31
0.0
  0
SOLID
  5
16D
100
AcDbEntity
  8
L1_80
  6
CONTINUOUS
 62
         4
100
AcDbTrace
 10
-11710.678126954
 20
13186.5222212367
 30
0.0
 11
-11707.978126954
 21
13186.9272212367
 31
0.0
 12
-11707.978126954
 22
13186.1172212367
 32
0.0
 13
-11710.678126954
 23
13186.5222212367
 33
0.0
  0
SOLID
  5
16E
100
AcDbEntity
  8
L1_80
  6
CONTINUOUS
 62
         4
100
AcDbTrace
 10
-11665.678126954
 20
13186.5222212367
 30
0.0
 11
-11668.378126954
 21
13186.1172212367
 31
0.0
 12
-11668.378126954
 22
13186.9272212367
 32
0.0
 13
-11665.678126954
 23
13186.5222212367
 33
0.0
  0
TEXT
  5
170
100
AcDbEntity
  8
L1_80
  6
CONTINUOUS
 62
         4
100
AcDbText
 10
-11690.9957721512
 20
13188.5472212367
 30
0.0
 40
2.7
  1
45
  7
BOX
100
AcDbText
  0
ENDBLK
  5
171
100
AcDbEntity
  8
0
  6
CONTINUOUS
100
AcDbBlockEnd
  0
BLOCK
  5
178
100
AcDbEntity
  8
0
100
AcDbBlockBegin
  2
*D7
 70
        65
 10
0.0
 20
0.0
 30
0.0
  3
*D7
  1

  0
POINT
  5
17A
100
AcDbEntity
  8
DEFPOINTS
  6
CONTINUOUS
 62
         0
100
AcDbPoint
 10
-11686.9533260475
 20
12967.7361206258
 30
0.0
  0
POINT
  5
17B
100
AcDbEntity
  8
DEFPOINTS
  6
CONTINUOUS
 62
         0
100
AcDbPoint
 10
-11591.9089982373
 20
12967.7361206258
 30
0.0
  0
POINT
  5
17C
100
AcDbEntity
  8
DEFPOINTS
  6
CONTINUOUS
 62
         0
100
AcDbPoint
 10
-11668.870794206
 20
12967.8211064428
 30
0.0
  0
POINT
  5
17D
100
AcDbEntity
  8
DEFPOINTS
  6
CONTINUOUS
 62
         0
100
AcDbPoint
 10
-11636.222126954
 20
12966.9520294484
 30
0.0
  0
ARC
  5
17E
100
AcDbEntity
  8
L1_80
  6
CONTINUOUS
 62
         4
100
AcDbCircle
 10
-11665.678126954
 20
12967.7361206258
 30
0.0
 40
15.3774633845
100
AcDbArc
 50
358.4752
 51
359.2376
  0
SOLID
  5
17F
100
AcDbEntity
  8
L1_80
  6
CONTINUOUS
 62
         4
100
AcDbTrace
 10
-11650.3061087161
 20
12967.3269318738
 30
0.0
 11
-11650.8751277057
 21
12969.9971832458
 31
0.0
 12
-11650.0666374698
 22
12970.0466154073
 32
0.0
 13
-11650.3061087161
 23
12967.3269318738
 33
0.0
  0
ARC
  5
180
100
AcDbEntity
  8
L1_80
  6
CONTINUOUS
 62
         4
100
AcDbCircle
 10
-11665.678126954
 20
12967.7361206258
 30
0.0
 40
15.3774633845
100
AcDbArc
 50
359.2376
 51
360.0
  0
SOLID
  5
181
100
AcDbEntity
  8
L1_80
  6
CONTINUOUS
 62
         4
100
AcDbTrace
 10
-11650.3006635695
 20
12967.7361206258
 30
0.0
 11
-11650.1336469173
 21
12965.0110278865
 31
0.0
 12
-11650.9405354954
 22
12965.0819561776
 32
0.0
 13
-11650.3006635695
 23
12967.7361206258
 33
0.0
  0
ARC
  5
182
100
AcDbEntity
  8
L1_80
  6
CONTINUOUS
 62
         4
100
AcDbCircle
 10
-11665.678126954
 20
12967.7361206258
 30
0.0
 40
15.3774633845
100
AcDbArc
 50
0.0
 51
8.9282185251
  0
SOLID
  5
183
100
AcDbEntity
  8
L1_80
  6
CONTINUOUS
 62
         4
100
AcDbTrace
 10
-11665.678126954
 20
12967.7361206258
 30
0.0
 11
-11664.6043735116
 21
12970.2463155475
 31
0.0
 12
-11663.9151416567
 22
12969.8208047366
 32
0.0
 13
-11665.678126954
 23
12967.7361206258
 33
0.0
  0
TEXT
  5
185
100
AcDbEntity
  8
L1_80
  6
CONTINUOUS
 62
         4
100
AcDbText
 10
-11649.1369838337
 20
12971.4726559473
 30
0.0
 40
2.7
  1
1.5248%%d
  7
BOX
100
AcDbText
  0
ENDBLK
  5
186
100
AcDbEntity
  8
0
  6
CONTINUOUS
100
AcDbBlockEnd
  0
BLOCK
  5
188
100
AcDbEntity
  8
0
100
AcDbBlockBegin
  2
*D8
 70
        65
 10
0.0
 20
0.0
 30
0.0
  3
*D8
  1

  0
POINT
  5
18A
100
AcDbEntity
  8
DEFPOINTS
  6
CONTINUOUS
 62
         0
100
AcDbPoint
 10
-11622.3564247341
 20
12966.9121008509
 30
0.0
  0
POINT
  5
18B
100
AcDbEntity
  8
DEFPOINTS
  6
CONTINUOUS
 62
         0
100
AcDbPoint
 10
-11634.722126954
 20
12966.9121008509
 30
0.0
  0
POINT
  5
18C
100
AcDbEntity
  8
DEFPOINTS
  6
CONTINUOUS
 62
         0
100
AcDbPoint
 10
-11634.722126954
 20
12948.0601404008
 30
0.0
  0
LINE
  5
18D
100
AcDbEntity
  8
L1_80
  6
CONTINUOUS
 62
         4
100
AcDbLine
 10
-11633.372126954
 20
12966.9121008509
 30
0.0
 11
-11621.6814247341
 21
12966.9121008509
 31
0.0
  0
LINE
  5
18E
100
AcDbEntity
  8
L1_80
  6
CONTINUOUS
 62
         4
100
AcDbLine
 10
-11633.372126954
 20
12948.0601404008
 30
0.0
 11
-11621.6814247341
 21
12948.0601404008
 31
0.0
  0
LINE
  5
18F
100
AcDbEntity
  8
L1_80
  6
CONTINUOUS
 62
         4
100
AcDbLine
 10
-11622.3564247341
 20
12966.9121008509
 30
0.0
 11
-11622.3564247341
 21
12948.0601404008
 31
0.0
  0
SOLID
  5
190
100
AcDbEntity
  8
L1_80
  6
CONTINUOUS
 62
         4
100
AcDbTrace
 10
-11622.3564247341
 20
12966.9121008509
 30
0.0
 11
-11621.9514247341
 21
12964.2121008509
 31
0.0
 12
-11622.7614247341
 22
12964.2121008509
 32
0.0
 13
-11622.3564247341
 23
12966.9121008509
 33
0.0
  0
SOLID
  5
191
100
AcDbEntity
  8
L1_80
  6
CONTINUOUS
 62
         4
100
AcDbTrace
 10
-11622.3564247341
 20
12948.0601404008
 30
0.0
 11
-11622.7614247341
 21
12950.7601404008
 31
0.0
 12
-11621.9514247341
 22
12950.7601404008
 32
0.0
 13
-11622.3564247341
 23
12948.0601404008
 33
0.0
  0
TEXT
  5
193
100
AcDbEntity
  8
L1_80
  6
CONTINUOUS
 62
         4
100
AcDbText
 10
-11624.3814247341
 20
12944.9629923091
 30
0.0
 40
2.7
  1
崷18.951
 50
90.0
  7
BOX
100
AcDbText
  0
ENDBLK
  5
194
100
AcDbEntity
  8
0
  6
CONTINUOUS
100
AcDbBlockEnd
  0
ENDSEC
  0
SECTION
  2
ENTITIES
  0
INSERT
  5
62
100
AcDbEntity
  8
0
  6
CONTINUOUS
100
AcDbBlockReference
  2
*X0
 10
0.0
 20
0.0
 30
0.0
  0
ARC
  5
63
100
AcDbEntity
  8
L1_80
  6
CONTINUOUS
 62
         7
100
AcDbCircle
 10
-11680.678126954
 20
12937.0048851626
 30
0.0
 40
3.0
100
AcDbArc
 50
90.0
 51
180.0
  0
LINE
  5
64
100
AcDbEntity
  8
_Y__________
  6
CONTINUOUS
 62
         7
100
AcDbLine
 10
-11683.678126954
 20
12978.0048851626
 30
0.0
 11
-11683.678126954
 21
12987.9861206258
 31
0.0
  0
LINE
  5
65
100
AcDbEntity
  8
_X______
  6
CONTINUOUS
 62
         7
100
AcDbLine
 10
-11735.078126954
 20
12964.5361206258
 30
0.0
 11
-11767.078126954
 21
12964.5361206258
 31
0.0
  0
LINE
  5
66
100
AcDbEntity
  8
_X______
  6
CONTINUOUS
 62
         7
100
AcDbLine
 10
-11735.078126954
 20
12950.4361206258
 30
0.0
 11
-11767.078126954
 21
12950.4361206258
 31
0.0
  0
LINE
  5
67
100
AcDbEntity
  8
_X______
  6
CONTINUOUS
 62
         7
100
AcDbLine
 10
-11735.078126954
 20
12964.5361206258
 30
0.0
 11
-11735.078126954
 21
12950.4361206258
 31
0.0
  0
LINE
  5
68
100
AcDbEntity
  8
_X______
  6
CONTINUOUS
 62
         7
100
AcDbLine
 10
-11735.078126954
 20
12964.5361206258
 30
0.0
 11
-11731.0078075562
 21
12957.4861206258
 31
0.0
  0
LINE
  5
69
100
AcDbEntity
  8
_X______
  6
CONTINUOUS
 62
         7
100
AcDbLine
 10
-11735.078126954
 20
12950.4361206258
 30
0.0
 11
-11731.0078075562
 21
12957.4861206258
 31
0.0
  0
LINE
  5
6A
100
AcDbEntity
  8
_Y__________
  6
CENTER
 62
         1
100
AcDbLine
 10
-11479.498126954
 20
13155.1140970959
 30
0.0
 11
-11479.498126954
 21
13082.1069640003
 31
0.0
  0
CIRCLE
  5
6B
100
AcDbEntity
  8
_Y__________
  6
CONTINUOUS
 62
         7
100
AcDbCircle
 10
-11479.498126954
 20
13120.6140970959
 30
0.0
 40
31.5
  0
LINE
  5
6C
100
AcDbEntity
  8
_Y__________
  6
CENTER
 62
         1
100
AcDbLine
 10
-11513.998126954
 20
13120.6140970959
 30
0.0
 11
-11444.998126954
 21
13120.6140970959
 31
0.0
  0
ARC
  5
6D
100
AcDbEntity
  8
_Y__________
  6
CONTINUOUS
 62
         4
100
AcDbCircle
 10
-11887.858126954
 20
13120.6140970959
 30
0.0
 40
8.0
100
AcDbArc
 50
265.563559301
 51
540.0
  0
CIRCLE
  5
6E
100
AcDbEntity
  8
_Y__________
  6
CONTINUOUS
 62
         7
100
AcDbCircle
 10
-11887.858126954
 20
13120.6140970959
 30
0.0
 40
8.5
  0
CIRCLE
  5
6F
100
AcDbEntity
  8
_Y__________
  6
CONTINUOUS
 62
         7
100
AcDbCircle
 10
-11887.858126954
 20
13120.6140970959
 30
0.0
 40
7.0
  0
CIRCLE
  5
70
100
AcDbEntity
  8
_Y__________
  6
CONTINUOUS
 62
         7
100
AcDbCircle
 10
-11887.858126954
 20
13120.6140970959
 30
0.0
 40
22.2979162659
  0
CIRCLE
  5
71
100
AcDbEntity
  8
_Y__________
  6
CONTINUOUS
 62
         7
100
AcDbCircle
 10
-11887.858126954
 20
13120.6140970959
 30
0.0
 40
12.6875524223
  0
LINE
  5
72
100
AcDbEntity
  8
_Y__________
  6
CENTER
 62
         1
100
AcDbLine
 10
-11887.858126954
 20
13155.1140970959
 30
0.0
 11
-11887.858126954
 21
13086.1140970959
 31
0.0
  0
CIRCLE
  5
73
100
AcDbEntity
  8
_Y__________
  6
CONTINUOUS
 62
         7
100
AcDbCircle
 10
-11887.858126954
 20
13120.6140970959
 30
0.0
 40
31.5
  0
LINE
  5
74
100
AcDbEntity
  8
_Y__________
  6
CENTER
 62
         1
100
AcDbLine
 10
-11922.358126954
 20
13120.6140970959
 30
0.0
 11
-11853.358126954
 21
13120.6140970959
 31
0.0
  0
LINE
  5
75
100
AcDbEntity
  8
_Y__________
  6
CONTINUOUS
 62
         7
100
AcDbLine
 10
-11745.078126954
 20
12965.4861206258
 30
0.0
 11
-11745.078126954
 21
12949.4861206258
 31
0.0
  0
LINE
  5
76
100
AcDbEntity
  8
_Y__________
  6
CONTINUOUS
 62
         7
100
AcDbLine
 10
-11689.0779849476
 20
12988.9861206258
 30
0.0
 11
-11684.678126954
 21
12988.9861206258
 31
0.0
  0
LINE
  5
77
100
AcDbEntity
  8
_Y__________
  6
CONTINUOUS
 62
         7
100
AcDbLine
 10
-11691.578126954
 20
12984.6557476448
 30
0.0
 11
-11689.0779849476
 21
12988.9861206258
 31
0.0
  0
LINE
  5
78
100
AcDbEntity
  8
_Y__________
  6
CONTINUOUS
 62
         7
100
AcDbLine
 10
-11691.578126954
 20
12984.6557476448
 30
0.0
 11
-11691.578126954
 21
12983.9861206258
 31
0.0
  0
LINE
  5
79
100
AcDbEntity
  8
_Y__________
  6
CONTINUOUS
 62
         7
100
AcDbLine
 10
-11696.578126954
 20
12983.9861206258
 30
0.0
 11
-11691.578126954
 21
12983.9861206258
 31
0.0
  0
LINE
  5
7A
100
AcDbEntity
  8
_Y__________
  6
CONTINUOUS
 62
         7
100
AcDbLine
 10
-11696.578126954
 20
12984.6557476448
 30
0.0
 11
-11696.578126954
 21
12983.9861206258
 31
0.0
  0
LINE
  5
7B
100
AcDbEntity
  8
_Y__________
  6
CONTINUOUS
 62
         7
100
AcDbLine
 10
-11696.578126954
 20
12984.6557476448
 30
0.0
 11
-11699.0782689603
 21
12988.9861206258
 31
0.0
  0
LINE
  5
7C
100
AcDbEntity
  8
_Y__________
  6
CONTINUOUS
 62
         7
100
AcDbLine
 10
-11707.678126954
 20
12988.9861206258
 30
0.0
 11
-11699.0782689603
 21
12988.9861206258
 31
0.0
  0
LINE
  5
7D
100
AcDbEntity
  8
_Y__________
  6
CONTINUOUS
 62
         7
100
AcDbLine
 10
-11708.678126954
 20
12987.9861206258
 30
0.0
 11
-11708.678126954
 21
12979.9840368917
 31
0.0
  0
ARC
  5
7E
100
AcDbEntity
  8
_Y__________
  6
CONTINUOUS
 62
         7
100
AcDbCircle
 10
-11709.078126954
 20
12979.9840368917
 30
0.0
 40
0.4
100
AcDbArc
 50
270.0
 51
360.0
  0
LINE
  5
7F
100
AcDbEntity
  8
_Y__________
  6
CONTINUOUS
 62
         7
100
AcDbLine
 10
-11709.4317167924
 20
12979.5840368917
 30
0.0
 11
-11709.078126954
 21
12979.5840368917
 31
0.0
  0
LINE
  5
80
100
AcDbEntity
  8
_Y__________
  6
CONTINUOUS
 62
         7
100
AcDbLine
 10
-11710.178126954
 20
12979.7840368917
 30
0.0
 11
-11709.4317167924
 21
12979.5840368917
 31
0.0
  0
LINE
  5
81
100
AcDbEntity
  8
_Y__________
  6
CONTINUOUS
 62
         7
100
AcDbLine
 10
-11775.2224330704
 20
12970.2984610536
 30
0.0
 11
-11710.178126954
 21
12979.7840368917
 31
0.0
  0
ARC
  5
82
100
AcDbEntity
  8
_Y__________
  6
CONTINUOUS
 62
         7
100
AcDbCircle
 10
-11775.078126954
 20
12969.3089279592
 30
0.0
 40
1.0
100
AcDbArc
 50
98.2971
 51
180.0
  0
LINE
  5
83
100
AcDbEntity
  8
_Y__________
  6
CONTINUOUS
 62
         7
100
AcDbLine
 10
-11776.078126954
 20
12969.3089279592
 30
0.0
 11
-11776.078126954
 21
12945.6633132924
 31
0.0
  0
ARC
  5
84
100
AcDbEntity
  8
_Y__________
  6
CONTINUOUS
 62
         7
100
AcDbCircle
 10
-11775.078126954
 20
12945.6633132924
 30
0.0
 40
1.0
100
AcDbArc
 50
180.0
 51
261.7029
  0
LINE
  5
85
100
AcDbEntity
  8
_Y__________
  6
CONTINUOUS
 62
         7
100
AcDbLine
 10
-11775.2224330704
 20
12944.6737801981
 30
0.0
 11
-11710.178126954
 21
12935.18820436
 31
0.0
  0
LINE
  5
86
100
AcDbEntity
  8
_Y__________
  6
CONTINUOUS
 62
         7
100
AcDbLine
 10
-11710.178126954
 20
12935.18820436
 30
0.0
 11
-11709.4317167924
 21
12935.38820436
 31
0.0
  0
LINE
  5
87
100
AcDbEntity
  8
_Y__________
  6
CONTINUOUS
 62
         7
100
AcDbLine
 10
-11709.4317167924
 20
12935.38820436
 30
0.0
 11
-11709.078126954
 21
12935.38820436
 31
0.0
  0
ARC
  5
88
100
AcDbEntity
  8
_Y__________
  6
CONTINUOUS
 62
         7
100
AcDbCircle
 10
-11709.078126954
 20
12934.98820436
 30
0.0
 40
0.4
100
AcDbArc
 50
0.0
 51
90.0
  0
LINE
  5
89
100
AcDbEntity
  8
_Y__________
  6
CONTINUOUS
 62
         7
100
AcDbLine
 10
-11708.678126954
 20
12934.98820436
 30
0.0
 11
-11708.678126954
 21
12926.9861206258
 31
0.0
  0
LINE
  5
8A
100
AcDbEntity
  8
_Y__________
  6
CONTINUOUS
 62
         7
100
AcDbLine
 10
-11707.678126954
 20
12925.9861206258
 30
0.0
 11
-11699.0782689603
 21
12925.9861206258
 31
0.0
  0
LINE
  5
8B
100
AcDbEntity
  8
_Y__________
  6
CONTINUOUS
 62
         7
100
AcDbLine
 10
-11696.578126954
 20
12930.3164936069
 30
0.0
 11
-11699.0782689603
 21
12925.9861206258
 31
0.0
  0
LINE
  5
8C
100
AcDbEntity
  8
_Y__________
  6
CONTINUOUS
 62
         7
100
AcDbLine
 10
-11696.578126954
 20
12930.9861206258
 30
0.0
 11
-11696.578126954
 21
12930.3164936069
 31
0.0
  0
LINE
  5
8D
100
AcDbEntity
  8
_Y__________
  6
CONTINUOUS
 62
         7
100
AcDbLine
 10
-11696.578126954
 20
12930.9861206258
 30
0.0
 11
-11691.578126954
 21
12930.9861206258
 31
0.0
  0
LINE
  5
8E
100
AcDbEntity
  8
_Y__________
  6
CONTINUOUS
 62
         7
100
AcDbLine
 10
-11691.578126954
 20
12930.9861206258
 30
0.0
 11
-11691.578126954
 21
12930.3164936069
 31
0.0
  0
LINE
  5
8F
100
AcDbEntity
  8
_Y__________
  6
CONTINUOUS
 62
         7
100
AcDbLine
 10
-11691.578126954
 20
12930.3164936069
 30
0.0
 11
-11689.0779849476
 21
12925.9861206258
 31
0.0
  0
LINE
  5
90
100
AcDbEntity
  8
_Y__________
  6
CONTINUOUS
 62
         7
100
AcDbLine
 10
-11689.0779849476
 20
12925.9861206258
 30
0.0
 11
-11684.678126954
 21
12925.9861206258
 31
0.0
  0
LINE
  5
91
100
AcDbEntity
  8
_Y__________
  6
CONTINUOUS
 62
         7
100
AcDbLine
 10
-11767.078126954
 20
12964.5361206258
 30
0.0
 11
-11745.078126954
 21
12964.5361206258
 31
0.0
  0
LINE
  5
92
100
AcDbEntity
  8
_Y__________
  6
CONTINUOUS
 62
         7
100
AcDbLine
 10
-11767.078126954
 20
12950.4361206258
 30
0.0
 11
-11745.078126954
 21
12950.4361206258
 31
0.0
  0
LINE
  5
93
100
AcDbEntity
  8
_Y__________
  6
CONTINUOUS
 62
         7
100
AcDbLine
 10
-11767.078126954
 20
12965.5861206258
 30
0.0
 11
-11767.078126954
 21
12949.3861206258
 31
0.0
  0
ARC
  5
94
100
AcDbEntity
  8
_Y__________
  6
CONTINUOUS
 62
         7
100
AcDbCircle
 10
-11767.678126954
 20
12965.5861206258
 30
0.0
 40
0.6
100
AcDbArc
 50
0.0
 51
90.0
  0
LINE
  5
95
100
AcDbEntity
  8
_Y__________
  6
CONTINUOUS
 62
         7
100
AcDbLine
 10
-11768.2527252939
 20
12966.1861206258
 30
0.0
 11
-11767.678126954
 21
12966.1861206258
 31
0.0
  0
ARC
  5
96
100
AcDbEntity
  8
_Y__________
  6
CONTINUOUS
 62
         7
100
AcDbCircle
 10
-11768.2527252939
 20
12965.5861206258
 30
0.0
 40
0.6
100
AcDbArc
 50
90.0
 51
105.0
  0
LINE
  5
97
100
AcDbEntity
  8
_Y__________
  6
CONTINUOUS
 62
         7
100
AcDbLine
 10
-11769.078126954
 20
12965.9861206258
 30
0.0
 11
-11768.4080167209
 21
12966.1656761216
 31
0.0
  0
LINE
  5
98
100
AcDbEntity
  8
_Y__________
  6
CONTINUOUS
 62
         7
100
AcDbLine
 10
-11774.578126954
 20
12965.9861206258
 30
0.0
 11
-11769.078126954
 21
12965.9861206258
 31
0.0
  0
ARC
  5
99
100
AcDbEntity
  8
_Y__________
  6
CONTINUOUS
 62
         7
100
AcDbCircle
 10
-11774.578126954
 20
12967.4861206258
 30
0.0
 40
1.5
100
AcDbArc
 50
180.0
 51
270.0
  0
LINE
  5
9A
100
AcDbEntity
  8
_Y__________
  6
CONTINUOUS
 62
         7
100
AcDbLine
 10
-11769.078126954
 20
12965.9861206258
 30
0.0
 11
-11769.078126954
 21
12948.9861206258
 31
0.0
  0
ARC
  5
9B
100
AcDbEntity
  8
_Y__________
  6
CONTINUOUS
 62
         7
100
AcDbCircle
 10
-11767.678126954
 20
12949.3861206258
 30
0.0
 40
0.6
100
AcDbArc
 50
270.0
 51
360.0
  0
LINE
  5
9C
100
AcDbEntity
  8
_Y__________
  6
CONTINUOUS
 62
         7
100
AcDbLine
 10
-11768.2527252939
 20
12948.7861206258
 30
0.0
 11
-11767.678126954
 21
12948.7861206258
 31
0.0
  0
LINE
  5
9D
100
AcDbEntity
  8
_Y__________
  6
CONTINUOUS
 62
         7
100
AcDbLine
 10
-11774.578126954
 20
12948.9861206258
 30
0.0
 11
-11769.078126954
 21
12948.9861206258
 31
0.0
  0
LINE
  5
9E
100
AcDbEntity
  8
_Y__________
  6
CONTINUOUS
 62
         7
100
AcDbLine
 10
-11769.078126954
 20
12948.9861206258
 30
0.0
 11
-11768.4080167209
 21
12948.8065651301
 31
0.0
  0
ARC
  5
9F
100
AcDbEntity
  8
_Y__________
  6
CONTINUOUS
 62
         7
100
AcDbCircle
 10
-11768.2527252939
 20
12949.3861206258
 30
0.0
 40
0.6
100
AcDbArc
 50
255.0
 51
270.0
  0
ARC
  5
A0
100
AcDbEntity
  8
_Y__________
  6
CONTINUOUS
 62
         7
100
AcDbCircle
 10
-11774.578126954
 20
12947.4861206258
 30
0.0
 40
1.5
100
AcDbArc
 50
90.0
 51
180.0
  0
LINE
  5
A1
100
AcDbEntity
  8
_Y__________
  6
CONTINUOUS
 62
         5
100
AcDbLine
 10
-11767.078126954
 20
12949.4861206258
 30
0.0
 11
-11745.078126954
 21
12949.4861206258
 31
0.0
  0
LINE
  5
A2
100
AcDbEntity
  8
_Y__________
  6
CONTINUOUS
 62
         5
100
AcDbLine
 10
-11767.078126954
 20
12965.4861206258
 30
0.0
 11
-11745.078126954
 21
12965.4861206258
 31
0.0
  0
LINE
  5
A3
100
AcDbEntity
  8
_Y__________
  6
CENTER
 62
         1
100
AcDbLine
 10
-11778.9950575414
 20
12957.4861206258
 30
0.0
 11
-11632.2985184944
 21
12957.4861206258
 31
0.0
  0
LINE
  5
A4
100
AcDbEntity
  8
_Y__________
  6
CENTER
 62
         1
100
AcDbLine
 10
-11694.078126954
 20
13152.1140970959
 30
0.0
 11
-11694.078126954
 21
13089.1140970959
 31
0.0
  0
LINE
  5
A5
100
AcDbEntity
  8
_Y__________
  6
CONTINUOUS
 62
         7
100
AcDbLine
 10
-11683.678126954
 20
13151.1140970959
 30
0.0
 11
-11683.678126954
 21
13100.1140970959
 31
0.0
  0
LINE
  5
A6
100
AcDbEntity
  8
_Y__________
  6
CONTINUOUS
 62
         7
100
AcDbLine
 10
-11708.678126954
 20
13151.1140970959
 30
0.0
 11
-11708.678126954
 21
13090.1140970959
 31
0.0
  0
LINE
  5
A7
100
AcDbEntity
  8
_Y__________
  6
CONTINUOUS
 62
         7
100
AcDbLine
 10
-11775.2224330704
 20
13133.4264375236
 30
0.0
 11
-11710.178126954
 21
13142.9120133618
 31
0.0
  0
LINE
  5
A8
100
AcDbEntity
  8
_Y__________
  6
CONTINUOUS
 62
         7
100
AcDbLine
 10
-11775.2224330704
 20
13107.8017566682
 30
0.0
 11
-11710.178126954
 21
13098.31618083
 31
0.0
  0
ARC
  5
A9
100
AcDbEntity
  8
_Y__________
  6
CONTINUOUS
 62
         7
100
AcDbCircle
 10
-11775.078126954
 20
13132.4369044293
 30
0.0
 40
1.0
100
AcDbArc
 50
98.2971
 51
180.0
  0
ARC
  5
AA
100
AcDbEntity
  8
_Y__________
  6
CONTINUOUS
 62
         7
100
AcDbCircle
 10
-11775.078126954
 20
13108.7912897625
 30
0.0
 40
1.0
100
AcDbArc
 50
180.0
 51
261.7029
  0
LINE
  5
AB
100
AcDbEntity
  8
_Y__________
  6
CONTINUOUS
 62
         7
100
AcDbLine
 10
-11776.078126954
 20
13132.4369044293
 30
0.0
 11
-11776.078126954
 21
13108.7912897625
 31
0.0
  0
LINE
  5
AC
100
AcDbEntity
  8
_Y__________
  6
CONTINUOUS
 62
         7
100
AcDbLine
 10
-11707.678126954
 20
13089.1140970959
 30
0.0
 11
-11699.0782689603
 21
13089.1140970959
 31
0.0
  0
LINE
  5
AD
100
AcDbEntity
  8
_Y__________
  6
CENTER
 62
         1
100
AcDbLine
 10
-11710.678126954
 20
13142.8390970959
 30
0.0
 11
-11710.678126954
 21
13098.3890970959
 31
0.0
  0
LINE
  5
AE
100
AcDbEntity
  8
_Y__________
  6
CONTINUOUS
 62
         7
100
AcDbLine
 10
-11710.178126954
 20
13142.9120133618
 30
0.0
 11
-11710.178126954
 21
13098.31618083
 31
0.0
  0
LINE
  5
AF
100
AcDbEntity
  8
_Y__________
  6
CONTINUOUS
 62
         7
100
AcDbLine
 10
-11709.4317167924
 20
13098.51618083
 30
0.0
 11
-11709.078126954
 21
13098.51618083
 31
0.0
  0
ARC
  5
B0
100
AcDbEntity
  8
_Y__________
  6
CONTINUOUS
 62
         7
100
AcDbCircle
 10
-11709.078126954
 20
13098.11618083
 30
0.0
 40
0.4
100
AcDbArc
 50
0.0
 51
90.0
  0
LINE
  5
B1
100
AcDbEntity
  8
_Y__________
  6
CONTINUOUS
 62
         7
100
AcDbLine
 10
-11710.178126954
 20
13098.31618083
 30
0.0
 11
-11709.4317167924
 21
13098.51618083
 31
0.0
  0
ARC
  5
B2
100
AcDbEntity
  8
_Y__________
  6
CONTINUOUS
 62
         7
100
AcDbCircle
 10
-11709.078126954
 20
13143.1120133618
 30
0.0
 40
0.4
100
AcDbArc
 50
270.0
 51
360.0
  0
LINE
  5
B3
100
AcDbEntity
  8
_Y__________
  6
CONTINUOUS
 62
         7
100
AcDbLine
 10
-11709.4317167924
 20
13142.7120133618
 30
0.0
 11
-11709.078126954
 21
13142.7120133618
 31
0.0
  0
LINE
  5
B4
100
AcDbEntity
  8
_Y__________
  6
CONTINUOUS
 62
         7
100
AcDbLine
 10
-11710.178126954
 20
13142.9120133618
 30
0.0
 11
-11709.4317167924
 21
13142.7120133618
 31
0.0
  0
LINE
  5
B5
100
AcDbEntity
  8
_Y__________
  6
CONTINUOUS
 62
         7
100
AcDbLine
 10
-11691.578126954
 20
13093.444470077
 30
0.0
 11
-11689.0779849476
 21
13089.1140970959
 31
0.0
  0
LINE
  5
B6
100
AcDbEntity
  8
_Y__________
  6
CONTINUOUS
 62
         7
100
AcDbLine
 10
-11696.578126954
 20
13093.444470077
 30
0.0
 11
-11699.0782689603
 21
13089.1140970959
 31
0.0
  0
LINE
  5
B7
100
AcDbEntity
  8
_Y__________
  6
CONTINUOUS
 62
         7
100
AcDbLine
 10
-11689.0779849476
 20
13089.1140970959
 30
0.0
 11
-11684.678126954
 21
13089.1140970959
 31
0.0
  0
LINE
  5
B8
100
AcDbEntity
  8
_Y__________
  6
CONTINUOUS
 62
         7
100
AcDbLine
 10
-11707.678126954
 20
13152.1140970959
 30
0.0
 11
-11699.0782689603
 21
13152.1140970959
 31
0.0
  0
LINE
  5
B9
100
AcDbEntity
  8
_Y__________
  6
CONTINUOUS
 62
         7
100
AcDbLine
 10
-11689.0779849476
 20
13152.1140970959
 30
0.0
 11
-11684.678126954
 21
13152.1140970959
 31
0.0
  0
LINE
  5
BA
100
AcDbEntity
  8
_Y__________
  6
CONTINUOUS
 62
         7
100
AcDbLine
 10
-11691.578126954
 20
13147.7837241148
 30
0.0
 11
-11689.0779849476
 21
13152.1140970959
 31
0.0
  0
LINE
  5
BB
100
AcDbEntity
  8
_Y__________
  6
CONTINUOUS
 62
         7
100
AcDbLine
 10
-11696.578126954
 20
13147.7837241148
 30
0.0
 11
-11699.0782689603
 21
13152.1140970959
 31
0.0
  0
LINE
  5
BC
100
AcDbEntity
  8
_Y__________
  6
CENTER
 62
         1
100
AcDbLine
 10
-11781.5869451914
 20
13120.6140970959
 30
0.0
 11
-11735.0150027854
 21
13120.6140970959
 31
0.0
  0
LINE
  5
BD
100
AcDbEntity
  8
_Y__________
  6
CENTER
 62
         1
100
AcDbLine
 10
-11722.2395762662
 20
13120.6140970959
 30
0.0
 11
-11629.8067371911
 21
13120.6140970959
 31
0.0
  0
LINE
  5
BE
100
AcDbEntity
  8
_Y__________
  6
CONTINUOUS
 62
         7
100
AcDbLine
 10
-11696.578126954
 20
13147.1140970959
 30
0.0
 11
-11691.578126954
 21
13147.1140970959
 31
0.0
  0
LINE
  5
BF
100
AcDbEntity
  8
_Y__________
  6
CONTINUOUS
 62
         7
100
AcDbLine
 10
-11696.578126954
 20
13094.1140970959
 30
0.0
 11
-11691.578126954
 21
13094.1140970959
 31
0.0
  0
LINE
  5
C0
100
AcDbEntity
  8
_Y__________
  6
CONTINUOUS
 62
         7
100
AcDbLine
 10
-11910.458126954
 20
13113.3640970959
 30
0.0
 11
-11911.258126954
 21
13112.5640970959
 31
0.0
  0
LINE
  5
C1
100
AcDbEntity
  8
_Y__________
  6
CONTINUOUS
 62
         7
100
AcDbLine
 10
-11911.258126954
 20
13128.6640970959
 30
0.0
 11
-11910.458126954
 21
13127.8640970959
 31
0.0
  0
LINE
  5
C2
100
AcDbEntity
  8
_Y__________
  6
CONTINUOUS
 62
         7
100
AcDbLine
 10
-11917.8121496767
 20
13112.5640970959
 30
0.0
 11
-11918.2054585535
 21
13112.1707882192
 31
0.0
  0
LINE
  5
C3
100
AcDbEntity
  8
_Y__________
  6
CONTINUOUS
 62
         7
100
AcDbLine
 10
-11917.8121496767
 20
13128.6640970959
 30
0.0
 11
-11918.2054585535
 21
13129.0574059726
 31
0.0
  0
LINE
  5
C4
100
AcDbEntity
  8
_Y__________
  6
CONTINUOUS
 62
         7
100
AcDbLine
 10
-11910.458126954
 20
13127.8640970959
 30
0.0
 11
-11910.458126954
 21
13113.3640970959
 31
0.0
  0
LINE
  5
C5
100
AcDbEntity
  8
_Y__________
  6
CONTINUOUS
 62
         7
100
AcDbLine
 10
-11917.8121496767
 20
13128.6640970959
 30
0.0
 11
-11911.258126954
 21
13128.6640970959
 31
0.0
  0
LINE
  5
C6
100
AcDbEntity
  8
_Y__________
  6
CONTINUOUS
 62
         7
100
AcDbLine
 10
-11917.8121496767
 20
13112.5640970959
 30
0.0
 11
-11911.258126954
 21
13112.5640970959
 31
0.0
  0
LINE
  5
C7
100
AcDbEntity
  8
_Y__________
  6
CONTINUOUS
 62
         7
100
AcDbLine
 10
-11865.258126954
 20
13127.8640970959
 30
0.0
 11
-11864.458126954
 21
13128.6640970959
 31
0.0
  0
LINE
  5
C8
100
AcDbEntity
  8
_Y__________
  6
CONTINUOUS
 62
         7
100
AcDbLine
 10
-11865.258126954
 20
13113.3640970959
 30
0.0
 11
-11864.458126954
 21
13112.5640970959
 31
0.0
  0
LINE
  5
C9
100
AcDbEntity
  8
_Y__________
  6
CONTINUOUS
 62
         7
100
AcDbLine
 10
-11857.9041042312
 20
13112.5640970959
 30
0.0
 11
-11857.5107953544
 21
13112.1707882192
 31
0.0
  0
LINE
  5
CA
100
AcDbEntity
  8
_Y__________
  6
CONTINUOUS
 62
         7
100
AcDbLine
 10
-11857.9041042312
 20
13128.6640970959
 30
0.0
 11
-11857.5107953544
 21
13129.0574059726
 31
0.0
  0
LINE
  5
CB
100
AcDbEntity
  8
_Y__________
  6
CONTINUOUS
 62
         7
100
AcDbLine
 10
-11857.9041042312
 20
13112.5640970959
 30
0.0
 11
-11864.458126954
 21
13112.5640970959
 31
0.0
  0
LINE
  5
CC
100
AcDbEntity
  8
_Y__________
  6
CONTINUOUS
 62
         7
100
AcDbLine
 10
-11857.9041042312
 20
13128.6640970959
 30
0.0
 11
-11864.458126954
 21
13128.6640970959
 31
0.0
  0
LINE
  5
CD
100
AcDbEntity
  8
_Y__________
  6
CONTINUOUS
 62
         7
100
AcDbLine
 10
-11865.258126954
 20
13127.8640970959
 30
0.0
 11
-11865.258126954
 21
13113.3640970959
 31
0.0
  0
ARC
  5
CE
100
AcDbEntity
  8
_Y__________
  6
DASHED
 62
         2
100
AcDbCircle
 10
-11887.858126954
 20
13120.6140970959
 30
0.0
 40
26.5
100
AcDbArc
 50
17.6843950498
 51
162.3156049502
  0
ARC
  5
CF
100
AcDbEntity
  8
_Y__________
  6
DASHED
 62
         2
100
AcDbCircle
 10
-11887.858126954
 20
13120.6140970959
 30
0.0
 40
26.5
100
AcDbArc
 50
197.6843950498
 51
342.3156049502
  0
LINE
  5
D0
100
AcDbEntity
  8
_Y__________
  6
CONTINUOUS
 62
         4
100
AcDbLine
 10
-11708.678126954
 20
13129.1640970959
 30
0.0
 11
-11699.078126954
 21
13129.1640970959
 31
0.0
  0
LINE
  5
D1
100
AcDbEntity
  8
_Y__________
  6
CONTINUOUS
 62
         7
100
AcDbLine
 10
-11699.078126954
 20
13152.1140970959
 30
0.0
 11
-11699.078126954
 21
13129.1640970959
 31
0.0
  0
LINE
  5
D2
100
AcDbEntity
  8
_Y__________
  6
CONTINUOUS
 62
         7
100
AcDbLine
 10
-11696.578126954
 20
13147.7837241148
 30
0.0
 11
-11696.578126954
 21
13128.6640970959
 31
0.0
  0
LINE
  5
D3
100
AcDbEntity
  8
_Y__________
  6
CONTINUOUS
 62
         7
100
AcDbLine
 10
-11691.578126954
 20
13147.7837241148
 30
0.0
 11
-11691.578126954
 21
13128.0222007669
 31
0.0
  0
LINE
  5
D4
100
AcDbEntity
  8
_Y__________
  6
CONTINUOUS
 62
         7
100
AcDbLine
 10
-11689.078126954
 20
13152.1140970959
 30
0.0
 11
-11689.078126954
 21
13127.0312615788
 31
0.0
  0
LINE
  5
D5
100
AcDbEntity
  8
_Y__________
  6
CONTINUOUS
 62
         4
100
AcDbLine
 10
-11699.078126954
 20
13129.1640970959
 30
0.0
 11
-11696.578126954
 21
13128.6640970959
 31
0.0
  0
LINE
  5
D6
100
AcDbEntity
  8
_Y__________
  6
CONTINUOUS
 62
         4
100
AcDbLine
 10
-11699.078126954
 20
13112.0640970959
 30
0.0
 11
-11696.578126954
 21
13112.5640970959
 31
0.0
  0
LINE
  5
D7
100
AcDbEntity
  8
_Y__________
  6
CONTINUOUS
 62
         4
100
AcDbLine
 10
-11691.578126954
 20
13113.2059934249
 30
0.0
 11
-11689.078126954
 21
13114.196932613
 31
0.0
  0
LINE
  5
D8
100
AcDbEntity
  8
_Y__________
  6
CONTINUOUS
 62
         4
100
AcDbLine
 10
-11691.578126954
 20
13128.0222007669
 30
0.0
 11
-11689.078126954
 21
13127.0312615788
 31
0.0
  0
ARC
  5
D9
100
AcDbEntity
  8
_Y__________
  6
CONTINUOUS
 62
         4
100
AcDbCircle
 10
-11694.728126954
 20
13120.6140970959
 30
0.0
 40
8.55
100
AcDbArc
 50
311.3623424579
 51
408.6376575421
  0
ARC
  5
DA
100
AcDbEntity
  8
_Y__________
  6
CONTINUOUS
 62
         7
100
AcDbCircle
 10
-11694.728126954
 20
13120.6140970959
 30
0.0
 40
8.05
100
AcDbArc
 50
270.0
 51
450.0
  0
LINE
  5
DB
100
AcDbEntity
  8
_Y__________
  6
CONTINUOUS
 62
         7
100
AcDbLine
 10
-11708.678126954
 20
13128.6640970959
 30
0.0
 11
-11694.728126954
 21
13128.6640970959
 31
0.0
  0
LINE
  5
DC
100
AcDbEntity
  8
_Y__________
  6
CONTINUOUS
 62
         7
100
AcDbLine
 10
-11708.678126954
 20
13112.5640970959
 30
0.0
 11
-11694.728126954
 21
13112.5640970959
 31
0.0
  0
LINE
  5
DD
100
AcDbEntity
  8
_Y__________
  6
CONTINUOUS
 62
         4
100
AcDbLine
 10
-11708.678126954
 20
13112.0640970959
 30
0.0
 11
-11699.078126954
 21
13112.0640970959
 31
0.0
  0
LINE
  5
DE
100
AcDbEntity
  8
_Y__________
  6
CONTINUOUS
 62
         7
100
AcDbLine
 10
-11699.078126954
 20
13112.0640970959
 30
0.0
 11
-11699.078126954
 21
13089.1140970959
 31
0.0
  0
LINE
  5
DF
100
AcDbEntity
  8
_Y__________
  6
CONTINUOUS
 62
         7
100
AcDbLine
 10
-11696.578126954
 20
13112.5640970959
 30
0.0
 11
-11696.578126954
 21
13093.444470077
 31
0.0
  0
LINE
  5
E0
100
AcDbEntity
  8
_Y__________
  6
CONTINUOUS
 62
         7
100
AcDbLine
 10
-11691.578126954
 20
13113.2059934249
 30
0.0
 11
-11691.578126954
 21
13093.444470077
 31
0.0
  0
LINE
  5
E1
100
AcDbEntity
  8
_Y__________
  6
CONTINUOUS
 62
         7
100
AcDbLine
 10
-11689.078126954
 20
13114.196932613
 30
0.0
 11
-11689.078126954
 21
13089.1140970959
 31
0.0
  0
ARC
  5
E2
100
AcDbEntity
  8
_Y__________
  6
DASHED
 62
         2
100
AcDbCircle
 10
-11479.498126954
 20
13120.6140970959
 30
0.0
 40
26.5
100
AcDbArc
 50
17.6843950498
 51
162.3156049502
  0
ARC
  5
E3
100
AcDbEntity
  8
_Y__________
  6
DASHED
 62
         2
100
AcDbCircle
 10
-11479.498126954
 20
13120.6140970959
 30
0.0
 40
26.5
100
AcDbArc
 50
197.6843950498
 51
342.3156049502
  0
LINE
  5
E4
100
AcDbEntity
  8
_Y__________
  6
DASHED
 62
         2
100
AcDbLine
 10
-11456.898126954
 20
13113.3640970959
 30
0.0
 11
-11456.098126954
 21
13112.5640970959
 31
0.0
  0
LINE
  5
E5
100
AcDbEntity
  8
_Y__________
  6
DASHED
 62
         2
100
AcDbLine
 10
-11456.098126954
 20
13128.6640970959
 30
0.0
 11
-11456.898126954
 21
13127.8640970959
 31
0.0
  0
LINE
  5
E6
100
AcDbEntity
  8
_Y__________
  6
DASHED
 62
         2
100
AcDbLine
 10
-11449.5441042312
 20
13112.5640970959
 30
0.0
 11
-11449.1507953544
 21
13112.1707882192
 31
0.0
  0
LINE
  5
E7
100
AcDbEntity
  8
_Y__________
  6
DASHED
 62
         2
100
AcDbLine
 10
-11449.5441042312
 20
13128.6640970959
 30
0.0
 11
-11449.1507953544
 21
13129.0574059726
 31
0.0
  0
LINE
  5
E8
100
AcDbEntity
  8
_Y__________
  6
DASHED
 62
         2
100
AcDbLine
 10
-11449.5441042312
 20
13112.5640970959
 30
0.0
 11
-11456.098126954
 21
13112.5640970959
 31
0.0
  0
LINE
  5
E9
100
AcDbEntity
  8
_Y__________
  6
DASHED
 62
         2
100
AcDbLine
 10
-11449.5441042312
 20
13128.6640970959
 30
0.0
 11
-11456.098126954
 21
13128.6640970959
 31
0.0
  0
LINE
  5
EA
100
AcDbEntity
  8
_Y__________
  6
DASHED
 62
         2
100
AcDbLine
 10
-11456.898126954
 20
13127.8640970959
 30
0.0
 11
-11456.898126954
 21
13113.3640970959
 31
0.0
  0
LINE
  5
EB
100
AcDbEntity
  8
_Y__________
  6
DASHED
 62
         2
100
AcDbLine
 10
-11502.098126954
 20
13127.8640970959
 30
0.0
 11
-11502.898126954
 21
13128.6640970959
 31
0.0
  0
LINE
  5
EC
100
AcDbEntity
  8
_Y__________
  6
DASHED
 62
         2
100
AcDbLine
 10
-11502.098126954
 20
13113.3640970959
 30
0.0
 11
-11502.898126954
 21
13112.5640970959
 31
0.0
  0
LINE
  5
ED
100
AcDbEntity
  8
_Y__________
  6
DASHED
 62
         2
100
AcDbLine
 10
-11509.4521496767
 20
13112.5640970959
 30
0.0
 11
-11509.8454585535
 21
13112.1707882192
 31
0.0
  0
LINE
  5
EE
100
AcDbEntity
  8
_Y__________
  6
DASHED
 62
         2
100
AcDbLine
 10
-11509.4521496767
 20
13128.6640970959
 30
0.0
 11
-11509.8454585535
 21
13129.0574059726
 31
0.0
  0
LINE
  5
EF
100
AcDbEntity
  8
_Y__________
  6
DASHED
 62
         2
100
AcDbLine
 10
-11502.098126954
 20
13127.8640970959
 30
0.0
 11
-11502.098126954
 21
13113.3640970959
 31
0.0
  0
LINE
  5
F0
100
AcDbEntity
  8
_Y__________
  6
DASHED
 62
         2
100
AcDbLine
 10
-11509.4521496767
 20
13128.6640970959
 30
0.0
 11
-11502.898126954
 21
13128.6640970959
 31
0.0
  0
LINE
  5
F1
100
AcDbEntity
  8
_Y__________
  6
DASHED
 62
         2
100
AcDbLine
 10
-11509.4521496767
 20
13112.5640970959
 30
0.0
 11
-11502.898126954
 21
13112.5640970959
 31
0.0
  0
ARC
  5
F2
100
AcDbEntity
  8
_Y__________
  6
CONTINUOUS
 62
         7
100
AcDbCircle
 10
-11707.678126954
 20
12987.9861206258
 30
0.0
 40
1.0
100
AcDbArc
 50
90.0
 51
180.0
  0
ARC
  5
F3
100
AcDbEntity
  8
_Y__________
  6
CONTINUOUS
 62
         7
100
AcDbCircle
 10
-11684.678126954
 20
12987.9861206258
 30
0.0
 40
1.0
100
AcDbArc
 50
0.0
 51
90.0
  0
LINE
  5
F4
100
AcDbEntity
  8
_Y__________
  6
CONTINUOUS
 62
         7
100
AcDbLine
 10
-11685.678126954
 20
12988.9861206258
 30
0.0
 11
-11684.678126954
 21
12988.9861206258
 31
0.0
  0
LINE
  5
F5
100
AcDbEntity
  8
_Y__________
  6
CONTINUOUS
 62
         7
100
AcDbLine
 10
-11707.678126954
 20
12988.9861206258
 30
0.0
 11
-11706.678126954
 21
12988.9861206258
 31
0.0
  0
LINE
  5
F6
100
AcDbEntity
  8
_Y__________
  6
CONTINUOUS
 62
         7
100
AcDbLine
 10
-11708.678126954
 20
12927.9861206258
 30
0.0
 11
-11708.678126954
 21
12926.9861206258
 31
0.0
  0
ARC
  5
F7
100
AcDbEntity
  8
_Y__________
  6
CONTINUOUS
 62
         7
100
AcDbCircle
 10
-11707.678126954
 20
12926.9861206258
 30
0.0
 40
1.0
100
AcDbArc
 50
180.0
 51
270.0
  0
LINE
  5
F8
100
AcDbEntity
  8
_Y__________
  6
CONTINUOUS
 62
         7
100
AcDbLine
 10
-11707.678126954
 20
12925.9861206258
 30
0.0
 11
-11706.678126954
 21
12925.9861206258
 31
0.0
  0
LINE
  5
F9
100
AcDbEntity
  8
_Y__________
  6
CONTINUOUS
 62
         7
100
AcDbLine
 10
-11685.678126954
 20
12925.9861206258
 30
0.0
 11
-11684.678126954
 21
12925.9861206258
 31
0.0
  0
ARC
  5
FA
100
AcDbEntity
  8
_Y__________
  6
CONTINUOUS
 62
         7
100
AcDbCircle
 10
-11684.678126954
 20
12926.9861206258
 30
0.0
 40
1.0
100
AcDbArc
 50
270.0
 51
360.0
  0
LINE
  5
FB
100
AcDbEntity
  8
_Y__________
  6
CONTINUOUS
 62
         7
100
AcDbLine
 10
-11683.678126954
 20
12926.9861206258
 30
0.0
 11
-11683.678126954
 21
12937.0048851626
 31
0.0
  0
LINE
  5
FC
100
AcDbEntity
  8
_Y__________
  6
CONTINUOUS
 62
         7
100
AcDbLine
 10
-11708.678126954
 20
12986.9861206258
 30
0.0
 11
-11708.678126954
 21
12987.9861206258
 31
0.0
  0
LINE
  5
FD
100
AcDbEntity
  8
_Y__________
  6
CONTINUOUS
 62
         7
100
AcDbLine
 10
-11708.678126954
 20
13150.1140970959
 30
0.0
 11
-11708.678126954
 21
13151.1140970959
 31
0.0
  0
LINE
  5
FE
100
AcDbEntity
  8
_Y__________
  6
CONTINUOUS
 62
         7
100
AcDbLine
 10
-11683.678126954
 20
13150.1140970959
 30
0.0
 11
-11683.678126954
 21
13151.1140970959
 31
0.0
  0
ARC
  5
FF
100
AcDbEntity
  8
_Y__________
  6
CONTINUOUS
 62
         7
100
AcDbCircle
 10
-11684.678126954
 20
13090.1140970959
 30
0.0
 40
1.0
100
AcDbArc
 50
270.0
 51
360.0
  0
LINE
  5
100
100
AcDbEntity
  8
_Y__________
  6
CONTINUOUS
 62
         7
100
AcDbLine
 10
-11685.678126954
 20
13089.1140970959
 30
0.0
 11
-11684.678126954
 21
13089.1140970959
 31
0.0
  0
LINE
  5
101
100
AcDbEntity
  8
_Y__________
  6
CONTINUOUS
 62
         7
100
AcDbLine
 10
-11707.678126954
 20
13089.1140970959
 30
0.0
 11
-11706.678126954
 21
13089.1140970959
 31
0.0
  0
ARC
  5
102
100
AcDbEntity
  8
_Y__________
  6
CONTINUOUS
 62
         7
100
AcDbCircle
 10
-11707.678126954
 20
13090.1140970959
 30
0.0
 40
1.0
100
AcDbArc
 50
180.0
 51
270.0
  0
LINE
  5
103
100
AcDbEntity
  8
_Y__________
  6
CONTINUOUS
 62
         7
100
AcDbLine
 10
-11708.678126954
 20
13091.1140970959
 30
0.0
 11
-11708.678126954
 21
13090.1140970959
 31
0.0
  0
LINE
  5
104
100
AcDbEntity
  8
_Y__________
  6
CONTINUOUS
 62
         7
100
AcDbLine
 10
-11707.678126954
 20
13152.1140970959
 30
0.0
 11
-11706.678126954
 21
13152.1140970959
 31
0.0
  0
LINE
  5
105
100
AcDbEntity
  8
_Y__________
  6
CONTINUOUS
 62
         7
100
AcDbLine
 10
-11683.678126954
 20
13091.1140970959
 30
0.0
 11
-11683.678126954
 21
13090.1140970959
 31
0.0
  0
LINE
  5
106
100
AcDbEntity
  8
_Y__________
  6
CONTINUOUS
 62
         7
100
AcDbLine
 10
-11685.678126954
 20
13152.1140970959
 30
0.0
 11
-11684.678126954
 21
13152.1140970959
 31
0.0
  0
ARC
  5
107
100
AcDbEntity
  8
_Y__________
  6
CONTINUOUS
 62
         7
100
AcDbCircle
 10
-11684.678126954
 20
13151.1140970959
 30
0.0
 40
1.0
100
AcDbArc
 50
0.0
 51
90.0
  0
ARC
  5
108
100
AcDbEntity
  8
_Y__________
  6
CONTINUOUS
 62
         7
100
AcDbCircle
 10
-11707.678126954
 20
13151.1140970959
 30
0.0
 40
1.0
100
AcDbArc
 50
90.0
 51
180.0
  0
LINE
  5
109
100
AcDbEntity
  8
L1_80
  6
CONTINUOUS
 62
         7
100
AcDbLine
 10
-11776.078126954
 20
13132.4369044293
 30
0.0
 11
-11776.078126954
 21
13108.7912897625
 31
0.0
  0
LINE
  5
10A
100
AcDbEntity
  8
L1_80
  6
CENTER
 62
         1
100
AcDbLine
 10
-11710.678126954
 20
13142.8390970959
 30
0.0
 11
-11710.678126954
 21
13098.3890970959
 31
0.0
  0
LINE
  5
10B
100
AcDbEntity
  8
L1_80
  6
CONTINUOUS
 62
         7
100
AcDbLine
 10
-11708.678126954
 20
13151.1140970959
 30
0.0
 11
-11708.678126954
 21
13090.1140970959
 31
0.0
  0
DIMENSION
  5
10F
100
AcDbEntity
  8
L1_80
  6
CONTINUOUS
 62
         4
100
AcDbDimension
  2
*D1
 10
-11602.4381385567
 20
13138.1140970959
 30
0.0
 11
-11604.4631385567
 21
13115.2140970959
 31
0.0
  3
DIMSTYLE1
100
AcDbAlignedDimension
 13
-11671.678126954
 23
13138.1140970959
 33
0.0
 14
-11671.678126954
 24
13103.1140970959
 34
0.0
 50
90.0
100
AcDbRotatedDimension
  0
ARC
  5
11C
100
AcDbEntity
  8
L1_80
  6
CONTINUOUS
 62
         7
100
AcDbCircle
 10
-11671.678126954
 20
13104.1140970959
 30
0.0
 40
1.0
100
AcDbArc
 50
270.0
 51
360.0
  0
ARC
  5
11D
100
AcDbEntity
  8
L1_80
  6
CONTINUOUS
 62
         7
100
AcDbCircle
 10
-11671.678126954
 20
13137.1140970959
 30
0.0
 40
1.0
100
AcDbArc
 50
0.0
 51
90.0
  0
LINE
  5
11E
100
AcDbEntity
  8
L1_80
  6
CONTINUOUS
 62
         7
100
AcDbLine
 10
-11668.591638554
 20
13110.2865421414
 30
0.0
 11
-11636.222126954
 21
13111.1481882734
 31
0.0
  0
LINE
  5
11F
100
AcDbEntity
  8
L1_80
  6
CONTINUOUS
 62
         7
100
AcDbLine
 10
-11636.222126954
 20
13111.1481882734
 30
0.0
 11
-11634.722126954
 21
13112.6481882734
 31
0.0
  0
LINE
  5
120
100
AcDbEntity
  8
L1_80
  6
CONTINUOUS
 62
         7
100
AcDbLine
 10
-11668.870794206
 20
13130.9490829129
 30
0.0
 11
-11636.222126954
 21
13130.0800059184
 31
0.0
  0
DIMENSION
  5
123
100
AcDbEntity
  8
L1_80
  6
CONTINUOUS
 62
         4
100
AcDbDimension
  2
*D2
 10
-11670.678126954
 20
13094.4652850149
 30
0.0
 11
-11669.2187594559
 21
13096.4902850149
 31
0.0
  3
DIMSTYLE1
100
AcDbAlignedDimension
 13
-11670.678126954
 23
13103.1140970959
 33
0.0
 14
-11665.678126954
 24
13106.6657916547
 34
0.0
100
AcDbRotatedDimension
  0
ARC
  5
131
100
AcDbEntity
  8
L1_80
  6
CONTINUOUS
 62
         7
100
AcDbCircle
 10
-11668.678126954
 20
13108.2884130773
 30
0.0
 40
2.0
100
AcDbArc
 50
91.4332060168
 51
180.0
  0
ARC
  5
132
100
AcDbEntity
  8
L1_80
  6
CONTINUOUS
 62
         7
100
AcDbCircle
 10
-11668.678126954
 20
13132.9397811145
 30
0.0
 40
2.0
100
AcDbArc
 50
180.0
 51
268.5667939832
  0
LINE
  5
133
100
AcDbEntity
  8
L1_80
  6
CONTINUOUS
 62
         7
100
AcDbLine
 10
-11670.678126954
 20
13104.1140970959
 30
0.0
 11
-11670.678126954
 21
13137.1140970959
 31
0.0
  0
LINE
  5
134
100
AcDbEntity
  8
L1_80
  6
CONTINUOUS
 62
         7
100
AcDbLine
 10
-11671.678126954
 20
13103.1140970959
 30
0.0
 11
-11680.678126954
 21
13103.1140970959
 31
0.0
  0
LINE
  5
135
100
AcDbEntity
  8
L1_80
  6
CONTINUOUS
 62
         7
100
AcDbLine
 10
-11671.678126954
 20
13138.1140970959
 30
0.0
 11
-11680.678126954
 21
13138.1140970959
 31
0.0
  0
DIMENSION
  5
138
100
AcDbEntity
  8
L1_80
  6
CONTINUOUS
 62
         4
100
AcDbDimension
  2
*D3
 10
-11665.678126954
 20
13155.8145688442
 30
0.0
 11
-11660.280319124
 21
13157.8395688442
 31
0.0
  3
DIMSTYLE1
100
AcDbAlignedDimension
 13
-11665.678126954
 23
13130.8640970959
 33
0.0
 14
-11634.722126954
 24
13128.6271261694
 34
0.0
100
AcDbRotatedDimension
  0
DIMENSION
  5
146
100
AcDbEntity
  8
L1_80
  6
CONTINUOUS
 62
         4
100
AcDbDimension
  2
*D4
 10
-11618.5608153265
 20
13110.3640970959
 30
0.0
 11
-11620.5858153265
 21
13111.3594446708
 31
0.0
  3
DIMSTYLE1
100
AcDbAlignedDimension
 13
-11665.678126954
 23
13110.3640970959
 33
0.0
 14
-11665.678126954
 24
13130.8640970959
 34
0.0
 50
90.0
100
AcDbRotatedDimension
  0
LINE
  5
152
100
AcDbEntity
  8
L1_80
  6
CONTINUOUS
 62
         7
100
AcDbLine
 10
-11636.222126954
 20
13130.0800059184
 30
0.0
 11
-11634.722126954
 21
13128.5800059184
 31
0.0
  0
LINE
  5
153
100
AcDbEntity
  8
L1_80
  6
CONTINUOUS
 62
         7
100
AcDbLine
 10
-11636.222126954
 20
13111.1481882734
 30
0.0
 11
-11636.222126954
 21
13130.0800059184
 31
0.0
  0
LINE
  5
154
100
AcDbEntity
  8
L1_80
  6
CENTER
 62
         1
100
AcDbLine
 10
-11665.678126954
 20
13106.6657916547
 30
0.0
 11
-11665.678126954
 21
13133.9702180005
 31
0.0
  0
LINE
  5
155
100
AcDbEntity
  8
L1_80
  6
CONTINUOUS
 62
         7
100
AcDbLine
 10
-11634.722126954
 20
13112.6481882734
 30
0.0
 11
-11634.722126954
 21
13128.5800059184
 31
0.0
  0
DIMENSION
  5
158
100
AcDbEntity
  8
L1_80
  6
CONTINUOUS
 62
         4
100
AcDbDimension
  2
*D5
 10
-11776.078126954
 20
13194.4078691996
 30
0.0
 11
-11713.500126954
 21
13196.4328691996
 31
0.0
  3
DIMSTYLE1
100
AcDbAlignedDimension
 13
-11776.078126954
 23
13132.4369044293
 33
0.0
 14
-11634.722126954
 24
13128.5800059184
 34
0.0
100
AcDbRotatedDimension
  0
DIMENSION
  5
166
100
AcDbEntity
  8
L1_80
  6
CONTINUOUS
 62
         4
100
AcDbDimension
  2
*D6
 10
-11710.678126954
 20
13186.5222212367
 30
0.0
 11
-11690.9957721512
 21
13188.5472212367
 31
0.0
  3
DIMSTYLE1
100
AcDbAlignedDimension
 13
-11710.678126954
 23
13142.8390970959
 33
0.0
 14
-11665.678126954
 24
13133.9702180005
 34
0.0
100
AcDbRotatedDimension
  0
LINE
  5
172
100
AcDbEntity
  8
_Y__________
  6
CONTINUOUS
 62
         7
100
AcDbLine
 10
-11683.678126954
 20
13100.1140970959
 30
0.0
 11
-11683.678126954
 21
13090.1140970959
 31
0.0
  0
ARC
  5
173
100
AcDbEntity
  8
L1_80
  6
CONTINUOUS
 62
         7
100
AcDbCircle
 10
-11680.678126954
 20
13141.1140970959
 30
0.0
 40
3.0
100
AcDbArc
 50
180.0
 51
270.0
  0
ARC
  5
174
100
AcDbEntity
  8
L1_80
  6
CONTINUOUS
 62
         7
100
AcDbCircle
 10
-11680.678126954
 20
13100.1140970959
 30
0.0
 40
3.0
100
AcDbArc
 50
90.0
 51
180.0
  0
ARC
  5
175
100
AcDbEntity
  8
L1_80
  6
CONTINUOUS
 62
         7
100
AcDbCircle
 10
-11671.678126954
 20
12941.0048851626
 30
0.0
 40
1.0
100
AcDbArc
 50
270.0
 51
360.0
  0
ARC
  5
176
100
AcDbEntity
  8
L1_80
  6
CONTINUOUS
 62
         7
100
AcDbCircle
 10
-11671.678126954
 20
12974.0048851626
 30
0.0
 40
1.0
100
AcDbArc
 50
0.0
 51
90.0
  0
DIMENSION
  5
179
100
AcDbEntity
  8
L1_80
  6
CONTINUOUS
 62
         4
100
AcDbDimension
  2
*D7
 10
-11668.870794206
 20
12967.8211064428
 30
0.0
 11
-11649.1369838337
 21
12971.4726559473
 31
0.0
 70
         2
  3
DIMSTYLE1
100
AcDb2LineAngularDimension
 13
-11686.9533260475
 23
12967.7361206258
 33
0.0
 14
-11591.9089982373
 24
12967.7361206258
 34
0.0
 15
-11636.222126954
 25
12966.9520294484
 35
0.0
 16
-11650.4869838337
 26
12970.1226559473
 36
0.0
  0
DIMENSION
  5
189
100
AcDbEntity
  8
L1_80
  6
CONTINUOUS
 62
         4
100
AcDbDimension
  2
*D8
 10
-11622.3564247341
 20
12966.9121008509
 30
0.0
 11
-11624.3814247341
 21
12944.9629923091
 31
0.0
  3
DIMSTYLE1
100
AcDbAlignedDimension
 13
-11634.722126954
 23
12966.9121008509
 33
0.0
 14
-11634.722126954
 24
12948.0601404008
 34
0.0
 50
90.0
100
AcDbRotatedDimension
  0
ARC
  5
195
100
AcDbEntity
  8
L1_80
  6
CONTINUOUS
 62
         7
100
AcDbCircle
 10
-11668.678126954
 20
12969.8305691812
 30
0.0
 40
2.0
100
AcDbArc
 50
180.0
 51
268.5667939832
  0
ARC
  5
196
100
AcDbEntity
  8
L1_80
  6
CONTINUOUS
 62
         7
100
AcDbCircle
 10
-11668.678126954
 20
12945.179201144
 30
0.0
 40
2.0
100
AcDbArc
 50
100.3424880212
 51
180.0
  0
LINE
  5
197
100
AcDbEntity
  8
L1_80
  6
CENTER
 62
         1
100
AcDbLine
 10
-11665.678126954
 20
12943.5565797214
 30
0.0
 11
-11665.678126954
 21
12970.8610060672
 31
0.0
  0
LINE
  5
198
100
AcDbEntity
  8
L1_80
  6
CONTINUOUS
 62
         7
100
AcDbLine
 10
-11671.678126954
 20
12940.0048851626
 30
0.0
 11
-11680.678126954
 21
12940.0048851626
 31
0.0
  0
LINE
  5
199
100
AcDbEntity
  8
L1_80
  6
CONTINUOUS
 62
         7
100
AcDbLine
 10
-11670.678126954
 20
12941.0048851626
 30
0.0
 11
-11670.678126954
 21
12945.179201144
 31
0.0
  0
LINE
  5
19A
100
AcDbEntity
  8
L1_80
  6
CONTINUOUS
 62
         7
100
AcDbLine
 10
-11671.678126954
 20
12975.0048851626
 30
0.0
 11
-11680.678126954
 21
12975.0048851626
 31
0.0
  0
LINE
  5
19B
100
AcDbEntity
  8
L1_80
  6
CONTINUOUS
 62
         7
100
AcDbLine
 10
-11634.722126954
 20
12949.5202118033
 30
0.0
 11
-11634.722126954
 21
12965.4520294484
 31
0.0
  0
LINE
  5
19C
100
AcDbEntity
  8
L1_80
  6
CONTINUOUS
 62
         7
100
AcDbLine
 10
-11668.870794206
 20
12967.8211064428
 30
0.0
 11
-11636.222126954
 21
12966.9520294484
 31
0.0
  0
LINE
  5
19D
100
AcDbEntity
  8
L1_80
  6
CONTINUOUS
 62
         7
100
AcDbLine
 10
-11669.0371904972
 20
12947.1467054952
 30
0.0
 11
-11636.222126954
 21
12948.0202118033
 31
0.0
  0
LINE
  5
19E
100
AcDbEntity
  8
L1_80
  6
CONTINUOUS
 62
         7
100
AcDbLine
 10
-11636.222126954
 20
12948.0202118033
 30
0.0
 11
-11634.722126954
 21
12949.5202118033
 31
0.0
  0
LINE
  5
19F
100
AcDbEntity
  8
L1_80
  6
CONTINUOUS
 62
         7
100
AcDbLine
 10
-11636.222126954
 20
12966.9520294484
 30
0.0
 11
-11634.722126954
 21
12965.4520294484
 31
0.0
  0
LINE
  5
1A0
100
AcDbEntity
  8
L1_80
  6
CONTINUOUS
 62
         7
100
AcDbLine
 10
-11670.678126954
 20
12969.8305691812
 30
0.0
 11
-11670.678126954
 21
12974.0048851626
 31
0.0
  0
LINE
  5
1A1
100
AcDbEntity
  8
L1_80
  6
CONTINUOUS
 62
         7
100
AcDbLine
 10
-11637.6602467386
 20
12958.2673560891
 30
0.0
 11
-11636.7139853827
 21
12958.2673560891
 31
0.0
  0
LINE
  5
1A2
100
AcDbEntity
  8
L1_80
  6
CONTINUOUS
 62
         7
100
AcDbLine
 10
-11637.6602467386
 20
12956.6673560891
 30
0.0
 11
-11636.7139853827
 21
12956.6673560891
 31
0.0
  0
LINE
  5
1A3
100
AcDbEntity
  8
L1_80
  6
CONTINUOUS
 62
         7
100
AcDbLine
 10
-11634.722126954
 20
12959.4173560891
 30
0.0
 11
-11636.7139853827
 21
12958.2673560891
 31
0.0
  0
LINE
  5
1A4
100
AcDbEntity
  8
L1_80
  6
CONTINUOUS
 62
         7
100
AcDbLine
 10
-11634.722126954
 20
12955.5173560891
 30
0.0
 11
-11636.7139853827
 21
12956.6673560891
 31
0.0
  0
LINE
  5
1A5
100
AcDbEntity
  8
L1_80
  6
CONTINUOUS
 62
         7
100
AcDbLine
 10
-11636.7139853827
 20
12958.2673560891
 30
0.0
 11
-11636.7139853827
 21
12956.6673560891
 31
0.0
  0
LINE
  5
1A6
100
AcDbEntity
  8
L1_80
  6
CONTINUOUS
 62
         7
100
AcDbLine
 10
-11637.6602467386
 20
12958.2673560891
 30
0.0
 11
-11638.122126954
 21
12957.4673560891
 31
0.0
  0
LINE
  5
1A7
100
AcDbEntity
  8
L1_80
  6
CONTINUOUS
 62
         7
100
AcDbLine
 10
-11637.6602467386
 20
12956.6673560891
 30
0.0
 11
-11638.122126954
 21
12957.4673560891
 31
0.0
  0
LINE
  5
1A8
100
AcDbEntity
  8
L1_80
  6
CONTINUOUS
 62
         7
100
AcDbLine
 10
-11637.6602467386
 20
12958.2673560891
 30
0.0
 11
-11637.6602467386
 21
12956.6673560891
 31
0.0
  0
ARC
  5
1A9
100
AcDbEntity
  8
L1_80
  6
CONTINUOUS
 62
         7
100
AcDbCircle
 10
-11680.678126954
 20
12978.0048851626
 30
0.0
 40
3.0
100
AcDbArc
 50
180.0
 51
270.0
  0
CIRCLE
  5
1AA
100
AcDbEntity
  8
L1_80
  6
CONTINUOUS
 62
         7
100
AcDbCircle
 10
-11479.498126954
 20
13120.6140970959
 30
0.0
 40
1.0
  0
CIRCLE
  5
1AB
100
AcDbEntity
  8
L1_80
  6
CONTINUOUS
 62
         7
100
AcDbCircle
 10
-11479.498126954
 20
13120.6140970959
 30
0.0
 40
2.125
  0
CIRCLE
  5
1AC
100
AcDbEntity
  8
L1_80
  6
CONTINUOUS
 62
         7
100
AcDbCircle
 10
-11479.498126954
 20
13120.6140970959
 30
0.0
 40
9.4755
  0
CIRCLE
  5
1AD
100
AcDbEntity
  8
L1_80
  6
CONTINUOUS
 62
         7
100
AcDbCircle
 10
-11479.498126954
 20
13120.6140970959
 30
0.0
 40
10.25
  0
CIRCLE
  5
1AE
100
AcDbEntity
  8
L1_80
  6
CONTINUOUS
 62
         7
100
AcDbCircle
 10
-11479.498126954
 20
13120.6140970959
 30
0.0
 40
17.5
  0
TEXT
  5
1B0
100
AcDbEntity
  8
L1_80
  6
CONTINUOUS
 62
         2
100
AcDbText
 10
-11494.9263491713
 20
13188.4499337747
 30
0.0
 40
4.5
  1
532232
 41
0.98
  7
BOX
100
AcDbText
  0
ENDSEC
  0
SECTION
  2
OBJECTS
  0
DICTIONARY
  5
19
100
AcDbDictionary
  3
ACAD_GROUP
350
1A
  3
ACAD_MLINESTYLE
350
1B
  0
DICTIONARY
  5
1A
102
{ACAD_REACTORS
330
19
102
}
100
AcDbDictionary
  0
DICTIONARY
  5
1B
102
{ACAD_REACTORS
330
19
102
}
100
AcDbDictionary
  3
STANDARD
350
1C
  0
MLINESTYLE
  5
1C
102
{ACAD_REACTORS
330
1B
102
}
100
AcDbMlineStyle
  2
STANDARD
 70
         0
  3

 62
         0
 51
90.0
 52
90.0
 71
         2
 49
0.5
 62
       256
  6
BYLAYER
 49
-0.5
 62
       256
  6
BYLAYER
  0
ENDSEC
  0
EOF
