  0
SECTION
  2
HEADER
  9
$ACADVER
  1
AC1014
  9
$ACADMAINTVER
 70
         0
  9
$DWGCODEPAGE
  3
BIG5
  9
$INSBASE
 10
0.0
 20
0.0
 30
0.0
  9
$EXTMIN
 10
-11976.5457764456
 20
12912.4817594121
 30
0.0
  9
$EXTMAX
 10
-11392.8104774623
 20
13206.7829913064
 30
0.0
  9
$LIMMIN
 10
0.0
 20
0.0
  9
$LIMMAX
 10
0.0
 20
0.0
  9
$ORTHOMODE
 70
         0
  9
$REGENMODE
 70
         1
  9
$FILLMODE
 70
         1
  9
$QTEXTMODE
 70
         0
  9
$MIRRTEXT
 70
         1
  9
$DRAGMODE
 70
         2
  9
$LTSCALE
 40
1.0
  9
$OSMODE
 70
         0
  9
$ATTMODE
 70
         1
  9
$TEXTSIZE
 40
1.7
  9
$TRACEWID
 40
0.05
  9
$TEXTSTYLE
  7
STANDARD
  9
$CLAYER
  8
0
  9
$CELTYPE
  6
CONTINUOUS
  9
$CECOLOR
 62
         4
  9
$CELTSCALE
 40
1.0
  9
$DELOBJ
 70
         1
  9
$DISPSILH
 70
         0
  9
$DIMSCALE
 40
1.0
  9
$DIMASZ
 40
0.18
  9
$DIMEXO
 40
0.0625
  9
$DIMDLI
 40
0.38
  9
$DIMRND
 40
0.0
  9
$DIMDLE
 40
0.0
  9
$DIMEXE
 40
0.25
  9
$DIMTP
 40
0.2
  9
$DIMTM
 40
0.0
  9
$DIMTXT
 40
2.7
  9
$DIMCEN
 40
0.09
  9
$DIMTSZ
 40
0.0
  9
$DIMTOL
 70
         0
  9
$DIMLIM
 70
         0
  9
$DIMTIH
 70
         1
  9
$DIMTOH
 70
         1
  9
$DIMSE1
 70
         0
  9
$DIMSE2
 70
         0
  9
$DIMTAD
 70
         0
  9
$DIMZIN
 70
         0
  9
$DIMBLK
  1

  9
$DIMASO
 70
         1
  9
$DIMSHO
 70
         1
  9
$DIMPOST
  1

  9
$DIMAPOST
  1

  9
$DIMALT
 70
         0
  9
$DIMALTD
 70
         2
  9
$DIMALTF
 40
25.4
  9
$DIMLFAC
 40
1.0
  9
$DIMTOFL
 70
         0
  9
$DIMTVP
 40
0.0
  9
$DIMTIX
 70
         0
  9
$DIMSOXD
 70
         0
  9
$DIMSAH
 70
         0
  9
$DIMBLK1
  1

  9
$DIMBLK2
  1

  9
$DIMSTYLE
  2
STANDARD
  9
$DIMCLRD
 70
         0
  9
$DIMCLRE
 70
         0
  9
$DIMCLRT
 70
         4
  9
$DIMTFAC
 40
0.7
  9
$DIMGAP
 40
0.09
  9
$DIMJUST
 70
         0
  9
$DIMSD1
 70
         0
  9
$DIMSD2
 70
         0
  9
$DIMTOLJ
 70
         1
  9
$DIMTZIN
 70
         0
  9
$DIMALTZ
 70
         0
  9
$DIMALTTZ
 70
         0
  9
$DIMFIT
 70
         3
  9
$DIMUPT
 70
         0
  9
$DIMUNIT
 70
         2
  9
$DIMDEC
 70
         4
  9
$DIMTDEC
 70
         4
  9
$DIMALTU
 70
         2
  9
$DIMALTTD
 70
         2
  9
$DIMTXSTY
  7
STANDARD
  9
$DIMAUNIT
 70
         0
  9
$LUNITS
 70
         2
  9
$LUPREC
 70
        10
  9
$SKETCHINC
 40
0.1
  9
$FILLETRAD
 40
0.0
  9
$AUNITS
 70
         0
  9
$AUPREC
 70
         0
  9
$MENU
  1
acad
  9
$ELEVATION
 40
0.0
  9
$PELEVATION
 40
0.0
  9
$THICKNESS
 40
0.0
  9
$LIMCHECK
 70
         0
  9
$BLIPMODE
 70
         1
  9
$CHAMFERA
 40
0.0
  9
$CHAMFERB
 40
0.0
  9
$CHAMFERC
 40
0.0
  9
$CHAMFERD
 40
0.0
  9
$SKPOLY
 70
         0
  9
$TDCREATE
 40
0.000000000
  9
$TDUPDATE
 40
0.000000000
  9
$TDINDWG
 40
0.0000000000
  9
$TDUSRTIMER
 40
0.0000000000
  9
$USRTIMER
 70
         1
  9
$ANGBASE
 50
0.0
  9
$ANGDIR
 70
         0
  9
$PDMODE
 70
         2
  9
$PDSIZE
 40
0.0
  9
$PLINEWID
 40
0.0
  9
$COORDS
 70
         1
  9
$SPLFRAME
 70
         0
  9
$SPLINETYPE
 70
         6
  9
$SPLINESEGS
 70
         8
  9
$ATTDIA
 70
         0
  9
$ATTREQ
 70
         1
  9
$HANDLING
 70
         1
  9
$HANDSEED
  5
1B2
  9
$SURFTAB1
 70
         6
  9
$SURFTAB2
 70
         6
  9
$SURFTYPE
 70
         6
  9
$SURFU
 70
         6
  9
$SURFV
 70
         6
  9
$UCSNAME
  2

  9
$UCSORG
 10
0.0
 20
0.0
 30
0.0
  9
$UCSXDIR
 10
1.0
 20
0.0
 30
0.0
  9
$UCSYDIR
 10
0.0
 20
1.0
 30
0.0
  9
$PUCSNAME
  2

  9
$PUCSORG
 10
0.0
 20
0.0
 30
0.0
  9
$PUCSXDIR
 10
1.0
 20
0.0
 30
0.0
  9
$PUCSYDIR
 10
0.0
 20
1.0
 30
0.0
  9
$USERI1
 70
         0
  9
$USERI2
 70
         0
  9
$USERI3
 70
         0
  9
$USERI4
 70
         0
  9
$USERI5
 70
         0
  9
$USERR1
 40
0.0
  9
$USERR2
 40
0.0
  9
$USERR3
 40
0.0
  9
$USERR4
 40
0.0
  9
$USERR5
 40
0.0
  9
$WORLDVIEW
 70
         1
  9
$SHADEDGE
 70
         3
  9
$SHADEDIF
 70
        70
  9
$TILEMODE
 70
         1
  9
$MAXACTVP
 70
        16
  9
$PINSBASE
 10
0.0
 20
0.0
 30
0.0
  9
$PLIMCHECK
 70
         0
  9
$PEXTMIN
 10
1.0000000000E+20
 20
1.0000000000E+20
 30
1.0000000000E+20
  9
$PEXTMAX
 10
-1.0000000000E+20
 20
-1.0000000000E+20
 30
-1.0000000000E+20
  9
$PLIMMIN
 10
0.0
 20
0.0
  9
$PLIMMAX
 10
12.0
 20
9.0
  9
$UNITMODE
 70
         0
  9
$VISRETAIN
 70
         0
  9
$PLINEGEN
 70
         1
  9
$PSLTSCALE
 70
         0
  9
$TREEDEPTH
 70
      3020
  9
$PICKSTYLE
 70
         1
  9
$CMLSTYLE
  2
STANDARD
  9
$CMLJUST
 70
         0
  9
$CMLSCALE
 40
1.0
  9
$PROXYGRAPHICS
 70
         0
  9
$MEASUREMENT
 70
         0
  0
ENDSEC
  0
SECTION
  2
CLASSES
  0
CLASS
  1
LWPOLYLINE
  2
AcDbPolyline
  3
"AutoCAD"
 90
        0
280
         0
281
         1
  0
CLASS
  1
IMAGE
  2
AcDbRasterImage
  3
ISM
 90
      127
280
         0
281
         1
  0
CLASS
  1
OLE2FRAME
  2
AcDbOle2Frame
  3
""
 90
        0
280
         0
281
         1
  0
CLASS
  1
HATCH
  2
AcDbHatch
  3
"ACAD_SEDONA"
 90
        0
280
         0
281
         1
  0
CLASS
  1
DICTIONARYVAR
  2
AcDbDictionaryVar
  3
"AutoCAD"
 90
        0
280
         0
281
         0
  0
CLASS
  1
RASTERVARIABLES
  2
AcDbRasterVariables
  3
ISM
 90
        0
280
         0
281
         0
  0
CLASS
  1
IMAGEDEF
  2
AcDbRasterImageDef
  3
ISM
 90
        0
280
         0
281
         0
  0
CLASS
  1
IMAGEDEF_REACTOR
  2
AcDbRasterImageDefReactor
  3
ISM
 90
        1
280
         0
281
         0
  0
CLASS
  1
IDBUFFER
  2
AcDbIdBuffer
  3
"Acad"
 90
        0
280
         0
281
         0
  0
CLASS
  1
SPATIAL_FILTER
  2
AcDbSpatialFilter
  3
"Acad"
 90
        0
280
         0
281
         0
  0
CLASS
  1
XRECORD
  2
AcDbXrecord
  3
"<Built In>"
 90
        0
280
         0
281
         0
  0
CLASS
  1
SORTENTSTABLE
  2
AcDbSortentsTable
  3
"AutoCAD"
 90
        0
280
         0
281
         0
  0
CLASS
  1
LAYER_INDEX
  2
AcDbLayerIndex
  3
"Acad"
 90
        0
280
         0
281
         0
  0
CLASS
  1
SPATIAL_INDEX
  2
AcDbSpatialIndex
  3
"Acad"
 90
        0
280
         0
281
         0
  0
CLASS
  1
OBJECT_PTR
  2
CAseDLPNTableRecord
  3
"ASE-LPNTableRecord"
 90
        1
280
         0
281
         0
  0
CLASS
  1
LAYOUT
  2
AcDbLayout
  3
"AutoCAD 2000"
 90
        1
280
         0
281
         0
  0
CLASS
  1
PLOTSETTINGS
  2
AcDbPlotSettings
  3
"AutoCAD 2000"
 90
        1
280
         0
281
         0
  0
CLASS
  1
ACDBDICTIONARYWDFLT
  2
AcDbDictionaryWithDefault
  3
"AutoCAD 2000"
 90
        1
280
         0
281
         0
  0
CLASS
  1
ACDBPLACEHOLDER
  2
AcDbPlaceHolder
  3
"AutoCAD 2000"
 90
        1
280
         0
281
         0
  0
CLASS
  1
VBA_PROJECT
  2
AcDbVbaProject
  3
"acadvba"
 90
        1
280
         0
281
         0
  0
CLASS
  1
WIPEOUT
  2
AcDbWipeout
  3
WipeOut|AutoCAD Express Tool|expresstools@autodesk.com
 90
      127
280
         0
281
         1
  0
CLASS
  1
WIPEOUTVARIABLES
  2
AcDbWipeoutVariables
  3
WipeOut|AutoCAD Express Tool|expresstools@autodesk.com
 90
        0
280
         0
281
         0
  0
CLASS
  1
RTEXT
  2
RText
  3
RText|AutoCAD Express Tool|expresstools@autodesk.com
 90
        0
280
         0
281
         1
  0
CLASS
  1
ARCALIGNEDTEXT
  2
AcDbArcAlignedText
  3
ATEXT|AutoCAD Express Tool|expresstools@autodesk.com
 90
        0
280
         0
281
         1
  0
ENDSEC
  0
SECTION
  2
TABLES
  0
TABLE
  2
VPORT
  5
7
100
AcDbSymbolTable
 70
         1
  0
VPORT
  5
15
100
AcDbSymbolTableRecord
100
AcDbViewportTableRecord
  2
*ACTIVE
 70
         0
 10
0.0
 20
0.0
 11
1.0
 21
1.0
 12
-11684.678126954
 22
13059.6323753593
 13
0.0
 23
0.0
 14
1.0
 24
1.0
 15
0.0
 25
0.0
 16
0.0
 26
0.0
 36
1.0
 17
0.0
 27
0.0
 37
0.0
 40
294.3012318943
 41
1.9834619625
 42
50.0
 43
0.0
 44
0.0
 50
0.0
 51
0.0
 71
         0
 72
       100
 73
         1
 74
         1
 75
         0
 76
         0
 77
         0
 78
         0
  0
ENDTAB
  0
TABLE
  2
LTYPE
  5
4
100
AcDbSymbolTable
 70
         6
  0
LTYPE
  5
11
100
AcDbSymbolTableRecord
100
AcDbLinetypeTableRecord
  2
BYBLOCK
 70
        64
  3

 72
        65
 73
         0
 40
0.0
  0
LTYPE
  5
12
100
AcDbSymbolTableRecord
100
AcDbLinetypeTableRecord
  2
BYLAYER
 70
        64
  3

 72
        65
 73
         0
 40
0.0
  0
LTYPE
  5
13
100
AcDbSymbolTableRecord
100
AcDbLinetypeTableRecord
  2
CONTINUOUS
 70
        64
  3
Solid line
 72
        65
 73
         0
 40
0.0
  0
LTYPE
  5
1D
100
AcDbSymbolTableRecord
100
AcDbLinetypeTableRecord
  2
DASHED
 70
        64
  3
_ _ _ _ _ _ _ _ _ _ _ _ _ _ _ _
 72
        65
 73
         2
 40
0.2
 49
0.1
 74
         0
 49
-0.1
 74
         0
  0
LTYPE
  5
1E
100
AcDbSymbolTableRecord
100
AcDbLinetypeTableRecord
  2
CENTER
 70
        64
  3
___ _ ___ _ ___ _ ___ _ ___ _ ___ _ ___ _ ___ _
 72
        65
 73
         4
 40
0.95
 49
0.625
 74
         0
 49
-0.125
 74
         0
 49
0.075
 74
         0
 49
-0.125
 74
         0
  0
LTYPE
  5
1F
100
AcDbSymbolTableRecord
100
AcDbLinetypeTableRecord
  2
PHANTOM
 70
        64
  3
______  __  __  ______  __  __  ______  __  __  
 72
        65
 73
         6
 40
1.025
 49
0.625
 74
         0
 49
-0.125
 74
         0
 49
0.075
 74
         0
 49
-0.125
 74
         0
 49
0.075
 74
         0
 49
-0.125
 74
         0
  0
ENDTAB
  0
TABLE
  2
LAYER
  5
2
100
AcDbSymbolTable
 70
         6
  0
LAYER
  5
14
100
AcDbSymbolTableRecord
100
AcDbLayerTableRecord
  2
0
 70
         0
 62
         7
  6
CONTINUOUS
  0
LAYER
  5
21
100
AcDbSymbolTableRecord
100
AcDbLayerTableRecord
  2
_____U
 70
         1
 62
         7
  6
CONTINUOUS
  0
LAYER
  5
22
100
AcDbSymbolTableRecord
100
AcDbLayerTableRecord
  2
ERP__________T_____
 70
         1
 62
         7
  6
CONTINUOUS
  0
LAYER
  5
23
100
AcDbSymbolTableRecord
100
AcDbLayerTableRecord
  2
ERP______L_______
 70
         1
 62
         7
  6
CONTINUOUS
  0
LAYER
  5
24
100
AcDbSymbolTableRecord
100
AcDbLayerTableRecord
  2
ERP____
 70
         0
 62
         7
  6
CONTINUOUS
  0
LAYER
  5
71
100
AcDbSymbolTableRecord
100
AcDbLayerTableRecord
  2
DEFPOINTS
 70
         0
 62
        -7
  6
CONTINUOUS
  0
ENDTAB
  0
TABLE
  2
STYLE
  5
3
100
AcDbSymbolTable
 70
        10
  0
STYLE
  5
17
100
AcDbSymbolTableRecord
100
AcDbTextStyleTableRecord
  2
STANDARD
 70
         0
 40
0.0
 41
1.0
 50
0.0
 71
         0
 42
0.0
  3
txt
  4

  0
STYLE
  5
7D
100
AcDbSymbolTableRecord
100
AcDbTextStyleTableRecord
  2
BOX
 70
         0
 40
1.0
 41
1.0
 50
0.0
 71
         0
 42
0.2
  3
txt.shx
  4

  0
STYLE
  5
8D
100
AcDbSymbolTableRecord
100
AcDbTextStyleTableRecord
  2
BOX
 70
         0
 40
1.0
 41
1.0
 50
0.0
 71
         0
 42
0.2
  3
txt.shx
  4

  0
STYLE
  5
B0
100
AcDbSymbolTableRecord
100
AcDbTextStyleTableRecord
  2
BOX
 70
         0
 40
1.0
 41
1.0
 50
0.0
 71
         0
 42
0.2
  3
txt.shx
  4

  0
STYLE
  5
C1
100
AcDbSymbolTableRecord
100
AcDbTextStyleTableRecord
  2
BOX
 70
         0
 40
1.0
 41
1.0
 50
0.0
 71
         0
 42
0.2
  3
txt.shx
  4

  0
STYLE
  5
D2
100
AcDbSymbolTableRecord
100
AcDbTextStyleTableRecord
  2
BOX
 70
         0
 40
1.0
 41
1.0
 50
0.0
 71
         0
 42
0.2
  3
txt.shx
  4

  0
STYLE
  5
E7
100
AcDbSymbolTableRecord
100
AcDbTextStyleTableRecord
  2
BOX
 70
         0
 40
1.0
 41
1.0
 50
0.0
 71
         0
 42
0.2
  3
txt.shx
  4

  0
STYLE
  5
F8
100
AcDbSymbolTableRecord
100
AcDbTextStyleTableRecord
  2
BOX
 70
         0
 40
1.0
 41
1.0
 50
0.0
 71
         0
 42
0.2
  3
txt.shx
  4

  0
STYLE
  5
106
100
AcDbSymbolTableRecord
100
AcDbTextStyleTableRecord
  2
BOX
 70
         0
 40
1.0
 41
1.0
 50
0.0
 71
         0
 42
0.2
  3
txt.shx
  4

  0
STYLE
  5
1B0
100
AcDbSymbolTableRecord
100
AcDbTextStyleTableRecord
  2
BOX
 70
         0
 40
1.0
 41
1.0
 50
0.0
 71
         0
 42
0.2
  3
txt.shx
  4

  0
ENDTAB
  0
TABLE
  2
VIEW
  5
5
100
AcDbSymbolTable
 70
         0
  0
ENDTAB
  0
TABLE
  2
UCS
  5
6
100
AcDbSymbolTable
 70
         1
  0
UCS
  5
20
100
AcDbSymbolTableRecord
100
AcDbUCSTableRecord
  2
CK_VIEW_1
 70
         0
 10
0.0
 20
0.0
 30
1.0
 11
1.0
 21
0.0
 31
0.0
 12
0.0
 22
1.0
 32
0.0
  0
ENDTAB
  0
TABLE
  2
APPID
  5
8
100
AcDbSymbolTable
 70
         1
  0
APPID
  5
16
100
AcDbSymbolTableRecord
100
AcDbRegAppTableRecord
  2
ACAD
 70
         0
  0
ENDTAB
  0
TABLE
  2
DIMSTYLE
  5
9
100
AcDbSymbolTable
 70
         2
  0
DIMSTYLE
105
18
100
AcDbSymbolTableRecord
100
AcDbDimStyleTableRecord
  2
STANDARD
 70
         0
  3

  4

  5

  6

  7

 40
1.0
 41
0.18
 42
0.0625
 43
0.38
 44
0.18
 45
0.0
 46
0.0
 47
0.0
 48
0.0
 71
         0
 72
         0
 73
         1
 74
         1
 75
         0
 76
         0
 77
         0
 78
         0
140
0.18
141
0.09
142
0.0
143
25.4
144
1.0
145
0.0
146
1.0
147
0.09
170
         0
171
         2
172
         0
173
         0
174
         0
175
         0
176
         0
177
         0
178
         0
270
         2
271
         4
272
         4
273
         2
274
         2
275
         0
280
         0
281
         0
282
         0
283
         1
284
         0
285
         0
286
         0
287
         0
288
         0
340
17
  0
DIMSTYLE
105
6D
100
AcDbSymbolTableRecord
100
AcDbDimStyleTableRecord
  2
DIMSTYLE1
 70
         0
  3

  4

  5

  6

  7

 40
1.0
 41
2.7
 42
0.0625
 43
0.38
 44
2.7
 45
0.0
 46
0.0
 47
0.0
 48
0.0
 71
         0
 72
         0
 73
         1
 74
         1
 75
         0
 76
         0
 77
         0
 78
         0
140
2.7
141
0.09
142
0.0
143
25.4
144
1.0
145
0.0
146
1.0
147
0.09
170
         0
171
         2
172
         0
173
         0
174
         0
175
         0
176
         0
177
         0
178
         0
270
         2
271
         4
272
         4
273
         2
274
         2
275
         0
280
         0
281
         0
282
         0
283
         1
284
         0
285
         0
286
         0
287
         0
288
         0
340
17
  0
ENDTAB
  0
TABLE
  2
BLOCK_RECORD
  5
1
100
AcDbSymbolTable
 70
         9
  0
BLOCK_RECORD
  5
A
100
AcDbSymbolTableRecord
100
AcDbBlockTableRecord
  2
*MODEL_SPACE
  0
BLOCK_RECORD
  5
B
100
AcDbSymbolTableRecord
100
AcDbBlockTableRecord
  2
*PAPER_SPACE
  0
BLOCK_RECORD
  5
25
100
AcDbSymbolTableRecord
100
AcDbBlockTableRecord
  2
*X0
  0
BLOCK_RECORD
  5
6E
100
AcDbSymbolTableRecord
100
AcDbBlockTableRecord
  2
*D1
  0
BLOCK_RECORD
  5
81
100
AcDbSymbolTableRecord
100
AcDbBlockTableRecord
  2
*D2
  0
BLOCK_RECORD
  5
A5
100
AcDbSymbolTableRecord
100
AcDbBlockTableRecord
  2
*D3
  0
BLOCK_RECORD
  5
B5
100
AcDbSymbolTableRecord
100
AcDbBlockTableRecord
  2
*D4
  0
BLOCK_RECORD
  5
C6
100
AcDbSymbolTableRecord
100
AcDbBlockTableRecord
  2
*D5
  0
BLOCK_RECORD
  5
DC
100
AcDbSymbolTableRecord
100
AcDbBlockTableRecord
  2
*D6
  0
BLOCK_RECORD
  5
ED
100
AcDbSymbolTableRecord
100
AcDbBlockTableRecord
  2
*D7
  0
BLOCK_RECORD
  5
FB
100
AcDbSymbolTableRecord
100
AcDbBlockTableRecord
  2
*D8
  0
ENDTAB
  0
ENDSEC
  0
SECTION
  2
BLOCKS
  0
BLOCK
  5
D
100
AcDbEntity
  8
0
100
AcDbBlockBegin
  2
*MODEL_SPACE
 70
         0
 10
0.0
 20
0.0
 30
0.0
  3
*MODEL_SPACE
  1

  0
ENDBLK
  5
E
100
AcDbEntity
  8
0
100
AcDbBlockEnd
  0
BLOCK
  5
F
100
AcDbEntity
 67
         1
  8
0
100
AcDbBlockBegin
  2
*PAPER_SPACE
 70
         0
 10
0.0
 20
0.0
 30
0.0
  3
*PAPER_SPACE
  1

  0
ENDBLK
  5
10
100
AcDbEntity
 67
         1
  8
0
100
AcDbBlockEnd
  0
BLOCK
  5
26
100
AcDbEntity
  8
0
100
AcDbBlockBegin
  2
*X0
 70
        65
 10
0.0
 20
0.0
 30
0.0
  3
*X0
  1

  0
LINE
  5
27
100
AcDbEntity
  8
ERP____
  6
CONTINUOUS
 62
         4
100
AcDbLine
 10
-11643.9309389702
 20
12949.4653488495
 30
0.0
 11
-11640.278126954
 21
12953.1181608658
 31
0.0
  0
LINE
  5
28
100
AcDbEntity
  8
ERP____
  6
CONTINUOUS
 62
         4
100
AcDbLine
 10
-11648.2865864159
 20
12949.352342091
 30
0.0
 11
-11641.6292658752
 21
12956.0096626316
 31
0.0
  0
LINE
  5
29
100
AcDbEntity
  8
ERP____
  6
CONTINUOUS
 62
         4
100
AcDbLine
 10
-11652.6422338615
 20
12949.2393353324
 30
0.0
 11
-11643.4080550275
 21
12958.4735141665
 31
0.0
  0
LINE
  5
2A
100
AcDbEntity
  8
ERP____
  6
CONTINUOUS
 62
         4
100
AcDbLine
 10
-11643.3954485681
 20
12958.4861206258
 30
0.0
 11
-11640.278126954
 21
12961.60344224
 31
0.0
  0
LINE
  5
2B
100
AcDbEntity
  8
ERP____
  6
CONTINUOUS
 62
         4
100
AcDbLine
 10
-11656.9978813072
 20
12949.1263285739
 30
0.0
 11
-11641.2256494432
 21
12964.8985604379
 31
0.0
  0
LINE
  5
2C
100
AcDbEntity
  8
ERP____
  6
CONTINUOUS
 62
         4
100
AcDbLine
 10
-11684.3108360681
 20
12926.0560145001
 30
0.0
 11
-11683.7480208282
 21
12926.61882974
 31
0.0
  0
LINE
  5
2D
100
AcDbEntity
  8
ERP____
  6
CONTINUOUS
 62
         4
100
AcDbLine
 10
-11661.3535287528
 20
12949.0133218154
 30
0.0
 11
-11644.8364644153
 21
12965.5303861529
 31
0.0
  0
LINE
  5
2E
100
AcDbEntity
  8
ERP____
  6
CONTINUOUS
 62
         4
100
AcDbLine
 10
-11688.6233706295
 20
12925.9861206258
 30
0.0
 11
-11683.678126954
 21
12930.9313643014
 31
0.0
  0
LINE
  5
2F
100
AcDbEntity
  8
ERP____
  6
CONTINUOUS
 62
         4
100
AcDbLine
 10
-11672.1233706295
 20
12942.4861206258
 30
0.0
 11
-11669.478126954
 21
12945.1313643014
 31
0.0
  0
LINE
  5
30
100
AcDbEntity
  8
ERP____
  6
CONTINUOUS
 62
         4
100
AcDbLine
 10
-11665.7091761985
 20
12948.9003150569
 30
0.0
 11
-11648.9718139472
 21
12965.6376773081
 31
0.0
  0
LINE
  5
31
100
AcDbEntity
  8
ERP____
  6
CONTINUOUS
 62
         4
100
AcDbLine
 10
-11690.4644988289
 20
12928.3876331135
 30
0.0
 11
-11683.678126954
 21
12935.1740049885
 31
0.0
  0
LINE
  5
32
100
AcDbEntity
  8
ERP____
  6
CONTINUOUS
 62
         4
100
AcDbLine
 10
-11676.3660113166
 20
12942.4861206258
 30
0.0
 11
-11653.1071634792
 21
12965.7449684632
 31
0.0
  0
LINE
  5
33
100
AcDbEntity
  8
ERP____
  6
CONTINUOUS
 62
         4
100
AcDbLine
 10
-11692.1086520037
 20
12930.9861206258
 30
0.0
 11
-11683.678126954
 21
12939.4166456756
 31
0.0
  0
LINE
  5
34
100
AcDbEntity
  8
ERP____
  6
CONTINUOUS
 62
         4
100
AcDbLine
 10
-11680.6086520037
 20
12942.4861206258
 30
0.0
 11
-11657.2425130111
 21
12965.8522596184
 31
0.0
  0
LINE
  5
35
100
AcDbEntity
  8
ERP____
  6
CONTINUOUS
 62
         4
100
AcDbLine
 10
-11701.3512926908
 20
12925.9861206258
 30
0.0
 11
-11696.578126954
 21
12930.7592863627
 31
0.0
  0
LINE
  5
36
100
AcDbEntity
  8
ERP____
  6
CONTINUOUS
 62
         4
100
AcDbLine
 10
-11696.3512926908
 20
12930.9861206258
 30
0.0
 11
-11661.3778625431
 21
12965.9595507736
 31
0.0
  0
LINE
  5
37
100
AcDbEntity
  8
ERP____
  6
CONTINUOUS
 62
         4
100
AcDbLine
 10
-11705.5939333779
 20
12925.9861206258
 30
0.0
 11
-11665.513212075
 21
12966.0668419288
 31
0.0
  0
LINE
  5
38
100
AcDbEntity
  8
ERP____
  6
CONTINUOUS
 62
         4
100
AcDbLine
 10
-11708.678126954
 20
12927.1445677369
 30
0.0
 11
-11669.000852476
 21
12966.821842215
 31
0.0
  0
LINE
  5
39
100
AcDbEntity
  8
ERP____
  6
CONTINUOUS
 62
         4
100
AcDbLine
 10
-11708.678126954
 20
12931.3872084241
 30
0.0
 11
-11669.478126954
 21
12970.5872084241
 31
0.0
  0
LINE
  5
3A
100
AcDbEntity
  8
ERP____
  6
CONTINUOUS
 62
         4
100
AcDbLine
 10
-11708.9432112731
 20
12935.3647647921
 30
0.0
 11
-11671.8218554393
 21
12972.4861206258
 31
0.0
  0
LINE
  5
3B
100
AcDbEntity
  8
ERP____
  6
CONTINUOUS
 62
         4
100
AcDbLine
 10
-11712.9571416442
 20
12935.5934751081
 30
0.0
 11
-11676.0644961264
 21
12972.4861206258
 31
0.0
  0
LINE
  5
3C
100
AcDbEntity
  8
ERP____
  6
CONTINUOUS
 62
         4
100
AcDbLine
 10
-11716.6598124704
 20
12936.133444969
 30
0.0
 11
-11680.3071368135
 21
12972.4861206258
 31
0.0
  0
LINE
  5
3D
100
AcDbEntity
  8
ERP____
  6
CONTINUOUS
 62
         4
100
AcDbLine
 10
-11720.3624832967
 20
12936.6734148298
 30
0.0
 11
-11683.1900197433
 21
12973.8458783832
 31
0.0
  0
LINE
  5
3E
100
AcDbEntity
  8
ERP____
  6
CONTINUOUS
 62
         4
100
AcDbLine
 10
-11724.0651541229
 20
12937.2133846907
 30
0.0
 11
-11683.678126954
 21
12977.6004118597
 31
0.0
  0
LINE
  5
3F
100
AcDbEntity
  8
ERP____
  6
CONTINUOUS
 62
         4
100
AcDbLine
 10
-11727.7678249491
 20
12937.7533545516
 30
0.0
 11
-11683.678126954
 21
12981.8430525468
 31
0.0
  0
LINE
  5
40
100
AcDbEntity
  8
ERP____
  6
CONTINUOUS
 62
         4
100
AcDbLine
 10
-11731.4704957753
 20
12938.2933244125
 30
0.0
 11
-11683.678126954
 21
12986.0856932339
 31
0.0
  0
LINE
  5
41
100
AcDbEntity
  8
ERP____
  6
CONTINUOUS
 62
         4
100
AcDbLine
 10
-11735.1731666015
 20
12938.8332942734
 30
0.0
 11
-11685.0203402491
 21
12988.9861206258
 31
0.0
  0
LINE
  5
42
100
AcDbEntity
  8
ERP____
  6
CONTINUOUS
 62
         4
100
AcDbLine
 10
-11738.8758374278
 20
12939.3732641343
 30
0.0
 11
-11694.2629809363
 21
12983.9861206258
 31
0.0
  0
LINE
  5
43
100
AcDbEntity
  8
ERP____
  6
CONTINUOUS
 62
         4
100
AcDbLine
 10
-11742.578508254
 20
12939.9132339952
 30
0.0
 11
-11697.0385384686
 21
12985.4532037806
 31
0.0
  0
LINE
  5
44
100
AcDbEntity
  8
ERP____
  6
CONTINUOUS
 62
         4
100
AcDbLine
 10
-11746.2811790802
 20
12940.4532038561
 30
0.0
 11
-11736.2982623105
 21
12950.4361206258
 31
0.0
  0
LINE
  5
45
100
AcDbEntity
  8
ERP____
  6
CONTINUOUS
 62
         4
100
AcDbLine
 10
-11733.4113910609
 20
12953.3229918755
 30
0.0
 11
-11698.5914527393
 21
12988.1429301971
 31
0.0
  0
LINE
  5
46
100
AcDbEntity
  8
ERP____
  6
CONTINUOUS
 62
         4
100
AcDbLine
 10
-11749.9838499064
 20
12940.993173717
 30
0.0
 11
-11740.5409029976
 21
12950.4361206258
 31
0.0
  0
LINE
  5
47
100
AcDbEntity
  8
ERP____
  6
CONTINUOUS
 62
         4
100
AcDbLine
 10
-11731.9166835678
 20
12959.0603400557
 30
0.0
 11
-11711.3662543593
 21
12979.6107692641
 31
0.0
  0
LINE
  5
48
100
AcDbEntity
  8
ERP____
  6
CONTINUOUS
 62
         4
100
AcDbLine
 10
-11708.678126954
 20
12982.2988966695
 30
0.0
 11
-11701.9909029976
 21
12988.9861206258
 31
0.0
  0
LINE
  5
49
100
AcDbEntity
  8
ERP____
  6
CONTINUOUS
 62
         4
100
AcDbLine
 10
-11753.6865207327
 20
12941.5331435779
 30
0.0
 11
-11744.7835436847
 21
12950.4361206258
 31
0.0
  0
LINE
  5
4A
100
AcDbEntity
  8
ERP____
  6
CONTINUOUS
 62
         4
100
AcDbLine
 10
-11733.4695978384
 20
12961.7500664722
 30
0.0
 11
-11716.3332436734
 21
12978.8864206372
 31
0.0
  0
LINE
  5
4B
100
AcDbEntity
  8
ERP____
  6
CONTINUOUS
 62
         4
100
AcDbLine
 10
-11708.678126954
 20
12986.5415373566
 30
0.0
 11
-11706.2335436847
 21
12988.9861206258
 31
0.0
  0
LINE
  5
4C
100
AcDbEntity
  8
ERP____
  6
CONTINUOUS
 62
         4
100
AcDbLine
 10
-11757.3891915589
 20
12942.0731134388
 30
0.0
 11
-11749.0261843719
 21
12950.4361206258
 31
0.0
  0
LINE
  5
4D
100
AcDbEntity
  8
ERP____
  6
CONTINUOUS
 62
         4
100
AcDbLine
 10
-11735.022512109
 20
12964.4397928887
 30
0.0
 11
-11721.3002329874
 21
12978.1620720102
 31
0.0
  0
LINE
  5
4E
100
AcDbEntity
  8
ERP____
  6
CONTINUOUS
 62
         4
100
AcDbLine
 10
-11761.0918623851
 20
12942.6130832997
 30
0.0
 11
-11753.268825059
 21
12950.4361206258
 31
0.0
  0
LINE
  5
4F
100
AcDbEntity
  8
ERP____
  6
CONTINUOUS
 62
         4
100
AcDbLine
 10
-11739.168825059
 20
12964.5361206258
 30
0.0
 11
-11726.2672223015
 21
12977.4377233833
 31
0.0
  0
LINE
  5
50
100
AcDbEntity
  8
ERP____
  6
CONTINUOUS
 62
         4
100
AcDbLine
 10
-11764.7945332113
 20
12943.1530531606
 30
0.0
 11
-11757.5114657461
 21
12950.4361206258
 31
0.0
  0
LINE
  5
51
100
AcDbEntity
  8
ERP____
  6
CONTINUOUS
 62
         4
100
AcDbLine
 10
-11743.4114657461
 20
12964.5361206258
 30
0.0
 11
-11731.2342116156
 21
12976.7133747564
 31
0.0
  0
LINE
  5
52
100
AcDbEntity
  8
ERP____
  6
CONTINUOUS
 62
         4
100
AcDbLine
 10
-11768.4972040375
 20
12943.6930230215
 30
0.0
 11
-11761.7541064332
 21
12950.4361206258
 31
0.0
  0
LINE
  5
53
100
AcDbEntity
  8
ERP____
  6
CONTINUOUS
 62
         4
100
AcDbLine
 10
-11747.6541064332
 20
12964.5361206258
 30
0.0
 11
-11736.2012009296
 21
12975.9890261294
 31
0.0
  0
LINE
  5
54
100
AcDbEntity
  8
ERP____
  6
CONTINUOUS
 62
         4
100
AcDbLine
 10
-11772.1998748638
 20
12944.2329928824
 30
0.0
 11
-11767.6458799351
 21
12948.786987811
 31
0.0
  0
LINE
  5
55
100
AcDbEntity
  8
ERP____
  6
CONTINUOUS
 62
         4
100
AcDbLine
 10
-11767.0789941391
 20
12949.353873607
 30
0.0
 11
-11765.9967471203
 21
12950.4361206258
 31
0.0
  0
LINE
  5
56
100
AcDbEntity
  8
ERP____
  6
CONTINUOUS
 62
         4
100
AcDbLine
 10
-11751.8967471203
 20
12964.5361206258
 30
0.0
 11
-11741.1681902437
 21
12975.2646775025
 31
0.0
  0
LINE
  5
57
100
AcDbEntity
  8
ERP____
  6
CONTINUOUS
 62
         4
100
AcDbLine
 10
-11775.7514989616
 20
12944.9240094717
 30
0.0
 11
-11771.6893878075
 21
12948.9861206258
 31
0.0
  0
LINE
  5
58
100
AcDbEntity
  8
ERP____
  6
CONTINUOUS
 62
         4
100
AcDbLine
 10
-11756.1393878075
 20
12964.5361206258
 30
0.0
 11
-11746.1351795578
 21
12974.5403288755
 31
0.0
  0
LINE
  5
59
100
AcDbEntity
  8
ERP____
  6
CONTINUOUS
 62
         4
100
AcDbLine
 10
-11760.3820284946
 20
12964.5361206258
 30
0.0
 11
-11751.1021688718
 21
12973.8159802486
 31
0.0
  0
LINE
  5
5A
100
AcDbEntity
  8
ERP____
  6
CONTINUOUS
 62
         4
100
AcDbLine
 10
-11764.6246691817
 20
12964.5361206258
 30
0.0
 11
-11756.0691581859
 21
12973.0916316217
 31
0.0
  0
LINE
  5
5B
100
AcDbEntity
  8
ERP____
  6
CONTINUOUS
 62
         4
100
AcDbLine
 10
-11767.3292007546
 20
12966.0742297401
 30
0.0
 11
-11761.0361474999
 21
12972.3672829947
 31
0.0
  0
LINE
  5
5C
100
AcDbEntity
  8
ERP____
  6
CONTINUOUS
 62
         4
100
AcDbLine
 10
-11771.6599505559
 20
12965.9861206258
 30
0.0
 11
-11766.003136814
 21
12971.6429343678
 31
0.0
  0
LINE
  5
5D
100
AcDbEntity
  8
ERP____
  6
CONTINUOUS
 62
         4
100
AcDbLine
 10
-11775.5473817111
 20
12966.3413301578
 30
0.0
 11
-11770.9701261281
 21
12970.9185857408
 31
0.0
  0
ENDBLK
  5
5E
100
AcDbEntity
  8
0
  6
CONTINUOUS
100
AcDbBlockEnd
  0
BLOCK
  5
6F
100
AcDbEntity
  8
0
100
AcDbBlockBegin
  2
*D1
 70
        65
 10
0.0
 20
0.0
 30
0.0
  3
*D1
  1

  0
POINT
  5
72
100
AcDbEntity
  8
DEFPOINTS
  6
CONTINUOUS
 62
         0
100
AcDbPoint
 10
-11665.678126954
 20
12966.0711206258
 30
0.0
  0
POINT
  5
73
100
AcDbEntity
  8
DEFPOINTS
  6
CONTINUOUS
 62
         0
100
AcDbPoint
 10
-11665.6369798627
 20
12966.0711206258
 30
0.0
  0
POINT
  5
74
100
AcDbEntity
  8
DEFPOINTS
  6
CONTINUOUS
 62
         0
100
AcDbPoint
 10
-11667.5299992621
 20
12966.1191672341
 30
0.0
  0
POINT
  5
75
100
AcDbEntity
  8
DEFPOINTS
  6
CONTINUOUS
 62
         0
100
AcDbPoint
 10
-11641.778126954
 20
12965.4510379487
 30
0.0
  0
LINE
  5
76
100
AcDbEntity
  8
ERP____
  6
CONTINUOUS
 62
         4
100
AcDbLine
 10
-11664.2869798627
 20
12966.0711206258
 30
0.0
 11
-11650.2308293675
 21
12966.0711206258
 31
0.0
  0
ARC
  5
77
100
AcDbEntity
  8
ERP____
  6
CONTINUOUS
 62
         4
100
AcDbCircle
 10
-11665.678126954
 20
12966.0711206258
 30
0.0
 40
14.7722975865
100
AcDbArc
 50
358.5138011797
 51
359.2569005899
  0
SOLID
  5
78
100
AcDbEntity
  8
ERP____
  6
CONTINUOUS
 62
         4
100
AcDbTrace
 10
-11650.9107987481
 20
12965.6879840397
 30
0.0
 11
-11651.4911764828
 21
12968.3557896333
 31
0.0
 12
-11650.6829039389
 22
12968.4086620721
 32
0.0
 13
-11650.9107987481
 23
12965.6879840397
 33
0.0
  0
ARC
  5
79
100
AcDbEntity
  8
ERP____
  6
CONTINUOUS
 62
         4
100
AcDbCircle
 10
-11665.678126954
 20
12966.0711206258
 30
0.0
 40
14.7722975865
100
AcDbArc
 50
359.2569005899
 51
360.0
  0
SOLID
  5
7A
100
AcDbEntity
  8
ERP____
  6
CONTINUOUS
 62
         4
100
AcDbTrace
 10
-11650.9058293675
 20
12966.0711206258
 30
0.0
 11
-11650.7485751464
 21
12963.3454471109
 31
0.0
 12
-11651.5552044808
 22
12963.4192652448
 32
0.0
 13
-11650.9058293675
 23
12966.0711206258
 33
0.0
  0
ARC
  5
7B
100
AcDbEntity
  8
ERP____
  6
CONTINUOUS
 62
         4
100
AcDbCircle
 10
-11665.678126954
 20
12966.0711206258
 30
0.0
 40
14.7722975865
100
AcDbArc
 50
0.0
 51
23.2073365339
  0
SOLID
  5
7C
100
AcDbEntity
  8
ERP____
  6
CONTINUOUS
 62
         4
100
AcDbTrace
 10
-11665.678126954
 20
12966.0711206258
 30
0.0
 11
-11664.6043735116
 21
12968.5813155476
 31
0.0
 12
-11663.9151416568
 22
12968.1558047366
 32
0.0
 13
-11665.678126954
 23
12966.0711206258
 33
0.0
  0
TEXT
  5
7E
100
AcDbEntity
  8
ERP____
  6
CONTINUOUS
 62
         4
100
AcDbText
 10
-11650.7511314698
 20
12973.2422862829
 30
0.0
 40
2.7
  1
1.4862%%d
  7
BOX
100
AcDbText
  0
ENDBLK
  5
7F
100
AcDbEntity
  8
0
  6
CONTINUOUS
100
AcDbBlockEnd
  0
BLOCK
  5
82
100
AcDbEntity
  8
0
100
AcDbBlockBegin
  2
*D2
 70
        65
 10
0.0
 20
0.0
 30
0.0
  3
*D2
  1

  0
POINT
  5
84
100
AcDbEntity
  8
DEFPOINTS
  6
CONTINUOUS
 62
         0
100
AcDbPoint
 10
-11599.5185743587
 20
12949.5601206258
 30
0.0
  0
POINT
  5
85
100
AcDbEntity
  8
DEFPOINTS
  6
CONTINUOUS
 62
         0
100
AcDbPoint
 10
-11640.278126954
 20
12949.5601206258
 30
0.0
  0
POINT
  5
86
100
AcDbEntity
  8
DEFPOINTS
  6
CONTINUOUS
 62
         0
100
AcDbPoint
 10
-11640.278126954
 20
12965.4121206258
 30
0.0
  0
LINE
  5
87
100
AcDbEntity
  8
ERP____
  6
CONTINUOUS
 62
         4
100
AcDbLine
 10
-11638.928126954
 20
12949.5601206258
 30
0.0
 11
-11598.8435743587
 21
12949.5601206258
 31
0.0
  0
LINE
  5
88
100
AcDbEntity
  8
ERP____
  6
CONTINUOUS
 62
         4
100
AcDbLine
 10
-11638.928126954
 20
12965.4121206258
 30
0.0
 11
-11598.8435743587
 21
12965.4121206258
 31
0.0
  0
LINE
  5
89
100
AcDbEntity
  8
ERP____
  6
CONTINUOUS
 62
         4
100
AcDbLine
 10
-11599.5185743587
 20
12949.5601206258
 30
0.0
 11
-11599.5185743587
 21
12965.4121206258
 31
0.0
  0
SOLID
  5
8A
100
AcDbEntity
  8
ERP____
  6
CONTINUOUS
 62
         4
100
AcDbTrace
 10
-11599.5185743587
 20
12949.5601206258
 30
0.0
 11
-11599.9235743587
 21
12952.2601206258
 31
0.0
 12
-11599.1135743587
 22
12952.2601206258
 32
0.0
 13
-11599.5185743587
 23
12949.5601206258
 33
0.0
  0
LINE
  5
8B
100
AcDbEntity
  8
ERP____
  6
CONTINUOUS
 62
         4
100
AcDbLine
 10
-11599.5185743587
 20
12949.5601206258
 30
0.0
 11
-11599.5185743587
 21
12925.8590881346
 31
0.0
  0
SOLID
  5
8C
100
AcDbEntity
  8
ERP____
  6
CONTINUOUS
 62
         4
100
AcDbTrace
 10
-11599.5185743587
 20
12965.4121206258
 30
0.0
 11
-11599.1135743587
 21
12962.7121206258
 31
0.0
 12
-11599.9235743587
 22
12962.7121206258
 32
0.0
 13
-11599.5185743587
 23
12965.4121206258
 33
0.0
  0
TEXT
  5
8E
100
AcDbEntity
  8
ERP____
  6
CONTINUOUS
 62
         4
100
AcDbText
 10
-11601.5435743587
 20
12927.2090881346
 30
0.0
 40
2.7
  1
崷15.852
 50
90.0
  7
BOX
100
AcDbText
  0
ENDBLK
  5
8F
100
AcDbEntity
  8
0
  6
CONTINUOUS
100
AcDbBlockEnd
  0
BLOCK
  5
A6
100
AcDbEntity
  8
0
100
AcDbBlockBegin
  2
*D3
 70
        65
 10
0.0
 20
0.0
 30
0.0
  3
*D3
  1

  0
POINT
  5
A8
100
AcDbEntity
  8
DEFPOINTS
  6
CONTINUOUS
 62
         0
100
AcDbPoint
 10
-11776.078126954
 20
13188.6806625839
 30
0.0
  0
POINT
  5
A9
100
AcDbEntity
  8
DEFPOINTS
  6
CONTINUOUS
 62
         0
100
AcDbPoint
 10
-11776.078126954
 20
13132.4369044293
 30
0.0
  0
POINT
  5
AA
100
AcDbEntity
  8
DEFPOINTS
  6
CONTINUOUS
 62
         0
100
AcDbPoint
 10
-11640.278126954
 20
13126.7950959326
 30
0.0
  0
LINE
  5
AB
100
AcDbEntity
  8
ERP____
  6
CONTINUOUS
 62
         4
100
AcDbLine
 10
-11776.078126954
 20
13133.7869044293
 30
0.0
 11
-11776.078126954
 21
13189.3556625839
 31
0.0
  0
LINE
  5
AC
100
AcDbEntity
  8
ERP____
  6
CONTINUOUS
 62
         4
100
AcDbLine
 10
-11640.278126954
 20
13128.1450959326
 30
0.0
 11
-11640.278126954
 21
13189.3556625839
 31
0.0
  0
LINE
  5
AD
100
AcDbEntity
  8
ERP____
  6
CONTINUOUS
 62
         4
100
AcDbLine
 10
-11776.078126954
 20
13188.6806625839
 30
0.0
 11
-11640.278126954
 21
13188.6806625839
 31
0.0
  0
SOLID
  5
AE
100
AcDbEntity
  8
ERP____
  6
CONTINUOUS
 62
         4
100
AcDbTrace
 10
-11776.078126954
 20
13188.6806625839
 30
0.0
 11
-11773.378126954
 21
13189.0856625839
 31
0.0
 12
-11773.378126954
 22
13188.2756625839
 32
0.0
 13
-11776.078126954
 23
13188.6806625839
 33
0.0
  0
SOLID
  5
AF
100
AcDbEntity
  8
ERP____
  6
CONTINUOUS
 62
         4
100
AcDbTrace
 10
-11640.278126954
 20
13188.6806625839
 30
0.0
 11
-11642.978126954
 21
13188.2756625839
 31
0.0
 12
-11642.978126954
 22
13189.0856625839
 32
0.0
 13
-11640.278126954
 23
13188.6806625839
 33
0.0
  0
TEXT
  5
B1
100
AcDbEntity
  8
ERP____
  6
CONTINUOUS
 62
         4
100
AcDbText
 10
-11714.928126954
 20
13190.7056625839
 30
0.0
 40
2.7
  1
135.8
  7
BOX
100
AcDbText
  0
ENDBLK
  5
B2
100
AcDbEntity
  8
0
  6
CONTINUOUS
100
AcDbBlockEnd
  0
BLOCK
  5
B6
100
AcDbEntity
  8
0
100
AcDbBlockBegin
  2
*D4
 70
        65
 10
0.0
 20
0.0
 30
0.0
  3
*D4
  1

  0
POINT
  5
B8
100
AcDbEntity
  8
DEFPOINTS
  6
CONTINUOUS
 62
         0
100
AcDbPoint
 10
-11669.678126954
 20
13100.2984662927
 30
0.0
  0
POINT
  5
B9
100
AcDbEntity
  8
DEFPOINTS
  6
CONTINUOUS
 62
         0
100
AcDbPoint
 10
-11669.678126954
 20
13109.6978047987
 30
0.0
  0
POINT
  5
BA
100
AcDbEntity
  8
DEFPOINTS
  6
CONTINUOUS
 62
         0
100
AcDbPoint
 10
-11665.678126954
 20
13110.5695845874
 30
0.0
  0
LINE
  5
BB
100
AcDbEntity
  8
ERP____
  6
CONTINUOUS
 62
         4
100
AcDbLine
 10
-11669.678126954
 20
13108.3478047987
 30
0.0
 11
-11669.678126954
 21
13099.6234662927
 31
0.0
  0
LINE
  5
BC
100
AcDbEntity
  8
ERP____
  6
CONTINUOUS
 62
         4
100
AcDbLine
 10
-11665.678126954
 20
13109.2195845874
 30
0.0
 11
-11665.678126954
 21
13099.6234662927
 31
0.0
  0
LINE
  5
BD
100
AcDbEntity
  8
ERP____
  6
CONTINUOUS
 62
         4
100
AcDbLine
 10
-11669.678126954
 20
13100.2984662927
 30
0.0
 11
-11665.678126954
 21
13100.2984662927
 31
0.0
  0
SOLID
  5
BE
100
AcDbEntity
  8
ERP____
  6
CONTINUOUS
 62
         4
100
AcDbTrace
 10
-11669.678126954
 20
13100.2984662927
 30
0.0
 11
-11666.978126954
 21
13100.7034662927
 31
0.0
 12
-11666.978126954
 22
13099.8934662927
 32
0.0
 13
-11669.678126954
 23
13100.2984662927
 33
0.0
  0
LINE
  5
BF
100
AcDbEntity
  8
ERP____
  6
CONTINUOUS
 62
         4
100
AcDbLine
 10
-11665.678126954
 20
13100.2984662927
 30
0.0
 11
-11658.0560084414
 21
13100.2984662927
 31
0.0
  0
SOLID
  5
C0
100
AcDbEntity
  8
ERP____
  6
CONTINUOUS
 62
         4
100
AcDbTrace
 10
-11665.678126954
 20
13100.2984662927
 30
0.0
 11
-11668.378126954
 21
13099.8934662927
 31
0.0
 12
-11668.378126954
 22
13100.7034662927
 32
0.0
 13
-11665.678126954
 23
13100.2984662927
 33
0.0
  0
TEXT
  5
C2
100
AcDbEntity
  8
ERP____
  6
CONTINUOUS
 62
         4
100
AcDbText
 10
-11662.1060084414
 20
13102.3234662927
 30
0.0
 40
2.7
  1
4
  7
BOX
100
AcDbText
  0
ENDBLK
  5
C3
100
AcDbEntity
  8
0
  6
CONTINUOUS
100
AcDbBlockEnd
  0
BLOCK
  5
C7
100
AcDbEntity
  8
0
100
AcDbBlockBegin
  2
*D5
 70
        65
 10
0.0
 20
0.0
 30
0.0
  3
*D5
  1

  0
POINT
  5
C9
100
AcDbEntity
  8
DEFPOINTS
  6
CONTINUOUS
 62
         0
100
AcDbPoint
 10
-11624.578015284
 20
13128.9151786098
 30
0.0
  0
POINT
  5
CA
100
AcDbEntity
  8
DEFPOINTS
  6
CONTINUOUS
 62
         0
100
AcDbPoint
 10
-11665.678126954
 20
13128.9151786098
 30
0.0
  0
POINT
  5
CB
100
AcDbEntity
  8
DEFPOINTS
  6
CONTINUOUS
 62
         0
100
AcDbPoint
 10
-11665.678126954
 20
13111.7451786098
 30
0.0
  0
LINE
  5
CC
100
AcDbEntity
  8
ERP____
  6
CONTINUOUS
 62
         4
100
AcDbLine
 10
-11664.328126954
 20
13128.9151786098
 30
0.0
 11
-11623.903015284
 21
13128.9151786098
 31
0.0
  0
LINE
  5
CD
100
AcDbEntity
  8
ERP____
  6
CONTINUOUS
 62
         4
100
AcDbLine
 10
-11664.328126954
 20
13111.7451786098
 30
0.0
 11
-11623.903015284
 21
13111.7451786098
 31
0.0
  0
LINE
  5
CE
100
AcDbEntity
  8
ERP____
  6
CONTINUOUS
 62
         4
100
AcDbLine
 10
-11624.578015284
 20
13128.9151786098
 30
0.0
 11
-11624.578015284
 21
13111.7451786098
 31
0.0
  0
SOLID
  5
CF
100
AcDbEntity
  8
ERP____
  6
CONTINUOUS
 62
         4
100
AcDbTrace
 10
-11624.578015284
 20
13128.9151786098
 30
0.0
 11
-11624.173015284
 21
13126.2151786098
 31
0.0
 12
-11624.983015284
 22
13126.2151786098
 32
0.0
 13
-11624.578015284
 23
13128.9151786098
 33
0.0
  0
LINE
  5
D0
100
AcDbEntity
  8
ERP____
  6
CONTINUOUS
 62
         4
100
AcDbLine
 10
-11624.578015284
 20
13128.9151786098
 30
0.0
 11
-11624.578015284
 21
13157.024189417
 31
0.0
  0
SOLID
  5
D1
100
AcDbEntity
  8
ERP____
  6
CONTINUOUS
 62
         4
100
AcDbTrace
 10
-11624.578015284
 20
13111.7451786098
 30
0.0
 11
-11624.983015284
 21
13114.4451786098
 31
0.0
 12
-11624.173015284
 22
13114.4451786098
 32
0.0
 13
-11624.578015284
 23
13111.7451786098
 33
0.0
  0
TEXT
  5
D3
100
AcDbEntity
  8
ERP____
  6
CONTINUOUS
 62
         4
100
AcDbText
 10
-11626.603015284
 20
13136.774189417
 30
0.0
 40
2.7
  1
崷17.17
 50
90.0
  7
BOX
100
AcDbText
  0
ENDBLK
  5
D4
100
AcDbEntity
  8
0
  6
CONTINUOUS
100
AcDbBlockEnd
  0
BLOCK
  5
DD
100
AcDbEntity
  8
0
100
AcDbBlockBegin
  2
*D6
 70
        65
 10
0.0
 20
0.0
 30
0.0
  3
*D6
  1

  0
POINT
  5
DF
100
AcDbEntity
  8
DEFPOINTS
  6
CONTINUOUS
 62
         0
100
AcDbPoint
 10
-11640.278126954
 20
13153.8997162847
 30
0.0
  0
POINT
  5
E0
100
AcDbEntity
  8
DEFPOINTS
  6
CONTINUOUS
 62
         0
100
AcDbPoint
 10
-11640.278126954
 20
13126.7950959326
 30
0.0
  0
POINT
  5
E1
100
AcDbEntity
  8
DEFPOINTS
  6
CONTINUOUS
 62
         0
100
AcDbPoint
 10
-11665.678126954
 20
13128.9151786098
 30
0.0
  0
LINE
  5
E2
100
AcDbEntity
  8
ERP____
  6
CONTINUOUS
 62
         4
100
AcDbLine
 10
-11640.278126954
 20
13128.1450959326
 30
0.0
 11
-11640.278126954
 21
13154.5747162847
 31
0.0
  0
LINE
  5
E3
100
AcDbEntity
  8
ERP____
  6
CONTINUOUS
 62
         4
100
AcDbLine
 10
-11665.678126954
 20
13130.2651786098
 30
0.0
 11
-11665.678126954
 21
13154.5747162847
 31
0.0
  0
LINE
  5
E4
100
AcDbEntity
  8
ERP____
  6
CONTINUOUS
 62
         4
100
AcDbLine
 10
-11640.278126954
 20
13153.8997162847
 30
0.0
 11
-11665.678126954
 21
13153.8997162847
 31
0.0
  0
SOLID
  5
E5
100
AcDbEntity
  8
ERP____
  6
CONTINUOUS
 62
         4
100
AcDbTrace
 10
-11640.278126954
 20
13153.8997162847
 30
0.0
 11
-11642.978126954
 21
13153.4947162847
 31
0.0
 12
-11642.978126954
 22
13154.3047162847
 32
0.0
 13
-11640.278126954
 23
13153.8997162847
 33
0.0
  0
SOLID
  5
E6
100
AcDbEntity
  8
ERP____
  6
CONTINUOUS
 62
         4
100
AcDbTrace
 10
-11665.678126954
 20
13153.8997162847
 30
0.0
 11
-11662.978126954
 21
13154.3047162847
 31
0.0
 12
-11662.978126954
 22
13153.4947162847
 32
0.0
 13
-11665.678126954
 23
13153.8997162847
 33
0.0
  0
TEXT
  5
E8
100
AcDbEntity
  8
ERP____
  6
CONTINUOUS
 62
         4
100
AcDbText
 10
-11657.2958234973
 20
13155.9247162847
 30
0.0
 40
2.7
  1
25.4
  7
BOX
100
AcDbText
  0
ENDBLK
  5
E9
100
AcDbEntity
  8
0
  6
CONTINUOUS
100
AcDbBlockEnd
  0
BLOCK
  5
EE
100
AcDbEntity
  8
0
100
AcDbBlockBegin
  2
*D7
 70
        65
 10
0.0
 20
0.0
 30
0.0
  3
*D7
  1

  0
POINT
  5
F0
100
AcDbEntity
  8
DEFPOINTS
  6
CONTINUOUS
 62
         0
100
AcDbPoint
 10
-11614.2474099336
 20
13135.3301786098
 30
0.0
  0
POINT
  5
F1
100
AcDbEntity
  8
DEFPOINTS
  6
CONTINUOUS
 62
         0
100
AcDbPoint
 10
-11670.678126954
 20
13135.3301786098
 30
0.0
  0
POINT
  5
F2
100
AcDbEntity
  8
DEFPOINTS
  6
CONTINUOUS
 62
         0
100
AcDbPoint
 10
-11670.678126954
 20
13105.3301786098
 30
0.0
  0
LINE
  5
F3
100
AcDbEntity
  8
ERP____
  6
CONTINUOUS
 62
         4
100
AcDbLine
 10
-11669.328126954
 20
13135.3301786098
 30
0.0
 11
-11613.5724099336
 21
13135.3301786098
 31
0.0
  0
LINE
  5
F4
100
AcDbEntity
  8
ERP____
  6
CONTINUOUS
 62
         4
100
AcDbLine
 10
-11669.328126954
 20
13105.3301786098
 30
0.0
 11
-11613.5724099336
 21
13105.3301786098
 31
0.0
  0
LINE
  5
F5
100
AcDbEntity
  8
ERP____
  6
CONTINUOUS
 62
         4
100
AcDbLine
 10
-11614.2474099336
 20
13135.3301786098
 30
0.0
 11
-11614.2474099336
 21
13105.3301786098
 31
0.0
  0
SOLID
  5
F6
100
AcDbEntity
  8
ERP____
  6
CONTINUOUS
 62
         4
100
AcDbTrace
 10
-11614.2474099336
 20
13135.3301786098
 30
0.0
 11
-11613.8424099336
 21
13132.6301786098
 31
0.0
 12
-11614.6524099336
 22
13132.6301786098
 32
0.0
 13
-11614.2474099336
 23
13135.3301786098
 33
0.0
  0
SOLID
  5
F7
100
AcDbEntity
  8
ERP____
  6
CONTINUOUS
 62
         4
100
AcDbTrace
 10
-11614.2474099336
 20
13105.3301786098
 30
0.0
 11
-11614.6524099336
 21
13108.0301786098
 31
0.0
 12
-11613.8424099336
 22
13108.0301786098
 32
0.0
 13
-11614.2474099336
 23
13105.3301786098
 33
0.0
  0
TEXT
  5
F9
100
AcDbEntity
  8
ERP____
  6
CONTINUOUS
 62
         4
100
AcDbText
 10
-11616.2724099336
 20
13114.9301786098
 30
0.0
 40
2.7
  1
崷30
 50
90.0
  7
BOX
100
AcDbText
  0
ENDBLK
  5
FA
100
AcDbEntity
  8
0
  6
CONTINUOUS
100
AcDbBlockEnd
  0
BLOCK
  5
FC
100
AcDbEntity
  8
0
100
AcDbBlockBegin
  2
*D8
 70
        65
 10
0.0
 20
0.0
 30
0.0
  3
*D8
  1

  0
POINT
  5
FE
100
AcDbEntity
  8
DEFPOINTS
  6
CONTINUOUS
 62
         0
100
AcDbPoint
 10
-11710.678126954
 20
13180.9473534352
 30
0.0
  0
POINT
  5
FF
100
AcDbEntity
  8
DEFPOINTS
  6
CONTINUOUS
 62
         0
100
AcDbPoint
 10
-11710.678126954
 20
13142.8390970959
 30
0.0
  0
POINT
  5
100
100
AcDbEntity
  8
DEFPOINTS
  6
CONTINUOUS
 62
         0
100
AcDbPoint
 10
-11665.678126954
 20
13127.3644040188
 30
0.0
  0
LINE
  5
101
100
AcDbEntity
  8
ERP____
  6
CONTINUOUS
 62
         4
100
AcDbLine
 10
-11710.678126954
 20
13144.1890970959
 30
0.0
 11
-11710.678126954
 21
13181.6223534352
 31
0.0
  0
LINE
  5
102
100
AcDbEntity
  8
ERP____
  6
CONTINUOUS
 62
         4
100
AcDbLine
 10
-11665.678126954
 20
13128.7144040188
 30
0.0
 11
-11665.678126954
 21
13181.6223534352
 31
0.0
  0
LINE
  5
103
100
AcDbEntity
  8
ERP____
  6
CONTINUOUS
 62
         4
100
AcDbLine
 10
-11710.678126954
 20
13180.9473534352
 30
0.0
 11
-11665.678126954
 21
13180.9473534352
 31
0.0
  0
SOLID
  5
104
100
AcDbEntity
  8
ERP____
  6
CONTINUOUS
 62
         4
100
AcDbTrace
 10
-11710.678126954
 20
13180.9473534352
 30
0.0
 11
-11707.978126954
 21
13181.3523534352
 31
0.0
 12
-11707.978126954
 22
13180.5423534352
 32
0.0
 13
-11710.678126954
 23
13180.9473534352
 33
0.0
  0
SOLID
  5
105
100
AcDbEntity
  8
ERP____
  6
CONTINUOUS
 62
         4
100
AcDbTrace
 10
-11665.678126954
 20
13180.9473534352
 30
0.0
 11
-11668.378126954
 21
13180.5423534352
 31
0.0
 12
-11668.378126954
 22
13181.3523534352
 32
0.0
 13
-11665.678126954
 23
13180.9473534352
 33
0.0
  0
TEXT
  5
107
100
AcDbEntity
  8
ERP____
  6
CONTINUOUS
 62
         4
100
AcDbText
 10
-11690.9682908683
 20
13182.9723534352
 30
0.0
 40
2.7
  1
45
  7
BOX
100
AcDbText
  0
ENDBLK
  5
108
100
AcDbEntity
  8
0
  6
CONTINUOUS
100
AcDbBlockEnd
  0
ENDSEC
  0
SECTION
  2
ENTITIES
  0
INSERT
  5
60
100
AcDbEntity
  8
0
  6
CONTINUOUS
100
AcDbBlockReference
  2
*X0
 10
0.0
 20
0.0
 30
0.0
  0
ARC
  5
61
100
AcDbEntity
  8
ERP____
  6
CONTINUOUS
 62
         7
100
AcDbCircle
 10
-11680.678126954
 20
12939.4861206258
 30
0.0
 40
3.0
100
AcDbArc
 50
90.0
 51
180.0
  0
ARC
  5
62
100
AcDbEntity
  8
ERP____
  6
CONTINUOUS
 62
         7
100
AcDbCircle
 10
-11680.678126954
 20
12975.4861206258
 30
0.0
 40
3.0
100
AcDbArc
 50
180.0
 51
270.0
  0
LINE
  5
63
100
AcDbEntity
  8
ERP____
  6
CONTINUOUS
 62
         7
100
AcDbLine
 10
-11643.4007766848
 20
12958.4861206258
 30
0.0
 11
-11643.978126954
 21
12957.4861206258
 31
0.0
  0
LINE
  5
64
100
AcDbEntity
  8
ERP____
  6
CONTINUOUS
 62
         7
100
AcDbLine
 10
-11643.4007766848
 20
12956.4861206258
 30
0.0
 11
-11643.978126954
 21
12957.4861206258
 31
0.0
  0
LINE
  5
65
100
AcDbEntity
  8
ERP____
  6
CONTINUOUS
 62
         7
100
AcDbLine
 10
-11643.4007766848
 20
12958.4861206258
 30
0.0
 11
-11643.4007766848
 21
12956.4861206258
 31
0.0
  0
LINE
  5
66
100
AcDbEntity
  8
ERP____
  6
CONTINUOUS
 62
         7
100
AcDbLine
 10
-11643.4007766848
 20
12958.4861206258
 30
0.0
 11
-11642.4545153288
 21
12958.4861206258
 31
0.0
  0
LINE
  5
67
100
AcDbEntity
  8
ERP____
  6
CONTINUOUS
 62
         7
100
AcDbLine
 10
-11643.4007766848
 20
12956.4861206258
 30
0.0
 11
-11642.4545153288
 21
12956.4861206258
 31
0.0
  0
LINE
  5
68
100
AcDbEntity
  8
ERP____
  6
CONTINUOUS
 62
         7
100
AcDbLine
 10
-11642.4545153288
 20
12958.4861206258
 30
0.0
 11
-11642.4545153288
 21
12956.4861206258
 31
0.0
  0
LINE
  5
69
100
AcDbEntity
  8
ERP____
  6
CONTINUOUS
 62
         7
100
AcDbLine
 10
-11640.278126954
 20
12959.7426590399
 30
0.0
 11
-11642.4545153288
 21
12958.4861206258
 31
0.0
  0
LINE
  5
6A
100
AcDbEntity
  8
ERP____
  6
CONTINUOUS
 62
         7
100
AcDbLine
 10
-11640.278126954
 20
12955.2295822117
 30
0.0
 11
-11642.4545153288
 21
12956.4861206258
 31
0.0
  0
ARC
  5
6B
100
AcDbEntity
  8
ERP____
  6
CONTINUOUS
 62
         7
100
AcDbCircle
 10
-11670.478126954
 20
12943.4861206258
 30
0.0
 40
1.0
100
AcDbArc
 50
270.0
 51
360.0
  0
ARC
  5
6C
100
AcDbEntity
  8
ERP____
  6
CONTINUOUS
 62
         7
100
AcDbCircle
 10
-11670.478126954
 20
12971.4861206258
 30
0.0
 40
1.0
100
AcDbArc
 50
0.0
 51
90.0
  0
DIMENSION
  5
70
100
AcDbEntity
  8
ERP____
  6
CONTINUOUS
 62
         4
100
AcDbDimension
  2
*D1
 10
-11667.5299992621
 20
12966.1191672341
 30
0.0
 11
-11650.7511314698
 21
12973.2422862829
 31
0.0
 70
         2
  3
DIMSTYLE1
100
AcDb2LineAngularDimension
 13
-11665.678126954
 23
12966.0711206258
 33
0.0
 14
-11665.6369798627
 24
12966.0711206258
 34
0.0
 15
-11641.778126954
 25
12965.4510379487
 35
0.0
 16
-11652.1011314698
 26
12971.8922862829
 36
0.0
  0
LINE
  5
80
100
AcDbEntity
  8
ERP____
  6
CONTINUOUS
 62
         4
100
AcDbLine
 10
-11665.6369798627
 20
12966.0711206258
 30
0.0
 11
-11665.678126954
 21
12966.0711206258
 31
0.0
  0
DIMENSION
  5
83
100
AcDbEntity
  8
ERP____
  6
CONTINUOUS
 62
         4
100
AcDbDimension
  2
*D2
 10
-11599.5185743587
 20
12949.5601206258
 30
0.0
 11
-11601.5435743587
 21
12927.2090881346
 31
0.0
  3
DIMSTYLE1
100
AcDbAlignedDimension
 13
-11640.278126954
 23
12949.5601206258
 33
0.0
 14
-11640.278126954
 24
12965.4121206258
 34
0.0
 50
90.0
100
AcDbRotatedDimension
  0
LINE
  5
90
100
AcDbEntity
  8
ERP____
  6
CENTER
 62
         1
100
AcDbLine
 10
-11665.678126954
 20
12947.8661746541
 30
0.0
 11
-11665.678126954
 21
12967.6739035699
 31
0.0
  0
LINE
  5
91
100
AcDbEntity
  8
ERP____
  6
CONTINUOUS
 62
         7
100
AcDbLine
 10
-11667.5299992621
 20
12966.1191672341
 30
0.0
 11
-11641.778126954
 21
12965.4510379487
 31
0.0
  0
LINE
  5
92
100
AcDbEntity
  8
ERP____
  6
CONTINUOUS
 62
         7
100
AcDbLine
 10
-11641.778126954
 20
12949.521203303
 30
0.0
 11
-11667.5299992621
 21
12948.8530740175
 31
0.0
  0
ARC
  5
93
100
AcDbEntity
  8
ERP____
  6
CONTINUOUS
 62
         7
100
AcDbCircle
 10
-11667.478126954
 20
12946.8537468148
 30
0.0
 40
2.0
100
AcDbArc
 50
91.4861988203
 51
180.0
  0
ARC
  5
94
100
AcDbEntity
  8
ERP____
  6
CONTINUOUS
 62
         7
100
AcDbCircle
 10
-11667.478126954
 20
12968.1184944369
 30
0.0
 40
2.0
100
AcDbArc
 50
180.0
 51
268.5138011797
  0
LINE
  5
95
100
AcDbEntity
  8
ERP____
  6
CONTINUOUS
 62
         7
100
AcDbLine
 10
-11640.278126954
 20
12951.021203303
 30
0.0
 11
-11640.278126954
 21
12963.9510379487
 31
0.0
  0
LINE
  5
96
100
AcDbEntity
  8
ERP____
  6
CONTINUOUS
 62
         7
100
AcDbLine
 10
-11641.778126954
 20
12965.4510379487
 30
0.0
 11
-11640.278126954
 21
12963.9510379487
 31
0.0
  0
LINE
  5
97
100
AcDbEntity
  8
ERP____
  6
CONTINUOUS
 62
         7
100
AcDbLine
 10
-11641.778126954
 20
12949.521203303
 30
0.0
 11
-11640.278126954
 21
12951.021203303
 31
0.0
  0
LINE
  5
98
100
AcDbEntity
  8
ERP____
  6
CONTINUOUS
 62
         7
100
AcDbLine
 10
-11670.478126954
 20
12972.4861206258
 30
0.0
 11
-11680.678126954
 21
12972.4861206258
 31
0.0
  0
LINE
  5
99
100
AcDbEntity
  8
ERP____
  6
CONTINUOUS
 62
         7
100
AcDbLine
 10
-11670.478126954
 20
12942.4861206258
 30
0.0
 11
-11680.678126954
 21
12942.4861206258
 31
0.0
  0
LINE
  5
9A
100
AcDbEntity
  8
ERP____
  6
CONTINUOUS
 62
         7
100
AcDbLine
 10
-11669.478126954
 20
12943.4861206258
 30
0.0
 11
-11669.478126954
 21
12946.8537468148
 31
0.0
  0
LINE
  5
9B
100
AcDbEntity
  8
ERP____
  6
CONTINUOUS
 62
         7
100
AcDbLine
 10
-11669.478126954
 20
12968.1184944369
 30
0.0
 11
-11669.478126954
 21
12971.4861206258
 31
0.0
  0
CIRCLE
  5
9C
100
AcDbEntity
  8
ERP____
  6
CONTINUOUS
 62
         7
100
AcDbCircle
 10
-11479.498126954
 20
13120.6140970959
 30
0.0
 40
1.0
  0
CIRCLE
  5
9D
100
AcDbEntity
  8
ERP____
  6
CONTINUOUS
 62
         7
100
AcDbCircle
 10
-11479.498126954
 20
13120.6140970959
 30
0.0
 40
2.125
  0
CIRCLE
  5
9E
100
AcDbEntity
  8
ERP____
  6
CONTINUOUS
 62
         7
100
AcDbCircle
 10
-11479.498126954
 20
13120.6140970959
 30
0.0
 40
15.0
  0
LINE
  5
9F
100
AcDbEntity
  8
ERP____
  6
CENTER
 62
         1
100
AcDbLine
 10
-11466.4134746159
 20
13120.6140970959
 30
0.0
 11
-11491.8829231412
 21
13120.6140970959
 31
0.0
  0
LINE
  5
A0
100
AcDbEntity
  8
ERP____
  6
CENTER
 62
         1
100
AcDbLine
 10
-11479.498126954
 20
13108.3996162196
 30
0.0
 11
-11479.498126954
 21
13132.1225882745
 31
0.0
  0
CIRCLE
  5
A1
100
AcDbEntity
  8
ERP____
  6
CONTINUOUS
 62
         7
100
AcDbCircle
 10
-11479.498126954
 20
13120.6140970959
 30
0.0
 40
8.585
  0
CIRCLE
  5
A2
100
AcDbEntity
  8
ERP____
  6
CONTINUOUS
 62
         7
100
AcDbCircle
 10
-11479.498126954
 20
13120.6140970959
 30
0.0
 40
7.926
  0
ARC
  5
A3
100
AcDbEntity
  8
ERP____
  6
CONTINUOUS
 62
         7
100
AcDbCircle
 10
-11680.678126954
 20
13102.3301786098
 30
0.0
 40
3.0
100
AcDbArc
 50
90.0
 51
180.0
  0
ARC
  5
A4
100
AcDbEntity
  8
ERP____
  6
CONTINUOUS
 62
         7
100
AcDbCircle
 10
-11680.678126954
 20
13138.3301786098
 30
0.0
 40
3.0
100
AcDbArc
 50
180.0
 51
270.0
  0
DIMENSION
  5
A7
100
AcDbEntity
  8
ERP____
  6
CONTINUOUS
 62
         4
100
AcDbDimension
  2
*D3
 10
-11776.078126954
 20
13188.6806625839
 30
0.0
 11
-11714.928126954
 21
13190.7056625839
 31
0.0
  3
DIMSTYLE1
100
AcDbAlignedDimension
 13
-11776.078126954
 23
13132.4369044293
 33
0.0
 14
-11640.278126954
 24
13126.7950959326
 34
0.0
100
AcDbRotatedDimension
  0
ARC
  5
B3
100
AcDbEntity
  8
ERP____
  6
CONTINUOUS
 62
         7
100
AcDbCircle
 10
-11670.678126954
 20
13106.3301786098
 30
0.0
 40
1.0
100
AcDbArc
 50
270.0
 51
360.0
  0
ARC
  5
B4
100
AcDbEntity
  8
ERP____
  6
CONTINUOUS
 62
         7
100
AcDbCircle
 10
-11670.678126954
 20
13134.3301786098
 30
0.0
 40
1.0
100
AcDbArc
 50
0.0
 51
90.0
  0
DIMENSION
  5
B7
100
AcDbEntity
  8
ERP____
  6
CONTINUOUS
 62
         4
100
AcDbDimension
  2
*D4
 10
-11669.678126954
 20
13100.2984662927
 30
0.0
 11
-11662.1060084414
 21
13102.3234662927
 31
0.0
  3
DIMSTYLE1
100
AcDbAlignedDimension
 13
-11669.678126954
 23
13109.6978047987
 33
0.0
 14
-11665.678126954
 24
13110.5695845874
 34
0.0
100
AcDbRotatedDimension
  0
ARC
  5
C4
100
AcDbEntity
  8
ERP____
  6
CONTINUOUS
 62
         7
100
AcDbCircle
 10
-11667.678126954
 20
13109.6978047987
 30
0.0
 40
2.0
100
AcDbArc
 50
91.4861988203
 51
180.0
  0
ARC
  5
C5
100
AcDbEntity
  8
ERP____
  6
CONTINUOUS
 62
         7
100
AcDbCircle
 10
-11667.678126954
 20
13130.9625524208
 30
0.0
 40
2.0
100
AcDbArc
 50
180.0
 51
268.5138011797
  0
DIMENSION
  5
C8
100
AcDbEntity
  8
ERP____
  6
CONTINUOUS
 62
         4
100
AcDbDimension
  2
*D5
 10
-11624.578015284
 20
13128.9151786098
 30
0.0
 11
-11626.603015284
 21
13136.774189417
 31
0.0
  3
DIMSTYLE1
100
AcDbAlignedDimension
 13
-11665.678126954
 23
13128.9151786098
 33
0.0
 14
-11665.678126954
 24
13111.7451786098
 34
0.0
 50
90.0
100
AcDbRotatedDimension
  0
LINE
  5
D5
100
AcDbEntity
  8
ERP____
  6
CONTINUOUS
 62
         7
100
AcDbLine
 10
-11641.778126954
 20
13112.3652612869
 30
0.0
 11
-11640.278126954
 21
13113.8652612869
 31
0.0
  0
LINE
  5
D6
100
AcDbEntity
  8
ERP____
  6
CONTINUOUS
 62
         7
100
AcDbLine
 10
-11641.778126954
 20
13128.2950959326
 30
0.0
 11
-11640.278126954
 21
13126.7950959326
 31
0.0
  0
LINE
  5
D7
100
AcDbEntity
  8
ERP____
  6
CONTINUOUS
 62
         7
100
AcDbLine
 10
-11641.778126954
 20
13112.3652612869
 30
0.0
 11
-11641.778126954
 21
13128.2950959326
 31
0.0
  0
LINE
  5
D8
100
AcDbEntity
  8
ERP____
  6
CONTINUOUS
 62
         7
100
AcDbLine
 10
-11641.778126954
 20
13112.3652612869
 30
0.0
 11
-11667.7299992621
 21
13111.6971320014
 31
0.0
  0
LINE
  5
D9
100
AcDbEntity
  8
ERP____
  6
CONTINUOUS
 62
         7
100
AcDbLine
 10
-11667.7299992621
 20
13128.9632252181
 30
0.0
 11
-11641.778126954
 21
13128.2950959326
 31
0.0
  0
LINE
  5
DA
100
AcDbEntity
  8
ERP____
  6
CENTER
 62
         1
100
AcDbLine
 10
-11665.678126954
 20
13110.710232638
 30
0.0
 11
-11665.678126954
 21
13130.5179615538
 31
0.0
  0
LINE
  5
DB
100
AcDbEntity
  8
ERP____
  6
CONTINUOUS
 62
         7
100
AcDbLine
 10
-11640.278126954
 20
13113.8652612869
 30
0.0
 11
-11640.278126954
 21
13126.7950959326
 31
0.0
  0
DIMENSION
  5
DE
100
AcDbEntity
  8
ERP____
  6
CONTINUOUS
 62
         4
100
AcDbDimension
  2
*D6
 10
-11640.278126954
 20
13153.8997162847
 30
0.0
 11
-11657.2958234973
 21
13155.9247162847
 31
0.0
  3
DIMSTYLE1
100
AcDbAlignedDimension
 13
-11640.278126954
 23
13126.7950959326
 33
0.0
 14
-11665.678126954
 24
13128.9151786098
 34
0.0
100
AcDbRotatedDimension
  0
LINE
  5
EA
100
AcDbEntity
  8
ERP____
  6
CONTINUOUS
 62
         7
100
AcDbLine
 10
-11670.678126954
 20
13135.3301786098
 30
0.0
 11
-11680.678126954
 21
13135.3301786098
 31
0.0
  0
LINE
  5
EB
100
AcDbEntity
  8
ERP____
  6
CONTINUOUS
 62
         7
100
AcDbLine
 10
-11670.678126954
 20
13105.3301786098
 30
0.0
 11
-11680.678126954
 21
13105.3301786098
 31
0.0
  0
LINE
  5
EC
100
AcDbEntity
  8
ERP____
  6
CONTINUOUS
 62
         7
100
AcDbLine
 10
-11669.678126954
 20
13106.3301786098
 30
0.0
 11
-11669.678126954
 21
13134.3301786098
 31
0.0
  0
DIMENSION
  5
EF
100
AcDbEntity
  8
ERP____
  6
CONTINUOUS
 62
         4
100
AcDbDimension
  2
*D7
 10
-11614.2474099336
 20
13135.3301786098
 30
0.0
 11
-11616.2724099336
 21
13114.9301786098
 31
0.0
  3
DIMSTYLE1
100
AcDbAlignedDimension
 13
-11670.678126954
 23
13135.3301786098
 33
0.0
 14
-11670.678126954
 24
13105.3301786098
 34
0.0
 50
90.0
100
AcDbRotatedDimension
  0
DIMENSION
  5
FD
100
AcDbEntity
  8
ERP____
  6
CONTINUOUS
 62
         4
100
AcDbDimension
  2
*D8
 10
-11710.678126954
 20
13180.9473534352
 30
0.0
 11
-11690.9682908683
 21
13182.9723534352
 31
0.0
  3
DIMSTYLE1
100
AcDbAlignedDimension
 13
-11710.678126954
 23
13142.8390970959
 33
0.0
 14
-11665.678126954
 24
13127.3644040188
 34
0.0
100
AcDbRotatedDimension
  0
LINE
  5
109
100
AcDbEntity
  8
ERP____
  6
CONTINUOUS
 62
         7
100
AcDbLine
 10
-11683.678126954
 20
13102.3301786098
 30
0.0
 11
-11683.678126954
 21
13090.1140970959
 31
0.0
  0
LINE
  5
10A
100
AcDbEntity
  8
ERP____
  6
CONTINUOUS
 62
         7
100
AcDbLine
 10
-11735.078126954
 20
12950.4361206258
 30
0.0
 11
-11731.0078075562
 21
12957.4861206258
 31
0.0
  0
LINE
  5
10B
100
AcDbEntity
  8
ERP____
  6
CONTINUOUS
 62
         7
100
AcDbLine
 10
-11735.078126954
 20
12964.5361206258
 30
0.0
 11
-11731.0078075562
 21
12957.4861206258
 31
0.0
  0
LINE
  5
10C
100
AcDbEntity
  8
ERP____
  6
CONTINUOUS
 62
         7
100
AcDbLine
 10
-11735.078126954
 20
12964.5361206258
 30
0.0
 11
-11735.078126954
 21
12950.4361206258
 31
0.0
  0
LINE
  5
10D
100
AcDbEntity
  8
ERP____
  6
CONTINUOUS
 62
         7
100
AcDbLine
 10
-11735.078126954
 20
12950.4361206258
 30
0.0
 11
-11767.078126954
 21
12950.4361206258
 31
0.0
  0
LINE
  5
10E
100
AcDbEntity
  8
ERP____
  6
CONTINUOUS
 62
         7
100
AcDbLine
 10
-11735.078126954
 20
12964.5361206258
 30
0.0
 11
-11767.078126954
 21
12964.5361206258
 31
0.0
  0
ARC
  5
10F
100
AcDbEntity
  8
ERP____
  6
CONTINUOUS
 62
         7
100
AcDbCircle
 10
-11707.678126954
 20
13151.1140970959
 30
0.0
 40
1.0
100
AcDbArc
 50
90.0
 51
180.0
  0
ARC
  5
110
100
AcDbEntity
  8
ERP____
  6
CONTINUOUS
 62
         7
100
AcDbCircle
 10
-11684.678126954
 20
13151.1140970959
 30
0.0
 40
1.0
100
AcDbArc
 50
0.0
 51
90.0
  0
LINE
  5
111
100
AcDbEntity
  8
ERP____
  6
CONTINUOUS
 62
         7
100
AcDbLine
 10
-11685.678126954
 20
13152.1140970959
 30
0.0
 11
-11684.678126954
 21
13152.1140970959
 31
0.0
  0
LINE
  5
112
100
AcDbEntity
  8
ERP____
  6
CONTINUOUS
 62
         7
100
AcDbLine
 10
-11683.678126954
 20
13091.1140970959
 30
0.0
 11
-11683.678126954
 21
13090.1140970959
 31
0.0
  0
LINE
  5
113
100
AcDbEntity
  8
ERP____
  6
CONTINUOUS
 62
         7
100
AcDbLine
 10
-11707.678126954
 20
13152.1140970959
 30
0.0
 11
-11706.678126954
 21
13152.1140970959
 31
0.0
  0
LINE
  5
114
100
AcDbEntity
  8
ERP____
  6
CONTINUOUS
 62
         7
100
AcDbLine
 10
-11708.678126954
 20
13091.1140970959
 30
0.0
 11
-11708.678126954
 21
13090.1140970959
 31
0.0
  0
ARC
  5
115
100
AcDbEntity
  8
ERP____
  6
CONTINUOUS
 62
         7
100
AcDbCircle
 10
-11707.678126954
 20
13090.1140970959
 30
0.0
 40
1.0
100
AcDbArc
 50
180.0
 51
270.0
  0
LINE
  5
116
100
AcDbEntity
  8
ERP____
  6
CONTINUOUS
 62
         7
100
AcDbLine
 10
-11707.678126954
 20
13089.1140970959
 30
0.0
 11
-11706.678126954
 21
13089.1140970959
 31
0.0
  0
LINE
  5
117
100
AcDbEntity
  8
ERP____
  6
CONTINUOUS
 62
         7
100
AcDbLine
 10
-11685.678126954
 20
13089.1140970959
 30
0.0
 11
-11684.678126954
 21
13089.1140970959
 31
0.0
  0
ARC
  5
118
100
AcDbEntity
  8
ERP____
  6
CONTINUOUS
 62
         7
100
AcDbCircle
 10
-11684.678126954
 20
13090.1140970959
 30
0.0
 40
1.0
100
AcDbArc
 50
270.0
 51
360.0
  0
LINE
  5
119
100
AcDbEntity
  8
ERP____
  6
CONTINUOUS
 62
         7
100
AcDbLine
 10
-11683.678126954
 20
13150.1140970959
 30
0.0
 11
-11683.678126954
 21
13151.1140970959
 31
0.0
  0
LINE
  5
11A
100
AcDbEntity
  8
ERP____
  6
CONTINUOUS
 62
         7
100
AcDbLine
 10
-11708.678126954
 20
13150.1140970959
 30
0.0
 11
-11708.678126954
 21
13151.1140970959
 31
0.0
  0
LINE
  5
11B
100
AcDbEntity
  8
ERP____
  6
CONTINUOUS
 62
         7
100
AcDbLine
 10
-11708.678126954
 20
12986.9861206258
 30
0.0
 11
-11708.678126954
 21
12987.9861206258
 31
0.0
  0
LINE
  5
11C
100
AcDbEntity
  8
ERP____
  6
CONTINUOUS
 62
         7
100
AcDbLine
 10
-11683.678126954
 20
12975.4861206258
 30
0.0
 11
-11683.678126954
 21
12987.9861206258
 31
0.0
  0
ARC
  5
11D
100
AcDbEntity
  8
ERP____
  6
CONTINUOUS
 62
         7
100
AcDbCircle
 10
-11684.678126954
 20
12926.9861206258
 30
0.0
 40
1.0
100
AcDbArc
 50
270.0
 51
360.0
  0
LINE
  5
11E
100
AcDbEntity
  8
ERP____
  6
CONTINUOUS
 62
         7
100
AcDbLine
 10
-11685.678126954
 20
12925.9861206258
 30
0.0
 11
-11684.678126954
 21
12925.9861206258
 31
0.0
  0
LINE
  5
11F
100
AcDbEntity
  8
ERP____
  6
CONTINUOUS
 62
         7
100
AcDbLine
 10
-11707.678126954
 20
12925.9861206258
 30
0.0
 11
-11706.678126954
 21
12925.9861206258
 31
0.0
  0
ARC
  5
120
100
AcDbEntity
  8
ERP____
  6
CONTINUOUS
 62
         7
100
AcDbCircle
 10
-11707.678126954
 20
12926.9861206258
 30
0.0
 40
1.0
100
AcDbArc
 50
180.0
 51
270.0
  0
LINE
  5
121
100
AcDbEntity
  8
ERP____
  6
CONTINUOUS
 62
         7
100
AcDbLine
 10
-11708.678126954
 20
12927.9861206258
 30
0.0
 11
-11708.678126954
 21
12926.9861206258
 31
0.0
  0
LINE
  5
122
100
AcDbEntity
  8
ERP____
  6
CONTINUOUS
 62
         7
100
AcDbLine
 10
-11707.678126954
 20
12988.9861206258
 30
0.0
 11
-11706.678126954
 21
12988.9861206258
 31
0.0
  0
LINE
  5
123
100
AcDbEntity
  8
ERP____
  6
CONTINUOUS
 62
         7
100
AcDbLine
 10
-11683.678126954
 20
12939.4861206258
 30
0.0
 11
-11683.678126954
 21
12926.9861206258
 31
0.0
  0
LINE
  5
124
100
AcDbEntity
  8
ERP____
  6
CONTINUOUS
 62
         7
100
AcDbLine
 10
-11685.678126954
 20
12988.9861206258
 30
0.0
 11
-11684.678126954
 21
12988.9861206258
 31
0.0
  0
ARC
  5
125
100
AcDbEntity
  8
ERP____
  6
CONTINUOUS
 62
         7
100
AcDbCircle
 10
-11684.678126954
 20
12987.9861206258
 30
0.0
 40
1.0
100
AcDbArc
 50
0.0
 51
90.0
  0
ARC
  5
126
100
AcDbEntity
  8
ERP____
  6
CONTINUOUS
 62
         7
100
AcDbCircle
 10
-11707.678126954
 20
12987.9861206258
 30
0.0
 40
1.0
100
AcDbArc
 50
90.0
 51
180.0
  0
LINE
  5
127
100
AcDbEntity
  8
ERP____
  6
CONTINUOUS
 62
         7
100
AcDbLine
 10
-11696.578126954
 20
13094.1140970959
 30
0.0
 11
-11691.578126954
 21
13094.1140970959
 31
0.0
  0
LINE
  5
128
100
AcDbEntity
  8
ERP____
  6
CONTINUOUS
 62
         7
100
AcDbLine
 10
-11696.578126954
 20
13147.1140970959
 30
0.0
 11
-11691.578126954
 21
13147.1140970959
 31
0.0
  0
LINE
  5
129
100
AcDbEntity
  8
ERP____
  6
CENTER
 62
         1
100
AcDbLine
 10
-11722.2395762662
 20
13120.6140970959
 30
0.0
 11
-11641.453126954
 21
13120.6140970959
 31
0.0
  0
LINE
  5
12A
100
AcDbEntity
  8
ERP____
  6
CENTER
 62
         1
100
AcDbLine
 10
-11781.078126954
 20
13120.6140970959
 30
0.0
 11
-11735.0150027854
 21
13120.6140970959
 31
0.0
  0
LINE
  5
12B
100
AcDbEntity
  8
ERP____
  6
CONTINUOUS
 62
         7
100
AcDbLine
 10
-11696.578126954
 20
13147.7837241148
 30
0.0
 11
-11699.0782689603
 21
13152.1140970959
 31
0.0
  0
LINE
  5
12C
100
AcDbEntity
  8
ERP____
  6
CONTINUOUS
 62
         7
100
AcDbLine
 10
-11691.578126954
 20
13147.7837241148
 30
0.0
 11
-11689.0779849476
 21
13152.1140970959
 31
0.0
  0
LINE
  5
12D
100
AcDbEntity
  8
ERP____
  6
CONTINUOUS
 62
         7
100
AcDbLine
 10
-11689.0779849476
 20
13152.1140970959
 30
0.0
 11
-11684.678126954
 21
13152.1140970959
 31
0.0
  0
LINE
  5
12E
100
AcDbEntity
  8
ERP____
  6
CONTINUOUS
 62
         7
100
AcDbLine
 10
-11707.678126954
 20
13152.1140970959
 30
0.0
 11
-11699.0782689603
 21
13152.1140970959
 31
0.0
  0
LINE
  5
12F
100
AcDbEntity
  8
ERP____
  6
CONTINUOUS
 62
         7
100
AcDbLine
 10
-11689.0779849476
 20
13089.1140970959
 30
0.0
 11
-11684.678126954
 21
13089.1140970959
 31
0.0
  0
LINE
  5
130
100
AcDbEntity
  8
ERP____
  6
CONTINUOUS
 62
         7
100
AcDbLine
 10
-11696.578126954
 20
13093.444470077
 30
0.0
 11
-11699.0782689603
 21
13089.1140970959
 31
0.0
  0
LINE
  5
131
100
AcDbEntity
  8
ERP____
  6
CONTINUOUS
 62
         7
100
AcDbLine
 10
-11691.578126954
 20
13093.444470077
 30
0.0
 11
-11689.0779849476
 21
13089.1140970959
 31
0.0
  0
LINE
  5
132
100
AcDbEntity
  8
ERP____
  6
CONTINUOUS
 62
         7
100
AcDbLine
 10
-11710.178126954
 20
13142.9120133618
 30
0.0
 11
-11709.4317167924
 21
13142.7120133618
 31
0.0
  0
LINE
  5
133
100
AcDbEntity
  8
ERP____
  6
CONTINUOUS
 62
         7
100
AcDbLine
 10
-11709.4317167924
 20
13142.7120133618
 30
0.0
 11
-11709.078126954
 21
13142.7120133618
 31
0.0
  0
ARC
  5
134
100
AcDbEntity
  8
ERP____
  6
CONTINUOUS
 62
         7
100
AcDbCircle
 10
-11709.078126954
 20
13143.1120133618
 30
0.0
 40
0.4
100
AcDbArc
 50
270.0
 51
360.0
  0
LINE
  5
135
100
AcDbEntity
  8
ERP____
  6
CONTINUOUS
 62
         7
100
AcDbLine
 10
-11710.178126954
 20
13098.31618083
 30
0.0
 11
-11709.4317167924
 21
13098.51618083
 31
0.0
  0
ARC
  5
136
100
AcDbEntity
  8
ERP____
  6
CONTINUOUS
 62
         7
100
AcDbCircle
 10
-11709.078126954
 20
13098.11618083
 30
0.0
 40
0.4
100
AcDbArc
 50
0.0
 51
90.0
  0
LINE
  5
137
100
AcDbEntity
  8
ERP____
  6
CONTINUOUS
 62
         7
100
AcDbLine
 10
-11709.4317167924
 20
13098.51618083
 30
0.0
 11
-11709.078126954
 21
13098.51618083
 31
0.0
  0
LINE
  5
138
100
AcDbEntity
  8
ERP____
  6
CONTINUOUS
 62
         7
100
AcDbLine
 10
-11710.178126954
 20
13142.9120133618
 30
0.0
 11
-11710.178126954
 21
13098.31618083
 31
0.0
  0
LINE
  5
139
100
AcDbEntity
  8
ERP____
  6
CENTER
 62
         1
100
AcDbLine
 10
-11710.678126954
 20
13142.8390970959
 30
0.0
 11
-11710.678126954
 21
13098.3890970959
 31
0.0
  0
LINE
  5
13A
100
AcDbEntity
  8
ERP____
  6
CONTINUOUS
 62
         7
100
AcDbLine
 10
-11707.678126954
 20
13089.1140970959
 30
0.0
 11
-11699.0782689603
 21
13089.1140970959
 31
0.0
  0
LINE
  5
13B
100
AcDbEntity
  8
ERP____
  6
CONTINUOUS
 62
         7
100
AcDbLine
 10
-11776.078126954
 20
13132.4369044293
 30
0.0
 11
-11776.078126954
 21
13108.7912897625
 31
0.0
  0
ARC
  5
13C
100
AcDbEntity
  8
ERP____
  6
CONTINUOUS
 62
         7
100
AcDbCircle
 10
-11775.078126954
 20
13108.7912897625
 30
0.0
 40
1.0
100
AcDbArc
 50
180.0
 51
261.7029
  0
ARC
  5
13D
100
AcDbEntity
  8
ERP____
  6
CONTINUOUS
 62
         7
100
AcDbCircle
 10
-11775.078126954
 20
13132.4369044293
 30
0.0
 40
1.0
100
AcDbArc
 50
98.2971
 51
180.0
  0
LINE
  5
13E
100
AcDbEntity
  8
ERP____
  6
CONTINUOUS
 62
         7
100
AcDbLine
 10
-11775.2224330704
 20
13107.8017566682
 30
0.0
 11
-11710.178126954
 21
13098.31618083
 31
0.0
  0
LINE
  5
13F
100
AcDbEntity
  8
ERP____
  6
CONTINUOUS
 62
         7
100
AcDbLine
 10
-11775.2224330704
 20
13133.4264375236
 30
0.0
 11
-11710.178126954
 21
13142.9120133618
 31
0.0
  0
LINE
  5
140
100
AcDbEntity
  8
ERP____
  6
CONTINUOUS
 62
         7
100
AcDbLine
 10
-11708.678126954
 20
13151.1140970959
 30
0.0
 11
-11708.678126954
 21
13090.1140970959
 31
0.0
  0
LINE
  5
141
100
AcDbEntity
  8
ERP____
  6
CONTINUOUS
 62
         7
100
AcDbLine
 10
-11683.678126954
 20
13151.1140970959
 30
0.0
 11
-11683.678126954
 21
13102.3301786098
 31
0.0
  0
LINE
  5
142
100
AcDbEntity
  8
ERP____
  6
CENTER
 62
         1
100
AcDbLine
 10
-11694.078126954
 20
13152.1140970959
 30
0.0
 11
-11694.078126954
 21
13089.1140970959
 31
0.0
  0
LINE
  5
143
100
AcDbEntity
  8
ERP____
  6
CENTER
 62
         1
100
AcDbLine
 10
-11781.078126954
 20
12957.4861206258
 30
0.0
 11
-11638.453126954
 21
12957.4861206258
 31
0.0
  0
LINE
  5
144
100
AcDbEntity
  8
ERP____
  6
CONTINUOUS
 62
         5
100
AcDbLine
 10
-11767.078126954
 20
12965.4861206258
 30
0.0
 11
-11745.078126954
 21
12965.4861206258
 31
0.0
  0
LINE
  5
145
100
AcDbEntity
  8
ERP____
  6
CONTINUOUS
 62
         5
100
AcDbLine
 10
-11767.078126954
 20
12949.4861206258
 30
0.0
 11
-11745.078126954
 21
12949.4861206258
 31
0.0
  0
ARC
  5
146
100
AcDbEntity
  8
ERP____
  6
CONTINUOUS
 62
         7
100
AcDbCircle
 10
-11774.578126954
 20
12947.4861206258
 30
0.0
 40
1.5
100
AcDbArc
 50
90.0
 51
180.0
  0
ARC
  5
147
100
AcDbEntity
  8
ERP____
  6
CONTINUOUS
 62
         7
100
AcDbCircle
 10
-11768.2527252939
 20
12949.3861206258
 30
0.0
 40
0.6
100
AcDbArc
 50
255.0
 51
270.0
  0
LINE
  5
148
100
AcDbEntity
  8
ERP____
  6
CONTINUOUS
 62
         7
100
AcDbLine
 10
-11769.078126954
 20
12948.9861206258
 30
0.0
 11
-11768.4080167209
 21
12948.8065651301
 31
0.0
  0
LINE
  5
149
100
AcDbEntity
  8
ERP____
  6
CONTINUOUS
 62
         7
100
AcDbLine
 10
-11774.578126954
 20
12948.9861206258
 30
0.0
 11
-11769.078126954
 21
12948.9861206258
 31
0.0
  0
LINE
  5
14A
100
AcDbEntity
  8
ERP____
  6
CONTINUOUS
 62
         7
100
AcDbLine
 10
-11768.2527252939
 20
12948.7861206258
 30
0.0
 11
-11767.678126954
 21
12948.7861206258
 31
0.0
  0
ARC
  5
14B
100
AcDbEntity
  8
ERP____
  6
CONTINUOUS
 62
         7
100
AcDbCircle
 10
-11767.678126954
 20
12949.3861206258
 30
0.0
 40
0.6
100
AcDbArc
 50
270.0
 51
360.0
  0
LINE
  5
14C
100
AcDbEntity
  8
ERP____
  6
CONTINUOUS
 62
         7
100
AcDbLine
 10
-11769.078126954
 20
12965.9861206258
 30
0.0
 11
-11769.078126954
 21
12948.9861206258
 31
0.0
  0
ARC
  5
14D
100
AcDbEntity
  8
ERP____
  6
CONTINUOUS
 62
         7
100
AcDbCircle
 10
-11774.578126954
 20
12967.4861206258
 30
0.0
 40
1.5
100
AcDbArc
 50
180.0
 51
270.0
  0
LINE
  5
14E
100
AcDbEntity
  8
ERP____
  6
CONTINUOUS
 62
         7
100
AcDbLine
 10
-11774.578126954
 20
12965.9861206258
 30
0.0
 11
-11769.078126954
 21
12965.9861206258
 31
0.0
  0
LINE
  5
14F
100
AcDbEntity
  8
ERP____
  6
CONTINUOUS
 62
         7
100
AcDbLine
 10
-11769.078126954
 20
12965.9861206258
 30
0.0
 11
-11768.4080167209
 21
12966.1656761216
 31
0.0
  0
ARC
  5
150
100
AcDbEntity
  8
ERP____
  6
CONTINUOUS
 62
         7
100
AcDbCircle
 10
-11768.2527252939
 20
12965.5861206258
 30
0.0
 40
0.6
100
AcDbArc
 50
90.0
 51
105.0
  0
LINE
  5
151
100
AcDbEntity
  8
ERP____
  6
CONTINUOUS
 62
         7
100
AcDbLine
 10
-11768.2527252939
 20
12966.1861206258
 30
0.0
 11
-11767.678126954
 21
12966.1861206258
 31
0.0
  0
ARC
  5
152
100
AcDbEntity
  8
ERP____
  6
CONTINUOUS
 62
         7
100
AcDbCircle
 10
-11767.678126954
 20
12965.5861206258
 30
0.0
 40
0.6
100
AcDbArc
 50
0.0
 51
90.0
  0
LINE
  5
153
100
AcDbEntity
  8
ERP____
  6
CONTINUOUS
 62
         7
100
AcDbLine
 10
-11767.078126954
 20
12965.5861206258
 30
0.0
 11
-11767.078126954
 21
12949.3861206258
 31
0.0
  0
LINE
  5
154
100
AcDbEntity
  8
ERP____
  6
CONTINUOUS
 62
         7
100
AcDbLine
 10
-11767.078126954
 20
12950.4361206258
 30
0.0
 11
-11745.078126954
 21
12950.4361206258
 31
0.0
  0
LINE
  5
155
100
AcDbEntity
  8
ERP____
  6
CONTINUOUS
 62
         7
100
AcDbLine
 10
-11767.078126954
 20
12964.5361206258
 30
0.0
 11
-11745.078126954
 21
12964.5361206258
 31
0.0
  0
LINE
  5
156
100
AcDbEntity
  8
ERP____
  6
CONTINUOUS
 62
         7
100
AcDbLine
 10
-11689.0779849476
 20
12925.9861206258
 30
0.0
 11
-11684.678126954
 21
12925.9861206258
 31
0.0
  0
LINE
  5
157
100
AcDbEntity
  8
ERP____
  6
CONTINUOUS
 62
         7
100
AcDbLine
 10
-11691.578126954
 20
12930.3164936069
 30
0.0
 11
-11689.0779849476
 21
12925.9861206258
 31
0.0
  0
LINE
  5
158
100
AcDbEntity
  8
ERP____
  6
CONTINUOUS
 62
         7
100
AcDbLine
 10
-11691.578126954
 20
12930.9861206258
 30
0.0
 11
-11691.578126954
 21
12930.3164936069
 31
0.0
  0
LINE
  5
159
100
AcDbEntity
  8
ERP____
  6
CONTINUOUS
 62
         7
100
AcDbLine
 10
-11696.578126954
 20
12930.9861206258
 30
0.0
 11
-11691.578126954
 21
12930.9861206258
 31
0.0
  0
LINE
  5
15A
100
AcDbEntity
  8
ERP____
  6
CONTINUOUS
 62
         7
100
AcDbLine
 10
-11696.578126954
 20
12930.9861206258
 30
0.0
 11
-11696.578126954
 21
12930.3164936069
 31
0.0
  0
LINE
  5
15B
100
AcDbEntity
  8
ERP____
  6
CONTINUOUS
 62
         7
100
AcDbLine
 10
-11696.578126954
 20
12930.3164936069
 30
0.0
 11
-11699.0782689603
 21
12925.9861206258
 31
0.0
  0
LINE
  5
15C
100
AcDbEntity
  8
ERP____
  6
CONTINUOUS
 62
         7
100
AcDbLine
 10
-11707.678126954
 20
12925.9861206258
 30
0.0
 11
-11699.0782689603
 21
12925.9861206258
 31
0.0
  0
LINE
  5
15D
100
AcDbEntity
  8
ERP____
  6
CONTINUOUS
 62
         7
100
AcDbLine
 10
-11708.678126954
 20
12934.98820436
 30
0.0
 11
-11708.678126954
 21
12926.9861206258
 31
0.0
  0
ARC
  5
15E
100
AcDbEntity
  8
ERP____
  6
CONTINUOUS
 62
         7
100
AcDbCircle
 10
-11709.078126954
 20
12934.98820436
 30
0.0
 40
0.4
100
AcDbArc
 50
0.0
 51
90.0
  0
LINE
  5
15F
100
AcDbEntity
  8
ERP____
  6
CONTINUOUS
 62
         7
100
AcDbLine
 10
-11709.4317167924
 20
12935.38820436
 30
0.0
 11
-11709.078126954
 21
12935.38820436
 31
0.0
  0
LINE
  5
160
100
AcDbEntity
  8
ERP____
  6
CONTINUOUS
 62
         7
100
AcDbLine
 10
-11710.178126954
 20
12935.18820436
 30
0.0
 11
-11709.4317167924
 21
12935.38820436
 31
0.0
  0
LINE
  5
161
100
AcDbEntity
  8
ERP____
  6
CONTINUOUS
 62
         7
100
AcDbLine
 10
-11775.2224330704
 20
12944.6737801981
 30
0.0
 11
-11710.178126954
 21
12935.18820436
 31
0.0
  0
ARC
  5
162
100
AcDbEntity
  8
ERP____
  6
CONTINUOUS
 62
         7
100
AcDbCircle
 10
-11775.078126954
 20
12945.6633132924
 30
0.0
 40
1.0
100
AcDbArc
 50
180.0
 51
261.7029
  0
LINE
  5
163
100
AcDbEntity
  8
ERP____
  6
CONTINUOUS
 62
         7
100
AcDbLine
 10
-11776.078126954
 20
12969.3089279592
 30
0.0
 11
-11776.078126954
 21
12945.6633132924
 31
0.0
  0
ARC
  5
164
100
AcDbEntity
  8
ERP____
  6
CONTINUOUS
 62
         7
100
AcDbCircle
 10
-11775.078126954
 20
12969.3089279592
 30
0.0
 40
1.0
100
AcDbArc
 50
98.2971
 51
180.0
  0
LINE
  5
165
100
AcDbEntity
  8
ERP____
  6
CONTINUOUS
 62
         7
100
AcDbLine
 10
-11775.2224330704
 20
12970.2984610536
 30
0.0
 11
-11710.178126954
 21
12979.7840368917
 31
0.0
  0
LINE
  5
166
100
AcDbEntity
  8
ERP____
  6
CONTINUOUS
 62
         7
100
AcDbLine
 10
-11710.178126954
 20
12979.7840368917
 30
0.0
 11
-11709.4317167924
 21
12979.5840368917
 31
0.0
  0
LINE
  5
167
100
AcDbEntity
  8
ERP____
  6
CONTINUOUS
 62
         7
100
AcDbLine
 10
-11709.4317167924
 20
12979.5840368917
 30
0.0
 11
-11709.078126954
 21
12979.5840368917
 31
0.0
  0
ARC
  5
168
100
AcDbEntity
  8
ERP____
  6
CONTINUOUS
 62
         7
100
AcDbCircle
 10
-11709.078126954
 20
12979.9840368917
 30
0.0
 40
0.4
100
AcDbArc
 50
270.0
 51
360.0
  0
LINE
  5
169
100
AcDbEntity
  8
ERP____
  6
CONTINUOUS
 62
         7
100
AcDbLine
 10
-11708.678126954
 20
12987.9861206258
 30
0.0
 11
-11708.678126954
 21
12979.9840368917
 31
0.0
  0
LINE
  5
16A
100
AcDbEntity
  8
ERP____
  6
CONTINUOUS
 62
         7
100
AcDbLine
 10
-11707.678126954
 20
12988.9861206258
 30
0.0
 11
-11699.0782689603
 21
12988.9861206258
 31
0.0
  0
LINE
  5
16B
100
AcDbEntity
  8
ERP____
  6
CONTINUOUS
 62
         7
100
AcDbLine
 10
-11696.578126954
 20
12984.6557476448
 30
0.0
 11
-11699.0782689603
 21
12988.9861206258
 31
0.0
  0
LINE
  5
16C
100
AcDbEntity
  8
ERP____
  6
CONTINUOUS
 62
         7
100
AcDbLine
 10
-11696.578126954
 20
12984.6557476448
 30
0.0
 11
-11696.578126954
 21
12983.9861206258
 31
0.0
  0
LINE
  5
16D
100
AcDbEntity
  8
ERP____
  6
CONTINUOUS
 62
         7
100
AcDbLine
 10
-11696.578126954
 20
12983.9861206258
 30
0.0
 11
-11691.578126954
 21
12983.9861206258
 31
0.0
  0
LINE
  5
16E
100
AcDbEntity
  8
ERP____
  6
CONTINUOUS
 62
         7
100
AcDbLine
 10
-11691.578126954
 20
12984.6557476448
 30
0.0
 11
-11691.578126954
 21
12983.9861206258
 31
0.0
  0
LINE
  5
16F
100
AcDbEntity
  8
ERP____
  6
CONTINUOUS
 62
         7
100
AcDbLine
 10
-11691.578126954
 20
12984.6557476448
 30
0.0
 11
-11689.0779849476
 21
12988.9861206258
 31
0.0
  0
LINE
  5
170
100
AcDbEntity
  8
ERP____
  6
CONTINUOUS
 62
         7
100
AcDbLine
 10
-11689.0779849476
 20
12988.9861206258
 30
0.0
 11
-11684.678126954
 21
12988.9861206258
 31
0.0
  0
LINE
  5
171
100
AcDbEntity
  8
ERP____
  6
CONTINUOUS
 62
         7
100
AcDbLine
 10
-11745.078126954
 20
12965.4861206258
 30
0.0
 11
-11745.078126954
 21
12949.4861206258
 31
0.0
  0
LINE
  5
172
100
AcDbEntity
  8
ERP____
  6
CENTER
 62
         1
100
AcDbLine
 10
-11479.498126954
 20
13155.1140970959
 30
0.0
 11
-11479.498126954
 21
13082.1069640003
 31
0.0
  0
CIRCLE
  5
173
100
AcDbEntity
  8
ERP____
  6
CONTINUOUS
 62
         7
100
AcDbCircle
 10
-11479.498126954
 20
13120.6140970959
 30
0.0
 40
31.5
  0
LINE
  5
174
100
AcDbEntity
  8
ERP____
  6
CENTER
 62
         1
100
AcDbLine
 10
-11513.998126954
 20
13120.6140970959
 30
0.0
 11
-11444.998126954
 21
13120.6140970959
 31
0.0
  0
ARC
  5
175
100
AcDbEntity
  8
ERP____
  6
CONTINUOUS
 62
         4
100
AcDbCircle
 10
-11887.858126954
 20
13120.6140970959
 30
0.0
 40
8.0
100
AcDbArc
 50
265.563559301
 51
540.0
  0
CIRCLE
  5
176
100
AcDbEntity
  8
ERP____
  6
CONTINUOUS
 62
         7
100
AcDbCircle
 10
-11887.858126954
 20
13120.6140970959
 30
0.0
 40
8.5
  0
CIRCLE
  5
177
100
AcDbEntity
  8
ERP____
  6
CONTINUOUS
 62
         7
100
AcDbCircle
 10
-11887.858126954
 20
13120.6140970959
 30
0.0
 40
7.0
  0
CIRCLE
  5
178
100
AcDbEntity
  8
ERP____
  6
CONTINUOUS
 62
         7
100
AcDbCircle
 10
-11887.858126954
 20
13120.6140970959
 30
0.0
 40
22.2979162659
  0
CIRCLE
  5
179
100
AcDbEntity
  8
ERP____
  6
CONTINUOUS
 62
         7
100
AcDbCircle
 10
-11887.858126954
 20
13120.6140970959
 30
0.0
 40
12.6875524223
  0
LINE
  5
17A
100
AcDbEntity
  8
ERP____
  6
CENTER
 62
         1
100
AcDbLine
 10
-11887.858126954
 20
13157.1140970959
 30
0.0
 11
-11887.858126954
 21
13084.1140970959
 31
0.0
  0
CIRCLE
  5
17B
100
AcDbEntity
  8
ERP____
  6
CONTINUOUS
 62
         7
100
AcDbCircle
 10
-11887.858126954
 20
13120.6140970959
 30
0.0
 40
31.5
  0
LINE
  5
17C
100
AcDbEntity
  8
ERP____
  6
CENTER
 62
         1
100
AcDbLine
 10
-11924.358126954
 20
13120.6140970959
 30
0.0
 11
-11851.358126954
 21
13120.6140970959
 31
0.0
  0
LINE
  5
17D
100
AcDbEntity
  8
ERP____
  6
CONTINUOUS
 62
         7
100
AcDbLine
 10
-11910.458126954
 20
13113.3640970959
 30
0.0
 11
-11911.258126954
 21
13112.5640970959
 31
0.0
  0
LINE
  5
17E
100
AcDbEntity
  8
ERP____
  6
CONTINUOUS
 62
         7
100
AcDbLine
 10
-11911.258126954
 20
13128.6640970959
 30
0.0
 11
-11910.458126954
 21
13127.8640970959
 31
0.0
  0
LINE
  5
17F
100
AcDbEntity
  8
ERP____
  6
CONTINUOUS
 62
         7
100
AcDbLine
 10
-11917.8121496767
 20
13112.5640970959
 30
0.0
 11
-11918.2054585535
 21
13112.1707882192
 31
0.0
  0
LINE
  5
180
100
AcDbEntity
  8
ERP____
  6
CONTINUOUS
 62
         7
100
AcDbLine
 10
-11917.8121496767
 20
13128.6640970959
 30
0.0
 11
-11918.2054585535
 21
13129.0574059726
 31
0.0
  0
LINE
  5
181
100
AcDbEntity
  8
ERP____
  6
CONTINUOUS
 62
         7
100
AcDbLine
 10
-11910.458126954
 20
13127.8640970959
 30
0.0
 11
-11910.458126954
 21
13113.3640970959
 31
0.0
  0
LINE
  5
182
100
AcDbEntity
  8
ERP____
  6
CONTINUOUS
 62
         7
100
AcDbLine
 10
-11917.8121496767
 20
13128.6640970959
 30
0.0
 11
-11911.258126954
 21
13128.6640970959
 31
0.0
  0
LINE
  5
183
100
AcDbEntity
  8
ERP____
  6
CONTINUOUS
 62
         7
100
AcDbLine
 10
-11917.8121496767
 20
13112.5640970959
 30
0.0
 11
-11911.258126954
 21
13112.5640970959
 31
0.0
  0
LINE
  5
184
100
AcDbEntity
  8
ERP____
  6
CONTINUOUS
 62
         7
100
AcDbLine
 10
-11865.258126954
 20
13127.8640970959
 30
0.0
 11
-11864.458126954
 21
13128.6640970959
 31
0.0
  0
LINE
  5
185
100
AcDbEntity
  8
ERP____
  6
CONTINUOUS
 62
         7
100
AcDbLine
 10
-11865.258126954
 20
13113.3640970959
 30
0.0
 11
-11864.458126954
 21
13112.5640970959
 31
0.0
  0
LINE
  5
186
100
AcDbEntity
  8
ERP____
  6
CONTINUOUS
 62
         7
100
AcDbLine
 10
-11857.9041042312
 20
13112.5640970959
 30
0.0
 11
-11857.5107953544
 21
13112.1707882192
 31
0.0
  0
LINE
  5
187
100
AcDbEntity
  8
ERP____
  6
CONTINUOUS
 62
         7
100
AcDbLine
 10
-11857.9041042312
 20
13128.6640970959
 30
0.0
 11
-11857.5107953544
 21
13129.0574059726
 31
0.0
  0
LINE
  5
188
100
AcDbEntity
  8
ERP____
  6
CONTINUOUS
 62
         7
100
AcDbLine
 10
-11857.9041042312
 20
13112.5640970959
 30
0.0
 11
-11864.458126954
 21
13112.5640970959
 31
0.0
  0
LINE
  5
189
100
AcDbEntity
  8
ERP____
  6
CONTINUOUS
 62
         7
100
AcDbLine
 10
-11857.9041042312
 20
13128.6640970959
 30
0.0
 11
-11864.458126954
 21
13128.6640970959
 31
0.0
  0
LINE
  5
18A
100
AcDbEntity
  8
ERP____
  6
CONTINUOUS
 62
         7
100
AcDbLine
 10
-11865.258126954
 20
13127.8640970959
 30
0.0
 11
-11865.258126954
 21
13113.3640970959
 31
0.0
  0
ARC
  5
18B
100
AcDbEntity
  8
ERP____
  6
DASHED
 62
         2
100
AcDbCircle
 10
-11887.858126954
 20
13120.6140970959
 30
0.0
 40
26.5
100
AcDbArc
 50
17.6843950498
 51
162.3156049502
  0
ARC
  5
18C
100
AcDbEntity
  8
ERP____
  6
DASHED
 62
         2
100
AcDbCircle
 10
-11887.858126954
 20
13120.6140970959
 30
0.0
 40
26.5
100
AcDbArc
 50
197.6843950498
 51
342.3156049502
  0
LINE
  5
18D
100
AcDbEntity
  8
ERP____
  6
CONTINUOUS
 62
         4
100
AcDbLine
 10
-11708.678126954
 20
13129.1640970959
 30
0.0
 11
-11699.078126954
 21
13129.1640970959
 31
0.0
  0
LINE
  5
18E
100
AcDbEntity
  8
ERP____
  6
CONTINUOUS
 62
         7
100
AcDbLine
 10
-11699.078126954
 20
13152.1140970959
 30
0.0
 11
-11699.078126954
 21
13129.1640970959
 31
0.0
  0
LINE
  5
18F
100
AcDbEntity
  8
ERP____
  6
CONTINUOUS
 62
         7
100
AcDbLine
 10
-11696.578126954
 20
13147.7837241148
 30
0.0
 11
-11696.578126954
 21
13128.6640970959
 31
0.0
  0
LINE
  5
190
100
AcDbEntity
  8
ERP____
  6
CONTINUOUS
 62
         7
100
AcDbLine
 10
-11691.578126954
 20
13147.7837241148
 30
0.0
 11
-11691.578126954
 21
13128.0222007669
 31
0.0
  0
LINE
  5
191
100
AcDbEntity
  8
ERP____
  6
CONTINUOUS
 62
         7
100
AcDbLine
 10
-11689.078126954
 20
13152.1140970959
 30
0.0
 11
-11689.078126954
 21
13127.0312615788
 31
0.0
  0
LINE
  5
192
100
AcDbEntity
  8
ERP____
  6
CONTINUOUS
 62
         4
100
AcDbLine
 10
-11699.078126954
 20
13129.1640970959
 30
0.0
 11
-11696.578126954
 21
13128.6640970959
 31
0.0
  0
LINE
  5
193
100
AcDbEntity
  8
ERP____
  6
CONTINUOUS
 62
         4
100
AcDbLine
 10
-11699.078126954
 20
13112.0640970959
 30
0.0
 11
-11696.578126954
 21
13112.5640970959
 31
0.0
  0
LINE
  5
194
100
AcDbEntity
  8
ERP____
  6
CONTINUOUS
 62
         4
100
AcDbLine
 10
-11691.578126954
 20
13113.2059934249
 30
0.0
 11
-11689.078126954
 21
13114.196932613
 31
0.0
  0
LINE
  5
195
100
AcDbEntity
  8
ERP____
  6
CONTINUOUS
 62
         4
100
AcDbLine
 10
-11691.578126954
 20
13128.0222007669
 30
0.0
 11
-11689.078126954
 21
13127.0312615788
 31
0.0
  0
ARC
  5
196
100
AcDbEntity
  8
ERP____
  6
CONTINUOUS
 62
         4
100
AcDbCircle
 10
-11694.728126954
 20
13120.6140970959
 30
0.0
 40
8.55
100
AcDbArc
 50
311.3623424579
 51
408.6376575421
  0
ARC
  5
197
100
AcDbEntity
  8
ERP____
  6
CONTINUOUS
 62
         7
100
AcDbCircle
 10
-11694.728126954
 20
13120.6140970959
 30
0.0
 40
8.05
100
AcDbArc
 50
270.0
 51
450.0
  0
LINE
  5
198
100
AcDbEntity
  8
ERP____
  6
CONTINUOUS
 62
         7
100
AcDbLine
 10
-11708.678126954
 20
13128.6640970959
 30
0.0
 11
-11694.728126954
 21
13128.6640970959
 31
0.0
  0
LINE
  5
199
100
AcDbEntity
  8
ERP____
  6
CONTINUOUS
 62
         7
100
AcDbLine
 10
-11708.678126954
 20
13112.5640970959
 30
0.0
 11
-11694.728126954
 21
13112.5640970959
 31
0.0
  0
LINE
  5
19A
100
AcDbEntity
  8
ERP____
  6
CONTINUOUS
 62
         4
100
AcDbLine
 10
-11708.678126954
 20
13112.0640970959
 30
0.0
 11
-11699.078126954
 21
13112.0640970959
 31
0.0
  0
LINE
  5
19B
100
AcDbEntity
  8
ERP____
  6
CONTINUOUS
 62
         7
100
AcDbLine
 10
-11699.078126954
 20
13112.0640970959
 30
0.0
 11
-11699.078126954
 21
13089.1140970959
 31
0.0
  0
LINE
  5
19C
100
AcDbEntity
  8
ERP____
  6
CONTINUOUS
 62
         7
100
AcDbLine
 10
-11696.578126954
 20
13112.5640970959
 30
0.0
 11
-11696.578126954
 21
13093.444470077
 31
0.0
  0
LINE
  5
19D
100
AcDbEntity
  8
ERP____
  6
CONTINUOUS
 62
         7
100
AcDbLine
 10
-11691.578126954
 20
13113.2059934249
 30
0.0
 11
-11691.578126954
 21
13093.444470077
 31
0.0
  0
LINE
  5
19E
100
AcDbEntity
  8
ERP____
  6
CONTINUOUS
 62
         7
100
AcDbLine
 10
-11689.078126954
 20
13114.196932613
 30
0.0
 11
-11689.078126954
 21
13089.1140970959
 31
0.0
  0
ARC
  5
19F
100
AcDbEntity
  8
ERP____
  6
DASHED
 62
         2
100
AcDbCircle
 10
-11479.498126954
 20
13120.6140970959
 30
0.0
 40
26.5
100
AcDbArc
 50
17.6843950498
 51
162.3156049502
  0
ARC
  5
1A0
100
AcDbEntity
  8
ERP____
  6
DASHED
 62
         2
100
AcDbCircle
 10
-11479.498126954
 20
13120.6140970959
 30
0.0
 40
26.5
100
AcDbArc
 50
197.6843950498
 51
342.3156049502
  0
LINE
  5
1A1
100
AcDbEntity
  8
ERP____
  6
DASHED
 62
         2
100
AcDbLine
 10
-11456.898126954
 20
13113.3640970959
 30
0.0
 11
-11456.098126954
 21
13112.5640970959
 31
0.0
  0
LINE
  5
1A2
100
AcDbEntity
  8
ERP____
  6
DASHED
 62
         2
100
AcDbLine
 10
-11456.098126954
 20
13128.6640970959
 30
0.0
 11
-11456.898126954
 21
13127.8640970959
 31
0.0
  0
LINE
  5
1A3
100
AcDbEntity
  8
ERP____
  6
DASHED
 62
         2
100
AcDbLine
 10
-11449.5441042312
 20
13112.5640970959
 30
0.0
 11
-11449.1507953544
 21
13112.1707882192
 31
0.0
  0
LINE
  5
1A4
100
AcDbEntity
  8
ERP____
  6
DASHED
 62
         2
100
AcDbLine
 10
-11449.5441042312
 20
13128.6640970959
 30
0.0
 11
-11449.1507953544
 21
13129.0574059726
 31
0.0
  0
LINE
  5
1A5
100
AcDbEntity
  8
ERP____
  6
DASHED
 62
         2
100
AcDbLine
 10
-11449.5441042312
 20
13112.5640970959
 30
0.0
 11
-11456.098126954
 21
13112.5640970959
 31
0.0
  0
LINE
  5
1A6
100
AcDbEntity
  8
ERP____
  6
DASHED
 62
         2
100
AcDbLine
 10
-11449.5441042312
 20
13128.6640970959
 30
0.0
 11
-11456.098126954
 21
13128.6640970959
 31
0.0
  0
LINE
  5
1A7
100
AcDbEntity
  8
ERP____
  6
DASHED
 62
         2
100
AcDbLine
 10
-11456.898126954
 20
13127.8640970959
 30
0.0
 11
-11456.898126954
 21
13113.3640970959
 31
0.0
  0
LINE
  5
1A8
100
AcDbEntity
  8
ERP____
  6
DASHED
 62
         2
100
AcDbLine
 10
-11502.098126954
 20
13127.8640970959
 30
0.0
 11
-11502.898126954
 21
13128.6640970959
 31
0.0
  0
LINE
  5
1A9
100
AcDbEntity
  8
ERP____
  6
DASHED
 62
         2
100
AcDbLine
 10
-11502.098126954
 20
13113.3640970959
 30
0.0
 11
-11502.898126954
 21
13112.5640970959
 31
0.0
  0
LINE
  5
1AA
100
AcDbEntity
  8
ERP____
  6
DASHED
 62
         2
100
AcDbLine
 10
-11509.4521496767
 20
13112.5640970959
 30
0.0
 11
-11509.8454585535
 21
13112.1707882192
 31
0.0
  0
LINE
  5
1AB
100
AcDbEntity
  8
ERP____
  6
DASHED
 62
         2
100
AcDbLine
 10
-11509.4521496767
 20
13128.6640970959
 30
0.0
 11
-11509.8454585535
 21
13129.0574059726
 31
0.0
  0
LINE
  5
1AC
100
AcDbEntity
  8
ERP____
  6
DASHED
 62
         2
100
AcDbLine
 10
-11502.098126954
 20
13127.8640970959
 30
0.0
 11
-11502.098126954
 21
13113.3640970959
 31
0.0
  0
LINE
  5
1AD
100
AcDbEntity
  8
ERP____
  6
DASHED
 62
         2
100
AcDbLine
 10
-11509.4521496767
 20
13128.6640970959
 30
0.0
 11
-11502.898126954
 21
13128.6640970959
 31
0.0
  0
LINE
  5
1AE
100
AcDbEntity
  8
ERP____
  6
DASHED
 62
         2
100
AcDbLine
 10
-11509.4521496767
 20
13112.5640970959
 30
0.0
 11
-11502.898126954
 21
13112.5640970959
 31
0.0
  0
CIRCLE
  5
1AF
100
AcDbEntity
  8
ERP____
  6
DASHED
 62
         2
100
AcDbCircle
 10
-11479.498126954
 20
13120.6140970959
 30
0.0
 40
30.5
  0
TEXT
  5
1B1
100
AcDbEntity
  8
ERP____
  6
CONTINUOUS
 62
         2
100
AcDbText
 10
-11494.9263491713
 20
13188.4499337747
 30
0.0
 40
4.5
  1
532234
 41
0.98
  7
BOX
100
AcDbText
  0
ENDSEC
  0
SECTION
  2
OBJECTS
  0
DICTIONARY
  5
19
100
AcDbDictionary
  3
ACAD_GROUP
350
1A
  3
ACAD_MLINESTYLE
350
1B
  0
DICTIONARY
  5
1A
102
{ACAD_REACTORS
330
19
102
}
100
AcDbDictionary
  0
DICTIONARY
  5
1B
102
{ACAD_REACTORS
330
19
102
}
100
AcDbDictionary
  3
STANDARD
350
1C
  0
MLINESTYLE
  5
1C
102
{ACAD_REACTORS
330
1B
102
}
100
AcDbMlineStyle
  2
STANDARD
 70
         0
  3

 62
         0
 51
90.0
 52
90.0
 71
         2
 49
0.5
 62
       256
  6
BYLAYER
 49
-0.5
 62
       256
  6
BYLAYER
  0
ENDSEC
  0
EOF
