  0
SECTION
  2
HEADER
  9
$ACADVER
  1
AC1014
  9
$ACADMAINTVER
 70
         0
  9
$DWGCODEPAGE
  3
BIG5
  9
$INSBASE
 10
0.0
 20
0.0
 30
0.0
  9
$EXTMIN
 10
1124.2865521778
 20
-57.9558329415
 30
0.0
  9
$EXTMAX
 10
1713.9201285747
 20
239.3191274765
 30
0.0
  9
$LIMMIN
 10
0.0
 20
0.0
  9
$LIMMAX
 10
0.0
 20
0.0
  9
$ORTHOMODE
 70
         0
  9
$REGENMODE
 70
         1
  9
$FILLMODE
 70
         1
  9
$QTEXTMODE
 70
         0
  9
$MIRRTEXT
 70
         1
  9
$DRAGMODE
 70
         2
  9
$LTSCALE
 40
1.0
  9
$OSMODE
 70
         0
  9
$ATTMODE
 70
         1
  9
$TEXTSIZE
 40
4.7
  9
$TRACEWID
 40
0.05
  9
$TEXTSTYLE
  7
STANDARD
  9
$CLAYER
  8
0
  9
$CELTYPE
  6
CONTINUOUS
  9
$CECOLOR
 62
         4
  9
$CELTSCALE
 40
1.0
  9
$DELOBJ
 70
         1
  9
$DISPSILH
 70
         0
  9
$DIMSCALE
 40
1.0
  9
$DIMASZ
 40
0.18
  9
$DIMEXO
 40
0.0625
  9
$DIMDLI
 40
0.38
  9
$DIMRND
 40
0.0
  9
$DIMDLE
 40
0.0
  9
$DIMEXE
 40
0.25
  9
$DIMTP
 40
0.01
  9
$DIMTM
 40
-0.01
  9
$DIMTXT
 40
2.7
  9
$DIMCEN
 40
0.09
  9
$DIMTSZ
 40
0.0
  9
$DIMTOL
 70
         0
  9
$DIMLIM
 70
         0
  9
$DIMTIH
 70
         1
  9
$DIMTOH
 70
         1
  9
$DIMSE1
 70
         0
  9
$DIMSE2
 70
         0
  9
$DIMTAD
 70
         0
  9
$DIMZIN
 70
         0
  9
$DIMBLK
  1

  9
$DIMASO
 70
         1
  9
$DIMSHO
 70
         1
  9
$DIMPOST
  1

  9
$DIMAPOST
  1

  9
$DIMALT
 70
         0
  9
$DIMALTD
 70
         2
  9
$DIMALTF
 40
25.4
  9
$DIMLFAC
 40
1.0
  9
$DIMTOFL
 70
         0
  9
$DIMTVP
 40
0.0
  9
$DIMTIX
 70
         0
  9
$DIMSOXD
 70
         0
  9
$DIMSAH
 70
         0
  9
$DIMBLK1
  1

  9
$DIMBLK2
  1

  9
$DIMSTYLE
  2
STANDARD
  9
$DIMCLRD
 70
         0
  9
$DIMCLRE
 70
         0
  9
$DIMCLRT
 70
         4
  9
$DIMTFAC
 40
1.0
  9
$DIMGAP
 40
0.09
  9
$DIMJUST
 70
         0
  9
$DIMSD1
 70
         0
  9
$DIMSD2
 70
         0
  9
$DIMTOLJ
 70
         1
  9
$DIMTZIN
 70
         0
  9
$DIMALTZ
 70
         0
  9
$DIMALTTZ
 70
         0
  9
$DIMFIT
 70
         3
  9
$DIMUPT
 70
         0
  9
$DIMUNIT
 70
         2
  9
$DIMDEC
 70
         4
  9
$DIMTDEC
 70
         4
  9
$DIMALTU
 70
         2
  9
$DIMALTTD
 70
         2
  9
$DIMTXSTY
  7
STANDARD
  9
$DIMAUNIT
 70
         0
  9
$LUNITS
 70
         2
  9
$LUPREC
 70
        10
  9
$SKETCHINC
 40
0.1
  9
$FILLETRAD
 40
0.0
  9
$AUNITS
 70
         0
  9
$AUPREC
 70
         0
  9
$MENU
  1
acad
  9
$ELEVATION
 40
0.0
  9
$PELEVATION
 40
0.0
  9
$THICKNESS
 40
0.0
  9
$LIMCHECK
 70
         0
  9
$BLIPMODE
 70
         1
  9
$CHAMFERA
 40
0.0
  9
$CHAMFERB
 40
0.0
  9
$CHAMFERC
 40
0.0
  9
$CHAMFERD
 40
0.0
  9
$SKPOLY
 70
         0
  9
$TDCREATE
 40
0.000000000
  9
$TDUPDATE
 40
0.000000000
  9
$TDINDWG
 40
0.0000000000
  9
$TDUSRTIMER
 40
0.0000000000
  9
$USRTIMER
 70
         1
  9
$ANGBASE
 50
0.0
  9
$ANGDIR
 70
         0
  9
$PDMODE
 70
         2
  9
$PDSIZE
 40
0.0
  9
$PLINEWID
 40
0.0
  9
$COORDS
 70
         1
  9
$SPLFRAME
 70
         0
  9
$SPLINETYPE
 70
         6
  9
$SPLINESEGS
 70
         8
  9
$ATTDIA
 70
         0
  9
$ATTREQ
 70
         1
  9
$HANDLING
 70
         1
  9
$HANDSEED
  5
184
  9
$SURFTAB1
 70
         6
  9
$SURFTAB2
 70
         6
  9
$SURFTYPE
 70
         6
  9
$SURFU
 70
         6
  9
$SURFV
 70
         6
  9
$UCSNAME
  2

  9
$UCSORG
 10
0.0
 20
0.0
 30
0.0
  9
$UCSXDIR
 10
1.0
 20
0.0
 30
0.0
  9
$UCSYDIR
 10
0.0
 20
1.0
 30
0.0
  9
$PUCSNAME
  2

  9
$PUCSORG
 10
0.0
 20
0.0
 30
0.0
  9
$PUCSXDIR
 10
1.0
 20
0.0
 30
0.0
  9
$PUCSYDIR
 10
0.0
 20
1.0
 30
0.0
  9
$USERI1
 70
         0
  9
$USERI2
 70
         0
  9
$USERI3
 70
         0
  9
$USERI4
 70
         0
  9
$USERI5
 70
         0
  9
$USERR1
 40
0.0
  9
$USERR2
 40
0.0
  9
$USERR3
 40
0.0
  9
$USERR4
 40
0.0
  9
$USERR5
 40
0.0
  9
$WORLDVIEW
 70
         1
  9
$SHADEDGE
 70
         3
  9
$SHADEDIF
 70
        70
  9
$TILEMODE
 70
         1
  9
$MAXACTVP
 70
        16
  9
$PINSBASE
 10
0.0
 20
0.0
 30
0.0
  9
$PLIMCHECK
 70
         0
  9
$PEXTMIN
 10
1.0000000000E+20
 20
1.0000000000E+20
 30
1.0000000000E+20
  9
$PEXTMAX
 10
-1.0000000000E+20
 20
-1.0000000000E+20
 30
-1.0000000000E+20
  9
$PLIMMIN
 10
0.0
 20
0.0
  9
$PLIMMAX
 10
12.0
 20
9.0
  9
$UNITMODE
 70
         0
  9
$VISRETAIN
 70
         0
  9
$PLINEGEN
 70
         1
  9
$PSLTSCALE
 70
         0
  9
$TREEDEPTH
 70
      3020
  9
$PICKSTYLE
 70
         1
  9
$CMLSTYLE
  2
STANDARD
  9
$CMLJUST
 70
         0
  9
$CMLSCALE
 40
1.0
  9
$PROXYGRAPHICS
 70
         0
  9
$MEASUREMENT
 70
         0
  0
ENDSEC
  0
SECTION
  2
CLASSES
  0
CLASS
  1
LWPOLYLINE
  2
AcDbPolyline
  3
"AutoCAD"
 90
        0
280
         0
281
         1
  0
CLASS
  1
IMAGE
  2
AcDbRasterImage
  3
ISM
 90
      127
280
         0
281
         1
  0
CLASS
  1
OLE2FRAME
  2
AcDbOle2Frame
  3
""
 90
        0
280
         0
281
         1
  0
CLASS
  1
HATCH
  2
AcDbHatch
  3
"ACAD_SEDONA"
 90
        0
280
         0
281
         1
  0
CLASS
  1
DICTIONARYVAR
  2
AcDbDictionaryVar
  3
"AutoCAD"
 90
        0
280
         0
281
         0
  0
CLASS
  1
RASTERVARIABLES
  2
AcDbRasterVariables
  3
ISM
 90
        0
280
         0
281
         0
  0
CLASS
  1
IMAGEDEF
  2
AcDbRasterImageDef
  3
ISM
 90
        0
280
         0
281
         0
  0
CLASS
  1
IMAGEDEF_REACTOR
  2
AcDbRasterImageDefReactor
  3
ISM
 90
        1
280
         0
281
         0
  0
CLASS
  1
IDBUFFER
  2
AcDbIdBuffer
  3
"Acad"
 90
        0
280
         0
281
         0
  0
CLASS
  1
SPATIAL_FILTER
  2
AcDbSpatialFilter
  3
"Acad"
 90
        0
280
         0
281
         0
  0
CLASS
  1
XRECORD
  2
AcDbXrecord
  3
"<Built In>"
 90
        0
280
         0
281
         0
  0
CLASS
  1
SORTENTSTABLE
  2
AcDbSortentsTable
  3
"AutoCAD"
 90
        0
280
         0
281
         0
  0
CLASS
  1
LAYER_INDEX
  2
AcDbLayerIndex
  3
"Acad"
 90
        0
280
         0
281
         0
  0
CLASS
  1
SPATIAL_INDEX
  2
AcDbSpatialIndex
  3
"Acad"
 90
        0
280
         0
281
         0
  0
CLASS
  1
OBJECT_PTR
  2
CAseDLPNTableRecord
  3
"ASE-LPNTableRecord"
 90
        1
280
         0
281
         0
  0
CLASS
  1
LAYOUT
  2
AcDbLayout
  3
"AutoCAD 2000"
 90
        1
280
         0
281
         0
  0
CLASS
  1
PLOTSETTINGS
  2
AcDbPlotSettings
  3
"AutoCAD 2000"
 90
        1
280
         0
281
         0
  0
CLASS
  1
ACDBDICTIONARYWDFLT
  2
AcDbDictionaryWithDefault
  3
"AutoCAD 2000"
 90
        1
280
         0
281
         0
  0
CLASS
  1
ACDBPLACEHOLDER
  2
AcDbPlaceHolder
  3
"AutoCAD 2000"
 90
        1
280
         0
281
         0
  0
CLASS
  1
VBA_PROJECT
  2
AcDbVbaProject
  3
"acadvba"
 90
        1
280
         0
281
         0
  0
CLASS
  1
WIPEOUT
  2
AcDbWipeout
  3
WipeOut|AutoCAD Express Tool|expresstools@autodesk.com
 90
      127
280
         0
281
         1
  0
CLASS
  1
WIPEOUTVARIABLES
  2
AcDbWipeoutVariables
  3
WipeOut|AutoCAD Express Tool|expresstools@autodesk.com
 90
        0
280
         0
281
         0
  0
CLASS
  1
RTEXT
  2
RText
  3
RText|AutoCAD Express Tool|expresstools@autodesk.com
 90
        0
280
         0
281
         1
  0
CLASS
  1
ARCALIGNEDTEXT
  2
AcDbArcAlignedText
  3
ATEXT|AutoCAD Express Tool|expresstools@autodesk.com
 90
        0
280
         0
281
         1
  0
ENDSEC
  0
SECTION
  2
TABLES
  0
TABLE
  2
VPORT
  5
7
100
AcDbSymbolTable
 70
         1
  0
VPORT
  5
15
100
AcDbSymbolTableRecord
100
AcDbViewportTableRecord
  2
*ACTIVE
 70
         0
 10
0.0
 20
0.0
 11
1.0
 21
1.0
 12
1419.1033403763
 22
90.6816472675
 13
0.0
 23
0.0
 14
1.0
 24
1.0
 15
0.0
 25
0.0
 16
0.0
 26
0.0
 36
1.0
 17
0.0
 27
0.0
 37
0.0
 40
297.274960418
 41
1.9834619625
 42
50.0
 43
0.0
 44
0.0
 50
0.0
 51
0.0
 71
         0
 72
       100
 73
         1
 74
         1
 75
         0
 76
         0
 77
         0
 78
         0
  0
ENDTAB
  0
TABLE
  2
LTYPE
  5
4
100
AcDbSymbolTable
 70
         6
  0
LTYPE
  5
11
100
AcDbSymbolTableRecord
100
AcDbLinetypeTableRecord
  2
BYBLOCK
 70
        64
  3

 72
        65
 73
         0
 40
0.0
  0
LTYPE
  5
12
100
AcDbSymbolTableRecord
100
AcDbLinetypeTableRecord
  2
BYLAYER
 70
        64
  3

 72
        65
 73
         0
 40
0.0
  0
LTYPE
  5
13
100
AcDbSymbolTableRecord
100
AcDbLinetypeTableRecord
  2
CONTINUOUS
 70
        64
  3
Solid line
 72
        65
 73
         0
 40
0.0
  0
LTYPE
  5
1D
100
AcDbSymbolTableRecord
100
AcDbLinetypeTableRecord
  2
DASHED
 70
        64
  3
_ _ _ _ _ _ _ _ _ _ _ _ _ _ _ _
 72
        65
 73
         2
 40
0.2
 49
0.1
 74
         0
 49
-0.1
 74
         0
  0
LTYPE
  5
1E
100
AcDbSymbolTableRecord
100
AcDbLinetypeTableRecord
  2
CENTER
 70
        64
  3
___ _ ___ _ ___ _ ___ _ ___ _ ___ _ ___ _ ___ _
 72
        65
 73
         4
 40
0.95
 49
0.625
 74
         0
 49
-0.125
 74
         0
 49
0.075
 74
         0
 49
-0.125
 74
         0
  0
LTYPE
  5
1F
100
AcDbSymbolTableRecord
100
AcDbLinetypeTableRecord
  2
PHANTOM
 70
        64
  3
______  __  __  ______  __  __  ______  __  __  
 72
        65
 73
         6
 40
1.025
 49
0.625
 74
         0
 49
-0.125
 74
         0
 49
0.075
 74
         0
 49
-0.125
 74
         0
 49
0.075
 74
         0
 49
-0.125
 74
         0
  0
ENDTAB
  0
TABLE
  2
LAYER
  5
2
100
AcDbSymbolTable
 70
         6
  0
LAYER
  5
14
100
AcDbSymbolTableRecord
100
AcDbLayerTableRecord
  2
0
 70
         0
 62
         7
  6
CONTINUOUS
  0
LAYER
  5
21
100
AcDbSymbolTableRecord
100
AcDbLayerTableRecord
  2
_____U
 70
         1
 62
         7
  6
CONTINUOUS
  0
LAYER
  5
22
100
AcDbSymbolTableRecord
100
AcDbLayerTableRecord
  2
_____T______
 70
         1
 62
         7
  6
CONTINUOUS
  0
LAYER
  5
23
100
AcDbSymbolTableRecord
100
AcDbLayerTableRecord
  2
_Y__________
 70
         0
 62
         7
  6
CONTINUOUS
  0
LAYER
  5
24
100
AcDbSymbolTableRecord
100
AcDbLayerTableRecord
  2
L1_100
 70
         0
 62
         7
  6
CONTINUOUS
  0
LAYER
  5
6C
100
AcDbSymbolTableRecord
100
AcDbLayerTableRecord
  2
DEFPOINTS
 70
         0
 62
        -7
  6
CONTINUOUS
  0
ENDTAB
  0
TABLE
  2
STYLE
  5
3
100
AcDbSymbolTable
 70
         8
  0
STYLE
  5
17
100
AcDbSymbolTableRecord
100
AcDbTextStyleTableRecord
  2
STANDARD
 70
         0
 40
0.0
 41
1.0
 50
0.0
 71
         0
 42
0.0
  3
txt
  4

  0
STYLE
  5
75
100
AcDbSymbolTableRecord
100
AcDbTextStyleTableRecord
  2
BOX
 70
         0
 40
1.0
 41
1.0
 50
0.0
 71
         0
 42
0.2
  3
txt.shx
  4

  0
STYLE
  5
88
100
AcDbSymbolTableRecord
100
AcDbTextStyleTableRecord
  2
BOX
 70
         0
 40
1.0
 41
1.0
 50
0.0
 71
         0
 42
0.2
  3
txt.shx
  4

  0
STYLE
  5
A2
100
AcDbSymbolTableRecord
100
AcDbTextStyleTableRecord
  2
BOX
 70
         0
 40
1.0
 41
1.0
 50
0.0
 71
         0
 42
0.2
  3
txt.shx
  4

  0
STYLE
  5
15D
100
AcDbSymbolTableRecord
100
AcDbTextStyleTableRecord
  2
BOX
 70
         0
 40
1.0
 41
1.0
 50
0.0
 71
         0
 42
0.2
  3
txt.shx
  4

  0
STYLE
  5
171
100
AcDbSymbolTableRecord
100
AcDbTextStyleTableRecord
  2
BOX
 70
         0
 40
1.0
 41
1.0
 50
0.0
 71
         0
 42
0.2
  3
txt.shx
  4

  0
STYLE
  5
17F
100
AcDbSymbolTableRecord
100
AcDbTextStyleTableRecord
  2
BOX
 70
         0
 40
1.0
 41
1.0
 50
0.0
 71
         0
 42
0.2
  3
txt.shx
  4

  0
STYLE
  5
182
100
AcDbSymbolTableRecord
100
AcDbTextStyleTableRecord
  2
BOX
 70
         0
 40
1.0
 41
1.0
 50
0.0
 71
         0
 42
0.2
  3
txt.shx
  4

  0
ENDTAB
  0
TABLE
  2
VIEW
  5
5
100
AcDbSymbolTable
 70
         0
  0
ENDTAB
  0
TABLE
  2
UCS
  5
6
100
AcDbSymbolTable
 70
         1
  0
UCS
  5
20
100
AcDbSymbolTableRecord
100
AcDbUCSTableRecord
  2
CK_VIEW_1
 70
         0
 10
0.0
 20
0.0
 30
1.0
 11
1.0
 21
0.0
 31
0.0
 12
0.0
 22
1.0
 32
0.0
  0
ENDTAB
  0
TABLE
  2
APPID
  5
8
100
AcDbSymbolTable
 70
         1
  0
APPID
  5
16
100
AcDbSymbolTableRecord
100
AcDbRegAppTableRecord
  2
ACAD
 70
         0
  0
ENDTAB
  0
TABLE
  2
DIMSTYLE
  5
9
100
AcDbSymbolTable
 70
         2
  0
DIMSTYLE
105
18
100
AcDbSymbolTableRecord
100
AcDbDimStyleTableRecord
  2
STANDARD
 70
         0
  3

  4

  5

  6

  7

 40
1.0
 41
0.18
 42
0.0625
 43
0.38
 44
0.18
 45
0.0
 46
0.0
 47
0.0
 48
0.0
 71
         0
 72
         0
 73
         1
 74
         1
 75
         0
 76
         0
 77
         0
 78
         0
140
0.18
141
0.09
142
0.0
143
25.4
144
1.0
145
0.0
146
1.0
147
0.09
170
         0
171
         2
172
         0
173
         0
174
         0
175
         0
176
         0
177
         0
178
         0
270
         2
271
         4
272
         4
273
         2
274
         2
275
         0
280
         0
281
         0
282
         0
283
         1
284
         0
285
         0
286
         0
287
         0
288
         0
340
17
  0
DIMSTYLE
105
68
100
AcDbSymbolTableRecord
100
AcDbDimStyleTableRecord
  2
DIMSTYLE1
 70
         0
  3

  4

  5

  6

  7

 40
1.0
 41
2.7
 42
0.0625
 43
0.38
 44
2.7
 45
0.0
 46
0.0
 47
0.0
 48
0.0
 71
         0
 72
         0
 73
         1
 74
         1
 75
         0
 76
         0
 77
         0
 78
         0
140
2.7
141
0.09
142
0.0
143
25.4
144
1.0
145
0.0
146
1.0
147
0.09
170
         0
171
         2
172
         0
173
         0
174
         0
175
         0
176
         0
177
         0
178
         0
270
         2
271
         4
272
         4
273
         2
274
         2
275
         0
280
         0
281
         0
282
         0
283
         1
284
         0
285
         0
286
         0
287
         0
288
         0
340
17
  0
ENDTAB
  0
TABLE
  2
BLOCK_RECORD
  5
1
100
AcDbSymbolTable
 70
         7
  0
BLOCK_RECORD
  5
A
100
AcDbSymbolTableRecord
100
AcDbBlockTableRecord
  2
*MODEL_SPACE
  0
BLOCK_RECORD
  5
B
100
AcDbSymbolTableRecord
100
AcDbBlockTableRecord
  2
*PAPER_SPACE
  0
BLOCK_RECORD
  5
2D
100
AcDbSymbolTableRecord
100
AcDbBlockTableRecord
  2
*X0
  0
BLOCK_RECORD
  5
69
100
AcDbSymbolTableRecord
100
AcDbBlockTableRecord
  2
*D1
  0
BLOCK_RECORD
  5
7A
100
AcDbSymbolTableRecord
100
AcDbBlockTableRecord
  2
*D2
  0
BLOCK_RECORD
  5
96
100
AcDbSymbolTableRecord
100
AcDbBlockTableRecord
  2
*D3
  0
BLOCK_RECORD
  5
150
100
AcDbSymbolTableRecord
100
AcDbBlockTableRecord
  2
*D4
  0
BLOCK_RECORD
  5
166
100
AcDbSymbolTableRecord
100
AcDbBlockTableRecord
  2
*D5
  0
BLOCK_RECORD
  5
174
100
AcDbSymbolTableRecord
100
AcDbBlockTableRecord
  2
*D6
  0
ENDTAB
  0
ENDSEC
  0
SECTION
  2
BLOCKS
  0
BLOCK
  5
D
100
AcDbEntity
  8
0
100
AcDbBlockBegin
  2
*MODEL_SPACE
 70
         0
 10
0.0
 20
0.0
 30
0.0
  3
*MODEL_SPACE
  1

  0
ENDBLK
  5
E
100
AcDbEntity
  8
0
100
AcDbBlockEnd
  0
BLOCK
  5
F
100
AcDbEntity
 67
         1
  8
0
100
AcDbBlockBegin
  2
*PAPER_SPACE
 70
         0
 10
0.0
 20
0.0
 30
0.0
  3
*PAPER_SPACE
  1

  0
ENDBLK
  5
10
100
AcDbEntity
 67
         1
  8
0
100
AcDbBlockEnd
  0
BLOCK
  5
2E
100
AcDbEntity
  8
0
100
AcDbBlockBegin
  2
*X0
 70
        65
 10
0.0
 20
0.0
 30
0.0
  3
*X0
  1

  0
LINE
  5
2F
100
AcDbEntity
  8
_Y__________
  6
CONTINUOUS
 62
         4
100
AcDbLine
 10
1458.5407497083
 20
-20.1781834254
 30
0.0
 11
1461.5033403763
 21
-17.2155927575
 31
0.0
  0
LINE
  5
30
100
AcDbEntity
  8
_Y__________
  6
CONTINUOUS
 62
         4
100
AcDbLine
 10
1454.1589904696
 20
-20.317301977
 30
0.0
 11
1460.2576868442
 21
-14.2186056024
 31
0.0
  0
LINE
  5
31
100
AcDbEntity
  8
_Y__________
  6
CONTINUOUS
 62
         4
100
AcDbLine
 10
1449.7772312309
 20
-20.4564205286
 30
0.0
 11
1461.5033403763
 21
-8.7303113832
 31
0.0
  0
LINE
  5
32
100
AcDbEntity
  8
_Y__________
  6
CONTINUOUS
 62
         4
100
AcDbLine
 10
1445.3954719922
 20
-20.5955390802
 30
0.0
 11
1460.0974898222
 21
-5.8935212502
 31
0.0
  0
LINE
  5
33
100
AcDbEntity
  8
_Y__________
  6
CONTINUOUS
 62
         4
100
AcDbLine
 10
1417.3050356446
 20
-44.4433347407
 30
0.0
 11
1419.1033403763
 21
-42.645030009
 31
0.0
  0
LINE
  5
34
100
AcDbEntity
  8
_Y__________
  6
CONTINUOUS
 62
         4
100
AcDbLine
 10
1441.0137127534
 20
-20.7346576318
 30
0.0
 11
1456.0737606702
 21
-5.6746097151
 31
0.0
  0
LINE
  5
35
100
AcDbEntity
  8
_Y__________
  6
CONTINUOUS
 62
         4
100
AcDbLine
 10
1413.4688280989
 20
-44.0369015992
 30
0.0
 11
1419.1033403763
 21
-38.4023893219
 31
0.0
  0
LINE
  5
36
100
AcDbEntity
  8
_Y__________
  6
CONTINUOUS
 62
         4
100
AcDbLine
 10
1429.5401703256
 20
-27.9655593726
 30
0.0
 11
1432.1033403763
 21
-25.4023893219
 31
0.0
  0
LINE
  5
37
100
AcDbEntity
  8
_Y__________
  6
CONTINUOUS
 62
         4
100
AcDbLine
 10
1436.6319535147
 20
-20.8737761834
 30
0.0
 11
1451.9616764933
 21
-5.5440532049
 31
0.0
  0
LINE
  5
38
100
AcDbEntity
  8
_Y__________
  6
CONTINUOUS
 62
         4
100
AcDbLine
 10
1411.9159138283
 20
-41.3471751827
 30
0.0
 11
1419.1033403763
 21
-34.1597486348
 31
0.0
  0
LINE
  5
39
100
AcDbEntity
  8
_Y__________
  6
CONTINUOUS
 62
         4
100
AcDbLine
 10
1425.2975296384
 20
-27.9655593726
 30
0.0
 11
1447.8495923163
 21
-5.4134966947
 31
0.0
  0
LINE
  5
3A
100
AcDbEntity
  8
_Y__________
  6
CONTINUOUS
 62
         4
100
AcDbLine
 10
1409.5771135832
 20
-39.4433347407
 30
0.0
 11
1419.4446776969
 21
-29.575770627
 31
0.0
  0
LINE
  5
3B
100
AcDbEntity
  8
_Y__________
  6
CONTINUOUS
 62
         4
100
AcDbLine
 10
1420.7135516307
 20
-28.3068966932
 30
0.0
 11
1443.7375081394
 21
-5.2829401845
 31
0.0
  0
LINE
  5
3C
100
AcDbEntity
  8
_Y__________
  6
CONTINUOUS
 62
         4
100
AcDbLine
 10
1400.3344728961
 20
-44.4433347407
 30
0.0
 11
1439.6254239625
 21
-5.1523836743
 31
0.0
  0
LINE
  5
3D
100
AcDbEntity
  8
_Y__________
  6
CONTINUOUS
 62
         4
100
AcDbLine
 10
1396.091832209
 20
-44.4433347407
 30
0.0
 11
1435.5133397856
 21
-5.0218271641
 31
0.0
  0
LINE
  5
3E
100
AcDbEntity
  8
_Y__________
  6
CONTINUOUS
 62
         4
100
AcDbLine
 10
1394.1033403763
 20
-42.1891858863
 30
0.0
 11
1432.3515218601
 21
-3.9410044025
 31
0.0
  0
LINE
  5
3F
100
AcDbEntity
  8
_Y__________
  6
CONTINUOUS
 62
         4
100
AcDbLine
 10
1394.1033403763
 20
-37.9465451992
 30
0.0
 11
1432.1033403763
 21
0.0534548008
 31
0.0
  0
LINE
  5
40
100
AcDbEntity
  8
_Y__________
  6
CONTINUOUS
 62
         4
100
AcDbLine
 10
1392.5707470491
 20
-35.2364978391
 30
0.0
 11
1429.8416855157
 21
2.0344406274
 31
0.0
  0
LINE
  5
41
100
AcDbEntity
  8
_Y__________
  6
CONTINUOUS
 62
         4
100
AcDbLine
 10
1388.8680762229
 20
-34.6965279783
 30
0.0
 11
1425.5990448286
 21
2.0344406274
 31
0.0
  0
LINE
  5
42
100
AcDbEntity
  8
_Y__________
  6
CONTINUOUS
 62
         4
100
AcDbLine
 10
1385.1654053967
 20
-34.1565581174
 30
0.0
 11
1421.4323946046
 21
2.1104310906
 31
0.0
  0
LINE
  5
43
100
AcDbEntity
  8
_Y__________
  6
CONTINUOUS
 62
         4
100
AcDbLine
 10
1381.4627345705
 20
-33.6165882565
 30
0.0
 11
1419.2349468561
 21
4.1556240291
 31
0.0
  0
LINE
  5
44
100
AcDbEntity
  8
_Y__________
  6
CONTINUOUS
 62
         4
100
AcDbLine
 10
1377.7600637443
 20
-33.0766183956
 30
0.0
 11
1419.1033403763
 21
8.2666582364
 31
0.0
  0
LINE
  5
45
100
AcDbEntity
  8
_Y__________
  6
CONTINUOUS
 62
         4
100
AcDbLine
 10
1374.057392918
 20
-32.5366485347
 30
0.0
 11
1419.1033403763
 21
12.5092989236
 31
0.0
  0
LINE
  5
46
100
AcDbEntity
  8
_Y__________
  6
CONTINUOUS
 62
         4
100
AcDbLine
 10
1370.3547220918
 20
-31.9966786738
 30
0.0
 11
1419.1033403763
 21
16.7519396107
 31
0.0
  0
LINE
  5
47
100
AcDbEntity
  8
_Y__________
  6
CONTINUOUS
 62
         4
100
AcDbLine
 10
1366.6520512656
 20
-31.4567088129
 30
0.0
 11
1416.6654253378
 21
18.5566652593
 31
0.0
  0
LINE
  5
48
100
AcDbEntity
  8
_Y__________
  6
CONTINUOUS
 62
         4
100
AcDbLine
 10
1362.9493804394
 20
-30.916738952
 30
0.0
 11
1407.4227846507
 21
13.5566652593
 31
0.0
  0
LINE
  5
49
100
AcDbEntity
  8
_Y__________
  6
CONTINUOUS
 62
         4
100
AcDbLine
 10
1359.2467096132
 20
-30.3767690911
 30
0.0
 11
1405.3418741886
 21
15.7183954843
 31
0.0
  0
LINE
  5
4A
100
AcDbEntity
  8
_Y__________
  6
CONTINUOUS
 62
         4
100
AcDbLine
 10
1355.5440387869
 20
-29.8367992302
 30
0.0
 11
1365.3875032764
 21
-19.9933347407
 31
0.0
  0
LINE
  5
4B
100
AcDbEntity
  8
_Y__________
  6
CONTINUOUS
 62
         4
100
AcDbLine
 10
1370.8668326856
 20
-14.5140053315
 30
0.0
 11
1403.7889599179
 21
18.4081219008
 31
0.0
  0
LINE
  5
4C
100
AcDbEntity
  8
_Y__________
  6
CONTINUOUS
 62
         4
100
AcDbLine
 10
1351.8413679607
 20
-29.2968293693
 30
0.0
 11
1361.1448625893
 21
-19.9933347407
 31
0.0
  0
LINE
  5
4D
100
AcDbEntity
  8
_Y__________
  6
CONTINUOUS
 62
         4
100
AcDbLine
 10
1370.4637290894
 20
-10.6744682405
 30
0.0
 11
1390.132441402
 21
8.9942440721
 31
0.0
  0
LINE
  5
4E
100
AcDbEntity
  8
_Y__________
  6
CONTINUOUS
 62
         4
100
AcDbLine
 10
1394.1033403763
 20
12.9651430463
 30
0.0
 11
1399.6948625893
 21
18.5566652593
 31
0.0
  0
LINE
  5
4F
100
AcDbEntity
  8
_Y__________
  6
CONTINUOUS
 62
         4
100
AcDbLine
 10
1348.1386971345
 20
-28.7568595084
 30
0.0
 11
1356.9022219022
 21
-19.9933347407
 31
0.0
  0
LINE
  5
50
100
AcDbEntity
  8
_Y__________
  6
CONTINUOUS
 62
         4
100
AcDbLine
 10
1368.9108148188
 20
-7.984741824
 30
0.0
 11
1385.165452088
 21
8.2698954451
 31
0.0
  0
LINE
  5
51
100
AcDbEntity
  8
_Y__________
  6
CONTINUOUS
 62
         4
100
AcDbLine
 10
1394.1033403763
 20
17.2077837334
 30
0.0
 11
1395.4522219022
 21
18.5566652593
 31
0.0
  0
LINE
  5
52
100
AcDbEntity
  8
_Y__________
  6
CONTINUOUS
 62
         4
100
AcDbLine
 10
1344.4360263083
 20
-28.2168896475
 30
0.0
 11
1352.6595812151
 21
-19.9933347407
 31
0.0
  0
LINE
  5
53
100
AcDbEntity
  8
_Y__________
  6
CONTINUOUS
 62
         4
100
AcDbLine
 10
1366.7595812151
 20
-5.8933347407
 30
0.0
 11
1380.1984627739
 21
7.5455468182
 31
0.0
  0
LINE
  5
54
100
AcDbEntity
  8
_Y__________
  6
CONTINUOUS
 62
         4
100
AcDbLine
 10
1340.733355482
 20
-27.6769197866
 30
0.0
 11
1348.416940528
 21
-19.9933347407
 31
0.0
  0
LINE
  5
55
100
AcDbEntity
  8
_Y__________
  6
CONTINUOUS
 62
         4
100
AcDbLine
 10
1362.516940528
 20
-5.8933347407
 30
0.0
 11
1375.2314734599
 21
6.8211981912
 31
0.0
  0
LINE
  5
56
100
AcDbEntity
  8
_Y__________
  6
CONTINUOUS
 62
         4
100
AcDbLine
 10
1337.0306846558
 20
-27.1369499257
 30
0.0
 11
1344.1742998408
 21
-19.9933347407
 31
0.0
  0
LINE
  5
57
100
AcDbEntity
  8
_Y__________
  6
CONTINUOUS
 62
         4
100
AcDbLine
 10
1358.2742998408
 20
-5.8933347407
 30
0.0
 11
1370.2644841458
 21
6.0968495643
 31
0.0
  0
LINE
  5
58
100
AcDbEntity
  8
_Y__________
  6
CONTINUOUS
 62
         4
100
AcDbLine
 10
1333.3280138296
 20
-26.5969800648
 30
0.0
 11
1339.9316591537
 21
-19.9933347407
 31
0.0
  0
LINE
  5
59
100
AcDbEntity
  8
_Y__________
  6
CONTINUOUS
 62
         4
100
AcDbLine
 10
1354.0316591537
 20
-5.8933347407
 30
0.0
 11
1365.2974948317
 21
5.3725009373
 31
0.0
  0
LINE
  5
5A
100
AcDbEntity
  8
_Y__________
  6
CONTINUOUS
 62
         4
100
AcDbLine
 10
1329.6253430034
 20
-26.0570102039
 30
0.0
 11
1334.1258163663
 21
-21.556536841
 31
0.0
  0
LINE
  5
5B
100
AcDbEntity
  8
_Y__________
  6
CONTINUOUS
 62
         4
100
AcDbLine
 10
1349.7890184666
 20
-5.8933347407
 30
0.0
 11
1360.3305055177
 21
4.6481523104
 31
0.0
  0
LINE
  5
5C
100
AcDbEntity
  8
_Y__________
  6
CONTINUOUS
 62
         4
100
AcDbLine
 10
1326.7033403763
 20
-24.7363721439
 30
0.0
 11
1329.9963777795
 21
-21.4433347407
 31
0.0
  0
LINE
  5
5D
100
AcDbEntity
  8
_Y__________
  6
CONTINUOUS
 62
         4
100
AcDbLine
 10
1345.5463777795
 20
-5.8933347407
 30
0.0
 11
1355.3635162036
 21
3.9238036835
 31
0.0
  0
LINE
  5
5E
100
AcDbEntity
  8
_Y__________
  6
CONTINUOUS
 62
         4
100
AcDbLine
 10
1341.3037370924
 20
-5.8933347407
 30
0.0
 11
1350.3965268896
 21
3.1994550565
 31
0.0
  0
LINE
  5
5F
100
AcDbEntity
  8
_Y__________
  6
CONTINUOUS
 62
         4
100
AcDbLine
 10
1337.0610964052
 20
-5.8933347407
 30
0.0
 11
1345.4295375755
 21
2.4751064296
 31
0.0
  0
LINE
  5
60
100
AcDbEntity
  8
_Y__________
  6
CONTINUOUS
 62
         4
100
AcDbLine
 10
1334.4650674392
 20
-4.2467230196
 30
0.0
 11
1340.4625482614
 21
1.7507578026
 31
0.0
  0
LINE
  5
61
100
AcDbEntity
  8
_Y__________
  6
CONTINUOUS
 62
         4
100
AcDbLine
 10
1330.025815031
 20
-4.4433347407
 30
0.0
 11
1335.4955589474
 21
1.0264091757
 31
0.0
  0
LINE
  5
62
100
AcDbEntity
  8
_Y__________
  6
CONTINUOUS
 62
         4
100
AcDbLine
 10
1326.7875776971
 20
-3.4389313875
 30
0.0
 11
1330.5285696333
 21
0.3020605488
 31
0.0
  0
ENDBLK
  5
63
100
AcDbEntity
  8
0
  6
CONTINUOUS
100
AcDbBlockEnd
  0
BLOCK
  5
6A
100
AcDbEntity
  8
0
100
AcDbBlockBegin
  2
*D1
 70
        65
 10
0.0
 20
0.0
 30
0.0
  3
*D1
  1

  0
POINT
  5
6D
100
AcDbEntity
  8
DEFPOINTS
  6
CONTINUOUS
 62
         0
100
AcDbPoint
 10
1392.1033403763
 20
201.6159208341
 30
0.0
  0
POINT
  5
6E
100
AcDbEntity
  8
DEFPOINTS
  6
CONTINUOUS
 62
         0
100
AcDbPoint
 10
1392.1033403763
 20
172.2825579953
 30
0.0
  0
POINT
  5
6F
100
AcDbEntity
  8
DEFPOINTS
  6
CONTINUOUS
 62
         0
100
AcDbPoint
 10
1432.1033403763
 20
164.1846417294
 30
0.0
  0
LINE
  5
70
100
AcDbEntity
  8
L1_100
  6
CONTINUOUS
 62
         4
100
AcDbLine
 10
1392.1033403763
 20
173.6325579953
 30
0.0
 11
1392.1033403763
 21
202.2909208341
 31
0.0
  0
LINE
  5
71
100
AcDbEntity
  8
L1_100
  6
CONTINUOUS
 62
         4
100
AcDbLine
 10
1432.1033403763
 20
165.5346417294
 30
0.0
 11
1432.1033403763
 21
202.2909208341
 31
0.0
  0
LINE
  5
72
100
AcDbEntity
  8
L1_100
  6
CONTINUOUS
 62
         4
100
AcDbLine
 10
1392.1033403763
 20
201.6159208341
 30
0.0
 11
1432.1033403763
 21
201.6159208341
 31
0.0
  0
SOLID
  5
73
100
AcDbEntity
  8
L1_100
  6
CONTINUOUS
 62
         4
100
AcDbTrace
 10
1392.1033403763
 20
201.6159208341
 30
0.0
 11
1394.8033403763
 21
202.0209208341
 31
0.0
 12
1394.8033403763
 22
201.2109208341
 32
0.0
 13
1392.1033403763
 23
201.6159208341
 33
0.0
  0
SOLID
  5
74
100
AcDbEntity
  8
L1_100
  6
CONTINUOUS
 62
         4
100
AcDbTrace
 10
1432.1033403763
 20
201.6159208341
 30
0.0
 11
1429.4033403763
 21
201.2109208341
 31
0.0
 12
1429.4033403763
 22
202.0209208341
 32
0.0
 13
1432.1033403763
 23
201.6159208341
 33
0.0
  0
TEXT
  5
76
100
AcDbEntity
  8
L1_100
  6
CONTINUOUS
 62
         4
100
AcDbText
 10
1412.9089268505
 20
203.6409208341
 30
0.0
 40
2.7
  1
40
  7
BOX
100
AcDbText
  0
ENDBLK
  5
77
100
AcDbEntity
  8
0
  6
CONTINUOUS
100
AcDbBlockEnd
  0
BLOCK
  5
7B
100
AcDbEntity
  8
0
100
AcDbBlockBegin
  2
*D2
 70
        65
 10
0.0
 20
0.0
 30
0.0
  3
*D2
  1

  0
POINT
  5
7D
100
AcDbEntity
  8
DEFPOINTS
  6
CONTINUOUS
 62
         0
100
AcDbPoint
 10
1406.6004726075
 20
-5.0405593726
 30
0.0
  0
POINT
  5
7E
100
AcDbEntity
  8
DEFPOINTS
  6
CONTINUOUS
 62
         0
100
AcDbPoint
 10
1542.8396477845
 20
-5.0405593726
 30
0.0
  0
POINT
  5
7F
100
AcDbEntity
  8
DEFPOINTS
  6
CONTINUOUS
 62
         0
100
AcDbPoint
 10
1434.0398734082
 20
-4.9750453814
 30
0.0
  0
POINT
  5
80
100
AcDbEntity
  8
DEFPOINTS
  6
CONTINUOUS
 62
         0
100
AcDbPoint
 10
1458.6033403763
 20
-5.7549225405
 30
0.0
  0
LINE
  5
81
100
AcDbEntity
  8
L1_100
  6
CONTINUOUS
 62
         4
100
AcDbLine
 10
1459.9526604706
 20
-5.797762744
 30
0.0
 11
1477.0661551978
 21
-6.3411072021
 31
0.0
  0
ARC
  5
82
100
AcDbEntity
  8
L1_100
  6
CONTINUOUS
 62
         4
100
AcDbCircle
 10
1436.1033403763
 20
-5.0405593726
 30
0.0
 40
40.308455476
100
AcDbArc
 50
358.1815
 51
359.09075
  0
SOLID
  5
83
100
AcDbEntity
  8
L1_100
  6
CONTINUOUS
 62
         4
100
AcDbTrace
 10
1476.3914951506
 20
-6.3196871004
 30
0.0
 11
1475.9817797916
 21
-3.6203986155
 31
0.0
 12
1476.7917785561
 22
-3.6189838225
 32
0.0
 13
1476.3914951506
 23
-6.3196871004
 33
0.0
  0
ARC
  5
84
100
AcDbEntity
  8
L1_100
  6
CONTINUOUS
 62
         4
100
AcDbCircle
 10
1436.1033403763
 20
-5.0405593726
 30
0.0
 40
40.308455476
100
AcDbArc
 50
359.09075
 51
360.0
  0
SOLID
  5
85
100
AcDbEntity
  8
L1_100
  6
CONTINUOUS
 62
         4
100
AcDbTrace
 10
1476.4117958523
 20
-5.0405593726
 30
0.0
 11
1476.7261749372
 21
-7.752604872
 31
0.0
 12
1475.9166290119
 22
-7.7254867087
 32
0.0
 13
1476.4117958523
 23
-5.0405593726
 33
0.0
  0
ARC
  5
86
100
AcDbEntity
  8
L1_100
  6
CONTINUOUS
 62
         4
100
AcDbCircle
 10
1436.1033403763
 20
-5.0405593726
 30
0.0
 40
40.308455476
100
AcDbArc
 50
0.0
 51
4.8089090033
  0
SOLID
  5
87
100
AcDbEntity
  8
L1_100
  6
CONTINUOUS
 62
         4
100
AcDbTrace
 10
1436.1033403763
 20
-5.0405593726
 30
0.0
 11
1437.1770938186
 21
-2.5303644509
 31
0.0
 12
1437.8663256735
 22
-2.9558752618
 32
0.0
 13
1436.1033403763
 23
-5.0405593726
 33
0.0
  0
TEXT
  5
89
100
AcDbEntity
  8
L1_100
  6
CONTINUOUS
 62
         4
100
AcDbText
 10
1477.619903479
 20
-0.3113891527
 30
0.0
 40
2.7
  1
1.8185%%d 
  7
BOX
100
AcDbText
  0
ENDBLK
  5
8A
100
AcDbEntity
  8
0
  6
CONTINUOUS
100
AcDbBlockEnd
  0
BLOCK
  5
97
100
AcDbEntity
  8
0
100
AcDbBlockBegin
  2
*D3
 70
        65
 10
0.0
 20
0.0
 30
0.0
  3
*D3
  1

  0
POINT
  5
99
100
AcDbEntity
  8
DEFPOINTS
  6
CONTINUOUS
 62
         0
100
AcDbPoint
 10
1505.79173329
 20
-5.8469960155
 30
0.0
  0
POINT
  5
9A
100
AcDbEntity
  8
DEFPOINTS
  6
CONTINUOUS
 62
         0
100
AcDbPoint
 10
1461.5033403763
 20
-5.8469960155
 30
0.0
  0
POINT
  5
9B
100
AcDbEntity
  8
DEFPOINTS
  6
CONTINUOUS
 62
         0
100
AcDbPoint
 10
1461.5033403763
 20
-20.0841227296
 30
0.0
  0
LINE
  5
9C
100
AcDbEntity
  8
L1_100
  6
CONTINUOUS
 62
         4
100
AcDbLine
 10
1462.8533403763
 20
-5.8469960155
 30
0.0
 11
1506.46673329
 21
-5.8469960155
 31
0.0
  0
LINE
  5
9D
100
AcDbEntity
  8
L1_100
  6
CONTINUOUS
 62
         4
100
AcDbLine
 10
1462.8533403763
 20
-20.0841227296
 30
0.0
 11
1506.46673329
 21
-20.0841227296
 31
0.0
  0
LINE
  5
9E
100
AcDbEntity
  8
L1_100
  6
CONTINUOUS
 62
         4
100
AcDbLine
 10
1505.79173329
 20
-5.8469960155
 30
0.0
 11
1505.79173329
 21
-20.0841227296
 31
0.0
  0
SOLID
  5
9F
100
AcDbEntity
  8
L1_100
  6
CONTINUOUS
 62
         4
100
AcDbTrace
 10
1505.79173329
 20
-5.8469960155
 30
0.0
 11
1506.19673329
 21
-8.5469960155
 31
0.0
 12
1505.38673329
 22
-8.5469960155
 32
0.0
 13
1505.79173329
 23
-5.8469960155
 33
0.0
  0
LINE
  5
A0
100
AcDbEntity
  8
L1_100
  6
CONTINUOUS
 62
         4
100
AcDbLine
 10
1505.79173329
 20
-5.8469960155
 30
0.0
 11
1505.79173329
 21
-6.0495886439
 31
0.0
  0
SOLID
  5
A1
100
AcDbEntity
  8
L1_100
  6
CONTINUOUS
 62
         4
100
AcDbTrace
 10
1505.79173329
 20
-20.0841227296
 30
0.0
 11
1505.38673329
 21
-17.3841227296
 31
0.0
 12
1506.19673329
 22
-17.3841227296
 32
0.0
 13
1505.79173329
 23
-20.0841227296
 33
0.0
  0
TEXT
  5
A3
100
AcDbEntity
  8
L1_100
  6
CONTINUOUS
 62
         4
100
AcDbText
 10
1503.76673329
 20
-4.6995886439
 30
0.0
 40
2.7
  1
崷14.237
 50
90.0
  7
BOX
100
AcDbText
  0
ENDBLK
  5
A4
100
AcDbEntity
  8
0
  6
CONTINUOUS
100
AcDbBlockEnd
  0
BLOCK
  5
151
100
AcDbEntity
  8
0
100
AcDbBlockBegin
  2
*D4
 70
        65
 10
0.0
 20
0.0
 30
0.0
  3
*D4
  1

  0
POINT
  5
153
100
AcDbEntity
  8
DEFPOINTS
  6
CONTINUOUS
 62
         0
100
AcDbPoint
 10
1432.1033403763
 20
175.4908639666
 30
0.0
  0
POINT
  5
154
100
AcDbEntity
  8
DEFPOINTS
  6
CONTINUOUS
 62
         0
100
AcDbPoint
 10
1432.1033403763
 20
161.4391758839
 30
0.0
  0
POINT
  5
155
100
AcDbEntity
  8
DEFPOINTS
  6
CONTINUOUS
 62
         0
100
AcDbPoint
 10
1428.1033403763
 20
165.2068663613
 30
0.0
  0
LINE
  5
156
100
AcDbEntity
  8
_Y__________
  6
CONTINUOUS
 62
         4
100
AcDbLine
 10
1432.1033403763
 20
162.7891758839
 30
0.0
 11
1432.1033403763
 21
176.1658639666
 31
0.0
  0
LINE
  5
157
100
AcDbEntity
  8
_Y__________
  6
CONTINUOUS
 62
         4
100
AcDbLine
 10
1428.1033403763
 20
166.5568663613
 30
0.0
 11
1428.1033403763
 21
176.1658639666
 31
0.0
  0
LINE
  5
158
100
AcDbEntity
  8
_Y__________
  6
CONTINUOUS
 62
         4
100
AcDbLine
 10
1432.1033403763
 20
175.4908639666
 30
0.0
 11
1437.5033403763
 21
175.4908639666
 31
0.0
  0
SOLID
  5
159
100
AcDbEntity
  8
_Y__________
  6
CONTINUOUS
 62
         4
100
AcDbTrace
 10
1432.1033403763
 20
175.4908639666
 30
0.0
 11
1434.8033403763
 21
175.8958639666
 31
0.0
 12
1434.8033403763
 22
175.0858639666
 32
0.0
 13
1432.1033403763
 23
175.4908639666
 33
0.0
  0
LINE
  5
15A
100
AcDbEntity
  8
_Y__________
  6
CONTINUOUS
 62
         4
100
AcDbLine
 10
1428.1033403763
 20
175.4908639666
 30
0.0
 11
1422.7033403763
 21
175.4908639666
 31
0.0
  0
SOLID
  5
15B
100
AcDbEntity
  8
_Y__________
  6
CONTINUOUS
 62
         4
100
AcDbTrace
 10
1428.1033403763
 20
175.4908639666
 30
0.0
 11
1425.4033403763
 21
175.0858639666
 31
0.0
 12
1425.4033403763
 22
175.8958639666
 32
0.0
 13
1428.1033403763
 23
175.4908639666
 33
0.0
  0
LINE
  5
15C
100
AcDbEntity
  8
_Y__________
  6
CONTINUOUS
 62
         4
100
AcDbLine
 10
1432.1033403763
 20
175.4908639666
 30
0.0
 11
1428.1033403763
 21
175.4908639666
 31
0.0
  0
TEXT
  5
15E
100
AcDbEntity
  8
_Y__________
  6
CONTINUOUS
 62
         4
100
AcDbText
 10
1428.6323032414
 20
177.5158639666
 30
0.0
 40
2.7
  1
4
  7
BOX
100
AcDbText
  0
ENDBLK
  5
15F
100
AcDbEntity
  8
0
  6
CONTINUOUS
100
AcDbBlockEnd
  0
BLOCK
  5
167
100
AcDbEntity
  8
0
100
AcDbBlockBegin
  2
*D5
 70
        65
 10
0.0
 20
0.0
 30
0.0
  3
*D5
  1

  0
POINT
  5
169
100
AcDbEntity
  8
DEFPOINTS
  6
CONTINUOUS
 62
         0
100
AcDbPoint
 10
1326.7033403763
 20
221.0816292757
 30
0.0
  0
POINT
  5
16A
100
AcDbEntity
  8
DEFPOINTS
  6
CONTINUOUS
 62
         0
100
AcDbPoint
 10
1326.7033403763
 20
162.0074490628
 30
0.0
  0
POINT
  5
16B
100
AcDbEntity
  8
DEFPOINTS
  6
CONTINUOUS
 62
         0
100
AcDbPoint
 10
1457.5033403763
 20
155.8730539295
 30
0.0
  0
LINE
  5
16C
100
AcDbEntity
  8
_Y__________
  6
CONTINUOUS
 62
         4
100
AcDbLine
 10
1326.7033403763
 20
163.3574490628
 30
0.0
 11
1326.7033403763
 21
221.7566292757
 31
0.0
  0
LINE
  5
16D
100
AcDbEntity
  8
_Y__________
  6
CONTINUOUS
 62
         4
100
AcDbLine
 10
1457.5033403763
 20
157.2230539295
 30
0.0
 11
1457.5033403763
 21
221.7566292757
 31
0.0
  0
LINE
  5
16E
100
AcDbEntity
  8
_Y__________
  6
CONTINUOUS
 62
         4
100
AcDbLine
 10
1326.7033403763
 20
221.0816292757
 30
0.0
 11
1457.5033403763
 21
221.0816292757
 31
0.0
  0
SOLID
  5
16F
100
AcDbEntity
  8
_Y__________
  6
CONTINUOUS
 62
         4
100
AcDbTrace
 10
1326.7033403763
 20
221.0816292757
 30
0.0
 11
1329.4033403763
 21
221.4866292757
 31
0.0
 12
1329.4033403763
 22
220.6766292757
 32
0.0
 13
1326.7033403763
 23
221.0816292757
 33
0.0
  0
SOLID
  5
170
100
AcDbEntity
  8
_Y__________
  6
CONTINUOUS
 62
         4
100
AcDbTrace
 10
1457.5033403763
 20
221.0816292757
 30
0.0
 11
1454.8033403763
 21
220.6766292757
 31
0.0
 12
1454.8033403763
 22
221.4866292757
 32
0.0
 13
1457.5033403763
 23
221.0816292757
 33
0.0
  0
TEXT
  5
172
100
AcDbEntity
  8
_Y__________
  6
CONTINUOUS
 62
         4
100
AcDbText
 10
1388.3053769749
 20
223.1066292757
 30
0.0
 40
2.7
  1
130.8
  7
BOX
100
AcDbText
  0
ENDBLK
  5
173
100
AcDbEntity
  8
0
  6
CONTINUOUS
100
AcDbBlockEnd
  0
BLOCK
  5
175
100
AcDbEntity
  8
0
100
AcDbBlockBegin
  2
*D6
 70
        65
 10
0.0
 20
0.0
 30
0.0
  3
*D6
  1

  0
POINT
  5
177
100
AcDbEntity
  8
DEFPOINTS
  6
CONTINUOUS
 62
         0
100
AcDbPoint
 10
1392.1033403763
 20
212.5903062135
 30
0.0
  0
POINT
  5
178
100
AcDbEntity
  8
DEFPOINTS
  6
CONTINUOUS
 62
         0
100
AcDbPoint
 10
1392.1033403763
 20
172.2825579953
 30
0.0
  0
POINT
  5
179
100
AcDbEntity
  8
DEFPOINTS
  6
CONTINUOUS
 62
         0
100
AcDbPoint
 10
1457.5033403763
 20
155.8730539295
 30
0.0
  0
LINE
  5
17A
100
AcDbEntity
  8
_Y__________
  6
CONTINUOUS
 62
         4
100
AcDbLine
 10
1392.1033403763
 20
173.6325579953
 30
0.0
 11
1392.1033403763
 21
213.2653062135
 31
0.0
  0
LINE
  5
17B
100
AcDbEntity
  8
_Y__________
  6
CONTINUOUS
 62
         4
100
AcDbLine
 10
1457.5033403763
 20
157.2230539295
 30
0.0
 11
1457.5033403763
 21
213.2653062135
 31
0.0
  0
LINE
  5
17C
100
AcDbEntity
  8
_Y__________
  6
CONTINUOUS
 62
         4
100
AcDbLine
 10
1392.1033403763
 20
212.5903062135
 30
0.0
 11
1457.5033403763
 21
212.5903062135
 31
0.0
  0
SOLID
  5
17D
100
AcDbEntity
  8
_Y__________
  6
CONTINUOUS
 62
         4
100
AcDbTrace
 10
1392.1033403763
 20
212.5903062135
 30
0.0
 11
1394.8033403763
 21
212.9953062135
 31
0.0
 12
1394.8033403763
 22
212.1853062135
 32
0.0
 13
1392.1033403763
 23
212.5903062135
 33
0.0
  0
SOLID
  5
17E
100
AcDbEntity
  8
_Y__________
  6
CONTINUOUS
 62
         4
100
AcDbTrace
 10
1457.5033403763
 20
212.5903062135
 30
0.0
 11
1454.8033403763
 21
212.1853062135
 31
0.0
 12
1454.8033403763
 22
212.9953062135
 32
0.0
 13
1457.5033403763
 23
212.5903062135
 33
0.0
  0
TEXT
  5
180
100
AcDbEntity
  8
_Y__________
  6
CONTINUOUS
 62
         4
100
AcDbText
 10
1420.5139102613
 20
214.6153062135
 30
0.0
 40
2.7
  1
65.4
  7
BOX
100
AcDbText
  0
ENDBLK
  5
181
100
AcDbEntity
  8
0
  6
CONTINUOUS
100
AcDbBlockEnd
  0
ENDSEC
  0
SECTION
  2
ENTITIES
  0
ARC
  5
25
100
AcDbEntity
  8
_Y__________
  6
CONTINUOUS
 62
         7
100
AcDbCircle
 10
1418.1033403763
 20
-43.4433347407
 30
0.0
 40
1.0
100
AcDbArc
 50
270.0
 51
360.0
  0
ARC
  5
26
100
AcDbEntity
  8
_Y__________
  6
CONTINUOUS
 62
         7
100
AcDbCircle
 10
1395.1033403763
 20
-43.4433347407
 30
0.0
 40
1.0
100
AcDbArc
 50
180.0
 51
270.0
  0
ARC
  5
27
100
AcDbEntity
  8
_Y__________
  6
CONTINUOUS
 62
         7
100
AcDbCircle
 10
1395.1033403763
 20
17.5566652593
 30
0.0
 40
1.0
100
AcDbArc
 50
90.0
 51
180.0
  0
ARC
  5
28
100
AcDbEntity
  8
_Y__________
  6
CONTINUOUS
 62
         7
100
AcDbCircle
 10
1418.1033403763
 20
17.5566652593
 30
0.0
 40
1.0
100
AcDbArc
 50
0.0
 51
90.0
  0
ARC
  5
29
100
AcDbEntity
  8
_Y__________
  6
CONTINUOUS
 62
         7
100
AcDbCircle
 10
1395.1033403763
 20
119.6846417294
 30
0.0
 40
1.0
100
AcDbArc
 50
180.0
 51
270.0
  0
ARC
  5
2A
100
AcDbEntity
  8
_Y__________
  6
CONTINUOUS
 62
         7
100
AcDbCircle
 10
1418.1033403763
 20
119.6846417294
 30
0.0
 40
1.0
100
AcDbArc
 50
270.0
 51
360.0
  0
ARC
  5
2B
100
AcDbEntity
  8
_Y__________
  6
CONTINUOUS
 62
         7
100
AcDbCircle
 10
1395.1033403763
 20
180.6846417294
 30
0.0
 40
1.0
100
AcDbArc
 50
90.0
 51
180.0
  0
ARC
  5
2C
100
AcDbEntity
  8
_Y__________
  6
CONTINUOUS
 62
         7
100
AcDbCircle
 10
1418.1033403763
 20
180.6846417294
 30
0.0
 40
1.0
100
AcDbArc
 50
0.0
 51
90.0
  0
INSERT
  5
65
100
AcDbEntity
  8
0
  6
CONTINUOUS
100
AcDbBlockReference
  2
*X0
 10
0.0
 20
0.0
 30
0.0
  0
ARC
  5
66
100
AcDbEntity
  8
L1_100
  6
CONTINUOUS
 62
         7
100
AcDbCircle
 10
1422.1033403763
 20
-30.9655593726
 30
0.0
 40
3.0
100
AcDbArc
 50
90.0
 51
180.0
  0
ARC
  5
67
100
AcDbEntity
  8
L1_100
  6
CONTINUOUS
 62
         7
100
AcDbCircle
 10
1422.1033403763
 20
5.0344406274
 30
0.0
 40
3.0
100
AcDbArc
 50
180.0
 51
270.0
  0
DIMENSION
  5
6B
100
AcDbEntity
  8
L1_100
  6
CONTINUOUS
 62
         4
100
AcDbDimension
  2
*D1
 10
1392.1033403763
 20
201.6159208341
 30
0.0
 11
1412.9089268505
 21
203.6409208341
 31
0.0
  3
DIMSTYLE1
100
AcDbAlignedDimension
 13
1392.1033403763
 23
172.2825579953
 33
0.0
 14
1432.1033403763
 24
164.1846417294
 34
0.0
100
AcDbRotatedDimension
  0
CIRCLE
  5
78
100
AcDbEntity
  8
L1_100
  6
CONTINUOUS
 62
         7
100
AcDbCircle
 10
1623.2833403763
 20
150.1624170975
 30
0.0
 40
15.0
  0
CIRCLE
  5
79
100
AcDbEntity
  8
L1_100
  6
CONTINUOUS
 62
         7
100
AcDbCircle
 10
1623.2833403763
 20
150.1624170975
 30
0.0
 40
7.1435
  0
DIMENSION
  5
7C
100
AcDbEntity
  8
L1_100
  6
CONTINUOUS
 62
         4
100
AcDbDimension
  2
*D2
 10
1434.0398734082
 20
-4.9750453814
 30
0.0
 11
1477.619903479
 21
-0.3113891527
 31
0.0
 70
         2
  3
DIMSTYLE1
100
AcDb2LineAngularDimension
 13
1406.6004726075
 23
-5.0405593726
 33
0.0
 14
1542.8396477845
 24
-5.0405593726
 34
0.0
 15
1458.6033403763
 25
-5.7549225405
 35
0.0
 16
1476.269903479
 26
-1.6613891527
 36
0.0
  0
ARC
  5
8B
100
AcDbEntity
  8
L1_100
  6
CONTINUOUS
 62
         7
100
AcDbCircle
 10
1434.1033403763
 20
-22.955066096
 30
0.0
 40
2.0
100
AcDbArc
 50
91.8185
 51
180.0
  0
ARC
  5
8C
100
AcDbEntity
  8
L1_100
  6
CONTINUOUS
 62
         7
100
AcDbCircle
 10
1434.1033403763
 20
-2.9760526491
 30
0.0
 40
2.0
100
AcDbArc
 50
180.0
 51
268.1815
  0
LINE
  5
8D
100
AcDbEntity
  8
L1_100
  6
CONTINUOUS
 62
         7
100
AcDbLine
 10
1431.1033403763
 20
-27.9655593726
 30
0.0
 11
1422.1033403763
 21
-27.9655593726
 31
0.0
  0
LINE
  5
8E
100
AcDbEntity
  8
L1_100
  6
CONTINUOUS
 62
         7
100
AcDbLine
 10
1431.1033403763
 20
2.0344406274
 30
0.0
 11
1422.1033403763
 21
2.0344406274
 31
0.0
  0
LINE
  5
8F
100
AcDbEntity
  8
L1_100
  6
CONTINUOUS
 62
         7
100
AcDbLine
 10
1432.1033403763
 20
-26.9655593726
 30
0.0
 11
1432.1033403763
 21
-22.955066096
 31
0.0
  0
LINE
  5
90
100
AcDbEntity
  8
L1_100
  6
CENTER
 62
         1
100
AcDbLine
 10
1436.1033403763
 20
-24.0591583534
 30
0.0
 11
1436.1033403763
 21
-1.73324985
 31
0.0
  0
LINE
  5
91
100
AcDbEntity
  8
L1_100
  6
CONTINUOUS
 62
         7
100
AcDbLine
 10
1460.0033403763
 20
-5.7993718043
 30
0.0
 11
1434.0398734082
 21
-4.9750453814
 31
0.0
  0
LINE
  5
92
100
AcDbEntity
  8
L1_100
  6
CONTINUOUS
 62
         7
100
AcDbLine
 10
1460.0033403763
 20
-20.1317469408
 30
0.0
 11
1434.0398734082
 21
-20.9560733637
 31
0.0
  0
LINE
  5
93
100
AcDbEntity
  8
L1_100
  6
CONTINUOUS
 62
         7
100
AcDbLine
 10
1461.5033403763
 20
-18.6761962046
 30
0.0
 11
1461.5033403763
 21
-7.2993718043
 31
0.0
  0
LINE
  5
94
100
AcDbEntity
  8
L1_100
  6
CONTINUOUS
 62
         7
100
AcDbLine
 10
1460.0033403763
 20
-20.1761962046
 30
0.0
 11
1461.5033403763
 21
-18.6761962046
 31
0.0
  0
LINE
  5
95
100
AcDbEntity
  8
L1_100
  6
CONTINUOUS
 62
         7
100
AcDbLine
 10
1460.0033403763
 20
-5.7993718043
 30
0.0
 11
1461.5033403763
 21
-7.2993718043
 31
0.0
  0
DIMENSION
  5
98
100
AcDbEntity
  8
L1_100
  6
CONTINUOUS
 62
         4
100
AcDbDimension
  2
*D3
 10
1505.79173329
 20
-5.8469960155
 30
0.0
 11
1503.76673329
 21
-4.6995886439
 31
0.0
  3
DIMSTYLE1
100
AcDbAlignedDimension
 13
1461.5033403763
 23
-5.8469960155
 33
0.0
 14
1461.5033403763
 24
-20.0841227296
 34
0.0
 50
90.0
100
AcDbRotatedDimension
  0
ARC
  5
A5
100
AcDbEntity
  8
L1_100
  6
CONTINUOUS
 62
         7
100
AcDbCircle
 10
1431.1033403763
 20
1.0344406274
 30
0.0
 40
1.0
100
AcDbArc
 50
0.0
 51
90.0
  0
ARC
  5
A6
100
AcDbEntity
  8
L1_100
  6
CONTINUOUS
 62
         7
100
AcDbCircle
 10
1431.1033403763
 20
-26.9655593726
 30
0.0
 40
1.0
100
AcDbArc
 50
270.0
 51
360.0
  0
LINE
  5
A7
100
AcDbEntity
  8
L1_100
  6
CONTINUOUS
 62
         7
100
AcDbLine
 10
1432.1033403763
 20
-2.9760526491
 30
0.0
 11
1432.1033403763
 21
1.0344406274
 31
0.0
  0
LINE
  5
A8
100
AcDbEntity
  8
L1_100
  6
CONTINUOUS
 62
         7
100
AcDbLine
 10
1458.5652205916
 20
-12.1877840045
 30
0.0
 11
1458.5652205916
 21
-13.7877840045
 31
0.0
  0
LINE
  5
A9
100
AcDbEntity
  8
L1_100
  6
CONTINUOUS
 62
         7
100
AcDbLine
 10
1458.5652205916
 20
-13.7877840045
 30
0.0
 11
1458.1033403763
 21
-12.9877840045
 31
0.0
  0
LINE
  5
AA
100
AcDbEntity
  8
L1_100
  6
CONTINUOUS
 62
         7
100
AcDbLine
 10
1458.5652205916
 20
-12.1877840045
 30
0.0
 11
1458.1033403763
 21
-12.9877840045
 31
0.0
  0
LINE
  5
AB
100
AcDbEntity
  8
L1_100
  6
CONTINUOUS
 62
         7
100
AcDbLine
 10
1459.5114819475
 20
-12.1877840045
 30
0.0
 11
1459.5114819475
 21
-13.7877840045
 31
0.0
  0
LINE
  5
AC
100
AcDbEntity
  8
L1_100
  6
CONTINUOUS
 62
         7
100
AcDbLine
 10
1461.5033403763
 20
-14.9377840045
 30
0.0
 11
1459.5114819475
 21
-13.7877840045
 31
0.0
  0
LINE
  5
AD
100
AcDbEntity
  8
L1_100
  6
CONTINUOUS
 62
         7
100
AcDbLine
 10
1461.5033403763
 20
-11.0377840045
 30
0.0
 11
1459.5114819475
 21
-12.1877840045
 31
0.0
  0
LINE
  5
AE
100
AcDbEntity
  8
L1_100
  6
CONTINUOUS
 62
         7
100
AcDbLine
 10
1458.5652205916
 20
-13.7877840045
 30
0.0
 11
1459.5114819475
 21
-13.7877840045
 31
0.0
  0
LINE
  5
AF
100
AcDbEntity
  8
L1_100
  6
CONTINUOUS
 62
         7
100
AcDbLine
 10
1458.5652205916
 20
-12.1877840045
 30
0.0
 11
1459.5114819475
 21
-12.1877840045
 31
0.0
  0
CIRCLE
  5
B0
100
AcDbEntity
  8
L1_100
  6
CONTINUOUS
 62
         7
100
AcDbCircle
 10
1623.2833403763
 20
150.1624170975
 30
0.0
 40
2.125
  0
CIRCLE
  5
B1
100
AcDbEntity
  8
L1_100
  6
CONTINUOUS
 62
         7
100
AcDbCircle
 10
1623.2833403763
 20
150.1624170975
 30
0.0
 40
1.0
  0
LINE
  5
B2
100
AcDbEntity
  8
L1_100
  6
CONTINUOUS
 62
         7
100
AcDbLine
 10
1394.1033403763
 20
180.6846417294
 30
0.0
 11
1394.1033403763
 21
119.6846417294
 31
0.0
  0
LINE
  5
B3
100
AcDbEntity
  8
L1_100
  6
CENTER
 62
         1
100
AcDbLine
 10
1392.1033403763
 20
172.4096417294
 30
0.0
 11
1392.1033403763
 21
127.9596417294
 31
0.0
  0
LINE
  5
B4
100
AcDbEntity
  8
L1_100
  6
CONTINUOUS
 62
         7
100
AcDbLine
 10
1326.7033403763
 20
162.0074490628
 30
0.0
 11
1326.7033403763
 21
138.361834396
 31
0.0
  0
LINE
  5
B5
100
AcDbEntity
  8
_Y__________
  6
CONTINUOUS
 62
         7
100
AcDbLine
 10
1367.7033403763
 20
-19.9933347407
 30
0.0
 11
1371.773659774
 21
-12.9433347407
 31
0.0
  0
LINE
  5
B6
100
AcDbEntity
  8
_Y__________
  6
CONTINUOUS
 62
         7
100
AcDbLine
 10
1367.7033403763
 20
-5.8933347407
 30
0.0
 11
1371.773659774
 21
-12.9433347407
 31
0.0
  0
LINE
  5
B7
100
AcDbEntity
  8
_Y__________
  6
CONTINUOUS
 62
         7
100
AcDbLine
 10
1367.7033403763
 20
-5.8933347407
 30
0.0
 11
1367.7033403763
 21
-19.9933347407
 31
0.0
  0
LINE
  5
B8
100
AcDbEntity
  8
_Y__________
  6
CONTINUOUS
 62
         7
100
AcDbLine
 10
1367.7033403763
 20
-19.9933347407
 30
0.0
 11
1335.7033403763
 21
-19.9933347407
 31
0.0
  0
LINE
  5
B9
100
AcDbEntity
  8
_Y__________
  6
CONTINUOUS
 62
         7
100
AcDbLine
 10
1367.7033403763
 20
-5.8933347407
 30
0.0
 11
1335.7033403763
 21
-5.8933347407
 31
0.0
  0
LINE
  5
BA
100
AcDbEntity
  8
_Y__________
  6
CONTINUOUS
 62
         7
100
AcDbLine
 10
1419.1033403763
 20
-43.4433347407
 30
0.0
 11
1419.1033403763
 21
-30.9655593726
 31
0.0
  0
LINE
  5
BB
100
AcDbEntity
  8
_Y__________
  6
CONTINUOUS
 62
         7
100
AcDbLine
 10
1419.1033403763
 20
5.0344406274
 30
0.0
 11
1419.1033403763
 21
17.5566652593
 31
0.0
  0
LINE
  5
BC
100
AcDbEntity
  8
_Y__________
  6
DASHED
 62
         2
100
AcDbLine
 10
1593.3293176535
 20
142.1346417294
 30
0.0
 11
1599.8833403763
 21
142.1346417294
 31
0.0
  0
LINE
  5
BD
100
AcDbEntity
  8
_Y__________
  6
DASHED
 62
         2
100
AcDbLine
 10
1593.3293176535
 20
158.2346417294
 30
0.0
 11
1599.8833403763
 21
158.2346417294
 31
0.0
  0
LINE
  5
BE
100
AcDbEntity
  8
_Y__________
  6
DASHED
 62
         2
100
AcDbLine
 10
1600.6833403763
 20
157.4346417294
 30
0.0
 11
1600.6833403763
 21
142.9346417294
 31
0.0
  0
LINE
  5
BF
100
AcDbEntity
  8
_Y__________
  6
DASHED
 62
         2
100
AcDbLine
 10
1593.3293176535
 20
158.2346417294
 30
0.0
 11
1592.9360087767
 21
158.6279506061
 31
0.0
  0
LINE
  5
C0
100
AcDbEntity
  8
_Y__________
  6
DASHED
 62
         2
100
AcDbLine
 10
1593.3293176535
 20
142.1346417294
 30
0.0
 11
1592.9360087767
 21
141.7413328526
 31
0.0
  0
LINE
  5
C1
100
AcDbEntity
  8
_Y__________
  6
DASHED
 62
         2
100
AcDbLine
 10
1600.6833403763
 20
142.9346417294
 30
0.0
 11
1599.8833403763
 21
142.1346417294
 31
0.0
  0
LINE
  5
C2
100
AcDbEntity
  8
_Y__________
  6
DASHED
 62
         2
100
AcDbLine
 10
1600.6833403763
 20
157.4346417294
 30
0.0
 11
1599.8833403763
 21
158.2346417294
 31
0.0
  0
LINE
  5
C3
100
AcDbEntity
  8
_Y__________
  6
DASHED
 62
         2
100
AcDbLine
 10
1645.8833403763
 20
157.4346417294
 30
0.0
 11
1645.8833403763
 21
142.9346417294
 31
0.0
  0
LINE
  5
C4
100
AcDbEntity
  8
_Y__________
  6
DASHED
 62
         2
100
AcDbLine
 10
1653.237363099
 20
158.2346417294
 30
0.0
 11
1646.6833403763
 21
158.2346417294
 31
0.0
  0
LINE
  5
C5
100
AcDbEntity
  8
_Y__________
  6
DASHED
 62
         2
100
AcDbLine
 10
1653.237363099
 20
142.1346417294
 30
0.0
 11
1646.6833403763
 21
142.1346417294
 31
0.0
  0
LINE
  5
C6
100
AcDbEntity
  8
_Y__________
  6
DASHED
 62
         2
100
AcDbLine
 10
1653.237363099
 20
158.2346417294
 30
0.0
 11
1653.6306719758
 21
158.6279506061
 31
0.0
  0
LINE
  5
C7
100
AcDbEntity
  8
_Y__________
  6
DASHED
 62
         2
100
AcDbLine
 10
1653.237363099
 20
142.1346417294
 30
0.0
 11
1653.6306719758
 21
141.7413328526
 31
0.0
  0
LINE
  5
C8
100
AcDbEntity
  8
_Y__________
  6
DASHED
 62
         2
100
AcDbLine
 10
1646.6833403763
 20
158.2346417294
 30
0.0
 11
1645.8833403763
 21
157.4346417294
 31
0.0
  0
LINE
  5
C9
100
AcDbEntity
  8
_Y__________
  6
DASHED
 62
         2
100
AcDbLine
 10
1645.8833403763
 20
142.9346417294
 30
0.0
 11
1646.6833403763
 21
142.1346417294
 31
0.0
  0
ARC
  5
CA
100
AcDbEntity
  8
_Y__________
  6
DASHED
 62
         2
100
AcDbCircle
 10
1623.2833403763
 20
150.1846417294
 30
0.0
 40
26.5
100
AcDbArc
 50
197.6843950499
 51
342.3156049501
  0
ARC
  5
CB
100
AcDbEntity
  8
_Y__________
  6
DASHED
 62
         2
100
AcDbCircle
 10
1623.2833403763
 20
150.1846417294
 30
0.0
 40
26.5
100
AcDbArc
 50
17.6843950499
 51
162.3156049501
  0
LINE
  5
CC
100
AcDbEntity
  8
_Y__________
  6
CONTINUOUS
 62
         7
100
AcDbLine
 10
1413.7033403763
 20
143.7674772465
 30
0.0
 11
1413.7033403763
 21
118.6846417294
 31
0.0
  0
LINE
  5
CD
100
AcDbEntity
  8
_Y__________
  6
CONTINUOUS
 62
         7
100
AcDbLine
 10
1411.2033403763
 20
142.7765380584
 30
0.0
 11
1411.2033403763
 21
123.0150147105
 31
0.0
  0
LINE
  5
CE
100
AcDbEntity
  8
_Y__________
  6
CONTINUOUS
 62
         7
100
AcDbLine
 10
1406.2033403763
 20
142.1346417294
 30
0.0
 11
1406.2033403763
 21
123.0150147105
 31
0.0
  0
LINE
  5
CF
100
AcDbEntity
  8
_Y__________
  6
CONTINUOUS
 62
         7
100
AcDbLine
 10
1403.7033403763
 20
141.6346417294
 30
0.0
 11
1403.7033403763
 21
118.6846417294
 31
0.0
  0
LINE
  5
D0
100
AcDbEntity
  8
_Y__________
  6
CONTINUOUS
 62
         4
100
AcDbLine
 10
1394.1033403763
 20
141.6346417294
 30
0.0
 11
1403.7033403763
 21
141.6346417294
 31
0.0
  0
LINE
  5
D1
100
AcDbEntity
  8
_Y__________
  6
CONTINUOUS
 62
         7
100
AcDbLine
 10
1394.1033403763
 20
142.1346417294
 30
0.0
 11
1408.0533403763
 21
142.1346417294
 31
0.0
  0
LINE
  5
D2
100
AcDbEntity
  8
_Y__________
  6
CONTINUOUS
 62
         7
100
AcDbLine
 10
1394.1033403763
 20
158.2346417294
 30
0.0
 11
1408.0533403763
 21
158.2346417294
 31
0.0
  0
ARC
  5
D3
100
AcDbEntity
  8
_Y__________
  6
CONTINUOUS
 62
         7
100
AcDbCircle
 10
1408.0533403763
 20
150.1846417294
 30
0.0
 40
8.05
100
AcDbArc
 50
270.0
 51
450.0
  0
ARC
  5
D4
100
AcDbEntity
  8
_Y__________
  6
CONTINUOUS
 62
         4
100
AcDbCircle
 10
1408.0533403763
 20
150.1846417294
 30
0.0
 40
8.55
100
AcDbArc
 50
311.3623424579
 51
408.6376575421
  0
LINE
  5
D5
100
AcDbEntity
  8
_Y__________
  6
CONTINUOUS
 62
         4
100
AcDbLine
 10
1411.2033403763
 20
157.5927454004
 30
0.0
 11
1413.7033403763
 21
156.6018062122
 31
0.0
  0
LINE
  5
D6
100
AcDbEntity
  8
_Y__________
  6
CONTINUOUS
 62
         4
100
AcDbLine
 10
1411.2033403763
 20
142.7765380584
 30
0.0
 11
1413.7033403763
 21
143.7674772465
 31
0.0
  0
LINE
  5
D7
100
AcDbEntity
  8
_Y__________
  6
CONTINUOUS
 62
         4
100
AcDbLine
 10
1403.7033403763
 20
141.6346417294
 30
0.0
 11
1406.2033403763
 21
142.1346417294
 31
0.0
  0
LINE
  5
D8
100
AcDbEntity
  8
_Y__________
  6
CONTINUOUS
 62
         4
100
AcDbLine
 10
1403.7033403763
 20
158.7346417294
 30
0.0
 11
1406.2033403763
 21
158.2346417294
 31
0.0
  0
LINE
  5
D9
100
AcDbEntity
  8
_Y__________
  6
CONTINUOUS
 62
         7
100
AcDbLine
 10
1413.7033403763
 20
181.6846417294
 30
0.0
 11
1413.7033403763
 21
156.6018062122
 31
0.0
  0
LINE
  5
DA
100
AcDbEntity
  8
_Y__________
  6
CONTINUOUS
 62
         7
100
AcDbLine
 10
1411.2033403763
 20
177.3542687483
 30
0.0
 11
1411.2033403763
 21
157.5927454004
 31
0.0
  0
LINE
  5
DB
100
AcDbEntity
  8
_Y__________
  6
CONTINUOUS
 62
         7
100
AcDbLine
 10
1406.2033403763
 20
177.3542687483
 30
0.0
 11
1406.2033403763
 21
158.2346417294
 31
0.0
  0
LINE
  5
DC
100
AcDbEntity
  8
_Y__________
  6
CONTINUOUS
 62
         7
100
AcDbLine
 10
1403.7033403763
 20
181.6846417294
 30
0.0
 11
1403.7033403763
 21
158.7346417294
 31
0.0
  0
LINE
  5
DD
100
AcDbEntity
  8
_Y__________
  6
CONTINUOUS
 62
         4
100
AcDbLine
 10
1394.1033403763
 20
158.7346417294
 30
0.0
 11
1403.7033403763
 21
158.7346417294
 31
0.0
  0
ARC
  5
DE
100
AcDbEntity
  8
_Y__________
  6
DASHED
 62
         2
100
AcDbCircle
 10
1214.9233403763
 20
150.1846417294
 30
0.0
 40
26.5
100
AcDbArc
 50
197.6843950499
 51
342.3156049501
  0
ARC
  5
DF
100
AcDbEntity
  8
_Y__________
  6
DASHED
 62
         2
100
AcDbCircle
 10
1214.9233403763
 20
150.1846417294
 30
0.0
 40
26.5
100
AcDbArc
 50
17.6843950499
 51
162.3156049501
  0
LINE
  5
E0
100
AcDbEntity
  8
_Y__________
  6
CONTINUOUS
 62
         7
100
AcDbLine
 10
1237.5233403763
 20
157.4346417294
 30
0.0
 11
1237.5233403763
 21
142.9346417294
 31
0.0
  0
LINE
  5
E1
100
AcDbEntity
  8
_Y__________
  6
CONTINUOUS
 62
         7
100
AcDbLine
 10
1244.877363099
 20
158.2346417294
 30
0.0
 11
1238.3233403763
 21
158.2346417294
 31
0.0
  0
LINE
  5
E2
100
AcDbEntity
  8
_Y__________
  6
CONTINUOUS
 62
         7
100
AcDbLine
 10
1244.877363099
 20
142.1346417294
 30
0.0
 11
1238.3233403763
 21
142.1346417294
 31
0.0
  0
LINE
  5
E3
100
AcDbEntity
  8
_Y__________
  6
CONTINUOUS
 62
         7
100
AcDbLine
 10
1244.877363099
 20
158.2346417294
 30
0.0
 11
1245.2706719758
 21
158.6279506061
 31
0.0
  0
LINE
  5
E4
100
AcDbEntity
  8
_Y__________
  6
CONTINUOUS
 62
         7
100
AcDbLine
 10
1244.877363099
 20
142.1346417294
 30
0.0
 11
1245.2706719758
 21
141.7413328526
 31
0.0
  0
LINE
  5
E5
100
AcDbEntity
  8
_Y__________
  6
CONTINUOUS
 62
         7
100
AcDbLine
 10
1237.5233403763
 20
142.9346417294
 30
0.0
 11
1238.3233403763
 21
142.1346417294
 31
0.0
  0
LINE
  5
E6
100
AcDbEntity
  8
_Y__________
  6
CONTINUOUS
 62
         7
100
AcDbLine
 10
1237.5233403763
 20
157.4346417294
 30
0.0
 11
1238.3233403763
 21
158.2346417294
 31
0.0
  0
LINE
  5
E7
100
AcDbEntity
  8
_Y__________
  6
CONTINUOUS
 62
         7
100
AcDbLine
 10
1184.9693176535
 20
142.1346417294
 30
0.0
 11
1191.5233403763
 21
142.1346417294
 31
0.0
  0
LINE
  5
E8
100
AcDbEntity
  8
_Y__________
  6
CONTINUOUS
 62
         7
100
AcDbLine
 10
1184.9693176535
 20
158.2346417294
 30
0.0
 11
1191.5233403763
 21
158.2346417294
 31
0.0
  0
LINE
  5
E9
100
AcDbEntity
  8
_Y__________
  6
CONTINUOUS
 62
         7
100
AcDbLine
 10
1192.3233403763
 20
157.4346417294
 30
0.0
 11
1192.3233403763
 21
142.9346417294
 31
0.0
  0
LINE
  5
EA
100
AcDbEntity
  8
_Y__________
  6
CONTINUOUS
 62
         7
100
AcDbLine
 10
1184.9693176535
 20
158.2346417294
 30
0.0
 11
1184.5760087767
 21
158.6279506061
 31
0.0
  0
LINE
  5
EB
100
AcDbEntity
  8
_Y__________
  6
CONTINUOUS
 62
         7
100
AcDbLine
 10
1184.9693176535
 20
142.1346417294
 30
0.0
 11
1184.5760087767
 21
141.7413328526
 31
0.0
  0
LINE
  5
EC
100
AcDbEntity
  8
_Y__________
  6
CONTINUOUS
 62
         7
100
AcDbLine
 10
1191.5233403763
 20
158.2346417294
 30
0.0
 11
1192.3233403763
 21
157.4346417294
 31
0.0
  0
LINE
  5
ED
100
AcDbEntity
  8
_Y__________
  6
CONTINUOUS
 62
         7
100
AcDbLine
 10
1192.3233403763
 20
142.9346417294
 30
0.0
 11
1191.5233403763
 21
142.1346417294
 31
0.0
  0
LINE
  5
EE
100
AcDbEntity
  8
_Y__________
  6
CONTINUOUS
 62
         7
100
AcDbLine
 10
1406.2033403763
 20
123.6846417294
 30
0.0
 11
1411.2033403763
 21
123.6846417294
 31
0.0
  0
LINE
  5
EF
100
AcDbEntity
  8
_Y__________
  6
CONTINUOUS
 62
         7
100
AcDbLine
 10
1406.2033403763
 20
176.6846417294
 30
0.0
 11
1411.2033403763
 21
176.6846417294
 31
0.0
  0
LINE
  5
F0
100
AcDbEntity
  8
_Y__________
  6
CENTER
 62
         1
100
AcDbLine
 10
1380.541891064
 20
150.1846417294
 30
0.0
 11
1465.6442364272
 21
150.1846417294
 31
0.0
  0
LINE
  5
F1
100
AcDbEntity
  8
_Y__________
  6
CENTER
 62
         1
100
AcDbLine
 10
1321.1945221388
 20
150.1846417294
 30
0.0
 11
1367.7664645448
 21
150.1846417294
 31
0.0
  0
LINE
  5
F2
100
AcDbEntity
  8
_Y__________
  6
CONTINUOUS
 62
         7
100
AcDbLine
 10
1406.2033403763
 20
177.3542687483
 30
0.0
 11
1403.7031983699
 21
181.6846417294
 31
0.0
  0
LINE
  5
F3
100
AcDbEntity
  8
_Y__________
  6
CONTINUOUS
 62
         7
100
AcDbLine
 10
1411.2033403763
 20
177.3542687483
 30
0.0
 11
1413.7034823826
 21
181.6846417294
 31
0.0
  0
LINE
  5
F4
100
AcDbEntity
  8
_Y__________
  6
CONTINUOUS
 62
         7
100
AcDbLine
 10
1413.7034823826
 20
181.6846417294
 30
0.0
 11
1418.1033403763
 21
181.6846417294
 31
0.0
  0
LINE
  5
F5
100
AcDbEntity
  8
_Y__________
  6
CONTINUOUS
 62
         7
100
AcDbLine
 10
1395.1033403763
 20
181.6846417294
 30
0.0
 11
1403.7031983699
 21
181.6846417294
 31
0.0
  0
LINE
  5
F6
100
AcDbEntity
  8
_Y__________
  6
CONTINUOUS
 62
         7
100
AcDbLine
 10
1413.7034823826
 20
118.6846417294
 30
0.0
 11
1418.1033403763
 21
118.6846417294
 31
0.0
  0
LINE
  5
F7
100
AcDbEntity
  8
_Y__________
  6
CONTINUOUS
 62
         7
100
AcDbLine
 10
1406.2033403763
 20
123.0150147105
 30
0.0
 11
1403.7031983699
 21
118.6846417294
 31
0.0
  0
LINE
  5
F8
100
AcDbEntity
  8
_Y__________
  6
CONTINUOUS
 62
         7
100
AcDbLine
 10
1411.2033403763
 20
123.0150147105
 30
0.0
 11
1413.7034823826
 21
118.6846417294
 31
0.0
  0
LINE
  5
F9
100
AcDbEntity
  8
_Y__________
  6
CONTINUOUS
 62
         7
100
AcDbLine
 10
1392.6033403763
 20
172.4825579953
 30
0.0
 11
1393.3497505378
 21
172.2825579953
 31
0.0
  0
LINE
  5
FA
100
AcDbEntity
  8
_Y__________
  6
CONTINUOUS
 62
         7
100
AcDbLine
 10
1393.3497505378
 20
172.2825579953
 30
0.0
 11
1393.7033403763
 21
172.2825579953
 31
0.0
  0
ARC
  5
FB
100
AcDbEntity
  8
_Y__________
  6
CONTINUOUS
 62
         7
100
AcDbCircle
 10
1393.7033403763
 20
172.6825579953
 30
0.0
 40
0.4
100
AcDbArc
 50
270.0
 51
360.0
  0
LINE
  5
FC
100
AcDbEntity
  8
_Y__________
  6
CONTINUOUS
 62
         7
100
AcDbLine
 10
1392.6033403763
 20
127.8867254635
 30
0.0
 11
1393.3497505378
 21
128.0867254635
 31
0.0
  0
ARC
  5
FD
100
AcDbEntity
  8
_Y__________
  6
CONTINUOUS
 62
         7
100
AcDbCircle
 10
1393.7033403763
 20
127.6867254635
 30
0.0
 40
0.4
100
AcDbArc
 50
0.0
 51
90.0
  0
LINE
  5
FE
100
AcDbEntity
  8
_Y__________
  6
CONTINUOUS
 62
         7
100
AcDbLine
 10
1393.3497505378
 20
128.0867254635
 30
0.0
 11
1393.7033403763
 21
128.0867254635
 31
0.0
  0
LINE
  5
FF
100
AcDbEntity
  8
_Y__________
  6
CONTINUOUS
 62
         7
100
AcDbLine
 10
1392.6033403763
 20
172.4825579953
 30
0.0
 11
1392.6033403763
 21
127.8867254635
 31
0.0
  0
LINE
  5
100
100
AcDbEntity
  8
_Y__________
  6
CENTER
 62
         1
100
AcDbLine
 10
1392.1033403763
 20
172.4096417294
 30
0.0
 11
1392.1033403763
 21
127.9596417294
 31
0.0
  0
LINE
  5
101
100
AcDbEntity
  8
_Y__________
  6
CONTINUOUS
 62
         7
100
AcDbLine
 10
1395.1033403763
 20
118.6846417294
 30
0.0
 11
1403.7031983699
 21
118.6846417294
 31
0.0
  0
LINE
  5
102
100
AcDbEntity
  8
_Y__________
  6
CONTINUOUS
 62
         7
100
AcDbLine
 10
1326.7033403763
 20
162.0074490628
 30
0.0
 11
1326.7033403763
 21
138.361834396
 31
0.0
  0
ARC
  5
103
100
AcDbEntity
  8
_Y__________
  6
CONTINUOUS
 62
         7
100
AcDbCircle
 10
1327.7033403763
 20
138.361834396
 30
0.0
 40
1.0
100
AcDbArc
 50
180.0
 51
261.7029
  0
ARC
  5
104
100
AcDbEntity
  8
_Y__________
  6
CONTINUOUS
 62
         7
100
AcDbCircle
 10
1327.7033403763
 20
162.0074490628
 30
0.0
 40
1.0
100
AcDbArc
 50
98.2971
 51
180.0
  0
LINE
  5
105
100
AcDbEntity
  8
_Y__________
  6
CONTINUOUS
 62
         7
100
AcDbLine
 10
1327.5590342598
 20
137.3723013017
 30
0.0
 11
1392.6033403763
 21
127.8867254635
 31
0.0
  0
LINE
  5
106
100
AcDbEntity
  8
_Y__________
  6
CONTINUOUS
 62
         7
100
AcDbLine
 10
1327.5590342598
 20
162.9969821571
 30
0.0
 11
1392.6033403763
 21
172.4825579953
 31
0.0
  0
LINE
  5
107
100
AcDbEntity
  8
_Y__________
  6
CONTINUOUS
 62
         7
100
AcDbLine
 10
1394.1033403763
 20
180.6846417294
 30
0.0
 11
1394.1033403763
 21
119.6846417294
 31
0.0
  0
LINE
  5
108
100
AcDbEntity
  8
_Y__________
  6
CONTINUOUS
 62
         7
100
AcDbLine
 10
1419.1033403763
 20
180.6846417294
 30
0.0
 11
1419.1033403763
 21
168.2068663613
 31
0.0
  0
LINE
  5
109
100
AcDbEntity
  8
_Y__________
  6
CENTER
 62
         1
100
AcDbLine
 10
1408.7033403763
 20
181.6846417294
 30
0.0
 11
1408.7033403763
 21
118.6846417294
 31
0.0
  0
LINE
  5
10A
100
AcDbEntity
  8
_Y__________
  6
CENTER
 62
         1
100
AcDbLine
 10
1323.7864097888
 20
-12.9433347407
 30
0.0
 11
1466.3917525764
 21
-12.9433347407
 31
0.0
  0
LINE
  5
10B
100
AcDbEntity
  8
_Y__________
  6
CONTINUOUS
 62
         5
100
AcDbLine
 10
1335.7033403763
 20
-4.9433347407
 30
0.0
 11
1357.7033403763
 21
-4.9433347407
 31
0.0
  0
LINE
  5
10C
100
AcDbEntity
  8
_Y__________
  6
CONTINUOUS
 62
         5
100
AcDbLine
 10
1335.7033403763
 20
-20.9433347407
 30
0.0
 11
1357.7033403763
 21
-20.9433347407
 31
0.0
  0
ARC
  5
10D
100
AcDbEntity
  8
_Y__________
  6
CONTINUOUS
 62
         7
100
AcDbCircle
 10
1328.2033403763
 20
-22.9433347407
 30
0.0
 40
1.5
100
AcDbArc
 50
90.0
 51
180.0
  0
ARC
  5
10E
100
AcDbEntity
  8
_Y__________
  6
CONTINUOUS
 62
         7
100
AcDbCircle
 10
1334.5287420363
 20
-21.0433347407
 30
0.0
 40
0.6
100
AcDbArc
 50
255.0
 51
270.0
  0
LINE
  5
10F
100
AcDbEntity
  8
_Y__________
  6
CONTINUOUS
 62
         7
100
AcDbLine
 10
1333.7033403763
 20
-21.4433347407
 30
0.0
 11
1334.3734506093
 21
-21.6228902364
 31
0.0
  0
LINE
  5
110
100
AcDbEntity
  8
_Y__________
  6
CONTINUOUS
 62
         7
100
AcDbLine
 10
1328.2033403763
 20
-21.4433347407
 30
0.0
 11
1333.7033403763
 21
-21.4433347407
 31
0.0
  0
LINE
  5
111
100
AcDbEntity
  8
_Y__________
  6
CONTINUOUS
 62
         7
100
AcDbLine
 10
1334.5287420363
 20
-21.6433347407
 30
0.0
 11
1335.1033403763
 21
-21.6433347407
 31
0.0
  0
ARC
  5
112
100
AcDbEntity
  8
_Y__________
  6
CONTINUOUS
 62
         7
100
AcDbCircle
 10
1335.1033403763
 20
-21.0433347407
 30
0.0
 40
0.6
100
AcDbArc
 50
270.0
 51
360.0
  0
LINE
  5
113
100
AcDbEntity
  8
_Y__________
  6
CONTINUOUS
 62
         7
100
AcDbLine
 10
1333.7033403763
 20
-4.4433347407
 30
0.0
 11
1333.7033403763
 21
-21.4433347407
 31
0.0
  0
ARC
  5
114
100
AcDbEntity
  8
_Y__________
  6
CONTINUOUS
 62
         7
100
AcDbCircle
 10
1328.2033403763
 20
-2.9433347407
 30
0.0
 40
1.5
100
AcDbArc
 50
180.0
 51
270.0
  0
LINE
  5
115
100
AcDbEntity
  8
_Y__________
  6
CONTINUOUS
 62
         7
100
AcDbLine
 10
1328.2033403763
 20
-4.4433347407
 30
0.0
 11
1333.7033403763
 21
-4.4433347407
 31
0.0
  0
LINE
  5
116
100
AcDbEntity
  8
_Y__________
  6
CONTINUOUS
 62
         7
100
AcDbLine
 10
1333.7033403763
 20
-4.4433347407
 30
0.0
 11
1334.3734506093
 21
-4.2637792449
 31
0.0
  0
ARC
  5
117
100
AcDbEntity
  8
_Y__________
  6
CONTINUOUS
 62
         7
100
AcDbCircle
 10
1334.5287420363
 20
-4.8433347407
 30
0.0
 40
0.6
100
AcDbArc
 50
90.0
 51
105.0
  0
LINE
  5
118
100
AcDbEntity
  8
_Y__________
  6
CONTINUOUS
 62
         7
100
AcDbLine
 10
1334.5287420363
 20
-4.2433347407
 30
0.0
 11
1335.1033403763
 21
-4.2433347407
 31
0.0
  0
ARC
  5
119
100
AcDbEntity
  8
_Y__________
  6
CONTINUOUS
 62
         7
100
AcDbCircle
 10
1335.1033403763
 20
-4.8433347407
 30
0.0
 40
0.6
100
AcDbArc
 50
360.0
 51
450.0
  0
LINE
  5
11A
100
AcDbEntity
  8
_Y__________
  6
CONTINUOUS
 62
         7
100
AcDbLine
 10
1335.7033403763
 20
-4.8433347407
 30
0.0
 11
1335.7033403763
 21
-21.0433347407
 31
0.0
  0
LINE
  5
11B
100
AcDbEntity
  8
_Y__________
  6
CONTINUOUS
 62
         7
100
AcDbLine
 10
1335.7033403763
 20
-19.9933347407
 30
0.0
 11
1357.7033403763
 21
-19.9933347407
 31
0.0
  0
LINE
  5
11C
100
AcDbEntity
  8
_Y__________
  6
CONTINUOUS
 62
         7
100
AcDbLine
 10
1335.7033403763
 20
-5.8933347407
 30
0.0
 11
1357.7033403763
 21
-5.8933347407
 31
0.0
  0
LINE
  5
11D
100
AcDbEntity
  8
_Y__________
  6
CONTINUOUS
 62
         7
100
AcDbLine
 10
1413.7034823826
 20
-44.4433347407
 30
0.0
 11
1418.1033403763
 21
-44.4433347407
 31
0.0
  0
LINE
  5
11E
100
AcDbEntity
  8
_Y__________
  6
CONTINUOUS
 62
         7
100
AcDbLine
 10
1411.2033403763
 20
-40.1129617596
 30
0.0
 11
1413.7034823826
 21
-44.4433347407
 31
0.0
  0
LINE
  5
11F
100
AcDbEntity
  8
_Y__________
  6
CONTINUOUS
 62
         7
100
AcDbLine
 10
1411.2033403763
 20
-39.4433347407
 30
0.0
 11
1411.2033403763
 21
-40.1129617596
 31
0.0
  0
LINE
  5
120
100
AcDbEntity
  8
_Y__________
  6
CONTINUOUS
 62
         7
100
AcDbLine
 10
1406.2033403763
 20
-39.4433347407
 30
0.0
 11
1411.2033403763
 21
-39.4433347407
 31
0.0
  0
LINE
  5
121
100
AcDbEntity
  8
_Y__________
  6
CONTINUOUS
 62
         7
100
AcDbLine
 10
1406.2033403763
 20
-39.4433347407
 30
0.0
 11
1406.2033403763
 21
-40.1129617596
 31
0.0
  0
LINE
  5
122
100
AcDbEntity
  8
_Y__________
  6
CONTINUOUS
 62
         7
100
AcDbLine
 10
1406.2033403763
 20
-40.1129617596
 30
0.0
 11
1403.7031983699
 21
-44.4433347407
 31
0.0
  0
LINE
  5
123
100
AcDbEntity
  8
_Y__________
  6
CONTINUOUS
 62
         7
100
AcDbLine
 10
1395.1033403763
 20
-44.4433347407
 30
0.0
 11
1403.7031983699
 21
-44.4433347407
 31
0.0
  0
LINE
  5
124
100
AcDbEntity
  8
_Y__________
  6
CONTINUOUS
 62
         7
100
AcDbLine
 10
1394.1033403763
 20
-35.4412510066
 30
0.0
 11
1394.1033403763
 21
-43.4433347407
 31
0.0
  0
ARC
  5
125
100
AcDbEntity
  8
_Y__________
  6
CONTINUOUS
 62
         7
100
AcDbCircle
 10
1393.7033403763
 20
-35.4412510066
 30
0.0
 40
0.4
100
AcDbArc
 50
0.0
 51
90.0
  0
LINE
  5
126
100
AcDbEntity
  8
_Y__________
  6
CONTINUOUS
 62
         7
100
AcDbLine
 10
1393.3497505378
 20
-35.0412510066
 30
0.0
 11
1393.7033403763
 21
-35.0412510066
 31
0.0
  0
LINE
  5
127
100
AcDbEntity
  8
_Y__________
  6
CONTINUOUS
 62
         7
100
AcDbLine
 10
1392.6033403763
 20
-35.2412510066
 30
0.0
 11
1393.3497505378
 21
-35.0412510066
 31
0.0
  0
LINE
  5
128
100
AcDbEntity
  8
_Y__________
  6
CONTINUOUS
 62
         7
100
AcDbLine
 10
1327.5590342598
 20
-25.7556751684
 30
0.0
 11
1392.6033403763
 21
-35.2412510066
 31
0.0
  0
ARC
  5
129
100
AcDbEntity
  8
_Y__________
  6
CONTINUOUS
 62
         7
100
AcDbCircle
 10
1327.7033403763
 20
-24.7661420741
 30
0.0
 40
1.0
100
AcDbArc
 50
180.0
 51
261.7029
  0
LINE
  5
12A
100
AcDbEntity
  8
_Y__________
  6
CONTINUOUS
 62
         7
100
AcDbLine
 10
1326.7033403763
 20
-1.1205274073
 30
0.0
 11
1326.7033403763
 21
-24.7661420741
 31
0.0
  0
ARC
  5
12B
100
AcDbEntity
  8
_Y__________
  6
CONTINUOUS
 62
         7
100
AcDbCircle
 10
1327.7033403763
 20
-1.1205274073
 30
0.0
 40
1.0
100
AcDbArc
 50
98.2971
 51
180.0
  0
LINE
  5
12C
100
AcDbEntity
  8
_Y__________
  6
CONTINUOUS
 62
         7
100
AcDbLine
 10
1327.5590342598
 20
-0.1309943129
 30
0.0
 11
1392.6033403763
 21
9.3545815252
 31
0.0
  0
LINE
  5
12D
100
AcDbEntity
  8
_Y__________
  6
CONTINUOUS
 62
         7
100
AcDbLine
 10
1392.6033403763
 20
9.3545815252
 30
0.0
 11
1393.3497505378
 21
9.1545815252
 31
0.0
  0
LINE
  5
12E
100
AcDbEntity
  8
_Y__________
  6
CONTINUOUS
 62
         7
100
AcDbLine
 10
1393.3497505378
 20
9.1545815252
 30
0.0
 11
1393.7033403763
 21
9.1545815252
 31
0.0
  0
ARC
  5
12F
100
AcDbEntity
  8
_Y__________
  6
CONTINUOUS
 62
         7
100
AcDbCircle
 10
1393.7033403763
 20
9.5545815252
 30
0.0
 40
0.4
100
AcDbArc
 50
270.0
 51
360.0
  0
LINE
  5
130
100
AcDbEntity
  8
_Y__________
  6
CONTINUOUS
 62
         7
100
AcDbLine
 10
1394.1033403763
 20
17.5566652593
 30
0.0
 11
1394.1033403763
 21
9.5545815252
 31
0.0
  0
LINE
  5
131
100
AcDbEntity
  8
_Y__________
  6
CONTINUOUS
 62
         7
100
AcDbLine
 10
1395.1033403763
 20
18.5566652593
 30
0.0
 11
1403.7031983699
 21
18.5566652593
 31
0.0
  0
LINE
  5
132
100
AcDbEntity
  8
_Y__________
  6
CONTINUOUS
 62
         7
100
AcDbLine
 10
1406.2033403763
 20
14.2262922782
 30
0.0
 11
1403.7031983699
 21
18.5566652593
 31
0.0
  0
LINE
  5
133
100
AcDbEntity
  8
_Y__________
  6
CONTINUOUS
 62
         7
100
AcDbLine
 10
1406.2033403763
 20
14.2262922782
 30
0.0
 11
1406.2033403763
 21
13.5566652593
 31
0.0
  0
LINE
  5
134
100
AcDbEntity
  8
_Y__________
  6
CONTINUOUS
 62
         7
100
AcDbLine
 10
1406.2033403763
 20
13.5566652593
 30
0.0
 11
1411.2033403763
 21
13.5566652593
 31
0.0
  0
LINE
  5
135
100
AcDbEntity
  8
_Y__________
  6
CONTINUOUS
 62
         7
100
AcDbLine
 10
1411.2033403763
 20
14.2262922782
 30
0.0
 11
1411.2033403763
 21
13.5566652593
 31
0.0
  0
LINE
  5
136
100
AcDbEntity
  8
_Y__________
  6
CONTINUOUS
 62
         7
100
AcDbLine
 10
1411.2033403763
 20
14.2262922782
 30
0.0
 11
1413.7034823826
 21
18.5566652593
 31
0.0
  0
LINE
  5
137
100
AcDbEntity
  8
_Y__________
  6
CONTINUOUS
 62
         7
100
AcDbLine
 10
1413.7034823826
 20
18.5566652593
 30
0.0
 11
1418.1033403763
 21
18.5566652593
 31
0.0
  0
LINE
  5
138
100
AcDbEntity
  8
_Y__________
  6
CONTINUOUS
 62
         7
100
AcDbLine
 10
1357.7033403763
 20
-4.9433347407
 30
0.0
 11
1357.7033403763
 21
-20.9433347407
 31
0.0
  0
LINE
  5
139
100
AcDbEntity
  8
_Y__________
  6
CENTER
 62
         1
100
AcDbLine
 10
1180.4233403763
 20
150.1846417294
 30
0.0
 11
1249.4233403763
 21
150.1846417294
 31
0.0
  0
CIRCLE
  5
13A
100
AcDbEntity
  8
_Y__________
  6
CONTINUOUS
 62
         7
100
AcDbCircle
 10
1214.9233403763
 20
150.1846417294
 30
0.0
 40
31.5
  0
LINE
  5
13B
100
AcDbEntity
  8
_Y__________
  6
CENTER
 62
         1
100
AcDbLine
 10
1214.9233403763
 20
184.6846417294
 30
0.0
 11
1214.9233403763
 21
115.6846417294
 31
0.0
  0
CIRCLE
  5
13C
100
AcDbEntity
  8
_Y__________
  6
CONTINUOUS
 62
         7
100
AcDbCircle
 10
1214.9233403763
 20
150.1846417294
 30
0.0
 40
12.6875524223
  0
CIRCLE
  5
13D
100
AcDbEntity
  8
_Y__________
  6
CONTINUOUS
 62
         7
100
AcDbCircle
 10
1214.9233403763
 20
150.1846417294
 30
0.0
 40
22.2979162659
  0
CIRCLE
  5
13E
100
AcDbEntity
  8
_Y__________
  6
CONTINUOUS
 62
         7
100
AcDbCircle
 10
1214.9233403763
 20
150.1846417294
 30
0.0
 40
7.0
  0
CIRCLE
  5
13F
100
AcDbEntity
  8
_Y__________
  6
CONTINUOUS
 62
         7
100
AcDbCircle
 10
1214.9233403763
 20
150.1846417294
 30
0.0
 40
8.5
  0
ARC
  5
140
100
AcDbEntity
  8
_Y__________
  6
CONTINUOUS
 62
         4
100
AcDbCircle
 10
1214.9233403763
 20
150.1846417294
 30
0.0
 40
8.0
100
AcDbArc
 50
265.563559301
 51
540.0
  0
LINE
  5
141
100
AcDbEntity
  8
_Y__________
  6
CENTER
 62
         1
100
AcDbLine
 10
1588.7833403763
 20
150.1846417294
 30
0.0
 11
1657.7833403763
 21
150.1846417294
 31
0.0
  0
CIRCLE
  5
142
100
AcDbEntity
  8
_Y__________
  6
CONTINUOUS
 62
         7
100
AcDbCircle
 10
1623.2833403763
 20
150.1846417294
 30
0.0
 40
31.5
  0
LINE
  5
143
100
AcDbEntity
  8
_Y__________
  6
CENTER
 62
         1
100
AcDbLine
 10
1623.2833403763
 20
184.6846417294
 30
0.0
 11
1623.2833403763
 21
111.6775086338
 31
0.0
  0
ARC
  5
144
100
AcDbEntity
  8
_Y__________
  6
CONTINUOUS
 62
         7
100
AcDbCircle
 10
1427.1033403763
 20
136.2068663613
 30
0.0
 40
1.0
100
AcDbArc
 50
270.0
 51
360.0
  0
ARC
  5
145
100
AcDbEntity
  8
_Y__________
  6
CONTINUOUS
 62
         7
100
AcDbCircle
 10
1427.1033403763
 20
164.2068663613
 30
0.0
 40
1.0
100
AcDbArc
 50
0.0
 51
90.0
  0
LINE
  5
146
100
AcDbEntity
  8
_Y__________
  6
CENTER
 62
         1
100
AcDbLine
 10
1432.1033403763
 20
139.1132673805
 30
0.0
 11
1432.1033403763
 21
161.4391758839
 31
0.0
  0
LINE
  5
147
100
AcDbEntity
  8
_Y__________
  6
CONTINUOUS
 62
         7
100
AcDbLine
 10
1457.5033403763
 20
144.4962295292
 30
0.0
 11
1457.5033403763
 21
155.8730539295
 31
0.0
  0
LINE
  5
148
100
AcDbEntity
  8
_Y__________
  6
CONTINUOUS
 62
         7
100
AcDbLine
 10
1456.0033403763
 20
157.3730539295
 30
0.0
 11
1430.0398734082
 21
158.1973803524
 31
0.0
  0
LINE
  5
149
100
AcDbEntity
  8
_Y__________
  6
CONTINUOUS
 62
         7
100
AcDbLine
 10
1456.0033403763
 20
143.040678793
 30
0.0
 11
1456.0033403763
 21
157.3730539295
 31
0.0
  0
LINE
  5
14A
100
AcDbEntity
  8
_Y__________
  6
CONTINUOUS
 62
         7
100
AcDbLine
 10
1456.0033403763
 20
157.3730539295
 30
0.0
 11
1457.5033403763
 21
155.8730539295
 31
0.0
  0
LINE
  5
14B
100
AcDbEntity
  8
_Y__________
  6
CONTINUOUS
 62
         7
100
AcDbLine
 10
1428.1033403763
 20
136.2068663613
 30
0.0
 11
1428.1033403763
 21
164.2068663613
 31
0.0
  0
LINE
  5
14C
100
AcDbEntity
  8
_Y__________
  6
CONTINUOUS
 62
         7
100
AcDbLine
 10
1427.1033403763
 20
165.2068663613
 30
0.0
 11
1422.1033403763
 21
165.2068663613
 31
0.0
  0
LINE
  5
14D
100
AcDbEntity
  8
_Y__________
  6
CONTINUOUS
 62
         7
100
AcDbLine
 10
1427.1033403763
 20
135.2068663613
 30
0.0
 11
1422.1033403763
 21
135.2068663613
 31
0.0
  0
LINE
  5
14E
100
AcDbEntity
  8
_Y__________
  6
CONTINUOUS
 62
         7
100
AcDbLine
 10
1456.0033403763
 20
142.9962295292
 30
0.0
 11
1457.5033403763
 21
144.4962295292
 31
0.0
  0
LINE
  5
14F
100
AcDbEntity
  8
_Y__________
  6
CONTINUOUS
 62
         7
100
AcDbLine
 10
1456.0033403763
 20
143.040678793
 30
0.0
 11
1430.0398734082
 21
142.2163523702
 31
0.0
  0
DIMENSION
  5
152
100
AcDbEntity
  8
_Y__________
  6
CONTINUOUS
 62
         4
100
AcDbDimension
  2
*D4
 10
1432.1033403763
 20
175.4908639666
 30
0.0
 11
1428.6323032414
 21
177.5158639666
 31
0.0
  3
DIMSTYLE1
100
AcDbAlignedDimension
 13
1432.1033403763
 23
161.4391758839
 33
0.0
 14
1428.1033403763
 24
165.2068663613
 34
0.0
100
AcDbRotatedDimension
  0
ARC
  5
160
100
AcDbEntity
  8
_Y__________
  6
CONTINUOUS
 62
         7
100
AcDbCircle
 10
1430.1033403763
 20
160.1963730847
 30
0.0
 40
2.0
100
AcDbArc
 50
180.0
 51
268.1815
  0
ARC
  5
161
100
AcDbEntity
  8
_Y__________
  6
CONTINUOUS
 62
         7
100
AcDbCircle
 10
1430.1033403763
 20
140.2173596378
 30
0.0
 40
2.0
100
AcDbArc
 50
91.8185
 51
180.0
  0
ARC
  5
162
100
AcDbEntity
  8
_Y__________
  6
CONTINUOUS
 62
         7
100
AcDbCircle
 10
1422.1033403763
 20
168.2068663613
 30
0.0
 40
3.0
100
AcDbArc
 50
180.0
 51
270.0
  0
LINE
  5
163
100
AcDbEntity
  8
_Y__________
  6
CONTINUOUS
 62
         7
100
AcDbLine
 10
1419.1033403763
 20
119.6846417294
 30
0.0
 11
1419.1033403763
 21
132.2068663613
 31
0.0
  0
ARC
  5
164
100
AcDbEntity
  8
_Y__________
  6
CONTINUOUS
 62
         7
100
AcDbCircle
 10
1422.1033403763
 20
132.2068663613
 30
0.0
 40
3.0
100
AcDbArc
 50
90.0
 51
180.0
  0
LINE
  5
165
100
AcDbEntity
  8
_Y__________
  6
CONTINUOUS
 62
         7
100
AcDbLine
 10
1419.1033403763
 20
168.2068663613
 30
0.0
 11
1419.1033403763
 21
132.2068663613
 31
0.0
  0
DIMENSION
  5
168
100
AcDbEntity
  8
_Y__________
  6
CONTINUOUS
 62
         4
100
AcDbDimension
  2
*D5
 10
1326.7033403763
 20
221.0816292757
 30
0.0
 11
1388.3053769749
 21
223.1066292757
 31
0.0
  3
DIMSTYLE1
100
AcDbAlignedDimension
 13
1326.7033403763
 23
162.0074490628
 33
0.0
 14
1457.5033403763
 24
155.8730539295
 34
0.0
100
AcDbRotatedDimension
  0
DIMENSION
  5
176
100
AcDbEntity
  8
_Y__________
  6
CONTINUOUS
 62
         4
100
AcDbDimension
  2
*D6
 10
1392.1033403763
 20
212.5903062135
 30
0.0
 11
1420.5139102613
 21
214.6153062135
 31
0.0
  3
DIMSTYLE1
100
AcDbAlignedDimension
 13
1392.1033403763
 23
172.2825579953
 33
0.0
 14
1457.5033403763
 24
155.8730539295
 34
0.0
100
AcDbRotatedDimension
  0
TEXT
  5
183
100
AcDbEntity
  8
_Y__________
  6
CONTINUOUS
 62
         2
100
AcDbText
 10
1607.8551181589
 20
218.0204784082
 30
0.0
 40
4.5
  1
532236
 41
0.98
  7
BOX
100
AcDbText
  0
ENDSEC
  0
SECTION
  2
OBJECTS
  0
DICTIONARY
  5
19
100
AcDbDictionary
  3
ACAD_GROUP
350
1A
  3
ACAD_MLINESTYLE
350
1B
  0
DICTIONARY
  5
1A
102
{ACAD_REACTORS
330
19
102
}
100
AcDbDictionary
  0
DICTIONARY
  5
1B
102
{ACAD_REACTORS
330
19
102
}
100
AcDbDictionary
  3
STANDARD
350
1C
  0
MLINESTYLE
  5
1C
102
{ACAD_REACTORS
330
1B
102
}
100
AcDbMlineStyle
  2
STANDARD
 70
         0
  3

 62
         0
 51
90.0
 52
90.0
 71
         2
 49
0.5
 62
       256
  6
BYLAYER
 49
-0.5
 62
       256
  6
BYLAYER
  0
ENDSEC
  0
EOF
