  0
SECTION
  2
HEADER
  9
$ACADVER
  1
AC1014
  9
$ACADMAINTVER
 70
         0
  9
$DWGCODEPAGE
  3
BIG5
  9
$INSBASE
 10
0.0
 20
0.0
 30
0.0
  9
$EXTMIN
 10
1121.2349818383
 20
-196.0654424716
 30
0.0
  9
$EXTMAX
 10
1964.5224180285
 20
229.0939264136
 30
0.0
  9
$LIMMIN
 10
0.0
 20
0.0
  9
$LIMMAX
 10
0.0
 20
0.0
  9
$ORTHOMODE
 70
         0
  9
$REGENMODE
 70
         1
  9
$FILLMODE
 70
         1
  9
$QTEXTMODE
 70
         0
  9
$MIRRTEXT
 70
         1
  9
$DRAGMODE
 70
         2
  9
$LTSCALE
 40
1.0
  9
$OSMODE
 70
         0
  9
$ATTMODE
 70
         1
  9
$TEXTSIZE
 40
2.4
  9
$TRACEWID
 40
0.05
  9
$TEXTSTYLE
  7
STANDARD
  9
$CLAYER
  8
0
  9
$CELTYPE
  6
CONTINUOUS
  9
$CECOLOR
 62
         4
  9
$CELTSCALE
 40
1.0
  9
$DELOBJ
 70
         1
  9
$DISPSILH
 70
         0
  9
$DIMSCALE
 40
1.0
  9
$DIMASZ
 40
0.18
  9
$DIMEXO
 40
0.0625
  9
$DIMDLI
 40
0.38
  9
$DIMRND
 40
0.0
  9
$DIMDLE
 40
0.0
  9
$DIMEXE
 40
0.25
  9
$DIMTP
 40
0.01
  9
$DIMTM
 40
-0.01
  9
$DIMTXT
 40
3.5
  9
$DIMCEN
 40
0.09
  9
$DIMTSZ
 40
0.0
  9
$DIMTOL
 70
         0
  9
$DIMLIM
 70
         0
  9
$DIMTIH
 70
         1
  9
$DIMTOH
 70
         1
  9
$DIMSE1
 70
         0
  9
$DIMSE2
 70
         0
  9
$DIMTAD
 70
         0
  9
$DIMZIN
 70
         0
  9
$DIMBLK
  1

  9
$DIMASO
 70
         1
  9
$DIMSHO
 70
         1
  9
$DIMPOST
  1

  9
$DIMAPOST
  1

  9
$DIMALT
 70
         0
  9
$DIMALTD
 70
         2
  9
$DIMALTF
 40
25.4
  9
$DIMLFAC
 40
1.0
  9
$DIMTOFL
 70
         0
  9
$DIMTVP
 40
0.0
  9
$DIMTIX
 70
         0
  9
$DIMSOXD
 70
         0
  9
$DIMSAH
 70
         0
  9
$DIMBLK1
  1

  9
$DIMBLK2
  1

  9
$DIMSTYLE
  2
STANDARD
  9
$DIMCLRD
 70
         0
  9
$DIMCLRE
 70
         0
  9
$DIMCLRT
 70
         4
  9
$DIMTFAC
 40
1.0
  9
$DIMGAP
 40
0.09
  9
$DIMJUST
 70
         0
  9
$DIMSD1
 70
         0
  9
$DIMSD2
 70
         0
  9
$DIMTOLJ
 70
         1
  9
$DIMTZIN
 70
         0
  9
$DIMALTZ
 70
         0
  9
$DIMALTTZ
 70
         0
  9
$DIMFIT
 70
         3
  9
$DIMUPT
 70
         0
  9
$DIMUNIT
 70
         2
  9
$DIMDEC
 70
         4
  9
$DIMTDEC
 70
         4
  9
$DIMALTU
 70
         2
  9
$DIMALTTD
 70
         2
  9
$DIMTXSTY
  7
STANDARD
  9
$DIMAUNIT
 70
         0
  9
$LUNITS
 70
         2
  9
$LUPREC
 70
        10
  9
$SKETCHINC
 40
0.1
  9
$FILLETRAD
 40
0.0
  9
$AUNITS
 70
         0
  9
$AUPREC
 70
         0
  9
$MENU
  1
acad
  9
$ELEVATION
 40
0.0
  9
$PELEVATION
 40
0.0
  9
$THICKNESS
 40
0.0
  9
$LIMCHECK
 70
         0
  9
$BLIPMODE
 70
         1
  9
$CHAMFERA
 40
0.0
  9
$CHAMFERB
 40
0.0
  9
$CHAMFERC
 40
0.0
  9
$CHAMFERD
 40
0.0
  9
$SKPOLY
 70
         0
  9
$TDCREATE
 40
0.000000000
  9
$TDUPDATE
 40
0.000000000
  9
$TDINDWG
 40
0.0000000000
  9
$TDUSRTIMER
 40
0.0000000000
  9
$USRTIMER
 70
         1
  9
$ANGBASE
 50
0.0
  9
$ANGDIR
 70
         0
  9
$PDMODE
 70
         2
  9
$PDSIZE
 40
0.0
  9
$PLINEWID
 40
0.0
  9
$COORDS
 70
         1
  9
$SPLFRAME
 70
         0
  9
$SPLINETYPE
 70
         6
  9
$SPLINESEGS
 70
         8
  9
$ATTDIA
 70
         0
  9
$ATTREQ
 70
         1
  9
$HANDLING
 70
         1
  9
$HANDSEED
  5
19A
  9
$SURFTAB1
 70
         6
  9
$SURFTAB2
 70
         6
  9
$SURFTYPE
 70
         6
  9
$SURFU
 70
         6
  9
$SURFV
 70
         6
  9
$UCSNAME
  2

  9
$UCSORG
 10
0.0
 20
0.0
 30
0.0
  9
$UCSXDIR
 10
1.0
 20
0.0
 30
0.0
  9
$UCSYDIR
 10
0.0
 20
1.0
 30
0.0
  9
$PUCSNAME
  2

  9
$PUCSORG
 10
0.0
 20
0.0
 30
0.0
  9
$PUCSXDIR
 10
1.0
 20
0.0
 30
0.0
  9
$PUCSYDIR
 10
0.0
 20
1.0
 30
0.0
  9
$USERI1
 70
         0
  9
$USERI2
 70
         0
  9
$USERI3
 70
         0
  9
$USERI4
 70
         0
  9
$USERI5
 70
         0
  9
$USERR1
 40
0.0
  9
$USERR2
 40
0.0
  9
$USERR3
 40
0.0
  9
$USERR4
 40
0.0
  9
$USERR5
 40
0.0
  9
$WORLDVIEW
 70
         1
  9
$SHADEDGE
 70
         3
  9
$SHADEDIF
 70
        70
  9
$TILEMODE
 70
         1
  9
$MAXACTVP
 70
        16
  9
$PINSBASE
 10
0.0
 20
0.0
 30
0.0
  9
$PLIMCHECK
 70
         0
  9
$PEXTMIN
 10
1.0000000000E+20
 20
1.0000000000E+20
 30
1.0000000000E+20
  9
$PEXTMAX
 10
-1.0000000000E+20
 20
-1.0000000000E+20
 30
-1.0000000000E+20
  9
$PLIMMIN
 10
0.0
 20
0.0
  9
$PLIMMAX
 10
12.0
 20
9.0
  9
$UNITMODE
 70
         0
  9
$VISRETAIN
 70
         0
  9
$PLINEGEN
 70
         1
  9
$PSLTSCALE
 70
         0
  9
$TREEDEPTH
 70
      3020
  9
$PICKSTYLE
 70
         1
  9
$CMLSTYLE
  2
STANDARD
  9
$CMLJUST
 70
         0
  9
$CMLSCALE
 40
1.0
  9
$PROXYGRAPHICS
 70
         0
  9
$MEASUREMENT
 70
         0
  0
ENDSEC
  0
SECTION
  2
CLASSES
  0
CLASS
  1
LWPOLYLINE
  2
AcDbPolyline
  3
"AutoCAD"
 90
        0
280
         0
281
         1
  0
CLASS
  1
IMAGE
  2
AcDbRasterImage
  3
ISM
 90
      127
280
         0
281
         1
  0
CLASS
  1
OLE2FRAME
  2
AcDbOle2Frame
  3
""
 90
        0
280
         0
281
         1
  0
CLASS
  1
HATCH
  2
AcDbHatch
  3
"ACAD_SEDONA"
 90
        0
280
         0
281
         1
  0
CLASS
  1
DICTIONARYVAR
  2
AcDbDictionaryVar
  3
"AutoCAD"
 90
        0
280
         0
281
         0
  0
CLASS
  1
RASTERVARIABLES
  2
AcDbRasterVariables
  3
ISM
 90
        0
280
         0
281
         0
  0
CLASS
  1
IMAGEDEF
  2
AcDbRasterImageDef
  3
ISM
 90
        0
280
         0
281
         0
  0
CLASS
  1
IMAGEDEF_REACTOR
  2
AcDbRasterImageDefReactor
  3
ISM
 90
        1
280
         0
281
         0
  0
CLASS
  1
IDBUFFER
  2
AcDbIdBuffer
  3
"Acad"
 90
        0
280
         0
281
         0
  0
CLASS
  1
SPATIAL_FILTER
  2
AcDbSpatialFilter
  3
"Acad"
 90
        0
280
         0
281
         0
  0
CLASS
  1
XRECORD
  2
AcDbXrecord
  3
"<Built In>"
 90
        0
280
         0
281
         0
  0
CLASS
  1
SORTENTSTABLE
  2
AcDbSortentsTable
  3
"AutoCAD"
 90
        0
280
         0
281
         0
  0
CLASS
  1
LAYER_INDEX
  2
AcDbLayerIndex
  3
"Acad"
 90
        0
280
         0
281
         0
  0
CLASS
  1
SPATIAL_INDEX
  2
AcDbSpatialIndex
  3
"Acad"
 90
        0
280
         0
281
         0
  0
CLASS
  1
OBJECT_PTR
  2
CAseDLPNTableRecord
  3
"ASE-LPNTableRecord"
 90
        1
280
         0
281
         0
  0
CLASS
  1
LAYOUT
  2
AcDbLayout
  3
"AutoCAD 2000"
 90
        1
280
         0
281
         0
  0
CLASS
  1
PLOTSETTINGS
  2
AcDbPlotSettings
  3
"AutoCAD 2000"
 90
        1
280
         0
281
         0
  0
CLASS
  1
ACDBDICTIONARYWDFLT
  2
AcDbDictionaryWithDefault
  3
"AutoCAD 2000"
 90
        1
280
         0
281
         0
  0
CLASS
  1
ACDBPLACEHOLDER
  2
AcDbPlaceHolder
  3
"AutoCAD 2000"
 90
        1
280
         0
281
         0
  0
CLASS
  1
VBA_PROJECT
  2
AcDbVbaProject
  3
"acadvba"
 90
        1
280
         0
281
         0
  0
CLASS
  1
WIPEOUT
  2
AcDbWipeout
  3
WipeOut|AutoCAD Express Tool|expresstools@autodesk.com
 90
      127
280
         0
281
         1
  0
CLASS
  1
WIPEOUTVARIABLES
  2
AcDbWipeoutVariables
  3
WipeOut|AutoCAD Express Tool|expresstools@autodesk.com
 90
        0
280
         0
281
         0
  0
CLASS
  1
RTEXT
  2
RText
  3
RText|AutoCAD Express Tool|expresstools@autodesk.com
 90
        0
280
         0
281
         1
  0
CLASS
  1
ARCALIGNEDTEXT
  2
AcDbArcAlignedText
  3
ATEXT|AutoCAD Express Tool|expresstools@autodesk.com
 90
        0
280
         0
281
         1
  0
ENDSEC
  0
SECTION
  2
TABLES
  0
TABLE
  2
VPORT
  5
7
100
AcDbSymbolTable
 70
         1
  0
VPORT
  5
15
100
AcDbSymbolTableRecord
100
AcDbViewportTableRecord
  2
*ACTIVE
 70
         0
 10
0.0
 20
0.0
 11
1.0
 21
1.0
 12
1542.8786999334
 22
16.514241971
 13
0.0
 23
0.0
 14
1.0
 24
1.0
 15
0.0
 25
0.0
 16
0.0
 26
0.0
 36
1.0
 17
0.0
 27
0.0
 37
0.0
 40
425.1593688852
 41
1.9834619625
 42
50.0
 43
0.0
 44
0.0
 50
0.0
 51
0.0
 71
         0
 72
       100
 73
         1
 74
         1
 75
         0
 76
         0
 77
         0
 78
         0
  0
ENDTAB
  0
TABLE
  2
LTYPE
  5
4
100
AcDbSymbolTable
 70
         6
  0
LTYPE
  5
11
100
AcDbSymbolTableRecord
100
AcDbLinetypeTableRecord
  2
BYBLOCK
 70
        64
  3

 72
        65
 73
         0
 40
0.0
  0
LTYPE
  5
12
100
AcDbSymbolTableRecord
100
AcDbLinetypeTableRecord
  2
BYLAYER
 70
        64
  3

 72
        65
 73
         0
 40
0.0
  0
LTYPE
  5
13
100
AcDbSymbolTableRecord
100
AcDbLinetypeTableRecord
  2
CONTINUOUS
 70
        64
  3
Solid line
 72
        65
 73
         0
 40
0.0
  0
LTYPE
  5
1D
100
AcDbSymbolTableRecord
100
AcDbLinetypeTableRecord
  2
DASHED
 70
        64
  3
_ _ _ _ _ _ _ _ _ _ _ _ _ _ _ _
 72
        65
 73
         2
 40
0.2
 49
0.1
 74
         0
 49
-0.1
 74
         0
  0
LTYPE
  5
1E
100
AcDbSymbolTableRecord
100
AcDbLinetypeTableRecord
  2
CENTER
 70
        64
  3
___ _ ___ _ ___ _ ___ _ ___ _ ___ _ ___ _ ___ _
 72
        65
 73
         4
 40
0.95
 49
0.625
 74
         0
 49
-0.125
 74
         0
 49
0.075
 74
         0
 49
-0.125
 74
         0
  0
LTYPE
  5
1F
100
AcDbSymbolTableRecord
100
AcDbLinetypeTableRecord
  2
PHANTOM
 70
        64
  3
______  __  __  ______  __  __  ______  __  __  
 72
        65
 73
         6
 40
1.025
 49
0.625
 74
         0
 49
-0.125
 74
         0
 49
0.075
 74
         0
 49
-0.125
 74
         0
 49
0.075
 74
         0
 49
-0.125
 74
         0
  0
ENDTAB
  0
TABLE
  2
LAYER
  5
2
100
AcDbSymbolTable
 70
        10
  0
LAYER
  5
14
100
AcDbSymbolTableRecord
100
AcDbLayerTableRecord
  2
0
 70
         0
 62
         7
  6
CONTINUOUS
  0
LAYER
  5
21
100
AcDbSymbolTableRecord
100
AcDbLayerTableRecord
  2
_____U
 70
         1
 62
         7
  6
CONTINUOUS
  0
LAYER
  5
22
100
AcDbSymbolTableRecord
100
AcDbLayerTableRecord
  2
___T______
 70
         1
 62
         7
  6
CONTINUOUS
  0
LAYER
  5
23
100
AcDbSymbolTableRecord
100
AcDbLayerTableRecord
  2
_____T______
 70
         1
 62
         7
  6
CONTINUOUS
  0
LAYER
  5
24
100
AcDbSymbolTableRecord
100
AcDbLayerTableRecord
  2
______L_______
 70
         1
 62
         7
  6
CONTINUOUS
  0
LAYER
  5
25
100
AcDbSymbolTableRecord
100
AcDbLayerTableRecord
  2
ERTGDAOZ____
 70
         1
 62
         7
  6
CONTINUOUS
  0
LAYER
  5
26
100
AcDbSymbolTableRecord
100
AcDbLayerTableRecord
  2
_____M_____M____
 70
         1
 62
         7
  6
CONTINUOUS
  0
LAYER
  5
27
100
AcDbSymbolTableRecord
100
AcDbLayerTableRecord
  2
_Y__________
 70
         0
 62
         7
  6
CONTINUOUS
  0
LAYER
  5
28
100
AcDbSymbolTableRecord
100
AcDbLayerTableRecord
  2
L1_45
 70
         0
 62
         7
  6
CONTINUOUS
  0
LAYER
  5
125
100
AcDbSymbolTableRecord
100
AcDbLayerTableRecord
  2
DEFPOINTS
 70
         0
 62
        -7
  6
CONTINUOUS
  0
ENDTAB
  0
TABLE
  2
STYLE
  5
3
100
AcDbSymbolTable
 70
         7
  0
STYLE
  5
17
100
AcDbSymbolTableRecord
100
AcDbTextStyleTableRecord
  2
STANDARD
 70
         0
 40
0.0
 41
1.0
 50
0.0
 71
         0
 42
0.0
  3
txt
  4

  0
STYLE
  5
29
100
AcDbSymbolTableRecord
100
AcDbTextStyleTableRecord
  2
BOX
 70
         0
 40
1.0
 41
1.0
 50
0.0
 71
         0
 42
0.2
  3
txt.shx
  4

  0
STYLE
  5
12E
100
AcDbSymbolTableRecord
100
AcDbTextStyleTableRecord
  2
BOX
 70
         0
 40
1.0
 41
1.0
 50
0.0
 71
         0
 42
0.2
  3
txt.shx
  4

  0
STYLE
  5
147
100
AcDbSymbolTableRecord
100
AcDbTextStyleTableRecord
  2
BOX
 70
         0
 40
1.0
 41
1.0
 50
0.0
 71
         0
 42
0.2
  3
txt.shx
  4

  0
STYLE
  5
167
100
AcDbSymbolTableRecord
100
AcDbTextStyleTableRecord
  2
BOX
 70
         0
 40
1.0
 41
1.0
 50
0.0
 71
         0
 42
0.2
  3
txt.shx
  4

  0
STYLE
  5
178
100
AcDbSymbolTableRecord
100
AcDbTextStyleTableRecord
  2
BOX
 70
         0
 40
1.0
 41
1.0
 50
0.0
 71
         0
 42
0.2
  3
txt.shx
  4

  0
STYLE
  5
197
100
AcDbSymbolTableRecord
100
AcDbTextStyleTableRecord
  2
BOX
 70
         0
 40
1.0
 41
1.0
 50
0.0
 71
         0
 42
0.2
  3
txt.shx
  4

  0
ENDTAB
  0
TABLE
  2
VIEW
  5
5
100
AcDbSymbolTable
 70
         0
  0
ENDTAB
  0
TABLE
  2
UCS
  5
6
100
AcDbSymbolTable
 70
         1
  0
UCS
  5
20
100
AcDbSymbolTableRecord
100
AcDbUCSTableRecord
  2
CK_VIEW_1
 70
         0
 10
0.0
 20
0.0
 30
1.0
 11
1.0
 21
0.0
 31
0.0
 12
0.0
 22
1.0
 32
0.0
  0
ENDTAB
  0
TABLE
  2
APPID
  5
8
100
AcDbSymbolTable
 70
         1
  0
APPID
  5
16
100
AcDbSymbolTableRecord
100
AcDbRegAppTableRecord
  2
ACAD
 70
         0
  0
ENDTAB
  0
TABLE
  2
DIMSTYLE
  5
9
100
AcDbSymbolTable
 70
         2
  0
DIMSTYLE
105
18
100
AcDbSymbolTableRecord
100
AcDbDimStyleTableRecord
  2
STANDARD
 70
         0
  3

  4

  5

  6

  7

 40
1.0
 41
0.18
 42
0.0625
 43
0.38
 44
0.18
 45
0.0
 46
0.0
 47
0.0
 48
0.0
 71
         0
 72
         0
 73
         1
 74
         1
 75
         0
 76
         0
 77
         0
 78
         0
140
0.18
141
0.09
142
0.0
143
25.4
144
1.0
145
0.0
146
1.0
147
0.09
170
         0
171
         2
172
         0
173
         0
174
         0
175
         0
176
         0
177
         0
178
         0
270
         2
271
         4
272
         4
273
         2
274
         2
275
         0
280
         0
281
         0
282
         0
283
         1
284
         0
285
         0
286
         0
287
         0
288
         0
340
17
  0
DIMSTYLE
105
121
100
AcDbSymbolTableRecord
100
AcDbDimStyleTableRecord
  2
DIMSTYLE1
 70
         0
  3

  4

  5

  6

  7

 40
1.0
 41
3.5
 42
0.0625
 43
0.38
 44
3.5
 45
0.0
 46
0.0
 47
0.0
 48
0.0
 71
         0
 72
         0
 73
         1
 74
         1
 75
         0
 76
         0
 77
         0
 78
         0
140
3.5
141
0.09
142
0.0
143
25.4
144
1.0
145
0.0
146
1.0
147
0.09
170
         0
171
         2
172
         0
173
         0
174
         0
175
         0
176
         0
177
         0
178
         0
270
         2
271
         4
272
         4
273
         2
274
         2
275
         0
280
         0
281
         0
282
         0
283
         1
284
         0
285
         0
286
         0
287
         0
288
         0
340
17
  0
ENDTAB
  0
TABLE
  2
BLOCK_RECORD
  5
1
100
AcDbSymbolTable
 70
         6
  0
BLOCK_RECORD
  5
A
100
AcDbSymbolTableRecord
100
AcDbBlockTableRecord
  2
*MODEL_SPACE
  0
BLOCK_RECORD
  5
B
100
AcDbSymbolTableRecord
100
AcDbBlockTableRecord
  2
*PAPER_SPACE
  0
BLOCK_RECORD
  5
2B
100
AcDbSymbolTableRecord
100
AcDbBlockTableRecord
  2
*X0
  0
BLOCK_RECORD
  5
122
100
AcDbSymbolTableRecord
100
AcDbBlockTableRecord
  2
*D1
  0
BLOCK_RECORD
  5
13C
100
AcDbSymbolTableRecord
100
AcDbBlockTableRecord
  2
*D2
  0
BLOCK_RECORD
  5
15C
100
AcDbSymbolTableRecord
100
AcDbBlockTableRecord
  2
*D3
  0
BLOCK_RECORD
  5
16D
100
AcDbSymbolTableRecord
100
AcDbBlockTableRecord
  2
*D4
  0
BLOCK_RECORD
  5
18A
100
AcDbSymbolTableRecord
100
AcDbBlockTableRecord
  2
*D5
  0
ENDTAB
  0
ENDSEC
  0
SECTION
  2
BLOCKS
  0
BLOCK
  5
D
100
AcDbEntity
  8
0
100
AcDbBlockBegin
  2
*MODEL_SPACE
 70
         0
 10
0.0
 20
0.0
 30
0.0
  3
*MODEL_SPACE
  1

  0
ENDBLK
  5
E
100
AcDbEntity
  8
0
100
AcDbBlockEnd
  0
BLOCK
  5
F
100
AcDbEntity
 67
         1
  8
0
100
AcDbBlockBegin
  2
*PAPER_SPACE
 70
         0
 10
0.0
 20
0.0
 30
0.0
  3
*PAPER_SPACE
  1

  0
ENDBLK
  5
10
100
AcDbEntity
 67
         1
  8
0
100
AcDbBlockEnd
  0
BLOCK
  5
2C
100
AcDbEntity
  8
0
100
AcDbBlockBegin
  2
*X0
 70
        65
 10
0.0
 20
0.0
 30
0.0
  3
*X0
  1

  0
LINE
  5
2D
100
AcDbEntity
  8
L1_45
  6
CONTINUOUS
 62
         4
100
AcDbLine
 10
1539.5357880753
 20
-176.7400166132
 30
0.0
 11
1542.8786999334
 21
-173.3971047551
 31
0.0
  0
LINE
  5
2E
100
AcDbEntity
  8
L1_45
  6
CONTINUOUS
 62
         4
100
AcDbLine
 10
1535.4577528408
 20
-176.5754111606
 30
0.0
 11
1542.8786999334
 21
-169.154464068
 31
0.0
  0
LINE
  5
2F
100
AcDbEntity
  8
L1_45
  6
CONTINUOUS
 62
         4
100
AcDbLine
 10
1577.3162313731
 20
-134.7169326282
 30
0.0
 11
1579.2786999334
 21
-132.754464068
 31
0.0
  0
LINE
  5
30
100
AcDbEntity
  8
L1_45
  6
CONTINUOUS
 62
         4
100
AcDbLine
 10
1533.9048385702
 20
-173.8856847441
 30
0.0
 11
1542.8786999334
 21
-164.9118233808
 31
0.0
  0
LINE
  5
31
100
AcDbEntity
  8
L1_45
  6
CONTINUOUS
 62
         4
100
AcDbLine
 10
1572.9605839275
 20
-134.8299393867
 30
0.0
 11
1578.9713923836
 21
-128.8191309307
 31
0.0
  0
LINE
  5
32
100
AcDbEntity
  8
L1_45
  6
CONTINUOUS
 62
         4
100
AcDbLine
 10
1532.3519242996
 20
-171.1959583275
 30
0.0
 11
1542.8786999334
 21
-160.6691826937
 31
0.0
  0
LINE
  5
33
100
AcDbEntity
  8
L1_45
  6
CONTINUOUS
 62
         4
100
AcDbLine
 10
1568.6049364818
 20
-134.9429461453
 30
0.0
 11
1576.0286059443
 21
-127.5192766828
 31
0.0
  0
LINE
  5
34
100
AcDbEntity
  8
L1_45
  6
CONTINUOUS
 62
         4
100
AcDbLine
 10
1578.7716713237
 20
-124.7762113034
 30
0.0
 11
1579.2786999334
 21
-124.2691826937
 31
0.0
  0
LINE
  5
35
100
AcDbEntity
  8
L1_45
  6
CONTINUOUS
 62
         4
100
AcDbLine
 10
1530.0652253268
 20
-169.2400166132
 30
0.0
 11
1542.8786999334
 21
-156.4265420066
 31
0.0
  0
LINE
  5
36
100
AcDbEntity
  8
L1_45
  6
CONTINUOUS
 62
         4
100
AcDbLine
 10
1564.2492890362
 20
-135.0559529038
 30
0.0
 11
1579.1544212915
 21
-120.1508206485
 31
0.0
  0
LINE
  5
37
100
AcDbEntity
  8
L1_45
  6
CONTINUOUS
 62
         4
100
AcDbLine
 10
1518.3225846397
 20
-176.7400166132
 30
0.0
 11
1523.7219194022
 21
-171.3406818507
 31
0.0
  0
LINE
  5
38
100
AcDbEntity
  8
L1_45
  6
CONTINUOUS
 62
         4
100
AcDbLine
 10
1525.8225846397
 20
-169.2400166132
 30
0.0
 11
1542.8786999334
 21
-152.1839013195
 31
0.0
  0
LINE
  5
39
100
AcDbEntity
  8
L1_45
  6
CONTINUOUS
 62
         4
100
AcDbLine
 10
1559.8936415905
 20
-135.1689596623
 30
0.0
 11
1576.3252125217
 21
-118.7373887311
 31
0.0
  0
LINE
  5
3A
100
AcDbEntity
  8
L1_45
  6
CONTINUOUS
 62
         4
100
AcDbLine
 10
1514.0799439526
 20
-176.7400166132
 30
0.0
 11
1542.8786999334
 21
-147.9412606324
 31
0.0
  0
LINE
  5
3B
100
AcDbEntity
  8
L1_45
  6
CONTINUOUS
 62
         4
100
AcDbLine
 10
1549.0799447273
 20
-141.7400158384
 30
0.0
 11
1550.0786991586
 21
-140.7412614071
 31
0.0
  0
LINE
  5
3C
100
AcDbEntity
  8
L1_45
  6
CONTINUOUS
 62
         4
100
AcDbLine
 10
1555.5379941449
 20
-135.2819664209
 30
0.0
 11
1572.1898629898
 21
-118.630097576
 31
0.0
  0
LINE
  5
3D
100
AcDbEntity
  8
L1_45
  6
CONTINUOUS
 62
         4
100
AcDbLine
 10
1509.8373032654
 20
-176.7400166132
 30
0.0
 11
1542.8786999334
 21
-143.6986199452
 31
0.0
  0
LINE
  5
3E
100
AcDbEntity
  8
L1_45
  6
CONTINUOUS
 62
         4
100
AcDbLine
 10
1544.8373032654
 20
-141.7400166132
 30
0.0
 11
1568.0545134579
 21
-118.5228064208
 31
0.0
  0
LINE
  5
3F
100
AcDbEntity
  8
L1_45
  6
CONTINUOUS
 62
         4
100
AcDbLine
 10
1507.8786999334
 20
-174.4559792581
 30
0.0
 11
1563.9191639259
 21
-118.4155152656
 31
0.0
  0
LINE
  5
40
100
AcDbEntity
  8
L1_45
  6
CONTINUOUS
 62
         4
100
AcDbLine
 10
1507.8786999334
 20
-170.213338571
 30
0.0
 11
1559.783814394
 21
-118.3082241104
 31
0.0
  0
LINE
  5
41
100
AcDbEntity
  8
L1_45
  6
CONTINUOUS
 62
         4
100
AcDbLine
 10
1507.8786999334
 20
-165.9706978839
 30
0.0
 11
1555.648464862
 21
-118.2009329552
 31
0.0
  0
LINE
  5
42
100
AcDbEntity
  8
L1_45
  6
CONTINUOUS
 62
         4
100
AcDbLine
 10
1507.822456173
 20
-161.7843009571
 30
0.0
 11
1551.5659575255
 21
-118.0407996047
 31
0.0
  0
LINE
  5
43
100
AcDbEntity
  8
L1_45
  6
CONTINUOUS
 62
         4
100
AcDbLine
 10
1503.7830830869
 20
-161.5810333562
 30
0.0
 11
1550.0786999334
 21
-115.2854165096
 31
0.0
  0
LINE
  5
44
100
AcDbEntity
  8
L1_45
  6
CONTINUOUS
 62
         4
100
AcDbLine
 10
1500.0804122606
 20
-161.0410634953
 30
0.0
 11
1549.34527367
 21
-111.7762020859
 31
0.0
  0
LINE
  5
45
100
AcDbEntity
  8
L1_45
  6
CONTINUOUS
 62
         4
100
AcDbLine
 10
1496.3777414344
 20
-160.5010936344
 30
0.0
 11
1545.1388184556
 21
-111.7400166132
 31
0.0
  0
LINE
  5
46
100
AcDbEntity
  8
L1_45
  6
CONTINUOUS
 62
         4
100
AcDbLine
 10
1492.6750706082
 20
-159.9611237735
 30
0.0
 11
1542.8786999334
 21
-109.7574944483
 31
0.0
  0
LINE
  5
47
100
AcDbEntity
  8
L1_45
  6
CONTINUOUS
 62
         4
100
AcDbLine
 10
1488.972399782
 20
-159.4211539126
 30
0.0
 11
1542.8786999334
 21
-105.5148537612
 31
0.0
  0
LINE
  5
48
100
AcDbEntity
  8
L1_45
  6
CONTINUOUS
 62
         4
100
AcDbLine
 10
1485.2697289558
 20
-158.8811840517
 30
0.0
 11
1542.8786999334
 21
-101.272213074
 31
0.0
  0
LINE
  5
49
100
AcDbEntity
  8
L1_45
  6
CONTINUOUS
 62
         4
100
AcDbLine
 10
1481.5670581295
 20
-158.3412141908
 30
0.0
 11
1542.8786999334
 21
-97.0295723869
 31
0.0
  0
LINE
  5
4A
100
AcDbEntity
  8
L1_45
  6
CONTINUOUS
 62
         4
100
AcDbLine
 10
1477.8643873033
 20
-157.8012443299
 30
0.0
 11
1542.8786999334
 21
-92.7869316998
 31
0.0
  0
LINE
  5
4B
100
AcDbEntity
  8
L1_45
  6
CONTINUOUS
 62
         4
100
AcDbLine
 10
1474.1617164771
 20
-157.261274469
 30
0.0
 11
1542.8786999334
 21
-88.5442910127
 31
0.0
  0
LINE
  5
4C
100
AcDbEntity
  8
L1_45
  6
CONTINUOUS
 62
         4
100
AcDbLine
 10
1470.4590456509
 20
-156.7213046081
 30
0.0
 11
1542.8786999334
 21
-84.3016503256
 31
0.0
  0
LINE
  5
4D
100
AcDbEntity
  8
L1_45
  6
CONTINUOUS
 62
         4
100
AcDbLine
 10
1466.7563748246
 20
-156.1813347472
 30
0.0
 11
1542.8786999334
 21
-80.0590096384
 31
0.0
  0
LINE
  5
4E
100
AcDbEntity
  8
L1_45
  6
CONTINUOUS
 62
         4
100
AcDbLine
 10
1463.0537039984
 20
-155.6413648863
 30
0.0
 11
1541.9523373515
 21
-76.7427315333
 31
0.0
  0
LINE
  5
4F
100
AcDbEntity
  8
L1_45
  6
CONTINUOUS
 62
         4
100
AcDbLine
 10
1459.3510331722
 20
-155.1013950254
 30
0.0
 11
1530.2124115844
 21
-84.2400166132
 31
0.0
  0
LINE
  5
50
100
AcDbEntity
  8
L1_45
  6
CONTINUOUS
 62
         4
100
AcDbLine
 10
1532.6026869501
 20
-81.8497412475
 30
0.0
 11
1537.7124115844
 21
-76.7400166132
 31
0.0
  0
LINE
  5
51
100
AcDbEntity
  8
L1_45
  6
CONTINUOUS
 62
         4
100
AcDbLine
 10
1455.648362346
 20
-154.5614251645
 30
0.0
 11
1525.9697708973
 21
-84.2400166132
 31
0.0
  0
LINE
  5
52
100
AcDbEntity
  8
L1_45
  6
CONTINUOUS
 62
         4
100
AcDbLine
 10
1451.9456915198
 20
-154.0214553036
 30
0.0
 11
1523.7606727245
 21
-82.2064740989
 31
0.0
  0
LINE
  5
53
100
AcDbEntity
  8
L1_45
  6
CONTINUOUS
 62
         4
100
AcDbLine
 10
1448.2430206935
 20
-153.4814854427
 30
0.0
 11
1522.2077584539
 21
-79.5167476824
 31
0.0
  0
LINE
  5
54
100
AcDbEntity
  8
L1_45
  6
CONTINUOUS
 62
         4
100
AcDbLine
 10
1444.5403498673
 20
-152.9415155818
 30
0.0
 11
1505.6634630537
 21
-91.8184023954
 31
0.0
  0
LINE
  5
55
100
AcDbEntity
  8
L1_45
  6
CONTINUOUS
 62
         4
100
AcDbLine
 10
1507.8786999334
 20
-89.6031655157
 30
0.0
 11
1520.6548441832
 21
-76.8270212659
 31
0.0
  0
LINE
  5
56
100
AcDbEntity
  8
L1_45
  6
CONTINUOUS
 62
         4
100
AcDbLine
 10
1440.8376790411
 20
-152.4015457209
 30
0.0
 11
1455.9992081488
 21
-137.2400166132
 31
0.0
  0
LINE
  5
57
100
AcDbEntity
  8
L1_45
  6
CONTINUOUS
 62
         4
100
AcDbLine
 10
1460.9193385381
 20
-132.3198862239
 30
0.0
 11
1500.9231542252
 21
-92.3160705368
 31
0.0
  0
LINE
  5
58
100
AcDbEntity
  8
L1_45
  6
CONTINUOUS
 62
         4
100
AcDbLine
 10
1507.8786999334
 20
-85.3605248286
 30
0.0
 11
1516.4992081488
 21
-76.7400166132
 31
0.0
  0
LINE
  5
59
100
AcDbEntity
  8
L1_45
  6
CONTINUOUS
 62
         4
100
AcDbLine
 10
1437.1350082149
 20
-151.86157586
 30
0.0
 11
1451.7565674617
 21
-137.2400166132
 31
0.0
  0
LINE
  5
5A
100
AcDbEntity
  8
L1_45
  6
CONTINUOUS
 62
         4
100
AcDbLine
 10
1463.4511723221
 20
-125.5454117528
 30
0.0
 11
1495.9561649111
 21
-93.0404191637
 31
0.0
  0
LINE
  5
5B
100
AcDbEntity
  8
L1_45
  6
CONTINUOUS
 62
         4
100
AcDbLine
 10
1507.8786999334
 20
-81.1178841415
 30
0.0
 11
1512.2565674617
 21
-76.7400166132
 31
0.0
  0
LINE
  5
5C
100
AcDbEntity
  8
L1_45
  6
CONTINUOUS
 62
         4
100
AcDbLine
 10
1433.4323373887
 20
-151.3216059991
 30
0.0
 11
1447.5139267746
 21
-137.2400166132
 31
0.0
  0
LINE
  5
5D
100
AcDbEntity
  8
L1_45
  6
CONTINUOUS
 62
         4
100
AcDbLine
 10
1461.8982580515
 20
-122.8556853363
 30
0.0
 11
1490.9891755971
 21
-93.7647677907
 31
0.0
  0
LINE
  5
5E
100
AcDbEntity
  8
L1_45
  6
CONTINUOUS
 62
         4
100
AcDbLine
 10
1429.7296665624
 20
-150.7816361382
 30
0.0
 11
1443.2712860875
 21
-137.2400166132
 31
0.0
  0
LINE
  5
5F
100
AcDbEntity
  8
L1_45
  6
CONTINUOUS
 62
         4
100
AcDbLine
 10
1460.3453437809
 20
-120.1659589197
 30
0.0
 11
1486.022186283
 21
-94.4891164176
 31
0.0
  0
LINE
  5
60
100
AcDbEntity
  8
L1_45
  6
CONTINUOUS
 62
         4
100
AcDbLine
 10
1426.0269957362
 20
-150.2416662773
 30
0.0
 11
1439.0286454003
 21
-137.2400166132
 31
0.0
  0
LINE
  5
61
100
AcDbEntity
  8
L1_45
  6
CONTINUOUS
 62
         4
100
AcDbLine
 10
1458.7924295103
 20
-117.4762325032
 30
0.0
 11
1481.055196969
 21
-95.2134650446
 31
0.0
  0
LINE
  5
62
100
AcDbEntity
  8
L1_45
  6
CONTINUOUS
 62
         4
100
AcDbLine
 10
1422.32432491
 20
-149.7016964164
 30
0.0
 11
1434.7860047132
 21
-137.2400166132
 31
0.0
  0
LINE
  5
63
100
AcDbEntity
  8
L1_45
  6
CONTINUOUS
 62
         4
100
AcDbLine
 10
1455.7860047132
 20
-116.2400166132
 30
0.0
 11
1476.0882076549
 21
-95.9378136715
 31
0.0
  0
LINE
  5
64
100
AcDbEntity
  8
L1_45
  6
CONTINUOUS
 62
         4
100
AcDbLine
 10
1418.6216540838
 20
-149.1617265555
 30
0.0
 11
1430.5433640261
 21
-137.2400166132
 31
0.0
  0
LINE
  5
65
100
AcDbEntity
  8
L1_45
  6
CONTINUOUS
 62
         4
100
AcDbLine
 10
1451.5433640261
 20
-116.2400166132
 30
0.0
 11
1471.1212183408
 21
-96.6621622985
 31
0.0
  0
LINE
  5
66
100
AcDbEntity
  8
L1_45
  6
CONTINUOUS
 62
         4
100
AcDbLine
 10
1414.9189832575
 20
-148.6217566946
 30
0.0
 11
1426.300723339
 21
-137.2400166132
 31
0.0
  0
LINE
  5
67
100
AcDbEntity
  8
L1_45
  6
CONTINUOUS
 62
         4
100
AcDbLine
 10
1447.300723339
 20
-116.2400166132
 30
0.0
 11
1466.1542290268
 21
-97.3865109254
 31
0.0
  0
LINE
  5
68
100
AcDbEntity
  8
L1_45
  6
CONTINUOUS
 62
         4
100
AcDbLine
 10
1411.2163124313
 20
-148.0817868337
 30
0.0
 11
1422.0580826519
 21
-137.2400166132
 31
0.0
  0
LINE
  5
69
100
AcDbEntity
  8
L1_45
  6
CONTINUOUS
 62
         4
100
AcDbLine
 10
1443.0580826519
 20
-116.2400166132
 30
0.0
 11
1461.1872397127
 21
-98.1108595523
 31
0.0
  0
LINE
  5
6A
100
AcDbEntity
  8
L1_45
  6
CONTINUOUS
 62
         4
100
AcDbLine
 10
1407.5136416051
 20
-147.5418169728
 30
0.0
 11
1415.5166428899
 21
-139.5388156881
 31
0.0
  0
LINE
  5
6B
100
AcDbEntity
  8
L1_45
  6
CONTINUOUS
 62
         4
100
AcDbLine
 10
1416.0774990083
 20
-138.9779595697
 30
0.0
 11
1417.8154419647
 21
-137.2400166132
 31
0.0
  0
LINE
  5
6C
100
AcDbEntity
  8
L1_45
  6
CONTINUOUS
 62
         4
100
AcDbLine
 10
1438.8154419647
 20
-116.2400166132
 30
0.0
 11
1456.2202503987
 21
-98.8352081793
 31
0.0
  0
LINE
  5
6D
100
AcDbEntity
  8
L1_45
  6
CONTINUOUS
 62
         4
100
AcDbLine
 10
1403.8167967873
 20
-146.9960211035
 30
0.0
 11
1411.5728012776
 21
-139.2400166132
 31
0.0
  0
LINE
  5
6E
100
AcDbEntity
  8
L1_45
  6
CONTINUOUS
 62
         4
100
AcDbLine
 10
1434.5728012776
 20
-116.2400166132
 30
0.0
 11
1451.2532610846
 21
-99.5595568062
 31
0.0
  0
LINE
  5
6F
100
AcDbEntity
  8
L1_45
  6
CONTINUOUS
 62
         4
100
AcDbLine
 10
1403.0736999334
 20
-143.4964772703
 30
0.0
 11
1407.3301605905
 21
-139.2400166132
 31
0.0
  0
LINE
  5
70
100
AcDbEntity
  8
L1_45
  6
CONTINUOUS
 62
         4
100
AcDbLine
 10
1430.3301605905
 20
-116.2400166132
 30
0.0
 11
1446.2862717705
 21
-100.2839054332
 31
0.0
  0
LINE
  5
71
100
AcDbEntity
  8
L1_45
  6
CONTINUOUS
 62
         4
100
AcDbLine
 10
1426.0875199034
 20
-116.2400166132
 30
0.0
 11
1441.3192824565
 21
-101.0082540601
 31
0.0
  0
LINE
  5
72
100
AcDbEntity
  8
L1_45
  6
CONTINUOUS
 62
         4
100
AcDbLine
 10
1421.8448792163
 20
-116.2400166132
 30
0.0
 11
1436.3522931424
 21
-101.7326026871
 31
0.0
  0
LINE
  5
73
100
AcDbEntity
  8
L1_45
  6
CONTINUOUS
 62
         4
100
AcDbLine
 10
1417.6022385291
 20
-116.2400166132
 30
0.0
 11
1431.3853038283
 21
-102.456951314
 31
0.0
  0
LINE
  5
74
100
AcDbEntity
  8
L1_45
  6
CONTINUOUS
 62
         4
100
AcDbLine
 10
1415.6380504454
 20
-113.9615640098
 30
0.0
 11
1426.4183145143
 21
-103.1812999409
 31
0.0
  0
LINE
  5
75
100
AcDbEntity
  8
L1_45
  6
CONTINUOUS
 62
         4
100
AcDbLine
 10
1411.1169571549
 20
-114.2400166132
 30
0.0
 11
1421.4513252002
 21
-103.9056485679
 31
0.0
  0
LINE
  5
76
100
AcDbEntity
  8
L1_45
  6
CONTINUOUS
 62
         4
100
AcDbLine
 10
1406.8743164678
 20
-114.2400166132
 30
0.0
 11
1416.4843358862
 21
-104.6299971948
 31
0.0
  0
LINE
  5
77
100
AcDbEntity
  8
L1_45
  6
CONTINUOUS
 62
         4
100
AcDbLine
 10
1403.4292725729
 20
-113.442419821
 30
0.0
 11
1411.5173465721
 21
-105.3543458218
 31
0.0
  0
LINE
  5
78
100
AcDbEntity
  8
L1_45
  6
CONTINUOUS
 62
         4
100
AcDbLine
 10
1403.0736999334
 20
-109.5553517733
 30
0.0
 11
1406.550357258
 21
-106.0786944487
 31
0.0
  0
ENDBLK
  5
79
100
AcDbEntity
  8
0
  6
CONTINUOUS
100
AcDbBlockEnd
  0
BLOCK
  5
123
100
AcDbEntity
  8
0
100
AcDbBlockBegin
  2
*D1
 70
        65
 10
0.0
 20
0.0
 30
0.0
  3
*D1
  1

  0
POINT
  5
126
100
AcDbEntity
  8
DEFPOINTS
  6
CONTINUOUS
 62
         0
100
AcDbPoint
 10
1504.8786999334
 20
194.2028236138
 30
0.0
  0
POINT
  5
127
100
AcDbEntity
  8
DEFPOINTS
  6
CONTINUOUS
 62
         0
100
AcDbPoint
 10
1504.8786999334
 20
147.2532077601
 30
0.0
  0
POINT
  5
128
100
AcDbEntity
  8
DEFPOINTS
  6
CONTINUOUS
 62
         0
100
AcDbPoint
 10
1549.8786999334
 20
126.2524144385
 30
0.0
  0
LINE
  5
129
100
AcDbEntity
  8
L1_45
  6
CONTINUOUS
 62
         4
100
AcDbLine
 10
1504.8786999334
 20
149.0032077601
 30
0.0
 11
1504.8786999334
 21
195.0778236138
 31
0.0
  0
LINE
  5
12A
100
AcDbEntity
  8
L1_45
  6
CONTINUOUS
 62
         4
100
AcDbLine
 10
1549.8786999334
 20
128.0024144385
 30
0.0
 11
1549.8786999334
 21
195.0778236138
 31
0.0
  0
LINE
  5
12B
100
AcDbEntity
  8
L1_45
  6
CONTINUOUS
 62
         4
100
AcDbLine
 10
1504.8786999334
 20
194.2028236138
 30
0.0
 11
1549.8786999334
 21
194.2028236138
 31
0.0
  0
SOLID
  5
12C
100
AcDbEntity
  8
L1_45
  6
CONTINUOUS
 62
         4
100
AcDbTrace
 10
1504.8786999334
 20
194.2028236138
 30
0.0
 11
1508.3786999334
 21
194.7278236138
 31
0.0
 12
1508.3786999334
 22
193.6778236138
 32
0.0
 13
1504.8786999334
 23
194.2028236138
 33
0.0
  0
SOLID
  5
12D
100
AcDbEntity
  8
L1_45
  6
CONTINUOUS
 62
         4
100
AcDbTrace
 10
1549.8786999334
 20
194.2028236138
 30
0.0
 11
1546.3786999334
 21
193.6778236138
 31
0.0
 12
1546.3786999334
 22
194.7278236138
 32
0.0
 13
1549.8786999334
 23
194.2028236138
 33
0.0
  0
TEXT
  5
12F
100
AcDbEntity
  8
L1_45
  6
CONTINUOUS
 62
         4
100
AcDbText
 10
1522.7234972374
 20
196.8278236138
 30
0.0
 40
3.5
  1
45
  7
BOX
100
AcDbText
  0
ENDBLK
  5
130
100
AcDbEntity
  8
0
  6
CONTINUOUS
100
AcDbBlockEnd
  0
BLOCK
  5
13D
100
AcDbEntity
  8
0
100
AcDbBlockBegin
  2
*D2
 70
        65
 10
0.0
 20
0.0
 30
0.0
  3
*D2
  1

  0
POINT
  5
13F
100
AcDbEntity
  8
DEFPOINTS
  6
CONTINUOUS
 62
         0
100
AcDbPoint
 10
1615.7820849407
 20
-134.6660166132
 30
0.0
  0
POINT
  5
140
100
AcDbEntity
  8
DEFPOINTS
  6
CONTINUOUS
 62
         0
100
AcDbPoint
 10
1579.2786999334
 20
-134.6660166132
 30
0.0
  0
POINT
  5
141
100
AcDbEntity
  8
DEFPOINTS
  6
CONTINUOUS
 62
         0
100
AcDbPoint
 10
1579.2786999334
 20
-118.8140166132
 30
0.0
  0
LINE
  5
142
100
AcDbEntity
  8
L1_45
  6
CONTINUOUS
 62
         4
100
AcDbLine
 10
1581.0286999334
 20
-134.6660166132
 30
0.0
 11
1616.6570849407
 21
-134.6660166132
 31
0.0
  0
LINE
  5
143
100
AcDbEntity
  8
L1_45
  6
CONTINUOUS
 62
         4
100
AcDbLine
 10
1581.0286999334
 20
-118.8140166132
 30
0.0
 11
1616.6570849407
 21
-118.8140166132
 31
0.0
  0
LINE
  5
144
100
AcDbEntity
  8
L1_45
  6
CONTINUOUS
 62
         4
100
AcDbLine
 10
1615.7820849407
 20
-134.6660166132
 30
0.0
 11
1615.7820849407
 21
-118.8140166132
 31
0.0
  0
SOLID
  5
145
100
AcDbEntity
  8
L1_45
  6
CONTINUOUS
 62
         4
100
AcDbTrace
 10
1615.7820849407
 20
-134.6660166132
 30
0.0
 11
1615.2570849407
 21
-131.1660166132
 31
0.0
 12
1616.3070849407
 22
-131.1660166132
 32
0.0
 13
1615.7820849407
 23
-134.6660166132
 33
0.0
  0
SOLID
  5
146
100
AcDbEntity
  8
L1_45
  6
CONTINUOUS
 62
         4
100
AcDbTrace
 10
1615.7820849407
 20
-118.8140166132
 30
0.0
 11
1616.3070849407
 21
-122.3140166132
 31
0.0
 12
1615.2570849407
 22
-122.3140166132
 32
0.0
 13
1615.7820849407
 23
-118.8140166132
 33
0.0
  0
TEXT
  5
148
100
AcDbEntity
  8
L1_45
  6
CONTINUOUS
 62
         4
100
AcDbText
 10
1613.1570849407
 20
-137.6205652667
 30
0.0
 40
3.5
  1
崷15.852
 50
90.0
  7
BOX
100
AcDbText
  0
ENDBLK
  5
149
100
AcDbEntity
  8
0
  6
CONTINUOUS
100
AcDbBlockEnd
  0
BLOCK
  5
15D
100
AcDbEntity
  8
0
100
AcDbBlockBegin
  2
*D3
 70
        65
 10
0.0
 20
0.0
 30
0.0
  3
*D3
  1

  0
POINT
  5
15F
100
AcDbEntity
  8
DEFPOINTS
  6
CONTINUOUS
 62
         0
100
AcDbPoint
 10
1403.0836999334
 20
203.6435005552
 30
0.0
  0
POINT
  5
160
100
AcDbEntity
  8
DEFPOINTS
  6
CONTINUOUS
 62
         0
100
AcDbPoint
 10
1403.0836999334
 20
131.5419817744
 30
0.0
  0
POINT
  5
161
100
AcDbEntity
  8
DEFPOINTS
  6
CONTINUOUS
 62
         0
100
AcDbPoint
 10
1579.2786999334
 20
112.2524144385
 30
0.0
  0
LINE
  5
162
100
AcDbEntity
  8
L1_45
  6
CONTINUOUS
 62
         4
100
AcDbLine
 10
1403.0836999334
 20
133.2919817744
 30
0.0
 11
1403.0836999334
 21
204.5185005552
 31
0.0
  0
LINE
  5
163
100
AcDbEntity
  8
L1_45
  6
CONTINUOUS
 62
         4
100
AcDbLine
 10
1579.2786999334
 20
114.0024144385
 30
0.0
 11
1579.2786999334
 21
204.5185005552
 31
0.0
  0
LINE
  5
164
100
AcDbEntity
  8
L1_45
  6
CONTINUOUS
 62
         4
100
AcDbLine
 10
1403.0836999334
 20
203.6435005552
 30
0.0
 11
1579.2786999334
 21
203.6435005552
 31
0.0
  0
SOLID
  5
165
100
AcDbEntity
  8
L1_45
  6
CONTINUOUS
 62
         4
100
AcDbTrace
 10
1403.0836999334
 20
203.6435005552
 30
0.0
 11
1406.5836999334
 21
204.1685005552
 31
0.0
 12
1406.5836999334
 22
203.1185005552
 32
0.0
 13
1403.0836999334
 23
203.6435005552
 33
0.0
  0
SOLID
  5
166
100
AcDbEntity
  8
L1_45
  6
CONTINUOUS
 62
         4
100
AcDbTrace
 10
1579.2786999334
 20
203.6435005552
 30
0.0
 11
1575.7786999334
 21
203.1185005552
 31
0.0
 12
1575.7786999334
 22
204.1685005552
 32
0.0
 13
1579.2786999334
 23
203.6435005552
 33
0.0
  0
TEXT
  5
168
100
AcDbEntity
  8
L1_45
  6
CONTINUOUS
 62
         4
100
AcDbText
 10
1485.0211702514
 20
206.2685005552
 30
0.0
 40
3.5
  1
176.2
  7
BOX
100
AcDbText
  0
ENDBLK
  5
169
100
AcDbEntity
  8
0
  6
CONTINUOUS
100
AcDbBlockEnd
  0
BLOCK
  5
16E
100
AcDbEntity
  8
0
100
AcDbBlockBegin
  2
*D4
 70
        65
 10
0.0
 20
0.0
 30
0.0
  3
*D4
  1

  0
POINT
  5
170
100
AcDbEntity
  8
DEFPOINTS
  6
CONTINUOUS
 62
         0
100
AcDbPoint
 10
1609.6473906887
 20
127.2524144385
 30
0.0
  0
POINT
  5
171
100
AcDbEntity
  8
DEFPOINTS
  6
CONTINUOUS
 62
         0
100
AcDbPoint
 10
1548.8786999334
 20
127.2524144385
 30
0.0
  0
POINT
  5
172
100
AcDbEntity
  8
DEFPOINTS
  6
CONTINUOUS
 62
         0
100
AcDbPoint
 10
1548.8786999334
 20
97.2524144385
 30
0.0
  0
LINE
  5
173
100
AcDbEntity
  8
L1_45
  6
CONTINUOUS
 62
         4
100
AcDbLine
 10
1550.6286999334
 20
127.2524144385
 30
0.0
 11
1610.5223906887
 21
127.2524144385
 31
0.0
  0
LINE
  5
174
100
AcDbEntity
  8
L1_45
  6
CONTINUOUS
 62
         4
100
AcDbLine
 10
1550.6286999334
 20
97.2524144385
 30
0.0
 11
1610.5223906887
 21
97.2524144385
 31
0.0
  0
LINE
  5
175
100
AcDbEntity
  8
L1_45
  6
CONTINUOUS
 62
         4
100
AcDbLine
 10
1609.6473906887
 20
127.2524144385
 30
0.0
 11
1609.6473906887
 21
97.2524144385
 31
0.0
  0
SOLID
  5
176
100
AcDbEntity
  8
L1_45
  6
CONTINUOUS
 62
         4
100
AcDbTrace
 10
1609.6473906887
 20
127.2524144385
 30
0.0
 11
1610.1723906887
 21
123.7524144385
 31
0.0
 12
1609.1223906887
 22
123.7524144385
 32
0.0
 13
1609.6473906887
 23
127.2524144385
 33
0.0
  0
SOLID
  5
177
100
AcDbEntity
  8
L1_45
  6
CONTINUOUS
 62
         4
100
AcDbTrace
 10
1609.6473906887
 20
97.2524144385
 30
0.0
 11
1609.1223906887
 21
100.7524144385
 31
0.0
 12
1610.1723906887
 22
100.7524144385
 32
0.0
 13
1609.6473906887
 23
97.2524144385
 33
0.0
  0
TEXT
  5
179
100
AcDbEntity
  8
L1_45
  6
CONTINUOUS
 62
         4
100
AcDbText
 10
1607.0223906887
 20
105.7424078818
 30
0.0
 40
3.5
  1
崷30
 50
90.0
  7
BOX
100
AcDbText
  0
ENDBLK
  5
17A
100
AcDbEntity
  8
0
  6
CONTINUOUS
100
AcDbBlockEnd
  0
BLOCK
  5
18B
100
AcDbEntity
  8
0
100
AcDbBlockBegin
  2
*D5
 70
        65
 10
0.0
 20
0.0
 30
0.0
  3
*D5
  1

  0
POINT
  5
18D
100
AcDbEntity
  8
DEFPOINTS
  6
CONTINUOUS
 62
         0
100
AcDbPoint
 10
1549.8786999334
 20
88.6364708381
 30
0.0
  0
POINT
  5
18E
100
AcDbEntity
  8
DEFPOINTS
  6
CONTINUOUS
 62
         0
100
AcDbPoint
 10
1549.8786999334
 20
101.6200406275
 30
0.0
  0
POINT
  5
18F
100
AcDbEntity
  8
DEFPOINTS
  6
CONTINUOUS
 62
         0
100
AcDbPoint
 10
1553.8786999334
 20
102.4918204162
 30
0.0
  0
LINE
  5
190
100
AcDbEntity
  8
L1_45
  6
CONTINUOUS
 62
         4
100
AcDbLine
 10
1549.8786999334
 20
99.8700406275
 30
0.0
 11
1549.8786999334
 21
87.7614708381
 31
0.0
  0
LINE
  5
191
100
AcDbEntity
  8
L1_45
  6
CONTINUOUS
 62
         4
100
AcDbLine
 10
1553.8786999334
 20
100.7418204162
 30
0.0
 11
1553.8786999334
 21
87.7614708381
 31
0.0
  0
LINE
  5
192
100
AcDbEntity
  8
L1_45
  6
CONTINUOUS
 62
         4
100
AcDbLine
 10
1549.8786999334
 20
88.6364708381
 30
0.0
 11
1542.8786999334
 21
88.6364708381
 31
0.0
  0
SOLID
  5
193
100
AcDbEntity
  8
L1_45
  6
CONTINUOUS
 62
         4
100
AcDbTrace
 10
1549.8786999334
 20
88.6364708381
 30
0.0
 11
1546.3786999334
 21
88.1114708381
 31
0.0
 12
1546.3786999334
 22
89.1614708381
 32
0.0
 13
1549.8786999334
 23
88.6364708381
 33
0.0
  0
LINE
  5
194
100
AcDbEntity
  8
L1_45
  6
CONTINUOUS
 62
         4
100
AcDbLine
 10
1553.8786999334
 20
88.6364708381
 30
0.0
 11
1562.0427161228
 21
88.6364708381
 31
0.0
  0
SOLID
  5
195
100
AcDbEntity
  8
L1_45
  6
CONTINUOUS
 62
         4
100
AcDbTrace
 10
1553.8786999334
 20
88.6364708381
 30
0.0
 11
1557.3786999334
 21
89.1614708381
 31
0.0
 12
1557.3786999334
 22
88.1114708381
 32
0.0
 13
1553.8786999334
 23
88.6364708381
 33
0.0
  0
LINE
  5
196
100
AcDbEntity
  8
L1_45
  6
CONTINUOUS
 62
         4
100
AcDbLine
 10
1549.8786999334
 20
88.6364708381
 30
0.0
 11
1553.8786999334
 21
88.6364708381
 31
0.0
  0
TEXT
  5
198
100
AcDbEntity
  8
L1_45
  6
CONTINUOUS
 62
         4
100
AcDbText
 10
1556.7927161228
 20
91.2614708381
 30
0.0
 40
3.5
  1
4
  7
BOX
100
AcDbText
  0
ENDBLK
  5
199
100
AcDbEntity
  8
0
  6
CONTINUOUS
100
AcDbBlockEnd
  0
ENDSEC
  0
SECTION
  2
ENTITIES
  0
TEXT
  5
2A
100
AcDbEntity
  8
L1_45
  6
CONTINUOUS
 62
         2
100
AcDbText
 10
1834.4470008943
 20
203.7244799488
 30
0.0
 40
4.5
  1
532237
 41
0.98
  7
BOX
100
AcDbText
  0
INSERT
  5
7B
100
AcDbEntity
  8
0
  6
CONTINUOUS
100
AcDbBlockReference
  2
*X0
 10
0.0
 20
0.0
 30
0.0
  0
ARC
  5
7C
100
AcDbEntity
  8
L1_45
  6
CONTINUOUS
 62
         7
100
AcDbCircle
 10
1543.8786999334
 20
-142.7400166132
 30
0.0
 40
1.0
100
AcDbArc
 50
90.0
 51
180.0
  0
ARC
  5
7D
100
AcDbEntity
  8
L1_45
  6
CONTINUOUS
 62
         7
100
AcDbCircle
 10
1543.8786999334
 20
-110.7400166132
 30
0.0
 40
1.0
100
AcDbArc
 50
180.0
 51
270.0
  0
ARC
  5
7E
100
AcDbEntity
  8
L1_45
  6
CONTINUOUS
 62
         7
100
AcDbCircle
 10
1543.8786999334
 20
96.2524144385
 30
0.0
 40
1.0
100
AcDbArc
 50
90.0
 51
180.0
  0
ARC
  5
7F
100
AcDbEntity
  8
L1_45
  6
CONTINUOUS
 62
         7
100
AcDbCircle
 10
1543.8786999334
 20
128.2524144385
 30
0.0
 40
1.0
100
AcDbArc
 50
180.0
 51
270.0
  0
LINE
  5
80
100
AcDbEntity
  8
_Y__________
  6
CONTINUOUS
 62
         7
100
AcDbLine
 10
1507.8786999334
 20
-174.7400166132
 30
0.0
 11
1507.8786999334
 21
-175.7400166132
 31
0.0
  0
ARC
  5
81
100
AcDbEntity
  8
_Y__________
  6
CONTINUOUS
 62
         7
100
AcDbCircle
 10
1508.8786999334
 20
-175.7400166132
 30
0.0
 40
1.0
100
AcDbArc
 50
180.0
 51
270.0
  0
LINE
  5
82
100
AcDbEntity
  8
_Y__________
  6
CONTINUOUS
 62
         7
100
AcDbLine
 10
1508.8786999334
 20
-176.7400166132
 30
0.0
 11
1509.8786999334
 21
-176.7400166132
 31
0.0
  0
LINE
  5
83
100
AcDbEntity
  8
_Y__________
  6
CONTINUOUS
 62
         7
100
AcDbLine
 10
1542.8786999334
 20
-174.7400166132
 30
0.0
 11
1542.8786999334
 21
-175.7400166132
 31
0.0
  0
LINE
  5
84
100
AcDbEntity
  8
_Y__________
  6
CONTINUOUS
 62
         7
100
AcDbLine
 10
1540.8786999334
 20
-176.7400166132
 30
0.0
 11
1541.8786999334
 21
-176.7400166132
 31
0.0
  0
ARC
  5
85
100
AcDbEntity
  8
_Y__________
  6
CONTINUOUS
 62
         7
100
AcDbCircle
 10
1541.8786999334
 20
-175.7400166132
 30
0.0
 40
1.0
100
AcDbArc
 50
270.0
 51
360.0
  0
LINE
  5
86
100
AcDbEntity
  8
_Y__________
  6
CONTINUOUS
 62
         7
100
AcDbLine
 10
1508.8786999334
 20
-76.7400166132
 30
0.0
 11
1509.8786999334
 21
-76.7400166132
 31
0.0
  0
ARC
  5
87
100
AcDbEntity
  8
_Y__________
  6
CONTINUOUS
 62
         7
100
AcDbCircle
 10
1508.8786999334
 20
-77.7400166132
 30
0.0
 40
1.0
100
AcDbArc
 50
90.0
 51
180.0
  0
LINE
  5
88
100
AcDbEntity
  8
_Y__________
  6
CONTINUOUS
 62
         7
100
AcDbLine
 10
1507.8786999334
 20
-77.7400166132
 30
0.0
 11
1507.8786999334
 21
-78.7400166132
 31
0.0
  0
LINE
  5
89
100
AcDbEntity
  8
_Y__________
  6
CONTINUOUS
 62
         7
100
AcDbLine
 10
1542.8786999334
 20
-77.7400166132
 30
0.0
 11
1542.8786999334
 21
-78.7400166132
 31
0.0
  0
ARC
  5
8A
100
AcDbEntity
  8
_Y__________
  6
CONTINUOUS
 62
         7
100
AcDbCircle
 10
1541.8786999334
 20
-77.7400166132
 30
0.0
 40
1.0
100
AcDbArc
 50
0.0
 51
90.0
  0
LINE
  5
8B
100
AcDbEntity
  8
_Y__________
  6
CONTINUOUS
 62
         7
100
AcDbLine
 10
1540.8786999334
 20
-76.7400166132
 30
0.0
 11
1541.8786999334
 21
-76.7400166132
 31
0.0
  0
LINE
  5
8C
100
AcDbEntity
  8
_Y__________
  6
CONTINUOUS
 62
         7
100
AcDbLine
 10
1507.8386999334
 20
64.1774144385
 30
0.0
 11
1507.8386999334
 21
63.1774144385
 31
0.0
  0
LINE
  5
8D
100
AcDbEntity
  8
_Y__________
  6
CONTINUOUS
 62
         7
100
AcDbLine
 10
1542.8786999334
 20
64.1774144385
 30
0.0
 11
1542.8786999334
 21
63.1774144385
 31
0.0
  0
ARC
  5
8E
100
AcDbEntity
  8
_Y__________
  6
CONTINUOUS
 62
         7
100
AcDbCircle
 10
1508.8386999334
 20
63.1774144385
 30
0.0
 40
1.0
100
AcDbArc
 50
180.0
 51
270.0
  0
LINE
  5
8F
100
AcDbEntity
  8
_Y__________
  6
CONTINUOUS
 62
         7
100
AcDbLine
 10
1508.8386999334
 20
62.1774144385
 30
0.0
 11
1509.8386999334
 21
62.1774144385
 31
0.0
  0
LINE
  5
90
100
AcDbEntity
  8
_Y__________
  6
CONTINUOUS
 62
         7
100
AcDbLine
 10
1540.8786999334
 20
62.1774144385
 30
0.0
 11
1541.8786999334
 21
62.1774144385
 31
0.0
  0
ARC
  5
91
100
AcDbEntity
  8
_Y__________
  6
CONTINUOUS
 62
         7
100
AcDbCircle
 10
1541.8786999334
 20
63.1774144385
 30
0.0
 40
1.0
100
AcDbArc
 50
270.0
 51
360.0
  0
LINE
  5
92
100
AcDbEntity
  8
_Y__________
  6
CONTINUOUS
 62
         7
100
AcDbLine
 10
1542.8786999334
 20
161.3274144385
 30
0.0
 11
1542.8786999334
 21
160.3274144385
 31
0.0
  0
ARC
  5
93
100
AcDbEntity
  8
_Y__________
  6
CONTINUOUS
 62
         7
100
AcDbCircle
 10
1541.8786999334
 20
161.3274144385
 30
0.0
 40
1.0
100
AcDbArc
 50
0.0
 51
90.0
  0
LINE
  5
94
100
AcDbEntity
  8
_Y__________
  6
CONTINUOUS
 62
         7
100
AcDbLine
 10
1540.8786999334
 20
162.3274144385
 30
0.0
 11
1541.8786999334
 21
162.3274144385
 31
0.0
  0
LINE
  5
95
100
AcDbEntity
  8
_Y__________
  6
CONTINUOUS
 62
         7
100
AcDbLine
 10
1508.8386999334
 20
162.3274144385
 30
0.0
 11
1509.8386999334
 21
162.3274144385
 31
0.0
  0
ARC
  5
96
100
AcDbEntity
  8
_Y__________
  6
CONTINUOUS
 62
         7
100
AcDbCircle
 10
1508.8386999334
 20
161.3274144385
 30
0.0
 40
1.0
100
AcDbArc
 50
90.0
 51
180.0
  0
LINE
  5
97
100
AcDbEntity
  8
_Y__________
  6
CONTINUOUS
 62
         7
100
AcDbLine
 10
1507.8386999334
 20
161.3274144385
 30
0.0
 11
1507.8386999334
 21
160.3274144385
 31
0.0
  0
LINE
  5
98
100
AcDbEntity
  8
_Y__________
  6
DASHED
 62
         2
100
AcDbLine
 10
1810.4340594905
 20
100.2024144385
 30
0.0
 11
1809.6340594905
 21
99.4024144385
 31
0.0
  0
LINE
  5
99
100
AcDbEntity
  8
_Y__________
  6
DASHED
 62
         2
100
AcDbLine
 10
1810.4340594905
 20
124.3024144385
 30
0.0
 11
1809.6340594905
 21
125.1024144385
 31
0.0
  0
LINE
  5
9A
100
AcDbEntity
  8
_Y__________
  6
DASHED
 62
         2
100
AcDbLine
 10
1881.2340594905
 20
124.3024144385
 30
0.0
 11
1882.0340594905
 21
125.1024144385
 31
0.0
  0
LINE
  5
9B
100
AcDbEntity
  8
_Y__________
  6
CONTINUOUS
 62
         2
100
AcDbLine
 10
1882.0340594905
 20
99.4024144385
 30
0.0
 11
1881.2340594905
 21
100.2024144385
 31
0.0
  0
LINE
  5
9C
100
AcDbEntity
  8
_Y__________
  6
DASHED
 62
         2
100
AcDbLine
 10
1881.2340594905
 20
124.3024144385
 30
0.0
 11
1881.2340594905
 21
100.2024144385
 31
0.0
  0
LINE
  5
9D
100
AcDbEntity
  8
_Y__________
  6
DASHED
 62
         2
100
AcDbLine
 10
1893.1191258435
 20
99.4024144385
 30
0.0
 11
1893.8775554083
 21
98.4024144385
 31
0.0
  0
LINE
  5
9E
100
AcDbEntity
  8
_Y__________
  6
DASHED
 62
         2
100
AcDbLine
 10
1893.1191258435
 20
99.4024144385
 30
0.0
 11
1882.0340594905
 21
99.4024144385
 31
0.0
  0
LINE
  5
9F
100
AcDbEntity
  8
_Y__________
  6
DASHED
 62
         2
100
AcDbLine
 10
1893.1191258435
 20
125.1024144385
 30
0.0
 11
1893.8775554083
 21
126.1024144385
 31
0.0
  0
LINE
  5
A0
100
AcDbEntity
  8
_Y__________
  6
DASHED
 62
         2
100
AcDbLine
 10
1893.1191258435
 20
125.1024144385
 30
0.0
 11
1882.0340594905
 21
125.1024144385
 31
0.0
  0
LINE
  5
A1
100
AcDbEntity
  8
_Y__________
  6
DASHED
 62
         2
100
AcDbLine
 10
1810.4340594905
 20
124.3024144385
 30
0.0
 11
1810.4340594905
 21
100.2024144385
 31
0.0
  0
LINE
  5
A2
100
AcDbEntity
  8
_Y__________
  6
DASHED
 62
         2
100
AcDbLine
 10
1798.5489931376
 20
99.4024144385
 30
0.0
 11
1797.7905635728
 21
98.4024144385
 31
0.0
  0
LINE
  5
A3
100
AcDbEntity
  8
_Y__________
  6
DASHED
 62
         2
100
AcDbLine
 10
1798.5489931376
 20
99.4024144385
 30
0.0
 11
1809.6340594905
 21
99.4024144385
 31
0.0
  0
LINE
  5
A4
100
AcDbEntity
  8
_Y__________
  6
DASHED
 62
         2
100
AcDbLine
 10
1798.5489931376
 20
125.1024144385
 30
0.0
 11
1797.7905635728
 21
126.1024144385
 31
0.0
  0
LINE
  5
A5
100
AcDbEntity
  8
_Y__________
  6
DASHED
 62
         2
100
AcDbLine
 10
1798.5489931376
 20
125.1024144385
 30
0.0
 11
1809.6340594905
 21
125.1024144385
 31
0.0
  0
ARC
  5
A6
100
AcDbEntity
  8
_Y__________
  6
DASHED
 62
         2
100
AcDbCircle
 10
1845.8340594905
 20
112.2524144385
 30
0.0
 40
42.5
100
AcDbArc
 50
197.5989811731
 51
342.4010188269
  0
ARC
  5
A7
100
AcDbEntity
  8
_Y__________
  6
DASHED
 62
         2
100
AcDbCircle
 10
1845.8340594905
 20
112.2524144385
 30
0.0
 40
42.5
100
AcDbArc
 50
17.5989811731
 51
162.4010188269
  0
CIRCLE
  5
A8
100
AcDbEntity
  8
_Y__________
  6
CONTINUOUS
 62
         7
100
AcDbCircle
 10
1845.8340594905
 20
112.2524144385
 30
0.0
 40
50.0
  0
LINE
  5
A9
100
AcDbEntity
  8
_Y__________
  6
CENTER
 62
         1
100
AcDbLine
 10
1845.8340594905
 20
167.2524144385
 30
0.0
 11
1845.8340594905
 21
57.2524144385
 31
0.0
  0
LINE
  5
AA
100
AcDbEntity
  8
_Y__________
  6
CENTER
 62
         1
100
AcDbLine
 10
1900.8340594905
 20
112.2524144385
 30
0.0
 11
1790.8340594905
 21
112.2524144385
 31
0.0
  0
LINE
  5
AB
100
AcDbEntity
  8
_Y__________
  6
CONTINUOUS
 62
         7
100
AcDbLine
 10
1275.3233403763
 20
100.2024144385
 30
0.0
 11
1276.1233403763
 21
99.4024144385
 31
0.0
  0
LINE
  5
AC
100
AcDbEntity
  8
_Y__________
  6
CONTINUOUS
 62
         7
100
AcDbLine
 10
1276.1233403763
 20
125.1024144385
 30
0.0
 11
1275.3233403763
 21
124.3024144385
 31
0.0
  0
LINE
  5
AD
100
AcDbEntity
  8
_Y__________
  6
CONTINUOUS
 62
         7
100
AcDbLine
 10
1204.5233403763
 20
100.2024144385
 30
0.0
 11
1203.7233403763
 21
99.4024144385
 31
0.0
  0
LINE
  5
AE
100
AcDbEntity
  8
_Y__________
  6
CONTINUOUS
 62
         7
100
AcDbLine
 10
1203.7233403763
 20
125.1024144385
 30
0.0
 11
1204.5233403763
 21
124.3024144385
 31
0.0
  0
CIRCLE
  5
AF
100
AcDbEntity
  8
_Y__________
  6
CONTINUOUS
 62
         7
100
AcDbCircle
 10
1239.9233403763
 20
112.2524144385
 30
0.0
 40
34.9979162659
  0
CIRCLE
  5
B0
100
AcDbEntity
  8
_Y__________
  6
CONTINUOUS
 62
         7
100
AcDbCircle
 10
1239.9233403763
 20
112.2524144385
 30
0.0
 40
50.0
  0
LINE
  5
B1
100
AcDbEntity
  8
_Y__________
  6
CENTER
 62
         1
100
AcDbLine
 10
1239.9233403763
 20
167.2524144385
 30
0.0
 11
1239.9233403763
 21
57.2524144385
 31
0.0
  0
LINE
  5
B2
100
AcDbEntity
  8
_Y__________
  6
CENTER
 62
         1
100
AcDbLine
 10
1294.9233403763
 20
112.2524144385
 30
0.0
 11
1184.9233403763
 21
112.2524144385
 31
0.0
  0
CIRCLE
  5
B3
100
AcDbEntity
  8
_Y__________
  6
CONTINUOUS
 62
         7
100
AcDbCircle
 10
1239.9233403763
 20
112.2524144385
 30
0.0
 40
20.0792482659
  0
LINE
  5
B4
100
AcDbEntity
  8
_Y__________
  6
CONTINUOUS
 62
         7
100
AcDbLine
 10
1191.6027702223
 20
125.1024144385
 30
0.0
 11
1203.7233403763
 21
125.1024144385
 31
0.0
  0
LINE
  5
B5
100
AcDbEntity
  8
_Y__________
  6
CONTINUOUS
 62
         7
100
AcDbLine
 10
1191.6027702223
 20
99.4024144385
 30
0.0
 11
1203.7233403763
 21
99.4024144385
 31
0.0
  0
LINE
  5
B6
100
AcDbEntity
  8
_Y__________
  6
CONTINUOUS
 62
         7
100
AcDbLine
 10
1204.5233403763
 20
124.3024144385
 30
0.0
 11
1204.5233403763
 21
100.2024144385
 31
0.0
  0
CIRCLE
  5
B7
100
AcDbEntity
  8
_Y__________
  6
CONTINUOUS
 62
         7
100
AcDbCircle
 10
1239.9233403763
 20
112.2524144385
 30
0.0
 40
12.5
  0
CIRCLE
  5
B8
100
AcDbEntity
  8
_Y__________
  6
CONTINUOUS
 62
         7
100
AcDbCircle
 10
1239.9233403763
 20
112.2524144385
 30
0.0
 40
13.5
  0
CIRCLE
  5
B9
100
AcDbEntity
  8
_Y__________
  6
CONTINUOUS
 62
         7
100
AcDbCircle
 10
1239.9233403763
 20
112.2524144385
 30
0.0
 40
10.5
  0
ARC
  5
BA
100
AcDbEntity
  8
_Y__________
  6
CONTINUOUS
 62
         5
100
AcDbCircle
 10
1239.9233403763
 20
112.2524144385
 30
0.0
 40
12.0
100
AcDbArc
 50
254.3467118715
 51
525.9849549731
  0
LINE
  5
BB
100
AcDbEntity
  8
_Y__________
  6
CONTINUOUS
 62
         7
100
AcDbLine
 10
1288.2439105302
 20
125.1024144385
 30
0.0
 11
1276.1233403763
 21
125.1024144385
 31
0.0
  0
LINE
  5
BC
100
AcDbEntity
  8
_Y__________
  6
CONTINUOUS
 62
         7
100
AcDbLine
 10
1288.2439105302
 20
99.4024144385
 30
0.0
 11
1276.1233403763
 21
99.4024144385
 31
0.0
  0
LINE
  5
BD
100
AcDbEntity
  8
_Y__________
  6
CONTINUOUS
 62
         7
100
AcDbLine
 10
1275.3233403763
 20
124.3024144385
 30
0.0
 11
1275.3233403763
 21
100.2024144385
 31
0.0
  0
LINE
  5
BE
100
AcDbEntity
  8
_Y__________
  6
CONTINUOUS
 62
         7
100
AcDbLine
 10
1524.5786999334
 20
-84.2400166132
 30
0.0
 11
1531.5786999334
 21
-84.2400166132
 31
0.0
  0
LINE
  5
BF
100
AcDbEntity
  8
_Y__________
  6
CONTINUOUS
 62
         7
100
AcDbLine
 10
1531.5786999334
 20
-83.6233387867
 30
0.0
 11
1535.5527878432
 21
-76.7400166132
 31
0.0
  0
LINE
  5
C0
100
AcDbEntity
  8
_Y__________
  6
CONTINUOUS
 62
         7
100
AcDbLine
 10
1531.5786999334
 20
-83.6233387867
 30
0.0
 11
1531.5786999334
 21
-84.2400166132
 31
0.0
  0
LINE
  5
C1
100
AcDbEntity
  8
_Y__________
  6
CONTINUOUS
 62
         7
100
AcDbLine
 10
1508.8786999334
 20
-76.7400166132
 30
0.0
 11
1520.6046120236
 21
-76.7400166132
 31
0.0
  0
ARC
  5
C2
100
AcDbEntity
  8
_Y__________
  6
CONTINUOUS
 62
         7
100
AcDbCircle
 10
1507.2786999334
 20
-91.4421003473
 30
0.0
 40
0.6
100
AcDbArc
 50
270.0
 51
360.0
  0
LINE
  5
C3
100
AcDbEntity
  8
_Y__________
  6
CONTINUOUS
 62
         7
100
AcDbLine
 10
1506.4983151757
 20
-92.0421003473
 30
0.0
 11
1507.2786999334
 21
-92.0421003473
 31
0.0
  0
LINE
  5
C4
100
AcDbEntity
  8
_Y__________
  6
CONTINUOUS
 62
         7
100
AcDbLine
 10
1505.1955277024
 20
-91.693019496
 30
0.0
 11
1506.4983151757
 21
-92.0421003473
 31
0.0
  0
LINE
  5
C5
100
AcDbEntity
  8
_Y__________
  6
CONTINUOUS
 62
         7
100
AcDbLine
 10
1507.8786999334
 20
-77.7400166132
 30
0.0
 11
1507.8786999334
 21
-91.4421003473
 31
0.0
  0
LINE
  5
C6
100
AcDbEntity
  8
_Y__________
  6
CONTINUOUS
 62
         7
100
AcDbLine
 10
1524.5786999334
 20
-83.6233387867
 30
0.0
 11
1520.6046120236
 21
-76.7400166132
 31
0.0
  0
LINE
  5
C7
100
AcDbEntity
  8
_Y__________
  6
CONTINUOUS
 62
         7
100
AcDbLine
 10
1524.5786999334
 20
-83.6233387867
 30
0.0
 11
1524.5786999334
 21
-84.2400166132
 31
0.0
  0
LINE
  5
C8
100
AcDbEntity
  8
_Y__________
  6
CONTINUOUS
 62
         7
100
AcDbLine
 10
1524.5786999334
 20
-84.2400166132
 30
0.0
 11
1531.5786999334
 21
-84.2400166132
 31
0.0
  0
LINE
  5
C9
100
AcDbEntity
  8
_Y__________
  6
CONTINUOUS
 62
         7
100
AcDbLine
 10
1535.5527878432
 20
-76.7400166132
 30
0.0
 11
1541.8786999334
 21
-76.7400166132
 31
0.0
  0
LINE
  5
CA
100
AcDbEntity
  8
_Y__________
  6
CONTINUOUS
 62
         7
100
AcDbLine
 10
1505.1955277024
 20
-161.7870137304
 30
0.0
 11
1506.4983151757
 21
-161.4379328791
 31
0.0
  0
ARC
  5
CB
100
AcDbEntity
  8
_Y__________
  6
CONTINUOUS
 62
         7
100
AcDbCircle
 10
1507.2786999334
 20
-162.0379328791
 30
0.0
 40
0.6
100
AcDbArc
 50
0.0
 51
90.0
  0
LINE
  5
CC
100
AcDbEntity
  8
_Y__________
  6
CONTINUOUS
 62
         7
100
AcDbLine
 10
1531.5786999334
 20
-169.8566944397
 30
0.0
 11
1535.5527878432
 21
-176.7400166132
 31
0.0
  0
LINE
  5
CD
100
AcDbEntity
  8
_Y__________
  6
CONTINUOUS
 62
         7
100
AcDbLine
 10
1531.5786999334
 20
-169.2400166132
 30
0.0
 11
1531.5786999334
 21
-169.8566944397
 31
0.0
  0
LINE
  5
CE
100
AcDbEntity
  8
_Y__________
  6
CONTINUOUS
 62
         7
100
AcDbLine
 10
1508.8786999334
 20
-176.7400166132
 30
0.0
 11
1520.6046120236
 21
-176.7400166132
 31
0.0
  0
LINE
  5
CF
100
AcDbEntity
  8
_Y__________
  6
CONTINUOUS
 62
         7
100
AcDbLine
 10
1524.5786999334
 20
-169.8566944397
 30
0.0
 11
1520.6046120236
 21
-176.7400166132
 31
0.0
  0
LINE
  5
D0
100
AcDbEntity
  8
_Y__________
  6
CONTINUOUS
 62
         7
100
AcDbLine
 10
1524.5786999334
 20
-169.2400166132
 30
0.0
 11
1524.5786999334
 21
-169.8566944397
 31
0.0
  0
LINE
  5
D1
100
AcDbEntity
  8
_Y__________
  6
CONTINUOUS
 62
         7
100
AcDbLine
 10
1524.5786999334
 20
-169.2400166132
 30
0.0
 11
1531.5786999334
 21
-169.2400166132
 31
0.0
  0
LINE
  5
D2
100
AcDbEntity
  8
_Y__________
  6
CONTINUOUS
 62
         7
100
AcDbLine
 10
1507.8786999334
 20
-162.0379328791
 30
0.0
 11
1507.8786999334
 21
-175.7400166132
 31
0.0
  0
LINE
  5
D3
100
AcDbEntity
  8
_Y__________
  6
CONTINUOUS
 62
         7
100
AcDbLine
 10
1506.4983151757
 20
-161.4379328791
 30
0.0
 11
1507.2786999334
 21
-161.4379328791
 31
0.0
  0
LINE
  5
D4
100
AcDbEntity
  8
_Y__________
  6
CONTINUOUS
 62
         7
100
AcDbLine
 10
1448.0686999334
 20
-114.7400166132
 30
0.0
 11
1448.0686999334
 21
-138.7400166132
 31
0.0
  0
LINE
  5
D5
100
AcDbEntity
  8
_Y__________
  6
CONTINUOUS
 62
         7
100
AcDbLine
 10
1535.5527878432
 20
-176.7400166132
 30
0.0
 11
1541.8786999334
 21
-176.7400166132
 31
0.0
  0
LINE
  5
D6
100
AcDbEntity
  8
_Y__________
  6
CONTINUOUS
 62
         7
100
AcDbLine
 10
1413.5786999334
 20
-114.2400166132
 30
0.0
 11
1413.5786999334
 21
-139.2400166132
 31
0.0
  0
LINE
  5
D7
100
AcDbEntity
  8
_Y__________
  6
CONTINUOUS
 62
         7
100
AcDbLine
 10
1416.0786999334
 20
-114.5400166132
 30
0.0
 11
1416.0786999334
 21
-138.9400166132
 31
0.0
  0
ARC
  5
D8
100
AcDbEntity
  8
_Y__________
  6
CONTINUOUS
 62
         7
100
AcDbCircle
 10
1414.7773066742
 20
-138.9400166132
 30
0.0
 40
0.6
100
AcDbArc
 50
255.0
 51
270.0
  0
ARC
  5
D9
100
AcDbEntity
  8
_Y__________
  6
CONTINUOUS
 62
         7
100
AcDbCircle
 10
1415.4786999334
 20
-138.9400166132
 30
0.0
 40
0.6
100
AcDbArc
 50
270.0
 51
360.0
  0
LINE
  5
DA
100
AcDbEntity
  8
_Y__________
  6
CONTINUOUS
 62
         7
100
AcDbLine
 10
1413.5786999334
 20
-139.2400166132
 30
0.0
 11
1414.6220152472
 21
-139.519572109
 31
0.0
  0
LINE
  5
DB
100
AcDbEntity
  8
_Y__________
  6
CONTINUOUS
 62
         7
100
AcDbLine
 10
1414.7773066742
 20
-139.5400166132
 30
0.0
 11
1415.4786999334
 21
-139.5400166132
 31
0.0
  0
ARC
  5
DC
100
AcDbEntity
  8
_Y__________
  6
CONTINUOUS
 62
         7
100
AcDbCircle
 10
1415.4786999334
 20
-114.5400166132
 30
0.0
 40
0.6
100
AcDbArc
 50
0.0
 51
90.0
  0
LINE
  5
DD
100
AcDbEntity
  8
_Y__________
  6
CONTINUOUS
 62
         7
100
AcDbLine
 10
1413.5786999334
 20
-114.2400166132
 30
0.0
 11
1414.6220152472
 21
-113.9604611174
 31
0.0
  0
LINE
  5
DE
100
AcDbEntity
  8
_Y__________
  6
CONTINUOUS
 62
         7
100
AcDbLine
 10
1414.7773066742
 20
-113.9400166132
 30
0.0
 11
1415.4786999334
 21
-113.9400166132
 31
0.0
  0
ARC
  5
DF
100
AcDbEntity
  8
_Y__________
  6
CONTINUOUS
 62
         7
100
AcDbCircle
 10
1414.7773066742
 20
-114.5400166132
 30
0.0
 40
0.6
100
AcDbArc
 50
90.0
 51
105.0
  0
LINE
  5
E0
100
AcDbEntity
  8
_Y__________
  6
CONTINUOUS
 62
         7
100
AcDbLine
 10
1403.0786999334
 20
-140.2400166132
 30
0.0
 11
1404.810750741
 21
-139.2400166132
 31
0.0
  0
LINE
  5
E1
100
AcDbEntity
  8
_Y__________
  6
CONTINUOUS
 62
         7
100
AcDbLine
 10
1403.0786999334
 20
-113.2400166132
 30
0.0
 11
1404.810750741
 21
-114.2400166132
 31
0.0
  0
LINE
  5
E2
100
AcDbEntity
  8
_Y__________
  6
CONTINUOUS
 62
         7
100
AcDbLine
 10
1404.810750741
 20
-139.2400166132
 30
0.0
 11
1413.5786999334
 21
-139.2400166132
 31
0.0
  0
LINE
  5
E3
100
AcDbEntity
  8
_Y__________
  6
CONTINUOUS
 62
         7
100
AcDbLine
 10
1404.810750741
 20
-114.2400166132
 30
0.0
 11
1413.5786999334
 21
-114.2400166132
 31
0.0
  0
LINE
  5
E4
100
AcDbEntity
  8
_Y__________
  6
CONTINUOUS
 62
         5
100
AcDbLine
 10
1416.0786999334
 20
-114.7400166132
 30
0.0
 11
1448.0686999334
 21
-114.7400166132
 31
0.0
  0
LINE
  5
E5
100
AcDbEntity
  8
_Y__________
  6
CONTINUOUS
 62
         5
100
AcDbLine
 10
1416.0786999334
 20
-138.7400166132
 30
0.0
 11
1448.0686999334
 21
-138.7400166132
 31
0.0
  0
LINE
  5
E6
100
AcDbEntity
  8
_Y__________
  6
CONTINUOUS
 62
         7
100
AcDbLine
 10
1416.0786999334
 20
-116.2400166132
 30
0.0
 11
1448.0686999334
 21
-116.2400166132
 31
0.0
  0
LINE
  5
E7
100
AcDbEntity
  8
_Y__________
  6
CONTINUOUS
 62
         7
100
AcDbLine
 10
1416.0786999334
 20
-137.2400166132
 30
0.0
 11
1448.0686999334
 21
-137.2400166132
 31
0.0
  0
LINE
  5
E8
100
AcDbEntity
  8
_Y__________
  6
CENTER
 62
         1
100
AcDbLine
 10
1398.5898393473
 20
-126.7400166132
 30
0.0
 11
1542.8786999334
 21
-126.7400166132
 31
0.0
  0
LINE
  5
E9
100
AcDbEntity
  8
_Y__________
  6
CONTINUOUS
 62
         7
100
AcDbLine
 10
1531.5786999334
 20
155.519092265
 30
0.0
 11
1535.509486573
 21
162.3274144385
 31
0.0
  0
LINE
  5
EA
100
AcDbEntity
  8
_Y__________
  6
CONTINUOUS
 62
         7
100
AcDbLine
 10
1524.5786999334
 20
155.519092265
 30
0.0
 11
1520.6479132938
 21
162.3274144385
 31
0.0
  0
LINE
  5
EB
100
AcDbEntity
  8
_Y__________
  6
CONTINUOUS
 62
         7
100
AcDbLine
 10
1508.8386999334
 20
162.3274144385
 30
0.0
 11
1520.6479132938
 21
162.3274144385
 31
0.0
  0
LINE
  5
EC
100
AcDbEntity
  8
_Y__________
  6
CONTINUOUS
 62
         7
100
AcDbLine
 10
1524.5786999334
 20
154.7524144385
 30
0.0
 11
1531.5786999334
 21
154.7524144385
 31
0.0
  0
LINE
  5
ED
100
AcDbEntity
  8
_Y__________
  6
CONTINUOUS
 62
         7
100
AcDbLine
 10
1505.1955277024
 20
147.2994115558
 30
0.0
 11
1506.4983151757
 21
146.9503307044
 31
0.0
  0
LINE
  5
EE
100
AcDbEntity
  8
_Y__________
  6
CONTINUOUS
 62
         7
100
AcDbLine
 10
1506.4983151757
 20
146.9503307044
 30
0.0
 11
1507.8386999334
 21
146.9503307044
 31
0.0
  0
LINE
  5
EF
100
AcDbEntity
  8
_Y__________
  6
CENTER
 62
         1
100
AcDbLine
 10
1488.1913479344
 20
112.2524144385
 30
0.0
 11
1542.8786999334
 21
112.2524144385
 31
0.0
  0
LINE
  5
F0
100
AcDbEntity
  8
_Y__________
  6
CONTINUOUS
 62
         7
100
AcDbLine
 10
1535.509486573
 20
162.3274144385
 30
0.0
 11
1541.8786999334
 21
162.3274144385
 31
0.0
  0
LINE
  5
F1
100
AcDbEntity
  8
_Y__________
  6
CENTER
 62
         1
100
AcDbLine
 10
1400.3626759545
 20
112.2524144385
 30
0.0
 11
1468.6206362027
 21
112.2524144385
 31
0.0
  0
LINE
  5
F2
100
AcDbEntity
  8
_Y__________
  6
CONTINUOUS
 62
         7
100
AcDbLine
 10
1403.934393817
 20
132.5322440314
 30
0.0
 11
1505.1955277024
 21
147.2994115558
 31
0.0
  0
LINE
  5
F3
100
AcDbEntity
  8
_Y__________
  6
CONTINUOUS
 62
         7
100
AcDbLine
 10
1524.5786999334
 20
69.7524144385
 30
0.0
 11
1531.5786999334
 21
69.7524144385
 31
0.0
  0
LINE
  5
F4
100
AcDbEntity
  8
_Y__________
  6
CONTINUOUS
 62
         7
100
AcDbLine
 10
1508.8386999334
 20
62.1774144385
 30
0.0
 11
1520.6479132938
 21
62.1774144385
 31
0.0
  0
LINE
  5
F5
100
AcDbEntity
  8
_Y__________
  6
CONTINUOUS
 62
         7
100
AcDbLine
 10
1531.5786999334
 20
68.9857366121
 30
0.0
 11
1535.509486573
 21
62.1774144385
 31
0.0
  0
LINE
  5
F6
100
AcDbEntity
  8
_Y__________
  6
CONTINUOUS
 62
         7
100
AcDbLine
 10
1524.5786999334
 20
68.9857366121
 30
0.0
 11
1520.6479132938
 21
62.1774144385
 31
0.0
  0
LINE
  5
F7
100
AcDbEntity
  8
_Y__________
  6
CONTINUOUS
 62
         7
100
AcDbLine
 10
1506.4983151757
 20
77.5544981727
 30
0.0
 11
1507.8386999334
 21
77.5544981727
 31
0.0
  0
LINE
  5
F8
100
AcDbEntity
  8
_Y__________
  6
CONTINUOUS
 62
         7
100
AcDbLine
 10
1505.1955277024
 20
77.2054173213
 30
0.0
 11
1506.4983151757
 21
77.5544981727
 31
0.0
  0
LINE
  5
F9
100
AcDbEntity
  8
_Y__________
  6
CONTINUOUS
 62
         7
100
AcDbLine
 10
1535.509486573
 20
62.1774144385
 30
0.0
 11
1541.8786999334
 21
62.1774144385
 31
0.0
  0
LINE
  5
FA
100
AcDbEntity
  8
_Y__________
  6
CONTINUOUS
 62
         7
100
AcDbLine
 10
1542.8786999334
 20
161.3274144385
 30
0.0
 11
1542.8786999334
 21
63.1774144385
 31
0.0
  0
LINE
  5
FB
100
AcDbEntity
  8
_Y__________
  6
CONTINUOUS
 62
         7
100
AcDbLine
 10
1507.8386999334
 20
161.3274144385
 30
0.0
 11
1507.8386999334
 21
63.1774144385
 31
0.0
  0
LINE
  5
FC
100
AcDbEntity
  8
_Y__________
  6
CONTINUOUS
 62
         7
100
AcDbLine
 10
1506.4983151757
 20
146.9503307044
 30
0.0
 11
1506.4983151757
 21
77.5544981727
 31
0.0
  0
LINE
  5
FD
100
AcDbEntity
  8
_Y__________
  6
CENTER
 62
         1
100
AcDbLine
 10
1504.8786999334
 20
147.2532077601
 30
0.0
 11
1504.8786999334
 21
77.251621117
 31
0.0
  0
LINE
  5
FE
100
AcDbEntity
  8
_Y__________
  6
CENTER
 62
         1
100
AcDbLine
 10
1528.0786999334
 20
162.322642964
 30
0.0
 11
1528.0786999334
 21
61.1649935715
 31
0.0
  0
LINE
  5
FF
100
AcDbEntity
  8
_Y__________
  6
CONTINUOUS
 62
         7
100
AcDbLine
 10
1403.934393817
 20
91.9725848457
 30
0.0
 11
1505.1955277024
 21
77.2054173213
 31
0.0
  0
LINE
  5
100
100
AcDbEntity
  8
_Y__________
  6
CONTINUOUS
 62
         7
100
AcDbLine
 10
1520.6046120236
 20
162.3274144385
 30
0.0
 11
1520.6046120236
 21
126.1024144385
 31
0.0
  0
LINE
  5
101
100
AcDbEntity
  8
_Y__________
  6
CONTINUOUS
 62
         7
100
AcDbLine
 10
1524.5786999334
 20
155.519092265
 30
0.0
 11
1524.5786999334
 21
125.1024144385
 31
0.0
  0
LINE
  5
102
100
AcDbEntity
  8
_Y__________
  6
CONTINUOUS
 62
         7
100
AcDbLine
 10
1531.5786999334
 20
155.519092265
 30
0.0
 11
1531.5786999334
 21
123.8420649941
 31
0.0
  0
LINE
  5
103
100
AcDbEntity
  8
_Y__________
  6
CONTINUOUS
 62
         7
100
AcDbLine
 10
1535.5527878432
 20
162.3274144385
 30
0.0
 11
1535.5527878432
 21
122.3079725775
 31
0.0
  0
LINE
  5
104
100
AcDbEntity
  8
_Y__________
  6
CONTINUOUS
 62
         7
100
AcDbLine
 10
1520.6046120236
 20
98.4024144385
 30
0.0
 11
1520.6046120236
 21
62.1774144385
 31
0.0
  0
LINE
  5
105
100
AcDbEntity
  8
_Y__________
  6
CONTINUOUS
 62
         7
100
AcDbLine
 10
1524.5786999334
 20
99.4024144385
 30
0.0
 11
1524.5786999334
 21
68.9857366121
 31
0.0
  0
LINE
  5
106
100
AcDbEntity
  8
_Y__________
  6
CONTINUOUS
 62
         7
100
AcDbLine
 10
1531.5786999334
 20
100.662763883
 30
0.0
 11
1531.5786999334
 21
68.9857366121
 31
0.0
  0
LINE
  5
107
100
AcDbEntity
  8
_Y__________
  6
CONTINUOUS
 62
         7
100
AcDbLine
 10
1535.5527878432
 20
102.1968562996
 30
0.0
 11
1535.5527878432
 21
62.1774144385
 31
0.0
  0
ARC
  5
108
100
AcDbEntity
  8
_Y__________
  6
CONTINUOUS
 62
         7
100
AcDbCircle
 10
1526.0286999334
 20
112.2524144385
 30
0.0
 40
12.85
100
AcDbArc
 50
270.0
 51
450.0
  0
ARC
  5
109
100
AcDbEntity
  8
_Y__________
  6
CONTINUOUS
 62
         7
100
AcDbCircle
 10
1526.0286999334
 20
112.2524144385
 30
0.0
 40
13.85
100
AcDbArc
 50
313.4451442301
 51
406.5548557699
  0
LINE
  5
10A
100
AcDbEntity
  8
_Y__________
  6
CONTINUOUS
 62
         7
100
AcDbLine
 10
1531.5786999334
 20
100.662763883
 30
0.0
 11
1535.5527878432
 21
102.1968562996
 31
0.0
  0
LINE
  5
10B
100
AcDbEntity
  8
_Y__________
  6
CONTINUOUS
 62
         7
100
AcDbLine
 10
1507.8386999334
 20
98.4024144385
 30
0.0
 11
1520.6046120236
 21
98.4024144385
 31
0.0
  0
LINE
  5
10C
100
AcDbEntity
  8
_Y__________
  6
CONTINUOUS
 62
         7
100
AcDbLine
 10
1507.8786999334
 20
99.4024144385
 30
0.0
 11
1526.0286999334
 21
99.4024144385
 31
0.0
  0
LINE
  5
10D
100
AcDbEntity
  8
_Y__________
  6
CONTINUOUS
 62
         7
100
AcDbLine
 10
1520.6046120236
 20
98.4024144385
 30
0.0
 11
1524.5786999334
 21
99.4024144385
 31
0.0
  0
LINE
  5
10E
100
AcDbEntity
  8
_Y__________
  6
CONTINUOUS
 62
         7
100
AcDbLine
 10
1531.5786999334
 20
123.8420649941
 30
0.0
 11
1535.5527878432
 21
122.3079725775
 31
0.0
  0
LINE
  5
10F
100
AcDbEntity
  8
_Y__________
  6
CONTINUOUS
 62
         7
100
AcDbLine
 10
1507.8386999334
 20
126.1024144385
 30
0.0
 11
1520.6046120236
 21
126.1024144385
 31
0.0
  0
LINE
  5
110
100
AcDbEntity
  8
_Y__________
  6
CONTINUOUS
 62
         7
100
AcDbLine
 10
1507.8786999334
 20
125.1024144385
 30
0.0
 11
1526.0286999334
 21
125.1024144385
 31
0.0
  0
LINE
  5
111
100
AcDbEntity
  8
_Y__________
  6
CONTINUOUS
 62
         7
100
AcDbLine
 10
1520.6046120236
 20
126.1024144385
 30
0.0
 11
1524.5786999334
 21
125.1024144385
 31
0.0
  0
LINE
  5
112
100
AcDbEntity
  8
_Y__________
  6
CONTINUOUS
 62
         7
100
AcDbLine
 10
1458.0786999334
 20
-116.2400166132
 30
0.0
 11
1458.0786999334
 21
-137.2400166132
 31
0.0
  0
LINE
  5
113
100
AcDbEntity
  8
_Y__________
  6
CONTINUOUS
 62
         7
100
AcDbLine
 10
1458.0786999334
 20
-116.2400166132
 30
0.0
 11
1416.0786999334
 21
-116.2400166132
 31
0.0
  0
LINE
  5
114
100
AcDbEntity
  8
_Y__________
  6
CONTINUOUS
 62
         7
100
AcDbLine
 10
1458.0786999334
 20
-137.2400166132
 30
0.0
 11
1416.0786999334
 21
-137.2400166132
 31
0.0
  0
LINE
  5
115
100
AcDbEntity
  8
_Y__________
  6
CONTINUOUS
 62
         7
100
AcDbLine
 10
1458.0786999334
 20
-116.2400166132
 30
0.0
 11
1464.1408777599
 21
-126.7400166132
 31
0.0
  0
LINE
  5
116
100
AcDbEntity
  8
_Y__________
  6
CONTINUOUS
 62
         7
100
AcDbLine
 10
1458.0786999334
 20
-137.2400166132
 30
0.0
 11
1464.1408777599
 21
-126.7400166132
 31
0.0
  0
LINE
  5
117
100
AcDbEntity
  8
_Y__________
  6
CONTINUOUS
 62
         7
100
AcDbLine
 10
1403.0786999334
 20
131.5427109371
 30
0.0
 11
1403.0786999334
 21
92.96211794
 31
0.0
  0
ARC
  5
118
100
AcDbEntity
  8
_Y__________
  6
CONTINUOUS
 62
         7
100
AcDbCircle
 10
1404.0736999334
 20
-107.4504492773
 30
0.0
 40
1.0
100
AcDbArc
 50
98.2971
 51
180.0
  0
LINE
  5
119
100
AcDbEntity
  8
_Y__________
  6
CONTINUOUS
 62
         7
100
AcDbLine
 10
1403.0736999334
 20
-107.4504492773
 30
0.0
 11
1403.0736999334
 21
-146.0295839491
 31
0.0
  0
ARC
  5
11A
100
AcDbEntity
  8
_Y__________
  6
CONTINUOUS
 62
         7
100
AcDbCircle
 10
1404.0736999334
 20
-146.0295839491
 30
0.0
 40
1.0
100
AcDbArc
 50
180.0
 51
261.7029
  0
LINE
  5
11B
100
AcDbEntity
  8
_Y__________
  6
CONTINUOUS
 62
         7
100
AcDbLine
 10
1403.929393817
 20
-106.460916183
 30
0.0
 11
1505.1955277024
 21
-91.693019496
 31
0.0
  0
LINE
  5
11C
100
AcDbEntity
  8
_Y__________
  6
CONTINUOUS
 62
         7
100
AcDbLine
 10
1403.929393817
 20
-147.0191170434
 30
0.0
 11
1505.1955277024
 21
-161.7870137304
 31
0.0
  0
ARC
  5
11D
100
AcDbEntity
  8
_Y__________
  6
CONTINUOUS
 62
         7
100
AcDbCircle
 10
1404.0786999334
 20
131.5427109371
 30
0.0
 40
1.0
100
AcDbArc
 50
98.2971
 51
180.0
  0
ARC
  5
11E
100
AcDbEntity
  8
_Y__________
  6
CONTINUOUS
 62
         7
100
AcDbCircle
 10
1404.0786999334
 20
92.96211794
 30
0.0
 40
1.0
100
AcDbArc
 50
180.0
 51
261.7029
  0
LINE
  5
11F
100
AcDbEntity
  8
L1_45
  6
CONTINUOUS
 62
         7
100
AcDbLine
 10
1542.8786999334
 20
-142.7400166132
 30
0.0
 11
1542.8786999334
 21
-175.7400166132
 31
0.0
  0
LINE
  5
120
100
AcDbEntity
  8
L1_45
  6
CONTINUOUS
 62
         7
100
AcDbLine
 10
1542.8786999334
 20
-77.7400166132
 30
0.0
 11
1542.8786999334
 21
-110.7400166132
 31
0.0
  0
DIMENSION
  5
124
100
AcDbEntity
  8
L1_45
  6
CONTINUOUS
 62
         4
100
AcDbDimension
  2
*D1
 10
1504.8786999334
 20
194.2028236138
 30
0.0
 11
1522.7234972374
 21
196.8278236138
 31
0.0
  3
DIMSTYLE1
100
AcDbAlignedDimension
 13
1504.8786999334
 23
147.2532077601
 33
0.0
 14
1549.8786999334
 24
126.2524144385
 34
0.0
100
AcDbRotatedDimension
  0
CIRCLE
  5
131
100
AcDbEntity
  8
L1_45
  6
CONTINUOUS
 62
         7
100
AcDbCircle
 10
1845.8340594905
 20
112.2524144385
 30
0.0
 40
1.0
  0
CIRCLE
  5
132
100
AcDbEntity
  8
L1_45
  6
CONTINUOUS
 62
         7
100
AcDbCircle
 10
1845.8340594905
 20
112.2524144385
 30
0.0
 40
2.125
  0
LINE
  5
133
100
AcDbEntity
  8
L1_45
  6
CONTINUOUS
 62
         7
100
AcDbLine
 10
1576.1560502026
 20
-125.7400166132
 30
0.0
 11
1575.5786999334
 21
-126.7400166132
 31
0.0
  0
LINE
  5
134
100
AcDbEntity
  8
L1_45
  6
CONTINUOUS
 62
         7
100
AcDbLine
 10
1576.1560502026
 20
-127.7400166132
 30
0.0
 11
1575.5786999334
 21
-126.7400166132
 31
0.0
  0
LINE
  5
135
100
AcDbEntity
  8
L1_45
  6
CONTINUOUS
 62
         7
100
AcDbLine
 10
1576.1560502026
 20
-125.7400166132
 30
0.0
 11
1576.1560502026
 21
-127.7400166132
 31
0.0
  0
LINE
  5
136
100
AcDbEntity
  8
L1_45
  6
CONTINUOUS
 62
         7
100
AcDbLine
 10
1576.1560502026
 20
-125.7400166132
 30
0.0
 11
1577.1023115585
 21
-125.7400166132
 31
0.0
  0
LINE
  5
137
100
AcDbEntity
  8
L1_45
  6
CONTINUOUS
 62
         7
100
AcDbLine
 10
1576.1560502026
 20
-127.7400166132
 30
0.0
 11
1577.1023115585
 21
-127.7400166132
 31
0.0
  0
LINE
  5
138
100
AcDbEntity
  8
L1_45
  6
CONTINUOUS
 62
         7
100
AcDbLine
 10
1577.1023115585
 20
-125.7400166132
 30
0.0
 11
1577.1023115585
 21
-127.7400166132
 31
0.0
  0
LINE
  5
139
100
AcDbEntity
  8
L1_45
  6
CONTINUOUS
 62
         7
100
AcDbLine
 10
1579.2786999334
 20
-124.4834781991
 30
0.0
 11
1577.1023115585
 21
-125.7400166132
 31
0.0
  0
LINE
  5
13A
100
AcDbEntity
  8
L1_45
  6
CONTINUOUS
 62
         7
100
AcDbLine
 10
1579.2786999334
 20
-128.9965550273
 30
0.0
 11
1577.1023115585
 21
-127.7400166132
 31
0.0
  0
LINE
  5
13B
100
AcDbEntity
  8
L1_45
  6
CONTINUOUS
 62
         4
100
AcDbLine
 10
1553.9198470247
 20
-118.1550166132
 30
0.0
 11
1553.8786999334
 21
-118.1550166132
 31
0.0
  0
DIMENSION
  5
13E
100
AcDbEntity
  8
L1_45
  6
CONTINUOUS
 62
         4
100
AcDbDimension
  2
*D2
 10
1615.7820849407
 20
-134.6660166132
 30
0.0
 11
1613.1570849407
 21
-137.6205652667
 31
0.0
  3
DIMSTYLE1
100
AcDbAlignedDimension
 13
1579.2786999334
 23
-134.6660166132
 33
0.0
 14
1579.2786999334
 24
-118.8140166132
 34
0.0
 50
90.0
100
AcDbRotatedDimension
  0
LINE
  5
14A
100
AcDbEntity
  8
L1_45
  6
CENTER
 62
         1
100
AcDbLine
 10
1580.07014794
 20
-126.7400166132
 30
0.0
 11
1542.8786999334
 21
-126.7400166132
 31
0.0
  0
LINE
  5
14B
100
AcDbEntity
  8
L1_45
  6
CENTER
 62
         1
100
AcDbLine
 10
1553.8786999334
 20
-136.359962585
 30
0.0
 11
1553.8786999334
 21
-116.5522336692
 31
0.0
  0
LINE
  5
14C
100
AcDbEntity
  8
L1_45
  6
CONTINUOUS
 62
         7
100
AcDbLine
 10
1552.0268276253
 20
-118.1069700049
 30
0.0
 11
1577.7786999334
 21
-118.7750992904
 31
0.0
  0
LINE
  5
14D
100
AcDbEntity
  8
L1_45
  6
CONTINUOUS
 62
         7
100
AcDbLine
 10
1577.7786999334
 20
-134.704933936
 30
0.0
 11
1552.0268276253
 21
-135.3730632215
 31
0.0
  0
ARC
  5
14E
100
AcDbEntity
  8
L1_45
  6
CONTINUOUS
 62
         7
100
AcDbCircle
 10
1552.0786999334
 20
-137.3723904243
 30
0.0
 40
2.0
100
AcDbArc
 50
91.4861988203
 51
180.0
  0
ARC
  5
14F
100
AcDbEntity
  8
L1_45
  6
CONTINUOUS
 62
         7
100
AcDbCircle
 10
1552.0786999334
 20
-116.1076428021
 30
0.0
 40
2.0
100
AcDbArc
 50
180.0
 51
268.5138011797
  0
LINE
  5
150
100
AcDbEntity
  8
L1_45
  6
CONTINUOUS
 62
         7
100
AcDbLine
 10
1579.2786999334
 20
-133.204933936
 30
0.0
 11
1579.2786999334
 21
-120.2750992904
 31
0.0
  0
LINE
  5
151
100
AcDbEntity
  8
L1_45
  6
CONTINUOUS
 62
         7
100
AcDbLine
 10
1577.7786999334
 20
-118.7750992904
 30
0.0
 11
1579.2786999334
 21
-120.2750992904
 31
0.0
  0
LINE
  5
152
100
AcDbEntity
  8
L1_45
  6
CONTINUOUS
 62
         7
100
AcDbLine
 10
1577.7786999334
 20
-134.704933936
 30
0.0
 11
1579.2786999334
 21
-133.204933936
 31
0.0
  0
LINE
  5
153
100
AcDbEntity
  8
L1_45
  6
CONTINUOUS
 62
         7
100
AcDbLine
 10
1549.0786999334
 20
-111.7400166132
 30
0.0
 11
1543.8786999334
 21
-111.7400166132
 31
0.0
  0
LINE
  5
154
100
AcDbEntity
  8
L1_45
  6
CONTINUOUS
 62
         7
100
AcDbLine
 10
1549.0786999334
 20
-141.7400166132
 30
0.0
 11
1543.8786999334
 21
-141.7400166132
 31
0.0
  0
LINE
  5
155
100
AcDbEntity
  8
L1_45
  6
CONTINUOUS
 62
         7
100
AcDbLine
 10
1550.0786999334
 20
-140.7400166132
 30
0.0
 11
1550.0786999334
 21
-137.3723904243
 31
0.0
  0
ARC
  5
156
100
AcDbEntity
  8
L1_45
  6
CONTINUOUS
 62
         7
100
AcDbCircle
 10
1549.0786999334
 20
-112.7400166132
 30
0.0
 40
1.0
100
AcDbArc
 50
0.0
 51
90.0
  0
ARC
  5
157
100
AcDbEntity
  8
L1_45
  6
CONTINUOUS
 62
         7
100
AcDbCircle
 10
1549.0786999334
 20
-140.7400166132
 30
0.0
 40
1.0
100
AcDbArc
 50
270.0
 51
360.0
  0
LINE
  5
158
100
AcDbEntity
  8
L1_45
  6
CONTINUOUS
 62
         7
100
AcDbLine
 10
1550.0786999334
 20
-116.1076428021
 30
0.0
 11
1550.0786999334
 21
-112.7400166132
 31
0.0
  0
CIRCLE
  5
159
100
AcDbEntity
  8
L1_45
  6
CONTINUOUS
 62
         7
100
AcDbCircle
 10
1845.8340594905
 20
112.2524144385
 30
0.0
 40
7.926
  0
CIRCLE
  5
15A
100
AcDbEntity
  8
L1_45
  6
CONTINUOUS
 62
         7
100
AcDbCircle
 10
1845.8340594905
 20
112.2524144385
 30
0.0
 40
8.585
  0
CIRCLE
  5
15B
100
AcDbEntity
  8
L1_45
  6
CONTINUOUS
 62
         7
100
AcDbCircle
 10
1845.8340594905
 20
112.2524144385
 30
0.0
 40
15.0
  0
DIMENSION
  5
15E
100
AcDbEntity
  8
L1_45
  6
CONTINUOUS
 62
         4
100
AcDbDimension
  2
*D3
 10
1403.0836999334
 20
203.6435005552
 30
0.0
 11
1485.0211702514
 21
206.2685005552
 31
0.0
  3
DIMSTYLE1
100
AcDbAlignedDimension
 13
1403.0836999334
 23
131.5419817744
 33
0.0
 14
1579.2786999334
 24
112.2524144385
 34
0.0
100
AcDbRotatedDimension
  0
LINE
  5
16A
100
AcDbEntity
  8
L1_45
  6
CONTINUOUS
 62
         7
100
AcDbLine
 10
1507.8386999334
 20
161.3274144385
 30
0.0
 11
1507.8386999334
 21
63.1774144385
 31
0.0
  0
LINE
  5
16B
100
AcDbEntity
  8
L1_45
  6
CENTER
 62
         1
100
AcDbLine
 10
1504.8786999334
 20
147.2532077601
 30
0.0
 11
1504.8786999334
 21
77.251621117
 31
0.0
  0
LINE
  5
16C
100
AcDbEntity
  8
L1_45
  6
CONTINUOUS
 62
         7
100
AcDbLine
 10
1403.0836999334
 20
131.5419817744
 30
0.0
 11
1403.0836999334
 21
92.9628471027
 31
0.0
  0
DIMENSION
  5
16F
100
AcDbEntity
  8
L1_45
  6
CONTINUOUS
 62
         4
100
AcDbDimension
  2
*D4
 10
1609.6473906887
 20
127.2524144385
 30
0.0
 11
1607.0223906887
 21
105.7424078818
 31
0.0
  3
DIMSTYLE1
100
AcDbAlignedDimension
 13
1548.8786999334
 23
127.2524144385
 33
0.0
 14
1548.8786999334
 24
97.2524144385
 34
0.0
 50
90.0
100
AcDbRotatedDimension
  0
ARC
  5
17B
100
AcDbEntity
  8
L1_45
  6
CONTINUOUS
 62
         7
100
AcDbCircle
 10
1548.8786999334
 20
98.2524144385
 30
0.0
 40
1.0
100
AcDbArc
 50
270.0
 51
360.0
  0
ARC
  5
17C
100
AcDbEntity
  8
L1_45
  6
CONTINUOUS
 62
         7
100
AcDbCircle
 10
1548.8786999334
 20
126.2524144385
 30
0.0
 40
1.0
100
AcDbArc
 50
0.0
 51
90.0
  0
LINE
  5
17D
100
AcDbEntity
  8
L1_45
  6
CONTINUOUS
 62
         7
100
AcDbLine
 10
1549.8786999334
 20
98.2524144385
 30
0.0
 11
1549.8786999334
 21
126.2524144385
 31
0.0
  0
LINE
  5
17E
100
AcDbEntity
  8
L1_45
  6
CONTINUOUS
 62
         7
100
AcDbLine
 10
1548.8786999334
 20
97.2524144385
 30
0.0
 11
1543.8786999334
 21
97.2524144385
 31
0.0
  0
LINE
  5
17F
100
AcDbEntity
  8
L1_45
  6
CONTINUOUS
 62
         7
100
AcDbLine
 10
1548.8786999334
 20
127.2524144385
 30
0.0
 11
1543.8786999334
 21
127.2524144385
 31
0.0
  0
LINE
  5
180
100
AcDbEntity
  8
L1_45
  6
CENTER
 62
         1
100
AcDbLine
 10
1580.07014794
 20
112.2524144385
 30
0.0
 11
1542.8786999334
 21
112.2524144385
 31
0.0
  0
LINE
  5
181
100
AcDbEntity
  8
L1_45
  6
CONTINUOUS
 62
         7
100
AcDbLine
 10
1579.2786999334
 20
105.7874971157
 30
0.0
 11
1579.2786999334
 21
118.7173317614
 31
0.0
  0
LINE
  5
182
100
AcDbEntity
  8
L1_45
  6
CENTER
 62
         1
100
AcDbLine
 10
1553.8786999334
 20
102.6324684668
 30
0.0
 11
1553.8786999334
 21
122.4401973826
 31
0.0
  0
LINE
  5
183
100
AcDbEntity
  8
L1_45
  6
CONTINUOUS
 62
         7
100
AcDbLine
 10
1551.8268276253
 20
120.8854610469
 30
0.0
 11
1577.7786999334
 21
120.2173317614
 31
0.0
  0
LINE
  5
184
100
AcDbEntity
  8
L1_45
  6
CONTINUOUS
 62
         7
100
AcDbLine
 10
1577.7786999334
 20
104.2874971157
 30
0.0
 11
1551.8268276253
 21
103.6193678302
 31
0.0
  0
LINE
  5
185
100
AcDbEntity
  8
L1_45
  6
CONTINUOUS
 62
         7
100
AcDbLine
 10
1577.7786999334
 20
104.2874971157
 30
0.0
 11
1577.7786999334
 21
120.2173317614
 31
0.0
  0
LINE
  5
186
100
AcDbEntity
  8
L1_45
  6
CONTINUOUS
 62
         7
100
AcDbLine
 10
1577.7786999334
 20
120.2173317614
 30
0.0
 11
1579.2786999334
 21
118.7173317614
 31
0.0
  0
LINE
  5
187
100
AcDbEntity
  8
L1_45
  6
CONTINUOUS
 62
         7
100
AcDbLine
 10
1577.7786999334
 20
104.2874971157
 30
0.0
 11
1579.2786999334
 21
105.7874971157
 31
0.0
  0
ARC
  5
188
100
AcDbEntity
  8
L1_45
  6
CONTINUOUS
 62
         7
100
AcDbCircle
 10
1551.8786999334
 20
122.8847882496
 30
0.0
 40
2.0
100
AcDbArc
 50
180.0
 51
268.5138011797
  0
ARC
  5
189
100
AcDbEntity
  8
L1_45
  6
CONTINUOUS
 62
         7
100
AcDbCircle
 10
1551.8786999334
 20
101.6200406275
 30
0.0
 40
2.0
100
AcDbArc
 50
91.4861988203
 51
180.0
  0
DIMENSION
  5
18C
100
AcDbEntity
  8
L1_45
  6
CONTINUOUS
 62
         4
100
AcDbDimension
  2
*D5
 10
1549.8786999334
 20
88.6364708381
 30
0.0
 11
1556.7927161228
 21
91.2614708381
 31
0.0
  3
DIMSTYLE1
100
AcDbAlignedDimension
 13
1549.8786999334
 23
101.6200406275
 33
0.0
 14
1553.8786999334
 24
102.4918204162
 34
0.0
100
AcDbRotatedDimension
  0
ENDSEC
  0
SECTION
  2
OBJECTS
  0
DICTIONARY
  5
19
100
AcDbDictionary
  3
ACAD_GROUP
350
1A
  3
ACAD_MLINESTYLE
350
1B
  0
DICTIONARY
  5
1A
102
{ACAD_REACTORS
330
19
102
}
100
AcDbDictionary
  0
DICTIONARY
  5
1B
102
{ACAD_REACTORS
330
19
102
}
100
AcDbDictionary
  3
STANDARD
350
1C
  0
MLINESTYLE
  5
1C
102
{ACAD_REACTORS
330
1B
102
}
100
AcDbMlineStyle
  2
STANDARD
 70
         0
  3

 62
         0
 51
90.0
 52
90.0
 71
         2
 49
0.5
 62
       256
  6
BYLAYER
 49
-0.5
 62
       256
  6
BYLAYER
  0
ENDSEC
  0
EOF
