  0
SECTION
  2
HEADER
  9
$ACADVER
  1
AC1014
  9
$ACADMAINTVER
 70
         0
  9
$DWGCODEPAGE
  3
BIG5
  9
$INSBASE
 10
0.0
 20
0.0
 30
0.0
  9
$EXTMIN
 10
-10367.9543408837
 20
11637.4951615919
 30
0.0
  9
$EXTMAX
 10
-9423.5867561701
 20
12113.6160061362
 30
0.0
  9
$LIMMIN
 10
0.0
 20
0.0
  9
$LIMMAX
 10
0.0
 20
0.0
  9
$ORTHOMODE
 70
         0
  9
$REGENMODE
 70
         1
  9
$FILLMODE
 70
         1
  9
$QTEXTMODE
 70
         0
  9
$MIRRTEXT
 70
         1
  9
$DRAGMODE
 70
         2
  9
$LTSCALE
 40
1.0
  9
$OSMODE
 70
         0
  9
$ATTMODE
 70
         1
  9
$TEXTSIZE
 40
3.0
  9
$TRACEWID
 40
0.05
  9
$TEXTSTYLE
  7
STANDARD
  9
$CLAYER
  8
0
  9
$CELTYPE
  6
CONTINUOUS
  9
$CECOLOR
 62
         4
  9
$CELTSCALE
 40
1.0
  9
$DELOBJ
 70
         1
  9
$DISPSILH
 70
         0
  9
$DIMSCALE
 40
1.0
  9
$DIMASZ
 40
0.18
  9
$DIMEXO
 40
0.0625
  9
$DIMDLI
 40
0.38
  9
$DIMRND
 40
0.0
  9
$DIMDLE
 40
0.0
  9
$DIMEXE
 40
0.25
  9
$DIMTP
 40
0.0
  9
$DIMTM
 40
0.0
  9
$DIMTXT
 40
3.5
  9
$DIMCEN
 40
0.09
  9
$DIMTSZ
 40
0.0
  9
$DIMTOL
 70
         0
  9
$DIMLIM
 70
         0
  9
$DIMTIH
 70
         1
  9
$DIMTOH
 70
         1
  9
$DIMSE1
 70
         0
  9
$DIMSE2
 70
         0
  9
$DIMTAD
 70
         0
  9
$DIMZIN
 70
         0
  9
$DIMBLK
  1

  9
$DIMASO
 70
         1
  9
$DIMSHO
 70
         1
  9
$DIMPOST
  1

  9
$DIMAPOST
  1

  9
$DIMALT
 70
         0
  9
$DIMALTD
 70
         2
  9
$DIMALTF
 40
25.4
  9
$DIMLFAC
 40
1.0
  9
$DIMTOFL
 70
         0
  9
$DIMTVP
 40
0.0
  9
$DIMTIX
 70
         0
  9
$DIMSOXD
 70
         0
  9
$DIMSAH
 70
         0
  9
$DIMBLK1
  1

  9
$DIMBLK2
  1

  9
$DIMSTYLE
  2
STANDARD
  9
$DIMCLRD
 70
         0
  9
$DIMCLRE
 70
         0
  9
$DIMCLRT
 70
         4
  9
$DIMTFAC
 40
0.7
  9
$DIMGAP
 40
0.09
  9
$DIMJUST
 70
         0
  9
$DIMSD1
 70
         0
  9
$DIMSD2
 70
         0
  9
$DIMTOLJ
 70
         1
  9
$DIMTZIN
 70
         0
  9
$DIMALTZ
 70
         0
  9
$DIMALTTZ
 70
         0
  9
$DIMFIT
 70
         3
  9
$DIMUPT
 70
         0
  9
$DIMUNIT
 70
         2
  9
$DIMDEC
 70
         4
  9
$DIMTDEC
 70
         4
  9
$DIMALTU
 70
         2
  9
$DIMALTTD
 70
         2
  9
$DIMTXSTY
  7
STANDARD
  9
$DIMAUNIT
 70
         0
  9
$LUNITS
 70
         2
  9
$LUPREC
 70
        10
  9
$SKETCHINC
 40
0.1
  9
$FILLETRAD
 40
0.0
  9
$AUNITS
 70
         0
  9
$AUPREC
 70
         0
  9
$MENU
  1
acad
  9
$ELEVATION
 40
0.0
  9
$PELEVATION
 40
0.0
  9
$THICKNESS
 40
0.0
  9
$LIMCHECK
 70
         0
  9
$BLIPMODE
 70
         1
  9
$CHAMFERA
 40
0.0
  9
$CHAMFERB
 40
0.0
  9
$CHAMFERC
 40
0.0
  9
$CHAMFERD
 40
0.0
  9
$SKPOLY
 70
         0
  9
$TDCREATE
 40
0.000000000
  9
$TDUPDATE
 40
0.000000000
  9
$TDINDWG
 40
0.0000000000
  9
$TDUSRTIMER
 40
0.0000000000
  9
$USRTIMER
 70
         1
  9
$ANGBASE
 50
0.0
  9
$ANGDIR
 70
         0
  9
$PDMODE
 70
         2
  9
$PDSIZE
 40
0.0
  9
$PLINEWID
 40
0.0
  9
$COORDS
 70
         1
  9
$SPLFRAME
 70
         0
  9
$SPLINETYPE
 70
         6
  9
$SPLINESEGS
 70
         8
  9
$ATTDIA
 70
         0
  9
$ATTREQ
 70
         1
  9
$HANDLING
 70
         1
  9
$HANDSEED
  5
35F
  9
$SURFTAB1
 70
         6
  9
$SURFTAB2
 70
         6
  9
$SURFTYPE
 70
         6
  9
$SURFU
 70
         6
  9
$SURFV
 70
         6
  9
$UCSNAME
  2

  9
$UCSORG
 10
0.0
 20
0.0
 30
0.0
  9
$UCSXDIR
 10
1.0
 20
0.0
 30
0.0
  9
$UCSYDIR
 10
0.0
 20
1.0
 30
0.0
  9
$PUCSNAME
  2

  9
$PUCSORG
 10
0.0
 20
0.0
 30
0.0
  9
$PUCSXDIR
 10
1.0
 20
0.0
 30
0.0
  9
$PUCSYDIR
 10
0.0
 20
1.0
 30
0.0
  9
$USERI1
 70
         0
  9
$USERI2
 70
         0
  9
$USERI3
 70
         0
  9
$USERI4
 70
         0
  9
$USERI5
 70
         0
  9
$USERR1
 40
0.0
  9
$USERR2
 40
0.0
  9
$USERR3
 40
0.0
  9
$USERR4
 40
0.0
  9
$USERR5
 40
0.0
  9
$WORLDVIEW
 70
         1
  9
$SHADEDGE
 70
         3
  9
$SHADEDIF
 70
        70
  9
$TILEMODE
 70
         1
  9
$MAXACTVP
 70
        16
  9
$PINSBASE
 10
0.0
 20
0.0
 30
0.0
  9
$PLIMCHECK
 70
         0
  9
$PEXTMIN
 10
1.0000000000E+20
 20
1.0000000000E+20
 30
1.0000000000E+20
  9
$PEXTMAX
 10
-1.0000000000E+20
 20
-1.0000000000E+20
 30
-1.0000000000E+20
  9
$PLIMMIN
 10
0.0
 20
0.0
  9
$PLIMMAX
 10
12.0
 20
9.0
  9
$UNITMODE
 70
         0
  9
$VISRETAIN
 70
         0
  9
$PLINEGEN
 70
         1
  9
$PSLTSCALE
 70
         0
  9
$TREEDEPTH
 70
      3020
  9
$PICKSTYLE
 70
         1
  9
$CMLSTYLE
  2
STANDARD
  9
$CMLJUST
 70
         0
  9
$CMLSCALE
 40
1.0
  9
$PROXYGRAPHICS
 70
         0
  9
$MEASUREMENT
 70
         0
  0
ENDSEC
  0
SECTION
  2
CLASSES
  0
CLASS
  1
LWPOLYLINE
  2
AcDbPolyline
  3
"AutoCAD"
 90
        0
280
         0
281
         1
  0
CLASS
  1
IMAGE
  2
AcDbRasterImage
  3
ISM
 90
      127
280
         0
281
         1
  0
CLASS
  1
OLE2FRAME
  2
AcDbOle2Frame
  3
""
 90
        0
280
         0
281
         1
  0
CLASS
  1
HATCH
  2
AcDbHatch
  3
"ACAD_SEDONA"
 90
        0
280
         0
281
         1
  0
CLASS
  1
DICTIONARYVAR
  2
AcDbDictionaryVar
  3
"AutoCAD"
 90
        0
280
         0
281
         0
  0
CLASS
  1
RASTERVARIABLES
  2
AcDbRasterVariables
  3
ISM
 90
        0
280
         0
281
         0
  0
CLASS
  1
IMAGEDEF
  2
AcDbRasterImageDef
  3
ISM
 90
        0
280
         0
281
         0
  0
CLASS
  1
IMAGEDEF_REACTOR
  2
AcDbRasterImageDefReactor
  3
ISM
 90
        1
280
         0
281
         0
  0
CLASS
  1
IDBUFFER
  2
AcDbIdBuffer
  3
"Acad"
 90
        0
280
         0
281
         0
  0
CLASS
  1
SPATIAL_FILTER
  2
AcDbSpatialFilter
  3
"Acad"
 90
        0
280
         0
281
         0
  0
CLASS
  1
XRECORD
  2
AcDbXrecord
  3
"<Built In>"
 90
        0
280
         0
281
         0
  0
CLASS
  1
SORTENTSTABLE
  2
AcDbSortentsTable
  3
"AutoCAD"
 90
        0
280
         0
281
         0
  0
CLASS
  1
LAYER_INDEX
  2
AcDbLayerIndex
  3
"Acad"
 90
        0
280
         0
281
         0
  0
CLASS
  1
SPATIAL_INDEX
  2
AcDbSpatialIndex
  3
"Acad"
 90
        0
280
         0
281
         0
  0
CLASS
  1
OBJECT_PTR
  2
CAseDLPNTableRecord
  3
"ASE-LPNTableRecord"
 90
        1
280
         0
281
         0
  0
CLASS
  1
LAYOUT
  2
AcDbLayout
  3
"AutoCAD 2000"
 90
        1
280
         0
281
         0
  0
CLASS
  1
PLOTSETTINGS
  2
AcDbPlotSettings
  3
"AutoCAD 2000"
 90
        1
280
         0
281
         0
  0
CLASS
  1
ACDBDICTIONARYWDFLT
  2
AcDbDictionaryWithDefault
  3
"AutoCAD 2000"
 90
        1
280
         0
281
         0
  0
CLASS
  1
ACDBPLACEHOLDER
  2
AcDbPlaceHolder
  3
"AutoCAD 2000"
 90
        1
280
         0
281
         0
  0
CLASS
  1
VBA_PROJECT
  2
AcDbVbaProject
  3
"acadvba"
 90
        1
280
         0
281
         0
  0
CLASS
  1
WIPEOUT
  2
AcDbWipeout
  3
WipeOut|AutoCAD Express Tool|expresstools@autodesk.com
 90
      127
280
         0
281
         1
  0
CLASS
  1
WIPEOUTVARIABLES
  2
AcDbWipeoutVariables
  3
WipeOut|AutoCAD Express Tool|expresstools@autodesk.com
 90
        0
280
         0
281
         0
  0
CLASS
  1
RTEXT
  2
RText
  3
RText|AutoCAD Express Tool|expresstools@autodesk.com
 90
        0
280
         0
281
         1
  0
CLASS
  1
ARCALIGNEDTEXT
  2
AcDbArcAlignedText
  3
ATEXT|AutoCAD Express Tool|expresstools@autodesk.com
 90
        0
280
         0
281
         1
  0
ENDSEC
  0
SECTION
  2
TABLES
  0
TABLE
  2
VPORT
  5
7
100
AcDbSymbolTable
 70
         1
  0
VPORT
  5
15
100
AcDbSymbolTableRecord
100
AcDbViewportTableRecord
  2
*ACTIVE
 70
         0
 10
0.0
 20
0.0
 11
1.0
 21
1.0
 12
-9895.7705485269
 22
11875.5555838641
 13
0.0
 23
0.0
 14
1.0
 24
1.0
 15
0.0
 25
0.0
 16
0.0
 26
0.0
 36
1.0
 17
0.0
 27
0.0
 37
0.0
 40
476.1208445443
 41
1.9834619625
 42
50.0
 43
0.0
 44
0.0
 50
0.0
 51
0.0
 71
         0
 72
       100
 73
         1
 74
         1
 75
         0
 76
         0
 77
         0
 78
         0
  0
ENDTAB
  0
TABLE
  2
LTYPE
  5
4
100
AcDbSymbolTable
 70
         6
  0
LTYPE
  5
11
100
AcDbSymbolTableRecord
100
AcDbLinetypeTableRecord
  2
BYBLOCK
 70
        64
  3

 72
        65
 73
         0
 40
0.0
  0
LTYPE
  5
12
100
AcDbSymbolTableRecord
100
AcDbLinetypeTableRecord
  2
BYLAYER
 70
        64
  3

 72
        65
 73
         0
 40
0.0
  0
LTYPE
  5
13
100
AcDbSymbolTableRecord
100
AcDbLinetypeTableRecord
  2
CONTINUOUS
 70
        64
  3
Solid line
 72
        65
 73
         0
 40
0.0
  0
LTYPE
  5
1D
100
AcDbSymbolTableRecord
100
AcDbLinetypeTableRecord
  2
DASHED
 70
        64
  3
_ _ _ _ _ _ _ _ _ _ _ _ _ _ _ _
 72
        65
 73
         2
 40
0.2
 49
0.1
 74
         0
 49
-0.1
 74
         0
  0
LTYPE
  5
1E
100
AcDbSymbolTableRecord
100
AcDbLinetypeTableRecord
  2
CENTER
 70
        64
  3
___ _ ___ _ ___ _ ___ _ ___ _ ___ _ ___ _ ___ _
 72
        65
 73
         4
 40
0.95
 49
0.625
 74
         0
 49
-0.125
 74
         0
 49
0.075
 74
         0
 49
-0.125
 74
         0
  0
LTYPE
  5
1F
100
AcDbSymbolTableRecord
100
AcDbLinetypeTableRecord
  2
PHANTOM
 70
        64
  3
______  __  __  ______  __  __  ______  __  __  
 72
        65
 73
         6
 40
1.025
 49
0.625
 74
         0
 49
-0.125
 74
         0
 49
0.075
 74
         0
 49
-0.125
 74
         0
 49
0.075
 74
         0
 49
-0.125
 74
         0
  0
ENDTAB
  0
TABLE
  2
LAYER
  5
2
100
AcDbSymbolTable
 70
         8
  0
LAYER
  5
14
100
AcDbSymbolTableRecord
100
AcDbLayerTableRecord
  2
0
 70
         0
 62
         7
  6
CONTINUOUS
  0
LAYER
  5
21
100
AcDbSymbolTableRecord
100
AcDbLayerTableRecord
  2
_____U
 70
         1
 62
         7
  6
CONTINUOUS
  0
LAYER
  5
22
100
AcDbSymbolTableRecord
100
AcDbLayerTableRecord
  2
ERP__________T_____
 70
         1
 62
         7
  6
CONTINUOUS
  0
LAYER
  5
23
100
AcDbSymbolTableRecord
100
AcDbLayerTableRecord
  2
ERP______L________
 70
         1
 62
         7
  6
CONTINUOUS
  0
LAYER
  5
24
100
AcDbSymbolTableRecord
100
AcDbLayerTableRecord
  2
_Y__________
 70
         0
 62
         7
  6
CONTINUOUS
  0
LAYER
  5
25
100
AcDbSymbolTableRecord
100
AcDbLayerTableRecord
  2
_X______
 70
         0
 62
         7
  6
CONTINUOUS
  0
LAYER
  5
26
100
AcDbSymbolTableRecord
100
AcDbLayerTableRecord
  2
L1_
 70
         0
 62
         7
  6
CONTINUOUS
  0
LAYER
  5
33
100
AcDbSymbolTableRecord
100
AcDbLayerTableRecord
  2
DEFPOINTS
 70
         0
 62
        -7
  6
CONTINUOUS
  0
ENDTAB
  0
TABLE
  2
STYLE
  5
3
100
AcDbSymbolTable
 70
        12
  0
STYLE
  5
17
100
AcDbSymbolTableRecord
100
AcDbTextStyleTableRecord
  2
STANDARD
 70
         0
 40
0.0
 41
1.0
 50
0.0
 71
         0
 42
0.0
  3
txt
  4

  0
STYLE
  5
3C
100
AcDbSymbolTableRecord
100
AcDbTextStyleTableRecord
  2
BOX
 70
         0
 40
1.0
 41
1.0
 50
0.0
 71
         0
 42
0.2
  3
txt.shx
  4

  0
STYLE
  5
4F
100
AcDbSymbolTableRecord
100
AcDbTextStyleTableRecord
  2
BOX
 70
         0
 40
1.0
 41
1.0
 50
0.0
 71
         0
 42
0.2
  3
txt.shx
  4

  0
STYLE
  5
5D
100
AcDbSymbolTableRecord
100
AcDbTextStyleTableRecord
  2
BOX
 70
         0
 40
1.0
 41
1.0
 50
0.0
 71
         0
 42
0.2
  3
txt.shx
  4

  0
STYLE
  5
291
100
AcDbSymbolTableRecord
100
AcDbTextStyleTableRecord
  2
BOX
 70
         0
 40
1.0
 41
1.0
 50
0.0
 71
         0
 42
0.2
  3
txt.shx
  4

  0
STYLE
  5
2A0
100
AcDbSymbolTableRecord
100
AcDbTextStyleTableRecord
  2
BOX
 70
         0
 40
1.0
 41
1.0
 50
0.0
 71
         0
 42
0.2
  3
txt.shx
  4

  0
STYLE
  5
2AE
100
AcDbSymbolTableRecord
100
AcDbTextStyleTableRecord
  2
BOX
 70
         0
 40
1.0
 41
1.0
 50
0.0
 71
         0
 42
0.2
  3
txt.shx
  4

  0
STYLE
  5
2CE
100
AcDbSymbolTableRecord
100
AcDbTextStyleTableRecord
  2
BOX
 70
         0
 40
1.0
 41
1.0
 50
0.0
 71
         0
 42
0.2
  3
txt.shx
  4

  0
STYLE
  5
2DC
100
AcDbSymbolTableRecord
100
AcDbTextStyleTableRecord
  2
BOX
 70
         0
 40
1.0
 41
1.0
 50
0.0
 71
         0
 42
0.2
  3
txt.shx
  4

  0
STYLE
  5
2EA
100
AcDbSymbolTableRecord
100
AcDbTextStyleTableRecord
  2
BOX
 70
         0
 40
1.0
 41
1.0
 50
0.0
 71
         0
 42
0.2
  3
txt.shx
  4

  0
STYLE
  5
2FF
100
AcDbSymbolTableRecord
100
AcDbTextStyleTableRecord
  2
BOX
 70
         0
 40
1.0
 41
1.0
 50
0.0
 71
         0
 42
0.2
  3
txt.shx
  4

  0
STYLE
  5
35D
100
AcDbSymbolTableRecord
100
AcDbTextStyleTableRecord
  2
BOX
 70
         0
 40
1.0
 41
1.0
 50
0.0
 71
         0
 42
0.2
  3
txt.shx
  4

  0
ENDTAB
  0
TABLE
  2
VIEW
  5
5
100
AcDbSymbolTable
 70
         0
  0
ENDTAB
  0
TABLE
  2
UCS
  5
6
100
AcDbSymbolTable
 70
         1
  0
UCS
  5
20
100
AcDbSymbolTableRecord
100
AcDbUCSTableRecord
  2
CK_VIEW_1
 70
         0
 10
0.0
 20
0.0
 30
1.0
 11
1.0
 21
0.0
 31
0.0
 12
0.0
 22
1.0
 32
0.0
  0
ENDTAB
  0
TABLE
  2
APPID
  5
8
100
AcDbSymbolTable
 70
         1
  0
APPID
  5
16
100
AcDbSymbolTableRecord
100
AcDbRegAppTableRecord
  2
ACAD
 70
         0
  0
ENDTAB
  0
TABLE
  2
DIMSTYLE
  5
9
100
AcDbSymbolTable
 70
         2
  0
DIMSTYLE
105
18
100
AcDbSymbolTableRecord
100
AcDbDimStyleTableRecord
  2
STANDARD
 70
         0
  3

  4

  5

  6

  7

 40
1.0
 41
0.18
 42
0.0625
 43
0.38
 44
0.18
 45
0.0
 46
0.0
 47
0.0
 48
0.0
 71
         0
 72
         0
 73
         1
 74
         1
 75
         0
 76
         0
 77
         0
 78
         0
140
0.18
141
0.09
142
0.0
143
25.4
144
1.0
145
0.0
146
1.0
147
0.09
170
         0
171
         2
172
         0
173
         0
174
         0
175
         0
176
         0
177
         0
178
         0
270
         2
271
         4
272
         4
273
         2
274
         2
275
         0
280
         0
281
         0
282
         0
283
         1
284
         0
285
         0
286
         0
287
         0
288
         0
340
17
  0
DIMSTYLE
105
2F
100
AcDbSymbolTableRecord
100
AcDbDimStyleTableRecord
  2
DIMSTYLE1
 70
         0
  3

  4

  5

  6

  7

 40
1.0
 41
3.5
 42
0.0625
 43
0.38
 44
3.5
 45
0.0
 46
0.0
 47
0.0
 48
0.0
 71
         0
 72
         0
 73
         1
 74
         1
 75
         0
 76
         0
 77
         0
 78
         0
140
3.5
141
0.09
142
0.0
143
25.4
144
1.0
145
0.0
146
1.0
147
0.09
170
         0
171
         2
172
         0
173
         0
174
         0
175
         0
176
         0
177
         0
178
         0
270
         2
271
         4
272
         4
273
         2
274
         2
275
         0
280
         0
281
         0
282
         0
283
         1
284
         0
285
         0
286
         0
287
         0
288
         0
340
17
  0
ENDTAB
  0
TABLE
  2
BLOCK_RECORD
  5
1
100
AcDbSymbolTable
 70
        13
  0
BLOCK_RECORD
  5
A
100
AcDbSymbolTableRecord
100
AcDbBlockTableRecord
  2
*MODEL_SPACE
  0
BLOCK_RECORD
  5
B
100
AcDbSymbolTableRecord
100
AcDbBlockTableRecord
  2
*PAPER_SPACE
  0
BLOCK_RECORD
  5
30
100
AcDbSymbolTableRecord
100
AcDbBlockTableRecord
  2
*D0
  0
BLOCK_RECORD
  5
44
100
AcDbSymbolTableRecord
100
AcDbBlockTableRecord
  2
*D1
  0
BLOCK_RECORD
  5
52
100
AcDbSymbolTableRecord
100
AcDbBlockTableRecord
  2
*D2
  0
BLOCK_RECORD
  5
A2
100
AcDbSymbolTableRecord
100
AcDbBlockTableRecord
  2
GENARR5
  0
BLOCK_RECORD
  5
216
100
AcDbSymbolTableRecord
100
AcDbBlockTableRecord
  2
*X4
  0
BLOCK_RECORD
  5
286
100
AcDbSymbolTableRecord
100
AcDbBlockTableRecord
  2
*D5
  0
BLOCK_RECORD
  5
295
100
AcDbSymbolTableRecord
100
AcDbBlockTableRecord
  2
*D6
  0
BLOCK_RECORD
  5
2A3
100
AcDbSymbolTableRecord
100
AcDbBlockTableRecord
  2
*D7
  0
BLOCK_RECORD
  5
2C3
100
AcDbSymbolTableRecord
100
AcDbBlockTableRecord
  2
*D8
  0
BLOCK_RECORD
  5
2D1
100
AcDbSymbolTableRecord
100
AcDbBlockTableRecord
  2
*D9
  0
BLOCK_RECORD
  5
2DF
100
AcDbSymbolTableRecord
100
AcDbBlockTableRecord
  2
*D10
  0
BLOCK_RECORD
  5
2F3
100
AcDbSymbolTableRecord
100
AcDbBlockTableRecord
  2
*D11
  0
BLOCK_RECORD
  5
304
100
AcDbSymbolTableRecord
100
AcDbBlockTableRecord
  2
*X12
  0
ENDTAB
  0
ENDSEC
  0
SECTION
  2
BLOCKS
  0
BLOCK
  5
D
100
AcDbEntity
  8
0
100
AcDbBlockBegin
  2
*MODEL_SPACE
 70
         0
 10
0.0
 20
0.0
 30
0.0
  3
*MODEL_SPACE
  1

  0
ENDBLK
  5
E
100
AcDbEntity
  8
0
100
AcDbBlockEnd
  0
BLOCK
  5
F
100
AcDbEntity
 67
         1
  8
0
100
AcDbBlockBegin
  2
*PAPER_SPACE
 70
         0
 10
0.0
 20
0.0
 30
0.0
  3
*PAPER_SPACE
  1

  0
ENDBLK
  5
10
100
AcDbEntity
 67
         1
  8
0
100
AcDbBlockEnd
  0
BLOCK
  5
31
100
AcDbEntity
  8
0
100
AcDbBlockBegin
  2
*D0
 70
        65
 10
0.0
 20
0.0
 30
0.0
  3
*D0
  1

  0
POINT
  5
34
100
AcDbEntity
  8
DEFPOINTS
  6
CONTINUOUS
 62
         0
100
AcDbPoint
 10
-9823.1062902578
 20
11958.3503198193
 30
0.0
  0
POINT
  5
35
100
AcDbEntity
  8
DEFPOINTS
  6
CONTINUOUS
 62
         0
100
AcDbPoint
 10
-9840.7705485269
 20
11958.3503198193
 30
0.0
  0
POINT
  5
36
100
AcDbEntity
  8
DEFPOINTS
  6
CONTINUOUS
 62
         0
100
AcDbPoint
 10
-9840.7705485269
 20
11998.3503198193
 30
0.0
  0
LINE
  5
37
100
AcDbEntity
  8
L1_
  6
CONTINUOUS
 62
         4
100
AcDbLine
 10
-9839.0205485269
 20
11958.3503198193
 30
0.0
 11
-9822.2312902578
 21
11958.3503198193
 31
0.0
  0
LINE
  5
38
100
AcDbEntity
  8
L1_
  6
CONTINUOUS
 62
         4
100
AcDbLine
 10
-9839.0205485269
 20
11998.3503198193
 30
0.0
 11
-9822.2312902578
 21
11998.3503198193
 31
0.0
  0
LINE
  5
39
100
AcDbEntity
  8
L1_
  6
CONTINUOUS
 62
         4
100
AcDbLine
 10
-9823.1062902578
 20
11958.3503198193
 30
0.0
 11
-9823.1062902578
 21
11998.3503198193
 31
0.0
  0
SOLID
  5
3A
100
AcDbEntity
  8
L1_
  6
CONTINUOUS
 62
         4
100
AcDbTrace
 10
-9823.1062902578
 20
11958.3503198193
 30
0.0
 11
-9823.6312902578
 21
11961.8503198193
 31
0.0
 12
-9822.5812902578
 22
11961.8503198193
 32
0.0
 13
-9823.1062902578
 23
11958.3503198193
 33
0.0
  0
SOLID
  5
3B
100
AcDbEntity
  8
L1_
  6
CONTINUOUS
 62
         4
100
AcDbTrace
 10
-9823.1062902578
 20
11998.3503198193
 30
0.0
 11
-9822.5812902578
 21
11994.8503198193
 31
0.0
 12
-9823.6312902578
 22
11994.8503198193
 32
0.0
 13
-9823.1062902578
 23
11998.3503198193
 33
0.0
  0
TEXT
  5
3D
100
AcDbEntity
  8
L1_
  6
CONTINUOUS
 62
         4
100
AcDbText
 10
-9825.7312902578
 20
11971.451598717
 30
0.0
 40
3.5
  1
崷40
 50
90.0
  7
BOX
100
AcDbText
  0
ENDBLK
  5
3E
100
AcDbEntity
  8
0
  6
CONTINUOUS
100
AcDbBlockEnd
  0
BLOCK
  5
45
100
AcDbEntity
  8
0
100
AcDbBlockBegin
  2
*D1
 70
        65
 10
0.0
 20
0.0
 30
0.0
  3
*D1
  1

  0
POINT
  5
47
100
AcDbEntity
  8
DEFPOINTS
  6
CONTINUOUS
 62
         0
100
AcDbPoint
 10
-9838.7705485269
 20
12075.1579003526
 30
0.0
  0
POINT
  5
48
100
AcDbEntity
  8
DEFPOINTS
  6
CONTINUOUS
 62
         0
100
AcDbPoint
 10
-9838.7705485269
 20
11978.3503198193
 30
0.0
  0
POINT
  5
49
100
AcDbEntity
  8
DEFPOINTS
  6
CONTINUOUS
 62
         0
100
AcDbPoint
 10
-9883.7705485269
 20
12013.3511131409
 30
0.0
  0
LINE
  5
4A
100
AcDbEntity
  8
L1_
  6
CONTINUOUS
 62
         4
100
AcDbLine
 10
-9838.7705485269
 20
11980.1003198193
 30
0.0
 11
-9838.7705485269
 21
12076.0329003526
 31
0.0
  0
LINE
  5
4B
100
AcDbEntity
  8
L1_
  6
CONTINUOUS
 62
         4
100
AcDbLine
 10
-9883.7705485269
 20
12015.1011131409
 30
0.0
 11
-9883.7705485269
 21
12076.0329003526
 31
0.0
  0
LINE
  5
4C
100
AcDbEntity
  8
L1_
  6
CONTINUOUS
 62
         4
100
AcDbLine
 10
-9838.7705485269
 20
12075.1579003526
 30
0.0
 11
-9883.7705485269
 21
12075.1579003526
 31
0.0
  0
SOLID
  5
4D
100
AcDbEntity
  8
L1_
  6
CONTINUOUS
 62
         4
100
AcDbTrace
 10
-9838.7705485269
 20
12075.1579003526
 30
0.0
 11
-9842.2705485269
 21
12074.6329003526
 31
0.0
 12
-9842.2705485269
 22
12075.6829003526
 32
0.0
 13
-9838.7705485269
 23
12075.1579003526
 33
0.0
  0
SOLID
  5
4E
100
AcDbEntity
  8
L1_
  6
CONTINUOUS
 62
         4
100
AcDbTrace
 10
-9883.7705485269
 20
12075.1579003526
 30
0.0
 11
-9880.2705485269
 21
12075.6829003526
 31
0.0
 12
-9880.2705485269
 22
12074.6329003526
 32
0.0
 13
-9883.7705485269
 23
12075.1579003526
 33
0.0
  0
TEXT
  5
50
100
AcDbEntity
  8
L1_
  6
CONTINUOUS
 62
         4
100
AcDbText
 10
-9866.3151891642
 20
12077.7829003526
 30
0.0
 40
3.5
  1
45
  7
BOX
100
AcDbText
  0
ENDBLK
  5
51
100
AcDbEntity
  8
0
  6
CONTINUOUS
100
AcDbBlockEnd
  0
BLOCK
  5
53
100
AcDbEntity
  8
0
100
AcDbBlockBegin
  2
*D2
 70
        65
 10
0.0
 20
0.0
 30
0.0
  3
*D2
  1

  0
POINT
  5
55
100
AcDbEntity
  8
DEFPOINTS
  6
CONTINUOUS
 62
         0
100
AcDbPoint
 10
-9985.5655485269
 20
12085.849149566
 30
0.0
  0
POINT
  5
56
100
AcDbEntity
  8
DEFPOINTS
  6
CONTINUOUS
 62
         0
100
AcDbPoint
 10
-9985.5655485269
 20
11997.6398871552
 30
0.0
  0
POINT
  5
57
100
AcDbEntity
  8
DEFPOINTS
  6
CONTINUOUS
 62
         0
100
AcDbPoint
 10
-9838.7705485269
 20
11978.3503198193
 30
0.0
  0
LINE
  5
58
100
AcDbEntity
  8
L1_
  6
CONTINUOUS
 62
         4
100
AcDbLine
 10
-9985.5655485269
 20
11999.3898871552
 30
0.0
 11
-9985.5655485269
 21
12086.724149566
 31
0.0
  0
LINE
  5
59
100
AcDbEntity
  8
L1_
  6
CONTINUOUS
 62
         4
100
AcDbLine
 10
-9838.7705485269
 20
11980.1003198193
 30
0.0
 11
-9838.7705485269
 21
12086.724149566
 31
0.0
  0
LINE
  5
5A
100
AcDbEntity
  8
L1_
  6
CONTINUOUS
 62
         4
100
AcDbLine
 10
-9985.5655485269
 20
12085.849149566
 30
0.0
 11
-9838.7705485269
 21
12085.849149566
 31
0.0
  0
SOLID
  5
5B
100
AcDbEntity
  8
L1_
  6
CONTINUOUS
 62
         4
100
AcDbTrace
 10
-9985.5655485269
 20
12085.849149566
 30
0.0
 11
-9982.0655485269
 21
12086.374149566
 31
0.0
 12
-9982.0655485269
 22
12085.324149566
 32
0.0
 13
-9985.5655485269
 23
12085.849149566
 33
0.0
  0
SOLID
  5
5C
100
AcDbEntity
  8
L1_
  6
CONTINUOUS
 62
         4
100
AcDbTrace
 10
-9838.7705485269
 20
12085.849149566
 30
0.0
 11
-9842.2705485269
 21
12085.324149566
 31
0.0
 12
-9842.2705485269
 22
12086.374149566
 32
0.0
 13
-9838.7705485269
 23
12085.849149566
 33
0.0
  0
TEXT
  5
5E
100
AcDbEntity
  8
L1_
  6
CONTINUOUS
 62
         4
100
AcDbText
 10
-9922.49441269
 20
12088.474149566
 30
0.0
 40
3.5
  1
146.8
  7
BOX
100
AcDbText
  0
ENDBLK
  5
5F
100
AcDbEntity
  8
0
  6
CONTINUOUS
100
AcDbBlockEnd
  0
BLOCK
  5
A3
100
AcDbEntity
  8
0
100
AcDbBlockBegin
  2
GENARR5
 70
        64
 10
0.0
 20
0.0
 30
0.0
  3
GENARR5
  1

  0
LINE
  5
A4
100
AcDbEntity
  8
_Y__________
  6
CONTINUOUS
 62
         7
100
AcDbLine
 10
-10146.5406993577
 20
11974.3846339445
 30
0.0
 11
-10162.925908084
 21
11965.9003198193
 31
0.0
  0
SOLID
  5
A5
100
AcDbEntity
  8
_Y__________
  6
CONTINUOUS
 62
         7
100
AcDbTrace
 10
-10162.925908084
 20
11965.9003198193
 30
0.0
 11
-10160.0592629026
 21
11967.9758848999
 31
0.0
 12
-10159.5764555764
 22
11967.0434702466
 32
0.0
 13
-10162.925908084
 23
11965.9003198193
 33
0.0
  0
ENDBLK
  5
A6
100
AcDbEntity
  8
0
  6
CONTINUOUS
100
AcDbBlockEnd
  0
BLOCK
  5
217
100
AcDbEntity
  8
0
100
AcDbBlockBegin
  2
*X4
 70
        65
 10
0.0
 20
0.0
 30
0.0
  3
*X4
  1

  0
LINE
  5
218
100
AcDbEntity
  8
L1_
  6
CONTINUOUS
 62
         4
100
AcDbLine
 10
-9874.5562364931
 20
11780.2109762793
 30
0.0
 11
-9874.1972289715
 21
11780.5699838008
 31
0.0
  0
LINE
  5
219
100
AcDbEntity
  8
L1_
  6
CONTINUOUS
 62
         4
100
AcDbLine
 10
-9877.0516028479
 20
11781.9582506115
 30
0.0
 11
-9876.6925953264
 21
11782.3172581331
 31
0.0
  0
ENDBLK
  5
21A
100
AcDbEntity
  8
0
  6
CONTINUOUS
100
AcDbBlockEnd
  0
BLOCK
  5
287
100
AcDbEntity
  8
0
100
AcDbBlockBegin
  2
*D5
 70
        65
 10
0.0
 20
0.0
 30
0.0
  3
*D5
  1

  0
POINT
  5
289
100
AcDbEntity
  8
DEFPOINTS
  6
CONTINUOUS
 62
         0
100
AcDbPoint
 10
-9917.3955485269
 20
11660.0120181621
 30
0.0
  0
POINT
  5
28A
100
AcDbEntity
  8
DEFPOINTS
  6
CONTINUOUS
 62
         0
100
AcDbPoint
 10
-9917.3955485269
 20
11722.7432756784
 30
0.0
  0
POINT
  5
28B
100
AcDbEntity
  8
DEFPOINTS
  6
CONTINUOUS
 62
         0
100
AcDbPoint
 10
-9838.7755485269
 20
11721.3578887676
 30
0.0
  0
LINE
  5
28C
100
AcDbEntity
  8
L1_
  6
CONTINUOUS
 62
         4
100
AcDbLine
 10
-9917.3955485269
 20
11720.9932756784
 30
0.0
 11
-9917.3955485269
 21
11659.1370181621
 31
0.0
  0
LINE
  5
28D
100
AcDbEntity
  8
L1_
  6
CONTINUOUS
 62
         4
100
AcDbLine
 10
-9838.7755485269
 20
11719.6078887676
 30
0.0
 11
-9838.7755485269
 21
11659.1370181621
 31
0.0
  0
LINE
  5
28E
100
AcDbEntity
  8
L1_
  6
CONTINUOUS
 62
         4
100
AcDbLine
 10
-9917.3955485269
 20
11660.0120181621
 30
0.0
 11
-9838.7755485269
 21
11660.0120181621
 31
0.0
  0
SOLID
  5
28F
100
AcDbEntity
  8
L1_
  6
CONTINUOUS
 62
         4
100
AcDbTrace
 10
-9917.3955485269
 20
11660.0120181621
 30
0.0
 11
-9913.8955485269
 21
11660.5370181621
 31
0.0
 12
-9913.8955485269
 22
11659.4870181621
 32
0.0
 13
-9917.3955485269
 23
11660.0120181621
 33
0.0
  0
SOLID
  5
290
100
AcDbEntity
  8
L1_
  6
CONTINUOUS
 62
         4
100
AcDbTrace
 10
-9838.7755485269
 20
11660.0120181621
 30
0.0
 11
-9842.2755485269
 21
11659.4870181621
 31
0.0
 12
-9842.2755485269
 22
11660.5370181621
 32
0.0
 13
-9838.7755485269
 23
11660.0120181621
 33
0.0
  0
TEXT
  5
292
100
AcDbEntity
  8
L1_
  6
CONTINUOUS
 62
         4
100
AcDbText
 10
-9883.6405940901
 20
11662.6370181621
 30
0.0
 40
3.5
  1
78
  7
BOX
100
AcDbText
  0
ENDBLK
  5
293
100
AcDbEntity
  8
0
  6
CONTINUOUS
100
AcDbBlockEnd
  0
BLOCK
  5
296
100
AcDbEntity
  8
0
100
AcDbBlockBegin
  2
*D6
 70
        65
 10
0.0
 20
0.0
 30
0.0
  3
*D6
  1

  0
POINT
  5
298
100
AcDbEntity
  8
DEFPOINTS
  6
CONTINUOUS
 62
         0
100
AcDbPoint
 10
-9922.7691619486
 20
11787.4521164345
 30
0.0
  0
POINT
  5
299
100
AcDbEntity
  8
DEFPOINTS
  6
CONTINUOUS
 62
         0
100
AcDbPoint
 10
-9922.7691619486
 20
11748.9632166436
 30
0.0
  0
POINT
  5
29A
100
AcDbEntity
  8
DEFPOINTS
  6
CONTINUOUS
 62
         0
100
AcDbPoint
 10
-9906.7755485269
 20
11749.9632166436
 30
0.0
  0
LINE
  5
29B
100
AcDbEntity
  8
L1_
  6
CONTINUOUS
 62
         4
100
AcDbLine
 10
-9922.7691619486
 20
11750.7132166436
 30
0.0
 11
-9922.7691619486
 21
11788.3271164345
 31
0.0
  0
LINE
  5
29C
100
AcDbEntity
  8
L1_
  6
CONTINUOUS
 62
         4
100
AcDbLine
 10
-9906.7755485269
 20
11751.7132166436
 30
0.0
 11
-9906.7755485269
 21
11788.3271164345
 31
0.0
  0
LINE
  5
29D
100
AcDbEntity
  8
L1_
  6
CONTINUOUS
 62
         4
100
AcDbLine
 10
-9922.7691619486
 20
11787.4521164345
 30
0.0
 11
-9906.7755485269
 21
11787.4521164345
 31
0.0
  0
SOLID
  5
29E
100
AcDbEntity
  8
L1_
  6
CONTINUOUS
 62
         4
100
AcDbTrace
 10
-9922.7691619486
 20
11787.4521164345
 30
0.0
 11
-9919.2691619486
 21
11787.9771164345
 31
0.0
 12
-9919.2691619486
 22
11786.9271164345
 32
0.0
 13
-9922.7691619486
 23
11787.4521164345
 33
0.0
  0
SOLID
  5
29F
100
AcDbEntity
  8
L1_
  6
CONTINUOUS
 62
         4
100
AcDbTrace
 10
-9906.7755485269
 20
11787.4521164345
 30
0.0
 11
-9910.2755485269
 21
11786.9271164345
 31
0.0
 12
-9910.2755485269
 22
11787.9771164345
 32
0.0
 13
-9906.7755485269
 23
11787.4521164345
 33
0.0
  0
TEXT
  5
2A1
100
AcDbEntity
  8
L1_
  6
CONTINUOUS
 62
         4
100
AcDbText
 10
-9917.9686487304
 20
11790.0771164345
 30
0.0
 40
3.5
  1
16
  7
BOX
100
AcDbText
  0
ENDBLK
  5
2A2
100
AcDbEntity
  8
0
  6
CONTINUOUS
100
AcDbBlockEnd
  0
BLOCK
  5
2A4
100
AcDbEntity
  8
0
100
AcDbBlockBegin
  2
*D7
 70
        65
 10
0.0
 20
0.0
 30
0.0
  3
*D7
  1

  0
POINT
  5
2A6
100
AcDbEntity
  8
DEFPOINTS
  6
CONTINUOUS
 62
         0
100
AcDbPoint
 10
-9922.7691619486
 20
11805.4014260504
 30
0.0
  0
POINT
  5
2A7
100
AcDbEntity
  8
DEFPOINTS
  6
CONTINUOUS
 62
         0
100
AcDbPoint
 10
-9922.7691619486
 20
11748.9632166436
 30
0.0
  0
POINT
  5
2A8
100
AcDbEntity
  8
DEFPOINTS
  6
CONTINUOUS
 62
         0
100
AcDbPoint
 10
-9838.7755485269
 20
11757.3578887676
 30
0.0
  0
LINE
  5
2A9
100
AcDbEntity
  8
L1_
  6
CONTINUOUS
 62
         4
100
AcDbLine
 10
-9922.7691619486
 20
11750.7132166436
 30
0.0
 11
-9922.7691619486
 21
11806.2764260504
 31
0.0
  0
LINE
  5
2AA
100
AcDbEntity
  8
L1_
  6
CONTINUOUS
 62
         4
100
AcDbLine
 10
-9838.7755485269
 20
11759.1078887676
 30
0.0
 11
-9838.7755485269
 21
11806.2764260504
 31
0.0
  0
LINE
  5
2AB
100
AcDbEntity
  8
L1_
  6
CONTINUOUS
 62
         4
100
AcDbLine
 10
-9922.7691619486
 20
11805.4014260504
 30
0.0
 11
-9838.7755485269
 21
11805.4014260504
 31
0.0
  0
SOLID
  5
2AC
100
AcDbEntity
  8
L1_
  6
CONTINUOUS
 62
         4
100
AcDbTrace
 10
-9922.7691619486
 20
11805.4014260504
 30
0.0
 11
-9919.2691619486
 21
11805.9264260504
 31
0.0
 12
-9919.2691619486
 22
11804.8764260504
 32
0.0
 13
-9922.7691619486
 23
11805.4014260504
 33
0.0
  0
SOLID
  5
2AD
100
AcDbEntity
  8
L1_
  6
CONTINUOUS
 62
         4
100
AcDbTrace
 10
-9838.7755485269
 20
11805.4014260504
 30
0.0
 11
-9842.2755485269
 21
11804.8764260504
 31
0.0
 12
-9842.2755485269
 22
11805.9264260504
 32
0.0
 13
-9838.7755485269
 23
11805.4014260504
 33
0.0
  0
TEXT
  5
2AF
100
AcDbEntity
  8
L1_
  6
CONTINUOUS
 62
         4
100
AcDbText
 10
-9883.4162277199
 20
11808.0264260504
 30
0.0
 40
3.5
  1
84
  7
BOX
100
AcDbText
  0
ENDBLK
  5
2B0
100
AcDbEntity
  8
0
  6
CONTINUOUS
100
AcDbBlockEnd
  0
BLOCK
  5
2C4
100
AcDbEntity
  8
0
100
AcDbBlockBegin
  2
*D8
 70
        65
 10
0.0
 20
0.0
 30
0.0
  3
*D8
  1

  0
POINT
  5
2C6
100
AcDbEntity
  8
DEFPOINTS
  6
CONTINUOUS
 62
         0
100
AcDbPoint
 10
-9879.7755485269
 20
11671.0059703018
 30
0.0
  0
POINT
  5
2C7
100
AcDbEntity
  8
DEFPOINTS
  6
CONTINUOUS
 62
         0
100
AcDbPoint
 10
-9879.7755485269
 20
11727.1078887676
 30
0.0
  0
POINT
  5
2C8
100
AcDbEntity
  8
DEFPOINTS
  6
CONTINUOUS
 62
         0
100
AcDbPoint
 10
-9838.7755485269
 20
11721.3578887676
 30
0.0
  0
LINE
  5
2C9
100
AcDbEntity
  8
L1_
  6
CONTINUOUS
 62
         4
100
AcDbLine
 10
-9879.7755485269
 20
11725.3578887676
 30
0.0
 11
-9879.7755485269
 21
11670.1309703018
 31
0.0
  0
LINE
  5
2CA
100
AcDbEntity
  8
L1_
  6
CONTINUOUS
 62
         4
100
AcDbLine
 10
-9838.7755485269
 20
11719.6078887676
 30
0.0
 11
-9838.7755485269
 21
11670.1309703018
 31
0.0
  0
LINE
  5
2CB
100
AcDbEntity
  8
L1_
  6
CONTINUOUS
 62
         4
100
AcDbLine
 10
-9879.7755485269
 20
11671.0059703018
 30
0.0
 11
-9838.7755485269
 21
11671.0059703018
 31
0.0
  0
SOLID
  5
2CC
100
AcDbEntity
  8
L1_
  6
CONTINUOUS
 62
         4
100
AcDbTrace
 10
-9879.7755485269
 20
11671.0059703018
 30
0.0
 11
-9876.2755485269
 21
11671.5309703018
 31
0.0
 12
-9876.2755485269
 22
11670.4809703018
 32
0.0
 13
-9879.7755485269
 23
11671.0059703018
 33
0.0
  0
SOLID
  5
2CD
100
AcDbEntity
  8
L1_
  6
CONTINUOUS
 62
         4
100
AcDbTrace
 10
-9838.7755485269
 20
11671.0059703018
 30
0.0
 11
-9842.2755485269
 21
11670.4809703018
 31
0.0
 12
-9842.2755485269
 22
11671.5309703018
 32
0.0
 13
-9838.7755485269
 23
11671.0059703018
 33
0.0
  0
TEXT
  5
2CF
100
AcDbEntity
  8
L1_
  6
CONTINUOUS
 62
         4
100
AcDbText
 10
-9868.9669181041
 20
11673.6309703018
 30
0.0
 40
3.5
  1
41.2
  7
BOX
100
AcDbText
  0
ENDBLK
  5
2D0
100
AcDbEntity
  8
0
  6
CONTINUOUS
100
AcDbBlockEnd
  0
BLOCK
  5
2D2
100
AcDbEntity
  8
0
100
AcDbBlockBegin
  2
*D9
 70
        65
 10
0.0
 20
0.0
 30
0.0
  3
*D9
  1

  0
POINT
  5
2D4
100
AcDbEntity
  8
DEFPOINTS
  6
CONTINUOUS
 62
         0
100
AcDbPoint
 10
-9869.7755485269
 20
11680.4293578501
 30
0.0
  0
POINT
  5
2D5
100
AcDbEntity
  8
DEFPOINTS
  6
CONTINUOUS
 62
         0
100
AcDbPoint
 10
-9869.7755485269
 20
11727.1078887676
 30
0.0
  0
POINT
  5
2D6
100
AcDbEntity
  8
DEFPOINTS
  6
CONTINUOUS
 62
         0
100
AcDbPoint
 10
-9838.7755485269
 20
11721.3578887676
 30
0.0
  0
LINE
  5
2D7
100
AcDbEntity
  8
L1_
  6
CONTINUOUS
 62
         4
100
AcDbLine
 10
-9869.7755485269
 20
11725.3578887676
 30
0.0
 11
-9869.7755485269
 21
11679.5543578501
 31
0.0
  0
LINE
  5
2D8
100
AcDbEntity
  8
L1_
  6
CONTINUOUS
 62
         4
100
AcDbLine
 10
-9838.7755485269
 20
11719.6078887676
 30
0.0
 11
-9838.7755485269
 21
11679.5543578501
 31
0.0
  0
LINE
  5
2D9
100
AcDbEntity
  8
L1_
  6
CONTINUOUS
 62
         4
100
AcDbLine
 10
-9869.7755485269
 20
11680.4293578501
 30
0.0
 11
-9838.7755485269
 21
11680.4293578501
 31
0.0
  0
SOLID
  5
2DA
100
AcDbEntity
  8
L1_
  6
CONTINUOUS
 62
         4
100
AcDbTrace
 10
-9869.7755485269
 20
11680.4293578501
 30
0.0
 11
-9866.2755485269
 21
11680.9543578501
 31
0.0
 12
-9866.2755485269
 22
11679.9043578501
 32
0.0
 13
-9869.7755485269
 23
11680.4293578501
 33
0.0
  0
SOLID
  5
2DB
100
AcDbEntity
  8
L1_
  6
CONTINUOUS
 62
         4
100
AcDbTrace
 10
-9838.7755485269
 20
11680.4293578501
 30
0.0
 11
-9842.2755485269
 21
11679.9043578501
 31
0.0
 12
-9842.2755485269
 22
11680.9543578501
 32
0.0
 13
-9838.7755485269
 23
11680.4293578501
 33
0.0
  0
TEXT
  5
2DD
100
AcDbEntity
  8
L1_
  6
CONTINUOUS
 62
         4
100
AcDbText
 10
-9866.2745216617
 20
11683.0543578501
 30
0.0
 40
3.5
  1
31.2
  7
BOX
100
AcDbText
  0
ENDBLK
  5
2DE
100
AcDbEntity
  8
0
  6
CONTINUOUS
100
AcDbBlockEnd
  0
BLOCK
  5
2E0
100
AcDbEntity
  8
0
100
AcDbBlockBegin
  2
*D10
 70
        65
 10
0.0
 20
0.0
 30
0.0
  3
*D10
  1

  0
POINT
  5
2E2
100
AcDbEntity
  8
DEFPOINTS
  6
CONTINUOUS
 62
         0
100
AcDbPoint
 10
-9814.5262271873
 20
11751.6078887676
 30
0.0
  0
POINT
  5
2E3
100
AcDbEntity
  8
DEFPOINTS
  6
CONTINUOUS
 62
         0
100
AcDbPoint
 10
-9869.7755485269
 20
11751.6078887676
 30
0.0
  0
POINT
  5
2E4
100
AcDbEntity
  8
DEFPOINTS
  6
CONTINUOUS
 62
         0
100
AcDbPoint
 10
-9869.7755485269
 20
11727.1078887676
 30
0.0
  0
LINE
  5
2E5
100
AcDbEntity
  8
L1_
  6
CONTINUOUS
 62
         4
100
AcDbLine
 10
-9868.0255485269
 20
11751.6078887676
 30
0.0
 11
-9813.6512271873
 21
11751.6078887676
 31
0.0
  0
LINE
  5
2E6
100
AcDbEntity
  8
L1_
  6
CONTINUOUS
 62
         4
100
AcDbLine
 10
-9868.0255485269
 20
11727.1078887676
 30
0.0
 11
-9813.6512271873
 21
11727.1078887676
 31
0.0
  0
LINE
  5
2E7
100
AcDbEntity
  8
L1_
  6
CONTINUOUS
 62
         4
100
AcDbLine
 10
-9814.5262271873
 20
11751.6078887676
 30
0.0
 11
-9814.5262271873
 21
11727.1078887676
 31
0.0
  0
SOLID
  5
2E8
100
AcDbEntity
  8
L1_
  6
CONTINUOUS
 62
         4
100
AcDbTrace
 10
-9814.5262271873
 20
11751.6078887676
 30
0.0
 11
-9814.0012271873
 21
11748.1078887676
 31
0.0
 12
-9815.0512271873
 22
11748.1078887676
 32
0.0
 13
-9814.5262271873
 23
11751.6078887676
 33
0.0
  0
SOLID
  5
2E9
100
AcDbEntity
  8
L1_
  6
CONTINUOUS
 62
         4
100
AcDbTrace
 10
-9814.5262271873
 20
11727.1078887676
 30
0.0
 11
-9815.0512271873
 21
11730.6078887676
 31
0.0
 12
-9814.0012271873
 22
11730.6078887676
 32
0.0
 13
-9814.5262271873
 23
11727.1078887676
 33
0.0
  0
TEXT
  5
2EB
100
AcDbEntity
  8
L1_
  6
CONTINUOUS
 62
         4
100
AcDbText
 10
-9817.1512271873
 20
11727.3337093239
 30
0.0
 40
3.5
  1
崷24.5
 50
90.0
  7
BOX
100
AcDbText
  0
ENDBLK
  5
2EC
100
AcDbEntity
  8
0
  6
CONTINUOUS
100
AcDbBlockEnd
  0
BLOCK
  5
2F4
100
AcDbEntity
  8
0
100
AcDbBlockBegin
  2
*D11
 70
        65
 10
0.0
 20
0.0
 30
0.0
  3
*D11
  1

  0
POINT
  5
2F6
100
AcDbEntity
  8
DEFPOINTS
  6
CONTINUOUS
 62
         0
100
AcDbPoint
 10
-9908.9718168794
 20
11728.6521624403
 30
0.0
  0
POINT
  5
2F7
100
AcDbEntity
  8
DEFPOINTS
  6
CONTINUOUS
 62
         0
100
AcDbPoint
 10
-9906.7755485269
 20
11728.6521624403
 30
0.0
  0
POINT
  5
2F8
100
AcDbEntity
  8
DEFPOINTS
  6
CONTINUOUS
 62
         0
100
AcDbPoint
 10
-9906.7755485269
 20
11750.0636150949
 30
0.0
  0
LINE
  5
2F9
100
AcDbEntity
  8
L1_
  6
CONTINUOUS
 62
         4
100
AcDbLine
 10
-9908.5255485269
 20
11728.6521624403
 30
0.0
 11
-9909.8468168794
 21
11728.6521624403
 31
0.0
  0
LINE
  5
2FA
100
AcDbEntity
  8
L1_
  6
CONTINUOUS
 62
         4
100
AcDbLine
 10
-9908.5255485269
 20
11750.0636150949
 30
0.0
 11
-9909.8468168794
 21
11750.0636150949
 31
0.0
  0
LINE
  5
2FB
100
AcDbEntity
  8
L1_
  6
CONTINUOUS
 62
         4
100
AcDbLine
 10
-9908.9718168794
 20
11728.6521624403
 30
0.0
 11
-9908.9718168794
 21
11750.0636150949
 31
0.0
  0
SOLID
  5
2FC
100
AcDbEntity
  8
L1_
  6
CONTINUOUS
 62
         4
100
AcDbTrace
 10
-9908.9718168794
 20
11728.6521624403
 30
0.0
 11
-9909.4968168794
 21
11732.1521624403
 31
0.0
 12
-9908.4468168794
 22
11732.1521624403
 32
0.0
 13
-9908.9718168794
 23
11728.6521624403
 33
0.0
  0
LINE
  5
2FD
100
AcDbEntity
  8
L1_
  6
CONTINUOUS
 62
         4
100
AcDbLine
 10
-9908.9718168794
 20
11728.6521624403
 30
0.0
 11
-9908.9718168794
 21
11677.9840816965
 31
0.0
  0
SOLID
  5
2FE
100
AcDbEntity
  8
L1_
  6
CONTINUOUS
 62
         4
100
AcDbTrace
 10
-9908.9718168794
 20
11750.0636150949
 30
0.0
 11
-9908.4468168794
 21
11746.5636150949
 31
0.0
 12
-9909.4968168794
 22
11746.5636150949
 32
0.0
 13
-9908.9718168794
 23
11750.0636150949
 33
0.0
  0
TEXT
  5
300
100
AcDbEntity
  8
L1_
  6
CONTINUOUS
 62
         4
100
AcDbText
 10
-9911.5968168794
 20
11679.7340816965
 30
0.0
 40
3.5
  1
崷21.27
 50
90.0
  7
BOX
100
AcDbText
  0
ENDBLK
  5
301
100
AcDbEntity
  8
0
  6
CONTINUOUS
100
AcDbBlockEnd
  0
BLOCK
  5
305
100
AcDbEntity
  8
0
100
AcDbBlockBegin
  2
*X12
 70
        65
 10
0.0
 20
0.0
 30
0.0
  3
*X12
  1

  0
LINE
  5
306
100
AcDbEntity
  8
L1_
  6
CONTINUOUS
 62
         4
100
AcDbLine
 10
-9850.4158510098
 20
11689.3578887676
 30
0.0
 11
-9845.7655485269
 21
11694.0081912505
 31
0.0
  0
LINE
  5
307
100
AcDbEntity
  8
L1_
  6
CONTINUOUS
 62
         4
100
AcDbLine
 10
-9853.6650338008
 20
11690.3513466637
 30
0.0
 11
-9845.7655485269
 21
11698.2508319376
 31
0.0
  0
LINE
  5
308
100
AcDbEntity
  8
L1_
  6
CONTINUOUS
 62
         4
100
AcDbLine
 10
-9855.2179480714
 20
11693.0410730802
 30
0.0
 11
-9845.7655485269
 21
11702.4934726247
 31
0.0
  0
LINE
  5
309
100
AcDbEntity
  8
L1_
  6
CONTINUOUS
 62
         4
100
AcDbLine
 10
-9856.7708623421
 20
11695.7307994967
 30
0.0
 11
-9845.7655485269
 21
11706.7361133119
 31
0.0
  0
LINE
  5
30A
100
AcDbEntity
  8
L1_
  6
CONTINUOUS
 62
         4
100
AcDbLine
 10
-9859.8864137583
 20
11696.8578887676
 30
0.0
 11
-9845.7655485269
 21
11710.978753999
 31
0.0
  0
LINE
  5
30B
100
AcDbEntity
  8
L1_
  6
CONTINUOUS
 62
         4
100
AcDbLine
 10
-9871.6290544454
 20
11689.3578887676
 30
0.0
 11
-9845.7655485269
 21
11715.2213946861
 31
0.0
  0
LINE
  5
30C
100
AcDbEntity
  8
L1_
  6
CONTINUOUS
 62
         4
100
AcDbLine
 10
-9841.6290544454
 20
11719.3578887676
 30
0.0
 11
-9838.7655485269
 21
11722.2213946861
 31
0.0
  0
LINE
  5
30D
100
AcDbEntity
  8
L1_
  6
CONTINUOUS
 62
         4
100
AcDbLine
 10
-9875.8716951325
 20
11689.3578887676
 30
0.0
 11
-9838.8258807506
 21
11726.4037031495
 31
0.0
  0
LINE
  5
30E
100
AcDbEntity
  8
L1_
  6
CONTINUOUS
 62
         4
100
AcDbLine
 10
-9880.0676208351
 20
11689.4046037522
 30
0.0
 11
-9841.946983045
 21
11727.5252415422
 31
0.0
  0
LINE
  5
30F
100
AcDbEntity
  8
L1_
  6
CONTINUOUS
 62
         4
100
AcDbLine
 10
-9880.7655485269
 20
11692.9493167475
 30
0.0
 11
-9846.0857424728
 21
11727.6291228015
 31
0.0
  0
LINE
  5
310
100
AcDbEntity
  8
L1_
  6
CONTINUOUS
 62
         4
100
AcDbLine
 10
-9880.7655485269
 20
11697.1919574346
 30
0.0
 11
-9850.2245019007
 21
11727.7330040607
 31
0.0
  0
LINE
  5
311
100
AcDbEntity
  8
L1_
  6
CONTINUOUS
 62
         4
100
AcDbLine
 10
-9880.7655485269
 20
11701.4345981217
 30
0.0
 11
-9854.3632613286
 21
11727.83688532
 31
0.0
  0
LINE
  5
312
100
AcDbEntity
  8
L1_
  6
CONTINUOUS
 62
         4
100
AcDbLine
 10
-9881.782814834
 20
11704.6599725017
 30
0.0
 11
-9858.5020207565
 21
11727.9407665792
 31
0.0
  0
LINE
  5
313
100
AcDbEntity
  8
L1_
  6
CONTINUOUS
 62
         4
100
AcDbLine
 10
-9886.002161626
 20
11704.6832663969
 30
0.0
 11
-9862.6407801843
 21
11728.0446478385
 31
0.0
  0
LINE
  5
314
100
AcDbEntity
  8
L1_
  6
CONTINUOUS
 62
         4
100
AcDbLine
 10
-9889.7048324522
 20
11705.2232362578
 30
0.0
 11
-9866.7795396122
 21
11728.1485290977
 31
0.0
  0
LINE
  5
315
100
AcDbEntity
  8
L1_
  6
CONTINUOUS
 62
         4
100
AcDbLine
 10
-9843.783631892
 20
11751.1444368179
 30
0.0
 11
-9838.7655485269
 21
11756.1625201831
 31
0.0
  0
LINE
  5
316
100
AcDbEntity
  8
L1_
  6
CONTINUOUS
 62
         4
100
AcDbLine
 10
-9893.4075032784
 20
11705.7632061187
 30
0.0
 11
-9872.0628206295
 21
11727.1078887676
 31
0.0
  0
LINE
  5
317
100
AcDbEntity
  8
L1_
  6
CONTINUOUS
 62
         4
100
AcDbLine
 10
-9848.1355028554
 20
11751.0352065417
 30
0.0
 11
-9839.9754854932
 21
11759.1952239038
 31
0.0
  0
LINE
  5
318
100
AcDbEntity
  8
L1_
  6
CONTINUOUS
 62
         4
100
AcDbLine
 10
-9897.1101741046
 20
11706.3031759796
 30
0.0
 11
-9876.3054613166
 21
11727.1078887676
 31
0.0
  0
LINE
  5
319
100
AcDbEntity
  8
L1_
  6
CONTINUOUS
 62
         4
100
AcDbLine
 10
-9852.4873738188
 20
11750.9259762654
 30
0.0
 11
-9844.0369597292
 21
11759.376390355
 31
0.0
  0
LINE
  5
31A
100
AcDbEntity
  8
L1_
  6
CONTINUOUS
 62
         4
100
AcDbLine
 10
-9900.8128449308
 20
11706.8431458404
 30
0.0
 11
-9879.4735332022
 21
11728.1824575691
 31
0.0
  0
LINE
  5
31B
100
AcDbEntity
  8
L1_
  6
CONTINUOUS
 62
         4
100
AcDbLine
 10
-9856.8392447822
 20
11750.8167459891
 30
0.0
 11
-9845.7655485269
 21
11761.8904422444
 31
0.0
  0
LINE
  5
31C
100
AcDbEntity
  8
L1_
  6
CONTINUOUS
 62
         4
100
AcDbLine
 10
-9904.5155157571
 20
11707.3831157013
 30
0.0
 11
-9883.3345773237
 21
11728.5640541347
 31
0.0
  0
LINE
  5
31D
100
AcDbEntity
  8
L1_
  6
CONTINUOUS
 62
         4
100
AcDbLine
 10
-9861.1911157456
 20
11750.7075157128
 30
0.0
 11
-9845.7655485269
 21
11766.1330829315
 31
0.0
  0
LINE
  5
31E
100
AcDbEntity
  8
L1_
  6
CONTINUOUS
 62
         4
100
AcDbLine
 10
-9908.2181865833
 20
11707.9230855622
 30
0.0
 11
-9887.4733367515
 21
11728.667935394
 31
0.0
  0
LINE
  5
31F
100
AcDbEntity
  8
L1_
  6
CONTINUOUS
 62
         4
100
AcDbLine
 10
-9865.542986709
 20
11750.5982854365
 30
0.0
 11
-9845.7655485269
 21
11770.3757236186
 31
0.0
  0
LINE
  5
320
100
AcDbEntity
  8
L1_
  6
CONTINUOUS
 62
         4
100
AcDbLine
 10
-9911.9208574095
 20
11708.4630554231
 30
0.0
 11
-9891.6120961794
 21
11728.7718166532
 31
0.0
  0
LINE
  5
321
100
AcDbEntity
  8
L1_
  6
CONTINUOUS
 62
         4
100
AcDbLine
 10
-9869.8285802949
 20
11750.5553325378
 30
0.0
 11
-9845.7655485269
 21
11774.6183643058
 31
0.0
  0
LINE
  5
322
100
AcDbEntity
  8
L1_
  6
CONTINUOUS
 62
         4
100
AcDbLine
 10
-9915.0704065451
 20
11709.5561469747
 30
0.0
 11
-9895.7508556073
 21
11728.8756979125
 31
0.0
  0
LINE
  5
323
100
AcDbEntity
  8
L1_
  6
CONTINUOUS
 62
         4
100
AcDbLine
 10
-9873.0186647522
 20
11751.6078887676
 30
0.0
 11
-9855.7625629477
 21
11768.863990572
 31
0.0
  0
LINE
  5
324
100
AcDbEntity
  8
L1_
  6
CONTINUOUS
 62
         4
100
AcDbLine
 10
-9915.3855485269
 20
11713.48364568
 30
0.0
 11
-9899.8896150351
 21
11728.9795791717
 31
0.0
  0
LINE
  5
325
100
AcDbEntity
  8
L1_
  6
CONTINUOUS
 62
         4
100
AcDbLine
 10
-9915.3855485269
 20
11717.7262863671
 30
0.0
 11
-9904.028374463
 21
11729.083460431
 31
0.0
  0
LINE
  5
326
100
AcDbEntity
  8
L1_
  6
CONTINUOUS
 62
         4
100
AcDbLine
 10
-9882.9504705626
 20
11750.1613643314
 30
0.0
 11
-9865.4094090705
 21
11767.7024258235
 31
0.0
  0
LINE
  5
327
100
AcDbEntity
  8
L1_
  6
CONTINUOUS
 62
         4
100
AcDbLine
 10
-9861.8193338552
 20
11771.2925010388
 30
0.0
 11
-9845.7655485269
 21
11787.3462863671
 31
0.0
  0
LINE
  5
328
100
AcDbEntity
  8
L1_
  6
CONTINUOUS
 62
         4
100
AcDbLine
 10
-9915.3855485269
 20
11721.9689270542
 30
0.0
 11
-9908.7023131409
 21
11728.6521624403
 31
0.0
  0
LINE
  5
329
100
AcDbEntity
  8
L1_
  6
CONTINUOUS
 62
         4
100
AcDbLine
 10
-9887.302341526
 20
11750.0521340551
 30
0.0
 11
-9867.9047754254
 21
11769.4497001557
 31
0.0
  0
LINE
  5
32A
100
AcDbEntity
  8
L1_
  6
CONTINUOUS
 62
         4
100
AcDbLine
 10
-9864.3147002101
 20
11773.0397753711
 30
0.0
 11
-9847.9965868135
 21
11789.3578887676
 31
0.0
  0
LINE
  5
32B
100
AcDbEntity
  8
L1_
  6
CONTINUOUS
 62
         4
100
AcDbLine
 10
-9917.3855485269
 20
11724.2115677414
 30
0.0
 11
-9912.944953828
 21
11728.6521624403
 31
0.0
  0
LINE
  5
32C
100
AcDbEntity
  8
L1_
  6
CONTINUOUS
 62
         4
100
AcDbLine
 10
-9891.6542124894
 20
11749.9429037788
 30
0.0
 11
-9870.4001417802
 21
11771.196974488
 31
0.0
  0
LINE
  5
32D
100
AcDbEntity
  8
L1_
  6
CONTINUOUS
 62
         4
100
AcDbLine
 10
-9866.8100665649
 20
11774.7870497033
 30
0.0
 11
-9859.7392275007
 21
11781.8578887676
 31
0.0
  0
LINE
  5
32E
100
AcDbEntity
  8
L1_
  6
CONTINUOUS
 62
         4
100
AcDbLine
 10
-9854.2556327041
 20
11787.3414835642
 30
0.0
 11
-9852.2392275007
 21
11789.3578887676
 31
0.0
  0
LINE
  5
32F
100
AcDbEntity
  8
L1_
  6
CONTINUOUS
 62
         4
100
AcDbLine
 10
-9917.3855485269
 20
11728.4542084285
 30
0.0
 11
-9917.1875945151
 21
11728.6521624403
 31
0.0
  0
LINE
  5
330
100
AcDbEntity
  8
L1_
  6
CONTINUOUS
 62
         4
100
AcDbLine
 10
-9896.0060834528
 20
11749.8336735026
 30
0.0
 11
-9872.8955081351
 21
11772.9442488203
 31
0.0
  0
LINE
  5
331
100
AcDbEntity
  8
L1_
  6
CONTINUOUS
 62
         4
100
AcDbLine
 10
-9869.3054329198
 20
11776.5343240356
 30
0.0
 11
-9863.9818681878
 21
11781.8578887676
 31
0.0
  0
LINE
  5
332
100
AcDbEntity
  8
L1_
  6
CONTINUOUS
 62
         4
100
AcDbLine
 10
-9900.3579544162
 20
11749.7244432263
 30
0.0
 11
-9875.3908744899
 21
11774.6915231525
 31
0.0
  0
LINE
  5
333
100
AcDbEntity
  8
L1_
  6
CONTINUOUS
 62
         4
100
AcDbLine
 10
-9871.8007992746
 20
11778.2815983678
 30
0.0
 11
-9865.3621139171
 21
11784.7202837253
 31
0.0
  0
LINE
  5
334
100
AcDbEntity
  8
L1_
  6
CONTINUOUS
 62
         4
100
AcDbLine
 10
-9904.7098253796
 20
11749.61521295
 30
0.0
 11
-9877.8862408448
 21
11776.4387974848
 31
0.0
  0
LINE
  5
335
100
AcDbEntity
  8
L1_
  6
CONTINUOUS
 62
         4
100
AcDbLine
 10
-9874.2961656295
 20
11780.0288727001
 30
0.0
 11
-9866.9150281878
 21
11787.4100101418
 31
0.0
  0
LINE
  5
336
100
AcDbEntity
  8
L1_
  6
CONTINUOUS
 62
         4
100
AcDbLine
 10
-9908.5040639218
 20
11750.0636150949
 30
0.0
 11
-9884.284707143
 21
11774.2829718738
 31
0.0
  0
LINE
  5
337
100
AcDbEntity
  8
L1_
  6
CONTINUOUS
 62
         4
100
AcDbLine
 10
-9876.7915319843
 20
11781.7761470324
 30
0.0
 11
-9869.2097902491
 21
11789.3578887676
 31
0.0
  0
LINE
  5
338
100
AcDbEntity
  8
L1_
  6
CONTINUOUS
 62
         4
100
AcDbLine
 10
-9948.9475656717
 20
11713.8627540321
 30
0.0
 11
-9946.6355485269
 21
11716.174771177
 31
0.0
  0
LINE
  5
339
100
AcDbEntity
  8
L1_
  6
CONTINUOUS
 62
         4
100
AcDbLine
 10
-9912.7467046089
 20
11750.0636150949
 30
0.0
 11
-9889.251696457
 21
11773.5586232468
 31
0.0
  0
LINE
  5
33A
100
AcDbEntity
  8
L1_
  6
CONTINUOUS
 62
         4
100
AcDbLine
 10
-9878.8919900655
 20
11783.9183296383
 30
0.0
 11
-9873.4524309363
 21
11789.3578887676
 31
0.0
  0
LINE
  5
33B
100
AcDbEntity
  8
L1_
  6
CONTINUOUS
 62
         4
100
AcDbLine
 10
-9952.650236498
 20
11714.402723893
 30
0.0
 11
-9946.6355485269
 21
11720.4174118641
 31
0.0
  0
LINE
  5
33C
100
AcDbEntity
  8
L1_
  6
CONTINUOUS
 62
         4
100
AcDbLine
 10
-9916.9893452961
 20
11750.0636150949
 30
0.0
 11
-9894.2186857711
 21
11772.8342746199
 31
0.0
  0
LINE
  5
33D
100
AcDbEntity
  8
L1_
  6
CONTINUOUS
 62
         4
100
AcDbLine
 10
-9880.7655485269
 20
11786.2874118641
 30
0.0
 11
-9877.6950716234
 21
11789.3578887676
 31
0.0
  0
LINE
  5
33E
100
AcDbEntity
  8
L1_
  6
CONTINUOUS
 62
         4
100
AcDbLine
 10
-9956.3529073242
 20
11714.9426937539
 30
0.0
 11
-9944.6355485269
 21
11726.6600525512
 31
0.0
  0
LINE
  5
33F
100
AcDbEntity
  8
L1_
  6
CONTINUOUS
 62
         4
100
AcDbLine
 10
-9917.3855485269
 20
11753.9100525512
 30
0.0
 11
-9899.1856750852
 21
11772.1099259929
 31
0.0
  0
LINE
  5
340
100
AcDbEntity
  8
L1_
  6
CONTINUOUS
 62
         4
100
AcDbLine
 10
-9960.0555781504
 20
11715.4826636148
 30
0.0
 11
-9946.6803529976
 21
11728.8578887676
 31
0.0
  0
LINE
  5
341
100
AcDbEntity
  8
L1_
  6
CONTINUOUS
 62
         4
100
AcDbLine
 10
-9915.3855485269
 20
11760.1526932383
 30
0.0
 11
-9904.1526643992
 21
11771.385577366
 31
0.0
  0
LINE
  5
342
100
AcDbEntity
  8
L1_
  6
CONTINUOUS
 62
         4
100
AcDbLine
 10
-9963.7582489766
 20
11716.0226334757
 30
0.0
 11
-9950.9229936847
 21
11728.8578887676
 31
0.0
  0
LINE
  5
343
100
AcDbEntity
  8
L1_
  6
CONTINUOUS
 62
         4
100
AcDbLine
 10
-9915.3855485269
 20
11764.3953339254
 30
0.0
 11
-9909.1196537133
 21
11770.661228739
 31
0.0
  0
LINE
  5
344
100
AcDbEntity
  8
L1_
  6
CONTINUOUS
 62
         4
100
AcDbLine
 10
-9967.4609198028
 20
11716.5626033366
 30
0.0
 11
-9955.1656343719
 21
11728.8578887676
 31
0.0
  0
LINE
  5
345
100
AcDbEntity
  8
L1_
  6
CONTINUOUS
 62
         4
100
AcDbLine
 10
-9915.3855485269
 20
11768.6379746126
 30
0.0
 11
-9914.0866430273
 21
11769.9368801121
 31
0.0
  0
LINE
  5
346
100
AcDbEntity
  8
L1_
  6
CONTINUOUS
 62
         4
100
AcDbLine
 10
-9971.1635906291
 20
11717.1025731975
 30
0.0
 11
-9959.408275059
 21
11728.8578887676
 31
0.0
  0
LINE
  5
347
100
AcDbEntity
  8
L1_
  6
CONTINUOUS
 62
         4
100
AcDbLine
 10
-9974.8662614553
 20
11717.6425430584
 30
0.0
 11
-9963.6509157461
 21
11728.8578887676
 31
0.0
  0
LINE
  5
348
100
AcDbEntity
  8
L1_
  6
CONTINUOUS
 62
         4
100
AcDbLine
 10
-9978.5689322815
 20
11718.1825129193
 30
0.0
 11
-9967.8935564332
 21
11728.8578887676
 31
0.0
  0
LINE
  5
349
100
AcDbEntity
  8
L1_
  6
CONTINUOUS
 62
         4
100
AcDbLine
 10
-9946.8935564332
 20
11749.8578887676
 30
0.0
 11
-9944.6355485269
 21
11752.1158966739
 31
0.0
  0
LINE
  5
34A
100
AcDbEntity
  8
L1_
  6
CONTINUOUS
 62
         4
100
AcDbLine
 10
-9982.2716031077
 20
11718.7224827802
 30
0.0
 11
-9974.3325921812
 21
11726.6614937067
 31
0.0
  0
LINE
  5
34B
100
AcDbEntity
  8
L1_
  6
CONTINUOUS
 62
         4
100
AcDbLine
 10
-9972.5655485269
 20
11728.428537361
 30
0.0
 11
-9972.1361971203
 21
11728.8578887676
 31
0.0
  0
LINE
  5
34C
100
AcDbEntity
  8
L1_
  6
CONTINUOUS
 62
         4
100
AcDbLine
 10
-9951.1361971203
 20
11749.8578887676
 30
0.0
 11
-9945.0215840312
 21
11755.9725018568
 31
0.0
  0
LINE
  5
34D
100
AcDbEntity
  8
L1_
  6
CONTINUOUS
 62
         4
100
AcDbLine
 10
-9985.5102902764
 20
11719.7264362986
 30
0.0
 11
-9978.3788378075
 21
11726.8578887676
 31
0.0
  0
LINE
  5
34E
100
AcDbEntity
  8
L1_
  6
CONTINUOUS
 62
         4
100
AcDbLine
 10
-9955.3788378075
 20
11749.8578887676
 30
0.0
 11
-9946.6355485269
 21
11758.6011780482
 31
0.0
  0
LINE
  5
34F
100
AcDbEntity
  8
L1_
  6
CONTINUOUS
 62
         4
100
AcDbLine
 10
-9985.5705485269
 20
11723.9088187353
 30
0.0
 11
-9982.6214784946
 21
11726.8578887676
 31
0.0
  0
LINE
  5
350
100
AcDbEntity
  8
L1_
  6
CONTINUOUS
 62
         4
100
AcDbLine
 10
-9959.6214784946
 20
11749.8578887676
 30
0.0
 11
-9946.6355485269
 21
11762.8438187353
 31
0.0
  0
LINE
  5
351
100
AcDbEntity
  8
L1_
  6
CONTINUOUS
 62
         4
100
AcDbLine
 10
-9963.8641191817
 20
11749.8578887676
 30
0.0
 11
-9948.8555682258
 21
11764.8664397235
 31
0.0
  0
LINE
  5
352
100
AcDbEntity
  8
L1_
  6
CONTINUOUS
 62
         4
100
AcDbLine
 10
-9968.1067598688
 20
11749.8578887676
 30
0.0
 11
-9953.8225575398
 21
11764.1420910966
 31
0.0
  0
LINE
  5
353
100
AcDbEntity
  8
L1_
  6
CONTINUOUS
 62
         4
100
AcDbLine
 10
-9972.3494005559
 20
11749.8578887676
 30
0.0
 11
-9958.7895468539
 21
11763.4177424696
 31
0.0
  0
LINE
  5
354
100
AcDbEntity
  8
L1_
  6
CONTINUOUS
 62
         4
100
AcDbLine
 10
-9974.4187255483
 20
11752.0312044623
 30
0.0
 11
-9963.7565361679
 21
11762.6933938427
 31
0.0
  0
LINE
  5
355
100
AcDbEntity
  8
L1_
  6
CONTINUOUS
 62
         4
100
AcDbLine
 10
-9978.8346819302
 20
11751.8578887676
 30
0.0
 11
-9968.723525482
 21
11761.9690452157
 31
0.0
  0
LINE
  5
356
100
AcDbEntity
  8
L1_
  6
CONTINUOUS
 62
         4
100
AcDbLine
 10
-9983.0773226173
 20
11751.8578887676
 30
0.0
 11
-9973.6905147961
 21
11761.2446965888
 31
0.0
  0
LINE
  5
357
100
AcDbEntity
  8
L1_
  6
CONTINUOUS
 62
         4
100
AcDbLine
 10
-9985.5705485269
 20
11753.6073035451
 30
0.0
 11
-9978.6575041101
 21
11760.5203479619
 31
0.0
  0
LINE
  5
358
100
AcDbEntity
  8
L1_
  6
CONTINUOUS
 62
         4
100
AcDbLine
 10
-9985.5705485269
 20
11757.8499442322
 30
0.0
 11
-9983.6244934242
 21
11759.7959993349
 31
0.0
  0
ENDBLK
  5
359
100
AcDbEntity
  8
0
  6
CONTINUOUS
100
AcDbBlockEnd
  0
ENDSEC
  0
SECTION
  2
ENTITIES
  0
ARC
  5
27
100
AcDbEntity
  8
L1_
  6
CONTINUOUS
 62
         7
100
AcDbCircle
 10
-9843.7705485269
 20
11956.3503198193
 30
0.0
 40
2.0
100
AcDbArc
 50
90.0
 51
180.0
  0
ARC
  5
28
100
AcDbEntity
  8
L1_
  6
CONTINUOUS
 62
         7
100
AcDbCircle
 10
-9843.7705485269
 20
12000.3503198193
 30
0.0
 40
2.0
100
AcDbArc
 50
180.0
 51
270.0
  0
LINE
  5
29
100
AcDbEntity
  8
L1_
  6
CENTER
 62
         1
100
AcDbLine
 10
-9892.1230399453
 20
11978.3503198193
 30
0.0
 11
-9834.705880111
 21
11978.3503198193
 31
0.0
  0
LINE
  5
2A
100
AcDbEntity
  8
L1_
  6
CONTINUOUS
 62
         7
100
AcDbLine
 10
-9843.7705485269
 20
11998.3503198193
 30
0.0
 11
-9840.7705485269
 21
11998.3503198193
 31
0.0
  0
ARC
  5
2B
100
AcDbEntity
  8
L1_
  6
CONTINUOUS
 62
         7
100
AcDbCircle
 10
-9840.7705485269
 20
11996.3503198193
 30
0.0
 40
2.0
100
AcDbArc
 50
0.0
 51
90.0
  0
LINE
  5
2C
100
AcDbEntity
  8
L1_
  6
CONTINUOUS
 62
         7
100
AcDbLine
 10
-9838.7705485269
 20
11996.3503198193
 30
0.0
 11
-9838.7705485269
 21
11960.3503198193
 31
0.0
  0
ARC
  5
2D
100
AcDbEntity
  8
L1_
  6
CONTINUOUS
 62
         7
100
AcDbCircle
 10
-9840.7705485269
 20
11960.3503198193
 30
0.0
 40
2.0
100
AcDbArc
 50
270.0
 51
360.0
  0
LINE
  5
2E
100
AcDbEntity
  8
L1_
  6
CONTINUOUS
 62
         7
100
AcDbLine
 10
-9843.7705485269
 20
11958.3503198193
 30
0.0
 11
-9840.7705485269
 21
11958.3503198193
 31
0.0
  0
DIMENSION
  5
32
100
AcDbEntity
  8
L1_
  6
CONTINUOUS
 62
         4
100
AcDbDimension
  2
*D0
 10
-9823.1062902578
 20
11958.3503198193
 30
0.0
 11
-9825.7312902578
 21
11971.451598717
 31
0.0
  3
DIMSTYLE1
100
AcDbAlignedDimension
 13
-9840.7705485269
 23
11958.3503198193
 33
0.0
 14
-9840.7705485269
 24
11998.3503198193
 34
0.0
 50
90.0
100
AcDbRotatedDimension
  0
LINE
  5
3F
100
AcDbEntity
  8
L1_
  6
CENTER
 62
         1
100
AcDbLine
 10
-9620.6495467622
 20
11978.3503198193
 30
0.0
 11
-9565.3291195705
 21
11978.3503198193
 31
0.0
  0
LINE
  5
40
100
AcDbEntity
  8
L1_
  6
CENTER
 62
         1
100
AcDbLine
 10
-9592.8151889697
 20
12013.1253198193
 30
0.0
 11
-9592.8151889697
 21
11943.5753198193
 31
0.0
  0
CIRCLE
  5
41
100
AcDbEntity
  8
L1_
  6
CONTINUOUS
 62
         7
100
AcDbCircle
 10
-9592.8151889697
 20
11978.3503198193
 30
0.0
 40
20.0
  0
CIRCLE
  5
42
100
AcDbEntity
  8
L1_
  6
CONTINUOUS
 62
         7
100
AcDbCircle
 10
-9592.8151889697
 20
11978.3503198193
 30
0.0
 40
11.9125
  0
CIRCLE
  5
43
100
AcDbEntity
  8
L1_
  6
CONTINUOUS
 62
         7
100
AcDbCircle
 10
-9592.8151889697
 20
11978.3503198193
 30
0.0
 40
10.0
  0
DIMENSION
  5
46
100
AcDbEntity
  8
L1_
  6
CONTINUOUS
 62
         4
100
AcDbDimension
  2
*D1
 10
-9838.7705485269
 20
12075.1579003526
 30
0.0
 11
-9866.3151891642
 21
12077.7829003526
 31
0.0
  3
DIMSTYLE1
100
AcDbAlignedDimension
 13
-9838.7705485269
 23
11978.3503198193
 33
0.0
 14
-9883.7705485269
 24
12013.3511131409
 34
0.0
100
AcDbRotatedDimension
  0
DIMENSION
  5
54
100
AcDbEntity
  8
L1_
  6
CONTINUOUS
 62
         4
100
AcDbDimension
  2
*D2
 10
-9985.5655485269
 20
12085.849149566
 30
0.0
 11
-9922.49441269
 21
12088.474149566
 31
0.0
  3
DIMSTYLE1
100
AcDbAlignedDimension
 13
-9985.5655485269
 23
11997.6398871552
 33
0.0
 14
-9838.7705485269
 24
11978.3503198193
 34
0.0
100
AcDbRotatedDimension
  0
LINE
  5
60
100
AcDbEntity
  8
L1_
  6
CONTINUOUS
 62
         7
100
AcDbLine
 10
-9880.8105485269
 20
12027.4253198193
 30
0.0
 11
-9880.8105485269
 21
11929.2753198193
 31
0.0
  0
LINE
  5
61
100
AcDbEntity
  8
L1_
  6
CENTER
 62
         1
100
AcDbLine
 10
-9883.7705485269
 20
12013.3511131409
 30
0.0
 11
-9883.7705485269
 21
11943.3495264978
 31
0.0
  0
LINE
  5
62
100
AcDbEntity
  8
L1_
  6
CONTINUOUS
 62
         7
100
AcDbLine
 10
-9985.5655485269
 20
11997.6398871552
 30
0.0
 11
-9985.5655485269
 21
11959.0607524834
 31
0.0
  0
ARC
  5
63
100
AcDbEntity
  8
_Y__________
  6
CONTINUOUS
 62
         7
100
AcDbCircle
 10
-9984.5705485269
 20
11959.0600233208
 30
0.0
 40
1.0
100
AcDbArc
 50
180.0
 51
261.7029
  0
ARC
  5
64
100
AcDbEntity
  8
_Y__________
  6
CONTINUOUS
 62
         7
100
AcDbCircle
 10
-9984.5705485269
 20
11997.6406163179
 30
0.0
 40
1.0
100
AcDbArc
 50
98.2971
 51
180.0
  0
LINE
  5
65
100
AcDbEntity
  8
_Y__________
  6
CONTINUOUS
 62
         7
100
AcDbLine
 10
-9985.5705485269
 20
11997.6406163179
 30
0.0
 11
-9985.5705485269
 21
11959.0600233208
 31
0.0
  0
LINE
  5
66
100
AcDbEntity
  8
_Y__________
  6
CONTINUOUS
 62
         7
100
AcDbLine
 10
-9868.0446364367
 20
11992.2003198193
 30
0.0
 11
-9864.0705485269
 21
11991.2003198193
 31
0.0
  0
LINE
  5
67
100
AcDbEntity
  8
_Y__________
  6
CONTINUOUS
 62
         7
100
AcDbLine
 10
-9880.7705485269
 20
11991.2003198193
 30
0.0
 11
-9862.6205485269
 21
11991.2003198193
 31
0.0
  0
LINE
  5
68
100
AcDbEntity
  8
_Y__________
  6
CONTINUOUS
 62
         7
100
AcDbLine
 10
-9880.8105485269
 20
11992.2003198193
 30
0.0
 11
-9868.0446364367
 21
11992.2003198193
 31
0.0
  0
LINE
  5
69
100
AcDbEntity
  8
_Y__________
  6
CONTINUOUS
 62
         7
100
AcDbLine
 10
-9857.0705485269
 20
11989.9399703749
 30
0.0
 11
-9853.0964606171
 21
11988.4058779583
 31
0.0
  0
LINE
  5
6A
100
AcDbEntity
  8
_Y__________
  6
CONTINUOUS
 62
         7
100
AcDbLine
 10
-9868.0446364367
 20
11964.5003198193
 30
0.0
 11
-9864.0705485269
 21
11965.5003198193
 31
0.0
  0
LINE
  5
6B
100
AcDbEntity
  8
_Y__________
  6
CONTINUOUS
 62
         7
100
AcDbLine
 10
-9880.7705485269
 20
11965.5003198193
 30
0.0
 11
-9862.6205485269
 21
11965.5003198193
 31
0.0
  0
LINE
  5
6C
100
AcDbEntity
  8
_Y__________
  6
CONTINUOUS
 62
         7
100
AcDbLine
 10
-9880.8105485269
 20
11964.5003198193
 30
0.0
 11
-9868.0446364367
 21
11964.5003198193
 31
0.0
  0
LINE
  5
6D
100
AcDbEntity
  8
_Y__________
  6
CONTINUOUS
 62
         7
100
AcDbLine
 10
-9857.0705485269
 20
11966.7606692638
 30
0.0
 11
-9853.0964606171
 21
11968.2947616803
 31
0.0
  0
ARC
  5
6E
100
AcDbEntity
  8
_Y__________
  6
CONTINUOUS
 62
         7
100
AcDbCircle
 10
-9862.6205485269
 20
11978.3503198193
 30
0.0
 40
13.85
100
AcDbArc
 50
313.4451442301
 51
406.5548557699
  0
ARC
  5
6F
100
AcDbEntity
  8
_Y__________
  6
CONTINUOUS
 62
         7
100
AcDbCircle
 10
-9862.6205485269
 20
11978.3503198193
 30
0.0
 40
12.85
100
AcDbArc
 50
270.0
 51
450.0
  0
LINE
  5
70
100
AcDbEntity
  8
_Y__________
  6
CONTINUOUS
 62
         7
100
AcDbLine
 10
-9853.0964606171
 20
11968.2947616803
 30
0.0
 11
-9853.0964606171
 21
11928.2753198193
 31
0.0
  0
LINE
  5
71
100
AcDbEntity
  8
_Y__________
  6
CONTINUOUS
 62
         7
100
AcDbLine
 10
-9857.0705485269
 20
11966.7606692638
 30
0.0
 11
-9857.0705485269
 21
11935.0836419928
 31
0.0
  0
LINE
  5
72
100
AcDbEntity
  8
_Y__________
  6
CONTINUOUS
 62
         7
100
AcDbLine
 10
-9864.0705485269
 20
11965.5003198193
 30
0.0
 11
-9864.0705485269
 21
11935.0836419928
 31
0.0
  0
LINE
  5
73
100
AcDbEntity
  8
_Y__________
  6
CONTINUOUS
 62
         7
100
AcDbLine
 10
-9868.0446364367
 20
11964.5003198193
 30
0.0
 11
-9868.0446364367
 21
11928.2753198193
 31
0.0
  0
LINE
  5
74
100
AcDbEntity
  8
_Y__________
  6
CONTINUOUS
 62
         7
100
AcDbLine
 10
-9853.0964606171
 20
12028.4253198193
 30
0.0
 11
-9853.0964606171
 21
11988.4058779583
 31
0.0
  0
LINE
  5
75
100
AcDbEntity
  8
_Y__________
  6
CONTINUOUS
 62
         7
100
AcDbLine
 10
-9857.0705485269
 20
12021.6169976458
 30
0.0
 11
-9857.0705485269
 21
11989.9399703749
 31
0.0
  0
LINE
  5
76
100
AcDbEntity
  8
_Y__________
  6
CONTINUOUS
 62
         7
100
AcDbLine
 10
-9864.0705485269
 20
12021.6169976458
 30
0.0
 11
-9864.0705485269
 21
11991.2003198193
 31
0.0
  0
LINE
  5
77
100
AcDbEntity
  8
_Y__________
  6
CONTINUOUS
 62
         7
100
AcDbLine
 10
-9868.0446364367
 20
12028.4253198193
 30
0.0
 11
-9868.0446364367
 21
11992.2003198193
 31
0.0
  0
LINE
  5
78
100
AcDbEntity
  8
_Y__________
  6
CONTINUOUS
 62
         7
100
AcDbLine
 10
-9984.7148546433
 20
11958.0704902265
 30
0.0
 11
-9883.4537207578
 21
11943.3033227021
 31
0.0
  0
LINE
  5
79
100
AcDbEntity
  8
_Y__________
  6
CENTER
 62
         1
100
AcDbLine
 10
-9860.5705485269
 20
12028.4205483448
 30
0.0
 11
-9860.5705485269
 21
11927.2628989523
 31
0.0
  0
LINE
  5
7A
100
AcDbEntity
  8
_Y__________
  6
CENTER
 62
         1
100
AcDbLine
 10
-9883.7705485269
 20
12013.3511131409
 30
0.0
 11
-9883.7705485269
 21
11943.3495264978
 31
0.0
  0
LINE
  5
7B
100
AcDbEntity
  8
_Y__________
  6
CONTINUOUS
 62
         7
100
AcDbLine
 10
-9882.1509332846
 20
12013.0482360852
 30
0.0
 11
-9882.1509332846
 21
11943.6524035534
 31
0.0
  0
LINE
  5
7C
100
AcDbEntity
  8
_Y__________
  6
CONTINUOUS
 62
         7
100
AcDbLine
 10
-9880.8105485269
 20
12027.4253198193
 30
0.0
 11
-9880.8105485269
 21
11929.2753198193
 31
0.0
  0
LINE
  5
7D
100
AcDbEntity
  8
_Y__________
  6
CONTINUOUS
 62
         7
100
AcDbLine
 10
-9845.7705485269
 20
12027.4253198193
 30
0.0
 11
-9845.7705485269
 21
11929.2753198193
 31
0.0
  0
LINE
  5
7E
100
AcDbEntity
  8
_Y__________
  6
CONTINUOUS
 62
         7
100
AcDbLine
 10
-9853.1397618873
 20
11928.2753198193
 30
0.0
 11
-9846.7705485269
 21
11928.2753198193
 31
0.0
  0
LINE
  5
7F
100
AcDbEntity
  8
_Y__________
  6
CONTINUOUS
 62
         7
100
AcDbLine
 10
-9883.4537207578
 20
11943.3033227021
 30
0.0
 11
-9882.1509332846
 21
11943.6524035534
 31
0.0
  0
LINE
  5
80
100
AcDbEntity
  8
_Y__________
  6
CONTINUOUS
 62
         7
100
AcDbLine
 10
-9882.1509332846
 20
11943.6524035534
 30
0.0
 11
-9880.8105485269
 21
11943.6524035534
 31
0.0
  0
LINE
  5
81
100
AcDbEntity
  8
_Y__________
  6
CONTINUOUS
 62
         7
100
AcDbLine
 10
-9864.0705485269
 20
11935.0836419928
 30
0.0
 11
-9868.0013351665
 21
11928.2753198193
 31
0.0
  0
LINE
  5
82
100
AcDbEntity
  8
_Y__________
  6
CONTINUOUS
 62
         7
100
AcDbLine
 10
-9857.0705485269
 20
11935.0836419928
 30
0.0
 11
-9853.1397618873
 21
11928.2753198193
 31
0.0
  0
LINE
  5
83
100
AcDbEntity
  8
_Y__________
  6
CONTINUOUS
 62
         7
100
AcDbLine
 10
-9879.8105485269
 20
11928.2753198193
 30
0.0
 11
-9868.0013351665
 21
11928.2753198193
 31
0.0
  0
LINE
  5
84
100
AcDbEntity
  8
_Y__________
  6
CONTINUOUS
 62
         7
100
AcDbLine
 10
-9864.0705485269
 20
11935.8503198193
 30
0.0
 11
-9857.0705485269
 21
11935.8503198193
 31
0.0
  0
LINE
  5
85
100
AcDbEntity
  8
_Y__________
  6
CONTINUOUS
 62
         7
100
AcDbLine
 10
-9984.7148546433
 20
11998.6301494122
 30
0.0
 11
-9883.4537207578
 21
12013.3973169366
 31
0.0
  0
LINE
  5
86
100
AcDbEntity
  8
_Y__________
  6
CENTER
 62
         1
100
AcDbLine
 10
-9988.2865725057
 20
11978.3503198193
 30
0.0
 11
-9920.0286122576
 21
11978.3503198193
 31
0.0
  0
LINE
  5
87
100
AcDbEntity
  8
_Y__________
  6
CONTINUOUS
 62
         7
100
AcDbLine
 10
-9853.1397618873
 20
12028.4253198193
 30
0.0
 11
-9846.7705485269
 21
12028.4253198193
 31
0.0
  0
LINE
  5
88
100
AcDbEntity
  8
_Y__________
  6
CENTER
 62
         1
100
AcDbLine
 10
-9900.4579005259
 20
11978.3503198193
 30
0.0
 11
-9845.7705485269
 21
11978.3503198193
 31
0.0
  0
LINE
  5
89
100
AcDbEntity
  8
_Y__________
  6
CONTINUOUS
 62
         7
100
AcDbLine
 10
-9882.1509332846
 20
12013.0482360852
 30
0.0
 11
-9880.8105485269
 21
12013.0482360852
 31
0.0
  0
LINE
  5
8A
100
AcDbEntity
  8
_Y__________
  6
CONTINUOUS
 62
         7
100
AcDbLine
 10
-9883.4537207578
 20
12013.3973169366
 30
0.0
 11
-9882.1509332846
 21
12013.0482360852
 31
0.0
  0
LINE
  5
8B
100
AcDbEntity
  8
_Y__________
  6
CONTINUOUS
 62
         7
100
AcDbLine
 10
-9864.0705485269
 20
12020.8503198193
 30
0.0
 11
-9857.0705485269
 21
12020.8503198193
 31
0.0
  0
LINE
  5
8C
100
AcDbEntity
  8
_Y__________
  6
CONTINUOUS
 62
         7
100
AcDbLine
 10
-9879.8105485269
 20
12028.4253198193
 30
0.0
 11
-9868.0013351665
 21
12028.4253198193
 31
0.0
  0
LINE
  5
8D
100
AcDbEntity
  8
_Y__________
  6
CONTINUOUS
 62
         7
100
AcDbLine
 10
-9864.0705485269
 20
12021.6169976458
 30
0.0
 11
-9868.0013351665
 21
12028.4253198193
 31
0.0
  0
LINE
  5
8E
100
AcDbEntity
  8
_Y__________
  6
CONTINUOUS
 62
         7
100
AcDbLine
 10
-9857.0705485269
 20
12021.6169976458
 30
0.0
 11
-9853.1397618873
 21
12028.4253198193
 31
0.0
  0
LINE
  5
8F
100
AcDbEntity
  8
_Y__________
  6
CONTINUOUS
 62
         7
100
AcDbLine
 10
-10163.325908084
 20
11990.4003198193
 30
0.0
 11
-10163.325908084
 21
11966.3003198193
 31
0.0
  0
LINE
  5
90
100
AcDbEntity
  8
_Y__________
  6
CONTINUOUS
 62
         7
100
AcDbLine
 10
-10150.4053379301
 20
11965.5003198193
 30
0.0
 11
-10162.525908084
 21
11965.5003198193
 31
0.0
  0
LINE
  5
91
100
AcDbEntity
  8
_Y__________
  6
CONTINUOUS
 62
         7
100
AcDbLine
 10
-10150.4053379301
 20
11991.2003198193
 30
0.0
 11
-10162.525908084
 21
11991.2003198193
 31
0.0
  0
ARC
  5
92
100
AcDbEntity
  8
_Y__________
  6
CONTINUOUS
 62
         5
100
AcDbCircle
 10
-10198.725908084
 20
11978.3503198193
 30
0.0
 40
12.0
100
AcDbArc
 50
254.3467118714
 51
525.9849549731
  0
CIRCLE
  5
93
100
AcDbEntity
  8
_Y__________
  6
CONTINUOUS
 62
         7
100
AcDbCircle
 10
-10198.725908084
 20
11978.3503198193
 30
0.0
 40
10.5
  0
CIRCLE
  5
94
100
AcDbEntity
  8
_Y__________
  6
CONTINUOUS
 62
         7
100
AcDbCircle
 10
-10198.725908084
 20
11978.3503198193
 30
0.0
 40
13.5
  0
CIRCLE
  5
95
100
AcDbEntity
  8
_Y__________
  6
CONTINUOUS
 62
         7
100
AcDbCircle
 10
-10198.725908084
 20
11978.3503198193
 30
0.0
 40
12.5
  0
LINE
  5
96
100
AcDbEntity
  8
_Y__________
  6
CONTINUOUS
 62
         7
100
AcDbLine
 10
-10234.125908084
 20
11990.4003198193
 30
0.0
 11
-10234.125908084
 21
11966.3003198193
 31
0.0
  0
LINE
  5
97
100
AcDbEntity
  8
_Y__________
  6
CONTINUOUS
 62
         7
100
AcDbLine
 10
-10247.0464782379
 20
11965.5003198193
 30
0.0
 11
-10234.925908084
 21
11965.5003198193
 31
0.0
  0
LINE
  5
98
100
AcDbEntity
  8
_Y__________
  6
CONTINUOUS
 62
         7
100
AcDbLine
 10
-10247.0464782379
 20
11991.2003198193
 30
0.0
 11
-10234.925908084
 21
11991.2003198193
 31
0.0
  0
CIRCLE
  5
99
100
AcDbEntity
  8
_Y__________
  6
CONTINUOUS
 62
         7
100
AcDbCircle
 10
-10198.725908084
 20
11978.3503198193
 30
0.0
 40
20.0792482659
  0
LINE
  5
9A
100
AcDbEntity
  8
_Y__________
  6
CENTER
 62
         1
100
AcDbLine
 10
-10143.725908084
 20
11978.3503198193
 30
0.0
 11
-10253.725908084
 21
11978.3503198193
 31
0.0
  0
LINE
  5
9B
100
AcDbEntity
  8
_Y__________
  6
CENTER
 62
         1
100
AcDbLine
 10
-10198.725908084
 20
12033.3503198193
 30
0.0
 11
-10198.725908084
 21
11923.3503198193
 31
0.0
  0
CIRCLE
  5
9C
100
AcDbEntity
  8
_Y__________
  6
CONTINUOUS
 62
         7
100
AcDbCircle
 10
-10198.725908084
 20
11978.3503198193
 30
0.0
 40
50.0
  0
CIRCLE
  5
9D
100
AcDbEntity
  8
_Y__________
  6
CONTINUOUS
 62
         7
100
AcDbCircle
 10
-10198.725908084
 20
11978.3503198193
 30
0.0
 40
34.9979162659
  0
LINE
  5
9E
100
AcDbEntity
  8
_Y__________
  6
CONTINUOUS
 62
         7
100
AcDbLine
 10
-10234.925908084
 20
11991.2003198193
 30
0.0
 11
-10234.125908084
 21
11990.4003198193
 31
0.0
  0
LINE
  5
9F
100
AcDbEntity
  8
_Y__________
  6
CONTINUOUS
 62
         7
100
AcDbLine
 10
-10234.125908084
 20
11966.3003198193
 30
0.0
 11
-10234.925908084
 21
11965.5003198193
 31
0.0
  0
LINE
  5
A0
100
AcDbEntity
  8
_Y__________
  6
CONTINUOUS
 62
         7
100
AcDbLine
 10
-10162.525908084
 20
11991.2003198193
 30
0.0
 11
-10163.325908084
 21
11990.4003198193
 31
0.0
  0
LINE
  5
A1
100
AcDbEntity
  8
_Y__________
  6
CONTINUOUS
 62
         7
100
AcDbLine
 10
-10163.325908084
 20
11966.3003198193
 30
0.0
 11
-10162.525908084
 21
11965.5003198193
 31
0.0
  0
INSERT
  5
A8
100
AcDbEntity
  8
0
  6
CONTINUOUS
100
AcDbBlockReference
  2
GENARR5
 10
0.0
 20
0.0
 30
0.0
  0
LINE
  5
A9
100
AcDbEntity
  8
_Y__________
  6
CENTER
 62
         1
100
AcDbLine
 10
-9537.8151889697
 20
11978.3503198193
 30
0.0
 11
-9647.8151889697
 21
11978.3503198193
 31
0.0
  0
LINE
  5
AA
100
AcDbEntity
  8
_Y__________
  6
CENTER
 62
         1
100
AcDbLine
 10
-9592.8151889697
 20
12033.3503198193
 30
0.0
 11
-9592.8151889697
 21
11923.3503198193
 31
0.0
  0
CIRCLE
  5
AB
100
AcDbEntity
  8
_Y__________
  6
CONTINUOUS
 62
         7
100
AcDbCircle
 10
-9592.8151889697
 20
11978.3503198193
 30
0.0
 40
50.0
  0
ARC
  5
AC
100
AcDbEntity
  8
_Y__________
  6
DASHED
 62
         2
100
AcDbCircle
 10
-9592.8151889697
 20
11978.3503198193
 30
0.0
 40
42.5
100
AcDbArc
 50
17.5989811731
 51
162.4010188269
  0
ARC
  5
AD
100
AcDbEntity
  8
_Y__________
  6
DASHED
 62
         2
100
AcDbCircle
 10
-9592.8151889697
 20
11978.3503198193
 30
0.0
 40
42.5
100
AcDbArc
 50
197.5989811731
 51
342.4010188269
  0
LINE
  5
AE
100
AcDbEntity
  8
_Y__________
  6
DASHED
 62
         2
100
AcDbLine
 10
-9640.1002553227
 20
11991.2003198193
 30
0.0
 11
-9629.0151889697
 21
11991.2003198193
 31
0.0
  0
LINE
  5
AF
100
AcDbEntity
  8
_Y__________
  6
DASHED
 62
         2
100
AcDbLine
 10
-9640.1002553227
 20
11991.2003198193
 30
0.0
 11
-9640.8586848875
 21
11992.2003198193
 31
0.0
  0
LINE
  5
B0
100
AcDbEntity
  8
_Y__________
  6
DASHED
 62
         2
100
AcDbLine
 10
-9640.1002553227
 20
11965.5003198193
 30
0.0
 11
-9629.0151889697
 21
11965.5003198193
 31
0.0
  0
LINE
  5
B1
100
AcDbEntity
  8
_Y__________
  6
DASHED
 62
         2
100
AcDbLine
 10
-9640.1002553227
 20
11965.5003198193
 30
0.0
 11
-9640.8586848875
 21
11964.5003198193
 31
0.0
  0
LINE
  5
B2
100
AcDbEntity
  8
_Y__________
  6
DASHED
 62
         2
100
AcDbLine
 10
-9628.2151889697
 20
11990.4003198193
 30
0.0
 11
-9628.2151889697
 21
11966.3003198193
 31
0.0
  0
LINE
  5
B3
100
AcDbEntity
  8
_Y__________
  6
DASHED
 62
         2
100
AcDbLine
 10
-9545.5301226168
 20
11991.2003198193
 30
0.0
 11
-9556.6151889697
 21
11991.2003198193
 31
0.0
  0
LINE
  5
B4
100
AcDbEntity
  8
_Y__________
  6
DASHED
 62
         2
100
AcDbLine
 10
-9545.5301226168
 20
11991.2003198193
 30
0.0
 11
-9544.771693052
 21
11992.2003198193
 31
0.0
  0
LINE
  5
B5
100
AcDbEntity
  8
_Y__________
  6
DASHED
 62
         2
100
AcDbLine
 10
-9545.5301226168
 20
11965.5003198193
 30
0.0
 11
-9556.6151889697
 21
11965.5003198193
 31
0.0
  0
LINE
  5
B6
100
AcDbEntity
  8
_Y__________
  6
DASHED
 62
         2
100
AcDbLine
 10
-9545.5301226168
 20
11965.5003198193
 30
0.0
 11
-9544.771693052
 21
11964.5003198193
 31
0.0
  0
LINE
  5
B7
100
AcDbEntity
  8
_Y__________
  6
DASHED
 62
         2
100
AcDbLine
 10
-9557.4151889697
 20
11990.4003198193
 30
0.0
 11
-9557.4151889697
 21
11966.3003198193
 31
0.0
  0
LINE
  5
B8
100
AcDbEntity
  8
_Y__________
  6
CONTINUOUS
 62
         2
100
AcDbLine
 10
-9556.6151889697
 20
11965.5003198193
 30
0.0
 11
-9557.4151889697
 21
11966.3003198193
 31
0.0
  0
LINE
  5
B9
100
AcDbEntity
  8
_Y__________
  6
DASHED
 62
         2
100
AcDbLine
 10
-9557.4151889697
 20
11990.4003198193
 30
0.0
 11
-9556.6151889697
 21
11991.2003198193
 31
0.0
  0
LINE
  5
BA
100
AcDbEntity
  8
_Y__________
  6
DASHED
 62
         2
100
AcDbLine
 10
-9628.2151889697
 20
11990.4003198193
 30
0.0
 11
-9629.0151889697
 21
11991.2003198193
 31
0.0
  0
LINE
  5
BB
100
AcDbEntity
  8
_Y__________
  6
DASHED
 62
         2
100
AcDbLine
 10
-9628.2151889697
 20
11966.3003198193
 30
0.0
 11
-9629.0151889697
 21
11965.5003198193
 31
0.0
  0
LINE
  5
BC
100
AcDbEntity
  8
_Y__________
  6
CONTINUOUS
 62
         7
100
AcDbLine
 10
-9880.8105485269
 20
12027.4253198193
 30
0.0
 11
-9880.8105485269
 21
12026.4253198193
 31
0.0
  0
ARC
  5
BD
100
AcDbEntity
  8
_Y__________
  6
CONTINUOUS
 62
         7
100
AcDbCircle
 10
-9879.8105485269
 20
12027.4253198193
 30
0.0
 40
1.0
100
AcDbArc
 50
90.0
 51
180.0
  0
LINE
  5
BE
100
AcDbEntity
  8
_Y__________
  6
CONTINUOUS
 62
         7
100
AcDbLine
 10
-9879.8105485269
 20
12028.4253198193
 30
0.0
 11
-9878.8105485269
 21
12028.4253198193
 31
0.0
  0
LINE
  5
BF
100
AcDbEntity
  8
_Y__________
  6
CONTINUOUS
 62
         7
100
AcDbLine
 10
-9847.7705485269
 20
12028.4253198193
 30
0.0
 11
-9846.7705485269
 21
12028.4253198193
 31
0.0
  0
ARC
  5
C0
100
AcDbEntity
  8
_Y__________
  6
CONTINUOUS
 62
         7
100
AcDbCircle
 10
-9846.7705485269
 20
12027.4253198193
 30
0.0
 40
1.0
100
AcDbArc
 50
0.0
 51
90.0
  0
LINE
  5
C1
100
AcDbEntity
  8
_Y__________
  6
CONTINUOUS
 62
         7
100
AcDbLine
 10
-9845.7705485269
 20
12027.4253198193
 30
0.0
 11
-9845.7705485269
 21
12026.4253198193
 31
0.0
  0
ARC
  5
C2
100
AcDbEntity
  8
_Y__________
  6
CONTINUOUS
 62
         7
100
AcDbCircle
 10
-9846.7705485269
 20
11929.2753198193
 30
0.0
 40
1.0
100
AcDbArc
 50
270.0
 51
360.0
  0
LINE
  5
C3
100
AcDbEntity
  8
_Y__________
  6
CONTINUOUS
 62
         7
100
AcDbLine
 10
-9847.7705485269
 20
11928.2753198193
 30
0.0
 11
-9846.7705485269
 21
11928.2753198193
 31
0.0
  0
LINE
  5
C4
100
AcDbEntity
  8
_Y__________
  6
CONTINUOUS
 62
         7
100
AcDbLine
 10
-9879.8105485269
 20
11928.2753198193
 30
0.0
 11
-9878.8105485269
 21
11928.2753198193
 31
0.0
  0
ARC
  5
C5
100
AcDbEntity
  8
_Y__________
  6
CONTINUOUS
 62
         7
100
AcDbCircle
 10
-9879.8105485269
 20
11929.2753198193
 30
0.0
 40
1.0
100
AcDbArc
 50
180.0
 51
270.0
  0
LINE
  5
C6
100
AcDbEntity
  8
_Y__________
  6
CONTINUOUS
 62
         7
100
AcDbLine
 10
-9845.7705485269
 20
11930.2753198193
 30
0.0
 11
-9845.7705485269
 21
11929.2753198193
 31
0.0
  0
LINE
  5
C7
100
AcDbEntity
  8
_Y__________
  6
CONTINUOUS
 62
         7
100
AcDbLine
 10
-9880.8105485269
 20
11930.2753198193
 30
0.0
 11
-9880.8105485269
 21
11929.2753198193
 31
0.0
  0
LINE
  5
C8
100
AcDbEntity
  8
_X______
  6
DASHED
 62
         2
100
AcDbLine
 10
-9603.1243876525
 20
12013.8964862362
 30
0.0
 11
-9605.0096927991
 21
12019.063267101
 31
0.0
  0
LINE
  5
C9
100
AcDbEntity
  8
_X______
  6
DASHED
 62
         2
100
AcDbLine
 10
-9607.8214611659
 20
12012.1825724666
 30
0.0
 11
-9609.7067663125
 21
12017.3493533314
 31
0.0
  0
LINE
  5
CA
100
AcDbEntity
  8
_X______
  6
DASHED
 62
         2
100
AcDbLine
 10
-9607.8214611659
 20
12012.1825724666
 30
0.0
 11
-9603.1243876525
 21
12013.8964862362
 31
0.0
  0
LINE
  5
CB
100
AcDbEntity
  8
_X______
  6
DASHED
 62
         2
100
AcDbLine
 10
-9593.2584195666
 20
11985.8372114733
 30
0.0
 11
-9603.4531827985
 21
12013.7765122723
 31
0.0
  0
LINE
  5
CC
100
AcDbEntity
  8
_X______
  6
DASHED
 62
         2
100
AcDbLine
 10
-9597.2979027882
 20
11984.3632456314
 30
0.0
 11
-9607.49266602
 21
12012.3025464305
 31
0.0
  0
LINE
  5
CD
100
AcDbEntity
  8
_X______
  6
DASHED
 62
         2
100
AcDbLine
 10
-9580.6206851404
 20
11937.6373725377
 30
0.0
 11
-9582.505990287
 21
11942.8041534025
 31
0.0
  0
LINE
  5
CE
100
AcDbEntity
  8
_X______
  6
DASHED
 62
         2
100
AcDbLine
 10
-9575.923611627
 20
11939.3512863073
 30
0.0
 11
-9577.8089167735
 21
11944.518067172
 31
0.0
  0
LINE
  5
CF
100
AcDbEntity
  8
_X______
  6
DASHED
 62
         2
100
AcDbLine
 10
-9582.505990287
 20
11942.8041534025
 30
0.0
 11
-9577.8089167735
 21
11944.518067172
 31
0.0
  0
LINE
  5
D0
100
AcDbEntity
  8
_X______
  6
DASHED
 62
         2
100
AcDbLine
 10
-9578.1377119195
 20
11944.3980932082
 30
0.0
 11
-9588.3324751513
 21
11972.3373940072
 31
0.0
  0
LINE
  5
D1
100
AcDbEntity
  8
_X______
  6
DASHED
 62
         2
100
AcDbLine
 10
-9582.177195141
 20
11942.9241273663
 30
0.0
 11
-9592.3719583728
 21
11970.8634281654
 31
0.0
  0
LINE
  5
D2
100
AcDbEntity
  8
_X______
  6
CENTER
 62
         1
100
AcDbLine
 10
-9574.9131355299
 20
11929.2887727679
 30
0.0
 11
-9612.6688881513
 21
12032.7604577297
 31
0.0
  0
LINE
  5
D3
100
AcDbEntity
  8
_X______
  6
CENTER
 62
         1
100
AcDbLine
 10
-10181.2852676399
 20
12026.2680856205
 30
0.0
 11
-10218.8326032918
 21
11923.1076287561
 31
0.0
  0
LINE
  5
D4
100
AcDbEntity
  8
_X______
  6
CENTER
 62
         1
100
AcDbLine
 10
-10179.9703021229
 20
12015.1551088818
 30
0.0
 11
-10189.3672283308
 21
12018.575310315
 31
0.0
  0
POLYLINE
  5
D6
100
AcDbEntity
  8
_X______
  6
CONTINUOUS
 62
         7
100
AcDb2dPolyline
 66
         1
 10
0.0
 20
0.0
 30
0.0
 70
         2
  0
VERTEX
  5
D8
100
AcDbEntity
  8
_X______
  6
CONTINUOUS
 62
         7
100
AcDbVertex
100
AcDb2dVertex
 10
-10183.4716947252
 20
12020.1541337711
 30
0.0
 70
         1
  0
VERTEX
  5
DA
100
AcDbEntity
  8
_X______
  6
CONTINUOUS
 62
         7
100
AcDbVertex
100
AcDb2dVertex
 10
-10183.8516957899
 20
12020.2471051161
 30
0.0
 70
         1
  0
VERTEX
  5
DC
100
AcDbEntity
  8
_X______
  6
CONTINUOUS
 62
         7
100
AcDbVertex
100
AcDb2dVertex
 10
-10184.0287644573
 20
12020.262106614
 30
0.0
 70
         1
  0
VERTEX
  5
DE
100
AcDbEntity
  8
_X______
  6
CONTINUOUS
 62
         7
100
AcDbVertex
100
AcDb2dVertex
 10
-10184.2133917274
 20
12020.2602734745
 30
0.0
 70
         1
  0
VERTEX
  5
E0
100
AcDbEntity
  8
_X______
  6
CONTINUOUS
 62
         7
100
AcDbVertex
100
AcDb2dVertex
 10
-10184.404398577
 20
12020.2404364234
 30
0.0
 70
         1
  0
VERTEX
  5
E2
100
AcDbEntity
  8
_X______
  6
CONTINUOUS
 62
         7
100
AcDbVertex
100
AcDb2dVertex
 10
-10184.6003833048
 20
12020.2016801521
 30
0.0
 70
         1
  0
VERTEX
  5
E4
100
AcDbEntity
  8
_X______
  6
CONTINUOUS
 62
         7
100
AcDbVertex
100
AcDb2dVertex
 10
-10184.7997459368
 20
12020.1433982929
 30
0.0
 70
         1
  0
VERTEX
  5
E6
100
AcDbEntity
  8
_X______
  6
CONTINUOUS
 62
         7
100
AcDbVertex
100
AcDb2dVertex
 10
-10185.0007251692
 20
12020.0653389324
 30
0.0
 70
         1
  0
VERTEX
  5
E8
100
AcDbEntity
  8
_X______
  6
CONTINUOUS
 62
         7
100
AcDbVertex
100
AcDb2dVertex
 10
-10185.201446696
 20
12019.96763637
 30
0.0
 70
         1
  0
VERTEX
  5
EA
100
AcDbEntity
  8
_X______
  6
CONTINUOUS
 62
         7
100
AcDbVertex
100
AcDb2dVertex
 10
-10185.3999805659
 20
12019.8508256134
 30
0.0
 70
         1
  0
VERTEX
  5
EC
100
AcDbEntity
  8
_X______
  6
CONTINUOUS
 62
         7
100
AcDbVertex
100
AcDb2dVertex
 10
-10185.5944041455
 20
12019.7158374
 30
0.0
 70
         1
  0
VERTEX
  5
EE
100
AcDbEntity
  8
_X______
  6
CONTINUOUS
 62
         7
100
AcDbVertex
100
AcDb2dVertex
 10
-10185.7828665162
 20
12019.563973217
 30
0.0
 70
         1
  0
VERTEX
  5
F0
100
AcDbEntity
  8
_X______
  6
CONTINUOUS
 62
         7
100
AcDbVertex
100
AcDb2dVertex
 10
-10186.0231953166
 20
12019.3367906664
 30
0.0
 70
         1
  0
VERTEX
  5
F2
100
AcDbEntity
  8
_X______
  6
CONTINUOUS
 62
         7
100
AcDbVertex
100
AcDb2dVertex
 10
-10186.2461553963
 20
12019.0868819903
 30
0.0
 70
         1
  0
VERTEX
  5
F4
100
AcDbEntity
  8
_X______
  6
CONTINUOUS
 62
         7
100
AcDbVertex
100
AcDb2dVertex
 10
-10186.4489337505
 20
12018.8194448782
 30
0.0
 70
         1
  0
VERTEX
  5
F6
100
AcDbEntity
  8
_X______
  6
CONTINUOUS
 62
         7
100
AcDbVertex
100
AcDb2dVertex
 10
-10186.6295933177
 20
12018.5398979431
 30
0.0
 70
         1
  0
VERTEX
  5
F8
100
AcDbEntity
  8
_X______
  6
CONTINUOUS
 62
         7
100
AcDbVertex
100
AcDb2dVertex
 10
-10186.787090592
 20
12018.2535654333
 30
0.0
 70
         1
  0
VERTEX
  5
FA
100
AcDbEntity
  8
_X______
  6
CONTINUOUS
 62
         7
100
AcDbVertex
100
AcDb2dVertex
 10
-10186.921220887
 20
12017.9654105987
 30
0.0
 70
         1
  0
VERTEX
  5
FC
100
AcDbEntity
  8
_X______
  6
CONTINUOUS
 62
         7
100
AcDbVertex
100
AcDb2dVertex
 10
-10187.0656199497
 20
12017.5831279227
 30
0.0
 70
         1
  0
VERTEX
  5
FE
100
AcDbEntity
  8
_X______
  6
CONTINUOUS
 62
         7
100
AcDbVertex
100
AcDb2dVertex
 10
-10187.1717427753
 20
12017.2141333123
 30
0.0
 70
         1
  0
VERTEX
  5
100
100
AcDbEntity
  8
_X______
  6
CONTINUOUS
 62
         7
100
AcDbVertex
100
AcDb2dVertex
 10
-10187.2436898966
 20
12016.8647702719
 30
0.0
 70
         1
  0
VERTEX
  5
102
100
AcDbEntity
  8
_X______
  6
CONTINUOUS
 62
         7
100
AcDbVertex
100
AcDb2dVertex
 10
-10187.2861844404
 20
12016.5391432339
 30
0.0
 70
         1
  0
VERTEX
  5
104
100
AcDbEntity
  8
_X______
  6
CONTINUOUS
 62
         7
100
AcDbVertex
100
AcDb2dVertex
 10
-10187.3040785633
 20
12016.2394394404
 30
0.0
 70
         1
  0
VERTEX
  5
106
100
AcDbEntity
  8
_X______
  6
CONTINUOUS
 62
         7
100
AcDbVertex
100
AcDb2dVertex
 10
-10187.3020057216
 20
12015.9663318267
 30
0.0
 70
         1
  0
VERTEX
  5
108
100
AcDbEntity
  8
_X______
  6
CONTINUOUS
 62
         7
100
AcDbVertex
100
AcDb2dVertex
 10
-10187.2749924495
 20
12015.639683975
 30
0.0
 70
         1
  0
VERTEX
  5
10A
100
AcDbEntity
  8
_X______
  6
CONTINUOUS
 62
         7
100
AcDbVertex
100
AcDb2dVertex
 10
-10187.2280424377
 20
12015.3572995269
 30
0.0
 70
         1
  0
VERTEX
  5
10C
100
AcDbEntity
  8
_X______
  6
CONTINUOUS
 62
         7
100
AcDbVertex
100
AcDb2dVertex
 10
-10187.1680598845
 20
12015.1148210063
 30
0.0
 70
         1
  0
VERTEX
  5
10E
100
AcDbEntity
  8
_X______
  6
CONTINUOUS
 62
         7
100
AcDbVertex
100
AcDb2dVertex
 10
-10187.0753914665
 20
12014.842018424
 30
0.0
 70
         1
  0
VERTEX
  5
110
100
AcDbEntity
  8
_X______
  6
CONTINUOUS
 62
         7
100
AcDbVertex
100
AcDb2dVertex
 10
-10186.9774367935
 20
12014.6218660807
 30
0.0
 70
         1
  0
VERTEX
  5
112
100
AcDbEntity
  8
_X______
  6
CONTINUOUS
 62
         7
100
AcDbVertex
100
AcDb2dVertex
 10
-10186.8799151697
 20
12014.4441783557
 30
0.0
 70
         1
  0
VERTEX
  5
114
100
AcDbEntity
  8
_X______
  6
CONTINUOUS
 62
         7
100
AcDbVertex
100
AcDb2dVertex
 10
-10186.7539760743
 20
12014.2558098982
 30
0.0
 70
         1
  0
VERTEX
  5
116
100
AcDbEntity
  8
_X______
  6
CONTINUOUS
 62
         7
100
AcDbVertex
100
AcDb2dVertex
 10
-10186.6000376378
 20
12014.0702029584
 30
0.0
 70
         1
  0
VERTEX
  5
118
100
AcDbEntity
  8
_X______
  6
CONTINUOUS
 62
         7
100
AcDbVertex
100
AcDb2dVertex
 10
-10186.4694127952
 20
12013.9415436487
 30
0.0
 70
         1
  0
VERTEX
  5
11A
100
AcDbEntity
  8
_X______
  6
CONTINUOUS
 62
         7
100
AcDbVertex
100
AcDb2dVertex
 10
-10186.3243862967
 20
12013.8231759997
 30
0.0
 70
         1
  0
VERTEX
  5
11C
100
AcDbEntity
  8
_X______
  6
CONTINUOUS
 62
         7
100
AcDbVertex
100
AcDb2dVertex
 10
-10186.176926372
 20
12013.7247583141
 30
0.0
 70
         1
  0
VERTEX
  5
11E
100
AcDbEntity
  8
_X______
  6
CONTINUOUS
 62
         7
100
AcDbVertex
100
AcDb2dVertex
 10
-10186.0001406802
 20
12013.6314446646
 30
0.0
 70
         1
  0
VERTEX
  5
120
100
AcDbEntity
  8
_X______
  6
CONTINUOUS
 62
         7
100
AcDbVertex
100
AcDb2dVertex
 10
-10185.8658357285
 20
12013.5762854256
 30
0.0
 70
         1
  0
VERTEX
  5
122
100
AcDbEntity
  8
_X______
  6
CONTINUOUS
 62
         7
100
AcDbVertex
100
AcDb2dVertex
 10
-10185.8658357285
 20
12013.5762854256
 30
0.0
 70
         1
  0
VERTEX
  5
124
100
AcDbEntity
  8
_X______
  6
CONTINUOUS
 62
         7
100
AcDbVertex
100
AcDb2dVertex
 10
-10185.4858346638
 20
12013.4833140807
 30
0.0
 70
         1
  0
VERTEX
  5
126
100
AcDbEntity
  8
_X______
  6
CONTINUOUS
 62
         7
100
AcDbVertex
100
AcDb2dVertex
 10
-10185.3087659965
 20
12013.4683125828
 30
0.0
 70
         1
  0
VERTEX
  5
128
100
AcDbEntity
  8
_X______
  6
CONTINUOUS
 62
         7
100
AcDbVertex
100
AcDb2dVertex
 10
-10185.1241387264
 20
12013.4701457223
 30
0.0
 70
         1
  0
VERTEX
  5
12A
100
AcDbEntity
  8
_X______
  6
CONTINUOUS
 62
         7
100
AcDbVertex
100
AcDb2dVertex
 10
-10184.9331318767
 20
12013.4899827734
 30
0.0
 70
         1
  0
VERTEX
  5
12C
100
AcDbEntity
  8
_X______
  6
CONTINUOUS
 62
         7
100
AcDbVertex
100
AcDb2dVertex
 10
-10184.737147149
 20
12013.5287390447
 30
0.0
 70
         1
  0
VERTEX
  5
12E
100
AcDbEntity
  8
_X______
  6
CONTINUOUS
 62
         7
100
AcDbVertex
100
AcDb2dVertex
 10
-10184.5377845169
 20
12013.5870209039
 30
0.0
 70
         1
  0
VERTEX
  5
130
100
AcDbEntity
  8
_X______
  6
CONTINUOUS
 62
         7
100
AcDbVertex
100
AcDb2dVertex
 10
-10184.3368052845
 20
12013.6650802644
 30
0.0
 70
         1
  0
VERTEX
  5
132
100
AcDbEntity
  8
_X______
  6
CONTINUOUS
 62
         7
100
AcDbVertex
100
AcDb2dVertex
 10
-10184.1360837578
 20
12013.7627828268
 30
0.0
 70
         1
  0
VERTEX
  5
134
100
AcDbEntity
  8
_X______
  6
CONTINUOUS
 62
         7
100
AcDbVertex
100
AcDb2dVertex
 10
-10183.9375498878
 20
12013.8795935834
 30
0.0
 70
         1
  0
VERTEX
  5
136
100
AcDbEntity
  8
_X______
  6
CONTINUOUS
 62
         7
100
AcDbVertex
100
AcDb2dVertex
 10
-10183.7431263083
 20
12014.0145817968
 30
0.0
 70
         1
  0
VERTEX
  5
138
100
AcDbEntity
  8
_X______
  6
CONTINUOUS
 62
         7
100
AcDbVertex
100
AcDb2dVertex
 10
-10183.5546639376
 20
12014.1664459797
 30
0.0
 70
         1
  0
VERTEX
  5
13A
100
AcDbEntity
  8
_X______
  6
CONTINUOUS
 62
         7
100
AcDbVertex
100
AcDb2dVertex
 10
-10183.3143351372
 20
12014.3936285304
 30
0.0
 70
         1
  0
VERTEX
  5
13C
100
AcDbEntity
  8
_X______
  6
CONTINUOUS
 62
         7
100
AcDbVertex
100
AcDb2dVertex
 10
-10183.0913750575
 20
12014.6435372065
 30
0.0
 70
         1
  0
VERTEX
  5
13E
100
AcDbEntity
  8
_X______
  6
CONTINUOUS
 62
         7
100
AcDbVertex
100
AcDb2dVertex
 10
-10182.8885967032
 20
12014.9109743186
 30
0.0
 70
         1
  0
VERTEX
  5
140
100
AcDbEntity
  8
_X______
  6
CONTINUOUS
 62
         7
100
AcDbVertex
100
AcDb2dVertex
 10
-10182.707937136
 20
12015.1905212537
 30
0.0
 70
         1
  0
VERTEX
  5
142
100
AcDbEntity
  8
_X______
  6
CONTINUOUS
 62
         7
100
AcDbVertex
100
AcDb2dVertex
 10
-10182.5504398618
 20
12015.4768537635
 30
0.0
 70
         1
  0
VERTEX
  5
144
100
AcDbEntity
  8
_X______
  6
CONTINUOUS
 62
         7
100
AcDbVertex
100
AcDb2dVertex
 10
-10182.4163095667
 20
12015.7650085981
 30
0.0
 70
         1
  0
VERTEX
  5
146
100
AcDbEntity
  8
_X______
  6
CONTINUOUS
 62
         7
100
AcDbVertex
100
AcDb2dVertex
 10
-10182.2719105041
 20
12016.1472912741
 30
0.0
 70
         1
  0
VERTEX
  5
148
100
AcDbEntity
  8
_X______
  6
CONTINUOUS
 62
         7
100
AcDbVertex
100
AcDb2dVertex
 10
-10182.1657876785
 20
12016.5162858845
 30
0.0
 70
         1
  0
VERTEX
  5
14A
100
AcDbEntity
  8
_X______
  6
CONTINUOUS
 62
         7
100
AcDbVertex
100
AcDb2dVertex
 10
-10182.0938405572
 20
12016.8656489249
 30
0.0
 70
         1
  0
VERTEX
  5
14C
100
AcDbEntity
  8
_X______
  6
CONTINUOUS
 62
         7
100
AcDbVertex
100
AcDb2dVertex
 10
-10182.0513460134
 20
12017.1912759629
 30
0.0
 70
         1
  0
VERTEX
  5
14E
100
AcDbEntity
  8
_X______
  6
CONTINUOUS
 62
         7
100
AcDbVertex
100
AcDb2dVertex
 10
-10182.0334518905
 20
12017.4909797564
 30
0.0
 70
         1
  0
VERTEX
  5
150
100
AcDbEntity
  8
_X______
  6
CONTINUOUS
 62
         7
100
AcDbVertex
100
AcDb2dVertex
 10
-10182.0355247321
 20
12017.7640873701
 30
0.0
 70
         1
  0
VERTEX
  5
152
100
AcDbEntity
  8
_X______
  6
CONTINUOUS
 62
         7
100
AcDbVertex
100
AcDb2dVertex
 10
-10182.0625380042
 20
12018.0907352218
 30
0.0
 70
         1
  0
VERTEX
  5
154
100
AcDbEntity
  8
_X______
  6
CONTINUOUS
 62
         7
100
AcDbVertex
100
AcDb2dVertex
 10
-10182.1094880161
 20
12018.3731196699
 30
0.0
 70
         1
  0
VERTEX
  5
156
100
AcDbEntity
  8
_X______
  6
CONTINUOUS
 62
         7
100
AcDbVertex
100
AcDb2dVertex
 10
-10182.1694705693
 20
12018.6155981905
 30
0.0
 70
         1
  0
VERTEX
  5
158
100
AcDbEntity
  8
_X______
  6
CONTINUOUS
 62
         7
100
AcDbVertex
100
AcDb2dVertex
 10
-10182.2621389872
 20
12018.8884007728
 30
0.0
 70
         1
  0
VERTEX
  5
15A
100
AcDbEntity
  8
_X______
  6
CONTINUOUS
 62
         7
100
AcDbVertex
100
AcDb2dVertex
 10
-10182.3600936602
 20
12019.1085531161
 30
0.0
 70
         1
  0
VERTEX
  5
15C
100
AcDbEntity
  8
_X______
  6
CONTINUOUS
 62
         7
100
AcDbVertex
100
AcDb2dVertex
 10
-10182.457615284
 20
12019.286240841
 30
0.0
 70
         1
  0
VERTEX
  5
15E
100
AcDbEntity
  8
_X______
  6
CONTINUOUS
 62
         7
100
AcDbVertex
100
AcDb2dVertex
 10
-10182.5835543794
 20
12019.4746092985
 30
0.0
 70
         1
  0
VERTEX
  5
160
100
AcDbEntity
  8
_X______
  6
CONTINUOUS
 62
         7
100
AcDbVertex
100
AcDb2dVertex
 10
-10182.737492816
 20
12019.6602162384
 30
0.0
 70
         1
  0
VERTEX
  5
162
100
AcDbEntity
  8
_X______
  6
CONTINUOUS
 62
         7
100
AcDbVertex
100
AcDb2dVertex
 10
-10182.8681176585
 20
12019.7888755481
 30
0.0
 70
         1
  0
VERTEX
  5
164
100
AcDbEntity
  8
_X______
  6
CONTINUOUS
 62
         7
100
AcDbVertex
100
AcDb2dVertex
 10
-10183.013144157
 20
12019.9072431971
 30
0.0
 70
         1
  0
VERTEX
  5
166
100
AcDbEntity
  8
_X______
  6
CONTINUOUS
 62
         7
100
AcDbVertex
100
AcDb2dVertex
 10
-10183.1606040817
 20
12020.0056608827
 30
0.0
 70
         1
  0
VERTEX
  5
168
100
AcDbEntity
  8
_X______
  6
CONTINUOUS
 62
         7
100
AcDbVertex
100
AcDb2dVertex
 10
-10183.3373897735
 20
12020.0989745322
 30
0.0
 70
         1
  0
VERTEX
  5
16A
100
AcDbEntity
  8
_X______
  6
CONTINUOUS
 62
         7
100
AcDbVertex
100
AcDb2dVertex
 10
-10183.4716947252
 20
12020.1541337711
 30
0.0
 70
         1
  0
SEQEND
  5
16C
100
AcDbEntity
  8
_X______
  6
CONTINUOUS
 62
         7
  0
LINE
  5
16D
100
AcDbEntity
  8
_X______
  6
CENTER
 62
         1
100
AcDbLine
 10
-10208.0845878372
 20
11938.1253293236
 30
0.0
 11
-10217.4815140451
 21
11941.5455307569
 31
0.0
  0
POLYLINE
  5
16F
100
AcDbEntity
  8
_X______
  6
CONTINUOUS
 62
         7
100
AcDb2dPolyline
 66
         1
 10
0.0
 20
0.0
 30
0.0
 70
         2
  0
VERTEX
  5
171
100
AcDbEntity
  8
_X______
  6
CONTINUOUS
 62
         7
100
AcDbVertex
100
AcDb2dVertex
 10
-10211.5859804395
 20
11943.124354213
 30
0.0
 70
         1
  0
VERTEX
  5
173
100
AcDbEntity
  8
_X______
  6
CONTINUOUS
 62
         7
100
AcDbVertex
100
AcDb2dVertex
 10
-10211.9659815042
 20
11943.217325558
 30
0.0
 70
         1
  0
VERTEX
  5
175
100
AcDbEntity
  8
_X______
  6
CONTINUOUS
 62
         7
100
AcDbVertex
100
AcDb2dVertex
 10
-10212.1430501716
 20
11943.2323270558
 30
0.0
 70
         1
  0
VERTEX
  5
177
100
AcDbEntity
  8
_X______
  6
CONTINUOUS
 62
         7
100
AcDbVertex
100
AcDb2dVertex
 10
-10212.3276774417
 20
11943.2304939164
 30
0.0
 70
         1
  0
VERTEX
  5
179
100
AcDbEntity
  8
_X______
  6
CONTINUOUS
 62
         7
100
AcDbVertex
100
AcDb2dVertex
 10
-10212.5186842913
 20
11943.2106568653
 30
0.0
 70
         1
  0
VERTEX
  5
17B
100
AcDbEntity
  8
_X______
  6
CONTINUOUS
 62
         7
100
AcDbVertex
100
AcDb2dVertex
 10
-10212.714669019
 20
11943.1719005939
 30
0.0
 70
         1
  0
VERTEX
  5
17D
100
AcDbEntity
  8
_X______
  6
CONTINUOUS
 62
         7
100
AcDbVertex
100
AcDb2dVertex
 10
-10212.9140316511
 20
11943.1136187348
 30
0.0
 70
         1
  0
VERTEX
  5
17F
100
AcDbEntity
  8
_X______
  6
CONTINUOUS
 62
         7
100
AcDbVertex
100
AcDb2dVertex
 10
-10213.1150108835
 20
11943.0355593742
 30
0.0
 70
         1
  0
VERTEX
  5
181
100
AcDbEntity
  8
_X______
  6
CONTINUOUS
 62
         7
100
AcDbVertex
100
AcDb2dVertex
 10
-10213.3157324103
 20
11942.9378568119
 30
0.0
 70
         1
  0
VERTEX
  5
183
100
AcDbEntity
  8
_X______
  6
CONTINUOUS
 62
         7
100
AcDbVertex
100
AcDb2dVertex
 10
-10213.5142662802
 20
11942.8210460553
 30
0.0
 70
         1
  0
VERTEX
  5
185
100
AcDbEntity
  8
_X______
  6
CONTINUOUS
 62
         7
100
AcDbVertex
100
AcDb2dVertex
 10
-10213.7086898598
 20
11942.6860578418
 30
0.0
 70
         1
  0
VERTEX
  5
187
100
AcDbEntity
  8
_X______
  6
CONTINUOUS
 62
         7
100
AcDbVertex
100
AcDb2dVertex
 10
-10213.8971522305
 20
11942.5341936589
 30
0.0
 70
         1
  0
VERTEX
  5
189
100
AcDbEntity
  8
_X______
  6
CONTINUOUS
 62
         7
100
AcDbVertex
100
AcDb2dVertex
 10
-10214.1374810309
 20
11942.3070111083
 30
0.0
 70
         1
  0
VERTEX
  5
18B
100
AcDbEntity
  8
_X______
  6
CONTINUOUS
 62
         7
100
AcDbVertex
100
AcDb2dVertex
 10
-10214.3604411106
 20
11942.0571024322
 30
0.0
 70
         1
  0
VERTEX
  5
18D
100
AcDbEntity
  8
_X______
  6
CONTINUOUS
 62
         7
100
AcDbVertex
100
AcDb2dVertex
 10
-10214.5632194648
 20
11941.7896653201
 30
0.0
 70
         1
  0
VERTEX
  5
18F
100
AcDbEntity
  8
_X______
  6
CONTINUOUS
 62
         7
100
AcDbVertex
100
AcDb2dVertex
 10
-10214.743879032
 20
11941.510118385
 30
0.0
 70
         1
  0
VERTEX
  5
191
100
AcDbEntity
  8
_X______
  6
CONTINUOUS
 62
         7
100
AcDbVertex
100
AcDb2dVertex
 10
-10214.9013763063
 20
11941.2237858751
 30
0.0
 70
         1
  0
VERTEX
  5
193
100
AcDbEntity
  8
_X______
  6
CONTINUOUS
 62
         7
100
AcDbVertex
100
AcDb2dVertex
 10
-10215.0355066013
 20
11940.9356310405
 30
0.0
 70
         1
  0
VERTEX
  5
195
100
AcDbEntity
  8
_X______
  6
CONTINUOUS
 62
         7
100
AcDbVertex
100
AcDb2dVertex
 10
-10215.179905664
 20
11940.5533483646
 30
0.0
 70
         1
  0
VERTEX
  5
197
100
AcDbEntity
  8
_X______
  6
CONTINUOUS
 62
         7
100
AcDbVertex
100
AcDb2dVertex
 10
-10215.2860284896
 20
11940.1843537542
 30
0.0
 70
         1
  0
VERTEX
  5
199
100
AcDbEntity
  8
_X______
  6
CONTINUOUS
 62
         7
100
AcDbVertex
100
AcDb2dVertex
 10
-10215.3579756109
 20
11939.8349907138
 30
0.0
 70
         1
  0
VERTEX
  5
19B
100
AcDbEntity
  8
_X______
  6
CONTINUOUS
 62
         7
100
AcDbVertex
100
AcDb2dVertex
 10
-10215.4004701547
 20
11939.5093636757
 30
0.0
 70
         1
  0
VERTEX
  5
19D
100
AcDbEntity
  8
_X______
  6
CONTINUOUS
 62
         7
100
AcDbVertex
100
AcDb2dVertex
 10
-10215.4183642776
 20
11939.2096598823
 30
0.0
 70
         1
  0
VERTEX
  5
19F
100
AcDbEntity
  8
_X______
  6
CONTINUOUS
 62
         7
100
AcDbVertex
100
AcDb2dVertex
 10
-10215.4162914359
 20
11938.9365522686
 30
0.0
 70
         1
  0
VERTEX
  5
1A1
100
AcDbEntity
  8
_X______
  6
CONTINUOUS
 62
         7
100
AcDbVertex
100
AcDb2dVertex
 10
-10215.3892781638
 20
11938.6099044168
 30
0.0
 70
         1
  0
VERTEX
  5
1A3
100
AcDbEntity
  8
_X______
  6
CONTINUOUS
 62
         7
100
AcDbVertex
100
AcDb2dVertex
 10
-10215.342328152
 20
11938.3275199687
 30
0.0
 70
         1
  0
VERTEX
  5
1A5
100
AcDbEntity
  8
_X______
  6
CONTINUOUS
 62
         7
100
AcDbVertex
100
AcDb2dVertex
 10
-10215.2823455988
 20
11938.0850414482
 30
0.0
 70
         1
  0
VERTEX
  5
1A7
100
AcDbEntity
  8
_X______
  6
CONTINUOUS
 62
         7
100
AcDbVertex
100
AcDb2dVertex
 10
-10215.1896771808
 20
11937.8122388659
 30
0.0
 70
         1
  0
VERTEX
  5
1A9
100
AcDbEntity
  8
_X______
  6
CONTINUOUS
 62
         7
100
AcDbVertex
100
AcDb2dVertex
 10
-10215.0917225078
 20
11937.5920865226
 30
0.0
 70
         1
  0
VERTEX
  5
1AB
100
AcDbEntity
  8
_X______
  6
CONTINUOUS
 62
         7
100
AcDbVertex
100
AcDb2dVertex
 10
-10214.994200884
 20
11937.4143987976
 30
0.0
 70
         1
  0
VERTEX
  5
1AD
100
AcDbEntity
  8
_X______
  6
CONTINUOUS
 62
         7
100
AcDbVertex
100
AcDb2dVertex
 10
-10214.8682617886
 20
11937.2260303401
 30
0.0
 70
         1
  0
VERTEX
  5
1AF
100
AcDbEntity
  8
_X______
  6
CONTINUOUS
 62
         7
100
AcDbVertex
100
AcDb2dVertex
 10
-10214.714323352
 20
11937.0404234003
 30
0.0
 70
         1
  0
VERTEX
  5
1B1
100
AcDbEntity
  8
_X______
  6
CONTINUOUS
 62
         7
100
AcDbVertex
100
AcDb2dVertex
 10
-10214.5836985095
 20
11936.9117640906
 30
0.0
 70
         1
  0
VERTEX
  5
1B3
100
AcDbEntity
  8
_X______
  6
CONTINUOUS
 62
         7
100
AcDbVertex
100
AcDb2dVertex
 10
-10214.438672011
 20
11936.7933964415
 30
0.0
 70
         1
  0
VERTEX
  5
1B5
100
AcDbEntity
  8
_X______
  6
CONTINUOUS
 62
         7
100
AcDbVertex
100
AcDb2dVertex
 10
-10214.2912120863
 20
11936.694978756
 30
0.0
 70
         1
  0
VERTEX
  5
1B7
100
AcDbEntity
  8
_X______
  6
CONTINUOUS
 62
         7
100
AcDbVertex
100
AcDb2dVertex
 10
-10214.1144263945
 20
11936.6016651065
 30
0.0
 70
         1
  0
VERTEX
  5
1B9
100
AcDbEntity
  8
_X______
  6
CONTINUOUS
 62
         7
100
AcDbVertex
100
AcDb2dVertex
 10
-10213.9801214428
 20
11936.5465058675
 30
0.0
 70
         1
  0
VERTEX
  5
1BB
100
AcDbEntity
  8
_X______
  6
CONTINUOUS
 62
         7
100
AcDbVertex
100
AcDb2dVertex
 10
-10213.9801214428
 20
11936.5465058675
 30
0.0
 70
         1
  0
VERTEX
  5
1BD
100
AcDbEntity
  8
_X______
  6
CONTINUOUS
 62
         7
100
AcDbVertex
100
AcDb2dVertex
 10
-10213.6001203781
 20
11936.4535345225
 30
0.0
 70
         1
  0
VERTEX
  5
1BF
100
AcDbEntity
  8
_X______
  6
CONTINUOUS
 62
         7
100
AcDbVertex
100
AcDb2dVertex
 10
-10213.4230517108
 20
11936.4385330247
 30
0.0
 70
         1
  0
VERTEX
  5
1C1
100
AcDbEntity
  8
_X______
  6
CONTINUOUS
 62
         7
100
AcDbVertex
100
AcDb2dVertex
 10
-10213.2384244406
 20
11936.4403661641
 30
0.0
 70
         1
  0
VERTEX
  5
1C3
100
AcDbEntity
  8
_X______
  6
CONTINUOUS
 62
         7
100
AcDbVertex
100
AcDb2dVertex
 10
-10213.047417591
 20
11936.4602032152
 30
0.0
 70
         1
  0
VERTEX
  5
1C5
100
AcDbEntity
  8
_X______
  6
CONTINUOUS
 62
         7
100
AcDbVertex
100
AcDb2dVertex
 10
-10212.8514328633
 20
11936.4989594866
 30
0.0
 70
         1
  0
VERTEX
  5
1C7
100
AcDbEntity
  8
_X______
  6
CONTINUOUS
 62
         7
100
AcDbVertex
100
AcDb2dVertex
 10
-10212.6520702312
 20
11936.5572413458
 30
0.0
 70
         1
  0
VERTEX
  5
1C9
100
AcDbEntity
  8
_X______
  6
CONTINUOUS
 62
         7
100
AcDbVertex
100
AcDb2dVertex
 10
-10212.4510909988
 20
11936.6353007063
 30
0.0
 70
         1
  0
VERTEX
  5
1CB
100
AcDbEntity
  8
_X______
  6
CONTINUOUS
 62
         7
100
AcDbVertex
100
AcDb2dVertex
 10
-10212.2503694721
 20
11936.7330032686
 30
0.0
 70
         1
  0
VERTEX
  5
1CD
100
AcDbEntity
  8
_X______
  6
CONTINUOUS
 62
         7
100
AcDbVertex
100
AcDb2dVertex
 10
-10212.0518356021
 20
11936.8498140253
 30
0.0
 70
         1
  0
VERTEX
  5
1CF
100
AcDbEntity
  8
_X______
  6
CONTINUOUS
 62
         7
100
AcDbVertex
100
AcDb2dVertex
 10
-10211.8574120226
 20
11936.9848022387
 30
0.0
 70
         1
  0
VERTEX
  5
1D1
100
AcDbEntity
  8
_X______
  6
CONTINUOUS
 62
         7
100
AcDbVertex
100
AcDb2dVertex
 10
-10211.6689496518
 20
11937.1366664216
 30
0.0
 70
         1
  0
VERTEX
  5
1D3
100
AcDbEntity
  8
_X______
  6
CONTINUOUS
 62
         7
100
AcDbVertex
100
AcDb2dVertex
 10
-10211.4286208515
 20
11937.3638489722
 30
0.0
 70
         1
  0
VERTEX
  5
1D5
100
AcDbEntity
  8
_X______
  6
CONTINUOUS
 62
         7
100
AcDbVertex
100
AcDb2dVertex
 10
-10211.2056607717
 20
11937.6137576483
 30
0.0
 70
         1
  0
VERTEX
  5
1D7
100
AcDbEntity
  8
_X______
  6
CONTINUOUS
 62
         7
100
AcDbVertex
100
AcDb2dVertex
 10
-10211.0028824175
 20
11937.8811947604
 30
0.0
 70
         1
  0
VERTEX
  5
1D9
100
AcDbEntity
  8
_X______
  6
CONTINUOUS
 62
         7
100
AcDbVertex
100
AcDb2dVertex
 10
-10210.8222228503
 20
11938.1607416955
 30
0.0
 70
         1
  0
VERTEX
  5
1DB
100
AcDbEntity
  8
_X______
  6
CONTINUOUS
 62
         7
100
AcDbVertex
100
AcDb2dVertex
 10
-10210.6647255761
 20
11938.4470742054
 30
0.0
 70
         1
  0
VERTEX
  5
1DD
100
AcDbEntity
  8
_X______
  6
CONTINUOUS
 62
         7
100
AcDbVertex
100
AcDb2dVertex
 10
-10210.530595281
 20
11938.73522904
 30
0.0
 70
         1
  0
VERTEX
  5
1DF
100
AcDbEntity
  8
_X______
  6
CONTINUOUS
 62
         7
100
AcDbVertex
100
AcDb2dVertex
 10
-10210.3861962184
 20
11939.1175117159
 30
0.0
 70
         1
  0
VERTEX
  5
1E1
100
AcDbEntity
  8
_X______
  6
CONTINUOUS
 62
         7
100
AcDbVertex
100
AcDb2dVertex
 10
-10210.2800733928
 20
11939.4865063263
 30
0.0
 70
         1
  0
VERTEX
  5
1E3
100
AcDbEntity
  8
_X______
  6
CONTINUOUS
 62
         7
100
AcDbVertex
100
AcDb2dVertex
 10
-10210.2081262715
 20
11939.8358693667
 30
0.0
 70
         1
  0
VERTEX
  5
1E5
100
AcDbEntity
  8
_X______
  6
CONTINUOUS
 62
         7
100
AcDbVertex
100
AcDb2dVertex
 10
-10210.1656317277
 20
11940.1614964048
 30
0.0
 70
         1
  0
VERTEX
  5
1E7
100
AcDbEntity
  8
_X______
  6
CONTINUOUS
 62
         7
100
AcDbVertex
100
AcDb2dVertex
 10
-10210.1477376048
 20
11940.4612001982
 30
0.0
 70
         1
  0
VERTEX
  5
1E9
100
AcDbEntity
  8
_X______
  6
CONTINUOUS
 62
         7
100
AcDbVertex
100
AcDb2dVertex
 10
-10210.1498104464
 20
11940.7343078119
 30
0.0
 70
         1
  0
VERTEX
  5
1EB
100
AcDbEntity
  8
_X______
  6
CONTINUOUS
 62
         7
100
AcDbVertex
100
AcDb2dVertex
 10
-10210.1768237185
 20
11941.0609556637
 30
0.0
 70
         1
  0
VERTEX
  5
1ED
100
AcDbEntity
  8
_X______
  6
CONTINUOUS
 62
         7
100
AcDbVertex
100
AcDb2dVertex
 10
-10210.2237737304
 20
11941.3433401118
 30
0.0
 70
         1
  0
VERTEX
  5
1EF
100
AcDbEntity
  8
_X______
  6
CONTINUOUS
 62
         7
100
AcDbVertex
100
AcDb2dVertex
 10
-10210.2837562836
 20
11941.5858186323
 30
0.0
 70
         1
  0
VERTEX
  5
1F1
100
AcDbEntity
  8
_X______
  6
CONTINUOUS
 62
         7
100
AcDbVertex
100
AcDb2dVertex
 10
-10210.3764247015
 20
11941.8586212146
 30
0.0
 70
         1
  0
VERTEX
  5
1F3
100
AcDbEntity
  8
_X______
  6
CONTINUOUS
 62
         7
100
AcDbVertex
100
AcDb2dVertex
 10
-10210.4743793745
 20
11942.0787735579
 30
0.0
 70
         1
  0
VERTEX
  5
1F5
100
AcDbEntity
  8
_X______
  6
CONTINUOUS
 62
         7
100
AcDbVertex
100
AcDb2dVertex
 10
-10210.5719009983
 20
11942.2564612829
 30
0.0
 70
         1
  0
VERTEX
  5
1F7
100
AcDbEntity
  8
_X______
  6
CONTINUOUS
 62
         7
100
AcDbVertex
100
AcDb2dVertex
 10
-10210.6978400937
 20
11942.4448297404
 30
0.0
 70
         1
  0
VERTEX
  5
1F9
100
AcDbEntity
  8
_X______
  6
CONTINUOUS
 62
         7
100
AcDbVertex
100
AcDb2dVertex
 10
-10210.8517785303
 20
11942.6304366802
 30
0.0
 70
         1
  0
VERTEX
  5
1FB
100
AcDbEntity
  8
_X______
  6
CONTINUOUS
 62
         7
100
AcDbVertex
100
AcDb2dVertex
 10
-10210.9824033728
 20
11942.7590959899
 30
0.0
 70
         1
  0
VERTEX
  5
1FD
100
AcDbEntity
  8
_X______
  6
CONTINUOUS
 62
         7
100
AcDbVertex
100
AcDb2dVertex
 10
-10211.1274298713
 20
11942.877463639
 30
0.0
 70
         1
  0
VERTEX
  5
1FF
100
AcDbEntity
  8
_X______
  6
CONTINUOUS
 62
         7
100
AcDbVertex
100
AcDb2dVertex
 10
-10211.274889796
 20
11942.9758813245
 30
0.0
 70
         1
  0
VERTEX
  5
201
100
AcDbEntity
  8
_X______
  6
CONTINUOUS
 62
         7
100
AcDbVertex
100
AcDb2dVertex
 10
-10211.4516754878
 20
11943.069194974
 30
0.0
 70
         1
  0
VERTEX
  5
203
100
AcDbEntity
  8
_X______
  6
CONTINUOUS
 62
         7
100
AcDbVertex
100
AcDb2dVertex
 10
-10211.5859804395
 20
11943.124354213
 30
0.0
 70
         1
  0
SEQEND
  5
205
100
AcDbEntity
  8
_X______
  6
CONTINUOUS
 62
         7
  0
LINE
  5
206
100
AcDbEntity
  8
L1_
  6
CONTINUOUS
 62
         7
100
AcDbLine
 10
-9984.7148546433
 20
11719.0787883374
 30
0.0
 11
-9883.4487207578
 21
11704.3108916503
 31
0.0
  0
LINE
  5
207
100
AcDbEntity
  8
L1_
  6
CONTINUOUS
 62
         7
100
AcDbLine
 10
-9984.7148546433
 20
11759.6369891978
 30
0.0
 11
-9883.4487207578
 21
11774.4048858848
 31
0.0
  0
ARC
  5
208
100
AcDbEntity
  8
L1_
  6
CONTINUOUS
 62
         7
100
AcDbCircle
 10
-9984.5705485269
 20
11720.0683214317
 30
0.0
 40
1.0
100
AcDbArc
 50
180.0
 51
261.7029
  0
LINE
  5
209
100
AcDbEntity
  8
L1_
  6
CONTINUOUS
 62
         7
100
AcDbLine
 10
-9985.5705485269
 20
11758.6474561035
 30
0.0
 11
-9985.5705485269
 21
11720.0683214317
 31
0.0
  0
ARC
  5
20A
100
AcDbEntity
  8
L1_
  6
CONTINUOUS
 62
         7
100
AcDbCircle
 10
-9984.5705485269
 20
11758.6474561035
 30
0.0
 40
1.0
100
AcDbArc
 50
98.2971
 51
180.0
  0
LINE
  5
20B
100
AcDbEntity
  8
L1_
  6
CENTER
 62
         1
100
AcDbLine
 10
-9883.4536394359
 20
11783.3890684184
 30
0.0
 11
-9857.260547159
 21
11765.0484677571
 31
0.0
  0
LINE
  5
20C
100
AcDbEntity
  8
L1_
  6
CONTINUOUS
 62
         4
100
AcDbLine
 10
-9880.5759736495
 20
11777.7117813761
 30
0.0
 11
-9876.4802134281
 21
11774.8438991943
 31
0.0
  0
LINE
  5
20D
100
AcDbEntity
  8
L1_
  6
CONTINUOUS
 62
         7
100
AcDbLine
 10
-9880.2891854314
 20
11778.1213573982
 30
0.0
 11
-9864.1028554716
 21
11766.7875671445
 31
0.0
  0
LINE
  5
20E
100
AcDbEntity
  8
L1_
  6
CONTINUOUS
 62
         7
100
AcDbLine
 10
-9877.4213032496
 20
11782.2171176197
 30
0.0
 11
-9860.4388381519
 21
11770.3258675408
 31
0.0
  0
LINE
  5
20F
100
AcDbEntity
  8
L1_
  6
CONTINUOUS
 62
         7
100
AcDbLine
 10
-9873.03875481
 20
11779.75881146
 30
0.0
 11
-9876.4802134281
 21
11774.8438991943
 31
0.0
  0
LINE
  5
210
100
AcDbEntity
  8
L1_
  6
CONTINUOUS
 62
         4
100
AcDbLine
 10
-9877.1345150314
 20
11782.6266936418
 30
0.0
 11
-9873.03875481
 21
11779.75881146
 31
0.0
  0
LINE
  5
211
100
AcDbEntity
  8
L1_
  6
CONTINUOUS
 62
         7
100
AcDbLine
 10
-9880.2891854314
 20
11778.1213573982
 30
0.0
 11
-9880.5759736495
 21
11777.7117813761
 31
0.0
  0
LINE
  5
212
100
AcDbEntity
  8
L1_
  6
CONTINUOUS
 62
         7
100
AcDbLine
 10
-9880.5759736495
 20
11777.7117813761
 30
0.0
 11
-9880.6905825716
 21
11777.5481028724
 31
0.0
  0
LINE
  5
213
100
AcDbEntity
  8
L1_
  6
CONTINUOUS
 62
         7
100
AcDbLine
 10
-9880.7655485269
 20
11777.6078051929
 30
0.0
 11
-9880.6905825716
 21
11777.5481028724
 31
0.0
  0
LINE
  5
214
100
AcDbEntity
  8
L1_
  6
CONTINUOUS
 62
         7
100
AcDbLine
 10
-9880.7655485269
 20
11785.2302093962
 30
0.0
 11
-9877.1058362096
 21
11782.667651244
 31
0.0
  0
LINE
  5
215
100
AcDbEntity
  8
L1_
  6
CONTINUOUS
 62
         7
100
AcDbLine
 10
-9877.1058362096
 20
11782.667651244
 30
0.0
 11
-9880.2891854314
 21
11778.1213573982
 31
0.0
  0
INSERT
  5
21C
100
AcDbEntity
  8
0
  6
CONTINUOUS
100
AcDbBlockReference
  2
*X4
 10
0.0
 20
0.0
 30
0.0
  0
LINE
  5
21D
100
AcDbEntity
  8
L1_
  6
CENTER
 62
         1
100
AcDbLine
 10
-9842.3335619652
 20
11784.8210777984
 30
0.0
 11
-9876.7268260243
 21
11751.6078887676
 31
0.0
  0
LINE
  5
21E
100
AcDbEntity
  8
L1_
  6
CONTINUOUS
 62
         7
100
AcDbLine
 10
-9853.2671432611
 20
11777.7380500501
 30
0.0
 11
-9845.7655485269
 21
11784.9822558781
 31
0.0
  0
LINE
  5
21F
100
AcDbEntity
  8
L1_
  6
CONTINUOUS
 62
         4
100
AcDbLine
 10
-9858.8737108403
 20
11769.229953599
 30
0.0
 11
-9857.0089502013
 21
11767.9242341426
 31
0.0
  0
LINE
  5
220
100
AcDbEntity
  8
L1_
  6
CONTINUOUS
 62
         4
100
AcDbLine
 10
-9857.260547159
 20
11765.0484677571
 30
0.0
 11
-9859.8768323831
 21
11763.8284739212
 31
0.0
  0
LINE
  5
221
100
AcDbEntity
  8
L1_
  6
CONTINUOUS
 62
         4
100
AcDbLine
 10
-9857.0089502013
 20
11767.9242341426
 30
0.0
 11
-9857.260547159
 21
11765.0484677571
 31
0.0
  0
LINE
  5
222
100
AcDbEntity
  8
L1_
  6
CONTINUOUS
 62
         4
100
AcDbLine
 10
-9857.0089502013
 20
11767.9242341426
 30
0.0
 11
-9859.8768323831
 21
11763.8284739212
 31
0.0
  0
LINE
  5
223
100
AcDbEntity
  8
L1_
  6
CONTINUOUS
 62
         7
100
AcDbLine
 10
-9853.2671432611
 20
11777.7380500501
 30
0.0
 11
-9853.169371691
 21
11777.345909701
 31
0.0
  0
LINE
  5
224
100
AcDbEntity
  8
L1_
  6
CONTINUOUS
 62
         7
100
AcDbLine
 10
-9853.2671432611
 20
11777.7380500501
 30
0.0
 11
-9849.7938514088
 21
11774.1413510484
 31
0.0
  0
LINE
  5
225
100
AcDbEntity
  8
L1_
  6
CONTINUOUS
 62
         7
100
AcDbLine
 10
-9853.169371691
 20
11777.345909701
 30
0.0
 11
-9850.182340698
 21
11774.2527485595
 31
0.0
  0
LINE
  5
226
100
AcDbEntity
  8
L1_
  6
CONTINUOUS
 62
         7
100
AcDbLine
 10
-9849.7938514088
 20
11774.1413510484
 30
0.0
 11
-9850.182340698
 21
11774.2527485595
 31
0.0
  0
LINE
  5
227
100
AcDbEntity
  8
L1_
  6
CONTINUOUS
 62
         7
100
AcDbLine
 10
-9849.7938514088
 20
11774.1413510484
 30
0.0
 11
-9845.7655485269
 21
11778.031437923
 31
0.0
  0
LINE
  5
228
100
AcDbEntity
  8
L1_
  6
CONTINUOUS
 62
         4
100
AcDbLine
 10
-9862.0999256099
 20
11765.3851005568
 30
0.0
 11
-9859.8768323831
 21
11763.8284739212
 31
0.0
  0
LINE
  5
229
100
AcDbEntity
  8
L1_
  6
CONTINUOUS
 62
         7
100
AcDbLine
 10
-9864.1028554716
 20
11766.7875671445
 30
0.0
 11
-9862.0999256099
 21
11765.3851005568
 31
0.0
  0
LINE
  5
22A
100
AcDbEntity
  8
L1_
  6
CONTINUOUS
 62
         7
100
AcDbLine
 10
-9860.4388381519
 20
11770.3258675408
 30
0.0
 11
-9858.8737108403
 21
11769.229953599
 31
0.0
  0
LINE
  5
22B
100
AcDbEntity
  8
L1_
  6
CONTINUOUS
 62
         7
100
AcDbLine
 10
-9864.1028554716
 20
11766.7875671445
 30
0.0
 11
-9860.4388381519
 21
11770.3258675408
 31
0.0
  0
LINE
  5
22C
100
AcDbEntity
  8
L1_
  6
CONTINUOUS
 62
         7
100
AcDbLine
 10
-9860.4388381519
 20
11770.3258675408
 30
0.0
 11
-9853.169371691
 21
11777.345909701
 31
0.0
  0
LINE
  5
22D
100
AcDbEntity
  8
L1_
  6
CONTINUOUS
 62
         7
100
AcDbLine
 10
-9873.6317794641
 20
11751.6078887676
 30
0.0
 11
-9850.182340698
 21
11774.2527485595
 31
0.0
  0
LINE
  5
22E
100
AcDbEntity
  8
L1_
  6
CONTINUOUS
 62
         7
100
AcDbLine
 10
-9881.276011009
 20
11750.203643614
 30
0.0
 11
-9864.1028554716
 21
11766.7875671445
 31
0.0
  0
LINE
  5
22F
100
AcDbEntity
  8
L1_
  6
CENTER
 62
         1
100
AcDbLine
 10
-9990.054409113
 20
11739.3578887676
 30
0.0
 11
-9845.7655485269
 21
11739.3578887676
 31
0.0
  0
LINE
  5
230
100
AcDbEntity
  8
L1_
  6
CONTINUOUS
 62
         7
100
AcDbLine
 10
-9972.5655485269
 20
11728.8578887676
 30
0.0
 11
-9944.6455485269
 21
11728.8578887676
 31
0.0
  0
LINE
  5
231
100
AcDbEntity
  8
L1_
  6
CONTINUOUS
 62
         7
100
AcDbLine
 10
-9972.5655485269
 20
11749.8578887676
 30
0.0
 11
-9944.6455485269
 21
11749.8578887676
 31
0.0
  0
LINE
  5
232
100
AcDbEntity
  8
L1_
  6
CONTINUOUS
 62
         5
100
AcDbLine
 10
-9972.5655485269
 20
11727.3578887676
 30
0.0
 11
-9944.6455485269
 21
11727.3578887676
 31
0.0
  0
LINE
  5
233
100
AcDbEntity
  8
L1_
  6
CONTINUOUS
 62
         5
100
AcDbLine
 10
-9972.5655485269
 20
11751.3578887676
 30
0.0
 11
-9944.6455485269
 21
11751.3578887676
 31
0.0
  0
LINE
  5
234
100
AcDbEntity
  8
L1_
  6
CONTINUOUS
 62
         7
100
AcDbLine
 10
-9983.8334977193
 20
11751.8578887676
 30
0.0
 11
-9975.0655485269
 21
11751.8578887676
 31
0.0
  0
LINE
  5
235
100
AcDbEntity
  8
L1_
  6
CONTINUOUS
 62
         7
100
AcDbLine
 10
-9983.8334977193
 20
11726.8578887676
 30
0.0
 11
-9975.0655485269
 21
11726.8578887676
 31
0.0
  0
LINE
  5
236
100
AcDbEntity
  8
L1_
  6
CONTINUOUS
 62
         7
100
AcDbLine
 10
-9985.5655485269
 20
11752.8578887676
 30
0.0
 11
-9983.8334977193
 21
11751.8578887676
 31
0.0
  0
LINE
  5
237
100
AcDbEntity
  8
L1_
  6
CONTINUOUS
 62
         7
100
AcDbLine
 10
-9985.5655485269
 20
11725.8578887676
 30
0.0
 11
-9983.8334977193
 21
11726.8578887676
 31
0.0
  0
ARC
  5
238
100
AcDbEntity
  8
L1_
  6
CONTINUOUS
 62
         7
100
AcDbCircle
 10
-9973.8669417861
 20
11751.5578887676
 30
0.0
 40
0.6
100
AcDbArc
 50
90.0
 51
105.0
  0
LINE
  5
239
100
AcDbEntity
  8
L1_
  6
CONTINUOUS
 62
         7
100
AcDbLine
 10
-9973.8669417861
 20
11752.1578887676
 30
0.0
 11
-9973.1655485269
 21
11752.1578887676
 31
0.0
  0
LINE
  5
23A
100
AcDbEntity
  8
L1_
  6
CONTINUOUS
 62
         7
100
AcDbLine
 10
-9975.0655485269
 20
11751.8578887676
 30
0.0
 11
-9974.0222332131
 21
11752.1374442634
 31
0.0
  0
ARC
  5
23B
100
AcDbEntity
  8
L1_
  6
CONTINUOUS
 62
         7
100
AcDbCircle
 10
-9973.1655485269
 20
11751.5578887676
 30
0.0
 40
0.6
100
AcDbArc
 50
0.0
 51
90.0
  0
LINE
  5
23C
100
AcDbEntity
  8
L1_
  6
CONTINUOUS
 62
         7
100
AcDbLine
 10
-9973.8669417861
 20
11726.5578887676
 30
0.0
 11
-9973.1655485269
 21
11726.5578887676
 31
0.0
  0
LINE
  5
23D
100
AcDbEntity
  8
L1_
  6
CONTINUOUS
 62
         7
100
AcDbLine
 10
-9975.0655485269
 20
11726.8578887676
 30
0.0
 11
-9974.0222332131
 21
11726.5783332718
 31
0.0
  0
ARC
  5
23E
100
AcDbEntity
  8
L1_
  6
CONTINUOUS
 62
         7
100
AcDbCircle
 10
-9973.1655485269
 20
11727.1578887676
 30
0.0
 40
0.6
100
AcDbArc
 50
270.0
 51
360.0
  0
ARC
  5
23F
100
AcDbEntity
  8
L1_
  6
CONTINUOUS
 62
         7
100
AcDbCircle
 10
-9973.8669417861
 20
11727.1578887676
 30
0.0
 40
0.6
100
AcDbArc
 50
255.0
 51
270.0
  0
LINE
  5
240
100
AcDbEntity
  8
L1_
  6
CONTINUOUS
 62
         7
100
AcDbLine
 10
-9972.5655485269
 20
11751.5578887676
 30
0.0
 11
-9972.5655485269
 21
11727.1578887676
 31
0.0
  0
LINE
  5
241
100
AcDbEntity
  8
L1_
  6
CONTINUOUS
 62
         7
100
AcDbLine
 10
-9975.0655485269
 20
11751.8578887676
 30
0.0
 11
-9975.0655485269
 21
11726.8578887676
 31
0.0
  0
LINE
  5
242
100
AcDbEntity
  8
L1_
  6
CONTINUOUS
 62
         7
100
AcDbLine
 10
-9853.0914606171
 20
11689.3578887676
 30
0.0
 11
-9846.7655485269
 21
11689.3578887676
 31
0.0
  0
LINE
  5
243
100
AcDbEntity
  8
L1_
  6
CONTINUOUS
 62
         7
100
AcDbLine
 10
-9940.5755485269
 20
11745.4078887676
 30
0.0
 11
-9940.5755485269
 21
11733.3078887676
 31
0.0
  0
LINE
  5
244
100
AcDbEntity
  8
L1_
  6
CONTINUOUS
 62
         7
100
AcDbLine
 10
-9882.1459332846
 20
11704.6599725017
 30
0.0
 11
-9881.3655485269
 21
11704.6599725017
 31
0.0
  0
LINE
  5
245
100
AcDbEntity
  8
L1_
  6
CONTINUOUS
 62
         7
100
AcDbLine
 10
-9880.7655485269
 20
11704.0599725017
 30
0.0
 11
-9880.7655485269
 21
11690.3578887676
 31
0.0
  0
LINE
  5
246
100
AcDbEntity
  8
L1_
  6
CONTINUOUS
 62
         7
100
AcDbLine
 10
-9864.0655485269
 20
11696.8578887676
 30
0.0
 11
-9857.0655485269
 21
11696.8578887676
 31
0.0
  0
LINE
  5
247
100
AcDbEntity
  8
L1_
  6
CONTINUOUS
 62
         7
100
AcDbLine
 10
-9864.0655485269
 20
11696.8578887676
 30
0.0
 11
-9864.0655485269
 21
11696.2412109411
 31
0.0
  0
LINE
  5
248
100
AcDbEntity
  8
L1_
  6
CONTINUOUS
 62
         7
100
AcDbLine
 10
-9864.0655485269
 20
11696.2412109411
 30
0.0
 11
-9868.0396364367
 21
11689.3578887676
 31
0.0
  0
LINE
  5
249
100
AcDbEntity
  8
L1_
  6
CONTINUOUS
 62
         7
100
AcDbLine
 10
-9879.7655485269
 20
11689.3578887676
 30
0.0
 11
-9868.0396364367
 21
11689.3578887676
 31
0.0
  0
LINE
  5
24A
100
AcDbEntity
  8
L1_
  6
CONTINUOUS
 62
         7
100
AcDbLine
 10
-9857.0655485269
 20
11696.8578887676
 30
0.0
 11
-9857.0655485269
 21
11696.2412109411
 31
0.0
  0
LINE
  5
24B
100
AcDbEntity
  8
L1_
  6
CONTINUOUS
 62
         7
100
AcDbLine
 10
-9857.0655485269
 20
11696.2412109411
 30
0.0
 11
-9853.0914606171
 21
11689.3578887676
 31
0.0
  0
ARC
  5
24C
100
AcDbEntity
  8
L1_
  6
CONTINUOUS
 62
         7
100
AcDbCircle
 10
-9881.3655485269
 20
11704.0599725017
 30
0.0
 40
0.6
100
AcDbArc
 50
0.0
 51
90.0
  0
LINE
  5
24D
100
AcDbEntity
  8
L1_
  6
CONTINUOUS
 62
         7
100
AcDbLine
 10
-9883.4487207578
 20
11704.3108916503
 30
0.0
 11
-9882.1459332846
 21
11704.6599725017
 31
0.0
  0
LINE
  5
24E
100
AcDbEntity
  8
L1_
  6
CONTINUOUS
 62
         7
100
AcDbLine
 10
-9853.0914606171
 20
11789.3578887676
 30
0.0
 11
-9846.7655485269
 21
11789.3578887676
 31
0.0
  0
LINE
  5
24F
100
AcDbEntity
  8
L1_
  6
CONTINUOUS
 62
         7
100
AcDbLine
 10
-9864.0655485269
 20
11781.8578887676
 30
0.0
 11
-9857.0655485269
 21
11781.8578887676
 31
0.0
  0
LINE
  5
250
100
AcDbEntity
  8
L1_
  6
CONTINUOUS
 62
         7
100
AcDbLine
 10
-9864.0655485269
 20
11782.4745665941
 30
0.0
 11
-9864.0655485269
 21
11781.8578887676
 31
0.0
  0
LINE
  5
251
100
AcDbEntity
  8
L1_
  6
CONTINUOUS
 62
         7
100
AcDbLine
 10
-9864.0655485269
 20
11782.4745665941
 30
0.0
 11
-9868.0396364367
 21
11789.3578887676
 31
0.0
  0
LINE
  5
252
100
AcDbEntity
  8
L1_
  6
CONTINUOUS
 62
         7
100
AcDbLine
 10
-9880.7655485269
 20
11788.3578887676
 30
0.0
 11
-9880.7655485269
 21
11774.6558050335
 31
0.0
  0
LINE
  5
253
100
AcDbEntity
  8
L1_
  6
CONTINUOUS
 62
         7
100
AcDbLine
 10
-9883.4487207578
 20
11774.4048858848
 30
0.0
 11
-9882.1459332846
 21
11774.0558050335
 31
0.0
  0
LINE
  5
254
100
AcDbEntity
  8
L1_
  6
CONTINUOUS
 62
         7
100
AcDbLine
 10
-9882.1459332846
 20
11774.0558050335
 30
0.0
 11
-9881.3655485269
 21
11774.0558050335
 31
0.0
  0
ARC
  5
255
100
AcDbEntity
  8
L1_
  6
CONTINUOUS
 62
         7
100
AcDbCircle
 10
-9881.3655485269
 20
11774.6558050335
 30
0.0
 40
0.6
100
AcDbArc
 50
270.0
 51
360.0
  0
LINE
  5
256
100
AcDbEntity
  8
L1_
  6
CONTINUOUS
 62
         7
100
AcDbLine
 10
-9879.7655485269
 20
11789.3578887676
 30
0.0
 11
-9868.0396364367
 21
11789.3578887676
 31
0.0
  0
LINE
  5
257
100
AcDbEntity
  8
L1_
  6
CONTINUOUS
 62
         7
100
AcDbLine
 10
-9857.0655485269
 20
11782.4745665941
 30
0.0
 11
-9857.0655485269
 21
11781.8578887676
 31
0.0
  0
LINE
  5
258
100
AcDbEntity
  8
L1_
  6
CONTINUOUS
 62
         7
100
AcDbLine
 10
-9857.0655485269
 20
11782.4745665941
 30
0.0
 11
-9853.0914606171
 21
11789.3578887676
 31
0.0
  0
LINE
  5
259
100
AcDbEntity
  8
L1_
  6
CONTINUOUS
 62
         7
100
AcDbLine
 10
-9864.0655485269
 20
11781.8578887676
 30
0.0
 11
-9857.0655485269
 21
11781.8578887676
 31
0.0
  0
LINE
  5
25A
100
AcDbEntity
  8
L1_
  6
CONTINUOUS
 62
         7
100
AcDbLine
 10
-9847.7655485269
 20
11789.3578887676
 30
0.0
 11
-9846.7655485269
 21
11789.3578887676
 31
0.0
  0
ARC
  5
25B
100
AcDbEntity
  8
L1_
  6
CONTINUOUS
 62
         7
100
AcDbCircle
 10
-9846.7655485269
 20
11788.3578887676
 30
0.0
 40
1.0
100
AcDbArc
 50
0.0
 51
90.0
  0
LINE
  5
25C
100
AcDbEntity
  8
L1_
  6
CONTINUOUS
 62
         7
100
AcDbLine
 10
-9845.7655485269
 20
11788.3578887676
 30
0.0
 11
-9845.7655485269
 21
11761.3578887676
 31
0.0
  0
LINE
  5
25D
100
AcDbEntity
  8
L1_
  6
CONTINUOUS
 62
         7
100
AcDbLine
 10
-9880.7655485269
 20
11788.3578887676
 30
0.0
 11
-9880.7655485269
 21
11787.3578887676
 31
0.0
  0
ARC
  5
25E
100
AcDbEntity
  8
L1_
  6
CONTINUOUS
 62
         7
100
AcDbCircle
 10
-9879.7655485269
 20
11788.3578887676
 30
0.0
 40
1.0
100
AcDbArc
 50
90.0
 51
180.0
  0
LINE
  5
25F
100
AcDbEntity
  8
L1_
  6
CONTINUOUS
 62
         7
100
AcDbLine
 10
-9879.7655485269
 20
11789.3578887676
 30
0.0
 11
-9878.7655485269
 21
11789.3578887676
 31
0.0
  0
ARC
  5
260
100
AcDbEntity
  8
L1_
  6
CONTINUOUS
 62
         7
100
AcDbCircle
 10
-9846.7655485269
 20
11690.3578887676
 30
0.0
 40
1.0
100
AcDbArc
 50
270.0
 51
360.0
  0
LINE
  5
261
100
AcDbEntity
  8
L1_
  6
CONTINUOUS
 62
         7
100
AcDbLine
 10
-9847.7655485269
 20
11689.3578887676
 30
0.0
 11
-9846.7655485269
 21
11689.3578887676
 31
0.0
  0
LINE
  5
262
100
AcDbEntity
  8
L1_
  6
CONTINUOUS
 62
         7
100
AcDbLine
 10
-9845.7655485269
 20
11717.3578887676
 30
0.0
 11
-9845.7655485269
 21
11690.3578887676
 31
0.0
  0
LINE
  5
263
100
AcDbEntity
  8
L1_
  6
CONTINUOUS
 62
         7
100
AcDbLine
 10
-9879.7655485269
 20
11689.3578887676
 30
0.0
 11
-9878.7655485269
 21
11689.3578887676
 31
0.0
  0
ARC
  5
264
100
AcDbEntity
  8
L1_
  6
CONTINUOUS
 62
         7
100
AcDbCircle
 10
-9879.7655485269
 20
11690.3578887676
 30
0.0
 40
1.0
100
AcDbArc
 50
180.0
 51
270.0
  0
LINE
  5
265
100
AcDbEntity
  8
L1_
  6
CONTINUOUS
 62
         7
100
AcDbLine
 10
-9880.7655485269
 20
11691.3578887676
 30
0.0
 11
-9880.7655485269
 21
11690.3578887676
 31
0.0
  0
LINE
  5
266
100
AcDbEntity
  8
L1_
  6
CONTINUOUS
 62
         7
100
AcDbLine
 10
-9838.7755485269
 20
11757.3578887676
 30
0.0
 11
-9838.7755485269
 21
11721.3578887676
 31
0.0
  0
LINE
  5
267
100
AcDbEntity
  8
L1_
  6
CENTER
 62
         1
100
AcDbLine
 10
-9940.6955485269
 20
11710.9218226321
 30
0.0
 11
-9940.6955485269
 21
11769.3673444372
 31
0.0
  0
LINE
  5
268
100
AcDbEntity
  8
L1_
  6
CENTER
 62
         1
100
AcDbLine
 10
-9921.3455485269
 20
11707.7304631044
 30
0.0
 11
-9921.3455485269
 21
11771.4196828041
 31
0.0
  0
LINE
  5
269
100
AcDbEntity
  8
L1_
  6
CONTINUOUS
 62
         7
100
AcDbLine
 10
-9906.7755485269
 20
11750.0636150949
 30
0.0
 11
-9906.7755485269
 21
11728.6521624403
 31
0.0
  0
LINE
  5
26A
100
AcDbEntity
  8
L1_
  6
CONTINUOUS
 62
         7
100
AcDbLine
 10
-9946.6455485269
 20
11764.1781548708
 30
0.0
 11
-9915.3955485269
 21
11768.7354214886
 31
0.0
  0
LINE
  5
26B
100
AcDbEntity
  8
L1_
  6
CONTINUOUS
 62
         7
100
AcDbLine
 10
-9945.7755485269
 20
11755.9725018568
 30
0.0
 11
-9915.3955485269
 21
11755.9725018568
 31
0.0
  0
LINE
  5
26C
100
AcDbEntity
  8
L1_
  6
CONTINUOUS
 62
         7
100
AcDbLine
 10
-9946.6455485269
 20
11755.9725018568
 30
0.0
 11
-9915.3955485269
 21
11755.9725018568
 31
0.0
  0
LINE
  5
26D
100
AcDbEntity
  8
L1_
  6
CONTINUOUS
 62
         7
100
AcDbLine
 10
-9944.6455485269
 20
11745.4078887676
 30
0.0
 11
-9922.7755485269
 21
11745.4078887676
 31
0.0
  0
LINE
  5
26E
100
AcDbEntity
  8
L1_
  6
CONTINUOUS
 62
         7
100
AcDbLine
 10
-9944.6455485269
 20
11733.3078887676
 30
0.0
 11
-9922.7755485269
 21
11733.3078887676
 31
0.0
  0
LINE
  5
26F
100
AcDbEntity
  8
L1_
  6
CONTINUOUS
 62
         7
100
AcDbLine
 10
-9946.6455485269
 20
11722.7432756784
 30
0.0
 11
-9915.3955485269
 21
11722.7432756784
 31
0.0
  0
LINE
  5
270
100
AcDbEntity
  8
L1_
  6
CONTINUOUS
 62
         7
100
AcDbLine
 10
-9946.6455485269
 20
11714.5376226643
 30
0.0
 11
-9915.3955485269
 21
11709.9803560465
 31
0.0
  0
LINE
  5
271
100
AcDbEntity
  8
L1_
  6
CONTINUOUS
 62
         7
100
AcDbLine
 10
-9946.6455485269
 20
11714.5376226643
 30
0.0
 11
-9947.7793877376
 21
11713.6923956864
 31
0.0
  0
LINE
  5
272
100
AcDbEntity
  8
L1_
  6
CONTINUOUS
 62
         7
100
AcDbLine
 10
-9914.550321549
 20
11708.8465168358
 30
0.0
 11
-9915.3955485269
 21
11709.9803560465
 31
0.0
  0
LINE
  5
273
100
AcDbEntity
  8
L1_
  6
CONTINUOUS
 62
         7
100
AcDbLine
 10
-9946.6455485269
 20
11764.1781548708
 30
0.0
 11
-9947.7793877376
 21
11765.0233818487
 31
0.0
  0
LINE
  5
274
100
AcDbEntity
  8
L1_
  6
CONTINUOUS
 62
         7
100
AcDbLine
 10
-9914.550321549
 20
11769.8692606994
 30
0.0
 11
-9915.3955485269
 21
11768.7354214886
 31
0.0
  0
LINE
  5
275
100
AcDbEntity
  8
L1_
  6
CONTINUOUS
 62
         7
100
AcDbLine
 10
-9922.7691619486
 20
11733.3078887676
 30
0.0
 11
-9922.7691619486
 21
11745.4078887676
 31
0.0
  0
LINE
  5
276
100
AcDbEntity
  8
L1_
  6
CONTINUOUS
 62
         7
100
AcDbLine
 10
-9906.7755485269
 20
11750.0636150949
 30
0.0
 11
-9917.3955485269
 21
11750.0636150949
 31
0.0
  0
LINE
  5
277
100
AcDbEntity
  8
L1_
  6
CONTINUOUS
 62
         7
100
AcDbLine
 10
-9906.7755485269
 20
11728.6521624403
 30
0.0
 11
-9917.3955485269
 21
11728.6521624403
 31
0.0
  0
LINE
  5
278
100
AcDbEntity
  8
L1_
  6
CONTINUOUS
 62
         7
100
AcDbLine
 10
-9917.3955485269
 20
11750.0636150949
 30
0.0
 11
-9917.3955485269
 21
11755.9725018568
 31
0.0
  0
LINE
  5
279
100
AcDbEntity
  8
L1_
  6
CONTINUOUS
 62
         7
100
AcDbLine
 10
-9917.3955485269
 20
11722.7432756784
 30
0.0
 11
-9917.3955485269
 21
11728.6521624403
 31
0.0
  0
LINE
  5
27A
100
AcDbEntity
  8
L1_
  6
CONTINUOUS
 62
         7
100
AcDbLine
 10
-9915.3955485269
 20
11709.9803560465
 30
0.0
 11
-9915.3955485269
 21
11722.7432756784
 31
0.0
  0
LINE
  5
27B
100
AcDbEntity
  8
L1_
  6
CONTINUOUS
 62
         7
100
AcDbLine
 10
-9944.6455485269
 20
11733.3078887676
 30
0.0
 11
-9944.6455485269
 21
11722.7432756784
 31
0.0
  0
LINE
  5
27C
100
AcDbEntity
  8
L1_
  6
CONTINUOUS
 62
         7
100
AcDbLine
 10
-9946.6455485269
 20
11722.7432756784
 30
0.0
 11
-9946.6455485269
 21
11714.5376226643
 31
0.0
  0
LINE
  5
27D
100
AcDbEntity
  8
L1_
  6
CONTINUOUS
 62
         7
100
AcDbLine
 10
-9946.6455485269
 20
11755.9725018568
 30
0.0
 11
-9946.6455485269
 21
11764.1781548708
 31
0.0
  0
LINE
  5
27E
100
AcDbEntity
  8
L1_
  6
CONTINUOUS
 62
         7
100
AcDbLine
 10
-9944.6455485269
 20
11745.4078887676
 30
0.0
 11
-9944.6455485269
 21
11755.9725018568
 31
0.0
  0
LINE
  5
27F
100
AcDbEntity
  8
L1_
  6
CONTINUOUS
 62
         7
100
AcDbLine
 10
-9915.3955485269
 20
11768.7354214886
 30
0.0
 11
-9915.3955485269
 21
11755.9725018568
 31
0.0
  0
LINE
  5
280
100
AcDbEntity
  8
L1_
  6
CONTINUOUS
 62
         7
100
AcDbLine
 10
-9917.3955485269
 20
11750.0636150949
 30
0.0
 11
-9921.7691619486
 21
11750.0636150949
 31
0.0
  0
ARC
  5
281
100
AcDbEntity
  8
L1_
  6
CONTINUOUS
 62
         7
100
AcDbCircle
 10
-9921.7691619486
 20
11749.0636150949
 30
0.0
 40
1.0
100
AcDbArc
 50
90.0
 51
180.0
  0
LINE
  5
282
100
AcDbEntity
  8
L1_
  6
CONTINUOUS
 62
         7
100
AcDbLine
 10
-9922.7691619486
 20
11745.4078887676
 30
0.0
 11
-9922.7691619486
 21
11749.0636150949
 31
0.0
  0
LINE
  5
283
100
AcDbEntity
  8
L1_
  6
CONTINUOUS
 62
         7
100
AcDbLine
 10
-9922.7691619486
 20
11729.6521624403
 30
0.0
 11
-9922.7691619486
 21
11733.3078887676
 31
0.0
  0
ARC
  5
284
100
AcDbEntity
  8
L1_
  6
CONTINUOUS
 62
         7
100
AcDbCircle
 10
-9921.7691619486
 20
11729.6521624403
 30
0.0
 40
1.0
100
AcDbArc
 50
180.0
 51
270.0
  0
LINE
  5
285
100
AcDbEntity
  8
L1_
  6
CONTINUOUS
 62
         7
100
AcDbLine
 10
-9917.3955485269
 20
11728.6521624403
 30
0.0
 11
-9921.7691619486
 21
11728.6521624403
 31
0.0
  0
DIMENSION
  5
288
100
AcDbEntity
  8
L1_
  6
CONTINUOUS
 62
         4
100
AcDbDimension
  2
*D5
 10
-9917.3955485269
 20
11660.0120181621
 30
0.0
 11
-9883.6405940901
 21
11662.6370181621
 31
0.0
  3
DIMSTYLE1
100
AcDbAlignedDimension
 13
-9917.3955485269
 23
11722.7432756784
 33
0.0
 14
-9838.7755485269
 24
11721.3578887676
 34
0.0
100
AcDbRotatedDimension
  0
LINE
  5
294
100
AcDbEntity
  8
L1_
  6
CENTER
 62
         1
100
AcDbLine
 10
-9980.216894924
 20
11739.3578887676
 30
0.0
 11
-9837.4747330684
 21
11739.3578887676
 31
0.0
  0
DIMENSION
  5
297
100
AcDbEntity
  8
L1_
  6
CONTINUOUS
 62
         4
100
AcDbDimension
  2
*D6
 10
-9922.7691619486
 20
11787.4521164345
 30
0.0
 11
-9917.9686487304
 21
11790.0771164345
 31
0.0
  3
DIMSTYLE1
100
AcDbAlignedDimension
 13
-9922.7691619486
 23
11748.9632166436
 33
0.0
 14
-9906.7755485269
 24
11749.9632166436
 34
0.0
100
AcDbRotatedDimension
  0
DIMENSION
  5
2A5
100
AcDbEntity
  8
L1_
  6
CONTINUOUS
 62
         4
100
AcDbDimension
  2
*D7
 10
-9922.7691619486
 20
11805.4014260504
 30
0.0
 11
-9883.4162277199
 21
11808.0264260504
 31
0.0
  3
DIMSTYLE1
100
AcDbAlignedDimension
 13
-9922.7691619486
 23
11748.9632166436
 33
0.0
 14
-9838.7755485269
 24
11757.3578887676
 34
0.0
100
AcDbRotatedDimension
  0
LINE
  5
2B1
100
AcDbEntity
  8
L1_
  6
CONTINUOUS
 62
         7
100
AcDbLine
 10
-9878.4089644007
 20
11751.6078887676
 30
0.0
 11
-9878.4089644007
 21
11727.1078887676
 31
0.0
  0
LINE
  5
2B2
100
AcDbEntity
  8
L1_
  6
CONTINUOUS
 62
         7
100
AcDbLine
 10
-9870.8911365247
 20
11751.6078887676
 30
0.0
 11
-9870.8911365247
 21
11727.1078887676
 31
0.0
  0
LINE
  5
2B3
100
AcDbEntity
  8
L1_
  6
CONTINUOUS
 62
         7
100
AcDbLine
 10
-9869.7755485269
 20
11728.2234767654
 30
0.0
 11
-9869.7755485269
 21
11739.3578887676
 31
0.0
  0
LINE
  5
2B4
100
AcDbEntity
  8
L1_
  6
CONTINUOUS
 62
         7
100
AcDbLine
 10
-9879.7755485269
 20
11728.4744728938
 30
0.0
 11
-9879.7755485269
 21
11739.3578887676
 31
0.0
  0
LINE
  5
2B5
100
AcDbEntity
  8
L1_
  6
CONTINUOUS
 62
         7
100
AcDbLine
 10
-9879.7755485269
 20
11728.4744728938
 30
0.0
 11
-9878.4089644007
 21
11727.1078887676
 31
0.0
  0
LINE
  5
2B6
100
AcDbEntity
  8
L1_
  6
CONTINUOUS
 62
         7
100
AcDbLine
 10
-9878.4089644007
 20
11727.1078887676
 30
0.0
 11
-9870.8911365247
 21
11727.1078887676
 31
0.0
  0
LINE
  5
2B7
100
AcDbEntity
  8
L1_
  6
CONTINUOUS
 62
         7
100
AcDbLine
 10
-9870.8911365247
 20
11727.1078887676
 30
0.0
 11
-9869.7755485269
 21
11728.2234767654
 31
0.0
  0
LINE
  5
2B8
100
AcDbEntity
  8
L1_
  6
CONTINUOUS
 62
         7
100
AcDbLine
 10
-9879.7755485269
 20
11750.2413046414
 30
0.0
 11
-9878.4089644007
 21
11751.6078887676
 31
0.0
  0
LINE
  5
2B9
100
AcDbEntity
  8
L1_
  6
CONTINUOUS
 62
         7
100
AcDbLine
 10
-9879.7755485269
 20
11750.2413046414
 30
0.0
 11
-9879.7755485269
 21
11739.3578887676
 31
0.0
  0
LINE
  5
2BA
100
AcDbEntity
  8
L1_
  6
CONTINUOUS
 62
         7
100
AcDbLine
 10
-9878.4089644007
 20
11751.6078887676
 30
0.0
 11
-9870.8911365247
 21
11751.6078887676
 31
0.0
  0
LINE
  5
2BB
100
AcDbEntity
  8
L1_
  6
CONTINUOUS
 62
         7
100
AcDbLine
 10
-9869.7755485269
 20
11750.4923007697
 30
0.0
 11
-9869.7755485269
 21
11739.3578887676
 31
0.0
  0
LINE
  5
2BC
100
AcDbEntity
  8
L1_
  6
CONTINUOUS
 62
         7
100
AcDbLine
 10
-9870.8911365247
 20
11751.6078887676
 30
0.0
 11
-9869.7755485269
 21
11750.4923007697
 31
0.0
  0
LINE
  5
2BD
100
AcDbEntity
  8
L1_
  6
CONTINUOUS
 62
         7
100
AcDbLine
 10
-9840.2379109614
 20
11751.2336840367
 30
0.0
 11
-9869.7755485269
 21
11750.4923007697
 31
0.0
  0
LINE
  5
2BE
100
AcDbEntity
  8
L1_
  6
CONTINUOUS
 62
         7
100
AcDbLine
 10
-9840.2379109614
 20
11727.4820934985
 30
0.0
 11
-9869.7755485269
 21
11728.2234767654
 31
0.0
  0
ARC
  5
2BF
100
AcDbEntity
  8
L1_
  6
CONTINUOUS
 62
         7
100
AcDbCircle
 10
-9840.2755485269
 20
11752.7332117669
 30
0.0
 40
1.5
100
AcDbArc
 50
271.4378
 51
360.0
  0
ARC
  5
2C0
100
AcDbEntity
  8
L1_
  6
CONTINUOUS
 62
         7
100
AcDbCircle
 10
-9840.2755485269
 20
11725.9825657683
 30
0.0
 40
1.5
100
AcDbArc
 50
0.0
 51
88.5622
  0
LINE
  5
2C1
100
AcDbEntity
  8
L1_
  6
CONTINUOUS
 62
         7
100
AcDbLine
 10
-9879.7755485269
 20
11728.4744728938
 30
0.0
 11
-9906.7755485269
 21
11729.1521624403
 31
0.0
  0
LINE
  5
2C2
100
AcDbEntity
  8
L1_
  6
CONTINUOUS
 62
         7
100
AcDbLine
 10
-9879.7755485269
 20
11750.2413046414
 30
0.0
 11
-9906.7755485269
 21
11749.5636150949
 31
0.0
  0
DIMENSION
  5
2C5
100
AcDbEntity
  8
L1_
  6
CONTINUOUS
 62
         4
100
AcDbDimension
  2
*D8
 10
-9879.7755485269
 20
11671.0059703018
 30
0.0
 11
-9868.9669181041
 21
11673.6309703018
 31
0.0
  3
DIMSTYLE1
100
AcDbAlignedDimension
 13
-9879.7755485269
 23
11727.1078887676
 33
0.0
 14
-9838.7755485269
 24
11721.3578887676
 34
0.0
100
AcDbRotatedDimension
  0
DIMENSION
  5
2D3
100
AcDbEntity
  8
L1_
  6
CONTINUOUS
 62
         4
100
AcDbDimension
  2
*D9
 10
-9869.7755485269
 20
11680.4293578501
 30
0.0
 11
-9866.2745216617
 21
11683.0543578501
 31
0.0
  3
DIMSTYLE1
100
AcDbAlignedDimension
 13
-9869.7755485269
 23
11727.1078887676
 33
0.0
 14
-9838.7755485269
 24
11721.3578887676
 34
0.0
100
AcDbRotatedDimension
  0
DIMENSION
  5
2E1
100
AcDbEntity
  8
L1_
  6
CONTINUOUS
 62
         4
100
AcDbDimension
  2
*D10
 10
-9814.5262271873
 20
11751.6078887676
 30
0.0
 11
-9817.1512271873
 21
11727.3337093239
 31
0.0
  3
DIMSTYLE1
100
AcDbAlignedDimension
 13
-9869.7755485269
 23
11751.6078887676
 33
0.0
 14
-9869.7755485269
 24
11727.1078887676
 34
0.0
 50
90.0
100
AcDbRotatedDimension
  0
LINE
  5
2ED
100
AcDbEntity
  8
L1_
  6
CENTER
 62
         1
100
AcDbLine
 10
-9980.216894924
 20
11739.3578887676
 30
0.0
 11
-9833.715611583
 21
11739.3578887676
 31
0.0
  0
LINE
  5
2EE
100
AcDbEntity
  8
L1_
  6
CONTINUOUS
 62
         7
100
AcDbLine
 10
-9843.7655485269
 20
11759.3578887676
 30
0.0
 11
-9840.7755485269
 21
11759.3578887676
 31
0.0
  0
LINE
  5
2EF
100
AcDbEntity
  8
L1_
  6
CONTINUOUS
 62
         7
100
AcDbLine
 10
-9843.7655485269
 20
11719.3578887676
 30
0.0
 11
-9840.7755485269
 21
11719.3578887676
 31
0.0
  0
LINE
  5
2F0
100
AcDbEntity
  8
L1_
  6
CONTINUOUS
 62
         7
100
AcDbLine
 10
-9838.7755485269
 20
11757.3578887676
 30
0.0
 11
-9838.7755485269
 21
11721.3578887676
 31
0.0
  0
ARC
  5
2F1
100
AcDbEntity
  8
L1_
  6
CONTINUOUS
 62
         7
100
AcDbCircle
 10
-9840.7755485269
 20
11757.3578887676
 30
0.0
 40
2.0
100
AcDbArc
 50
0.0
 51
90.0
  0
ARC
  5
2F2
100
AcDbEntity
  8
L1_
  6
CONTINUOUS
 62
         7
100
AcDbCircle
 10
-9840.7755485269
 20
11721.3578887676
 30
0.0
 40
2.0
100
AcDbArc
 50
270.0
 51
360.0
  0
DIMENSION
  5
2F5
100
AcDbEntity
  8
L1_
  6
CONTINUOUS
 62
         4
100
AcDbDimension
  2
*D11
 10
-9908.9718168794
 20
11728.6521624403
 30
0.0
 11
-9911.5968168794
 21
11679.7340816965
 31
0.0
  3
DIMSTYLE1
100
AcDbAlignedDimension
 13
-9906.7755485269
 23
11728.6521624403
 33
0.0
 14
-9906.7755485269
 24
11750.0636150949
 34
0.0
 50
90.0
100
AcDbRotatedDimension
  0
ARC
  5
302
100
AcDbEntity
  8
L1_
  6
CONTINUOUS
 62
         7
100
AcDbCircle
 10
-9843.7655485269
 20
11761.3578887676
 30
0.0
 40
2.0
100
AcDbArc
 50
180.0
 51
270.0
  0
ARC
  5
303
100
AcDbEntity
  8
L1_
  6
CONTINUOUS
 62
         7
100
AcDbCircle
 10
-9843.7655485269
 20
11717.3578887676
 30
0.0
 40
2.0
100
AcDbArc
 50
90.0
 51
180.0
  0
INSERT
  5
35B
100
AcDbEntity
  8
0
  6
CONTINUOUS
100
AcDbBlockReference
  2
*X12
 10
0.0
 20
0.0
 30
0.0
  0
LINE
  5
35C
100
AcDbEntity
  8
L1_
  6
CONTINUOUS
 62
         7
100
AcDbLine
 10
-9935.5705485269
 20
11745.4078887676
 30
0.0
 11
-9935.5705485269
 21
11733.3078887676
 31
0.0
  0
TEXT
  5
35E
100
AcDbEntity
  8
L1_
  6
CONTINUOUS
 62
         2
100
AcDbText
 10
-9608.2434111871
 20
12052.5361564981
 30
0.0
 40
4.5
  1
532243
 41
0.98
  7
BOX
100
AcDbText
  0
ENDSEC
  0
SECTION
  2
OBJECTS
  0
DICTIONARY
  5
19
100
AcDbDictionary
  3
ACAD_GROUP
350
1A
  3
ACAD_MLINESTYLE
350
1B
  0
DICTIONARY
  5
1A
102
{ACAD_REACTORS
330
19
102
}
100
AcDbDictionary
  0
DICTIONARY
  5
1B
102
{ACAD_REACTORS
330
19
102
}
100
AcDbDictionary
  3
STANDARD
350
1C
  0
MLINESTYLE
  5
1C
102
{ACAD_REACTORS
330
1B
102
}
100
AcDbMlineStyle
  2
STANDARD
 70
         0
  3

 62
         0
 51
90.0
 52
90.0
 71
         2
 49
0.5
 62
       256
  6
BYLAYER
 49
-0.5
 62
       256
  6
BYLAYER
  0
ENDSEC
  0
EOF
