  0
SECTION
  2
HEADER
  9
$ACADVER
  1
AC1014
  9
$ACADMAINTVER
 70
         0
  9
$DWGCODEPAGE
  3
BIG5
  9
$INSBASE
 10
0.0
 20
0.0
 30
0.0
  9
$EXTMIN
 10
1099.1224229645
 20
-147.942764234
 30
0.0
  9
$EXTMAX
 10
1880.5098559722
 20
246.0085430133
 30
0.0
  9
$LIMMIN
 10
0.0
 20
0.0
  9
$LIMMAX
 10
0.0
 20
0.0
  9
$ORTHOMODE
 70
         0
  9
$REGENMODE
 70
         1
  9
$FILLMODE
 70
         1
  9
$QTEXTMODE
 70
         0
  9
$MIRRTEXT
 70
         1
  9
$DRAGMODE
 70
         2
  9
$LTSCALE
 40
1.0
  9
$OSMODE
 70
         0
  9
$ATTMODE
 70
         1
  9
$TEXTSIZE
 40
1.7
  9
$TRACEWID
 40
0.05
  9
$TEXTSTYLE
  7
STANDARD
  9
$CLAYER
  8
0
  9
$CELTYPE
  6
CONTINUOUS
  9
$CECOLOR
 62
         4
  9
$CELTSCALE
 40
1.0
  9
$DELOBJ
 70
         1
  9
$DISPSILH
 70
         0
  9
$DIMSCALE
 40
1.0
  9
$DIMASZ
 40
0.18
  9
$DIMEXO
 40
0.0625
  9
$DIMDLI
 40
0.38
  9
$DIMRND
 40
0.0
  9
$DIMDLE
 40
0.0
  9
$DIMEXE
 40
0.25
  9
$DIMTP
 40
0.01
  9
$DIMTM
 40
-0.01
  9
$DIMTXT
 40
2.7
  9
$DIMCEN
 40
0.09
  9
$DIMTSZ
 40
0.0
  9
$DIMTOL
 70
         0
  9
$DIMLIM
 70
         0
  9
$DIMTIH
 70
         1
  9
$DIMTOH
 70
         1
  9
$DIMSE1
 70
         0
  9
$DIMSE2
 70
         0
  9
$DIMTAD
 70
         0
  9
$DIMZIN
 70
         0
  9
$DIMBLK
  1

  9
$DIMASO
 70
         1
  9
$DIMSHO
 70
         1
  9
$DIMPOST
  1

  9
$DIMAPOST
  1

  9
$DIMALT
 70
         0
  9
$DIMALTD
 70
         2
  9
$DIMALTF
 40
25.4
  9
$DIMLFAC
 40
1.0
  9
$DIMTOFL
 70
         0
  9
$DIMTVP
 40
0.0
  9
$DIMTIX
 70
         0
  9
$DIMSOXD
 70
         0
  9
$DIMSAH
 70
         0
  9
$DIMBLK1
  1

  9
$DIMBLK2
  1

  9
$DIMSTYLE
  2
STANDARD
  9
$DIMCLRD
 70
         0
  9
$DIMCLRE
 70
         0
  9
$DIMCLRT
 70
         4
  9
$DIMTFAC
 40
1.0
  9
$DIMGAP
 40
0.09
  9
$DIMJUST
 70
         0
  9
$DIMSD1
 70
         0
  9
$DIMSD2
 70
         0
  9
$DIMTOLJ
 70
         1
  9
$DIMTZIN
 70
         0
  9
$DIMALTZ
 70
         0
  9
$DIMALTTZ
 70
         0
  9
$DIMFIT
 70
         3
  9
$DIMUPT
 70
         0
  9
$DIMUNIT
 70
         2
  9
$DIMDEC
 70
         4
  9
$DIMTDEC
 70
         4
  9
$DIMALTU
 70
         2
  9
$DIMALTTD
 70
         2
  9
$DIMTXSTY
  7
STANDARD
  9
$DIMAUNIT
 70
         0
  9
$LUNITS
 70
         2
  9
$LUPREC
 70
        10
  9
$SKETCHINC
 40
0.1
  9
$FILLETRAD
 40
0.0
  9
$AUNITS
 70
         0
  9
$AUPREC
 70
         0
  9
$MENU
  1
acad
  9
$ELEVATION
 40
0.0
  9
$PELEVATION
 40
0.0
  9
$THICKNESS
 40
0.0
  9
$LIMCHECK
 70
         0
  9
$BLIPMODE
 70
         1
  9
$CHAMFERA
 40
0.0
  9
$CHAMFERB
 40
0.0
  9
$CHAMFERC
 40
0.0
  9
$CHAMFERD
 40
0.0
  9
$SKPOLY
 70
         0
  9
$TDCREATE
 40
0.000000000
  9
$TDUPDATE
 40
0.000000000
  9
$TDINDWG
 40
0.0000000000
  9
$TDUSRTIMER
 40
0.0000000000
  9
$USRTIMER
 70
         1
  9
$ANGBASE
 50
0.0
  9
$ANGDIR
 70
         0
  9
$PDMODE
 70
         2
  9
$PDSIZE
 40
0.0
  9
$PLINEWID
 40
0.0
  9
$COORDS
 70
         1
  9
$SPLFRAME
 70
         0
  9
$SPLINETYPE
 70
         6
  9
$SPLINESEGS
 70
         8
  9
$ATTDIA
 70
         0
  9
$ATTREQ
 70
         1
  9
$HANDLING
 70
         1
  9
$HANDSEED
  5
630
  9
$SURFTAB1
 70
         6
  9
$SURFTAB2
 70
         6
  9
$SURFTYPE
 70
         6
  9
$SURFU
 70
         6
  9
$SURFV
 70
         6
  9
$UCSNAME
  2

  9
$UCSORG
 10
0.0
 20
0.0
 30
0.0
  9
$UCSXDIR
 10
1.0
 20
0.0
 30
0.0
  9
$UCSYDIR
 10
0.0
 20
1.0
 30
0.0
  9
$PUCSNAME
  2

  9
$PUCSORG
 10
0.0
 20
0.0
 30
0.0
  9
$PUCSXDIR
 10
1.0
 20
0.0
 30
0.0
  9
$PUCSYDIR
 10
0.0
 20
1.0
 30
0.0
  9
$USERI1
 70
         0
  9
$USERI2
 70
         0
  9
$USERI3
 70
         0
  9
$USERI4
 70
         0
  9
$USERI5
 70
         0
  9
$USERR1
 40
0.0
  9
$USERR2
 40
0.0
  9
$USERR3
 40
0.0
  9
$USERR4
 40
0.0
  9
$USERR5
 40
0.0
  9
$WORLDVIEW
 70
         1
  9
$SHADEDGE
 70
         3
  9
$SHADEDIF
 70
        70
  9
$TILEMODE
 70
         1
  9
$MAXACTVP
 70
        16
  9
$PINSBASE
 10
0.0
 20
0.0
 30
0.0
  9
$PLIMCHECK
 70
         0
  9
$PEXTMIN
 10
1.0000000000E+20
 20
1.0000000000E+20
 30
1.0000000000E+20
  9
$PEXTMAX
 10
-1.0000000000E+20
 20
-1.0000000000E+20
 30
-1.0000000000E+20
  9
$PLIMMIN
 10
0.0
 20
0.0
  9
$PLIMMAX
 10
12.0
 20
9.0
  9
$UNITMODE
 70
         0
  9
$VISRETAIN
 70
         0
  9
$PLINEGEN
 70
         1
  9
$PSLTSCALE
 70
         0
  9
$TREEDEPTH
 70
      3020
  9
$PICKSTYLE
 70
         1
  9
$CMLSTYLE
  2
STANDARD
  9
$CMLJUST
 70
         0
  9
$CMLSCALE
 40
1.0
  9
$PROXYGRAPHICS
 70
         0
  9
$MEASUREMENT
 70
         0
  0
ENDSEC
  0
SECTION
  2
CLASSES
  0
CLASS
  1
LWPOLYLINE
  2
AcDbPolyline
  3
"AutoCAD"
 90
        0
280
         0
281
         1
  0
CLASS
  1
IMAGE
  2
AcDbRasterImage
  3
ISM
 90
      127
280
         0
281
         1
  0
CLASS
  1
OLE2FRAME
  2
AcDbOle2Frame
  3
""
 90
        0
280
         0
281
         1
  0
CLASS
  1
HATCH
  2
AcDbHatch
  3
"ACAD_SEDONA"
 90
        0
280
         0
281
         1
  0
CLASS
  1
DICTIONARYVAR
  2
AcDbDictionaryVar
  3
"AutoCAD"
 90
        0
280
         0
281
         0
  0
CLASS
  1
RASTERVARIABLES
  2
AcDbRasterVariables
  3
ISM
 90
        0
280
         0
281
         0
  0
CLASS
  1
IMAGEDEF
  2
AcDbRasterImageDef
  3
ISM
 90
        0
280
         0
281
         0
  0
CLASS
  1
IMAGEDEF_REACTOR
  2
AcDbRasterImageDefReactor
  3
ISM
 90
        1
280
         0
281
         0
  0
CLASS
  1
IDBUFFER
  2
AcDbIdBuffer
  3
"Acad"
 90
        0
280
         0
281
         0
  0
CLASS
  1
SPATIAL_FILTER
  2
AcDbSpatialFilter
  3
"Acad"
 90
        0
280
         0
281
         0
  0
CLASS
  1
XRECORD
  2
AcDbXrecord
  3
"<Built In>"
 90
        0
280
         0
281
         0
  0
CLASS
  1
SORTENTSTABLE
  2
AcDbSortentsTable
  3
"AutoCAD"
 90
        0
280
         0
281
         0
  0
CLASS
  1
LAYER_INDEX
  2
AcDbLayerIndex
  3
"Acad"
 90
        0
280
         0
281
         0
  0
CLASS
  1
SPATIAL_INDEX
  2
AcDbSpatialIndex
  3
"Acad"
 90
        0
280
         0
281
         0
  0
CLASS
  1
OBJECT_PTR
  2
CAseDLPNTableRecord
  3
"ASE-LPNTableRecord"
 90
        1
280
         0
281
         0
  0
CLASS
  1
LAYOUT
  2
AcDbLayout
  3
"AutoCAD 2000"
 90
        1
280
         0
281
         0
  0
CLASS
  1
PLOTSETTINGS
  2
AcDbPlotSettings
  3
"AutoCAD 2000"
 90
        1
280
         0
281
         0
  0
CLASS
  1
ACDBDICTIONARYWDFLT
  2
AcDbDictionaryWithDefault
  3
"AutoCAD 2000"
 90
        1
280
         0
281
         0
  0
CLASS
  1
ACDBPLACEHOLDER
  2
AcDbPlaceHolder
  3
"AutoCAD 2000"
 90
        1
280
         0
281
         0
  0
CLASS
  1
VBA_PROJECT
  2
AcDbVbaProject
  3
"acadvba"
 90
        1
280
         0
281
         0
  0
CLASS
  1
WIPEOUT
  2
AcDbWipeout
  3
WipeOut|AutoCAD Express Tool|expresstools@autodesk.com
 90
      127
280
         0
281
         1
  0
CLASS
  1
WIPEOUTVARIABLES
  2
AcDbWipeoutVariables
  3
WipeOut|AutoCAD Express Tool|expresstools@autodesk.com
 90
        0
280
         0
281
         0
  0
CLASS
  1
RTEXT
  2
RText
  3
RText|AutoCAD Express Tool|expresstools@autodesk.com
 90
        0
280
         0
281
         1
  0
CLASS
  1
ARCALIGNEDTEXT
  2
AcDbArcAlignedText
  3
ATEXT|AutoCAD Express Tool|expresstools@autodesk.com
 90
        0
280
         0
281
         1
  0
ENDSEC
  0
SECTION
  2
TABLES
  0
TABLE
  2
VPORT
  5
7
100
AcDbSymbolTable
 70
         1
  0
VPORT
  5
15
100
AcDbSymbolTableRecord
100
AcDbViewportTableRecord
  2
*ACTIVE
 70
         0
 10
0.0
 20
0.0
 11
1.0
 21
1.0
 12
1489.8161394684
 22
49.0328893896
 13
0.0
 23
0.0
 14
1.0
 24
1.0
 15
0.0
 25
0.0
 16
0.0
 26
0.0
 36
1.0
 17
0.0
 27
0.0
 37
0.0
 40
393.9513072473
 41
1.9834619625
 42
50.0
 43
0.0
 44
0.0
 50
0.0
 51
0.0
 71
         0
 72
       100
 73
         1
 74
         1
 75
         0
 76
         0
 77
         0
 78
         0
  0
ENDTAB
  0
TABLE
  2
LTYPE
  5
4
100
AcDbSymbolTable
 70
         6
  0
LTYPE
  5
11
100
AcDbSymbolTableRecord
100
AcDbLinetypeTableRecord
  2
BYBLOCK
 70
        64
  3

 72
        65
 73
         0
 40
0.0
  0
LTYPE
  5
12
100
AcDbSymbolTableRecord
100
AcDbLinetypeTableRecord
  2
BYLAYER
 70
        64
  3

 72
        65
 73
         0
 40
0.0
  0
LTYPE
  5
13
100
AcDbSymbolTableRecord
100
AcDbLinetypeTableRecord
  2
CONTINUOUS
 70
        64
  3
Solid line
 72
        65
 73
         0
 40
0.0
  0
LTYPE
  5
1D
100
AcDbSymbolTableRecord
100
AcDbLinetypeTableRecord
  2
DASHED
 70
        64
  3
_ _ _ _ _ _ _ _ _ _ _ _ _ _ _ _
 72
        65
 73
         2
 40
0.2
 49
0.1
 74
         0
 49
-0.1
 74
         0
  0
LTYPE
  5
1E
100
AcDbSymbolTableRecord
100
AcDbLinetypeTableRecord
  2
CENTER
 70
        64
  3
___ _ ___ _ ___ _ ___ _ ___ _ ___ _ ___ _ ___ _
 72
        65
 73
         4
 40
0.95
 49
0.625
 74
         0
 49
-0.125
 74
         0
 49
0.075
 74
         0
 49
-0.125
 74
         0
  0
LTYPE
  5
1F
100
AcDbSymbolTableRecord
100
AcDbLinetypeTableRecord
  2
PHANTOM
 70
        64
  3
______  __  __  ______  __  __  ______  __  __  
 72
        65
 73
         6
 40
1.025
 49
0.625
 74
         0
 49
-0.125
 74
         0
 49
0.075
 74
         0
 49
-0.125
 74
         0
 49
0.075
 74
         0
 49
-0.125
 74
         0
  0
ENDTAB
  0
TABLE
  2
LAYER
  5
2
100
AcDbSymbolTable
 70
         5
  0
LAYER
  5
14
100
AcDbSymbolTableRecord
100
AcDbLayerTableRecord
  2
0
 70
         0
 62
         7
  6
CONTINUOUS
  0
LAYER
  5
21
100
AcDbSymbolTableRecord
100
AcDbLayerTableRecord
  2
_____U
 70
         1
 62
         7
  6
CONTINUOUS
  0
LAYER
  5
22
100
AcDbSymbolTableRecord
100
AcDbLayerTableRecord
  2
_Y__________
 70
         0
 62
         7
  6
CONTINUOUS
  0
LAYER
  5
23
100
AcDbSymbolTableRecord
100
AcDbLayerTableRecord
  2
L1_115
 70
         0
 62
         7
  6
CONTINUOUS
  0
LAYER
  5
77
100
AcDbSymbolTableRecord
100
AcDbLayerTableRecord
  2
DEFPOINTS
 70
         0
 62
        -7
  6
CONTINUOUS
  0
ENDTAB
  0
TABLE
  2
STYLE
  5
3
100
AcDbSymbolTable
 70
        35
  0
STYLE
  5
17
100
AcDbSymbolTableRecord
100
AcDbTextStyleTableRecord
  2
STANDARD
 70
         0
 40
0.0
 41
1.0
 50
0.0
 71
         0
 42
0.0
  3
txt
  4

  0
STYLE
  5
80
100
AcDbSymbolTableRecord
100
AcDbTextStyleTableRecord
  2
BOX
 70
         0
 40
1.0
 41
1.0
 50
0.0
 71
         0
 42
0.2
  3
txt.shx
  4

  0
STYLE
  5
163
100
AcDbSymbolTableRecord
100
AcDbTextStyleTableRecord
  2
BOX
 70
         0
 40
1.0
 41
1.0
 50
0.0
 71
         0
 42
0.2
  3
txt.shx
  4

  0
STYLE
  5
174
100
AcDbSymbolTableRecord
100
AcDbTextStyleTableRecord
  2
BOX
 70
         0
 40
1.0
 41
1.0
 50
0.0
 71
         0
 42
0.2
  3
txt.shx
  4

  0
STYLE
  5
182
100
AcDbSymbolTableRecord
100
AcDbTextStyleTableRecord
  2
BOX
 70
         0
 40
1.0
 41
1.0
 50
0.0
 71
         0
 42
0.2
  3
txt.shx
  4

  0
STYLE
  5
1A9
100
AcDbSymbolTableRecord
100
AcDbTextStyleTableRecord
  2
BOX
 70
         0
 40
1.0
 41
1.0
 50
0.0
 71
         0
 42
0.2
  3
txt.shx
  4

  0
STYLE
  5
1C6
100
AcDbSymbolTableRecord
100
AcDbTextStyleTableRecord
  2
BOX
 70
         0
 40
1.0
 41
1.0
 50
0.0
 71
         0
 42
0.2
  3
txt.shx
  4

  0
STYLE
  5
1D4
100
AcDbSymbolTableRecord
100
AcDbTextStyleTableRecord
  2
BOX
 70
         0
 40
1.0
 41
1.0
 50
0.0
 71
         0
 42
0.2
  3
txt.shx
  4

  0
STYLE
  5
1E2
100
AcDbSymbolTableRecord
100
AcDbTextStyleTableRecord
  2
BOX
 70
         0
 40
1.0
 41
1.0
 50
0.0
 71
         0
 42
0.2
  3
txt.shx
  4

  0
STYLE
  5
1F0
100
AcDbSymbolTableRecord
100
AcDbTextStyleTableRecord
  2
BOX
 70
         0
 40
1.0
 41
1.0
 50
0.0
 71
         0
 42
0.2
  3
txt.shx
  4

  0
STYLE
  5
25E
100
AcDbSymbolTableRecord
100
AcDbTextStyleTableRecord
  2
BOX
 70
         0
 40
1.0
 41
1.0
 50
0.0
 71
         0
 42
0.2
  3
txt.shx
  4

  0
STYLE
  5
26C
100
AcDbSymbolTableRecord
100
AcDbTextStyleTableRecord
  2
BOX
 70
         0
 40
1.0
 41
1.0
 50
0.0
 71
         0
 42
0.2
  3
txt.shx
  4

  0
STYLE
  5
27A
100
AcDbSymbolTableRecord
100
AcDbTextStyleTableRecord
  2
BOX
 70
         0
 40
1.0
 41
1.0
 50
0.0
 71
         0
 42
0.2
  3
txt.shx
  4

  0
STYLE
  5
2A4
100
AcDbSymbolTableRecord
100
AcDbTextStyleTableRecord
  2
BOX
 70
         0
 40
1.0
 41
1.0
 50
0.0
 71
         0
 42
0.2
  3
txt.shx
  4

  0
STYLE
  5
2B0
100
AcDbSymbolTableRecord
100
AcDbTextStyleTableRecord
  2
BOX
 70
         0
 40
1.0
 41
1.0
 50
0.0
 71
         0
 42
0.2
  3
txt.shx
  4

  0
STYLE
  5
2BB
100
AcDbSymbolTableRecord
100
AcDbTextStyleTableRecord
  2
BOX
 70
         0
 40
1.0
 41
1.0
 50
0.0
 71
         0
 42
0.2
  3
txt.shx
  4

  0
STYLE
  5
2CD
100
AcDbSymbolTableRecord
100
AcDbTextStyleTableRecord
  2
BOX
 70
         0
 40
1.0
 41
1.0
 50
0.0
 71
         0
 42
0.2
  3
txt.shx
  4

  0
STYLE
  5
2DB
100
AcDbSymbolTableRecord
100
AcDbTextStyleTableRecord
  2
BOX
 70
         0
 40
1.0
 41
1.0
 50
0.0
 71
         0
 42
0.2
  3
txt.shx
  4

  0
STYLE
  5
2E9
100
AcDbSymbolTableRecord
100
AcDbTextStyleTableRecord
  2
BOX
 70
         0
 40
1.0
 41
1.0
 50
0.0
 71
         0
 42
0.2
  3
txt.shx
  4

  0
STYLE
  5
309
100
AcDbSymbolTableRecord
100
AcDbTextStyleTableRecord
  2
BOX
 70
         0
 40
1.0
 41
1.0
 50
0.0
 71
         0
 42
0.2
  3
txt.shx
  4

  0
STYLE
  5
317
100
AcDbSymbolTableRecord
100
AcDbTextStyleTableRecord
  2
BOX
 70
         0
 40
1.0
 41
1.0
 50
0.0
 71
         0
 42
0.2
  3
txt.shx
  4

  0
STYLE
  5
57E
100
AcDbSymbolTableRecord
100
AcDbTextStyleTableRecord
  2
BOX
 70
         0
 40
1.0
 41
1.0
 50
0.0
 71
         0
 42
0.2
  3
txt.shx
  4

  0
STYLE
  5
58C
100
AcDbSymbolTableRecord
100
AcDbTextStyleTableRecord
  2
BOX
 70
         0
 40
1.0
 41
1.0
 50
0.0
 71
         0
 42
0.2
  3
txt.shx
  4

  0
STYLE
  5
59B
100
AcDbSymbolTableRecord
100
AcDbTextStyleTableRecord
  2
BOX
 70
         0
 40
1.0
 41
1.0
 50
0.0
 71
         0
 42
0.2
  3
txt.shx
  4

  0
STYLE
  5
5A9
100
AcDbSymbolTableRecord
100
AcDbTextStyleTableRecord
  2
BOX
 70
         0
 40
1.0
 41
1.0
 50
0.0
 71
         0
 42
0.2
  3
txt.shx
  4

  0
STYLE
  5
5B7
100
AcDbSymbolTableRecord
100
AcDbTextStyleTableRecord
  2
BOX
 70
         0
 40
1.0
 41
1.0
 50
0.0
 71
         0
 42
0.2
  3
txt.shx
  4

  0
STYLE
  5
5C5
100
AcDbSymbolTableRecord
100
AcDbTextStyleTableRecord
  2
BOX
 70
         0
 40
1.0
 41
1.0
 50
0.0
 71
         0
 42
0.2
  3
txt.shx
  4

  0
STYLE
  5
5D4
100
AcDbSymbolTableRecord
100
AcDbTextStyleTableRecord
  2
BOX
 70
         0
 40
1.0
 41
1.0
 50
0.0
 71
         0
 42
0.2
  3
txt.shx
  4

  0
STYLE
  5
5E2
100
AcDbSymbolTableRecord
100
AcDbTextStyleTableRecord
  2
BOX
 70
         0
 40
1.0
 41
1.0
 50
0.0
 71
         0
 42
0.2
  3
txt.shx
  4

  0
STYLE
  5
5F0
100
AcDbSymbolTableRecord
100
AcDbTextStyleTableRecord
  2
BOX
 70
         0
 40
1.0
 41
1.0
 50
0.0
 71
         0
 42
0.2
  3
txt.shx
  4

  0
STYLE
  5
5FE
100
AcDbSymbolTableRecord
100
AcDbTextStyleTableRecord
  2
BOX
 70
         0
 40
1.0
 41
1.0
 50
0.0
 71
         0
 42
0.2
  3
txt.shx
  4

  0
STYLE
  5
60E
100
AcDbSymbolTableRecord
100
AcDbTextStyleTableRecord
  2
BOX
 70
         0
 40
1.0
 41
1.0
 50
0.0
 71
         0
 42
0.2
  3
txt.shx
  4

  0
STYLE
  5
61D
100
AcDbSymbolTableRecord
100
AcDbTextStyleTableRecord
  2
BOX
 70
         0
 40
1.0
 41
1.0
 50
0.0
 71
         0
 42
0.2
  3
txt.shx
  4

  0
STYLE
  5
62B
100
AcDbSymbolTableRecord
100
AcDbTextStyleTableRecord
  2
BOX
 70
         0
 40
1.0
 41
1.0
 50
0.0
 71
         0
 42
0.2
  3
txt.shx
  4

  0
STYLE
  5
62E
100
AcDbSymbolTableRecord
100
AcDbTextStyleTableRecord
  2
BOX
 70
         0
 40
1.0
 41
1.0
 50
0.0
 71
         0
 42
0.2
  3
txt.shx
  4

  0
ENDTAB
  0
TABLE
  2
VIEW
  5
5
100
AcDbSymbolTable
 70
         0
  0
ENDTAB
  0
TABLE
  2
UCS
  5
6
100
AcDbSymbolTable
 70
         1
  0
UCS
  5
20
100
AcDbSymbolTableRecord
100
AcDbUCSTableRecord
  2
CK_VIEW_1
 70
         0
 10
0.0
 20
0.0
 30
1.0
 11
1.0
 21
0.0
 31
0.0
 12
0.0
 22
1.0
 32
0.0
  0
ENDTAB
  0
TABLE
  2
APPID
  5
8
100
AcDbSymbolTable
 70
         1
  0
APPID
  5
16
100
AcDbSymbolTableRecord
100
AcDbRegAppTableRecord
  2
ACAD
 70
         0
  0
ENDTAB
  0
TABLE
  2
DIMSTYLE
  5
9
100
AcDbSymbolTable
 70
         2
  0
DIMSTYLE
105
18
100
AcDbSymbolTableRecord
100
AcDbDimStyleTableRecord
  2
STANDARD
 70
         0
  3

  4

  5

  6

  7

 40
1.0
 41
0.18
 42
0.0625
 43
0.38
 44
0.18
 45
0.0
 46
0.0
 47
0.0
 48
0.0
 71
         0
 72
         0
 73
         1
 74
         1
 75
         0
 76
         0
 77
         0
 78
         0
140
0.18
141
0.09
142
0.0
143
25.4
144
1.0
145
0.0
146
1.0
147
0.09
170
         0
171
         2
172
         0
173
         0
174
         0
175
         0
176
         0
177
         0
178
         0
270
         2
271
         4
272
         4
273
         2
274
         2
275
         0
280
         0
281
         0
282
         0
283
         1
284
         0
285
         0
286
         0
287
         0
288
         0
340
17
  0
DIMSTYLE
105
73
100
AcDbSymbolTableRecord
100
AcDbDimStyleTableRecord
  2
DIMSTYLE1
 70
         0
  3

  4

  5

  6

  7

 40
1.0
 41
2.7
 42
0.0625
 43
0.38
 44
2.7
 45
0.0
 46
0.0
 47
0.0
 48
0.0
 71
         0
 72
         0
 73
         1
 74
         1
 75
         0
 76
         0
 77
         0
 78
         0
140
2.7
141
0.09
142
0.0
143
25.4
144
1.0
145
0.0
146
1.0
147
0.09
170
         0
171
         2
172
         0
173
         0
174
         0
175
         0
176
         0
177
         0
178
         0
270
         2
271
         4
272
         4
273
         2
274
         2
275
         0
280
         0
281
         0
282
         0
283
         1
284
         0
285
         0
286
         0
287
         0
288
         0
340
17
  0
ENDTAB
  0
TABLE
  2
BLOCK_RECORD
  5
1
100
AcDbSymbolTable
 70
        34
  0
BLOCK_RECORD
  5
A
100
AcDbSymbolTableRecord
100
AcDbBlockTableRecord
  2
*MODEL_SPACE
  0
BLOCK_RECORD
  5
B
100
AcDbSymbolTableRecord
100
AcDbBlockTableRecord
  2
*PAPER_SPACE
  0
BLOCK_RECORD
  5
74
100
AcDbSymbolTableRecord
100
AcDbBlockTableRecord
  2
*D0
  0
BLOCK_RECORD
  5
158
100
AcDbSymbolTableRecord
100
AcDbBlockTableRecord
  2
*D1
  0
BLOCK_RECORD
  5
169
100
AcDbSymbolTableRecord
100
AcDbBlockTableRecord
  2
*D2
  0
BLOCK_RECORD
  5
177
100
AcDbSymbolTableRecord
100
AcDbBlockTableRecord
  2
*D3
  0
BLOCK_RECORD
  5
19E
100
AcDbSymbolTableRecord
100
AcDbBlockTableRecord
  2
*D4
  0
BLOCK_RECORD
  5
1BB
100
AcDbSymbolTableRecord
100
AcDbBlockTableRecord
  2
*D5
  0
BLOCK_RECORD
  5
1C9
100
AcDbSymbolTableRecord
100
AcDbBlockTableRecord
  2
*D6
  0
BLOCK_RECORD
  5
1D7
100
AcDbSymbolTableRecord
100
AcDbBlockTableRecord
  2
*D7
  0
BLOCK_RECORD
  5
1E5
100
AcDbSymbolTableRecord
100
AcDbBlockTableRecord
  2
*D8
  0
BLOCK_RECORD
  5
253
100
AcDbSymbolTableRecord
100
AcDbBlockTableRecord
  2
*D9
  0
BLOCK_RECORD
  5
261
100
AcDbSymbolTableRecord
100
AcDbBlockTableRecord
  2
*D10
  0
BLOCK_RECORD
  5
26F
100
AcDbSymbolTableRecord
100
AcDbBlockTableRecord
  2
*D11
  0
BLOCK_RECORD
  5
299
100
AcDbSymbolTableRecord
100
AcDbBlockTableRecord
  2
*D12
  0
BLOCK_RECORD
  5
2A8
100
AcDbSymbolTableRecord
100
AcDbBlockTableRecord
  2
*D13
  0
BLOCK_RECORD
  5
2B3
100
AcDbSymbolTableRecord
100
AcDbBlockTableRecord
  2
*D14
  0
BLOCK_RECORD
  5
2C2
100
AcDbSymbolTableRecord
100
AcDbBlockTableRecord
  2
*D15
  0
BLOCK_RECORD
  5
2D0
100
AcDbSymbolTableRecord
100
AcDbBlockTableRecord
  2
*D16
  0
BLOCK_RECORD
  5
2DE
100
AcDbSymbolTableRecord
100
AcDbBlockTableRecord
  2
*D17
  0
BLOCK_RECORD
  5
2FE
100
AcDbSymbolTableRecord
100
AcDbBlockTableRecord
  2
*D18
  0
BLOCK_RECORD
  5
30C
100
AcDbSymbolTableRecord
100
AcDbBlockTableRecord
  2
*D19
  0
BLOCK_RECORD
  5
51F
100
AcDbSymbolTableRecord
100
AcDbBlockTableRecord
  2
*X20
  0
BLOCK_RECORD
  5
573
100
AcDbSymbolTableRecord
100
AcDbBlockTableRecord
  2
*D21
  0
BLOCK_RECORD
  5
581
100
AcDbSymbolTableRecord
100
AcDbBlockTableRecord
  2
*D22
  0
BLOCK_RECORD
  5
58F
100
AcDbSymbolTableRecord
100
AcDbBlockTableRecord
  2
*D23
  0
BLOCK_RECORD
  5
59E
100
AcDbSymbolTableRecord
100
AcDbBlockTableRecord
  2
*D24
  0
BLOCK_RECORD
  5
5AC
100
AcDbSymbolTableRecord
100
AcDbBlockTableRecord
  2
*D25
  0
BLOCK_RECORD
  5
5BA
100
AcDbSymbolTableRecord
100
AcDbBlockTableRecord
  2
*D26
  0
BLOCK_RECORD
  5
5C8
100
AcDbSymbolTableRecord
100
AcDbBlockTableRecord
  2
*D27
  0
BLOCK_RECORD
  5
5D7
100
AcDbSymbolTableRecord
100
AcDbBlockTableRecord
  2
*D28
  0
BLOCK_RECORD
  5
5E5
100
AcDbSymbolTableRecord
100
AcDbBlockTableRecord
  2
*D29
  0
BLOCK_RECORD
  5
5F3
100
AcDbSymbolTableRecord
100
AcDbBlockTableRecord
  2
*D30
  0
BLOCK_RECORD
  5
601
100
AcDbSymbolTableRecord
100
AcDbBlockTableRecord
  2
*D31
  0
BLOCK_RECORD
  5
611
100
AcDbSymbolTableRecord
100
AcDbBlockTableRecord
  2
*D32
  0
BLOCK_RECORD
  5
620
100
AcDbSymbolTableRecord
100
AcDbBlockTableRecord
  2
*D33
  0
ENDTAB
  0
ENDSEC
  0
SECTION
  2
BLOCKS
  0
BLOCK
  5
D
100
AcDbEntity
  8
0
100
AcDbBlockBegin
  2
*MODEL_SPACE
 70
         0
 10
0.0
 20
0.0
 30
0.0
  3
*MODEL_SPACE
  1

  0
ENDBLK
  5
E
100
AcDbEntity
  8
0
100
AcDbBlockEnd
  0
BLOCK
  5
F
100
AcDbEntity
 67
         1
  8
0
100
AcDbBlockBegin
  2
*PAPER_SPACE
 70
         0
 10
0.0
 20
0.0
 30
0.0
  3
*PAPER_SPACE
  1

  0
ENDBLK
  5
10
100
AcDbEntity
 67
         1
  8
0
100
AcDbBlockEnd
  0
BLOCK
  5
75
100
AcDbEntity
  8
0
100
AcDbBlockBegin
  2
*D0
 70
        65
 10
0.0
 20
0.0
 30
0.0
  3
*D0
  1

  0
POINT
  5
78
100
AcDbEntity
  8
DEFPOINTS
  6
CONTINUOUS
 62
         0
100
AcDbPoint
 10
1485.1033403763
 20
-55.2542974518
 30
0.0
  0
POINT
  5
79
100
AcDbEntity
  8
DEFPOINTS
  6
CONTINUOUS
 62
         0
100
AcDbPoint
 10
1485.1033403763
 20
-39.2886342023
 30
0.0
  0
POINT
  5
7A
100
AcDbEntity
  8
DEFPOINTS
  6
CONTINUOUS
 62
         0
100
AcDbPoint
 10
1435.6033403763
 20
-44.4433347407
 30
0.0
  0
LINE
  5
7B
100
AcDbEntity
  8
L1_115
  6
CONTINUOUS
 62
         4
100
AcDbLine
 10
1485.1033403763
 20
-40.6386342023
 30
0.0
 11
1485.1033403763
 21
-55.9292974518
 31
0.0
  0
LINE
  5
7C
100
AcDbEntity
  8
L1_115
  6
CONTINUOUS
 62
         4
100
AcDbLine
 10
1435.6033403763
 20
-45.7933347407
 30
0.0
 11
1435.6033403763
 21
-55.9292974518
 31
0.0
  0
LINE
  5
7D
100
AcDbEntity
  8
L1_115
  6
CONTINUOUS
 62
         4
100
AcDbLine
 10
1485.1033403763
 20
-55.2542974518
 30
0.0
 11
1435.6033403763
 21
-55.2542974518
 31
0.0
  0
SOLID
  5
7E
100
AcDbEntity
  8
L1_115
  6
CONTINUOUS
 62
         4
100
AcDbTrace
 10
1485.1033403763
 20
-55.2542974518
 30
0.0
 11
1482.4033403763
 21
-55.6592974518
 31
0.0
 12
1482.4033403763
 22
-54.8492974518
 32
0.0
 13
1485.1033403763
 23
-55.2542974518
 33
0.0
  0
SOLID
  5
7F
100
AcDbEntity
  8
L1_115
  6
CONTINUOUS
 62
         4
100
AcDbTrace
 10
1435.6033403763
 20
-55.2542974518
 30
0.0
 11
1438.3033403763
 21
-54.8492974518
 31
0.0
 12
1438.3033403763
 22
-55.6592974518
 32
0.0
 13
1435.6033403763
 23
-55.2542974518
 33
0.0
  0
TEXT
  5
81
100
AcDbEntity
  8
L1_115
  6
CONTINUOUS
 62
         4
100
AcDbText
 10
1454.1362404482
 20
-52.1222974518
 30
0.0
 40
2.7
  1
49.5
  7
BOX
100
AcDbText
  0
ENDBLK
  5
82
100
AcDbEntity
  8
0
  6
CONTINUOUS
100
AcDbBlockEnd
  0
BLOCK
  5
159
100
AcDbEntity
  8
0
100
AcDbBlockBegin
  2
*D1
 70
        65
 10
0.0
 20
0.0
 30
0.0
  3
*D1
  1

  0
POINT
  5
15B
100
AcDbEntity
  8
DEFPOINTS
  6
CONTINUOUS
 62
         0
100
AcDbPoint
 10
1503.6247404889
 20
177.6846417294
 30
0.0
  0
POINT
  5
15C
100
AcDbEntity
  8
DEFPOINTS
  6
CONTINUOUS
 62
         0
100
AcDbPoint
 10
1485.1033403763
 20
177.6846417294
 30
0.0
  0
POINT
  5
15D
100
AcDbEntity
  8
DEFPOINTS
  6
CONTINUOUS
 62
         0
100
AcDbPoint
 10
1485.1033403763
 20
122.6846417294
 30
0.0
  0
LINE
  5
15E
100
AcDbEntity
  8
L1_115
  6
CONTINUOUS
 62
         4
100
AcDbLine
 10
1486.4533403763
 20
177.6846417294
 30
0.0
 11
1504.2997404889
 21
177.6846417294
 31
0.0
  0
LINE
  5
15F
100
AcDbEntity
  8
L1_115
  6
CONTINUOUS
 62
         4
100
AcDbLine
 10
1486.4533403763
 20
122.6846417294
 30
0.0
 11
1504.2997404889
 21
122.6846417294
 31
0.0
  0
LINE
  5
160
100
AcDbEntity
  8
L1_115
  6
CONTINUOUS
 62
         4
100
AcDbLine
 10
1503.6247404889
 20
177.6846417294
 30
0.0
 11
1503.6247404889
 21
122.6846417294
 31
0.0
  0
SOLID
  5
161
100
AcDbEntity
  8
L1_115
  6
CONTINUOUS
 62
         4
100
AcDbTrace
 10
1503.6247404889
 20
177.6846417294
 30
0.0
 11
1504.0297404889
 21
174.9846417294
 31
0.0
 12
1503.2197404889
 22
174.9846417294
 32
0.0
 13
1503.6247404889
 23
177.6846417294
 33
0.0
  0
SOLID
  5
162
100
AcDbEntity
  8
L1_115
  6
CONTINUOUS
 62
         4
100
AcDbTrace
 10
1503.6247404889
 20
122.6846417294
 30
0.0
 11
1503.2197404889
 21
125.3846417294
 31
0.0
 12
1504.0297404889
 22
125.3846417294
 32
0.0
 13
1503.6247404889
 23
122.6846417294
 33
0.0
  0
TEXT
  5
164
100
AcDbEntity
  8
L1_115
  6
CONTINUOUS
 62
         4
100
AcDbText
 10
1501.5997404889
 20
145.7954934312
 30
0.0
 40
2.7
  1
崷55
 50
90.0
  7
BOX
100
AcDbText
  0
ENDBLK
  5
165
100
AcDbEntity
  8
0
  6
CONTINUOUS
100
AcDbBlockEnd
  0
BLOCK
  5
16A
100
AcDbEntity
  8
0
100
AcDbBlockBegin
  2
*D2
 70
        65
 10
0.0
 20
0.0
 30
0.0
  3
*D2
  1

  0
POINT
  5
16C
100
AcDbEntity
  8
DEFPOINTS
  6
CONTINUOUS
 62
         0
100
AcDbPoint
 10
1326.7033403763
 20
223.3766654111
 30
0.0
  0
POINT
  5
16D
100
AcDbEntity
  8
DEFPOINTS
  6
CONTINUOUS
 62
         0
100
AcDbPoint
 10
1326.7033403763
 20
162.0074490628
 30
0.0
  0
POINT
  5
16E
100
AcDbEntity
  8
DEFPOINTS
  6
CONTINUOUS
 62
         0
100
AcDbPoint
 10
1485.1033403763
 20
150.1846417294
 30
0.0
  0
LINE
  5
16F
100
AcDbEntity
  8
L1_115
  6
CONTINUOUS
 62
         4
100
AcDbLine
 10
1326.7033403763
 20
163.3574490628
 30
0.0
 11
1326.7033403763
 21
224.0516654111
 31
0.0
  0
LINE
  5
170
100
AcDbEntity
  8
L1_115
  6
CONTINUOUS
 62
         4
100
AcDbLine
 10
1485.1033403763
 20
151.5346417294
 30
0.0
 11
1485.1033403763
 21
224.0516654111
 31
0.0
  0
LINE
  5
171
100
AcDbEntity
  8
L1_115
  6
CONTINUOUS
 62
         4
100
AcDbLine
 10
1326.7033403763
 20
223.3766654111
 30
0.0
 11
1485.1033403763
 21
223.3766654111
 31
0.0
  0
SOLID
  5
172
100
AcDbEntity
  8
L1_115
  6
CONTINUOUS
 62
         4
100
AcDbTrace
 10
1326.7033403763
 20
223.3766654111
 30
0.0
 11
1329.4033403763
 21
223.7816654111
 31
0.0
 12
1329.4033403763
 22
222.9716654111
 32
0.0
 13
1326.7033403763
 23
223.3766654111
 33
0.0
  0
SOLID
  5
173
100
AcDbEntity
  8
L1_115
  6
CONTINUOUS
 62
         4
100
AcDbTrace
 10
1485.1033403763
 20
223.3766654111
 30
0.0
 11
1482.4033403763
 21
222.9716654111
 31
0.0
 12
1482.4033403763
 22
223.7816654111
 32
0.0
 13
1485.1033403763
 23
223.3766654111
 33
0.0
  0
TEXT
  5
175
100
AcDbEntity
  8
L1_115
  6
CONTINUOUS
 62
         4
100
AcDbText
 10
1410.4862660922
 20
225.4016654111
 30
0.0
 40
2.7
  1
158.4
  7
BOX
100
AcDbText
  0
ENDBLK
  5
176
100
AcDbEntity
  8
0
  6
CONTINUOUS
100
AcDbBlockEnd
  0
BLOCK
  5
178
100
AcDbEntity
  8
0
100
AcDbBlockBegin
  2
*D3
 70
        65
 10
0.0
 20
0.0
 30
0.0
  3
*D3
  1

  0
POINT
  5
17A
100
AcDbEntity
  8
DEFPOINTS
  6
CONTINUOUS
 62
         0
100
AcDbPoint
 10
1485.1033403763
 20
217.3711759057
 30
0.0
  0
POINT
  5
17B
100
AcDbEntity
  8
DEFPOINTS
  6
CONTINUOUS
 62
         0
100
AcDbPoint
 10
1485.1033403763
 20
150.1846417294
 30
0.0
  0
POINT
  5
17C
100
AcDbEntity
  8
DEFPOINTS
  6
CONTINUOUS
 62
         0
100
AcDbPoint
 10
1392.1033403763
 20
172.4096417294
 30
0.0
  0
LINE
  5
17D
100
AcDbEntity
  8
L1_115
  6
CONTINUOUS
 62
         4
100
AcDbLine
 10
1485.1033403763
 20
151.5346417294
 30
0.0
 11
1485.1033403763
 21
218.0461759057
 31
0.0
  0
LINE
  5
17E
100
AcDbEntity
  8
L1_115
  6
CONTINUOUS
 62
         4
100
AcDbLine
 10
1392.1033403763
 20
173.7596417294
 30
0.0
 11
1392.1033403763
 21
218.0461759057
 31
0.0
  0
LINE
  5
17F
100
AcDbEntity
  8
L1_115
  6
CONTINUOUS
 62
         4
100
AcDbLine
 10
1485.1033403763
 20
217.3711759057
 30
0.0
 11
1392.1033403763
 21
217.3711759057
 31
0.0
  0
SOLID
  5
180
100
AcDbEntity
  8
L1_115
  6
CONTINUOUS
 62
         4
100
AcDbTrace
 10
1485.1033403763
 20
217.3711759057
 30
0.0
 11
1482.4033403763
 21
216.9661759057
 31
0.0
 12
1482.4033403763
 22
217.7761759057
 32
0.0
 13
1485.1033403763
 23
217.3711759057
 33
0.0
  0
SOLID
  5
181
100
AcDbEntity
  8
L1_115
  6
CONTINUOUS
 62
         4
100
AcDbTrace
 10
1392.1033403763
 20
217.3711759057
 30
0.0
 11
1394.8033403763
 21
217.7761759057
 31
0.0
 12
1394.8033403763
 22
216.9661759057
 32
0.0
 13
1392.1033403763
 23
217.3711759057
 33
0.0
  0
TEXT
  5
183
100
AcDbEntity
  8
L1_115
  6
CONTINUOUS
 62
         4
100
AcDbText
 10
1431.2027346086
 20
219.3961759057
 30
0.0
 40
2.7
  1
93
  7
BOX
100
AcDbText
  0
ENDBLK
  5
184
100
AcDbEntity
  8
0
  6
CONTINUOUS
100
AcDbBlockEnd
  0
BLOCK
  5
19F
100
AcDbEntity
  8
0
100
AcDbBlockBegin
  2
*D4
 70
        65
 10
0.0
 20
0.0
 30
0.0
  3
*D4
  1

  0
POINT
  5
1A1
100
AcDbEntity
  8
DEFPOINTS
  6
CONTINUOUS
 62
         0
100
AcDbPoint
 10
1485.1033403763
 20
-87.0801955925
 30
0.0
  0
POINT
  5
1A2
100
AcDbEntity
  8
DEFPOINTS
  6
CONTINUOUS
 62
         0
100
AcDbPoint
 10
1485.1033403763
 20
-38.9086807647
 30
0.0
  0
POINT
  5
1A3
100
AcDbEntity
  8
DEFPOINTS
  6
CONTINUOUS
 62
         0
100
AcDbPoint
 10
1387.1030155108
 20
-15.4433347407
 30
0.0
  0
LINE
  5
1A4
100
AcDbEntity
  8
L1_115
  6
CONTINUOUS
 62
         4
100
AcDbLine
 10
1485.1033403763
 20
-40.2586807647
 30
0.0
 11
1485.1033403763
 21
-87.7551955925
 31
0.0
  0
LINE
  5
1A5
100
AcDbEntity
  8
L1_115
  6
CONTINUOUS
 62
         4
100
AcDbLine
 10
1387.1030155108
 20
-16.7933347407
 30
0.0
 11
1387.1030155108
 21
-87.7551955925
 31
0.0
  0
LINE
  5
1A6
100
AcDbEntity
  8
L1_115
  6
CONTINUOUS
 62
         4
100
AcDbLine
 10
1485.1033403763
 20
-87.0801955925
 30
0.0
 11
1387.1030155108
 21
-87.0801955925
 31
0.0
  0
SOLID
  5
1A7
100
AcDbEntity
  8
L1_115
  6
CONTINUOUS
 62
         4
100
AcDbTrace
 10
1485.1033403763
 20
-87.0801955925
 30
0.0
 11
1482.4033403763
 21
-87.4851955925
 31
0.0
 12
1482.4033403763
 22
-86.6751955925
 32
0.0
 13
1485.1033403763
 23
-87.0801955925
 33
0.0
  0
SOLID
  5
1A8
100
AcDbEntity
  8
L1_115
  6
CONTINUOUS
 62
         4
100
AcDbTrace
 10
1387.1030155108
 20
-87.0801955925
 30
0.0
 11
1389.8030155108
 21
-86.6751955925
 31
0.0
 12
1389.8030155108
 22
-87.4851955925
 32
0.0
 13
1387.1030155108
 23
-87.0801955925
 33
0.0
  0
TEXT
  5
1AA
100
AcDbEntity
  8
L1_115
  6
CONTINUOUS
 62
         4
100
AcDbText
 10
1434.924638991
 20
-83.9481955925
 30
0.0
 40
2.7
  1
98
  7
BOX
100
AcDbText
  0
ENDBLK
  5
1AB
100
AcDbEntity
  8
0
  6
CONTINUOUS
100
AcDbBlockEnd
  0
BLOCK
  5
1BC
100
AcDbEntity
  8
0
100
AcDbBlockBegin
  2
*D5
 70
        65
 10
0.0
 20
0.0
 30
0.0
  3
*D5
  1

  0
POINT
  5
1BE
100
AcDbEntity
  8
DEFPOINTS
  6
CONTINUOUS
 62
         0
100
AcDbPoint
 10
1324.5063261387
 20
-96.4708866319
 30
0.0
  0
POINT
  5
1BF
100
AcDbEntity
  8
DEFPOINTS
  6
CONTINUOUS
 62
         0
100
AcDbPoint
 10
1330.2197402054
 20
-96.4708866319
 30
0.0
  0
POINT
  5
1C0
100
AcDbEntity
  8
DEFPOINTS
  6
CONTINUOUS
 62
         0
100
AcDbPoint
 10
1328.6497402054
 20
-119.8408866319
 30
0.0
  0
LINE
  5
1C1
100
AcDbEntity
  8
L1_115
  6
CONTINUOUS
 62
         4
100
AcDbLine
 10
1328.8697402054
 20
-96.4708866319
 30
0.0
 11
1323.8313261387
 21
-96.4708866319
 31
0.0
  0
LINE
  5
1C2
100
AcDbEntity
  8
L1_115
  6
CONTINUOUS
 62
         4
100
AcDbLine
 10
1327.2997402054
 20
-119.8408866319
 30
0.0
 11
1323.8313261387
 21
-119.8408866319
 31
0.0
  0
LINE
  5
1C3
100
AcDbEntity
  8
L1_115
  6
CONTINUOUS
 62
         4
100
AcDbLine
 10
1324.5063261387
 20
-96.4708866319
 30
0.0
 11
1324.5063261387
 21
-119.8408866319
 31
0.0
  0
SOLID
  5
1C4
100
AcDbEntity
  8
L1_115
  6
CONTINUOUS
 62
         4
100
AcDbTrace
 10
1324.5063261387
 20
-96.4708866319
 30
0.0
 11
1324.9113261387
 21
-99.1708866319
 31
0.0
 12
1324.1013261387
 22
-99.1708866319
 32
0.0
 13
1324.5063261387
 23
-96.4708866319
 33
0.0
  0
SOLID
  5
1C5
100
AcDbEntity
  8
L1_115
  6
CONTINUOUS
 62
         4
100
AcDbTrace
 10
1324.5063261387
 20
-119.8408866319
 30
0.0
 11
1324.1013261387
 21
-117.1408866319
 31
0.0
 12
1324.9113261387
 22
-117.1408866319
 32
0.0
 13
1324.5063261387
 23
-119.8408866319
 33
0.0
  0
TEXT
  5
1C7
100
AcDbEntity
  8
L1_115
  6
CONTINUOUS
 62
         4
100
AcDbText
 10
1322.4813261387
 20
-116.2558866319
 30
0.0
 40
2.7
  1
崷23.5
 50
90.0
  7
BOX
100
AcDbText
  0
ENDBLK
  5
1C8
100
AcDbEntity
  8
0
  6
CONTINUOUS
100
AcDbBlockEnd
  0
BLOCK
  5
1CA
100
AcDbEntity
  8
0
100
AcDbBlockBegin
  2
*D6
 70
        65
 10
0.0
 20
0.0
 30
0.0
  3
*D6
  1

  0
POINT
  5
1CC
100
AcDbEntity
  8
DEFPOINTS
  6
CONTINUOUS
 62
         0
100
AcDbPoint
 10
1362.6770325407
 20
-86.2758866319
 30
0.0
  0
POINT
  5
1CD
100
AcDbEntity
  8
DEFPOINTS
  6
CONTINUOUS
 62
         0
100
AcDbPoint
 10
1369.556423628
 20
-86.2758866319
 30
0.0
  0
POINT
  5
1CE
100
AcDbEntity
  8
DEFPOINTS
  6
CONTINUOUS
 62
         0
100
AcDbPoint
 10
1367.786423628
 20
-130.0358866319
 30
0.0
  0
LINE
  5
1CF
100
AcDbEntity
  8
L1_115
  6
CONTINUOUS
 62
         4
100
AcDbLine
 10
1368.206423628
 20
-86.2758866319
 30
0.0
 11
1362.0020325407
 21
-86.2758866319
 31
0.0
  0
LINE
  5
1D0
100
AcDbEntity
  8
L1_115
  6
CONTINUOUS
 62
         4
100
AcDbLine
 10
1366.436423628
 20
-130.0358866319
 30
0.0
 11
1362.0020325407
 21
-130.0358866319
 31
0.0
  0
LINE
  5
1D1
100
AcDbEntity
  8
L1_115
  6
CONTINUOUS
 62
         4
100
AcDbLine
 10
1362.6770325407
 20
-86.2758866319
 30
0.0
 11
1362.6770325407
 21
-130.0358866319
 31
0.0
  0
SOLID
  5
1D2
100
AcDbEntity
  8
L1_115
  6
CONTINUOUS
 62
         4
100
AcDbTrace
 10
1362.6770325407
 20
-86.2758866319
 30
0.0
 11
1363.0820325407
 21
-88.9758866319
 31
0.0
 12
1362.2720325407
 22
-88.9758866319
 32
0.0
 13
1362.6770325407
 23
-86.2758866319
 33
0.0
  0
SOLID
  5
1D3
100
AcDbEntity
  8
L1_115
  6
CONTINUOUS
 62
         4
100
AcDbTrace
 10
1362.6770325407
 20
-130.0358866319
 30
0.0
 11
1362.2720325407
 21
-127.3358866319
 31
0.0
 12
1363.0820325407
 22
-127.3358866319
 32
0.0
 13
1362.6770325407
 23
-130.0358866319
 33
0.0
  0
TEXT
  5
1D5
100
AcDbEntity
  8
L1_115
  6
CONTINUOUS
 62
         4
100
AcDbText
 10
1360.6520325407
 20
-113.5558866319
 30
0.0
 40
2.7
  1
崷44
 50
90.0
  7
BOX
100
AcDbText
  0
ENDBLK
  5
1D6
100
AcDbEntity
  8
0
  6
CONTINUOUS
100
AcDbBlockEnd
  0
BLOCK
  5
1D8
100
AcDbEntity
  8
0
100
AcDbBlockBegin
  2
*D7
 70
        65
 10
0.0
 20
0.0
 30
0.0
  3
*D7
  1

  0
POINT
  5
1DA
100
AcDbEntity
  8
DEFPOINTS
  6
CONTINUOUS
 62
         0
100
AcDbPoint
 10
1390.0817714781
 20
-101.8108866319
 30
0.0
  0
POINT
  5
1DB
100
AcDbEntity
  8
DEFPOINTS
  6
CONTINUOUS
 62
         0
100
AcDbPoint
 10
1397.4749631772
 20
-101.8108866319
 30
0.0
  0
POINT
  5
1DC
100
AcDbEntity
  8
DEFPOINTS
  6
CONTINUOUS
 62
         0
100
AcDbPoint
 10
1396.0049631772
 20
-114.5008866319
 30
0.0
  0
LINE
  5
1DD
100
AcDbEntity
  8
L1_115
  6
CONTINUOUS
 62
         4
100
AcDbLine
 10
1396.1249631772
 20
-101.8108866319
 30
0.0
 11
1389.4067714781
 21
-101.8108866319
 31
0.0
  0
LINE
  5
1DE
100
AcDbEntity
  8
L1_115
  6
CONTINUOUS
 62
         4
100
AcDbLine
 10
1394.6549631772
 20
-114.5008866319
 30
0.0
 11
1389.4067714781
 21
-114.5008866319
 31
0.0
  0
LINE
  5
1DF
100
AcDbEntity
  8
L1_115
  6
CONTINUOUS
 62
         4
100
AcDbLine
 10
1390.0817714781
 20
-101.8108866319
 30
0.0
 11
1390.0817714781
 21
-114.5008866319
 31
0.0
  0
SOLID
  5
1E0
100
AcDbEntity
  8
L1_115
  6
CONTINUOUS
 62
         4
100
AcDbTrace
 10
1390.0817714781
 20
-101.8108866319
 30
0.0
 11
1390.4867714781
 21
-104.5108866319
 31
0.0
 12
1389.6767714781
 22
-104.5108866319
 32
0.0
 13
1390.0817714781
 23
-101.8108866319
 33
0.0
  0
SOLID
  5
1E1
100
AcDbEntity
  8
L1_115
  6
CONTINUOUS
 62
         4
100
AcDbTrace
 10
1390.0817714781
 20
-114.5008866319
 30
0.0
 11
1389.6767714781
 21
-111.8008866319
 31
0.0
 12
1390.4867714781
 22
-111.8008866319
 32
0.0
 13
1390.0817714781
 23
-114.5008866319
 33
0.0
  0
TEXT
  5
1E3
100
AcDbEntity
  8
L1_115
  6
CONTINUOUS
 62
         4
100
AcDbText
 10
1388.0567714781
 20
-113.5558866319
 30
0.0
 40
2.7
  1
崷12
 50
90.0
  7
BOX
100
AcDbText
  0
ENDBLK
  5
1E4
100
AcDbEntity
  8
0
  6
CONTINUOUS
100
AcDbBlockEnd
  0
BLOCK
  5
1E6
100
AcDbEntity
  8
0
100
AcDbBlockBegin
  2
*D8
 70
        65
 10
0.0
 20
0.0
 30
0.0
  3
*D8
  1

  0
POINT
  5
1E8
100
AcDbEntity
  8
DEFPOINTS
  6
CONTINUOUS
 62
         0
100
AcDbPoint
 10
1435.3629281371
 20
-98.0858866319
 30
0.0
  0
POINT
  5
1E9
100
AcDbEntity
  8
DEFPOINTS
  6
CONTINUOUS
 62
         0
100
AcDbPoint
 10
1445.081493307
 20
-98.0858866319
 30
0.0
  0
POINT
  5
1EA
100
AcDbEntity
  8
DEFPOINTS
  6
CONTINUOUS
 62
         0
100
AcDbPoint
 10
1443.711493307
 20
-118.2258866319
 30
0.0
  0
LINE
  5
1EB
100
AcDbEntity
  8
L1_115
  6
CONTINUOUS
 62
         4
100
AcDbLine
 10
1443.731493307
 20
-98.0858866319
 30
0.0
 11
1434.6879281371
 21
-98.0858866319
 31
0.0
  0
LINE
  5
1EC
100
AcDbEntity
  8
L1_115
  6
CONTINUOUS
 62
         4
100
AcDbLine
 10
1442.361493307
 20
-118.2258866319
 30
0.0
 11
1434.6879281371
 21
-118.2258866319
 31
0.0
  0
LINE
  5
1ED
100
AcDbEntity
  8
L1_115
  6
CONTINUOUS
 62
         4
100
AcDbLine
 10
1435.3629281371
 20
-98.0858866319
 30
0.0
 11
1435.3629281371
 21
-118.2258866319
 31
0.0
  0
SOLID
  5
1EE
100
AcDbEntity
  8
L1_115
  6
CONTINUOUS
 62
         4
100
AcDbTrace
 10
1435.3629281371
 20
-98.0858866319
 30
0.0
 11
1435.7679281371
 21
-100.7858866319
 31
0.0
 12
1434.9579281371
 22
-100.7858866319
 32
0.0
 13
1435.3629281371
 23
-98.0858866319
 33
0.0
  0
SOLID
  5
1EF
100
AcDbEntity
  8
L1_115
  6
CONTINUOUS
 62
         4
100
AcDbTrace
 10
1435.3629281371
 20
-118.2258866319
 30
0.0
 11
1434.9579281371
 21
-115.5258866319
 31
0.0
 12
1435.7679281371
 22
-115.5258866319
 32
0.0
 13
1435.3629281371
 23
-118.2258866319
 33
0.0
  0
TEXT
  5
1F1
100
AcDbEntity
  8
L1_115
  6
CONTINUOUS
 62
         4
100
AcDbText
 10
1433.3379281371
 20
-113.5558866319
 30
0.0
 40
2.7
  1
崷21
 50
90.0
  7
BOX
100
AcDbText
  0
ENDBLK
  5
1F2
100
AcDbEntity
  8
0
  6
CONTINUOUS
100
AcDbBlockEnd
  0
BLOCK
  5
254
100
AcDbEntity
  8
0
100
AcDbBlockBegin
  2
*D9
 70
        65
 10
0.0
 20
0.0
 30
0.0
  3
*D9
  1

  0
POINT
  5
256
100
AcDbEntity
  8
DEFPOINTS
  6
CONTINUOUS
 62
         0
100
AcDbPoint
 10
1308.7727253021
 20
-101.6558866319
 30
0.0
  0
POINT
  5
257
100
AcDbEntity
  8
DEFPOINTS
  6
CONTINUOUS
 62
         0
100
AcDbPoint
 10
1300.9499795139
 20
-101.6558866319
 30
0.0
  0
POINT
  5
258
100
AcDbEntity
  8
DEFPOINTS
  6
CONTINUOUS
 62
         0
100
AcDbPoint
 10
1300.9499795139
 20
-114.6558866319
 30
0.0
  0
LINE
  5
259
100
AcDbEntity
  8
L1_115
  6
CONTINUOUS
 62
         4
100
AcDbLine
 10
1302.2999795139
 20
-101.6558866319
 30
0.0
 11
1309.4477253021
 21
-101.6558866319
 31
0.0
  0
LINE
  5
25A
100
AcDbEntity
  8
L1_115
  6
CONTINUOUS
 62
         4
100
AcDbLine
 10
1302.2999795139
 20
-114.6558866319
 30
0.0
 11
1309.4477253021
 21
-114.6558866319
 31
0.0
  0
LINE
  5
25B
100
AcDbEntity
  8
L1_115
  6
CONTINUOUS
 62
         4
100
AcDbLine
 10
1308.7727253021
 20
-101.6558866319
 30
0.0
 11
1308.7727253021
 21
-114.6558866319
 31
0.0
  0
SOLID
  5
25C
100
AcDbEntity
  8
L1_115
  6
CONTINUOUS
 62
         4
100
AcDbTrace
 10
1308.7727253021
 20
-101.6558866319
 30
0.0
 11
1309.1777253021
 21
-104.3558866319
 31
0.0
 12
1308.3677253021
 22
-104.3558866319
 32
0.0
 13
1308.7727253021
 23
-101.6558866319
 33
0.0
  0
SOLID
  5
25D
100
AcDbEntity
  8
L1_115
  6
CONTINUOUS
 62
         4
100
AcDbTrace
 10
1308.7727253021
 20
-114.6558866319
 30
0.0
 11
1308.3677253021
 21
-111.9558866319
 31
0.0
 12
1309.1777253021
 22
-111.9558866319
 32
0.0
 13
1308.7727253021
 23
-114.6558866319
 33
0.0
  0
TEXT
  5
25F
100
AcDbEntity
  8
L1_115
  6
CONTINUOUS
 62
         4
100
AcDbText
 10
1306.7477253021
 20
-113.5558866319
 30
0.0
 40
2.7
  1
崷13
 50
90.0
  7
BOX
100
AcDbText
  0
ENDBLK
  5
260
100
AcDbEntity
  8
0
  6
CONTINUOUS
100
AcDbBlockEnd
  0
BLOCK
  5
262
100
AcDbEntity
  8
0
100
AcDbBlockBegin
  2
*D10
 70
        65
 10
0.0
 20
0.0
 30
0.0
  3
*D10
  1

  0
POINT
  5
264
100
AcDbEntity
  8
DEFPOINTS
  6
CONTINUOUS
 62
         0
100
AcDbPoint
 10
1239.6999795139
 20
-90.2101974292
 30
0.0
  0
POINT
  5
265
100
AcDbEntity
  8
DEFPOINTS
  6
CONTINUOUS
 62
         0
100
AcDbPoint
 10
1239.6999795139
 20
-105.6558866319
 30
0.0
  0
POINT
  5
266
100
AcDbEntity
  8
DEFPOINTS
  6
CONTINUOUS
 62
         0
100
AcDbPoint
 10
1250.9499795139
 20
-105.1558866319
 30
0.0
  0
LINE
  5
267
100
AcDbEntity
  8
L1_115
  6
CONTINUOUS
 62
         4
100
AcDbLine
 10
1239.6999795139
 20
-104.3058866319
 30
0.0
 11
1239.6999795139
 21
-89.5351974292
 31
0.0
  0
LINE
  5
268
100
AcDbEntity
  8
L1_115
  6
CONTINUOUS
 62
         4
100
AcDbLine
 10
1250.9499795139
 20
-103.8058866319
 30
0.0
 11
1250.9499795139
 21
-89.5351974292
 31
0.0
  0
LINE
  5
269
100
AcDbEntity
  8
L1_115
  6
CONTINUOUS
 62
         4
100
AcDbLine
 10
1239.6999795139
 20
-90.2101974292
 30
0.0
 11
1250.9499795139
 21
-90.2101974292
 31
0.0
  0
SOLID
  5
26A
100
AcDbEntity
  8
L1_115
  6
CONTINUOUS
 62
         4
100
AcDbTrace
 10
1239.6999795139
 20
-90.2101974292
 30
0.0
 11
1242.3999795139
 21
-89.8051974292
 31
0.0
 12
1242.3999795139
 22
-90.6151974292
 32
0.0
 13
1239.6999795139
 23
-90.2101974292
 33
0.0
  0
SOLID
  5
26B
100
AcDbEntity
  8
L1_115
  6
CONTINUOUS
 62
         4
100
AcDbTrace
 10
1250.9499795139
 20
-90.2101974292
 30
0.0
 11
1248.2499795139
 21
-90.6151974292
 31
0.0
 12
1248.2499795139
 22
-89.8051974292
 32
0.0
 13
1250.9499795139
 23
-90.2101974292
 33
0.0
  0
TEXT
  5
26D
100
AcDbEntity
  8
L1_115
  6
CONTINUOUS
 62
         4
100
AcDbText
 10
1240.6922924064
 20
-88.1851974292
 30
0.0
 40
2.7
  1
11.25
  7
BOX
100
AcDbText
  0
ENDBLK
  5
26E
100
AcDbEntity
  8
0
  6
CONTINUOUS
100
AcDbBlockEnd
  0
BLOCK
  5
270
100
AcDbEntity
  8
0
100
AcDbBlockBegin
  2
*D11
 70
        65
 10
0.0
 20
0.0
 30
0.0
  3
*D11
  1

  0
POINT
  5
272
100
AcDbEntity
  8
DEFPOINTS
  6
CONTINUOUS
 62
         0
100
AcDbPoint
 10
1239.6999795139
 20
-81.0850648942
 30
0.0
  0
POINT
  5
273
100
AcDbEntity
  8
DEFPOINTS
  6
CONTINUOUS
 62
         0
100
AcDbPoint
 10
1239.6999795139
 20
-105.6558866319
 30
0.0
  0
POINT
  5
274
100
AcDbEntity
  8
DEFPOINTS
  6
CONTINUOUS
 62
         0
100
AcDbPoint
 10
1301.4499795139
 20
-102.1558866319
 30
0.0
  0
LINE
  5
275
100
AcDbEntity
  8
L1_115
  6
CONTINUOUS
 62
         4
100
AcDbLine
 10
1239.6999795139
 20
-104.3058866319
 30
0.0
 11
1239.6999795139
 21
-80.4100648942
 31
0.0
  0
LINE
  5
276
100
AcDbEntity
  8
L1_115
  6
CONTINUOUS
 62
         4
100
AcDbLine
 10
1301.4499795139
 20
-100.8058866319
 30
0.0
 11
1301.4499795139
 21
-80.4100648942
 31
0.0
  0
LINE
  5
277
100
AcDbEntity
  8
L1_115
  6
CONTINUOUS
 62
         4
100
AcDbLine
 10
1239.6999795139
 20
-81.0850648942
 30
0.0
 11
1301.4499795139
 21
-81.0850648942
 31
0.0
  0
SOLID
  5
278
100
AcDbEntity
  8
L1_115
  6
CONTINUOUS
 62
         4
100
AcDbTrace
 10
1239.6999795139
 20
-81.0850648942
 30
0.0
 11
1242.3999795139
 21
-80.6800648942
 31
0.0
 12
1242.3999795139
 22
-81.4900648942
 32
0.0
 13
1239.6999795139
 23
-81.0850648942
 33
0.0
  0
SOLID
  5
279
100
AcDbEntity
  8
L1_115
  6
CONTINUOUS
 62
         4
100
AcDbTrace
 10
1301.4499795139
 20
-81.0850648942
 30
0.0
 11
1298.7499795139
 21
-81.4900648942
 31
0.0
 12
1298.7499795139
 22
-80.6800648942
 32
0.0
 13
1301.4499795139
 23
-81.0850648942
 33
0.0
  0
TEXT
  5
27B
100
AcDbEntity
  8
L1_115
  6
CONTINUOUS
 62
         4
100
AcDbText
 10
1265.6512460555
 20
-79.0600648942
 30
0.0
 40
2.7
  1
56.8
  7
BOX
100
AcDbText
  0
ENDBLK
  5
27C
100
AcDbEntity
  8
0
  6
CONTINUOUS
100
AcDbBlockEnd
  0
BLOCK
  5
29A
100
AcDbEntity
  8
0
100
AcDbBlockBegin
  2
*D12
 70
        65
 10
0.0
 20
0.0
 30
0.0
  3
*D12
  1

  0
POINT
  5
29C
100
AcDbEntity
  8
DEFPOINTS
  6
CONTINUOUS
 62
         0
100
AcDbPoint
 10
1238.8522448222
 20
-105.1558866319
 30
0.0
  0
POINT
  5
29D
100
AcDbEntity
  8
DEFPOINTS
  6
CONTINUOUS
 62
         0
100
AcDbPoint
 10
1240.1999795139
 20
-105.1558866319
 30
0.0
  0
POINT
  5
29E
100
AcDbEntity
  8
DEFPOINTS
  6
CONTINUOUS
 62
         0
100
AcDbPoint
 10
1240.1999795139
 20
-111.1558866319
 30
0.0
  0
LINE
  5
29F
100
AcDbEntity
  8
L1_115
  6
CONTINUOUS
 62
         4
100
AcDbLine
 10
1238.8499795139
 20
-105.1558866319
 30
0.0
 11
1238.1772448222
 21
-105.1558866319
 31
0.0
  0
LINE
  5
2A0
100
AcDbEntity
  8
L1_115
  6
CONTINUOUS
 62
         4
100
AcDbLine
 10
1238.8499795139
 20
-111.1558866319
 30
0.0
 11
1238.1772448222
 21
-111.1558866319
 31
0.0
  0
LINE
  5
2A1
100
AcDbEntity
  8
L1_115
  6
CONTINUOUS
 62
         4
100
AcDbLine
 10
1238.8522448222
 20
-105.1558866319
 30
0.0
 11
1238.8522448222
 21
-111.1558866319
 31
0.0
  0
SOLID
  5
2A2
100
AcDbEntity
  8
L1_115
  6
CONTINUOUS
 62
         4
100
AcDbTrace
 10
1238.8522448222
 20
-105.1558866319
 30
0.0
 11
1239.2572448222
 21
-107.8558866319
 31
0.0
 12
1238.4472448222
 22
-107.8558866319
 32
0.0
 13
1238.8522448222
 23
-105.1558866319
 33
0.0
  0
SOLID
  5
2A3
100
AcDbEntity
  8
L1_115
  6
CONTINUOUS
 62
         4
100
AcDbTrace
 10
1238.8522448222
 20
-111.1558866319
 30
0.0
 11
1238.4472448222
 21
-108.4558866319
 31
0.0
 12
1239.2572448222
 22
-108.4558866319
 32
0.0
 13
1238.8522448222
 23
-111.1558866319
 33
0.0
  0
TEXT
  5
2A5
100
AcDbEntity
  8
L1_115
  6
CONTINUOUS
 62
         4
100
AcDbText
 10
1236.8272448222
 20
-114.9058866319
 30
0.0
 40
2.7
  1
M6xP1
 50
90.0
  7
BOX
100
AcDbText
  0
ENDBLK
  5
2A6
100
AcDbEntity
  8
0
  6
CONTINUOUS
100
AcDbBlockEnd
  0
BLOCK
  5
2A9
100
AcDbEntity
  8
0
100
AcDbBlockBegin
  2
*D13
 70
        65
 10
0.0
 20
0.0
 30
0.0
  3
*D13
  1

  0
POINT
  5
2AB
100
AcDbEntity
  8
DEFPOINTS
  6
CONTINUOUS
 62
         0
100
AcDbPoint
 10
1775.2559147704
 20
-48.1496167018
 30
0.0
  0
POINT
  5
2AC
100
AcDbEntity
  8
DEFPOINTS
  6
CONTINUOUS
 62
         0
100
AcDbPoint
 10
1779.1368499685
 20
-45.3892275558
 30
0.0
  0
LINE
  5
2AD
100
AcDbEntity
  8
L1_115
  6
CONTINUOUS
 62
         4
100
AcDbLine
 10
1779.1368499685
 20
-45.3892275558
 30
0.0
 11
1775.2559147704
 21
-48.1496167018
 31
0.0
  0
LINE
  5
2AE
100
AcDbEntity
  8
L1_115
  6
CONTINUOUS
 62
         4
100
AcDbLine
 10
1779.1368499685
 20
-45.3892275558
 30
0.0
 11
1792.99442777
 21
-35.5327611631
 31
0.0
  0
SOLID
  5
2AF
100
AcDbEntity
  8
L1_115
  6
CONTINUOUS
 62
         4
100
AcDbTrace
 10
1779.1368499685
 20
-45.3892275558
 30
0.0
 11
1777.1713764922
 21
-47.284204868
 31
0.0
 12
1776.7018929839
 22
-46.6241402989
 32
0.0
 13
1779.1368499685
 23
-45.3892275558
 33
0.0
  0
TEXT
  5
2B1
100
AcDbEntity
  8
L1_115
  6
CONTINUOUS
 62
         4
100
AcDbText
 10
1778.2621635241
 20
-44.4241341425
 30
0.0
 40
2.7
  1
R4.763
 50
35.4230654292
  7
BOX
100
AcDbText
  0
ENDBLK
  5
2B2
100
AcDbEntity
  8
0
  6
CONTINUOUS
100
AcDbBlockEnd
  0
BLOCK
  5
2B4
100
AcDbEntity
  8
0
100
AcDbBlockBegin
  2
*D14
 70
        65
 10
0.0
 20
0.0
 30
0.0
  3
*D14
  1

  0
POINT
  5
2B6
100
AcDbEntity
  8
DEFPOINTS
  6
CONTINUOUS
 62
         0
100
AcDbPoint
 10
1750.1963947825
 20
-48.1496167018
 30
0.0
  0
POINT
  5
2B7
100
AcDbEntity
  8
DEFPOINTS
  6
CONTINUOUS
 62
         0
100
AcDbPoint
 10
1751.9420001169
 20
-45.49754449
 30
0.0
  0
LINE
  5
2B8
100
AcDbEntity
  8
L1_115
  6
CONTINUOUS
 62
         4
100
AcDbLine
 10
1751.9420001169
 20
-45.49754449
 30
0.0
 11
1750.1963947825
 21
-48.1496167018
 31
0.0
  0
LINE
  5
2B9
100
AcDbEntity
  8
L1_115
  6
CONTINUOUS
 62
         4
100
AcDbLine
 10
1751.9420001169
 20
-45.49754449
 30
0.0
 11
1765.0264768893
 21
-25.6184936134
 31
0.0
  0
SOLID
  5
2BA
100
AcDbEntity
  8
L1_115
  6
CONTINUOUS
 62
         4
100
AcDbTrace
 10
1751.9420001169
 20
-45.49754449
 30
0.0
 11
1750.7958441619
 21
-47.97551776
 31
0.0
 12
1750.119252511
 22
-47.5301822259
 32
0.0
 13
1751.9420001169
 23
-45.49754449
 33
0.0
  0
TEXT
  5
2BC
100
AcDbEntity
  8
L1_115
  6
CONTINUOUS
 62
         4
100
AcDbText
 10
1754.5840734205
 20
-39.0807160593
 30
0.0
 40
2.7
  1
R3.175
 50
56.6469156004
  7
BOX
100
AcDbText
  0
ENDBLK
  5
2BD
100
AcDbEntity
  8
0
  6
CONTINUOUS
100
AcDbBlockEnd
  0
BLOCK
  5
2C3
100
AcDbEntity
  8
0
100
AcDbBlockBegin
  2
*D15
 70
        65
 10
0.0
 20
0.0
 30
0.0
  3
*D15
  1

  0
POINT
  5
2C5
100
AcDbEntity
  8
DEFPOINTS
  6
CONTINUOUS
 62
         0
100
AcDbPoint
 10
1663.9447649495
 20
-29.7543152804
 30
0.0
  0
POINT
  5
2C6
100
AcDbEntity
  8
DEFPOINTS
  6
CONTINUOUS
 62
         0
100
AcDbPoint
 10
1663.9447649495
 20
-35.1996167018
 30
0.0
  0
POINT
  5
2C7
100
AcDbEntity
  8
DEFPOINTS
  6
CONTINUOUS
 62
         0
100
AcDbPoint
 10
1665.1447649495
 20
-35.1996167018
 30
0.0
  0
LINE
  5
2C8
100
AcDbEntity
  8
L1_115
  6
CONTINUOUS
 62
         4
100
AcDbLine
 10
1663.9447649495
 20
-33.8496167018
 30
0.0
 11
1663.9447649495
 21
-29.0793152804
 31
0.0
  0
LINE
  5
2C9
100
AcDbEntity
  8
L1_115
  6
CONTINUOUS
 62
         4
100
AcDbLine
 10
1665.1447649495
 20
-33.8496167018
 30
0.0
 11
1665.1447649495
 21
-29.0793152804
 31
0.0
  0
LINE
  5
2CA
100
AcDbEntity
  8
L1_115
  6
CONTINUOUS
 62
         4
100
AcDbLine
 10
1663.9447649495
 20
-29.7543152804
 30
0.0
 11
1665.1447649495
 21
-29.7543152804
 31
0.0
  0
SOLID
  5
2CB
100
AcDbEntity
  8
L1_115
  6
CONTINUOUS
 62
         4
100
AcDbTrace
 10
1663.9447649495
 20
-29.7543152804
 30
0.0
 11
1666.6447649495
 21
-29.3493152804
 31
0.0
 12
1666.6447649495
 22
-30.1593152804
 32
0.0
 13
1663.9447649495
 23
-29.7543152804
 33
0.0
  0
SOLID
  5
2CC
100
AcDbEntity
  8
L1_115
  6
CONTINUOUS
 62
         4
100
AcDbTrace
 10
1665.1447649495
 20
-29.7543152804
 30
0.0
 11
1662.4447649495
 21
-30.1593152804
 31
0.0
 12
1662.4447649495
 22
-29.3493152804
 32
0.0
 13
1665.1447649495
 23
-29.7543152804
 33
0.0
  0
TEXT
  5
2CE
100
AcDbEntity
  8
L1_115
  6
CONTINUOUS
 62
         4
100
AcDbText
 10
1660.4947649495
 20
-27.7293152804
 30
0.0
 40
2.7
  1
1.2
  7
BOX
100
AcDbText
  0
ENDBLK
  5
2CF
100
AcDbEntity
  8
0
  6
CONTINUOUS
100
AcDbBlockEnd
  0
BLOCK
  5
2D1
100
AcDbEntity
  8
0
100
AcDbBlockBegin
  2
*D16
 70
        65
 10
0.0
 20
0.0
 30
0.0
  3
*D16
  1

  0
POINT
  5
2D3
100
AcDbEntity
  8
DEFPOINTS
  6
CONTINUOUS
 62
         0
100
AcDbPoint
 10
1672.6268087994
 20
-35.1996167018
 30
0.0
  0
POINT
  5
2D4
100
AcDbEntity
  8
DEFPOINTS
  6
CONTINUOUS
 62
         0
100
AcDbPoint
 10
1665.1447649495
 20
-35.1996167018
 30
0.0
  0
POINT
  5
2D5
100
AcDbEntity
  8
DEFPOINTS
  6
CONTINUOUS
 62
         0
100
AcDbPoint
 10
1665.1447649495
 20
-61.0996167018
 30
0.0
  0
LINE
  5
2D6
100
AcDbEntity
  8
L1_115
  6
CONTINUOUS
 62
         4
100
AcDbLine
 10
1666.4947649495
 20
-35.1996167018
 30
0.0
 11
1673.3018087994
 21
-35.1996167018
 31
0.0
  0
LINE
  5
2D7
100
AcDbEntity
  8
L1_115
  6
CONTINUOUS
 62
         4
100
AcDbLine
 10
1666.4947649495
 20
-61.0996167018
 30
0.0
 11
1673.3018087994
 21
-61.0996167018
 31
0.0
  0
LINE
  5
2D8
100
AcDbEntity
  8
L1_115
  6
CONTINUOUS
 62
         4
100
AcDbLine
 10
1672.6268087994
 20
-35.1996167018
 30
0.0
 11
1672.6268087994
 21
-61.0996167018
 31
0.0
  0
SOLID
  5
2D9
100
AcDbEntity
  8
L1_115
  6
CONTINUOUS
 62
         4
100
AcDbTrace
 10
1672.6268087994
 20
-35.1996167018
 30
0.0
 11
1673.0318087994
 21
-37.8996167018
 31
0.0
 12
1672.2218087994
 22
-37.8996167018
 32
0.0
 13
1672.6268087994
 23
-35.1996167018
 33
0.0
  0
SOLID
  5
2DA
100
AcDbEntity
  8
L1_115
  6
CONTINUOUS
 62
         4
100
AcDbTrace
 10
1672.6268087994
 20
-61.0996167018
 30
0.0
 11
1672.2218087994
 21
-58.3996167018
 31
0.0
 12
1673.0318087994
 22
-58.3996167018
 32
0.0
 13
1672.6268087994
 23
-61.0996167018
 33
0.0
  0
TEXT
  5
2DC
100
AcDbEntity
  8
L1_115
  6
CONTINUOUS
 62
         4
100
AcDbText
 10
1670.6018087994
 20
-53.5496167018
 30
0.0
 40
2.7
  1
崷26
 50
90.0
  7
BOX
100
AcDbText
  0
ENDBLK
  5
2DD
100
AcDbEntity
  8
0
  6
CONTINUOUS
100
AcDbBlockEnd
  0
BLOCK
  5
2DF
100
AcDbEntity
  8
0
100
AcDbBlockBegin
  2
*D17
 70
        65
 10
0.0
 20
0.0
 30
0.0
  3
*D17
  1

  0
POINT
  5
2E1
100
AcDbEntity
  8
DEFPOINTS
  6
CONTINUOUS
 62
         0
100
AcDbPoint
 10
1642.9837624586
 20
-18.1496167018
 30
0.0
  0
POINT
  5
2E2
100
AcDbEntity
  8
DEFPOINTS
  6
CONTINUOUS
 62
         0
100
AcDbPoint
 10
1630.4302286188
 20
-18.1496167018
 30
0.0
  0
POINT
  5
2E3
100
AcDbEntity
  8
DEFPOINTS
  6
CONTINUOUS
 62
         0
100
AcDbPoint
 10
1630.4302286188
 20
-78.1496167018
 30
0.0
  0
LINE
  5
2E4
100
AcDbEntity
  8
L1_115
  6
CONTINUOUS
 62
         4
100
AcDbLine
 10
1631.7802286188
 20
-18.1496167018
 30
0.0
 11
1643.6587624586
 21
-18.1496167018
 31
0.0
  0
LINE
  5
2E5
100
AcDbEntity
  8
L1_115
  6
CONTINUOUS
 62
         4
100
AcDbLine
 10
1631.7802286188
 20
-78.1496167018
 30
0.0
 11
1643.6587624586
 21
-78.1496167018
 31
0.0
  0
LINE
  5
2E6
100
AcDbEntity
  8
L1_115
  6
CONTINUOUS
 62
         4
100
AcDbLine
 10
1642.9837624586
 20
-18.1496167018
 30
0.0
 11
1642.9837624586
 21
-78.1496167018
 31
0.0
  0
SOLID
  5
2E7
100
AcDbEntity
  8
L1_115
  6
CONTINUOUS
 62
         4
100
AcDbTrace
 10
1642.9837624586
 20
-18.1496167018
 30
0.0
 11
1643.3887624586
 21
-20.8496167018
 31
0.0
 12
1642.5787624586
 22
-20.8496167018
 32
0.0
 13
1642.9837624586
 23
-18.1496167018
 33
0.0
  0
SOLID
  5
2E8
100
AcDbEntity
  8
L1_115
  6
CONTINUOUS
 62
         4
100
AcDbTrace
 10
1642.9837624586
 20
-78.1496167018
 30
0.0
 11
1642.5787624586
 21
-75.4496167018
 31
0.0
 12
1643.3887624586
 22
-75.4496167018
 32
0.0
 13
1642.9837624586
 23
-78.1496167018
 33
0.0
  0
TEXT
  5
2EA
100
AcDbEntity
  8
L1_115
  6
CONTINUOUS
 62
         4
100
AcDbText
 10
1640.9587624586
 20
-53.5496167018
 30
0.0
 40
2.7
  1
崷59
 50
90.0
  7
BOX
100
AcDbText
  0
ENDBLK
  5
2EB
100
AcDbEntity
  8
0
  6
CONTINUOUS
100
AcDbBlockEnd
  0
BLOCK
  5
2FF
100
AcDbEntity
  8
0
100
AcDbBlockBegin
  2
*D18
 70
        65
 10
0.0
 20
0.0
 30
0.0
  3
*D18
  1

  0
POINT
  5
301
100
AcDbEntity
  8
DEFPOINTS
  6
CONTINUOUS
 62
         0
100
AcDbPoint
 10
1705.5592756886
 20
-31.8996167018
 30
0.0
  0
POINT
  5
302
100
AcDbEntity
  8
DEFPOINTS
  6
CONTINUOUS
 62
         0
100
AcDbPoint
 10
1694.9306690737
 20
-31.8996167018
 30
0.0
  0
POINT
  5
303
100
AcDbEntity
  8
DEFPOINTS
  6
CONTINUOUS
 62
         0
100
AcDbPoint
 10
1694.9306690737
 20
-64.3996167018
 30
0.0
  0
LINE
  5
304
100
AcDbEntity
  8
L1_115
  6
CONTINUOUS
 62
         4
100
AcDbLine
 10
1696.2806690737
 20
-31.8996167018
 30
0.0
 11
1706.2342756886
 21
-31.8996167018
 31
0.0
  0
LINE
  5
305
100
AcDbEntity
  8
L1_115
  6
CONTINUOUS
 62
         4
100
AcDbLine
 10
1696.2806690737
 20
-64.3996167018
 30
0.0
 11
1706.2342756886
 21
-64.3996167018
 31
0.0
  0
LINE
  5
306
100
AcDbEntity
  8
L1_115
  6
CONTINUOUS
 62
         4
100
AcDbLine
 10
1705.5592756886
 20
-31.8996167018
 30
0.0
 11
1705.5592756886
 21
-64.3996167018
 31
0.0
  0
SOLID
  5
307
100
AcDbEntity
  8
L1_115
  6
CONTINUOUS
 62
         4
100
AcDbTrace
 10
1705.5592756886
 20
-31.8996167018
 30
0.0
 11
1705.9642756886
 21
-34.5996167018
 31
0.0
 12
1705.1542756886
 22
-34.5996167018
 32
0.0
 13
1705.5592756886
 23
-31.8996167018
 33
0.0
  0
SOLID
  5
308
100
AcDbEntity
  8
L1_115
  6
CONTINUOUS
 62
         4
100
AcDbTrace
 10
1705.5592756886
 20
-64.3996167018
 30
0.0
 11
1705.1542756886
 21
-61.6996167018
 31
0.0
 12
1705.9642756886
 22
-61.6996167018
 32
0.0
 13
1705.5592756886
 23
-64.3996167018
 33
0.0
  0
TEXT
  5
30A
100
AcDbEntity
  8
L1_115
  6
CONTINUOUS
 62
         4
100
AcDbText
 10
1703.5342756886
 20
-56.2496167018
 30
0.0
 40
2.7
  1
崷33.5
 50
90.0
  7
BOX
100
AcDbText
  0
ENDBLK
  5
30B
100
AcDbEntity
  8
0
  6
CONTINUOUS
100
AcDbBlockEnd
  0
BLOCK
  5
30D
100
AcDbEntity
  8
0
100
AcDbBlockBegin
  2
*D19
 70
        65
 10
0.0
 20
0.0
 30
0.0
  3
*D19
  1

  0
POINT
  5
30F
100
AcDbEntity
  8
DEFPOINTS
  6
CONTINUOUS
 62
         0
100
AcDbPoint
 10
1730.1509400868
 20
-27.3996167018
 30
0.0
  0
POINT
  5
310
100
AcDbEntity
  8
DEFPOINTS
  6
CONTINUOUS
 62
         0
100
AcDbPoint
 10
1719.9719282009
 20
-27.3996167018
 30
0.0
  0
POINT
  5
311
100
AcDbEntity
  8
DEFPOINTS
  6
CONTINUOUS
 62
         0
100
AcDbPoint
 10
1719.9719282009
 20
-68.8996167018
 30
0.0
  0
LINE
  5
312
100
AcDbEntity
  8
L1_115
  6
CONTINUOUS
 62
         4
100
AcDbLine
 10
1721.3219282009
 20
-27.3996167018
 30
0.0
 11
1730.8259400868
 21
-27.3996167018
 31
0.0
  0
LINE
  5
313
100
AcDbEntity
  8
L1_115
  6
CONTINUOUS
 62
         4
100
AcDbLine
 10
1721.3219282009
 20
-68.8996167018
 30
0.0
 11
1730.8259400868
 21
-68.8996167018
 31
0.0
  0
LINE
  5
314
100
AcDbEntity
  8
L1_115
  6
CONTINUOUS
 62
         4
100
AcDbLine
 10
1730.1509400868
 20
-27.3996167018
 30
0.0
 11
1730.1509400868
 21
-68.8996167018
 31
0.0
  0
SOLID
  5
315
100
AcDbEntity
  8
L1_115
  6
CONTINUOUS
 62
         4
100
AcDbTrace
 10
1730.1509400868
 20
-27.3996167018
 30
0.0
 11
1730.5559400868
 21
-30.0996167018
 31
0.0
 12
1729.7459400868
 22
-30.0996167018
 32
0.0
 13
1730.1509400868
 23
-27.3996167018
 33
0.0
  0
SOLID
  5
316
100
AcDbEntity
  8
L1_115
  6
CONTINUOUS
 62
         4
100
AcDbTrace
 10
1730.1509400868
 20
-68.8996167018
 30
0.0
 11
1729.7459400868
 21
-66.1996167018
 31
0.0
 12
1730.5559400868
 22
-66.1996167018
 32
0.0
 13
1730.1509400868
 23
-68.8996167018
 33
0.0
  0
TEXT
  5
318
100
AcDbEntity
  8
L1_115
  6
CONTINUOUS
 62
         4
100
AcDbText
 10
1728.1259400868
 20
-56.2496167018
 30
0.0
 40
2.7
  1
崷40.5
 50
90.0
  7
BOX
100
AcDbText
  0
ENDBLK
  5
319
100
AcDbEntity
  8
0
  6
CONTINUOUS
100
AcDbBlockEnd
  0
BLOCK
  5
520
100
AcDbEntity
  8
0
100
AcDbBlockBegin
  2
*X20
 70
        65
 10
0.0
 20
0.0
 30
0.0
  3
*X20
  1

  0
LINE
  5
521
100
AcDbEntity
  8
L1_115
  6
CONTINUOUS
 62
         4
100
AcDbLine
 10
1482.091893938
 20
-41.2502493819
 30
0.0
 11
1485.063714855
 21
-38.2784284648
 31
0.0
  0
LINE
  5
522
100
AcDbEntity
  8
L1_115
  6
CONTINUOUS
 62
         4
100
AcDbLine
 10
1477.156167892
 20
-41.9433347407
 30
0.0
 11
1482.156167892
 21
-36.9433347407
 31
0.0
  0
LINE
  5
523
100
AcDbEntity
  8
L1_115
  6
CONTINUOUS
 62
         4
100
AcDbLine
 10
1472.9135272049
 20
-41.9433347407
 30
0.0
 11
1477.9135272049
 21
-36.9433347407
 31
0.0
  0
LINE
  5
524
100
AcDbEntity
  8
L1_115
  6
CONTINUOUS
 62
         4
100
AcDbLine
 10
1468.6708865178
 20
-41.9433347407
 30
0.0
 11
1473.6708865178
 21
-36.9433347407
 31
0.0
  0
LINE
  5
525
100
AcDbEntity
  8
L1_115
  6
CONTINUOUS
 62
         4
100
AcDbLine
 10
1464.4282458307
 20
-41.9433347407
 30
0.0
 11
1469.4282458307
 21
-36.9433347407
 31
0.0
  0
LINE
  5
526
100
AcDbEntity
  8
L1_115
  6
CONTINUOUS
 62
         4
100
AcDbLine
 10
1460.1856051436
 20
-41.9433347407
 30
0.0
 11
1465.1856051436
 21
-36.9433347407
 31
0.0
  0
LINE
  5
527
100
AcDbEntity
  8
L1_115
  6
CONTINUOUS
 62
         4
100
AcDbLine
 10
1455.9429644565
 20
-41.9433347407
 30
0.0
 11
1460.9429644565
 21
-36.9433347407
 31
0.0
  0
LINE
  5
528
100
AcDbEntity
  8
L1_115
  6
CONTINUOUS
 62
         4
100
AcDbLine
 10
1451.7003237693
 20
-41.9433347407
 30
0.0
 11
1456.7003237693
 21
-36.9433347407
 31
0.0
  0
LINE
  5
529
100
AcDbEntity
  8
L1_115
  6
CONTINUOUS
 62
         4
100
AcDbLine
 10
1447.4576830822
 20
-41.9433347407
 30
0.0
 11
1452.4576830822
 21
-36.9433347407
 31
0.0
  0
LINE
  5
52A
100
AcDbEntity
  8
L1_115
  6
CONTINUOUS
 62
         4
100
AcDbLine
 10
1443.2150423951
 20
-41.9433347407
 30
0.0
 11
1448.2150423951
 21
-36.9433347407
 31
0.0
  0
LINE
  5
52B
100
AcDbEntity
  8
L1_115
  6
CONTINUOUS
 62
         4
100
AcDbLine
 10
1438.972401708
 20
-41.9433347407
 30
0.0
 11
1443.972401708
 21
-36.9433347407
 31
0.0
  0
LINE
  5
52C
100
AcDbEntity
  8
L1_115
  6
CONTINUOUS
 62
         4
100
AcDbLine
 10
1432.2297610209
 20
-44.4433347407
 30
0.0
 11
1434.0696291142
 21
-42.6034666473
 31
0.0
  0
LINE
  5
52D
100
AcDbEntity
  8
L1_115
  6
CONTINUOUS
 62
         4
100
AcDbLine
 10
1436.6033403763
 20
-40.0697553853
 30
0.0
 11
1439.7297610209
 21
-36.9433347407
 31
0.0
  0
LINE
  5
52E
100
AcDbEntity
  8
L1_115
  6
CONTINUOUS
 62
         4
100
AcDbLine
 10
1427.9871203337
 20
-44.4433347407
 30
0.0
 11
1434.6033403763
 21
-37.8271146982
 31
0.0
  0
LINE
  5
52F
100
AcDbEntity
  8
L1_115
  6
CONTINUOUS
 62
         4
100
AcDbLine
 10
1483.4892947088
 20
11.0588396344
 30
0.0
 11
1485.1011660012
 21
12.6707109268
 31
0.0
  0
LINE
  5
530
100
AcDbEntity
  8
L1_115
  6
CONTINUOUS
 62
         4
100
AcDbLine
 10
1424.7444796466
 20
-43.4433347407
 30
0.0
 11
1432.1057015658
 21
-36.0821128215
 31
0.0
  0
LINE
  5
531
100
AcDbEntity
  8
L1_115
  6
CONTINUOUS
 62
         4
100
AcDbLine
 10
1479.2444796466
 20
11.0566652593
 30
0.0
 11
1483.2429655728
 21
15.0551511855
 31
0.0
  0
LINE
  5
532
100
AcDbEntity
  8
L1_115
  6
CONTINUOUS
 62
         4
100
AcDbLine
 10
1420.5018389595
 20
-43.4433347407
 30
0.0
 11
1432.1057015658
 21
-31.8394721344
 31
0.0
  0
LINE
  5
533
100
AcDbEntity
  8
L1_115
  6
CONTINUOUS
 62
         4
100
AcDbLine
 10
1475.0018389595
 20
11.0566652593
 30
0.0
 11
1479.8969003579
 21
15.9517266577
 31
0.0
  0
LINE
  5
534
100
AcDbEntity
  8
L1_115
  6
CONTINUOUS
 62
         4
100
AcDbLine
 10
1415.2591982724
 20
-44.4433347407
 30
0.0
 11
1429.2591982724
 21
-30.4433347407
 31
0.0
  0
LINE
  5
535
100
AcDbEntity
  8
L1_115
  6
CONTINUOUS
 62
         4
100
AcDbLine
 10
1470.7591982724
 20
11.0566652593
 30
0.0
 11
1474.7591982724
 21
15.0566652593
 31
0.0
  0
LINE
  5
536
100
AcDbEntity
  8
L1_115
  6
CONTINUOUS
 62
         4
100
AcDbLine
 10
1412.7199996487
 20
-42.7398926772
 30
0.0
 11
1425.0165575853
 21
-30.4433347407
 31
0.0
  0
LINE
  5
537
100
AcDbEntity
  8
L1_115
  6
CONTINUOUS
 62
         4
100
AcDbLine
 10
1469.0483403763
 20
13.5884480503
 30
0.0
 11
1471.5165575853
 21
16.0566652593
 31
0.0
  0
LINE
  5
538
100
AcDbEntity
  8
L1_115
  6
CONTINUOUS
 62
         4
100
AcDbLine
 10
1411.2033403763
 20
-40.0139112626
 30
0.0
 11
1420.7739168981
 21
-30.4433347407
 31
0.0
  0
LINE
  5
539
100
AcDbEntity
  8
L1_115
  6
CONTINUOUS
 62
         4
100
AcDbLine
 10
1402.531276211
 20
-44.4433347407
 30
0.0
 11
1405.3040738103
 21
-41.6705371414
 31
0.0
  0
LINE
  5
53A
100
AcDbEntity
  8
L1_115
  6
CONTINUOUS
 62
         4
100
AcDbLine
 10
1407.531276211
 20
-39.4433347407
 30
0.0
 11
1416.531276211
 21
-30.4433347407
 31
0.0
  0
LINE
  5
53B
100
AcDbEntity
  8
L1_115
  6
CONTINUOUS
 62
         4
100
AcDbLine
 10
1398.2886355239
 20
-44.4433347407
 30
0.0
 11
1412.2886355239
 21
-30.4433347407
 31
0.0
  0
LINE
  5
53C
100
AcDbEntity
  8
L1_115
  6
CONTINUOUS
 62
         4
100
AcDbLine
 10
1394.3681423966
 20
-44.1211871809
 30
0.0
 11
1407.5459948368
 21
-30.9433347407
 31
0.0
  0
LINE
  5
53D
100
AcDbEntity
  8
L1_115
  6
CONTINUOUS
 62
         4
100
AcDbLine
 10
1394.1033403763
 20
-40.1433485141
 30
0.0
 11
1405.1033403763
 21
-29.1433485141
 31
0.0
  0
LINE
  5
53E
100
AcDbEntity
  8
L1_115
  6
CONTINUOUS
 62
         4
100
AcDbLine
 10
1394.1033403763
 20
-35.900707827
 30
0.0
 11
1405.1033403763
 21
-24.900707827
 31
0.0
  0
LINE
  5
53F
100
AcDbEntity
  8
L1_115
  6
CONTINUOUS
 62
         4
100
AcDbLine
 10
1390.7852877299
 20
-34.9761197862
 30
0.0
 11
1405.1033403763
 21
-20.6580671398
 31
0.0
  0
LINE
  5
540
100
AcDbEntity
  8
L1_115
  6
CONTINUOUS
 62
         4
100
AcDbLine
 10
1430.3180727754
 20
4.5566652593
 30
0.0
 11
1432.1057015658
 21
6.3442940497
 31
0.0
  0
LINE
  5
541
100
AcDbEntity
  8
L1_115
  6
CONTINUOUS
 62
         4
100
AcDbLine
 10
1437.1057015658
 20
11.3442940497
 30
0.0
 11
1441.0583403763
 21
15.2969328602
 31
0.0
  0
LINE
  5
542
100
AcDbEntity
  8
L1_115
  6
CONTINUOUS
 62
         4
100
AcDbLine
 10
1387.0826169036
 20
-34.4361499253
 30
0.0
 11
1405.0893862323
 21
-16.4293805967
 31
0.0
  0
LINE
  5
543
100
AcDbEntity
  8
L1_115
  6
CONTINUOUS
 62
         4
100
AcDbLine
 10
1426.0754320883
 20
4.5566652593
 30
0.0
 11
1432.1061742167
 21
10.5874073877
 31
0.0
  0
LINE
  5
544
100
AcDbEntity
  8
L1_115
  6
CONTINUOUS
 62
         4
100
AcDbLine
 10
1433.0749594374
 20
11.5561926084
 30
0.0
 11
1437.5754320883
 21
16.0566652593
 31
0.0
  0
LINE
  5
545
100
AcDbEntity
  8
L1_115
  6
CONTINUOUS
 62
         4
100
AcDbLine
 10
1383.3799460774
 20
-33.8961800644
 30
0.0
 11
1401.8327914012
 21
-15.4433347407
 31
0.0
  0
LINE
  5
546
100
AcDbEntity
  8
L1_115
  6
CONTINUOUS
 62
         4
100
AcDbLine
 10
1421.8327914012
 20
4.5566652593
 30
0.0
 11
1434.0821722326
 21
16.8060460907
 31
0.0
  0
LINE
  5
547
100
AcDbEntity
  8
L1_115
  6
CONTINUOUS
 62
         4
100
AcDbLine
 10
1379.6772752512
 20
-33.3562102036
 30
0.0
 11
1397.5901507141
 21
-15.4433347407
 31
0.0
  0
LINE
  5
548
100
AcDbEntity
  8
L1_115
  6
CONTINUOUS
 62
         4
100
AcDbLine
 10
1402.5901507141
 20
-10.4433347407
 30
0.0
 11
1405.1033403763
 21
-7.9301450785
 31
0.0
  0
LINE
  5
549
100
AcDbEntity
  8
L1_115
  6
CONTINUOUS
 62
         4
100
AcDbLine
 10
1417.5901507141
 20
4.5566652593
 30
0.0
 11
1431.5901507141
 21
18.5566652593
 31
0.0
  0
LINE
  5
54A
100
AcDbEntity
  8
L1_115
  6
CONTINUOUS
 62
         4
100
AcDbLine
 10
1375.974604425
 20
-32.8162403427
 30
0.0
 11
1393.3475100269
 21
-15.4433347407
 31
0.0
  0
LINE
  5
54B
100
AcDbEntity
  8
L1_115
  6
CONTINUOUS
 62
         4
100
AcDbLine
 10
1398.3475100269
 20
-10.4433347407
 30
0.0
 11
1405.1033403763
 21
-3.6875043914
 31
0.0
  0
LINE
  5
54C
100
AcDbEntity
  8
L1_115
  6
CONTINUOUS
 62
         4
100
AcDbLine
 10
1413.3475100269
 20
4.5566652593
 30
0.0
 11
1426.348802844
 21
17.5579580764
 31
0.0
  0
LINE
  5
54D
100
AcDbEntity
  8
L1_115
  6
CONTINUOUS
 62
         4
100
AcDbLine
 10
1372.2719335987
 20
-32.2762704818
 30
0.0
 11
1389.1048693398
 21
-15.4433347407
 31
0.0
  0
LINE
  5
54E
100
AcDbEntity
  8
L1_115
  6
CONTINUOUS
 62
         4
100
AcDbLine
 10
1394.1048693398
 20
-10.4433347407
 30
0.0
 11
1405.1033403763
 21
0.5551362958
 31
0.0
  0
LINE
  5
54F
100
AcDbEntity
  8
L1_115
  6
CONTINUOUS
 62
         4
100
AcDbLine
 10
1409.6048693398
 20
5.0566652593
 30
0.0
 11
1422.1048693398
 21
17.5566652593
 31
0.0
  0
LINE
  5
550
100
AcDbEntity
  8
L1_115
  6
CONTINUOUS
 62
         4
100
AcDbLine
 10
1368.5692627725
 20
-31.7363006209
 30
0.0
 11
1386.2142583955
 21
-14.0913049979
 31
0.0
  0
LINE
  5
551
100
AcDbEntity
  8
L1_115
  6
CONTINUOUS
 62
         4
100
AcDbLine
 10
1389.8622286527
 20
-10.4433347407
 30
0.0
 11
1418.8622286527
 21
18.5566652593
 31
0.0
  0
LINE
  5
552
100
AcDbEntity
  8
L1_115
  6
CONTINUOUS
 62
         4
100
AcDbLine
 10
1364.8665919463
 20
-31.19633076
 30
0.0
 11
1409.6195879656
 21
13.5566652593
 31
0.0
  0
LINE
  5
553
100
AcDbEntity
  8
L1_115
  6
CONTINUOUS
 62
         4
100
AcDbLine
 10
1412.4520588836
 20
16.3891361774
 30
0.0
 11
1414.6195879656
 21
18.5566652593
 31
0.0
  0
LINE
  5
554
100
AcDbEntity
  8
L1_115
  6
CONTINUOUS
 62
         4
100
AcDbLine
 10
1361.1639211201
 20
-30.6563608991
 30
0.0
 11
1406.1459600089
 21
14.3256779898
 31
0.0
  0
LINE
  5
555
100
AcDbEntity
  8
L1_115
  6
CONTINUOUS
 62
         4
100
AcDbLine
 10
1357.4612502939
 20
-30.1163910382
 30
0.0
 11
1367.5843065913
 21
-19.9933347407
 31
0.0
  0
LINE
  5
556
100
AcDbEntity
  8
L1_115
  6
CONTINUOUS
 62
         4
100
AcDbLine
 10
1367.8659435503
 20
-19.7116977817
 30
0.0
 11
1404.5930457383
 21
17.0154044063
 31
0.0
  0
LINE
  5
557
100
AcDbEntity
  8
L1_115
  6
CONTINUOUS
 62
         4
100
AcDbLine
 10
1353.7585794676
 20
-29.5764211773
 30
0.0
 11
1363.3416659042
 21
-19.9933347407
 31
0.0
  0
LINE
  5
558
100
AcDbEntity
  8
L1_115
  6
CONTINUOUS
 62
         4
100
AcDbLine
 10
1371.2678149098
 20
-12.0671857351
 30
0.0
 11
1392.6713571346
 21
9.3363564897
 31
0.0
  0
LINE
  5
559
100
AcDbEntity
  8
L1_115
  6
CONTINUOUS
 62
         4
100
AcDbLine
 10
1394.1033403763
 20
10.7683397313
 30
0.0
 11
1401.8916659042
 21
18.5566652593
 31
0.0
  0
LINE
  5
55A
100
AcDbEntity
  8
L1_115
  6
CONTINUOUS
 62
         4
100
AcDbLine
 10
1350.0559086414
 20
-29.0364513164
 30
0.0
 11
1359.0990252171
 21
-19.9933347407
 31
0.0
  0
LINE
  5
55B
100
AcDbEntity
  8
L1_115
  6
CONTINUOUS
 62
         4
100
AcDbLine
 10
1369.7149006392
 20
-9.3774593186
 30
0.0
 11
1387.73731697
 21
8.6449570122
 31
0.0
  0
LINE
  5
55C
100
AcDbEntity
  8
L1_115
  6
CONTINUOUS
 62
         4
100
AcDbLine
 10
1394.1033403763
 20
15.0109804185
 30
0.0
 11
1397.6490252171
 21
18.5566652593
 31
0.0
  0
LINE
  5
55D
100
AcDbEntity
  8
L1_115
  6
CONTINUOUS
 62
         4
100
AcDbLine
 10
1346.3532378152
 20
-28.4964814555
 30
0.0
 11
1354.85638453
 21
-19.9933347407
 31
0.0
  0
LINE
  5
55E
100
AcDbEntity
  8
L1_115
  6
CONTINUOUS
 62
         4
100
AcDbLine
 10
1368.1619863686
 20
-6.6877329021
 30
0.0
 11
1382.770327656
 21
7.9206083853
 31
0.0
  0
LINE
  5
55F
100
AcDbEntity
  8
L1_115
  6
CONTINUOUS
 62
         4
100
AcDbLine
 10
1342.650566989
 20
-27.9565115946
 30
0.0
 11
1350.6137438429
 21
-19.9933347407
 31
0.0
  0
LINE
  5
560
100
AcDbEntity
  8
L1_115
  6
CONTINUOUS
 62
         4
100
AcDbLine
 10
1364.7137438429
 20
-5.8933347407
 30
0.0
 11
1377.8033383419
 21
7.1962597583
 31
0.0
  0
LINE
  5
561
100
AcDbEntity
  8
L1_115
  6
CONTINUOUS
 62
         4
100
AcDbLine
 10
1338.9478961627
 20
-27.4165417337
 30
0.0
 11
1346.3711031558
 21
-19.9933347407
 31
0.0
  0
LINE
  5
562
100
AcDbEntity
  8
L1_115
  6
CONTINUOUS
 62
         4
100
AcDbLine
 10
1360.4711031558
 20
-5.8933347407
 30
0.0
 11
1372.8363490278
 21
6.4719111314
 31
0.0
  0
LINE
  5
563
100
AcDbEntity
  8
L1_115
  6
CONTINUOUS
 62
         4
100
AcDbLine
 10
1335.2452253365
 20
-26.8765718728
 30
0.0
 11
1342.1284624686
 21
-19.9933347407
 31
0.0
  0
LINE
  5
564
100
AcDbEntity
  8
L1_115
  6
CONTINUOUS
 62
         4
100
AcDbLine
 10
1356.2284624686
 20
-5.8933347407
 30
0.0
 11
1367.8693597138
 21
5.7475625045
 31
0.0
  0
LINE
  5
565
100
AcDbEntity
  8
L1_115
  6
CONTINUOUS
 62
         4
100
AcDbLine
 10
1331.5425545103
 20
-26.3366020119
 30
0.0
 11
1337.8858217815
 21
-19.9933347407
 31
0.0
  0
LINE
  5
566
100
AcDbEntity
  8
L1_115
  6
CONTINUOUS
 62
         4
100
AcDbLine
 10
1351.9858217815
 20
-5.8933347407
 30
0.0
 11
1362.9023703997
 21
5.0232138775
 31
0.0
  0
LINE
  5
567
100
AcDbEntity
  8
L1_115
  6
CONTINUOUS
 62
         4
100
AcDbLine
 10
1327.8398836841
 20
-25.796632151
 30
0.0
 11
1332.1931810944
 21
-21.4433347407
 31
0.0
  0
LINE
  5
568
100
AcDbEntity
  8
L1_115
  6
CONTINUOUS
 62
         4
100
AcDbLine
 10
1347.7431810944
 20
-5.8933347407
 30
0.0
 11
1357.9353810856
 21
4.2988652506
 31
0.0
  0
LINE
  5
569
100
AcDbEntity
  8
L1_115
  6
CONTINUOUS
 62
         4
100
AcDbLine
 10
1326.7295100049
 20
-22.6643651431
 30
0.0
 11
1327.9243707787
 21
-21.4695043693
 31
0.0
  0
LINE
  5
56A
100
AcDbEntity
  8
L1_115
  6
CONTINUOUS
 62
         4
100
AcDbLine
 10
1343.5005404073
 20
-5.8933347407
 30
0.0
 11
1352.9683917716
 21
3.5745166236
 31
0.0
  0
LINE
  5
56B
100
AcDbEntity
  8
L1_115
  6
CONTINUOUS
 62
         4
100
AcDbLine
 10
1339.2578997202
 20
-5.8933347407
 30
0.0
 11
1348.0014024575
 21
2.8501679967
 31
0.0
  0
LINE
  5
56C
100
AcDbEntity
  8
L1_115
  6
CONTINUOUS
 62
         4
100
AcDbLine
 10
1335.7033403763
 20
-5.2052533975
 30
0.0
 11
1343.0344131435
 21
2.1258193698
 31
0.0
  0
LINE
  5
56D
100
AcDbEntity
  8
L1_115
  6
CONTINUOUS
 62
         4
100
AcDbLine
 10
1332.2226183459
 20
-4.4433347407
 30
0.0
 11
1338.0674238294
 21
1.4014707428
 31
0.0
  0
LINE
  5
56E
100
AcDbEntity
  8
L1_115
  6
CONTINUOUS
 62
         4
100
AcDbLine
 10
1327.9945761926
 20
-4.4287362068
 30
0.0
 11
1333.1004345153
 21
0.6771221159
 31
0.0
  0
LINE
  5
56F
100
AcDbEntity
  8
L1_115
  6
CONTINUOUS
 62
         4
100
AcDbLine
 10
1326.7033403763
 20
-1.4773313361
 30
0.0
 11
1328.1334452013
 21
-0.0472265111
 31
0.0
  0
ENDBLK
  5
570
100
AcDbEntity
  8
0
  6
CONTINUOUS
100
AcDbBlockEnd
  0
BLOCK
  5
574
100
AcDbEntity
  8
0
100
AcDbBlockBegin
  2
*D21
 70
        65
 10
0.0
 20
0.0
 30
0.0
  3
*D21
  1

  0
POINT
  5
576
100
AcDbEntity
  8
DEFPOINTS
  6
CONTINUOUS
 62
         0
100
AcDbPoint
 10
1432.1057015658
 20
-65.7933929011
 30
0.0
  0
POINT
  5
577
100
AcDbEntity
  8
DEFPOINTS
  6
CONTINUOUS
 62
         0
100
AcDbPoint
 10
1432.1057015658
 20
-37.4433347407
 30
0.0
  0
POINT
  5
578
100
AcDbEntity
  8
DEFPOINTS
  6
CONTINUOUS
 62
         0
100
AcDbPoint
 10
1485.1033403763
 20
-37.7886342023
 30
0.0
  0
LINE
  5
579
100
AcDbEntity
  8
L1_115
  6
CONTINUOUS
 62
         4
100
AcDbLine
 10
1432.1057015658
 20
-38.7933347407
 30
0.0
 11
1432.1057015658
 21
-66.4683929011
 31
0.0
  0
LINE
  5
57A
100
AcDbEntity
  8
L1_115
  6
CONTINUOUS
 62
         4
100
AcDbLine
 10
1485.1033403763
 20
-39.1386342023
 30
0.0
 11
1485.1033403763
 21
-66.4683929011
 31
0.0
  0
LINE
  5
57B
100
AcDbEntity
  8
L1_115
  6
CONTINUOUS
 62
         4
100
AcDbLine
 10
1432.1057015658
 20
-65.7933929011
 30
0.0
 11
1485.1033403763
 21
-65.7933929011
 31
0.0
  0
SOLID
  5
57C
100
AcDbEntity
  8
L1_115
  6
CONTINUOUS
 62
         4
100
AcDbTrace
 10
1432.1057015658
 20
-65.7933929011
 30
0.0
 11
1434.8057015658
 21
-65.3883929011
 31
0.0
 12
1434.8057015658
 22
-66.1983929011
 32
0.0
 13
1432.1057015658
 23
-65.7933929011
 33
0.0
  0
SOLID
  5
57D
100
AcDbEntity
  8
L1_115
  6
CONTINUOUS
 62
         4
100
AcDbTrace
 10
1485.1033403763
 20
-65.7933929011
 30
0.0
 11
1482.4033403763
 21
-66.1983929011
 31
0.0
 12
1482.4033403763
 22
-65.3883929011
 32
0.0
 13
1485.1033403763
 23
-65.7933929011
 33
0.0
  0
TEXT
  5
57F
100
AcDbEntity
  8
L1_115
  6
CONTINUOUS
 62
         4
100
AcDbText
 10
1452.9157191756
 20
-62.6613929011
 30
0.0
 40
2.7
  1
53
  7
BOX
100
AcDbText
  0
ENDBLK
  5
580
100
AcDbEntity
  8
0
  6
CONTINUOUS
100
AcDbBlockEnd
  0
BLOCK
  5
582
100
AcDbEntity
  8
0
100
AcDbBlockBegin
  2
*D22
 70
        65
 10
0.0
 20
0.0
 30
0.0
  3
*D22
  1

  0
POINT
  5
584
100
AcDbEntity
  8
DEFPOINTS
  6
CONTINUOUS
 62
         0
100
AcDbPoint
 10
1485.1033403763
 20
-77.7782125383
 30
0.0
  0
POINT
  5
585
100
AcDbEntity
  8
DEFPOINTS
  6
CONTINUOUS
 62
         0
100
AcDbPoint
 10
1485.1033403763
 20
-37.3278646868
 30
0.0
  0
POINT
  5
586
100
AcDbEntity
  8
DEFPOINTS
  6
CONTINUOUS
 62
         0
100
AcDbPoint
 10
1405.1033403763
 20
-30.9433347407
 30
0.0
  0
LINE
  5
587
100
AcDbEntity
  8
L1_115
  6
CONTINUOUS
 62
         4
100
AcDbLine
 10
1485.1033403763
 20
-38.6778646868
 30
0.0
 11
1485.1033403763
 21
-78.4532125383
 31
0.0
  0
LINE
  5
588
100
AcDbEntity
  8
L1_115
  6
CONTINUOUS
 62
         4
100
AcDbLine
 10
1405.1033403763
 20
-32.2933347407
 30
0.0
 11
1405.1033403763
 21
-78.4532125383
 31
0.0
  0
LINE
  5
589
100
AcDbEntity
  8
L1_115
  6
CONTINUOUS
 62
         4
100
AcDbLine
 10
1485.1033403763
 20
-77.7782125383
 30
0.0
 11
1405.1033403763
 21
-77.7782125383
 31
0.0
  0
SOLID
  5
58A
100
AcDbEntity
  8
L1_115
  6
CONTINUOUS
 62
         4
100
AcDbTrace
 10
1485.1033403763
 20
-77.7782125383
 30
0.0
 11
1482.4033403763
 21
-78.1832125383
 31
0.0
 12
1482.4033403763
 22
-77.3732125383
 32
0.0
 13
1485.1033403763
 23
-77.7782125383
 33
0.0
  0
SOLID
  5
58B
100
AcDbEntity
  8
L1_115
  6
CONTINUOUS
 62
         4
100
AcDbTrace
 10
1405.1033403763
 20
-77.7782125383
 30
0.0
 11
1407.8033403763
 21
-77.3732125383
 31
0.0
 12
1407.8033403763
 22
-78.1832125383
 32
0.0
 13
1405.1033403763
 23
-77.7782125383
 33
0.0
  0
TEXT
  5
58D
100
AcDbEntity
  8
L1_115
  6
CONTINUOUS
 62
         4
100
AcDbText
 10
1442.1783403763
 20
-74.6462125383
 30
0.0
 40
2.7
  1
80
  7
BOX
100
AcDbText
  0
ENDBLK
  5
58E
100
AcDbEntity
  8
0
  6
CONTINUOUS
100
AcDbBlockEnd
  0
BLOCK
  5
590
100
AcDbEntity
  8
0
100
AcDbBlockBegin
  2
*D23
 70
        65
 10
0.0
 20
0.0
 30
0.0
  3
*D23
  1

  0
POINT
  5
592
100
AcDbEntity
  8
DEFPOINTS
  6
CONTINUOUS
 62
         0
100
AcDbPoint
 10
1434.4376547917
 20
-37.4433347407
 30
0.0
  0
POINT
  5
593
100
AcDbEntity
  8
DEFPOINTS
  6
CONTINUOUS
 62
         0
100
AcDbPoint
 10
1437.1057015658
 20
-37.4433347407
 30
0.0
  0
POINT
  5
594
100
AcDbEntity
  8
DEFPOINTS
  6
CONTINUOUS
 62
         0
100
AcDbPoint
 10
1437.1057015658
 20
11.5566652593
 30
0.0
  0
LINE
  5
595
100
AcDbEntity
  8
L1_115
  6
CONTINUOUS
 62
         4
100
AcDbLine
 10
1435.7557015658
 20
-37.4433347407
 30
0.0
 11
1433.7626547917
 21
-37.4433347407
 31
0.0
  0
LINE
  5
596
100
AcDbEntity
  8
L1_115
  6
CONTINUOUS
 62
         4
100
AcDbLine
 10
1435.7557015658
 20
11.5566652593
 30
0.0
 11
1433.7626547917
 21
11.5566652593
 31
0.0
  0
LINE
  5
597
100
AcDbEntity
  8
L1_115
  6
CONTINUOUS
 62
         4
100
AcDbLine
 10
1434.4376547917
 20
-37.4433347407
 30
0.0
 11
1434.4376547917
 21
11.5566652593
 31
0.0
  0
SOLID
  5
598
100
AcDbEntity
  8
L1_115
  6
CONTINUOUS
 62
         4
100
AcDbTrace
 10
1434.4376547917
 20
-37.4433347407
 30
0.0
 11
1434.0326547917
 21
-34.7433347407
 31
0.0
 12
1434.8426547917
 22
-34.7433347407
 32
0.0
 13
1434.4376547917
 23
-37.4433347407
 33
0.0
  0
LINE
  5
599
100
AcDbEntity
  8
L1_115
  6
CONTINUOUS
 62
         4
100
AcDbLine
 10
1434.4376547917
 20
11.5566652593
 30
0.0
 11
1434.4376547917
 21
33.3272884656
 31
0.0
  0
SOLID
  5
59A
100
AcDbEntity
  8
L1_115
  6
CONTINUOUS
 62
         4
100
AcDbTrace
 10
1434.4376547917
 20
11.5566652593
 30
0.0
 11
1434.8426547917
 21
8.8566652593
 31
0.0
 12
1434.0326547917
 22
8.8566652593
 32
0.0
 13
1434.4376547917
 23
11.5566652593
 33
0.0
  0
TEXT
  5
59C
100
AcDbEntity
  8
L1_115
  6
CONTINUOUS
 62
         4
100
AcDbText
 10
1431.3056547917
 20
20.2772884656
 30
0.0
 40
2.7
  1
崷49
 50
90.0
  7
BOX
100
AcDbText
  0
ENDBLK
  5
59D
100
AcDbEntity
  8
0
  6
CONTINUOUS
100
AcDbBlockEnd
  0
BLOCK
  5
59F
100
AcDbEntity
  8
0
100
AcDbBlockBegin
  2
*D24
 70
        65
 10
0.0
 20
0.0
 30
0.0
  3
*D24
  1

  0
POINT
  5
5A1
100
AcDbEntity
  8
DEFPOINTS
  6
CONTINUOUS
 62
         0
100
AcDbPoint
 10
1441.0583403763
 20
22.5276946084
 30
0.0
  0
POINT
  5
5A2
100
AcDbEntity
  8
DEFPOINTS
  6
CONTINUOUS
 62
         0
100
AcDbPoint
 10
1441.0583403763
 20
16.0566652593
 30
0.0
  0
POINT
  5
5A3
100
AcDbEntity
  8
DEFPOINTS
  6
CONTINUOUS
 62
         0
100
AcDbPoint
 10
1469.0483403763
 20
16.0566652593
 30
0.0
  0
LINE
  5
5A4
100
AcDbEntity
  8
L1_115
  6
CONTINUOUS
 62
         4
100
AcDbLine
 10
1441.0583403763
 20
17.4066652593
 30
0.0
 11
1441.0583403763
 21
23.2026946084
 31
0.0
  0
LINE
  5
5A5
100
AcDbEntity
  8
L1_115
  6
CONTINUOUS
 62
         4
100
AcDbLine
 10
1469.0483403763
 20
17.4066652593
 30
0.0
 11
1469.0483403763
 21
23.2026946084
 31
0.0
  0
LINE
  5
5A6
100
AcDbEntity
  8
L1_115
  6
CONTINUOUS
 62
         4
100
AcDbLine
 10
1441.0583403763
 20
22.5276946084
 30
0.0
 11
1469.0483403763
 21
22.5276946084
 31
0.0
  0
SOLID
  5
5A7
100
AcDbEntity
  8
L1_115
  6
CONTINUOUS
 62
         4
100
AcDbTrace
 10
1441.0583403763
 20
22.5276946084
 30
0.0
 11
1443.7583403763
 21
22.9326946084
 31
0.0
 12
1443.7583403763
 22
22.1226946084
 32
0.0
 13
1441.0583403763
 23
22.5276946084
 33
0.0
  0
SOLID
  5
5A8
100
AcDbEntity
  8
L1_115
  6
CONTINUOUS
 62
         4
100
AcDbTrace
 10
1469.0483403763
 20
22.5276946084
 30
0.0
 11
1466.3483403763
 21
22.1226946084
 31
0.0
 12
1466.3483403763
 22
22.9326946084
 32
0.0
 13
1469.0483403763
 23
22.5276946084
 33
0.0
  0
TEXT
  5
5AA
100
AcDbEntity
  8
L1_115
  6
CONTINUOUS
 62
         4
100
AcDbText
 10
1449.4283403763
 20
25.6596946084
 30
0.0
 40
2.7
  1
27.8
  7
BOX
100
AcDbText
  0
ENDBLK
  5
5AB
100
AcDbEntity
  8
0
  6
CONTINUOUS
100
AcDbBlockEnd
  0
BLOCK
  5
5AD
100
AcDbEntity
  8
0
100
AcDbBlockBegin
  2
*D25
 70
        65
 10
0.0
 20
0.0
 30
0.0
  3
*D25
  1

  0
POINT
  5
5AF
100
AcDbEntity
  8
DEFPOINTS
  6
CONTINUOUS
 62
         0
100
AcDbPoint
 10
1506.0565824091
 20
4.5566652593
 30
0.0
  0
POINT
  5
5B0
100
AcDbEntity
  8
DEFPOINTS
  6
CONTINUOUS
 62
         0
100
AcDbPoint
 10
1431.1057015658
 20
4.5566652593
 30
0.0
  0
POINT
  5
5B1
100
AcDbEntity
  8
DEFPOINTS
  6
CONTINUOUS
 62
         0
100
AcDbPoint
 10
1431.1057015658
 20
-30.4433347407
 30
0.0
  0
LINE
  5
5B2
100
AcDbEntity
  8
L1_115
  6
CONTINUOUS
 62
         4
100
AcDbLine
 10
1432.4557015658
 20
4.5566652593
 30
0.0
 11
1506.7315824091
 21
4.5566652593
 31
0.0
  0
LINE
  5
5B3
100
AcDbEntity
  8
L1_115
  6
CONTINUOUS
 62
         4
100
AcDbLine
 10
1432.4557015658
 20
-30.4433347407
 30
0.0
 11
1506.7315824091
 21
-30.4433347407
 31
0.0
  0
LINE
  5
5B4
100
AcDbEntity
  8
L1_115
  6
CONTINUOUS
 62
         4
100
AcDbLine
 10
1506.0565824091
 20
4.5566652593
 30
0.0
 11
1506.0565824091
 21
-30.4433347407
 31
0.0
  0
SOLID
  5
5B5
100
AcDbEntity
  8
L1_115
  6
CONTINUOUS
 62
         4
100
AcDbTrace
 10
1506.0565824091
 20
4.5566652593
 30
0.0
 11
1506.4615824091
 21
1.8566652593
 31
0.0
 12
1505.6515824091
 22
1.8566652593
 32
0.0
 13
1506.0565824091
 23
4.5566652593
 33
0.0
  0
SOLID
  5
5B6
100
AcDbEntity
  8
L1_115
  6
CONTINUOUS
 62
         4
100
AcDbTrace
 10
1506.0565824091
 20
-30.4433347407
 30
0.0
 11
1505.6515824091
 21
-27.7433347407
 31
0.0
 12
1506.4615824091
 22
-27.7433347407
 32
0.0
 13
1506.0565824091
 23
-30.4433347407
 33
0.0
  0
TEXT
  5
5B8
100
AcDbEntity
  8
L1_115
  6
CONTINUOUS
 62
         4
100
AcDbText
 10
1504.0315824091
 20
-14.0997643509
 30
0.0
 40
2.7
  1
崷35
 50
90.0
  7
BOX
100
AcDbText
  0
ENDBLK
  5
5B9
100
AcDbEntity
  8
0
  6
CONTINUOUS
100
AcDbBlockEnd
  0
BLOCK
  5
5BB
100
AcDbEntity
  8
0
100
AcDbBlockBegin
  2
*D26
 70
        65
 10
0.0
 20
0.0
 30
0.0
  3
*D26
  1

  0
POINT
  5
5BD
100
AcDbEntity
  8
DEFPOINTS
  6
CONTINUOUS
 62
         0
100
AcDbPoint
 10
1519.8871677832
 20
11.0566652593
 30
0.0
  0
POINT
  5
5BE
100
AcDbEntity
  8
DEFPOINTS
  6
CONTINUOUS
 62
         0
100
AcDbPoint
 10
1484.9033403763
 20
11.0566652593
 30
0.0
  0
POINT
  5
5BF
100
AcDbEntity
  8
DEFPOINTS
  6
CONTINUOUS
 62
         0
100
AcDbPoint
 10
1484.9033403763
 20
-36.9433347407
 30
0.0
  0
LINE
  5
5C0
100
AcDbEntity
  8
L1_115
  6
CONTINUOUS
 62
         4
100
AcDbLine
 10
1486.2533403763
 20
11.0566652593
 30
0.0
 11
1520.5621677832
 21
11.0566652593
 31
0.0
  0
LINE
  5
5C1
100
AcDbEntity
  8
L1_115
  6
CONTINUOUS
 62
         4
100
AcDbLine
 10
1486.2533403763
 20
-36.9433347407
 30
0.0
 11
1520.5621677832
 21
-36.9433347407
 31
0.0
  0
LINE
  5
5C2
100
AcDbEntity
  8
L1_115
  6
CONTINUOUS
 62
         4
100
AcDbLine
 10
1519.8871677832
 20
11.0566652593
 30
0.0
 11
1519.8871677832
 21
-36.9433347407
 31
0.0
  0
SOLID
  5
5C3
100
AcDbEntity
  8
L1_115
  6
CONTINUOUS
 62
         4
100
AcDbTrace
 10
1519.8871677832
 20
11.0566652593
 30
0.0
 11
1520.2921677832
 21
8.3566652593
 31
0.0
 12
1519.4821677832
 22
8.3566652593
 32
0.0
 13
1519.8871677832
 23
11.0566652593
 33
0.0
  0
SOLID
  5
5C4
100
AcDbEntity
  8
L1_115
  6
CONTINUOUS
 62
         4
100
AcDbTrace
 10
1519.8871677832
 20
-36.9433347407
 30
0.0
 11
1519.4821677832
 21
-34.2433347407
 31
0.0
 12
1520.2921677832
 22
-34.2433347407
 32
0.0
 13
1519.8871677832
 23
-36.9433347407
 33
0.0
  0
TEXT
  5
5C6
100
AcDbEntity
  8
L1_115
  6
CONTINUOUS
 62
         4
100
AcDbText
 10
1517.8621677832
 20
-20.3134223664
 30
0.0
 40
2.7
  1
崷48
 50
90.0
  7
BOX
100
AcDbText
  0
ENDBLK
  5
5C7
100
AcDbEntity
  8
0
  6
CONTINUOUS
100
AcDbBlockEnd
  0
BLOCK
  5
5C9
100
AcDbEntity
  8
0
100
AcDbBlockBegin
  2
*D27
 70
        65
 10
0.0
 20
0.0
 30
0.0
  3
*D27
  1

  0
POINT
  5
5CB
100
AcDbEntity
  8
DEFPOINTS
  6
CONTINUOUS
 62
         0
100
AcDbPoint
 10
1441.1505054696
 20
155.1346417294
 30
0.0
  0
POINT
  5
5CC
100
AcDbEntity
  8
DEFPOINTS
  6
CONTINUOUS
 62
         0
100
AcDbPoint
 10
1446.0083403763
 20
155.1346417294
 30
0.0
  0
POINT
  5
5CD
100
AcDbEntity
  8
DEFPOINTS
  6
CONTINUOUS
 62
         0
100
AcDbPoint
 10
1446.0083403763
 20
145.2346417294
 30
0.0
  0
LINE
  5
5CE
100
AcDbEntity
  8
L1_115
  6
CONTINUOUS
 62
         4
100
AcDbLine
 10
1444.6583403763
 20
155.1346417294
 30
0.0
 11
1440.4755054696
 21
155.1346417294
 31
0.0
  0
LINE
  5
5CF
100
AcDbEntity
  8
L1_115
  6
CONTINUOUS
 62
         4
100
AcDbLine
 10
1444.6583403763
 20
145.2346417294
 30
0.0
 11
1440.4755054696
 21
145.2346417294
 31
0.0
  0
LINE
  5
5D0
100
AcDbEntity
  8
L1_115
  6
CONTINUOUS
 62
         4
100
AcDbLine
 10
1441.1505054696
 20
155.1346417294
 30
0.0
 11
1441.1505054696
 21
145.2346417294
 31
0.0
  0
SOLID
  5
5D1
100
AcDbEntity
  8
L1_115
  6
CONTINUOUS
 62
         4
100
AcDbTrace
 10
1441.1505054696
 20
155.1346417294
 30
0.0
 11
1441.5555054696
 21
152.4346417294
 31
0.0
 12
1440.7455054696
 22
152.4346417294
 32
0.0
 13
1441.1505054696
 23
155.1346417294
 33
0.0
  0
LINE
  5
5D2
100
AcDbEntity
  8
L1_115
  6
CONTINUOUS
 62
         4
100
AcDbLine
 10
1441.1505054696
 20
145.2346417294
 30
0.0
 11
1441.1505054696
 21
97.5874013793
 31
0.0
  0
SOLID
  5
5D3
100
AcDbEntity
  8
L1_115
  6
CONTINUOUS
 62
         4
100
AcDbTrace
 10
1441.1505054696
 20
145.2346417294
 30
0.0
 11
1440.7455054696
 21
147.9346417294
 31
0.0
 12
1441.5555054696
 22
147.9346417294
 32
0.0
 13
1441.1505054696
 23
145.2346417294
 33
0.0
  0
TEXT
  5
5D5
100
AcDbEntity
  8
L1_115
  6
CONTINUOUS
 62
         4
100
AcDbText
 10
1438.0185054696
 20
98.9374013793
 30
0.0
 40
2.7
  1
9.55
 50
90.0
  7
BOX
100
AcDbText
  0
ENDBLK
  5
5D6
100
AcDbEntity
  8
0
  6
CONTINUOUS
100
AcDbBlockEnd
  0
BLOCK
  5
5D8
100
AcDbEntity
  8
0
100
AcDbBlockBegin
  2
*D28
 70
        65
 10
0.0
 20
0.0
 30
0.0
  3
*D28
  1

  0
POINT
  5
5DA
100
AcDbEntity
  8
DEFPOINTS
  6
CONTINUOUS
 62
         0
100
AcDbPoint
 10
1485.1033403763
 20
100.5306055178
 30
0.0
  0
POINT
  5
5DB
100
AcDbEntity
  8
DEFPOINTS
  6
CONTINUOUS
 62
         0
100
AcDbPoint
 10
1485.1033403763
 20
125.8001117832
 30
0.0
  0
POINT
  5
5DC
100
AcDbEntity
  8
DEFPOINTS
  6
CONTINUOUS
 62
         0
100
AcDbPoint
 10
1446.0083403763
 20
142.3499119489
 30
0.0
  0
LINE
  5
5DD
100
AcDbEntity
  8
L1_115
  6
CONTINUOUS
 62
         4
100
AcDbLine
 10
1485.1033403763
 20
124.4501117832
 30
0.0
 11
1485.1033403763
 21
99.8556055178
 31
0.0
  0
LINE
  5
5DE
100
AcDbEntity
  8
L1_115
  6
CONTINUOUS
 62
         4
100
AcDbLine
 10
1446.0083403763
 20
140.9999119489
 30
0.0
 11
1446.0083403763
 21
99.8556055178
 31
0.0
  0
LINE
  5
5DF
100
AcDbEntity
  8
L1_115
  6
CONTINUOUS
 62
         4
100
AcDbLine
 10
1485.1033403763
 20
100.5306055178
 30
0.0
 11
1446.0083403763
 21
100.5306055178
 31
0.0
  0
SOLID
  5
5E0
100
AcDbEntity
  8
L1_115
  6
CONTINUOUS
 62
         4
100
AcDbTrace
 10
1485.1033403763
 20
100.5306055178
 30
0.0
 11
1482.4033403763
 21
100.1256055178
 31
0.0
 12
1482.4033403763
 22
100.9356055178
 32
0.0
 13
1485.1033403763
 23
100.5306055178
 33
0.0
  0
SOLID
  5
5E1
100
AcDbEntity
  8
L1_115
  6
CONTINUOUS
 62
         4
100
AcDbTrace
 10
1446.0083403763
 20
100.5306055178
 30
0.0
 11
1448.7083403763
 21
100.9356055178
 31
0.0
 12
1448.7083403763
 22
100.1256055178
 32
0.0
 13
1446.0083403763
 23
100.5306055178
 33
0.0
  0
TEXT
  5
5E3
100
AcDbEntity
  8
L1_115
  6
CONTINUOUS
 62
         4
100
AcDbText
 10
1456.2473021024
 20
103.6626055178
 30
0.0
 40
2.7
  1
39.1
  7
BOX
100
AcDbText
  0
ENDBLK
  5
5E4
100
AcDbEntity
  8
0
  6
CONTINUOUS
100
AcDbBlockEnd
  0
BLOCK
  5
5E6
100
AcDbEntity
  8
0
100
AcDbBlockBegin
  2
*D29
 70
        65
 10
0.0
 20
0.0
 30
0.0
  3
*D29
  1

  0
POINT
  5
5E8
100
AcDbEntity
  8
DEFPOINTS
  6
CONTINUOUS
 62
         0
100
AcDbPoint
 10
1464.0983403763
 20
110.4110370841
 30
0.0
  0
POINT
  5
5E9
100
AcDbEntity
  8
DEFPOINTS
  6
CONTINUOUS
 62
         0
100
AcDbPoint
 10
1464.0983403763
 20
142.3499119521
 30
0.0
  0
POINT
  5
5EA
100
AcDbEntity
  8
DEFPOINTS
  6
CONTINUOUS
 62
         0
100
AcDbPoint
 10
1485.1033403763
 20
125.8001117832
 30
0.0
  0
LINE
  5
5EB
100
AcDbEntity
  8
L1_115
  6
CONTINUOUS
 62
         4
100
AcDbLine
 10
1464.0983403763
 20
140.9999119521
 30
0.0
 11
1464.0983403763
 21
109.7360370841
 31
0.0
  0
LINE
  5
5EC
100
AcDbEntity
  8
L1_115
  6
CONTINUOUS
 62
         4
100
AcDbLine
 10
1485.1033403763
 20
124.4501117832
 30
0.0
 11
1485.1033403763
 21
109.7360370841
 31
0.0
  0
LINE
  5
5ED
100
AcDbEntity
  8
L1_115
  6
CONTINUOUS
 62
         4
100
AcDbLine
 10
1464.0983403763
 20
110.4110370841
 30
0.0
 11
1485.1033403763
 21
110.4110370841
 31
0.0
  0
SOLID
  5
5EE
100
AcDbEntity
  8
L1_115
  6
CONTINUOUS
 62
         4
100
AcDbTrace
 10
1464.0983403763
 20
110.4110370841
 30
0.0
 11
1466.7983403763
 21
110.8160370841
 31
0.0
 12
1466.7983403763
 22
110.0060370841
 32
0.0
 13
1464.0983403763
 23
110.4110370841
 33
0.0
  0
SOLID
  5
5EF
100
AcDbEntity
  8
L1_115
  6
CONTINUOUS
 62
         4
100
AcDbTrace
 10
1485.1033403763
 20
110.4110370841
 30
0.0
 11
1482.4033403763
 21
110.0060370841
 31
0.0
 12
1482.4033403763
 22
110.8160370841
 32
0.0
 13
1485.1033403763
 23
110.4110370841
 33
0.0
  0
TEXT
  5
5F1
100
AcDbEntity
  8
L1_115
  6
CONTINUOUS
 62
         4
100
AcDbText
 10
1467.8223564215
 20
113.5430370841
 30
0.0
 40
2.7
  1
21
  7
BOX
100
AcDbText
  0
ENDBLK
  5
5F2
100
AcDbEntity
  8
0
  6
CONTINUOUS
100
AcDbBlockEnd
  0
BLOCK
  5
5F4
100
AcDbEntity
  8
0
100
AcDbBlockBegin
  2
*D30
 70
        65
 10
0.0
 20
0.0
 30
0.0
  3
*D30
  1

  0
POINT
  5
5F6
100
AcDbEntity
  8
DEFPOINTS
  6
CONTINUOUS
 62
         0
100
AcDbPoint
 10
1516.3247483741
 20
179.1846417294
 30
0.0
  0
POINT
  5
5F7
100
AcDbEntity
  8
DEFPOINTS
  6
CONTINUOUS
 62
         0
100
AcDbPoint
 10
1476.6432133573
 20
179.1846417294
 30
0.0
  0
POINT
  5
5F8
100
AcDbEntity
  8
DEFPOINTS
  6
CONTINUOUS
 62
         0
100
AcDbPoint
 10
1476.1033403763
 20
121.1846417294
 30
0.0
  0
LINE
  5
5F9
100
AcDbEntity
  8
L1_115
  6
CONTINUOUS
 62
         4
100
AcDbLine
 10
1477.9932133573
 20
179.1846417294
 30
0.0
 11
1516.9997483741
 21
179.1846417294
 31
0.0
  0
LINE
  5
5FA
100
AcDbEntity
  8
L1_115
  6
CONTINUOUS
 62
         4
100
AcDbLine
 10
1477.4533403763
 20
121.1846417294
 30
0.0
 11
1516.9997483741
 21
121.1846417294
 31
0.0
  0
LINE
  5
5FB
100
AcDbEntity
  8
L1_115
  6
CONTINUOUS
 62
         4
100
AcDbLine
 10
1516.3247483741
 20
179.1846417294
 30
0.0
 11
1516.3247483741
 21
121.1846417294
 31
0.0
  0
SOLID
  5
5FC
100
AcDbEntity
  8
L1_115
  6
CONTINUOUS
 62
         4
100
AcDbTrace
 10
1516.3247483741
 20
179.1846417294
 30
0.0
 11
1516.7297483741
 21
176.4846417294
 31
0.0
 12
1515.9197483741
 22
176.4846417294
 32
0.0
 13
1516.3247483741
 23
179.1846417294
 33
0.0
  0
SOLID
  5
5FD
100
AcDbEntity
  8
L1_115
  6
CONTINUOUS
 62
         4
100
AcDbTrace
 10
1516.3247483741
 20
121.1846417294
 30
0.0
 11
1515.9197483741
 21
123.8846417294
 31
0.0
 12
1516.7297483741
 22
123.8846417294
 32
0.0
 13
1516.3247483741
 23
121.1846417294
 33
0.0
  0
TEXT
  5
5FF
100
AcDbEntity
  8
L1_115
  6
CONTINUOUS
 62
         4
100
AcDbText
 10
1513.1927483741
 20
144.1021067257
 30
0.0
 40
2.7
  1
崷58
 50
90.0
  7
BOX
100
AcDbText
  0
ENDBLK
  5
600
100
AcDbEntity
  8
0
  6
CONTINUOUS
100
AcDbBlockEnd
  0
BLOCK
  5
602
100
AcDbEntity
  8
0
100
AcDbBlockBegin
  2
*D31
 70
        65
 10
0.0
 20
0.0
 30
0.0
  3
*D31
  1

  0
POINT
  5
604
100
AcDbEntity
  8
DEFPOINTS
  6
CONTINUOUS
 62
         0
100
AcDbPoint
 10
1474.1033403763
 20
193.3621388287
 30
0.0
  0
POINT
  5
605
100
AcDbEntity
  8
DEFPOINTS
  6
CONTINUOUS
 62
         0
100
AcDbPoint
 10
1474.1033403763
 20
179.1846417294
 30
0.0
  0
POINT
  5
606
100
AcDbEntity
  8
DEFPOINTS
  6
CONTINUOUS
 62
         0
100
AcDbPoint
 10
1476.1033403763
 20
179.1846417294
 30
0.0
  0
LINE
  5
607
100
AcDbEntity
  8
L1_115
  6
CONTINUOUS
 62
         4
100
AcDbLine
 10
1474.1033403763
 20
180.5346417294
 30
0.0
 11
1474.1033403763
 21
194.0371388287
 31
0.0
  0
LINE
  5
608
100
AcDbEntity
  8
L1_115
  6
CONTINUOUS
 62
         4
100
AcDbLine
 10
1476.1033403763
 20
180.5346417294
 30
0.0
 11
1476.1033403763
 21
194.0371388287
 31
0.0
  0
LINE
  5
609
100
AcDbEntity
  8
L1_115
  6
CONTINUOUS
 62
         4
100
AcDbLine
 10
1474.1033403763
 20
193.3621388287
 30
0.0
 11
1460.4137979098
 21
193.3621388287
 31
0.0
  0
SOLID
  5
60A
100
AcDbEntity
  8
L1_115
  6
CONTINUOUS
 62
         4
100
AcDbTrace
 10
1474.1033403763
 20
193.3621388287
 30
0.0
 11
1471.4033403763
 21
192.9571388287
 31
0.0
 12
1471.4033403763
 22
193.7671388287
 32
0.0
 13
1474.1033403763
 23
193.3621388287
 33
0.0
  0
LINE
  5
60B
100
AcDbEntity
  8
L1_115
  6
CONTINUOUS
 62
         4
100
AcDbLine
 10
1476.1033403763
 20
193.3621388287
 30
0.0
 11
1481.5033403763
 21
193.3621388287
 31
0.0
  0
SOLID
  5
60C
100
AcDbEntity
  8
L1_115
  6
CONTINUOUS
 62
         4
100
AcDbTrace
 10
1476.1033403763
 20
193.3621388287
 30
0.0
 11
1478.8033403763
 21
193.7671388287
 31
0.0
 12
1478.8033403763
 22
192.9571388287
 32
0.0
 13
1476.1033403763
 23
193.3621388287
 33
0.0
  0
LINE
  5
60D
100
AcDbEntity
  8
L1_115
  6
CONTINUOUS
 62
         4
100
AcDbLine
 10
1474.1033403763
 20
193.3621388287
 30
0.0
 11
1476.1033403763
 21
193.3621388287
 31
0.0
  0
TEXT
  5
60F
100
AcDbEntity
  8
L1_115
  6
CONTINUOUS
 62
         4
100
AcDbText
 10
1461.7637979098
 20
196.4941388287
 30
0.0
 40
2.7
  1
2
  7
BOX
100
AcDbText
  0
ENDBLK
  5
610
100
AcDbEntity
  8
0
  6
CONTINUOUS
100
AcDbBlockEnd
  0
BLOCK
  5
612
100
AcDbEntity
  8
0
100
AcDbBlockBegin
  2
*D32
 70
        65
 10
0.0
 20
0.0
 30
0.0
  3
*D32
  1

  0
POINT
  5
614
100
AcDbEntity
  8
DEFPOINTS
  6
CONTINUOUS
 62
         0
100
AcDbPoint
 10
1485.1033403763
 20
200.1269903782
 30
0.0
  0
POINT
  5
615
100
AcDbEntity
  8
DEFPOINTS
  6
CONTINUOUS
 62
         0
100
AcDbPoint
 10
1485.1033403763
 20
174.5691716756
 30
0.0
  0
POINT
  5
616
100
AcDbEntity
  8
DEFPOINTS
  6
CONTINUOUS
 62
         0
100
AcDbPoint
 10
1474.1033403763
 20
179.1846417294
 30
0.0
  0
LINE
  5
617
100
AcDbEntity
  8
L1_115
  6
CONTINUOUS
 62
         4
100
AcDbLine
 10
1485.1033403763
 20
175.9191716756
 30
0.0
 11
1485.1033403763
 21
200.8019903782
 31
0.0
  0
LINE
  5
618
100
AcDbEntity
  8
L1_115
  6
CONTINUOUS
 62
         4
100
AcDbLine
 10
1474.1033403763
 20
180.5346417294
 30
0.0
 11
1474.1033403763
 21
200.8019903782
 31
0.0
  0
LINE
  5
619
100
AcDbEntity
  8
L1_115
  6
CONTINUOUS
 62
         4
100
AcDbLine
 10
1485.1033403763
 20
200.1269903782
 30
0.0
 11
1474.1033403763
 21
200.1269903782
 31
0.0
  0
SOLID
  5
61A
100
AcDbEntity
  8
L1_115
  6
CONTINUOUS
 62
         4
100
AcDbTrace
 10
1485.1033403763
 20
200.1269903782
 30
0.0
 11
1482.4033403763
 21
199.7219903782
 31
0.0
 12
1482.4033403763
 22
200.5319903782
 32
0.0
 13
1485.1033403763
 23
200.1269903782
 33
0.0
  0
LINE
  5
61B
100
AcDbEntity
  8
L1_115
  6
CONTINUOUS
 62
         4
100
AcDbLine
 10
1474.1033403763
 20
200.1269903782
 30
0.0
 11
1468.743585493
 21
200.1269903782
 31
0.0
  0
SOLID
  5
61C
100
AcDbEntity
  8
L1_115
  6
CONTINUOUS
 62
         4
100
AcDbTrace
 10
1474.1033403763
 20
200.1269903782
 30
0.0
 11
1476.8033403763
 21
200.5319903782
 31
0.0
 12
1476.8033403763
 22
199.7219903782
 32
0.0
 13
1474.1033403763
 23
200.1269903782
 33
0.0
  0
TEXT
  5
61E
100
AcDbEntity
  8
L1_115
  6
CONTINUOUS
 62
         4
100
AcDbText
 10
1470.093585493
 20
203.2589903782
 30
0.0
 40
2.7
  1
11
  7
BOX
100
AcDbText
  0
ENDBLK
  5
61F
100
AcDbEntity
  8
0
  6
CONTINUOUS
100
AcDbBlockEnd
  0
BLOCK
  5
621
100
AcDbEntity
  8
0
100
AcDbBlockBegin
  2
*D33
 70
        65
 10
0.0
 20
0.0
 30
0.0
  3
*D33
  1

  0
POINT
  5
623
100
AcDbEntity
  8
DEFPOINTS
  6
CONTINUOUS
 62
         0
100
AcDbPoint
 10
1485.1033403763
 20
208.256856565
 30
0.0
  0
POINT
  5
624
100
AcDbEntity
  8
DEFPOINTS
  6
CONTINUOUS
 62
         0
100
AcDbPoint
 10
1485.1033403763
 20
174.5691716756
 30
0.0
  0
POINT
  5
625
100
AcDbEntity
  8
DEFPOINTS
  6
CONTINUOUS
 62
         0
100
AcDbPoint
 10
1434.1033403763
 20
180.6846417294
 30
0.0
  0
LINE
  5
626
100
AcDbEntity
  8
L1_115
  6
CONTINUOUS
 62
         4
100
AcDbLine
 10
1485.1033403763
 20
175.9191716756
 30
0.0
 11
1485.1033403763
 21
208.931856565
 31
0.0
  0
LINE
  5
627
100
AcDbEntity
  8
L1_115
  6
CONTINUOUS
 62
         4
100
AcDbLine
 10
1434.1033403763
 20
182.0346417294
 30
0.0
 11
1434.1033403763
 21
208.931856565
 31
0.0
  0
LINE
  5
628
100
AcDbEntity
  8
L1_115
  6
CONTINUOUS
 62
         4
100
AcDbLine
 10
1485.1033403763
 20
208.256856565
 30
0.0
 11
1434.1033403763
 21
208.256856565
 31
0.0
  0
SOLID
  5
629
100
AcDbEntity
  8
L1_115
  6
CONTINUOUS
 62
         4
100
AcDbTrace
 10
1485.1033403763
 20
208.256856565
 30
0.0
 11
1482.4033403763
 21
207.851856565
 31
0.0
 12
1482.4033403763
 22
208.661856565
 32
0.0
 13
1485.1033403763
 23
208.256856565
 33
0.0
  0
SOLID
  5
62A
100
AcDbEntity
  8
L1_115
  6
CONTINUOUS
 62
         4
100
AcDbTrace
 10
1434.1033403763
 20
208.256856565
 30
0.0
 11
1436.8033403763
 21
208.661856565
 31
0.0
 12
1436.8033403763
 22
207.851856565
 32
0.0
 13
1434.1033403763
 23
208.256856565
 33
0.0
  0
TEXT
  5
62C
100
AcDbEntity
  8
L1_115
  6
CONTINUOUS
 62
         4
100
AcDbText
 10
1451.8524694299
 20
211.388856565
 30
0.0
 40
2.7
  1
51
  7
BOX
100
AcDbText
  0
ENDBLK
  5
62D
100
AcDbEntity
  8
0
  6
CONTINUOUS
100
AcDbBlockEnd
  0
ENDSEC
  0
SECTION
  2
ENTITIES
  0
LINE
  5
24
100
AcDbEntity
  8
L1_115
  6
CONTINUOUS
 62
         4
100
AcDbLine
 10
1483.4033403763
 20
-36.9433347407
 30
0.0
 11
1483.4033403763
 21
11.0566652593
 31
0.0
  0
ARC
  5
25
100
AcDbEntity
  8
L1_115
  6
CONTINUOUS
 62
         7
100
AcDbCircle
 10
1483.4033403763
 20
12.7566652593
 30
0.0
 40
1.7
100
AcDbArc
 50
270.0
 51
360.0
  0
ARC
  5
26
100
AcDbEntity
  8
L1_115
  6
CONTINUOUS
 62
         7
100
AcDbCircle
 10
1483.4033403763
 20
-38.6433347407
 30
0.0
 40
1.7
100
AcDbArc
 50
0.0
 51
90.0
  0
LINE
  5
27
100
AcDbEntity
  8
L1_115
  6
CENTER
 62
         1
100
AcDbLine
 10
1464.0983403763
 20
8.221935482
 30
0.0
 11
1464.0983403763
 21
18.8501239669
 31
0.0
  0
LINE
  5
28
100
AcDbEntity
  8
L1_115
  6
CENTER
 62
         1
100
AcDbLine
 10
1446.0083403763
 20
8.2219354789
 30
0.0
 11
1446.0083403763
 21
18.8501239669
 31
0.0
  0
LINE
  5
29
100
AcDbEntity
  8
L1_115
  6
CENTER
 62
         1
100
AcDbLine
 10
1723.2833403763
 20
150.1846417294
 30
0.0
 11
1743.7230159548
 21
185.5871983217
 31
0.0
  0
LINE
  5
2A
100
AcDbEntity
  8
L1_115
  6
CENTER
 62
         1
100
AcDbLine
 10
1723.2833403763
 20
150.1846417294
 30
0.0
 11
1739.0333403763
 21
122.9048415102
 31
0.0
  0
LINE
  5
2B
100
AcDbEntity
  8
L1_115
  6
CONTINUOUS
 62
         4
100
AcDbLine
 10
1387.1030155108
 20
-15.4433347407
 30
0.0
 11
1387.1030155108
 21
-10.4433347407
 31
0.0
  0
LINE
  5
2C
100
AcDbEntity
  8
L1_115
  6
CONTINUOUS
 62
         7
100
AcDbLine
 10
1404.1033403763
 20
-15.4433347407
 30
0.0
 11
1387.1030155108
 21
-15.4433347407
 31
0.0
  0
LINE
  5
2D
100
AcDbEntity
  8
L1_115
  6
CONTINUOUS
 62
         7
100
AcDbLine
 10
1404.1033403763
 20
-10.4433347407
 30
0.0
 11
1387.1030155108
 21
-10.4433347407
 31
0.0
  0
LINE
  5
2E
100
AcDbEntity
  8
L1_115
  6
CONTINUOUS
 62
         7
100
AcDbLine
 10
1387.1030155108
 20
-15.4433347407
 30
0.0
 11
1385.4596398379
 21
-12.9433347407
 31
0.0
  0
LINE
  5
2F
100
AcDbEntity
  8
L1_115
  6
CONTINUOUS
 62
         7
100
AcDbLine
 10
1387.1030155108
 20
-10.4433347407
 30
0.0
 11
1385.4596398379
 21
-12.9433347407
 31
0.0
  0
CIRCLE
  5
30
100
AcDbEntity
  8
L1_115
  6
DASHED
 62
         2
100
AcDbCircle
 10
1723.2833403763
 20
150.1846417294
 30
0.0
 40
24.5
  0
CIRCLE
  5
31
100
AcDbEntity
  8
L1_115
  6
CONTINUOUS
 62
         7
100
AcDbCircle
 10
1723.2833403763
 20
150.1846417294
 30
0.0
 40
24.0
  0
CIRCLE
  5
32
100
AcDbEntity
  8
L1_115
  6
DASHED
 62
         2
100
AcDbCircle
 10
1723.2833403763
 20
150.1846417294
 30
0.0
 40
18.0
  0
CIRCLE
  5
33
100
AcDbEntity
  8
L1_115
  6
CONTINUOUS
 62
         7
100
AcDbCircle
 10
1723.2833403763
 20
150.1846417294
 30
0.0
 40
17.5
  0
ARC
  5
34
100
AcDbEntity
  8
L1_115
  6
CONTINUOUS
 62
         4
100
AcDbCircle
 10
1723.2833403763
 20
150.1846417294
 30
0.0
 40
3.0
100
AcDbArc
 50
270.0
 51
540.0
  0
CIRCLE
  5
35
100
AcDbEntity
  8
L1_115
  6
CONTINUOUS
 62
         7
100
AcDbCircle
 10
1723.2833403763
 20
150.1846417294
 30
0.0
 40
2.0
  0
CIRCLE
  5
36
100
AcDbEntity
  8
L1_115
  6
CONTINUOUS
 62
         7
100
AcDbCircle
 10
1723.2833403763
 20
150.1846417294
 30
0.0
 40
27.5
  0
LINE
  5
37
100
AcDbEntity
  8
L1_115
  6
CENTER
 62
         1
100
AcDbLine
 10
1723.2833403763
 20
118.6846417294
 30
0.0
 11
1723.2833403763
 21
181.6846417294
 31
0.0
  0
LINE
  5
38
100
AcDbEntity
  8
L1_115
  6
CENTER
 62
         1
100
AcDbLine
 10
1754.7833403763
 20
150.1846417294
 30
0.0
 11
1691.7833403763
 21
150.1846417294
 31
0.0
  0
CIRCLE
  5
39
100
AcDbEntity
  8
L1_115
  6
CONTINUOUS
 62
         7
100
AcDbCircle
 10
1723.2833403763
 20
150.1846417294
 30
0.0
 40
31.5
  0
CIRCLE
  5
3A
100
AcDbEntity
  8
L1_115
  6
CONTINUOUS
 62
         7
100
AcDbCircle
 10
1723.2833403763
 20
150.1846417294
 30
0.0
 40
29.0
  0
CIRCLE
  5
3B
100
AcDbEntity
  8
L1_115
  6
DASHED
 62
         2
100
AcDbCircle
 10
1723.2833403763
 20
150.1846417294
 30
0.0
 40
28.0
  0
LINE
  5
3C
100
AcDbEntity
  8
L1_115
  6
CENTER
 62
         1
100
AcDbLine
 10
1485.1033403763
 20
-12.9433347407
 30
0.0
 11
1410.1033403763
 21
-12.9433347407
 31
0.0
  0
LINE
  5
3D
100
AcDbEntity
  8
L1_115
  6
CONTINUOUS
 62
         7
100
AcDbLine
 10
1434.1033403763
 20
16.9566652593
 30
0.0
 11
1434.1033403763
 21
18.0566652593
 31
0.0
  0
ARC
  5
3E
100
AcDbEntity
  8
L1_115
  6
CONTINUOUS
 62
         7
100
AcDbCircle
 10
1434.4033403763
 20
16.2566652593
 30
0.0
 40
0.4
100
AcDbArc
 50
181.5109716561
 51
270.0
  0
LINE
  5
3F
100
AcDbEntity
  8
L1_115
  6
CONTINUOUS
 62
         7
100
AcDbLine
 10
1434.0034794587
 20
16.2461179098
 30
0.0
 11
1434.1033403763
 21
16.9566652593
 31
0.0
  0
LINE
  5
40
100
AcDbEntity
  8
L1_115
  6
CONTINUOUS
 62
         7
100
AcDbLine
 10
1437.2398320494
 20
16.0566652593
 30
0.0
 11
1436.6033403763
 21
16.0566652593
 31
0.0
  0
ARC
  5
41
100
AcDbEntity
  8
L1_115
  6
CONTINUOUS
 62
         7
100
AcDbCircle
 10
1435.8042692157
 20
16.2566652593
 30
0.0
 40
0.4
100
AcDbArc
 50
270.0
 51
285.0
  0
LINE
  5
42
100
AcDbEntity
  8
L1_115
  6
CONTINUOUS
 62
         7
100
AcDbLine
 10
1435.9077968337
 20
15.8702949288
 30
0.0
 11
1436.6033403763
 21
16.0566652593
 31
0.0
  0
LINE
  5
43
100
AcDbEntity
  8
L1_115
  6
CONTINUOUS
 62
         7
100
AcDbLine
 10
1435.8042692157
 20
15.8566652593
 30
0.0
 11
1434.4033403763
 21
15.8566652593
 31
0.0
  0
LINE
  5
44
100
AcDbEntity
  8
L1_115
  6
CONTINUOUS
 62
         7
100
AcDbLine
 10
1434.1033403763
 20
-42.8433347407
 30
0.0
 11
1434.1033403763
 21
-43.9433347407
 31
0.0
  0
ARC
  5
45
100
AcDbEntity
  8
L1_115
  6
CONTINUOUS
 62
         7
100
AcDbCircle
 10
1434.4033403763
 20
-42.1433347407
 30
0.0
 40
0.4
100
AcDbArc
 50
90.0
 51
178.4890283439
  0
LINE
  5
46
100
AcDbEntity
  8
L1_115
  6
CONTINUOUS
 62
         7
100
AcDbLine
 10
1434.0034794587
 20
-42.1327873912
 30
0.0
 11
1434.1033403763
 21
-42.8433347407
 31
0.0
  0
LINE
  5
47
100
AcDbEntity
  8
L1_115
  6
CONTINUOUS
 62
         7
100
AcDbLine
 10
1437.2398320494
 20
-41.9433347407
 30
0.0
 11
1436.6033403763
 21
-41.9433347407
 31
0.0
  0
ARC
  5
48
100
AcDbEntity
  8
L1_115
  6
CONTINUOUS
 62
         7
100
AcDbCircle
 10
1435.8042692157
 20
-42.1433347407
 30
0.0
 40
0.4
100
AcDbArc
 50
75.0
 51
90.0
  0
LINE
  5
49
100
AcDbEntity
  8
L1_115
  6
CONTINUOUS
 62
         7
100
AcDbLine
 10
1435.9077968337
 20
-41.7569644102
 30
0.0
 11
1436.6033403763
 21
-41.9433347407
 31
0.0
  0
LINE
  5
4A
100
AcDbEntity
  8
L1_115
  6
CONTINUOUS
 62
         7
100
AcDbLine
 10
1435.8042692157
 20
-41.7433347407
 30
0.0
 11
1434.4033403763
 21
-41.7433347407
 31
0.0
  0
LINE
  5
4B
100
AcDbEntity
  8
L1_115
  6
CONTINUOUS
 62
         7
100
AcDbLine
 10
1434.6033403763
 20
-41.7433347407
 30
0.0
 11
1434.6033403763
 21
-37.4433347407
 31
0.0
  0
LINE
  5
4C
100
AcDbEntity
  8
L1_115
  6
CONTINUOUS
 62
         7
100
AcDbLine
 10
1436.6033403763
 20
-41.9433347407
 30
0.0
 11
1436.6033403763
 21
-37.4433347407
 31
0.0
  0
LINE
  5
4D
100
AcDbEntity
  8
L1_115
  6
CENTER
 62
         1
100
AcDbLine
 10
1435.6033403763
 20
-44.4433347407
 30
0.0
 11
1435.6033403763
 21
-30.9433347407
 31
0.0
  0
LINE
  5
4E
100
AcDbEntity
  8
L1_115
  6
CONTINUOUS
 62
         7
100
AcDbLine
 10
1410.1033403763
 20
-30.9433347407
 30
0.0
 11
1406.1033403763
 21
-30.9433347407
 31
0.0
  0
LINE
  5
4F
100
AcDbEntity
  8
L1_115
  6
CONTINUOUS
 62
         7
100
AcDbLine
 10
1410.1033403763
 20
5.0566652593
 30
0.0
 11
1406.1033403763
 21
5.0566652593
 31
0.0
  0
LINE
  5
50
100
AcDbEntity
  8
L1_115
  6
CONTINUOUS
 62
         7
100
AcDbLine
 10
1431.1057015658
 20
-30.4433347407
 30
0.0
 11
1432.1057015658
 21
-31.4433347407
 31
0.0
  0
LINE
  5
51
100
AcDbEntity
  8
L1_115
  6
CONTINUOUS
 62
         7
100
AcDbLine
 10
1432.1057015658
 20
5.5566652593
 30
0.0
 11
1431.1057015658
 21
4.5566652593
 31
0.0
  0
LINE
  5
52
100
AcDbEntity
  8
L1_115
  6
CONTINUOUS
 62
         7
100
AcDbLine
 10
1437.1057015658
 20
-37.4433347407
 30
0.0
 11
1433.1057015658
 21
-37.4433347407
 31
0.0
  0
LINE
  5
53
100
AcDbEntity
  8
L1_115
  6
CONTINUOUS
 62
         7
100
AcDbLine
 10
1437.1057015658
 20
11.5566652593
 30
0.0
 11
1433.1057015658
 21
11.5566652593
 31
0.0
  0
LINE
  5
54
100
AcDbEntity
  8
L1_115
  6
CONTINUOUS
 62
         7
100
AcDbLine
 10
1431.1057015658
 20
-30.4433347407
 30
0.0
 11
1410.1033403763
 21
-30.4433347407
 31
0.0
  0
LINE
  5
55
100
AcDbEntity
  8
L1_115
  6
CONTINUOUS
 62
         7
100
AcDbLine
 10
1431.1057015658
 20
4.5566652593
 30
0.0
 11
1410.1033403763
 21
4.5566652593
 31
0.0
  0
LINE
  5
56
100
AcDbEntity
  8
L1_115
  6
CONTINUOUS
 62
         7
100
AcDbLine
 10
1405.1033403763
 20
-29.9433347407
 30
0.0
 11
1405.1033403763
 21
4.0566652593
 31
0.0
  0
LINE
  5
57
100
AcDbEntity
  8
L1_115
  6
CONTINUOUS
 62
         7
100
AcDbLine
 10
1432.1057015658
 20
-36.4433347407
 30
0.0
 11
1432.1057015658
 21
10.5566652593
 31
0.0
  0
LINE
  5
58
100
AcDbEntity
  8
L1_115
  6
CONTINUOUS
 62
         7
100
AcDbLine
 10
1474.1033403763
 20
-40.9433347407
 30
0.0
 11
1474.1033403763
 21
-41.8433347407
 31
0.0
  0
LINE
  5
59
100
AcDbEntity
  8
L1_115
  6
CONTINUOUS
 62
         7
100
AcDbLine
 10
1476.1033403763
 20
-40.9433347407
 30
0.0
 11
1474.1033403763
 21
-40.9433347407
 31
0.0
  0
LINE
  5
5A
100
AcDbEntity
  8
L1_115
  6
CONTINUOUS
 62
         7
100
AcDbLine
 10
1476.1033403763
 20
-40.9433347407
 30
0.0
 11
1476.1033403763
 21
-41.8433347407
 31
0.0
  0
LINE
  5
5B
100
AcDbEntity
  8
L1_115
  6
CONTINUOUS
 62
         7
100
AcDbLine
 10
1479.2419591697
 20
-41.9433347407
 30
0.0
 11
1476.2033403763
 21
-41.9433347407
 31
0.0
  0
LINE
  5
5C
100
AcDbEntity
  8
L1_115
  6
CONTINUOUS
 62
         7
100
AcDbLine
 10
1474.0033403763
 20
-41.9433347407
 30
0.0
 11
1436.6033403763
 21
-41.9433347407
 31
0.0
  0
LINE
  5
5D
100
AcDbEntity
  8
L1_115
  6
CONTINUOUS
 62
         7
100
AcDbLine
 10
1476.1033403763
 20
15.0566652593
 30
0.0
 11
1476.1033403763
 21
15.9566652593
 31
0.0
  0
LINE
  5
5E
100
AcDbEntity
  8
L1_115
  6
CONTINUOUS
 62
         7
100
AcDbLine
 10
1479.2419591697
 20
16.0566652593
 30
0.0
 11
1476.2033403763
 21
16.0566652593
 31
0.0
  0
LINE
  5
5F
100
AcDbEntity
  8
L1_115
  6
CONTINUOUS
 62
         7
100
AcDbLine
 10
1476.1033403763
 20
15.0566652593
 30
0.0
 11
1474.1033403763
 21
15.0566652593
 31
0.0
  0
LINE
  5
60
100
AcDbEntity
  8
L1_115
  6
CONTINUOUS
 62
         7
100
AcDbLine
 10
1474.1033403763
 20
15.0566652593
 30
0.0
 11
1474.1033403763
 21
15.9566652593
 31
0.0
  0
LINE
  5
61
100
AcDbEntity
  8
L1_115
  6
CONTINUOUS
 62
         7
100
AcDbLine
 10
1474.0033403763
 20
16.0566652593
 30
0.0
 11
1436.6033403763
 21
16.0566652593
 31
0.0
  0
LINE
  5
62
100
AcDbEntity
  8
L1_115
  6
CONTINUOUS
 62
         7
100
AcDbLine
 10
1485.1033403763
 20
-38.9086807647
 30
0.0
 11
1485.1033403763
 21
13.0220112834
 31
0.0
  0
LINE
  5
63
100
AcDbEntity
  8
L1_115
  6
CONTINUOUS
 62
         7
100
AcDbLine
 10
1483.4033403763
 20
-36.9433347407
 30
0.0
 11
1437.1057015658
 21
-36.9433347407
 31
0.0
  0
LINE
  5
64
100
AcDbEntity
  8
L1_115
  6
CONTINUOUS
 62
         7
100
AcDbLine
 10
1483.4033403763
 20
11.0566652593
 30
0.0
 11
1437.1057015658
 21
11.0566652593
 31
0.0
  0
LINE
  5
65
100
AcDbEntity
  8
L1_115
  6
CONTINUOUS
 62
         7
100
AcDbLine
 10
1433.6033403763
 20
18.5566652593
 30
0.0
 11
1427.7865800737
 21
18.5566652593
 31
0.0
  0
LINE
  5
66
100
AcDbEntity
  8
L1_115
  6
CONTINUOUS
 62
         7
100
AcDbLine
 10
1433.6033403763
 20
-44.4433347407
 30
0.0
 11
1427.7865800737
 21
-44.4433347407
 31
0.0
  0
LINE
  5
67
100
AcDbEntity
  8
L1_115
  6
CONTINUOUS
 62
         4
100
AcDbLine
 10
1404.6033403763
 20
-9.9433347407
 30
0.0
 11
1392.1033403763
 21
-9.9433347407
 31
0.0
  0
LINE
  5
68
100
AcDbEntity
  8
L1_115
  6
CONTINUOUS
 62
         4
100
AcDbLine
 10
1404.6033403763
 20
-15.9433347407
 30
0.0
 11
1392.1033403763
 21
-15.9433347407
 31
0.0
  0
LINE
  5
69
100
AcDbEntity
  8
L1_115
  6
CONTINUOUS
 62
         4
100
AcDbLine
 10
1392.1033403763
 20
-15.9433347407
 30
0.0
 11
1392.1033403763
 21
-9.9433347407
 31
0.0
  0
LINE
  5
6A
100
AcDbEntity
  8
L1_115
  6
CONTINUOUS
 62
         7
100
AcDbLine
 10
1410.1033403763
 20
-30.9433347407
 30
0.0
 11
1410.1033403763
 21
5.0566652593
 31
0.0
  0
LINE
  5
6B
100
AcDbEntity
  8
L1_115
  6
CONTINUOUS
 62
         7
100
AcDbLine
 10
1437.1057015658
 20
-37.4433347407
 30
0.0
 11
1437.1057015658
 21
11.5566652593
 31
0.0
  0
LINE
  5
6C
100
AcDbEntity
  8
L1_115
  6
CONTINUOUS
 62
         4
100
AcDbLine
 10
1431.1057015658
 20
4.5566652593
 30
0.0
 11
1431.1057015658
 21
-30.4433347407
 31
0.0
  0
ARC
  5
6D
100
AcDbEntity
  8
L1_115
  6
CONTINUOUS
 62
         7
100
AcDbCircle
 10
1433.6033403763
 20
18.0566652593
 30
0.0
 40
0.5
100
AcDbArc
 50
0.0
 51
90.0
  0
ARC
  5
6E
100
AcDbEntity
  8
L1_115
  6
CONTINUOUS
 62
         7
100
AcDbCircle
 10
1433.6033403763
 20
-43.9433347407
 30
0.0
 40
0.5
100
AcDbArc
 50
270.0
 51
360.0
  0
LINE
  5
6F
100
AcDbEntity
  8
L1_115
  6
CONTINUOUS
 62
         7
100
AcDbLine
 10
1474.0033403763
 20
16.0566652593
 30
0.0
 11
1474.1033403763
 21
15.9566652593
 31
0.0
  0
LINE
  5
70
100
AcDbEntity
  8
L1_115
  6
CONTINUOUS
 62
         7
100
AcDbLine
 10
1476.1033403763
 20
15.9566652593
 30
0.0
 11
1476.2033403763
 21
16.0566652593
 31
0.0
  0
LINE
  5
71
100
AcDbEntity
  8
L1_115
  6
CONTINUOUS
 62
         7
100
AcDbLine
 10
1474.1033403763
 20
-41.8433347407
 30
0.0
 11
1474.0033403763
 21
-41.9433347407
 31
0.0
  0
LINE
  5
72
100
AcDbEntity
  8
L1_115
  6
CONTINUOUS
 62
         7
100
AcDbLine
 10
1476.1033403763
 20
-41.8433347407
 30
0.0
 11
1476.2033403763
 21
-41.9433347407
 31
0.0
  0
DIMENSION
  5
76
100
AcDbEntity
  8
L1_115
  6
CONTINUOUS
 62
         4
100
AcDbDimension
  2
*D0
 10
1485.1033403763
 20
-55.2542974518
 30
0.0
 11
1454.1362404482
 21
-52.1222974518
 31
0.0
  3
DIMSTYLE1
100
AcDbAlignedDimension
 13
1485.1033403763
 23
-39.2886342023
 33
0.0
 14
1435.6033403763
 24
-44.4433347407
 34
0.0
100
AcDbRotatedDimension
  0
POLYLINE
  5
84
100
AcDbEntity
  8
L1_115
  6
CONTINUOUS
 62
         7
100
AcDb2dPolyline
 66
         1
 10
0.0
 20
0.0
 30
0.0
 70
         2
  0
VERTEX
  5
86
100
AcDbEntity
  8
L1_115
  6
CONTINUOUS
 62
         7
100
AcDbVertex
100
AcDb2dVertex
 10
1445.8133403762
 20
-23.7807916884
 30
0.0
 70
         1
  0
VERTEX
  5
88
100
AcDbEntity
  8
L1_115
  6
CONTINUOUS
 62
         7
100
AcDbVertex
100
AcDb2dVertex
 10
1445.0770268265
 20
-23.8172064379
 30
0.0
 70
         1
  0
VERTEX
  5
8A
100
AcDbEntity
  8
L1_115
  6
CONTINUOUS
 62
         7
100
AcDbVertex
100
AcDb2dVertex
 10
1444.7198262537
 20
-23.8617073938
 30
0.0
 70
         1
  0
VERTEX
  5
8C
100
AcDbEntity
  8
L1_115
  6
CONTINUOUS
 62
         7
100
AcDbVertex
100
AcDb2dVertex
 10
1444.3751979753
 20
-23.922181868
 30
0.0
 70
         1
  0
VERTEX
  5
8E
100
AcDbEntity
  8
L1_115
  6
CONTINUOUS
 62
         7
100
AcDbVertex
100
AcDb2dVertex
 10
1444.0464342832
 20
-23.9969564927
 30
0.0
 70
         1
  0
VERTEX
  5
90
100
AcDbEntity
  8
L1_115
  6
CONTINUOUS
 62
         7
100
AcDbVertex
100
AcDb2dVertex
 10
1443.6318920548
 20
-24.1172371662
 30
0.0
 70
         1
  0
VERTEX
  5
92
100
AcDbEntity
  8
L1_115
  6
CONTINUOUS
 62
         7
100
AcDbVertex
100
AcDb2dVertex
 10
1443.2554854529
 20
-24.2547972595
 30
0.0
 70
         1
  0
VERTEX
  5
94
100
AcDbEntity
  8
L1_115
  6
CONTINUOUS
 62
         7
100
AcDbVertex
100
AcDb2dVertex
 10
1442.9193614076
 20
-24.40431516
 30
0.0
 70
         1
  0
VERTEX
  5
96
100
AcDbEntity
  8
L1_115
  6
CONTINUOUS
 62
         7
100
AcDbVertex
100
AcDb2dVertex
 10
1442.6236517259
 20
-24.560792092
 30
0.0
 70
         1
  0
VERTEX
  5
98
100
AcDbEntity
  8
L1_115
  6
CONTINUOUS
 62
         7
100
AcDbVertex
100
AcDb2dVertex
 10
1442.3668909215
 20
-24.7198242371
 30
0.0
 70
         1
  0
VERTEX
  5
9A
100
AcDbEntity
  8
L1_115
  6
CONTINUOUS
 62
         7
100
AcDbVertex
100
AcDb2dVertex
 10
1442.0757447951
 20
-24.9334796384
 30
0.0
 70
         1
  0
VERTEX
  5
9C
100
AcDbEntity
  8
L1_115
  6
CONTINUOUS
 62
         7
100
AcDbVertex
100
AcDb2dVertex
 10
1441.8431782752
 20
-25.1383103747
 30
0.0
 70
         1
  0
VERTEX
  5
9E
100
AcDbEntity
  8
L1_115
  6
CONTINUOUS
 62
         7
100
AcDbVertex
100
AcDb2dVertex
 10
1441.660007375
 20
-25.3298611228
 30
0.0
 70
         1
  0
VERTEX
  5
A0
100
AcDbEntity
  8
L1_115
  6
CONTINUOUS
 62
         7
100
AcDbVertex
100
AcDb2dVertex
 10
1441.4734141246
 20
-25.5661595315
 30
0.0
 70
         1
  0
VERTEX
  5
A2
100
AcDbEntity
  8
L1_115
  6
CONTINUOUS
 62
         7
100
AcDbVertex
100
AcDb2dVertex
 10
1441.3428404172
 20
-25.7711520851
 30
0.0
 70
         1
  0
VERTEX
  5
A4
100
AcDbEntity
  8
L1_115
  6
CONTINUOUS
 62
         7
100
AcDbVertex
100
AcDb2dVertex
 10
1441.2259324227
 20
-26.0052993224
 30
0.0
 70
         1
  0
VERTEX
  5
A6
100
AcDbEntity
  8
L1_115
  6
CONTINUOUS
 62
         7
100
AcDbVertex
100
AcDb2dVertex
 10
1441.1373983751
 20
-26.2515186743
 30
0.0
 70
         1
  0
VERTEX
  5
A8
100
AcDbEntity
  8
L1_115
  6
CONTINUOUS
 62
         7
100
AcDbVertex
100
AcDb2dVertex
 10
1441.0849108724
 20
-26.4810354185
 30
0.0
 70
         1
  0
VERTEX
  5
AA
100
AcDbEntity
  8
L1_115
  6
CONTINUOUS
 62
         7
100
AcDbVertex
100
AcDb2dVertex
 10
1441.0600053935
 20
-26.7198542341
 30
0.0
 70
         1
  0
VERTEX
  5
AC
100
AcDbEntity
  8
L1_115
  6
CONTINUOUS
 62
         7
100
AcDbVertex
100
AcDb2dVertex
 10
1441.0583403762
 20
-26.7997395006
 30
0.0
 70
         1
  0
SEQEND
  5
AE
100
AcDbEntity
  8
L1_115
  6
CONTINUOUS
 62
         7
  0
LINE
  5
AF
100
AcDbEntity
  8
L1_115
  6
CONTINUOUS
 62
         7
100
AcDbLine
 10
1464.2933403763
 20
-23.7807944323
 30
0.0
 11
1445.8133403762
 21
-23.7807916884
 31
0.0
  0
POLYLINE
  5
B1
100
AcDbEntity
  8
L1_115
  6
CONTINUOUS
 62
         7
100
AcDb2dPolyline
 66
         1
 10
0.0
 20
0.0
 30
0.0
 70
         2
  0
VERTEX
  5
B3
100
AcDbEntity
  8
L1_115
  6
CONTINUOUS
 62
         7
100
AcDbVertex
100
AcDb2dVertex
 10
1464.2933403763
 20
-28.5557944323
 30
0.0
 70
         1
  0
VERTEX
  5
B5
100
AcDbEntity
  8
L1_115
  6
CONTINUOUS
 62
         7
100
AcDbVertex
100
AcDb2dVertex
 10
1465.3219419611
 20
-28.5142155381
 30
0.0
 70
         1
  0
VERTEX
  5
B7
100
AcDbEntity
  8
L1_115
  6
CONTINUOUS
 62
         7
100
AcDbVertex
100
AcDb2dVertex
 10
1465.7734835521
 20
-28.4685498533
 30
0.0
 70
         1
  0
VERTEX
  5
B9
100
AcDbEntity
  8
L1_115
  6
CONTINUOUS
 62
         7
100
AcDbVertex
100
AcDb2dVertex
 10
1466.1804479278
 20
-28.4115798323
 30
0.0
 70
         1
  0
VERTEX
  5
BB
100
AcDbEntity
  8
L1_115
  6
CONTINUOUS
 62
         7
100
AcDbVertex
100
AcDb2dVertex
 10
1466.5435421242
 20
-28.346718318
 30
0.0
 70
         1
  0
VERTEX
  5
BD
100
AcDbEntity
  8
L1_115
  6
CONTINUOUS
 62
         7
100
AcDbVertex
100
AcDb2dVertex
 10
1466.864901807
 20
-28.2768340327
 30
0.0
 70
         1
  0
VERTEX
  5
BF
100
AcDbEntity
  8
L1_115
  6
CONTINUOUS
 62
         7
100
AcDbVertex
100
AcDb2dVertex
 10
1467.1475444751
 20
-28.2042503737
 30
0.0
 70
         1
  0
VERTEX
  5
C1
100
AcDbEntity
  8
L1_115
  6
CONTINUOUS
 62
         7
100
AcDbVertex
100
AcDb2dVertex
 10
1467.4731365879
 20
-28.1053813813
 30
0.0
 70
         1
  0
VERTEX
  5
C3
100
AcDbEntity
  8
L1_115
  6
CONTINUOUS
 62
         7
100
AcDbVertex
100
AcDb2dVertex
 10
1467.7436243963
 20
-28.0080893254
 30
0.0
 70
         1
  0
VERTEX
  5
C5
100
AcDbEntity
  8
L1_115
  6
CONTINUOUS
 62
         7
100
AcDbVertex
100
AcDb2dVertex
 10
1467.9674458542
 20
-27.914471244
 30
0.0
 70
         1
  0
VERTEX
  5
C7
100
AcDbEntity
  8
L1_115
  6
CONTINUOUS
 62
         7
100
AcDbVertex
100
AcDb2dVertex
 10
1468.1522342392
 20
-27.8257871803
 30
0.0
 70
         1
  0
VERTEX
  5
C9
100
AcDbEntity
  8
L1_115
  6
CONTINUOUS
 62
         7
100
AcDbVertex
100
AcDb2dVertex
 10
1468.351602987
 20
-27.7148870337
 30
0.0
 70
         1
  0
VERTEX
  5
CB
100
AcDbEntity
  8
L1_115
  6
CONTINUOUS
 62
         7
100
AcDbVertex
100
AcDb2dVertex
 10
1468.5052884621
 20
-27.6146902466
 30
0.0
 70
         1
  0
VERTEX
  5
CD
100
AcDbEntity
  8
L1_115
  6
CONTINUOUS
 62
         7
100
AcDbVertex
100
AcDb2dVertex
 10
1468.6595389039
 20
-27.495209684
 30
0.0
 70
         1
  0
VERTEX
  5
CF
100
AcDbEntity
  8
L1_115
  6
CONTINUOUS
 62
         7
100
AcDbVertex
100
AcDb2dVertex
 10
1468.7685535304
 20
-27.3932226826
 30
0.0
 70
         1
  0
VERTEX
  5
D1
100
AcDbEntity
  8
L1_115
  6
CONTINUOUS
 62
         7
100
AcDbVertex
100
AcDb2dVertex
 10
1468.868549703
 20
-27.2780596341
 30
0.0
 70
         1
  0
VERTEX
  5
D3
100
AcDbEntity
  8
L1_115
  6
CONTINUOUS
 62
         7
100
AcDbVertex
100
AcDb2dVertex
 10
1468.949469552
 20
-27.1559815553
 30
0.0
 70
         1
  0
VERTEX
  5
D5
100
AcDbEntity
  8
L1_115
  6
CONTINUOUS
 62
         7
100
AcDbVertex
100
AcDb2dVertex
 10
1469.0047404755
 20
-27.0370009059
 30
0.0
 70
         1
  0
VERTEX
  5
D7
100
AcDbEntity
  8
L1_115
  6
CONTINUOUS
 62
         7
100
AcDbVertex
100
AcDb2dVertex
 10
1469.04056822
 20
-26.900104492
 30
0.0
 70
         1
  0
VERTEX
  5
D9
100
AcDbEntity
  8
L1_115
  6
CONTINUOUS
 62
         7
100
AcDbVertex
100
AcDb2dVertex
 10
1469.0483403763
 20
-26.7997422446
 30
0.0
 70
         1
  0
SEQEND
  5
DB
100
AcDbEntity
  8
L1_115
  6
CONTINUOUS
 62
         7
  0
POLYLINE
  5
DD
100
AcDbEntity
  8
L1_115
  6
CONTINUOUS
 62
         7
100
AcDb2dPolyline
 66
         1
 10
0.0
 20
0.0
 30
0.0
 70
         2
  0
VERTEX
  5
DF
100
AcDbEntity
  8
L1_115
  6
CONTINUOUS
 62
         7
100
AcDbVertex
100
AcDb2dVertex
 10
1441.0583403762
 20
-26.7997395006
 30
0.0
 70
         1
  0
VERTEX
  5
E1
100
AcDbEntity
  8
L1_115
  6
CONTINUOUS
 62
         7
100
AcDbVertex
100
AcDb2dVertex
 10
1441.1156955029
 20
-27.0716648465
 30
0.0
 70
         1
  0
VERTEX
  5
E3
100
AcDbEntity
  8
L1_115
  6
CONTINUOUS
 62
         7
100
AcDbVertex
100
AcDb2dVertex
 10
1441.1857868256
 20
-27.2035813233
 30
0.0
 70
         1
  0
VERTEX
  5
E5
100
AcDbEntity
  8
L1_115
  6
CONTINUOUS
 62
         7
100
AcDbVertex
100
AcDb2dVertex
 10
1441.2810372714
 20
-27.3308547707
 30
0.0
 70
         1
  0
VERTEX
  5
E7
100
AcDbEntity
  8
L1_115
  6
CONTINUOUS
 62
         7
100
AcDbVertex
100
AcDb2dVertex
 10
1441.3988111988
 20
-27.452269324
 30
0.0
 70
         1
  0
VERTEX
  5
E9
100
AcDbEntity
  8
L1_115
  6
CONTINUOUS
 62
         7
100
AcDbVertex
100
AcDb2dVertex
 10
1441.5360308305
 20
-27.5668529287
 30
0.0
 70
         1
  0
VERTEX
  5
EB
100
AcDbEntity
  8
L1_115
  6
CONTINUOUS
 62
         7
100
AcDbVertex
100
AcDb2dVertex
 10
1441.6893565047
 20
-27.6738951339
 30
0.0
 70
         1
  0
VERTEX
  5
ED
100
AcDbEntity
  8
L1_115
  6
CONTINUOUS
 62
         7
100
AcDbVertex
100
AcDb2dVertex
 10
1441.8553607744
 20
-27.772945918
 30
0.0
 70
         1
  0
VERTEX
  5
EF
100
AcDbEntity
  8
L1_115
  6
CONTINUOUS
 62
         7
100
AcDbVertex
100
AcDb2dVertex
 10
1442.0306822679
 20
-27.8637986623
 30
0.0
 70
         1
  0
VERTEX
  5
F1
100
AcDbEntity
  8
L1_115
  6
CONTINUOUS
 62
         7
100
AcDbVertex
100
AcDb2dVertex
 10
1442.2768416869
 20
-27.9735998025
 30
0.0
 70
         1
  0
VERTEX
  5
F3
100
AcDbEntity
  8
L1_115
  6
CONTINUOUS
 62
         7
100
AcDbVertex
100
AcDb2dVertex
 10
1442.5272832493
 20
-28.0689858536
 30
0.0
 70
         1
  0
VERTEX
  5
F5
100
AcDbEntity
  8
L1_115
  6
CONTINUOUS
 62
         7
100
AcDbVertex
100
AcDb2dVertex
 10
1442.7761894914
 20
-28.150903551
 30
0.0
 70
         1
  0
VERTEX
  5
F7
100
AcDbEntity
  8
L1_115
  6
CONTINUOUS
 62
         7
100
AcDbVertex
100
AcDb2dVertex
 10
1443.1037735911
 20
-28.2427910757
 30
0.0
 70
         1
  0
VERTEX
  5
F9
100
AcDbEntity
  8
L1_115
  6
CONTINUOUS
 62
         7
100
AcDbVertex
100
AcDb2dVertex
 10
1443.4121399662
 20
-28.3154382277
 30
0.0
 70
         1
  0
VERTEX
  5
FB
100
AcDbEntity
  8
L1_115
  6
CONTINUOUS
 62
         7
100
AcDbVertex
100
AcDb2dVertex
 10
1443.7947036819
 20
-28.3896941092
 30
0.0
 70
         1
  0
VERTEX
  5
FD
100
AcDbEntity
  8
L1_115
  6
CONTINUOUS
 62
         7
100
AcDbVertex
100
AcDb2dVertex
 10
1444.2426638464
 20
-28.4572220937
 30
0.0
 70
         1
  0
VERTEX
  5
FF
100
AcDbEntity
  8
L1_115
  6
CONTINUOUS
 62
         7
100
AcDbVertex
100
AcDb2dVertex
 10
1444.7233395777
 20
-28.5090309763
 30
0.0
 70
         1
  0
VERTEX
  5
101
100
AcDbEntity
  8
L1_115
  6
CONTINUOUS
 62
         7
100
AcDbVertex
100
AcDb2dVertex
 10
1445.3312752366
 20
-28.5467439906
 30
0.0
 70
         1
  0
VERTEX
  5
103
100
AcDbEntity
  8
L1_115
  6
CONTINUOUS
 62
         7
100
AcDbVertex
100
AcDb2dVertex
 10
1445.8133403762
 20
-28.5557916884
 30
0.0
 70
         1
  0
SEQEND
  5
105
100
AcDbEntity
  8
L1_115
  6
CONTINUOUS
 62
         7
  0
LINE
  5
106
100
AcDbEntity
  8
L1_115
  6
CONTINUOUS
 62
         7
100
AcDbLine
 10
1464.2933441996
 20
-28.5557944323
 30
0.0
 11
1445.8133403632
 21
-28.5557916884
 31
0.0
  0
POLYLINE
  5
108
100
AcDbEntity
  8
L1_115
  6
CONTINUOUS
 62
         7
100
AcDb2dPolyline
 66
         1
 10
0.0
 20
0.0
 30
0.0
 70
         2
  0
VERTEX
  5
10A
100
AcDbEntity
  8
L1_115
  6
CONTINUOUS
 62
         7
100
AcDbVertex
100
AcDb2dVertex
 10
1469.0483403763
 20
-26.7997422446
 30
0.0
 70
         1
  0
VERTEX
  5
10C
100
AcDbEntity
  8
L1_115
  6
CONTINUOUS
 62
         7
100
AcDbVertex
100
AcDb2dVertex
 10
1468.9837615448
 20
-26.3038802314
 30
0.0
 70
         1
  0
VERTEX
  5
10E
100
AcDbEntity
  8
L1_115
  6
CONTINUOUS
 62
         7
100
AcDbVertex
100
AcDb2dVertex
 10
1468.9101522462
 20
-26.077218315
 30
0.0
 70
         1
  0
VERTEX
  5
110
100
AcDbEntity
  8
L1_115
  6
CONTINUOUS
 62
         7
100
AcDbVertex
100
AcDb2dVertex
 10
1468.8151797739
 20
-25.8659877879
 30
0.0
 70
         1
  0
VERTEX
  5
112
100
AcDbEntity
  8
L1_115
  6
CONTINUOUS
 62
         7
100
AcDbVertex
100
AcDb2dVertex
 10
1468.7031461769
 20
-25.6704704987
 30
0.0
 70
         1
  0
VERTEX
  5
114
100
AcDbEntity
  8
L1_115
  6
CONTINUOUS
 62
         7
100
AcDbVertex
100
AcDb2dVertex
 10
1468.5326010017
 20
-25.432318985
 30
0.0
 70
         1
  0
VERTEX
  5
116
100
AcDbEntity
  8
L1_115
  6
CONTINUOUS
 62
         7
100
AcDbVertex
100
AcDb2dVertex
 10
1468.346450835
 20
-25.2211104483
 30
0.0
 70
         1
  0
VERTEX
  5
118
100
AcDbEntity
  8
L1_115
  6
CONTINUOUS
 62
         7
100
AcDbVertex
100
AcDb2dVertex
 10
1468.1513888937
 20
-25.0350539413
 30
0.0
 70
         1
  0
VERTEX
  5
11A
100
AcDbEntity
  8
L1_115
  6
CONTINUOUS
 62
         7
100
AcDbVertex
100
AcDb2dVertex
 10
1467.8837628794
 20
-24.8204339458
 30
0.0
 70
         1
  0
VERTEX
  5
11C
100
AcDbEntity
  8
L1_115
  6
CONTINUOUS
 62
         7
100
AcDbVertex
100
AcDb2dVertex
 10
1467.6188853831
 20
-24.6419449013
 30
0.0
 70
         1
  0
VERTEX
  5
11E
100
AcDbEntity
  8
L1_115
  6
CONTINUOUS
 62
         7
100
AcDbVertex
100
AcDb2dVertex
 10
1467.2759640168
 20
-24.4485569355
 30
0.0
 70
         1
  0
VERTEX
  5
120
100
AcDbEntity
  8
L1_115
  6
CONTINUOUS
 62
         7
100
AcDbVertex
100
AcDb2dVertex
 10
1466.9578897473
 20
-24.2993173949
 30
0.0
 70
         1
  0
VERTEX
  5
122
100
AcDbEntity
  8
L1_115
  6
CONTINUOUS
 62
         7
100
AcDbVertex
100
AcDb2dVertex
 10
1466.5715302865
 20
-24.1498536826
 30
0.0
 70
         1
  0
VERTEX
  5
124
100
AcDbEntity
  8
L1_115
  6
CONTINUOUS
 62
         7
100
AcDbVertex
100
AcDb2dVertex
 10
1466.2378020281
 20
-24.0447537168
 30
0.0
 70
         1
  0
VERTEX
  5
126
100
AcDbEntity
  8
L1_115
  6
CONTINUOUS
 62
         7
100
AcDbVertex
100
AcDb2dVertex
 10
1465.8586532635
 20
-23.9490625948
 30
0.0
 70
         1
  0
VERTEX
  5
128
100
AcDbEntity
  8
L1_115
  6
CONTINUOUS
 62
         7
100
AcDbVertex
100
AcDb2dVertex
 10
1465.4560641172
 20
-23.8724418464
 30
0.0
 70
         1
  0
VERTEX
  5
12A
100
AcDbEntity
  8
L1_115
  6
CONTINUOUS
 62
         7
100
AcDbVertex
100
AcDb2dVertex
 10
1465.0647726791
 20
-23.8207895105
 30
0.0
 70
         1
  0
VERTEX
  5
12C
100
AcDbEntity
  8
L1_115
  6
CONTINUOUS
 62
         7
100
AcDbVertex
100
AcDb2dVertex
 10
1464.7264450716
 20
-23.7933435713
 30
0.0
 70
         1
  0
VERTEX
  5
12E
100
AcDbEntity
  8
L1_115
  6
CONTINUOUS
 62
         7
100
AcDbVertex
100
AcDb2dVertex
 10
1464.3982384415
 20
-23.7815291363
 30
0.0
 70
         1
  0
VERTEX
  5
130
100
AcDbEntity
  8
L1_115
  6
CONTINUOUS
 62
         7
100
AcDbVertex
100
AcDb2dVertex
 10
1464.2933403763
 20
-23.7807944323
 30
0.0
 70
         1
  0
SEQEND
  5
132
100
AcDbEntity
  8
L1_115
  6
CONTINUOUS
 62
         7
  0
LINE
  5
133
100
AcDbEntity
  8
L1_115
  6
CENTER
 62
         1
100
AcDbLine
 10
1485.1033403763
 20
150.1846417294
 30
0.0
 11
1419.1033403763
 21
150.1846417294
 31
0.0
  0
LINE
  5
134
100
AcDbEntity
  8
L1_115
  6
CONTINUOUS
 62
         4
100
AcDbLine
 10
1436.6033403763
 20
121.1846417294
 30
0.0
 11
1436.6033403763
 21
179.1846417294
 31
0.0
  0
ARC
  5
135
100
AcDbEntity
  8
L1_115
  6
CONTINUOUS
 62
         7
100
AcDbCircle
 10
1434.4033403763
 20
120.9846417294
 30
0.0
 40
0.4
100
AcDbArc
 50
90.0
 51
178.4890283439
  0
LINE
  5
136
100
AcDbEntity
  8
L1_115
  6
CONTINUOUS
 62
         7
100
AcDbLine
 10
1434.0034794587
 20
120.9951890789
 30
0.0
 11
1434.1033403763
 21
120.2846417294
 31
0.0
  0
LINE
  5
137
100
AcDbEntity
  8
L1_115
  6
CONTINUOUS
 62
         7
100
AcDbLine
 10
1437.2398320494
 20
121.1846417294
 30
0.0
 11
1436.6033403763
 21
121.1846417294
 31
0.0
  0
ARC
  5
138
100
AcDbEntity
  8
L1_115
  6
CONTINUOUS
 62
         7
100
AcDbCircle
 10
1435.8042692157
 20
120.9846417294
 30
0.0
 40
0.4
100
AcDbArc
 50
75.0
 51
90.0
  0
LINE
  5
139
100
AcDbEntity
  8
L1_115
  6
CONTINUOUS
 62
         7
100
AcDbLine
 10
1435.9077968337
 20
121.3710120599
 30
0.0
 11
1436.6033403763
 21
121.1846417294
 31
0.0
  0
LINE
  5
13A
100
AcDbEntity
  8
L1_115
  6
CONTINUOUS
 62
         7
100
AcDbLine
 10
1435.8042692157
 20
121.3846417294
 30
0.0
 11
1434.4033403763
 21
121.3846417294
 31
0.0
  0
ARC
  5
13B
100
AcDbEntity
  8
L1_115
  6
CONTINUOUS
 62
         7
100
AcDbCircle
 10
1434.4033403763
 20
179.3846417294
 30
0.0
 40
0.4
100
AcDbArc
 50
181.5109716561
 51
270.0
  0
LINE
  5
13C
100
AcDbEntity
  8
L1_115
  6
CONTINUOUS
 62
         7
100
AcDbLine
 10
1434.0034794587
 20
179.3740943799
 30
0.0
 11
1434.1033403763
 21
180.0846417294
 31
0.0
  0
LINE
  5
13D
100
AcDbEntity
  8
L1_115
  6
CONTINUOUS
 62
         7
100
AcDbLine
 10
1437.2398320494
 20
179.1846417294
 30
0.0
 11
1436.6033403763
 21
179.1846417294
 31
0.0
  0
ARC
  5
13E
100
AcDbEntity
  8
L1_115
  6
CONTINUOUS
 62
         7
100
AcDbCircle
 10
1435.8042692157
 20
179.3846417294
 30
0.0
 40
0.4
100
AcDbArc
 50
270.0
 51
285.0
  0
LINE
  5
13F
100
AcDbEntity
  8
L1_115
  6
CONTINUOUS
 62
         7
100
AcDbLine
 10
1435.9077968337
 20
178.9982713989
 30
0.0
 11
1436.6033403763
 21
179.1846417294
 31
0.0
  0
LINE
  5
140
100
AcDbEntity
  8
L1_115
  6
CONTINUOUS
 62
         7
100
AcDbLine
 10
1435.8042692157
 20
178.9846417294
 30
0.0
 11
1434.4033403763
 21
178.9846417294
 31
0.0
  0
LINE
  5
141
100
AcDbEntity
  8
L1_115
  6
CONTINUOUS
 62
         7
100
AcDbLine
 10
1474.1033403763
 20
179.0846417294
 30
0.0
 11
1474.1033403763
 21
121.2846417294
 31
0.0
  0
LINE
  5
142
100
AcDbEntity
  8
L1_115
  6
CONTINUOUS
 62
         7
100
AcDbLine
 10
1476.1033403763
 20
122.1846417294
 30
0.0
 11
1474.1033403763
 21
122.1846417294
 31
0.0
  0
LINE
  5
143
100
AcDbEntity
  8
L1_115
  6
CONTINUOUS
 62
         7
100
AcDbLine
 10
1476.1033403763
 20
179.0846417294
 30
0.0
 11
1476.1033403763
 21
121.2846417294
 31
0.0
  0
LINE
  5
144
100
AcDbEntity
  8
L1_115
  6
CONTINUOUS
 62
         7
100
AcDbLine
 10
1479.2419591697
 20
121.1846417294
 30
0.0
 11
1476.2033403763
 21
121.1846417294
 31
0.0
  0
LINE
  5
145
100
AcDbEntity
  8
L1_115
  6
CONTINUOUS
 62
         7
100
AcDbLine
 10
1474.0033403763
 20
121.1846417294
 30
0.0
 11
1436.6033403763
 21
121.1846417294
 31
0.0
  0
LINE
  5
146
100
AcDbEntity
  8
L1_115
  6
CONTINUOUS
 62
         7
100
AcDbLine
 10
1479.2419591697
 20
179.1846417294
 30
0.0
 11
1476.2033403763
 21
179.1846417294
 31
0.0
  0
LINE
  5
147
100
AcDbEntity
  8
L1_115
  6
CONTINUOUS
 62
         7
100
AcDbLine
 10
1476.1033403763
 20
178.1846417294
 30
0.0
 11
1474.1033403763
 21
178.1846417294
 31
0.0
  0
LINE
  5
148
100
AcDbEntity
  8
L1_115
  6
CONTINUOUS
 62
         7
100
AcDbLine
 10
1474.0033403763
 20
179.1846417294
 30
0.0
 11
1436.6033403763
 21
179.1846417294
 31
0.0
  0
LINE
  5
149
100
AcDbEntity
  8
L1_115
  6
CONTINUOUS
 62
         7
100
AcDbLine
 10
1485.1033403763
 20
124.2192957053
 30
0.0
 11
1485.1033403763
 21
176.1499877534
 31
0.0
  0
LINE
  5
14A
100
AcDbEntity
  8
L1_115
  6
CONTINUOUS
 62
         7
100
AcDbLine
 10
1434.1033403763
 20
119.1846417294
 30
0.0
 11
1434.1033403763
 21
120.2846417294
 31
0.0
  0
LINE
  5
14B
100
AcDbEntity
  8
L1_115
  6
CONTINUOUS
 62
         7
100
AcDbLine
 10
1433.6033403763
 20
181.6846417294
 30
0.0
 11
1427.7865800737
 21
181.6846417294
 31
0.0
  0
LINE
  5
14C
100
AcDbEntity
  8
L1_115
  6
CONTINUOUS
 62
         7
100
AcDbLine
 10
1433.6033403763
 20
118.6846417294
 30
0.0
 11
1427.7865800737
 21
118.6846417294
 31
0.0
  0
LINE
  5
14D
100
AcDbEntity
  8
L1_115
  6
CENTER
 62
         1
100
AcDbLine
 10
1464.0983403763
 20
142.3499119521
 30
0.0
 11
1464.0983403763
 21
158.0592538929
 31
0.0
  0
LINE
  5
14E
100
AcDbEntity
  8
L1_115
  6
CENTER
 62
         1
100
AcDbLine
 10
1446.0083403763
 20
142.3499119489
 30
0.0
 11
1446.0083403763
 21
158.0592538898
 31
0.0
  0
ARC
  5
14F
100
AcDbEntity
  8
L1_115
  6
CONTINUOUS
 62
         7
100
AcDbCircle
 10
1433.6033403763
 20
181.1846417294
 30
0.0
 40
0.5
100
AcDbArc
 50
0.0
 51
90.0
  0
ARC
  5
150
100
AcDbEntity
  8
L1_115
  6
CONTINUOUS
 62
         7
100
AcDbCircle
 10
1433.6033403763
 20
119.1846417294
 30
0.0
 40
0.5
100
AcDbArc
 50
270.0
 51
360.0
  0
LINE
  5
151
100
AcDbEntity
  8
L1_115
  6
CONTINUOUS
 62
         7
100
AcDbLine
 10
1434.1033403763
 20
180.0846417294
 30
0.0
 11
1434.1033403763
 21
181.1846417294
 31
0.0
  0
LINE
  5
152
100
AcDbEntity
  8
L1_115
  6
CONTINUOUS
 62
         7
100
AcDbLine
 10
1434.1033403763
 20
121.2492168605
 30
0.0
 11
1434.1033403763
 21
179.1200665983
 31
0.0
  0
LINE
  5
153
100
AcDbEntity
  8
L1_115
  6
CONTINUOUS
 62
         4
100
AcDbLine
 10
1433.6033403763
 20
181.6846417294
 30
0.0
 11
1433.6033403763
 21
118.6846417294
 31
0.0
  0
LINE
  5
154
100
AcDbEntity
  8
L1_115
  6
CONTINUOUS
 62
         7
100
AcDbLine
 10
1476.1033403763
 20
179.0846417294
 30
0.0
 11
1476.2033403763
 21
179.1846417294
 31
0.0
  0
LINE
  5
155
100
AcDbEntity
  8
L1_115
  6
CONTINUOUS
 62
         7
100
AcDbLine
 10
1474.0033403763
 20
179.1846417294
 30
0.0
 11
1474.1033403763
 21
179.0846417294
 31
0.0
  0
LINE
  5
156
100
AcDbEntity
  8
L1_115
  6
CONTINUOUS
 62
         7
100
AcDbLine
 10
1474.1033403763
 20
121.2846417294
 30
0.0
 11
1474.0033403763
 21
121.1846417294
 31
0.0
  0
LINE
  5
157
100
AcDbEntity
  8
L1_115
  6
CONTINUOUS
 62
         7
100
AcDbLine
 10
1476.1033403763
 20
121.2846417294
 30
0.0
 11
1476.2033403763
 21
121.1846417294
 31
0.0
  0
DIMENSION
  5
15A
100
AcDbEntity
  8
L1_115
  6
CONTINUOUS
 62
         4
100
AcDbDimension
  2
*D1
 10
1503.6247404889
 20
177.6846417294
 30
0.0
 11
1501.5997404889
 21
145.7954934312
 31
0.0
  3
DIMSTYLE1
100
AcDbAlignedDimension
 13
1485.1033403763
 23
177.6846417294
 33
0.0
 14
1485.1033403763
 24
122.6846417294
 34
0.0
 50
90.0
100
AcDbRotatedDimension
  0
LINE
  5
166
100
AcDbEntity
  8
L1_115
  6
CONTINUOUS
 62
         7
100
AcDbLine
 10
1326.7033403763
 20
162.0074490628
 30
0.0
 11
1326.7033403763
 21
138.361834396
 31
0.0
  0
LINE
  5
167
100
AcDbEntity
  8
L1_115
  6
CENTER
 62
         1
100
AcDbLine
 10
1392.1033403763
 20
172.4096417294
 30
0.0
 11
1392.1033403763
 21
127.9596417294
 31
0.0
  0
LINE
  5
168
100
AcDbEntity
  8
L1_115
  6
CONTINUOUS
 62
         7
100
AcDbLine
 10
1394.1033403763
 20
180.6846417294
 30
0.0
 11
1394.1033403763
 21
119.6846417294
 31
0.0
  0
DIMENSION
  5
16B
100
AcDbEntity
  8
L1_115
  6
CONTINUOUS
 62
         4
100
AcDbDimension
  2
*D2
 10
1326.7033403763
 20
223.3766654111
 30
0.0
 11
1410.4862660922
 21
225.4016654111
 31
0.0
  3
DIMSTYLE1
100
AcDbAlignedDimension
 13
1326.7033403763
 23
162.0074490628
 33
0.0
 14
1485.1033403763
 24
150.1846417294
 34
0.0
100
AcDbRotatedDimension
  0
DIMENSION
  5
179
100
AcDbEntity
  8
L1_115
  6
CONTINUOUS
 62
         4
100
AcDbDimension
  2
*D3
 10
1485.1033403763
 20
217.3711759057
 30
0.0
 11
1431.2027346086
 21
219.3961759057
 31
0.0
  3
DIMSTYLE1
100
AcDbAlignedDimension
 13
1485.1033403763
 23
150.1846417294
 33
0.0
 14
1392.1033403763
 24
172.4096417294
 34
0.0
100
AcDbRotatedDimension
  0
LINE
  5
185
100
AcDbEntity
  8
L1_115
  6
CONTINUOUS
 62
         7
100
AcDbLine
 10
1483.6209784665
 20
178.081839406
 30
0.0
 11
1479.7595972599
 21
179.116493382
 31
0.0
  0
ARC
  5
186
100
AcDbEntity
  8
L1_115
  6
CONTINUOUS
 62
         7
100
AcDbCircle
 10
1483.1033403763
 20
176.1499877534
 30
0.0
 40
2.0
100
AcDbArc
 50
0.0
 51
75.0
  0
ARC
  5
187
100
AcDbEntity
  8
L1_115
  6
CONTINUOUS
 62
         7
100
AcDbCircle
 10
1479.2419591697
 20
177.1846417294
 30
0.0
 40
2.0
100
AcDbArc
 50
75.0
 51
90.0
  0
ARC
  5
188
100
AcDbEntity
  8
L1_115
  6
CONTINUOUS
 62
         7
100
AcDbCircle
 10
1483.1033403763
 20
124.2192957053
 30
0.0
 40
2.0
100
AcDbArc
 50
285.0
 51
360.0
  0
ARC
  5
189
100
AcDbEntity
  8
L1_115
  6
CONTINUOUS
 62
         7
100
AcDbCircle
 10
1479.2419591697
 20
123.1846417294
 30
0.0
 40
2.0
100
AcDbArc
 50
270.0
 51
285.0
  0
LINE
  5
18A
100
AcDbEntity
  8
L1_115
  6
CONTINUOUS
 62
         7
100
AcDbLine
 10
1483.6209784665
 20
122.2874440528
 30
0.0
 11
1479.7595972599
 21
121.2527900768
 31
0.0
  0
ARC
  5
18B
100
AcDbEntity
  8
L1_115
  6
CONTINUOUS
 62
         7
100
AcDbCircle
 10
1483.1033403763
 20
-38.9086807647
 30
0.0
 40
2.0
100
AcDbArc
 50
285.0
 51
360.0
  0
LINE
  5
18C
100
AcDbEntity
  8
L1_115
  6
CONTINUOUS
 62
         7
100
AcDbLine
 10
1483.6209784665
 20
-40.8405324173
 30
0.0
 11
1479.7595972599
 21
-41.8751863933
 31
0.0
  0
ARC
  5
18D
100
AcDbEntity
  8
L1_115
  6
CONTINUOUS
 62
         7
100
AcDbCircle
 10
1483.1033403763
 20
13.0220112834
 30
0.0
 40
2.0
100
AcDbArc
 50
0.0
 51
75.0
  0
ARC
  5
18E
100
AcDbEntity
  8
L1_115
  6
CONTINUOUS
 62
         7
100
AcDbCircle
 10
1479.2419591697
 20
14.0566652593
 30
0.0
 40
2.0
100
AcDbArc
 50
75.0
 51
90.0
  0
LINE
  5
18F
100
AcDbEntity
  8
L1_115
  6
CONTINUOUS
 62
         7
100
AcDbLine
 10
1483.6209784665
 20
14.9538629359
 30
0.0
 11
1479.7595972599
 21
15.9885169119
 31
0.0
  0
ARC
  5
190
100
AcDbEntity
  8
L1_115
  6
CONTINUOUS
 62
         7
100
AcDbCircle
 10
1479.2419591697
 20
-39.9433347407
 30
0.0
 40
2.0
100
AcDbArc
 50
270.0
 51
285.0
  0
LINE
  5
191
100
AcDbEntity
  8
L1_115
  6
CONTINUOUS
 62
         4
100
AcDbLine
 10
1479.5052641649
 20
121.2020498704
 30
0.0
 11
1479.5052641649
 21
179.1672335884
 31
0.0
  0
LINE
  5
192
100
AcDbEntity
  8
L1_115
  6
DASHED
 62
         2
100
AcDbLine
 10
1699.7993564723
 20
155.1346417294
 30
0.0
 11
1694.7089199972
 21
155.1346417294
 31
0.0
  0
LINE
  5
193
100
AcDbEntity
  8
L1_115
  6
DASHED
 62
         2
100
AcDbLine
 10
1699.7993564723
 20
145.2346417294
 30
0.0
 11
1694.7089199972
 21
145.2346417294
 31
0.0
  0
LINE
  5
194
100
AcDbEntity
  8
L1_115
  6
DASHED
 62
         2
100
AcDbLine
 10
1730.7385065795
 20
127.3719150865
 30
0.0
 11
1733.2837248171
 21
122.9634677827
 31
0.0
  0
LINE
  5
195
100
AcDbEntity
  8
L1_115
  6
DASHED
 62
         2
100
AcDbLine
 10
1739.312158077
 20
132.3219150865
 30
0.0
 11
1741.8573763145
 21
127.9134677827
 31
0.0
  0
LINE
  5
196
100
AcDbEntity
  8
L1_115
  6
DASHED
 62
         2
100
AcDbLine
 10
1739.312158077
 20
168.0473683723
 30
0.0
 11
1741.8573763145
 21
172.4558156761
 31
0.0
  0
LINE
  5
197
100
AcDbEntity
  8
L1_115
  6
DASHED
 62
         2
100
AcDbLine
 10
1730.7385065795
 20
172.9973683723
 30
0.0
 11
1733.2837248171
 21
177.4058156761
 31
0.0
  0
LINE
  5
198
100
AcDbEntity
  8
L1_115
  6
CONTINUOUS
 62
         7
100
AcDbLine
 10
1464.0983403763
 20
155.1346417294
 30
0.0
 11
1446.0083403763
 21
155.1346417294
 31
0.0
  0
LINE
  5
199
100
AcDbEntity
  8
L1_115
  6
CONTINUOUS
 62
         7
100
AcDbLine
 10
1464.0983403763
 20
145.2346417294
 30
0.0
 11
1446.0083403763
 21
145.2346417294
 31
0.0
  0
ARC
  5
19A
100
AcDbEntity
  8
L1_115
  6
CONTINUOUS
 62
         7
100
AcDbCircle
 10
1446.0083403763
 20
150.1846417294
 30
0.0
 40
4.95
100
AcDbArc
 50
90.0
 51
270.0
  0
ARC
  5
19B
100
AcDbEntity
  8
L1_115
  6
CONTINUOUS
 62
         7
100
AcDbCircle
 10
1464.0983403763
 20
150.1846417294
 30
0.0
 40
4.95
100
AcDbArc
 50
270.0
 51
450.0
  0
LINE
  5
19C
100
AcDbEntity
  8
L1_115
  6
CONTINUOUS
 62
         7
100
AcDbLine
 10
1469.0483403763
 20
11.0566652593
 30
0.0
 11
1469.0483403763
 21
16.0566652593
 31
0.0
  0
LINE
  5
19D
100
AcDbEntity
  8
L1_115
  6
CONTINUOUS
 62
         7
100
AcDbLine
 10
1441.0583403763
 20
11.0566652593
 30
0.0
 11
1441.0583403763
 21
16.0566652593
 31
0.0
  0
DIMENSION
  5
1A0
100
AcDbEntity
  8
L1_115
  6
CONTINUOUS
 62
         4
100
AcDbDimension
  2
*D4
 10
1485.1033403763
 20
-87.0801955925
 30
0.0
 11
1434.924638991
 21
-83.9481955925
 31
0.0
  3
DIMSTYLE1
100
AcDbAlignedDimension
 13
1485.1033403763
 23
-38.9086807647
 33
0.0
 14
1387.1030155108
 24
-15.4433347407
 34
0.0
100
AcDbRotatedDimension
  0
ARC
  5
1AC
100
AcDbEntity
  8
L1_115
  6
CONTINUOUS
 62
         7
100
AcDbCircle
 10
1406.1033403763
 20
4.0566652593
 30
0.0
 40
1.0
100
AcDbArc
 50
90.0
 51
180.0
  0
ARC
  5
1AD
100
AcDbEntity
  8
L1_115
  6
CONTINUOUS
 62
         7
100
AcDbCircle
 10
1406.1033403763
 20
-29.9433347407
 30
0.0
 40
1.0
100
AcDbArc
 50
180.0
 51
270.0
  0
ARC
  5
1AE
100
AcDbEntity
  8
L1_115
  6
CONTINUOUS
 62
         7
100
AcDbCircle
 10
1433.1057015658
 20
-36.4433347407
 30
0.0
 40
1.0
100
AcDbArc
 50
180.0
 51
270.0
  0
ARC
  5
1AF
100
AcDbEntity
  8
L1_115
  6
CONTINUOUS
 62
         7
100
AcDbCircle
 10
1433.1057015658
 20
10.5566652593
 30
0.0
 40
1.0
100
AcDbArc
 50
90.0
 51
180.0
  0
LINE
  5
1B0
100
AcDbEntity
  8
L1_115
  6
CONTINUOUS
 62
         7
100
AcDbLine
 10
1405.1033403763
 20
-9.4433347407
 30
0.0
 11
1404.1033403763
 21
-10.4433347407
 31
0.0
  0
LINE
  5
1B1
100
AcDbEntity
  8
L1_115
  6
CONTINUOUS
 62
         4
100
AcDbLine
 10
1404.1033403763
 20
-15.4433347407
 30
0.0
 11
1404.1033403763
 21
-10.4433347407
 31
0.0
  0
LINE
  5
1B2
100
AcDbEntity
  8
L1_115
  6
CONTINUOUS
 62
         7
100
AcDbLine
 10
1404.1033403763
 20
-15.4433347407
 30
0.0
 11
1405.1033403763
 21
-16.4433347407
 31
0.0
  0
ARC
  5
1B3
100
AcDbEntity
  8
L1_115
  6
CONTINUOUS
 62
         7
100
AcDbCircle
 10
1427.7865800737
 20
180.8846417294
 30
0.0
 40
0.8
100
AcDbArc
 50
90.0
 51
157.975687163
  0
ARC
  5
1B4
100
AcDbEntity
  8
L1_115
  6
CONTINUOUS
 62
         7
100
AcDbCircle
 10
1426.3033403763
 20
181.4846417294
 30
0.0
 40
0.8
100
AcDbArc
 50
270.0
 51
337.975687163
  0
ARC
  5
1B5
100
AcDbEntity
  8
L1_115
  6
CONTINUOUS
 62
         7
100
AcDbCircle
 10
1427.7865800737
 20
119.4846417294
 30
0.0
 40
0.8
100
AcDbArc
 50
202.024312837
 51
270.0
  0
ARC
  5
1B6
100
AcDbEntity
  8
L1_115
  6
CONTINUOUS
 62
         7
100
AcDbCircle
 10
1426.3033403763
 20
118.8846417294
 30
0.0
 40
0.8
100
AcDbArc
 50
22.024312837
 51
90.0
  0
ARC
  5
1B7
100
AcDbEntity
  8
L1_115
  6
CONTINUOUS
 62
         7
100
AcDbCircle
 10
1427.7865800737
 20
17.7566652593
 30
0.0
 40
0.8
100
AcDbArc
 50
90.0
 51
157.975687163
  0
ARC
  5
1B8
100
AcDbEntity
  8
L1_115
  6
CONTINUOUS
 62
         7
100
AcDbCircle
 10
1426.3033403763
 20
18.3566652593
 30
0.0
 40
0.8
100
AcDbArc
 50
270.0
 51
337.975687163
  0
ARC
  5
1B9
100
AcDbEntity
  8
L1_115
  6
CONTINUOUS
 62
         7
100
AcDbCircle
 10
1427.7865800737
 20
-43.6433347407
 30
0.0
 40
0.8
100
AcDbArc
 50
202.024312837
 51
270.0
  0
ARC
  5
1BA
100
AcDbEntity
  8
L1_115
  6
CONTINUOUS
 62
         7
100
AcDbCircle
 10
1426.3033403763
 20
-44.2433347407
 30
0.0
 40
0.8
100
AcDbArc
 50
22.024312837
 51
90.0
  0
DIMENSION
  5
1BD
100
AcDbEntity
  8
L1_115
  6
CONTINUOUS
 62
         4
100
AcDbDimension
  2
*D5
 10
1324.5063261387
 20
-96.4708866319
 30
0.0
 11
1322.4813261387
 21
-116.2558866319
 31
0.0
  3
DIMSTYLE1
100
AcDbAlignedDimension
 13
1330.2197402054
 23
-96.4708866319
 33
0.0
 14
1328.6497402054
 24
-119.8408866319
 34
0.0
 50
90.0
100
AcDbRotatedDimension
  0
DIMENSION
  5
1CB
100
AcDbEntity
  8
L1_115
  6
CONTINUOUS
 62
         4
100
AcDbDimension
  2
*D6
 10
1362.6770325407
 20
-86.2758866319
 30
0.0
 11
1360.6520325407
 21
-113.5558866319
 31
0.0
  3
DIMSTYLE1
100
AcDbAlignedDimension
 13
1369.556423628
 23
-86.2758866319
 33
0.0
 14
1367.786423628
 24
-130.0358866319
 34
0.0
 50
90.0
100
AcDbRotatedDimension
  0
DIMENSION
  5
1D9
100
AcDbEntity
  8
L1_115
  6
CONTINUOUS
 62
         4
100
AcDbDimension
  2
*D7
 10
1390.0817714781
 20
-101.8108866319
 30
0.0
 11
1388.0567714781
 21
-113.5558866319
 31
0.0
  3
DIMSTYLE1
100
AcDbAlignedDimension
 13
1397.4749631772
 23
-101.8108866319
 33
0.0
 14
1396.0049631772
 24
-114.5008866319
 34
0.0
 50
90.0
100
AcDbRotatedDimension
  0
DIMENSION
  5
1E7
100
AcDbEntity
  8
L1_115
  6
CONTINUOUS
 62
         4
100
AcDbDimension
  2
*D8
 10
1435.3629281371
 20
-98.0858866319
 30
0.0
 11
1433.3379281371
 21
-113.5558866319
 31
0.0
  3
DIMSTYLE1
100
AcDbAlignedDimension
 13
1445.081493307
 23
-98.0858866319
 33
0.0
 14
1443.711493307
 24
-118.2258866319
 34
0.0
 50
90.0
100
AcDbRotatedDimension
  0
LINE
  5
1F3
100
AcDbEntity
  8
L1_115
  6
CONTINUOUS
 62
         7
100
AcDbLine
 10
1368.671423628
 20
-87.1608866319
 30
0.0
 11
1366.901423628
 21
-129.1508866319
 31
0.0
  0
LINE
  5
1F4
100
AcDbEntity
  8
L1_115
  6
CONTINUOUS
 62
         7
100
AcDbLine
 10
1370.441423628
 20
-87.1608866319
 30
0.0
 11
1368.671423628
 21
-129.1508866319
 31
0.0
  0
LINE
  5
1F5
100
AcDbEntity
  8
L1_115
  6
CONTINUOUS
 62
         7
100
AcDbLine
 10
1370.441423628
 20
-129.1508866319
 30
0.0
 11
1372.211423628
 21
-87.1608866319
 31
0.0
  0
LINE
  5
1F6
100
AcDbEntity
  8
L1_115
  6
CONTINUOUS
 62
         7
100
AcDbLine
 10
1373.9814236281
 20
-87.1608866319
 30
0.0
 11
1372.211423628
 21
-129.1508866319
 31
0.0
  0
CIRCLE
  5
1F7
100
AcDbEntity
  8
L1_115
  6
CONTINUOUS
 62
         7
100
AcDbCircle
 10
1369.556423628
 20
-87.1608866319
 30
0.0
 40
0.885
  0
CIRCLE
  5
1F8
100
AcDbEntity
  8
L1_115
  6
CONTINUOUS
 62
         7
100
AcDbCircle
 10
1371.326423628
 20
-87.1608866319
 30
0.0
 40
0.885
  0
CIRCLE
  5
1F9
100
AcDbEntity
  8
L1_115
  6
CONTINUOUS
 62
         7
100
AcDbCircle
 10
1373.096423628
 20
-87.1608866319
 30
0.0
 40
0.885
  0
CIRCLE
  5
1FA
100
AcDbEntity
  8
L1_115
  6
CONTINUOUS
 62
         7
100
AcDbCircle
 10
1367.786423628
 20
-129.1508866319
 30
0.0
 40
0.885
  0
CIRCLE
  5
1FB
100
AcDbEntity
  8
L1_115
  6
CONTINUOUS
 62
         7
100
AcDbCircle
 10
1369.556423628
 20
-129.1508866319
 30
0.0
 40
0.885
  0
CIRCLE
  5
1FC
100
AcDbEntity
  8
L1_115
  6
CONTINUOUS
 62
         7
100
AcDbCircle
 10
1371.326423628
 20
-129.1508866319
 30
0.0
 40
0.885
  0
LINE
  5
1FD
100
AcDbEntity
  8
L1_115
  6
CONTINUOUS
 62
         7
100
AcDbLine
 10
1337.2847402054
 20
-119.0558866319
 30
0.0
 11
1338.8547402054
 21
-97.2558866319
 31
0.0
  0
LINE
  5
1FE
100
AcDbEntity
  8
L1_115
  6
CONTINUOUS
 62
         7
100
AcDbLine
 10
1337.2847402054
 20
-97.2558866319
 30
0.0
 11
1335.7147402054
 21
-119.0558866319
 31
0.0
  0
LINE
  5
1FF
100
AcDbEntity
  8
L1_115
  6
CONTINUOUS
 62
         7
100
AcDbLine
 10
1334.1447402054
 20
-119.0558866319
 30
0.0
 11
1335.7147402054
 21
-97.2558866319
 31
0.0
  0
LINE
  5
200
100
AcDbEntity
  8
L1_115
  6
CONTINUOUS
 62
         7
100
AcDbLine
 10
1334.1447402054
 20
-97.2558866319
 30
0.0
 11
1332.5747402054
 21
-119.0558866319
 31
0.0
  0
LINE
  5
201
100
AcDbEntity
  8
L1_115
  6
CONTINUOUS
 62
         7
100
AcDbLine
 10
1331.0047402054
 20
-119.0558866319
 30
0.0
 11
1332.5747402054
 21
-97.2558866319
 31
0.0
  0
LINE
  5
202
100
AcDbEntity
  8
L1_115
  6
CONTINUOUS
 62
         7
100
AcDbLine
 10
1331.0047402054
 20
-97.2558866319
 30
0.0
 11
1329.4347402054
 21
-119.0558866319
 31
0.0
  0
LINE
  5
203
100
AcDbEntity
  8
L1_115
  6
CONTINUOUS
 62
         7
100
AcDbLine
 10
1337.2847402054
 20
-119.0558866319
 30
0.0
 11
1340.4247402054
 21
-97.2558866319
 31
0.0
  0
LINE
  5
204
100
AcDbEntity
  8
L1_115
  6
CONTINUOUS
 62
         7
100
AcDbLine
 10
1329.4347402054
 20
-97.2558866319
 30
0.0
 11
1327.8647402054
 21
-119.0558866319
 31
0.0
  0
CIRCLE
  5
205
100
AcDbEntity
  8
L1_115
  6
CONTINUOUS
 62
         7
100
AcDbCircle
 10
1339.6397402054
 20
-97.2558866319
 30
0.0
 40
0.785
  0
CIRCLE
  5
206
100
AcDbEntity
  8
L1_115
  6
CONTINUOUS
 62
         7
100
AcDbCircle
 10
1338.0697402054
 20
-97.2558866319
 30
0.0
 40
0.785
  0
CIRCLE
  5
207
100
AcDbEntity
  8
L1_115
  6
CONTINUOUS
 62
         7
100
AcDbCircle
 10
1336.4997402054
 20
-97.2558866319
 30
0.0
 40
0.785
  0
CIRCLE
  5
208
100
AcDbEntity
  8
L1_115
  6
CONTINUOUS
 62
         7
100
AcDbCircle
 10
1334.9297402054
 20
-97.2558866319
 30
0.0
 40
0.785
  0
CIRCLE
  5
209
100
AcDbEntity
  8
L1_115
  6
CONTINUOUS
 62
         7
100
AcDbCircle
 10
1333.3597402054
 20
-97.2558866319
 30
0.0
 40
0.785
  0
CIRCLE
  5
20A
100
AcDbEntity
  8
L1_115
  6
CONTINUOUS
 62
         7
100
AcDbCircle
 10
1331.7897402054
 20
-97.2558866319
 30
0.0
 40
0.785
  0
CIRCLE
  5
20B
100
AcDbEntity
  8
L1_115
  6
CONTINUOUS
 62
         7
100
AcDbCircle
 10
1330.2197402054
 20
-97.2558866319
 30
0.0
 40
0.785
  0
CIRCLE
  5
20C
100
AcDbEntity
  8
L1_115
  6
CONTINUOUS
 62
         7
100
AcDbCircle
 10
1336.4997402054
 20
-119.0558866319
 30
0.0
 40
0.785
  0
CIRCLE
  5
20D
100
AcDbEntity
  8
L1_115
  6
CONTINUOUS
 62
         7
100
AcDbCircle
 10
1334.9297402054
 20
-119.0558866319
 30
0.0
 40
0.785
  0
CIRCLE
  5
20E
100
AcDbEntity
  8
L1_115
  6
CONTINUOUS
 62
         7
100
AcDbCircle
 10
1333.3597402054
 20
-119.0558866319
 30
0.0
 40
0.785
  0
CIRCLE
  5
20F
100
AcDbEntity
  8
L1_115
  6
CONTINUOUS
 62
         7
100
AcDbCircle
 10
1331.7897402054
 20
-119.0558866319
 30
0.0
 40
0.785
  0
CIRCLE
  5
210
100
AcDbEntity
  8
L1_115
  6
CONTINUOUS
 62
         7
100
AcDbCircle
 10
1330.2197402054
 20
-119.0558866319
 30
0.0
 40
0.785
  0
CIRCLE
  5
211
100
AcDbEntity
  8
L1_115
  6
CONTINUOUS
 62
         7
100
AcDbCircle
 10
1328.6497402054
 20
-119.0558866319
 30
0.0
 40
0.785
  0
LINE
  5
212
100
AcDbEntity
  8
L1_115
  6
CONTINUOUS
 62
         7
100
AcDbLine
 10
1444.396493307
 20
-98.7708866319
 30
0.0
 11
1443.026493307
 21
-117.5408866319
 31
0.0
  0
LINE
  5
213
100
AcDbEntity
  8
L1_115
  6
CONTINUOUS
 62
         7
100
AcDbLine
 10
1444.396493307
 20
-117.5408866319
 30
0.0
 11
1445.766493307
 21
-98.7708866319
 31
0.0
  0
LINE
  5
214
100
AcDbEntity
  8
L1_115
  6
CONTINUOUS
 62
         7
100
AcDbLine
 10
1447.136493307
 20
-98.7708866319
 30
0.0
 11
1445.766493307
 21
-117.5408866319
 31
0.0
  0
LINE
  5
215
100
AcDbEntity
  8
L1_115
  6
CONTINUOUS
 62
         7
100
AcDbLine
 10
1447.136493307
 20
-117.5408866319
 30
0.0
 11
1448.506493307
 21
-98.7708866319
 31
0.0
  0
LINE
  5
216
100
AcDbEntity
  8
L1_115
  6
CONTINUOUS
 62
         7
100
AcDbLine
 10
1449.876493307
 20
-98.7708866319
 30
0.0
 11
1448.506493307
 21
-117.5408866319
 31
0.0
  0
LINE
  5
217
100
AcDbEntity
  8
L1_115
  6
CONTINUOUS
 62
         7
100
AcDbLine
 10
1449.876493307
 20
-117.5408866319
 30
0.0
 11
1451.246493307
 21
-98.7708866319
 31
0.0
  0
LINE
  5
218
100
AcDbEntity
  8
L1_115
  6
CONTINUOUS
 62
         7
100
AcDbLine
 10
1452.616493307
 20
-98.7708866319
 30
0.0
 11
1451.246493307
 21
-117.5408866319
 31
0.0
  0
CIRCLE
  5
219
100
AcDbEntity
  8
L1_115
  6
CONTINUOUS
 62
         7
100
AcDbCircle
 10
1450.561493307
 20
-117.5408866319
 30
0.0
 40
0.685
  0
CIRCLE
  5
21A
100
AcDbEntity
  8
L1_115
  6
CONTINUOUS
 62
         7
100
AcDbCircle
 10
1449.191493307
 20
-117.5408866319
 30
0.0
 40
0.685
  0
CIRCLE
  5
21B
100
AcDbEntity
  8
L1_115
  6
CONTINUOUS
 62
         7
100
AcDbCircle
 10
1447.821493307
 20
-117.5408866319
 30
0.0
 40
0.685
  0
CIRCLE
  5
21C
100
AcDbEntity
  8
L1_115
  6
CONTINUOUS
 62
         7
100
AcDbCircle
 10
1446.451493307
 20
-117.5408866319
 30
0.0
 40
0.685
  0
CIRCLE
  5
21D
100
AcDbEntity
  8
L1_115
  6
CONTINUOUS
 62
         7
100
AcDbCircle
 10
1445.081493307
 20
-117.5408866319
 30
0.0
 40
0.685
  0
CIRCLE
  5
21E
100
AcDbEntity
  8
L1_115
  6
CONTINUOUS
 62
         7
100
AcDbCircle
 10
1443.711493307
 20
-117.5408866319
 30
0.0
 40
0.685
  0
CIRCLE
  5
21F
100
AcDbEntity
  8
L1_115
  6
CONTINUOUS
 62
         7
100
AcDbCircle
 10
1451.931493307
 20
-98.7708866319
 30
0.0
 40
0.685
  0
CIRCLE
  5
220
100
AcDbEntity
  8
L1_115
  6
CONTINUOUS
 62
         7
100
AcDbCircle
 10
1450.561493307
 20
-98.7708866319
 30
0.0
 40
0.685
  0
CIRCLE
  5
221
100
AcDbEntity
  8
L1_115
  6
CONTINUOUS
 62
         7
100
AcDbCircle
 10
1449.191493307
 20
-98.7708866319
 30
0.0
 40
0.685
  0
CIRCLE
  5
222
100
AcDbEntity
  8
L1_115
  6
CONTINUOUS
 62
         7
100
AcDbCircle
 10
1447.821493307
 20
-98.7708866319
 30
0.0
 40
0.685
  0
CIRCLE
  5
223
100
AcDbEntity
  8
L1_115
  6
CONTINUOUS
 62
         7
100
AcDbCircle
 10
1446.451493307
 20
-98.7708866319
 30
0.0
 40
0.685
  0
CIRCLE
  5
224
100
AcDbEntity
  8
L1_115
  6
CONTINUOUS
 62
         7
100
AcDbCircle
 10
1445.081493307
 20
-98.7708866319
 30
0.0
 40
0.685
  0
LINE
  5
225
100
AcDbEntity
  8
L1_115
  6
CONTINUOUS
 62
         7
100
AcDbLine
 10
1398.2099631772
 20
-102.5458866319
 30
0.0
 11
1396.7399631772
 21
-113.7658866319
 31
0.0
  0
LINE
  5
226
100
AcDbEntity
  8
L1_115
  6
CONTINUOUS
 62
         7
100
AcDbLine
 10
1395.2699631772
 20
-113.7658866319
 30
0.0
 11
1396.7399631772
 21
-102.5458866319
 31
0.0
  0
LINE
  5
227
100
AcDbEntity
  8
L1_115
  6
CONTINUOUS
 62
         7
100
AcDbLine
 10
1401.1499631772
 20
-102.5458866319
 30
0.0
 11
1399.6799631772
 21
-113.7658866319
 31
0.0
  0
LINE
  5
228
100
AcDbEntity
  8
L1_115
  6
CONTINUOUS
 62
         7
100
AcDbLine
 10
1398.2099631772
 20
-113.7658866319
 30
0.0
 11
1399.6799631772
 21
-102.5458866319
 31
0.0
  0
LINE
  5
229
100
AcDbEntity
  8
L1_115
  6
CONTINUOUS
 62
         7
100
AcDbLine
 10
1404.0899631772
 20
-102.5458866319
 30
0.0
 11
1402.6199631772
 21
-113.7658866319
 31
0.0
  0
LINE
  5
22A
100
AcDbEntity
  8
L1_115
  6
CONTINUOUS
 62
         7
100
AcDbLine
 10
1401.1499631772
 20
-113.7658866319
 30
0.0
 11
1402.6199631772
 21
-102.5458866319
 31
0.0
  0
LINE
  5
22B
100
AcDbEntity
  8
L1_115
  6
CONTINUOUS
 62
         7
100
AcDbLine
 10
1407.0299631772
 20
-102.5458866319
 30
0.0
 11
1405.5599631772
 21
-113.7658866319
 31
0.0
  0
LINE
  5
22C
100
AcDbEntity
  8
L1_115
  6
CONTINUOUS
 62
         7
100
AcDbLine
 10
1404.0899631772
 20
-113.7658866319
 30
0.0
 11
1405.5599631772
 21
-102.5458866319
 31
0.0
  0
LINE
  5
22D
100
AcDbEntity
  8
L1_115
  6
CONTINUOUS
 62
         7
100
AcDbLine
 10
1409.9699631772
 20
-102.5458866319
 30
0.0
 11
1408.4999631772
 21
-113.7658866319
 31
0.0
  0
LINE
  5
22E
100
AcDbEntity
  8
L1_115
  6
CONTINUOUS
 62
         7
100
AcDbLine
 10
1407.0299631772
 20
-113.7658866319
 30
0.0
 11
1408.4999631772
 21
-102.5458866319
 31
0.0
  0
LINE
  5
22F
100
AcDbEntity
  8
L1_115
  6
CONTINUOUS
 62
         7
100
AcDbLine
 10
1412.9099631772
 20
-102.5458866319
 30
0.0
 11
1411.4399631772
 21
-113.7658866319
 31
0.0
  0
LINE
  5
230
100
AcDbEntity
  8
L1_115
  6
CONTINUOUS
 62
         7
100
AcDbLine
 10
1409.9699631772
 20
-113.7658866319
 30
0.0
 11
1411.4399631772
 21
-102.5458866319
 31
0.0
  0
LINE
  5
231
100
AcDbEntity
  8
L1_115
  6
CONTINUOUS
 62
         7
100
AcDbLine
 10
1415.8499631772
 20
-102.5458866319
 30
0.0
 11
1414.3799631772
 21
-113.7658866319
 31
0.0
  0
LINE
  5
232
100
AcDbEntity
  8
L1_115
  6
CONTINUOUS
 62
         7
100
AcDbLine
 10
1412.9099631772
 20
-113.7658866319
 30
0.0
 11
1414.3799631772
 21
-102.5458866319
 31
0.0
  0
LINE
  5
233
100
AcDbEntity
  8
L1_115
  6
CONTINUOUS
 62
         7
100
AcDbLine
 10
1415.8499631772
 20
-113.7658866319
 30
0.0
 11
1417.3199631772
 21
-102.5458866319
 31
0.0
  0
LINE
  5
234
100
AcDbEntity
  8
L1_115
  6
CONTINUOUS
 62
         7
100
AcDbLine
 10
1418.7899631772
 20
-102.5458866319
 30
0.0
 11
1417.3199631772
 21
-113.7658866319
 31
0.0
  0
CIRCLE
  5
235
100
AcDbEntity
  8
L1_115
  6
CONTINUOUS
 62
         7
100
AcDbCircle
 10
1416.5849631772
 20
-113.7658866319
 30
0.0
 40
0.735
  0
CIRCLE
  5
236
100
AcDbEntity
  8
L1_115
  6
CONTINUOUS
 62
         7
100
AcDbCircle
 10
1415.1149631772
 20
-113.7658866319
 30
0.0
 40
0.735
  0
CIRCLE
  5
237
100
AcDbEntity
  8
L1_115
  6
CONTINUOUS
 62
         7
100
AcDbCircle
 10
1413.6449631772
 20
-113.7658866319
 30
0.0
 40
0.735
  0
CIRCLE
  5
238
100
AcDbEntity
  8
L1_115
  6
CONTINUOUS
 62
         7
100
AcDbCircle
 10
1412.1749631772
 20
-113.7658866319
 30
0.0
 40
0.735
  0
CIRCLE
  5
239
100
AcDbEntity
  8
L1_115
  6
CONTINUOUS
 62
         7
100
AcDbCircle
 10
1410.7049631772
 20
-113.7658866319
 30
0.0
 40
0.735
  0
CIRCLE
  5
23A
100
AcDbEntity
  8
L1_115
  6
CONTINUOUS
 62
         7
100
AcDbCircle
 10
1409.2349631772
 20
-113.7658866319
 30
0.0
 40
0.735
  0
CIRCLE
  5
23B
100
AcDbEntity
  8
L1_115
  6
CONTINUOUS
 62
         7
100
AcDbCircle
 10
1407.7649631772
 20
-113.7658866319
 30
0.0
 40
0.735
  0
CIRCLE
  5
23C
100
AcDbEntity
  8
L1_115
  6
CONTINUOUS
 62
         7
100
AcDbCircle
 10
1406.2949631772
 20
-113.7658866319
 30
0.0
 40
0.735
  0
CIRCLE
  5
23D
100
AcDbEntity
  8
L1_115
  6
CONTINUOUS
 62
         7
100
AcDbCircle
 10
1404.8249631772
 20
-113.7658866319
 30
0.0
 40
0.735
  0
CIRCLE
  5
23E
100
AcDbEntity
  8
L1_115
  6
CONTINUOUS
 62
         7
100
AcDbCircle
 10
1403.3549631772
 20
-113.7658866319
 30
0.0
 40
0.735
  0
CIRCLE
  5
23F
100
AcDbEntity
  8
L1_115
  6
CONTINUOUS
 62
         7
100
AcDbCircle
 10
1401.8849631772
 20
-113.7658866319
 30
0.0
 40
0.735
  0
CIRCLE
  5
240
100
AcDbEntity
  8
L1_115
  6
CONTINUOUS
 62
         7
100
AcDbCircle
 10
1400.4149631772
 20
-113.7658866319
 30
0.0
 40
0.735
  0
CIRCLE
  5
241
100
AcDbEntity
  8
L1_115
  6
CONTINUOUS
 62
         7
100
AcDbCircle
 10
1398.9449631772
 20
-113.7658866319
 30
0.0
 40
0.735
  0
CIRCLE
  5
242
100
AcDbEntity
  8
L1_115
  6
CONTINUOUS
 62
         7
100
AcDbCircle
 10
1397.4749631772
 20
-113.7658866319
 30
0.0
 40
0.735
  0
CIRCLE
  5
243
100
AcDbEntity
  8
L1_115
  6
CONTINUOUS
 62
         7
100
AcDbCircle
 10
1396.0049631772
 20
-113.7658866319
 30
0.0
 40
0.735
  0
CIRCLE
  5
244
100
AcDbEntity
  8
L1_115
  6
CONTINUOUS
 62
         7
100
AcDbCircle
 10
1418.0549631772
 20
-102.5458866319
 30
0.0
 40
0.735
  0
CIRCLE
  5
245
100
AcDbEntity
  8
L1_115
  6
CONTINUOUS
 62
         7
100
AcDbCircle
 10
1416.5849631772
 20
-102.5458866319
 30
0.0
 40
0.735
  0
CIRCLE
  5
246
100
AcDbEntity
  8
L1_115
  6
CONTINUOUS
 62
         7
100
AcDbCircle
 10
1415.1149631772
 20
-102.5458866319
 30
0.0
 40
0.735
  0
CIRCLE
  5
247
100
AcDbEntity
  8
L1_115
  6
CONTINUOUS
 62
         7
100
AcDbCircle
 10
1413.6449631772
 20
-102.5458866319
 30
0.0
 40
0.735
  0
CIRCLE
  5
248
100
AcDbEntity
  8
L1_115
  6
CONTINUOUS
 62
         7
100
AcDbCircle
 10
1412.1749631772
 20
-102.5458866319
 30
0.0
 40
0.735
  0
CIRCLE
  5
249
100
AcDbEntity
  8
L1_115
  6
CONTINUOUS
 62
         7
100
AcDbCircle
 10
1410.7049631772
 20
-102.5458866319
 30
0.0
 40
0.735
  0
CIRCLE
  5
24A
100
AcDbEntity
  8
L1_115
  6
CONTINUOUS
 62
         7
100
AcDbCircle
 10
1409.2349631772
 20
-102.5458866319
 30
0.0
 40
0.735
  0
CIRCLE
  5
24B
100
AcDbEntity
  8
L1_115
  6
CONTINUOUS
 62
         7
100
AcDbCircle
 10
1407.7649631772
 20
-102.5458866319
 30
0.0
 40
0.735
  0
CIRCLE
  5
24C
100
AcDbEntity
  8
L1_115
  6
CONTINUOUS
 62
         7
100
AcDbCircle
 10
1406.2949631772
 20
-102.5458866319
 30
0.0
 40
0.735
  0
CIRCLE
  5
24D
100
AcDbEntity
  8
L1_115
  6
CONTINUOUS
 62
         7
100
AcDbCircle
 10
1404.8249631772
 20
-102.5458866319
 30
0.0
 40
0.735
  0
CIRCLE
  5
24E
100
AcDbEntity
  8
L1_115
  6
CONTINUOUS
 62
         7
100
AcDbCircle
 10
1403.3549631772
 20
-102.5458866319
 30
0.0
 40
0.735
  0
CIRCLE
  5
24F
100
AcDbEntity
  8
L1_115
  6
CONTINUOUS
 62
         7
100
AcDbCircle
 10
1401.8849631772
 20
-102.5458866319
 30
0.0
 40
0.735
  0
CIRCLE
  5
250
100
AcDbEntity
  8
L1_115
  6
CONTINUOUS
 62
         7
100
AcDbCircle
 10
1400.4149631772
 20
-102.5458866319
 30
0.0
 40
0.735
  0
CIRCLE
  5
251
100
AcDbEntity
  8
L1_115
  6
CONTINUOUS
 62
         7
100
AcDbCircle
 10
1398.9449631772
 20
-102.5458866319
 30
0.0
 40
0.735
  0
CIRCLE
  5
252
100
AcDbEntity
  8
L1_115
  6
CONTINUOUS
 62
         7
100
AcDbCircle
 10
1397.4749631772
 20
-102.5458866319
 30
0.0
 40
0.735
  0
DIMENSION
  5
255
100
AcDbEntity
  8
L1_115
  6
CONTINUOUS
 62
         4
100
AcDbDimension
  2
*D9
 10
1308.7727253021
 20
-101.6558866319
 30
0.0
 11
1306.7477253021
 21
-113.5558866319
 31
0.0
  3
DIMSTYLE1
100
AcDbAlignedDimension
 13
1300.9499795139
 23
-101.6558866319
 33
0.0
 14
1300.9499795139
 24
-114.6558866319
 34
0.0
 50
90.0
100
AcDbRotatedDimension
  0
DIMENSION
  5
263
100
AcDbEntity
  8
L1_115
  6
CONTINUOUS
 62
         4
100
AcDbDimension
  2
*D10
 10
1239.6999795139
 20
-90.2101974292
 30
0.0
 11
1240.6922924064
 21
-88.1851974292
 31
0.0
  3
DIMSTYLE1
100
AcDbAlignedDimension
 13
1239.6999795139
 23
-105.6558866319
 33
0.0
 14
1250.9499795139
 24
-105.1558866319
 34
0.0
100
AcDbRotatedDimension
  0
DIMENSION
  5
271
100
AcDbEntity
  8
L1_115
  6
CONTINUOUS
 62
         4
100
AcDbDimension
  2
*D11
 10
1239.6999795139
 20
-81.0850648942
 30
0.0
 11
1265.6512460555
 21
-79.0600648942
 31
0.0
  3
DIMSTYLE1
100
AcDbAlignedDimension
 13
1239.6999795139
 23
-105.6558866319
 33
0.0
 14
1301.4499795139
 24
-102.1558866319
 34
0.0
100
AcDbRotatedDimension
  0
LINE
  5
27D
100
AcDbEntity
  8
L1_115
  6
CONTINUOUS
 62
         4
100
AcDbLine
 10
1250.9499795139
 20
-110.6558866319
 30
0.0
 11
1239.6999795139
 21
-110.6558866319
 31
0.0
  0
LINE
  5
27E
100
AcDbEntity
  8
L1_115
  6
CONTINUOUS
 62
         4
100
AcDbLine
 10
1250.9499795139
 20
-105.6558866319
 30
0.0
 11
1239.6999795139
 21
-105.6558866319
 31
0.0
  0
LINE
  5
27F
100
AcDbEntity
  8
L1_115
  6
CONTINUOUS
 62
         7
100
AcDbLine
 10
1250.9499795139
 20
-111.1558866319
 30
0.0
 11
1240.1999795139
 21
-111.1558866319
 31
0.0
  0
LINE
  5
280
100
AcDbEntity
  8
L1_115
  6
CONTINUOUS
 62
         7
100
AcDbLine
 10
1240.1999795139
 20
-111.1558866319
 30
0.0
 11
1239.6999795139
 21
-110.6558866319
 31
0.0
  0
LINE
  5
281
100
AcDbEntity
  8
L1_115
  6
CONTINUOUS
 62
         7
100
AcDbLine
 10
1239.6999795139
 20
-110.6558866319
 30
0.0
 11
1239.6999795139
 21
-105.6558866319
 31
0.0
  0
LINE
  5
282
100
AcDbEntity
  8
L1_115
  6
CONTINUOUS
 62
         7
100
AcDbLine
 10
1240.1999795139
 20
-105.1558866319
 30
0.0
 11
1239.6999795139
 21
-105.6558866319
 31
0.0
  0
LINE
  5
283
100
AcDbEntity
  8
L1_115
  6
CONTINUOUS
 62
         7
100
AcDbLine
 10
1250.9499795139
 20
-105.1558866319
 30
0.0
 11
1240.1999795139
 21
-105.1558866319
 31
0.0
  0
LINE
  5
284
100
AcDbEntity
  8
L1_115
  6
CONTINUOUS
 62
         4
100
AcDbLine
 10
1251.9254795139
 20
-104.1803866319
 30
0.0
 11
1251.9254795139
 21
-112.1313866319
 31
0.0
  0
LINE
  5
285
100
AcDbEntity
  8
L1_115
  6
CONTINUOUS
 62
         7
100
AcDbLine
 10
1250.9499795139
 20
-111.1558866319
 30
0.0
 11
1250.9499795139
 21
-105.1558866319
 31
0.0
  0
LINE
  5
286
100
AcDbEntity
  8
L1_115
  6
CONTINUOUS
 62
         7
100
AcDbLine
 10
1295.9499795139
 20
-112.1313866319
 30
0.0
 11
1251.9254795139
 21
-112.1313866319
 31
0.0
  0
LINE
  5
287
100
AcDbEntity
  8
L1_115
  6
CONTINUOUS
 62
         7
100
AcDbLine
 10
1251.9254795139
 20
-112.1313866319
 30
0.0
 11
1250.9499795139
 21
-111.1558866319
 31
0.0
  0
LINE
  5
288
100
AcDbEntity
  8
L1_115
  6
CONTINUOUS
 62
         7
100
AcDbLine
 10
1251.9254795139
 20
-104.1803866319
 30
0.0
 11
1250.9499795139
 21
-105.1558866319
 31
0.0
  0
LINE
  5
289
100
AcDbEntity
  8
L1_115
  6
CONTINUOUS
 62
         7
100
AcDbLine
 10
1295.9499795139
 20
-104.1803866319
 30
0.0
 11
1251.9254795139
 21
-104.1803866319
 31
0.0
  0
LINE
  5
28A
100
AcDbEntity
  8
L1_115
  6
CONTINUOUS
 62
         7
100
AcDbLine
 10
1301.4499795139
 20
-102.1558866319
 30
0.0
 11
1300.9499795139
 21
-101.6558866319
 31
0.0
  0
LINE
  5
28B
100
AcDbEntity
  8
L1_115
  6
CONTINUOUS
 62
         7
100
AcDbLine
 10
1300.9499795139
 20
-101.6558866319
 30
0.0
 11
1296.4499795139
 21
-101.6558866319
 31
0.0
  0
LINE
  5
28C
100
AcDbEntity
  8
L1_115
  6
CONTINUOUS
 62
         7
100
AcDbLine
 10
1301.4499795139
 20
-114.1558866319
 30
0.0
 11
1301.4499795139
 21
-102.1558866319
 31
0.0
  0
LINE
  5
28D
100
AcDbEntity
  8
L1_115
  6
CONTINUOUS
 62
         7
100
AcDbLine
 10
1301.4499795139
 20
-114.1558866319
 30
0.0
 11
1300.9499795139
 21
-114.6558866319
 31
0.0
  0
LINE
  5
28E
100
AcDbEntity
  8
L1_115
  6
CONTINUOUS
 62
         7
100
AcDbLine
 10
1300.9499795139
 20
-114.6558866319
 30
0.0
 11
1296.4499795139
 21
-114.6558866319
 31
0.0
  0
LINE
  5
28F
100
AcDbEntity
  8
L1_115
  6
CONTINUOUS
 62
         7
100
AcDbLine
 10
1295.9499795139
 20
-114.1558866319
 30
0.0
 11
1296.4499795139
 21
-114.6558866319
 31
0.0
  0
LINE
  5
290
100
AcDbEntity
  8
L1_115
  6
CONTINUOUS
 62
         7
100
AcDbLine
 10
1295.9499795139
 20
-114.1558866319
 30
0.0
 11
1295.9499795139
 21
-102.1558866319
 31
0.0
  0
LINE
  5
291
100
AcDbEntity
  8
L1_115
  6
CONTINUOUS
 62
         7
100
AcDbLine
 10
1296.4499795139
 20
-101.6558866319
 30
0.0
 11
1295.9499795139
 21
-102.1558866319
 31
0.0
  0
LINE
  5
292
100
AcDbEntity
  8
L1_115
  6
CONTINUOUS
 62
         4
100
AcDbLine
 10
1296.4499795139
 20
-101.6558866319
 30
0.0
 11
1296.4499795139
 21
-114.6558866319
 31
0.0
  0
LINE
  5
293
100
AcDbEntity
  8
L1_115
  6
CONTINUOUS
 62
         4
100
AcDbLine
 10
1300.9499795139
 20
-101.6558866319
 30
0.0
 11
1300.9499795139
 21
-114.6558866319
 31
0.0
  0
LINE
  5
294
100
AcDbEntity
  8
L1_115
  6
DASHED
 62
         2
100
AcDbLine
 10
1301.4499795139
 20
-105.1558866319
 30
0.0
 11
1298.4499795139
 21
-105.1558866319
 31
0.0
  0
LINE
  5
295
100
AcDbEntity
  8
L1_115
  6
DASHED
 62
         2
100
AcDbLine
 10
1301.4499795139
 20
-111.1558866319
 30
0.0
 11
1298.4499795139
 21
-111.1558866319
 31
0.0
  0
LINE
  5
296
100
AcDbEntity
  8
L1_115
  6
DASHED
 62
         2
100
AcDbLine
 10
1298.4499795139
 20
-111.1558866319
 30
0.0
 11
1298.4499795139
 21
-105.1558866319
 31
0.0
  0
LINE
  5
297
100
AcDbEntity
  8
L1_115
  6
DASHED
 62
         2
100
AcDbLine
 10
1301.4499795139
 20
-106.1558866319
 30
0.0
 11
1298.4499795139
 21
-106.1558866319
 31
0.0
  0
LINE
  5
298
100
AcDbEntity
  8
L1_115
  6
DASHED
 62
         2
100
AcDbLine
 10
1301.4499795139
 20
-110.1558866319
 30
0.0
 11
1298.4499795139
 21
-110.1558866319
 31
0.0
  0
DIMENSION
  5
29B
100
AcDbEntity
  8
L1_115
  6
CONTINUOUS
 62
         4
100
AcDbDimension
  2
*D12
 10
1238.8522448222
 20
-105.1558866319
 30
0.0
 11
1236.8272448222
 21
-114.9058866319
 31
0.0
  3
DIMSTYLE1
100
AcDbAlignedDimension
 13
1240.1999795139
 23
-105.1558866319
 33
0.0
 14
1240.1999795139
 24
-111.1558866319
 34
0.0
 50
90.0
100
AcDbRotatedDimension
  0
LINE
  5
2A7
100
AcDbEntity
  8
L1_115
  6
CENTER
 62
         1
100
AcDbLine
 10
1466.4062114182
 20
-108.1558866319
 30
0.0
 11
1214.3155926054
 21
-108.1558866319
 31
0.0
  0
DIMENSION
  5
2AA
100
AcDbEntity
  8
L1_115
  6
CONTINUOUS
 62
         4
100
AcDbDimension
  2
*D13
 10
1775.2559147704
 20
-48.1496167018
 30
0.0
 11
1778.2621635241
 21
-44.4241341425
 31
0.0
 70
         4
  3
DIMSTYLE1
100
AcDbRadialDimension
 15
1779.1368499685
 25
-45.3892275558
 35
0.0
 40
0.0
  0
DIMENSION
  5
2B5
100
AcDbEntity
  8
L1_115
  6
CONTINUOUS
 62
         4
100
AcDbDimension
  2
*D14
 10
1750.1963947825
 20
-48.1496167018
 30
0.0
 11
1754.5840734205
 21
-39.0807160593
 31
0.0
 70
         4
  3
DIMSTYLE1
100
AcDbRadialDimension
 15
1751.9420001169
 25
-45.49754449
 35
0.0
 40
0.0
  0
CIRCLE
  5
2BE
100
AcDbEntity
  8
L1_115
  6
CONTINUOUS
 62
         7
100
AcDbCircle
 10
1775.2559147704
 20
-48.1496167018
 30
0.0
 40
4.7625
  0
CIRCLE
  5
2BF
100
AcDbEntity
  8
L1_115
  6
CONTINUOUS
 62
         7
100
AcDbCircle
 10
1750.1963947825
 20
-48.1496167018
 30
0.0
 40
3.175
  0
LINE
  5
2C0
100
AcDbEntity
  8
L1_115
  6
CENTER
 62
         1
100
AcDbLine
 10
1775.2559147704
 20
-56.3749849484
 30
0.0
 11
1775.2559147704
 21
-37.5944342083
 31
0.0
  0
LINE
  5
2C1
100
AcDbEntity
  8
L1_115
  6
CENTER
 62
         1
100
AcDbLine
 10
1750.1963947825
 20
-56.3749849484
 30
0.0
 11
1750.1963947825
 21
-37.5944342083
 31
0.0
  0
DIMENSION
  5
2C4
100
AcDbEntity
  8
L1_115
  6
CONTINUOUS
 62
         4
100
AcDbDimension
  2
*D15
 10
1663.9447649495
 20
-29.7543152804
 30
0.0
 11
1660.4947649495
 21
-27.7293152804
 31
0.0
  3
DIMSTYLE1
100
AcDbAlignedDimension
 13
1663.9447649495
 23
-35.1996167018
 33
0.0
 14
1665.1447649495
 24
-35.1996167018
 34
0.0
100
AcDbRotatedDimension
  0
DIMENSION
  5
2D2
100
AcDbEntity
  8
L1_115
  6
CONTINUOUS
 62
         4
100
AcDbDimension
  2
*D16
 10
1672.6268087994
 20
-35.1996167018
 30
0.0
 11
1670.6018087994
 21
-53.5496167018
 31
0.0
  3
DIMSTYLE1
100
AcDbAlignedDimension
 13
1665.1447649495
 23
-35.1996167018
 33
0.0
 14
1665.1447649495
 24
-61.0996167018
 34
0.0
 50
90.0
100
AcDbRotatedDimension
  0
DIMENSION
  5
2E0
100
AcDbEntity
  8
L1_115
  6
CONTINUOUS
 62
         4
100
AcDbDimension
  2
*D17
 10
1642.9837624586
 20
-18.1496167018
 30
0.0
 11
1640.9587624586
 21
-53.5496167018
 31
0.0
  3
DIMSTYLE1
100
AcDbAlignedDimension
 13
1630.4302286188
 23
-18.1496167018
 33
0.0
 14
1630.4302286188
 24
-78.1496167018
 34
0.0
 50
90.0
100
AcDbRotatedDimension
  0
LINE
  5
2EC
100
AcDbEntity
  8
L1_115
  6
CONTINUOUS
 62
         7
100
AcDbLine
 10
1629.4302286188
 20
-77.1496167018
 30
0.0
 11
1629.4302286188
 21
-19.1496167018
 31
0.0
  0
LINE
  5
2ED
100
AcDbEntity
  8
L1_115
  6
CONTINUOUS
 62
         7
100
AcDbLine
 10
1631.4302286188
 20
-19.1496167018
 30
0.0
 11
1631.4302286188
 21
-77.1496167018
 31
0.0
  0
CIRCLE
  5
2EE
100
AcDbEntity
  8
L1_115
  6
CONTINUOUS
 62
         7
100
AcDbCircle
 10
1630.4302286188
 20
-77.1496167018
 30
0.0
 40
1.0
  0
CIRCLE
  5
2EF
100
AcDbEntity
  8
L1_115
  6
CONTINUOUS
 62
         7
100
AcDbCircle
 10
1630.4302286188
 20
-19.1496167018
 30
0.0
 40
1.0
  0
LINE
  5
2F0
100
AcDbEntity
  8
L1_115
  6
CONTINUOUS
 62
         7
100
AcDbLine
 10
1665.1447649495
 20
-58.5996167018
 30
0.0
 11
1663.9447649495
 21
-58.5996167018
 31
0.0
  0
LINE
  5
2F1
100
AcDbEntity
  8
L1_115
  6
CONTINUOUS
 62
         7
100
AcDbLine
 10
1665.1447649495
 20
-37.6996167018
 30
0.0
 11
1663.9447649495
 21
-37.6996167018
 31
0.0
  0
LINE
  5
2F2
100
AcDbEntity
  8
L1_115
  6
CONTINUOUS
 62
         7
100
AcDbLine
 10
1665.1447649495
 20
-61.0996167018
 30
0.0
 11
1663.9447649495
 21
-61.0996167018
 31
0.0
  0
LINE
  5
2F3
100
AcDbEntity
  8
L1_115
  6
CONTINUOUS
 62
         7
100
AcDbLine
 10
1665.1447649495
 20
-35.1996167018
 30
0.0
 11
1663.9447649495
 21
-35.1996167018
 31
0.0
  0
LINE
  5
2F4
100
AcDbEntity
  8
L1_115
  6
CONTINUOUS
 62
         7
100
AcDbLine
 10
1663.9447649495
 20
-61.0996167018
 30
0.0
 11
1663.9447649495
 21
-35.1996167018
 31
0.0
  0
LINE
  5
2F5
100
AcDbEntity
  8
L1_115
  6
CONTINUOUS
 62
         7
100
AcDbLine
 10
1665.1447649495
 20
-61.0996167018
 30
0.0
 11
1665.1447649495
 21
-35.1996167018
 31
0.0
  0
CIRCLE
  5
2F6
100
AcDbEntity
  8
L1_115
  6
CONTINUOUS
 62
         7
100
AcDbCircle
 10
1719.9719282009
 20
-28.1496167018
 30
0.0
 40
0.75
  0
LINE
  5
2F7
100
AcDbEntity
  8
L1_115
  6
CONTINUOUS
 62
         7
100
AcDbLine
 10
1719.2219282009
 20
-68.1496167018
 30
0.0
 11
1719.2219282009
 21
-28.1496167018
 31
0.0
  0
LINE
  5
2F8
100
AcDbEntity
  8
L1_115
  6
CONTINUOUS
 62
         7
100
AcDbLine
 10
1720.7219282009
 20
-28.1496167018
 30
0.0
 11
1720.7219282009
 21
-68.1496167018
 31
0.0
  0
CIRCLE
  5
2F9
100
AcDbEntity
  8
L1_115
  6
CONTINUOUS
 62
         7
100
AcDbCircle
 10
1719.9719282009
 20
-68.1496167018
 30
0.0
 40
0.75
  0
CIRCLE
  5
2FA
100
AcDbEntity
  8
L1_115
  6
CONTINUOUS
 62
         7
100
AcDbCircle
 10
1694.9306690737
 20
-32.6496167018
 30
0.0
 40
0.75
  0
LINE
  5
2FB
100
AcDbEntity
  8
L1_115
  6
CONTINUOUS
 62
         7
100
AcDbLine
 10
1695.6806690737
 20
-63.6496167018
 30
0.0
 11
1695.6806690737
 21
-32.6496167018
 31
0.0
  0
LINE
  5
2FC
100
AcDbEntity
  8
L1_115
  6
CONTINUOUS
 62
         7
100
AcDbLine
 10
1694.1806690737
 20
-32.6496167018
 30
0.0
 11
1694.1806690737
 21
-63.6496167018
 31
0.0
  0
CIRCLE
  5
2FD
100
AcDbEntity
  8
L1_115
  6
CONTINUOUS
 62
         7
100
AcDbCircle
 10
1694.9306690737
 20
-63.6496167018
 30
0.0
 40
0.75
  0
DIMENSION
  5
300
100
AcDbEntity
  8
L1_115
  6
CONTINUOUS
 62
         4
100
AcDbDimension
  2
*D18
 10
1705.5592756886
 20
-31.8996167018
 30
0.0
 11
1703.5342756886
 21
-56.2496167018
 31
0.0
  3
DIMSTYLE1
100
AcDbAlignedDimension
 13
1694.9306690737
 23
-31.8996167018
 33
0.0
 14
1694.9306690737
 24
-64.3996167018
 34
0.0
 50
90.0
100
AcDbRotatedDimension
  0
DIMENSION
  5
30E
100
AcDbEntity
  8
L1_115
  6
CONTINUOUS
 62
         4
100
AcDbDimension
  2
*D19
 10
1730.1509400868
 20
-27.3996167018
 30
0.0
 11
1728.1259400868
 21
-56.2496167018
 31
0.0
  3
DIMSTYLE1
100
AcDbAlignedDimension
 13
1719.9719282009
 23
-27.3996167018
 33
0.0
 14
1719.9719282009
 24
-68.8996167018
 34
0.0
 50
90.0
100
AcDbRotatedDimension
  0
LINE
  5
31A
100
AcDbEntity
  8
L1_115
  6
CENTER
 62
         1
100
AcDbLine
 10
1789.9027129254
 20
-48.1496167018
 30
0.0
 11
1614.5707244472
 21
-48.1496167018
 31
0.0
  0
LINE
  5
31B
100
AcDbEntity
  8
L1_115
  6
CONTINUOUS
 62
         4
100
AcDbLine
 10
1798.7089385605
 20
59.9817653397
 30
0.0
 11
1798.7089385605
 21
48.2317653397
 31
0.0
  0
LINE
  5
31C
100
AcDbEntity
  8
L1_115
  6
CONTINUOUS
 62
         4
100
AcDbLine
 10
1798.7089385605
 20
76.4817653397
 30
0.0
 11
1798.7089385605
 21
88.2317653397
 31
0.0
  0
LINE
  5
31D
100
AcDbEntity
  8
L1_115
  6
CONTINUOUS
 62
         4
100
AcDbLine
 10
1743.9589385605
 20
44.2317653397
 30
0.0
 11
1743.9589385605
 21
92.2317653397
 31
0.0
  0
LINE
  5
31E
100
AcDbEntity
  8
L1_115
  6
CONTINUOUS
 62
         4
100
AcDbLine
 10
1719.10129975
 20
92.2317653397
 30
0.0
 11
1719.10129975
 21
44.2317653397
 31
0.0
  0
LINE
  5
31F
100
AcDbEntity
  8
L1_115
  6
CONTINUOUS
 62
         4
100
AcDbLine
 10
1698.0989385605
 20
52.7317653397
 30
0.0
 11
1698.0989385605
 21
83.7317653397
 31
0.0
  0
LINE
  5
320
100
AcDbEntity
  8
L1_115
  6
CONTINUOUS
 62
         4
100
AcDbLine
 10
1668.3589385605
 20
78.4817653397
 30
0.0
 11
1668.3589385605
 21
57.9817653397
 31
0.0
  0
LINE
  5
321
100
AcDbEntity
  8
L1_115
  6
CONTINUOUS
 62
         4
100
AcDbLine
 10
1687.2589385605
 20
56.2317653397
 30
0.0
 11
1687.2589385605
 21
80.2317653397
 31
0.0
  0
LINE
  5
322
100
AcDbEntity
  8
L1_115
  6
CONTINUOUS
 62
         4
100
AcDbLine
 10
1656.5149639642
 20
36.7317653397
 30
0.0
 11
1656.5149639642
 21
99.7317653397
 31
0.0
  0
LINE
  5
323
100
AcDbEntity
  8
L1_115
  6
CONTINUOUS
 62
         7
100
AcDbLine
 10
1667.8589385605
 20
77.9817653397
 30
0.0
 11
1668.3589385605
 21
78.4817653397
 31
0.0
  0
LINE
  5
324
100
AcDbEntity
  8
L1_115
  6
CONTINUOUS
 62
         7
100
AcDbLine
 10
1667.8589385605
 20
58.4817653397
 30
0.0
 11
1668.3589385605
 21
57.9817653397
 31
0.0
  0
LINE
  5
325
100
AcDbEntity
  8
L1_115
  6
CONTINUOUS
 62
         7
100
AcDbLine
 10
1799.2089385605
 20
76.9817653397
 30
0.0
 11
1799.2089385605
 21
87.7317653397
 31
0.0
  0
LINE
  5
326
100
AcDbEntity
  8
L1_115
  6
CONTINUOUS
 62
         7
100
AcDbLine
 10
1799.2089385605
 20
48.7317653397
 30
0.0
 11
1799.2089385605
 21
59.4817653397
 31
0.0
  0
LINE
  5
327
100
AcDbEntity
  8
L1_115
  6
CONTINUOUS
 62
         7
100
AcDbLine
 10
1799.2089385605
 20
76.9817653397
 30
0.0
 11
1798.7089385605
 21
76.4817653397
 31
0.0
  0
LINE
  5
328
100
AcDbEntity
  8
L1_115
  6
CONTINUOUS
 62
         7
100
AcDbLine
 10
1799.2089385605
 20
59.4817653397
 30
0.0
 11
1798.7089385605
 21
59.9817653397
 31
0.0
  0
LINE
  5
329
100
AcDbEntity
  8
L1_115
  6
CONTINUOUS
 62
         7
100
AcDbLine
 10
1798.7089385605
 20
59.9817653397
 30
0.0
 11
1793.2089385605
 21
59.9817653397
 31
0.0
  0
ARC
  5
32A
100
AcDbEntity
  8
L1_115
  6
CONTINUOUS
 62
         7
100
AcDbCircle
 10
1793.2089385605
 20
60.4817653397
 30
0.0
 40
0.5
100
AcDbArc
 50
180.0
 51
270.0
  0
LINE
  5
32B
100
AcDbEntity
  8
L1_115
  6
CONTINUOUS
 62
         7
100
AcDbLine
 10
1798.7089385605
 20
76.4817653397
 30
0.0
 11
1793.2089385605
 21
76.4817653397
 31
0.0
  0
LINE
  5
32C
100
AcDbEntity
  8
L1_115
  6
CONTINUOUS
 62
         7
100
AcDbLine
 10
1792.7089385605
 20
60.4817653397
 30
0.0
 11
1792.7089385605
 21
75.9817653397
 31
0.0
  0
ARC
  5
32D
100
AcDbEntity
  8
L1_115
  6
CONTINUOUS
 62
         7
100
AcDbCircle
 10
1793.2089385605
 20
75.9817653397
 30
0.0
 40
0.5
100
AcDbArc
 50
90.0
 51
180.0
  0
ARC
  5
32E
100
AcDbEntity
  8
L1_115
  6
CONTINUOUS
 62
         7
100
AcDbCircle
 10
1737.6900700283
 20
68.2317653397
 30
0.0
 40
4.755
100
AcDbArc
 50
270.0
 51
450.0
  0
ARC
  5
32F
100
AcDbEntity
  8
L1_115
  6
CONTINUOUS
 62
         7
100
AcDbCircle
 10
1725.3829504232
 20
68.2317653365
 30
0.0
 40
4.755
100
AcDbArc
 50
90.0
 51
270.0
  0
LINE
  5
330
100
AcDbEntity
  8
L1_115
  6
CONTINUOUS
 62
         7
100
AcDbLine
 10
1737.6900700283
 20
63.4767653397
 30
0.0
 11
1725.3829504232
 21
63.4767653365
 31
0.0
  0
LINE
  5
331
100
AcDbEntity
  8
L1_115
  6
CONTINUOUS
 62
         7
100
AcDbLine
 10
1737.6900700283
 20
72.9867653397
 30
0.0
 11
1725.3829504232
 21
72.9867653365
 31
0.0
  0
LINE
  5
332
100
AcDbEntity
  8
L1_115
  6
CENTER
 62
         1
100
AcDbLine
 10
1759.7589385605
 20
51.8244371279
 30
0.0
 11
1759.7589385605
 21
49.9980774
 31
0.0
  0
POLYLINE
  5
334
100
AcDbEntity
  8
L1_115
  6
CONTINUOUS
 62
         7
100
AcDb2dPolyline
 66
         1
 10
0.0
 20
0.0
 30
0.0
 70
         2
  0
VERTEX
  5
336
100
AcDbEntity
  8
L1_115
  6
CONTINUOUS
 62
         7
100
AcDbVertex
100
AcDb2dVertex
 10
1757.7589385605
 20
50.911257264
 30
0.0
 70
         1
  0
VERTEX
  5
338
100
AcDbEntity
  8
L1_115
  6
CONTINUOUS
 62
         7
100
AcDbVertex
100
AcDb2dVertex
 10
1757.80371802
 20
50.7191025217
 30
0.0
 70
         1
  0
VERTEX
  5
33A
100
AcDbEntity
  8
L1_115
  6
CONTINUOUS
 62
         7
100
AcDbVertex
100
AcDb2dVertex
 10
1757.8530120073
 20
50.6344854274
 30
0.0
 70
         1
  0
VERTEX
  5
33C
100
AcDbEntity
  8
L1_115
  6
CONTINUOUS
 62
         7
100
AcDbVertex
100
AcDb2dVertex
 10
1757.9219758214
 20
50.5501272731
 30
0.0
 70
         1
  0
VERTEX
  5
33E
100
AcDbEntity
  8
L1_115
  6
CONTINUOUS
 62
         7
100
AcDbVertex
100
AcDb2dVertex
 10
1758.0109801649
 20
50.4674853329
 30
0.0
 70
         1
  0
VERTEX
  5
340
100
AcDbEntity
  8
L1_115
  6
CONTINUOUS
 62
         7
100
AcDbVertex
100
AcDb2dVertex
 10
1758.1197081303
 20
50.3880833785
 30
0.0
 70
         1
  0
VERTEX
  5
342
100
AcDbEntity
  8
L1_115
  6
CONTINUOUS
 62
         7
100
AcDbVertex
100
AcDb2dVertex
 10
1758.2471081245
 20
50.3134262388
 30
0.0
 70
         1
  0
VERTEX
  5
344
100
AcDbEntity
  8
L1_115
  6
CONTINUOUS
 62
         7
100
AcDbVertex
100
AcDb2dVertex
 10
1758.3914087307
 20
50.2449077578
 30
0.0
 70
         1
  0
VERTEX
  5
346
100
AcDbEntity
  8
L1_115
  6
CONTINUOUS
 62
         7
100
AcDbVertex
100
AcDb2dVertex
 10
1758.5501993293
 20
50.183723154
 30
0.0
 70
         1
  0
VERTEX
  5
348
100
AcDbEntity
  8
L1_115
  6
CONTINUOUS
 62
         7
100
AcDbVertex
100
AcDb2dVertex
 10
1758.7811267194
 20
50.114657121
 30
0.0
 70
         1
  0
VERTEX
  5
34A
100
AcDbEntity
  8
L1_115
  6
CONTINUOUS
 62
         7
100
AcDbVertex
100
AcDb2dVertex
 10
1759.0250501151
 20
50.0617781377
 30
0.0
 70
         1
  0
VERTEX
  5
34C
100
AcDbEntity
  8
L1_115
  6
CONTINUOUS
 62
         7
100
AcDbVertex
100
AcDb2dVertex
 10
1759.2739509352
 20
50.025333123
 30
0.0
 70
         1
  0
VERTEX
  5
34E
100
AcDbEntity
  8
L1_115
  6
CONTINUOUS
 62
         7
100
AcDbVertex
100
AcDb2dVertex
 10
1759.6041416517
 20
50.0008167202
 30
0.0
 70
         1
  0
VERTEX
  5
350
100
AcDbEntity
  8
L1_115
  6
CONTINUOUS
 62
         7
100
AcDbVertex
100
AcDb2dVertex
 10
1759.9156469435
 20
50.0008848945
 30
0.0
 70
         1
  0
VERTEX
  5
352
100
AcDbEntity
  8
L1_115
  6
CONTINUOUS
 62
         7
100
AcDbVertex
100
AcDb2dVertex
 10
1760.1989838491
 20
50.0204550875
 30
0.0
 70
         1
  0
VERTEX
  5
354
100
AcDbEntity
  8
L1_115
  6
CONTINUOUS
 62
         7
100
AcDbVertex
100
AcDb2dVertex
 10
1760.4494290602
 20
50.0542265446
 30
0.0
 70
         1
  0
VERTEX
  5
356
100
AcDbEntity
  8
L1_115
  6
CONTINUOUS
 62
         7
100
AcDbVertex
100
AcDb2dVertex
 10
1760.7343326336
 20
50.1140394225
 30
0.0
 70
         1
  0
VERTEX
  5
358
100
AcDbEntity
  8
L1_115
  6
CONTINUOUS
 62
         7
100
AcDbVertex
100
AcDb2dVertex
 10
1760.9620833503
 20
50.1817924905
 30
0.0
 70
         1
  0
VERTEX
  5
35A
100
AcDbEntity
  8
L1_115
  6
CONTINUOUS
 62
         7
100
AcDbVertex
100
AcDb2dVertex
 10
1761.1408898652
 20
50.2511396019
 30
0.0
 70
         1
  0
VERTEX
  5
35C
100
AcDbEntity
  8
L1_115
  6
CONTINUOUS
 62
         7
100
AcDbVertex
100
AcDb2dVertex
 10
1761.2797812763
 20
50.3182108414
 30
0.0
 70
         1
  0
VERTEX
  5
35E
100
AcDbEntity
  8
L1_115
  6
CONTINUOUS
 62
         7
100
AcDbVertex
100
AcDb2dVertex
 10
1761.4192001056
 20
50.4020967174
 30
0.0
 70
         1
  0
VERTEX
  5
360
100
AcDbEntity
  8
L1_115
  6
CONTINUOUS
 62
         7
100
AcDbVertex
100
AcDb2dVertex
 10
1761.5170937445
 20
50.4759638695
 30
0.0
 70
         1
  0
VERTEX
  5
362
100
AcDbEntity
  8
L1_115
  6
CONTINUOUS
 62
         7
100
AcDbVertex
100
AcDb2dVertex
 10
1761.6058020573
 20
50.5608128985
 30
0.0
 70
         1
  0
VERTEX
  5
364
100
AcDbEntity
  8
L1_115
  6
CONTINUOUS
 62
         7
100
AcDbVertex
100
AcDb2dVertex
 10
1761.6762433611
 20
50.6513848608
 30
0.0
 70
         1
  0
VERTEX
  5
366
100
AcDbEntity
  8
L1_115
  6
CONTINUOUS
 62
         7
100
AcDbVertex
100
AcDb2dVertex
 10
1761.7231939333
 20
50.7393823363
 30
0.0
 70
         1
  0
VERTEX
  5
368
100
AcDbEntity
  8
L1_115
  6
CONTINUOUS
 62
         7
100
AcDbVertex
100
AcDb2dVertex
 10
1761.7527271108
 20
50.8393429487
 30
0.0
 70
         1
  0
VERTEX
  5
36A
100
AcDbEntity
  8
L1_115
  6
CONTINUOUS
 62
         7
100
AcDbVertex
100
AcDb2dVertex
 10
1761.7589385605
 20
50.911257264
 30
0.0
 70
         1
  0
VERTEX
  5
36C
100
AcDbEntity
  8
L1_115
  6
CONTINUOUS
 62
         7
100
AcDbVertex
100
AcDb2dVertex
 10
1761.7589385605
 20
50.911257264
 30
0.0
 70
         1
  0
VERTEX
  5
36E
100
AcDbEntity
  8
L1_115
  6
CONTINUOUS
 62
         7
100
AcDbVertex
100
AcDb2dVertex
 10
1761.7141591009
 20
51.1034120062
 30
0.0
 70
         1
  0
VERTEX
  5
370
100
AcDbEntity
  8
L1_115
  6
CONTINUOUS
 62
         7
100
AcDbVertex
100
AcDb2dVertex
 10
1761.6648651136
 20
51.1880291005
 30
0.0
 70
         1
  0
VERTEX
  5
372
100
AcDbEntity
  8
L1_115
  6
CONTINUOUS
 62
         7
100
AcDbVertex
100
AcDb2dVertex
 10
1761.5959012995
 20
51.2723872549
 30
0.0
 70
         1
  0
VERTEX
  5
374
100
AcDbEntity
  8
L1_115
  6
CONTINUOUS
 62
         7
100
AcDbVertex
100
AcDb2dVertex
 10
1761.506896956
 20
51.3550291951
 30
0.0
 70
         1
  0
VERTEX
  5
376
100
AcDbEntity
  8
L1_115
  6
CONTINUOUS
 62
         7
100
AcDbVertex
100
AcDb2dVertex
 10
1761.3981689906
 20
51.4344311494
 30
0.0
 70
         1
  0
VERTEX
  5
378
100
AcDbEntity
  8
L1_115
  6
CONTINUOUS
 62
         7
100
AcDbVertex
100
AcDb2dVertex
 10
1761.2707689964
 20
51.5090882891
 30
0.0
 70
         1
  0
VERTEX
  5
37A
100
AcDbEntity
  8
L1_115
  6
CONTINUOUS
 62
         7
100
AcDbVertex
100
AcDb2dVertex
 10
1761.1264683902
 20
51.5776067701
 30
0.0
 70
         1
  0
VERTEX
  5
37C
100
AcDbEntity
  8
L1_115
  6
CONTINUOUS
 62
         7
100
AcDbVertex
100
AcDb2dVertex
 10
1760.9676777916
 20
51.638791374
 30
0.0
 70
         1
  0
VERTEX
  5
37E
100
AcDbEntity
  8
L1_115
  6
CONTINUOUS
 62
         7
100
AcDbVertex
100
AcDb2dVertex
 10
1760.7367504015
 20
51.7078574069
 30
0.0
 70
         1
  0
VERTEX
  5
380
100
AcDbEntity
  8
L1_115
  6
CONTINUOUS
 62
         7
100
AcDbVertex
100
AcDb2dVertex
 10
1760.4928270058
 20
51.7607363902
 30
0.0
 70
         1
  0
VERTEX
  5
382
100
AcDbEntity
  8
L1_115
  6
CONTINUOUS
 62
         7
100
AcDbVertex
100
AcDb2dVertex
 10
1760.2439261857
 20
51.7971814049
 30
0.0
 70
         1
  0
VERTEX
  5
384
100
AcDbEntity
  8
L1_115
  6
CONTINUOUS
 62
         7
100
AcDbVertex
100
AcDb2dVertex
 10
1759.9137354692
 20
51.8216978078
 30
0.0
 70
         1
  0
VERTEX
  5
386
100
AcDbEntity
  8
L1_115
  6
CONTINUOUS
 62
         7
100
AcDbVertex
100
AcDb2dVertex
 10
1759.6022301774
 20
51.8216296334
 30
0.0
 70
         1
  0
VERTEX
  5
388
100
AcDbEntity
  8
L1_115
  6
CONTINUOUS
 62
         7
100
AcDbVertex
100
AcDb2dVertex
 10
1759.3188932718
 20
51.8020594405
 30
0.0
 70
         1
  0
VERTEX
  5
38A
100
AcDbEntity
  8
L1_115
  6
CONTINUOUS
 62
         7
100
AcDbVertex
100
AcDb2dVertex
 10
1759.0684480607
 20
51.7682879833
 30
0.0
 70
         1
  0
VERTEX
  5
38C
100
AcDbEntity
  8
L1_115
  6
CONTINUOUS
 62
         7
100
AcDbVertex
100
AcDb2dVertex
 10
1758.7835444873
 20
51.7084751054
 30
0.0
 70
         1
  0
VERTEX
  5
38E
100
AcDbEntity
  8
L1_115
  6
CONTINUOUS
 62
         7
100
AcDbVertex
100
AcDb2dVertex
 10
1758.5557937706
 20
51.6407220375
 30
0.0
 70
         1
  0
VERTEX
  5
390
100
AcDbEntity
  8
L1_115
  6
CONTINUOUS
 62
         7
100
AcDbVertex
100
AcDb2dVertex
 10
1758.3769872558
 20
51.5713749261
 30
0.0
 70
         1
  0
VERTEX
  5
392
100
AcDbEntity
  8
L1_115
  6
CONTINUOUS
 62
         7
100
AcDbVertex
100
AcDb2dVertex
 10
1758.2380958446
 20
51.5043036866
 30
0.0
 70
         1
  0
VERTEX
  5
394
100
AcDbEntity
  8
L1_115
  6
CONTINUOUS
 62
         7
100
AcDbVertex
100
AcDb2dVertex
 10
1758.0986770153
 20
51.4204178106
 30
0.0
 70
         1
  0
VERTEX
  5
396
100
AcDbEntity
  8
L1_115
  6
CONTINUOUS
 62
         7
100
AcDbVertex
100
AcDb2dVertex
 10
1758.0007833764
 20
51.3465506584
 30
0.0
 70
         1
  0
VERTEX
  5
398
100
AcDbEntity
  8
L1_115
  6
CONTINUOUS
 62
         7
100
AcDbVertex
100
AcDb2dVertex
 10
1757.9120750636
 20
51.2617016295
 30
0.0
 70
         1
  0
VERTEX
  5
39A
100
AcDbEntity
  8
L1_115
  6
CONTINUOUS
 62
         7
100
AcDbVertex
100
AcDb2dVertex
 10
1757.8416337599
 20
51.1711296672
 30
0.0
 70
         1
  0
VERTEX
  5
39C
100
AcDbEntity
  8
L1_115
  6
CONTINUOUS
 62
         7
100
AcDbVertex
100
AcDb2dVertex
 10
1757.7946831876
 20
51.0831321916
 30
0.0
 70
         1
  0
VERTEX
  5
39E
100
AcDbEntity
  8
L1_115
  6
CONTINUOUS
 62
         7
100
AcDbVertex
100
AcDb2dVertex
 10
1757.7651500101
 20
50.9831715792
 30
0.0
 70
         1
  0
VERTEX
  5
3A0
100
AcDbEntity
  8
L1_115
  6
CONTINUOUS
 62
         7
100
AcDbVertex
100
AcDb2dVertex
 10
1757.7589385605
 20
50.911257264
 30
0.0
 70
         1
  0
SEQEND
  5
3A2
100
AcDbEntity
  8
L1_115
  6
CONTINUOUS
 62
         7
  0
POLYLINE
  5
3A4
100
AcDbEntity
  8
L1_115
  6
CONTINUOUS
 62
         7
100
AcDb2dPolyline
 66
         1
 10
0.0
 20
0.0
 30
0.0
 70
         2
  0
VERTEX
  5
3A6
100
AcDbEntity
  8
L1_115
  6
CONTINUOUS
 62
         7
100
AcDbVertex
100
AcDb2dVertex
 10
1761.7589385605
 20
85.5522734153
 30
0.0
 70
         1
  0
VERTEX
  5
3A8
100
AcDbEntity
  8
L1_115
  6
CONTINUOUS
 62
         7
100
AcDbVertex
100
AcDb2dVertex
 10
1761.7141591009
 20
85.7444281576
 30
0.0
 70
         1
  0
VERTEX
  5
3AA
100
AcDbEntity
  8
L1_115
  6
CONTINUOUS
 62
         7
100
AcDbVertex
100
AcDb2dVertex
 10
1761.6648651136
 20
85.8290452519
 30
0.0
 70
         1
  0
VERTEX
  5
3AC
100
AcDbEntity
  8
L1_115
  6
CONTINUOUS
 62
         7
100
AcDbVertex
100
AcDb2dVertex
 10
1761.5959012995
 20
85.9134034062
 30
0.0
 70
         1
  0
VERTEX
  5
3AE
100
AcDbEntity
  8
L1_115
  6
CONTINUOUS
 62
         7
100
AcDbVertex
100
AcDb2dVertex
 10
1761.506896956
 20
85.9960453464
 30
0.0
 70
         1
  0
VERTEX
  5
3B0
100
AcDbEntity
  8
L1_115
  6
CONTINUOUS
 62
         7
100
AcDbVertex
100
AcDb2dVertex
 10
1761.3981689906
 20
86.0754473008
 30
0.0
 70
         1
  0
VERTEX
  5
3B2
100
AcDbEntity
  8
L1_115
  6
CONTINUOUS
 62
         7
100
AcDbVertex
100
AcDb2dVertex
 10
1761.2707689964
 20
86.1501044405
 30
0.0
 70
         1
  0
VERTEX
  5
3B4
100
AcDbEntity
  8
L1_115
  6
CONTINUOUS
 62
         7
100
AcDbVertex
100
AcDb2dVertex
 10
1761.1264683902
 20
86.2186229215
 30
0.0
 70
         1
  0
VERTEX
  5
3B6
100
AcDbEntity
  8
L1_115
  6
CONTINUOUS
 62
         7
100
AcDbVertex
100
AcDb2dVertex
 10
1760.9676777916
 20
86.2798075253
 30
0.0
 70
         1
  0
VERTEX
  5
3B8
100
AcDbEntity
  8
L1_115
  6
CONTINUOUS
 62
         7
100
AcDbVertex
100
AcDb2dVertex
 10
1760.7367504015
 20
86.3488735583
 30
0.0
 70
         1
  0
VERTEX
  5
3BA
100
AcDbEntity
  8
L1_115
  6
CONTINUOUS
 62
         7
100
AcDbVertex
100
AcDb2dVertex
 10
1760.4928270058
 20
86.4017525416
 30
0.0
 70
         1
  0
VERTEX
  5
3BC
100
AcDbEntity
  8
L1_115
  6
CONTINUOUS
 62
         7
100
AcDbVertex
100
AcDb2dVertex
 10
1760.2439261857
 20
86.4381975563
 30
0.0
 70
         1
  0
VERTEX
  5
3BE
100
AcDbEntity
  8
L1_115
  6
CONTINUOUS
 62
         7
100
AcDbVertex
100
AcDb2dVertex
 10
1759.9137354692
 20
86.4627139592
 30
0.0
 70
         1
  0
VERTEX
  5
3C0
100
AcDbEntity
  8
L1_115
  6
CONTINUOUS
 62
         7
100
AcDbVertex
100
AcDb2dVertex
 10
1759.6022301774
 20
86.4626457848
 30
0.0
 70
         1
  0
VERTEX
  5
3C2
100
AcDbEntity
  8
L1_115
  6
CONTINUOUS
 62
         7
100
AcDbVertex
100
AcDb2dVertex
 10
1759.3188932718
 20
86.4430755918
 30
0.0
 70
         1
  0
VERTEX
  5
3C4
100
AcDbEntity
  8
L1_115
  6
CONTINUOUS
 62
         7
100
AcDbVertex
100
AcDb2dVertex
 10
1759.0684480607
 20
86.4093041347
 30
0.0
 70
         1
  0
VERTEX
  5
3C6
100
AcDbEntity
  8
L1_115
  6
CONTINUOUS
 62
         7
100
AcDbVertex
100
AcDb2dVertex
 10
1758.7835444873
 20
86.3494912568
 30
0.0
 70
         1
  0
VERTEX
  5
3C8
100
AcDbEntity
  8
L1_115
  6
CONTINUOUS
 62
         7
100
AcDbVertex
100
AcDb2dVertex
 10
1758.5557937706
 20
86.2817381888
 30
0.0
 70
         1
  0
VERTEX
  5
3CA
100
AcDbEntity
  8
L1_115
  6
CONTINUOUS
 62
         7
100
AcDbVertex
100
AcDb2dVertex
 10
1758.3769872558
 20
86.2123910774
 30
0.0
 70
         1
  0
VERTEX
  5
3CC
100
AcDbEntity
  8
L1_115
  6
CONTINUOUS
 62
         7
100
AcDbVertex
100
AcDb2dVertex
 10
1758.2380958446
 20
86.1453198379
 30
0.0
 70
         1
  0
VERTEX
  5
3CE
100
AcDbEntity
  8
L1_115
  6
CONTINUOUS
 62
         7
100
AcDbVertex
100
AcDb2dVertex
 10
1758.0986770153
 20
86.061433962
 30
0.0
 70
         1
  0
VERTEX
  5
3D0
100
AcDbEntity
  8
L1_115
  6
CONTINUOUS
 62
         7
100
AcDbVertex
100
AcDb2dVertex
 10
1758.0007833764
 20
85.9875668098
 30
0.0
 70
         1
  0
VERTEX
  5
3D2
100
AcDbEntity
  8
L1_115
  6
CONTINUOUS
 62
         7
100
AcDbVertex
100
AcDb2dVertex
 10
1757.9120750636
 20
85.9027177809
 30
0.0
 70
         1
  0
VERTEX
  5
3D4
100
AcDbEntity
  8
L1_115
  6
CONTINUOUS
 62
         7
100
AcDbVertex
100
AcDb2dVertex
 10
1757.8416337599
 20
85.8121458185
 30
0.0
 70
         1
  0
VERTEX
  5
3D6
100
AcDbEntity
  8
L1_115
  6
CONTINUOUS
 62
         7
100
AcDbVertex
100
AcDb2dVertex
 10
1757.7946831876
 20
85.724148343
 30
0.0
 70
         1
  0
VERTEX
  5
3D8
100
AcDbEntity
  8
L1_115
  6
CONTINUOUS
 62
         7
100
AcDbVertex
100
AcDb2dVertex
 10
1757.7651500101
 20
85.6241877306
 30
0.0
 70
         1
  0
VERTEX
  5
3DA
100
AcDbEntity
  8
L1_115
  6
CONTINUOUS
 62
         7
100
AcDbVertex
100
AcDb2dVertex
 10
1757.7589385605
 20
85.5522734153
 30
0.0
 70
         1
  0
VERTEX
  5
3DC
100
AcDbEntity
  8
L1_115
  6
CONTINUOUS
 62
         7
100
AcDbVertex
100
AcDb2dVertex
 10
1757.7589385605
 20
85.5522734153
 30
0.0
 70
         1
  0
VERTEX
  5
3DE
100
AcDbEntity
  8
L1_115
  6
CONTINUOUS
 62
         7
100
AcDbVertex
100
AcDb2dVertex
 10
1757.80371802
 20
85.3601186731
 30
0.0
 70
         1
  0
VERTEX
  5
3E0
100
AcDbEntity
  8
L1_115
  6
CONTINUOUS
 62
         7
100
AcDbVertex
100
AcDb2dVertex
 10
1757.8530120073
 20
85.2755015788
 30
0.0
 70
         1
  0
VERTEX
  5
3E2
100
AcDbEntity
  8
L1_115
  6
CONTINUOUS
 62
         7
100
AcDbVertex
100
AcDb2dVertex
 10
1757.9219758214
 20
85.1911434244
 30
0.0
 70
         1
  0
VERTEX
  5
3E4
100
AcDbEntity
  8
L1_115
  6
CONTINUOUS
 62
         7
100
AcDbVertex
100
AcDb2dVertex
 10
1758.0109801649
 20
85.1085014842
 30
0.0
 70
         1
  0
VERTEX
  5
3E6
100
AcDbEntity
  8
L1_115
  6
CONTINUOUS
 62
         7
100
AcDbVertex
100
AcDb2dVertex
 10
1758.1197081303
 20
85.0290995299
 30
0.0
 70
         1
  0
VERTEX
  5
3E8
100
AcDbEntity
  8
L1_115
  6
CONTINUOUS
 62
         7
100
AcDbVertex
100
AcDb2dVertex
 10
1758.2471081245
 20
84.9544423902
 30
0.0
 70
         1
  0
VERTEX
  5
3EA
100
AcDbEntity
  8
L1_115
  6
CONTINUOUS
 62
         7
100
AcDbVertex
100
AcDb2dVertex
 10
1758.3914087307
 20
84.8859239092
 30
0.0
 70
         1
  0
VERTEX
  5
3EC
100
AcDbEntity
  8
L1_115
  6
CONTINUOUS
 62
         7
100
AcDbVertex
100
AcDb2dVertex
 10
1758.5501993293
 20
84.8247393054
 30
0.0
 70
         1
  0
VERTEX
  5
3EE
100
AcDbEntity
  8
L1_115
  6
CONTINUOUS
 62
         7
100
AcDbVertex
100
AcDb2dVertex
 10
1758.7811267194
 20
84.7556732724
 30
0.0
 70
         1
  0
VERTEX
  5
3F0
100
AcDbEntity
  8
L1_115
  6
CONTINUOUS
 62
         7
100
AcDbVertex
100
AcDb2dVertex
 10
1759.0250501151
 20
84.7027942891
 30
0.0
 70
         1
  0
VERTEX
  5
3F2
100
AcDbEntity
  8
L1_115
  6
CONTINUOUS
 62
         7
100
AcDbVertex
100
AcDb2dVertex
 10
1759.2739509352
 20
84.6663492744
 30
0.0
 70
         1
  0
VERTEX
  5
3F4
100
AcDbEntity
  8
L1_115
  6
CONTINUOUS
 62
         7
100
AcDbVertex
100
AcDb2dVertex
 10
1759.6041416517
 20
84.6418328715
 30
0.0
 70
         1
  0
VERTEX
  5
3F6
100
AcDbEntity
  8
L1_115
  6
CONTINUOUS
 62
         7
100
AcDbVertex
100
AcDb2dVertex
 10
1759.9156469435
 20
84.6419010459
 30
0.0
 70
         1
  0
VERTEX
  5
3F8
100
AcDbEntity
  8
L1_115
  6
CONTINUOUS
 62
         7
100
AcDbVertex
100
AcDb2dVertex
 10
1760.1989838491
 20
84.6614712388
 30
0.0
 70
         1
  0
VERTEX
  5
3FA
100
AcDbEntity
  8
L1_115
  6
CONTINUOUS
 62
         7
100
AcDbVertex
100
AcDb2dVertex
 10
1760.4494290602
 20
84.695242696
 30
0.0
 70
         1
  0
VERTEX
  5
3FC
100
AcDbEntity
  8
L1_115
  6
CONTINUOUS
 62
         7
100
AcDbVertex
100
AcDb2dVertex
 10
1760.7343326336
 20
84.7550555739
 30
0.0
 70
         1
  0
VERTEX
  5
3FE
100
AcDbEntity
  8
L1_115
  6
CONTINUOUS
 62
         7
100
AcDbVertex
100
AcDb2dVertex
 10
1760.9620833503
 20
84.8228086418
 30
0.0
 70
         1
  0
VERTEX
  5
400
100
AcDbEntity
  8
L1_115
  6
CONTINUOUS
 62
         7
100
AcDbVertex
100
AcDb2dVertex
 10
1761.1408898652
 20
84.8921557533
 30
0.0
 70
         1
  0
VERTEX
  5
402
100
AcDbEntity
  8
L1_115
  6
CONTINUOUS
 62
         7
100
AcDbVertex
100
AcDb2dVertex
 10
1761.2797812763
 20
84.9592269927
 30
0.0
 70
         1
  0
VERTEX
  5
404
100
AcDbEntity
  8
L1_115
  6
CONTINUOUS
 62
         7
100
AcDbVertex
100
AcDb2dVertex
 10
1761.4192001056
 20
85.0431128687
 30
0.0
 70
         1
  0
VERTEX
  5
406
100
AcDbEntity
  8
L1_115
  6
CONTINUOUS
 62
         7
100
AcDbVertex
100
AcDb2dVertex
 10
1761.5170937445
 20
85.1169800209
 30
0.0
 70
         1
  0
VERTEX
  5
408
100
AcDbEntity
  8
L1_115
  6
CONTINUOUS
 62
         7
100
AcDbVertex
100
AcDb2dVertex
 10
1761.6058020573
 20
85.2018290498
 30
0.0
 70
         1
  0
VERTEX
  5
40A
100
AcDbEntity
  8
L1_115
  6
CONTINUOUS
 62
         7
100
AcDbVertex
100
AcDb2dVertex
 10
1761.6762433611
 20
85.2924010122
 30
0.0
 70
         1
  0
VERTEX
  5
40C
100
AcDbEntity
  8
L1_115
  6
CONTINUOUS
 62
         7
100
AcDbVertex
100
AcDb2dVertex
 10
1761.7231939333
 20
85.3803984877
 30
0.0
 70
         1
  0
VERTEX
  5
40E
100
AcDbEntity
  8
L1_115
  6
CONTINUOUS
 62
         7
100
AcDbVertex
100
AcDb2dVertex
 10
1761.7527271108
 20
85.4803591001
 30
0.0
 70
         1
  0
VERTEX
  5
410
100
AcDbEntity
  8
L1_115
  6
CONTINUOUS
 62
         7
100
AcDbVertex
100
AcDb2dVertex
 10
1761.7589385605
 20
85.5522734153
 30
0.0
 70
         1
  0
SEQEND
  5
412
100
AcDbEntity
  8
L1_115
  6
CONTINUOUS
 62
         7
  0
LINE
  5
413
100
AcDbEntity
  8
L1_115
  6
CONTINUOUS
 62
         7
100
AcDbLine
 10
1682.7589385605
 20
80.1317653397
 30
0.0
 11
1682.8589385605
 21
80.2317653397
 31
0.0
  0
LINE
  5
414
100
AcDbEntity
  8
L1_115
  6
CONTINUOUS
 62
         7
100
AcDbLine
 10
1682.8589385605
 20
56.2317653397
 30
0.0
 11
1682.7589385605
 21
56.3317653397
 31
0.0
  0
ARC
  5
415
100
AcDbEntity
  8
L1_115
  6
CONTINUOUS
 62
         7
100
AcDbCircle
 10
1682.2589385605
 20
78.9817653397
 30
0.0
 40
0.5
100
AcDbArc
 50
270.0
 51
360.0
  0
LINE
  5
416
100
AcDbEntity
  8
L1_115
  6
CONTINUOUS
 62
         7
100
AcDbLine
 10
1682.7589385605
 20
56.3317653397
 30
0.0
 11
1682.7589385605
 21
80.1317653397
 31
0.0
  0
LINE
  5
417
100
AcDbEntity
  8
L1_115
  6
CONTINUOUS
 62
         7
100
AcDbLine
 10
1682.2589385605
 20
78.4817653397
 30
0.0
 11
1668.3589385605
 21
78.4817653397
 31
0.0
  0
LINE
  5
418
100
AcDbEntity
  8
L1_115
  6
CONTINUOUS
 62
         7
100
AcDbLine
 10
1682.2589385605
 20
57.9817653397
 30
0.0
 11
1668.3589385605
 21
57.9817653397
 31
0.0
  0
ARC
  5
419
100
AcDbEntity
  8
L1_115
  6
CONTINUOUS
 62
         7
100
AcDbCircle
 10
1682.2589385605
 20
57.4817653397
 30
0.0
 40
0.5
100
AcDbArc
 50
0.0
 51
90.0
  0
LINE
  5
41A
100
AcDbEntity
  8
L1_115
  6
CONTINUOUS
 62
         7
100
AcDbLine
 10
1687.2589385605
 20
80.2317653397
 30
0.0
 11
1682.8589385605
 21
80.2317653397
 31
0.0
  0
LINE
  5
41B
100
AcDbEntity
  8
L1_115
  6
CONTINUOUS
 62
         7
100
AcDbLine
 10
1687.2589385605
 20
80.2317653397
 30
0.0
 11
1687.7589385605
 21
79.7317653397
 31
0.0
  0
LINE
  5
41C
100
AcDbEntity
  8
L1_115
  6
CONTINUOUS
 62
         7
100
AcDbLine
 10
1687.7589385605
 20
56.7317653397
 30
0.0
 11
1687.7589385605
 21
79.7317653397
 31
0.0
  0
LINE
  5
41D
100
AcDbEntity
  8
L1_115
  6
CONTINUOUS
 62
         7
100
AcDbLine
 10
1687.2589385605
 20
56.2317653397
 30
0.0
 11
1682.8589385605
 21
56.2317653397
 31
0.0
  0
LINE
  5
41E
100
AcDbEntity
  8
L1_115
  6
CONTINUOUS
 62
         7
100
AcDbLine
 10
1687.7589385605
 20
56.7317653397
 30
0.0
 11
1687.2589385605
 21
56.2317653397
 31
0.0
  0
LINE
  5
41F
100
AcDbEntity
  8
L1_115
  6
CONTINUOUS
 62
         7
100
AcDbLine
 10
1667.8589385605
 20
58.4817653397
 30
0.0
 11
1667.8589385605
 21
77.9817653397
 31
0.0
  0
LINE
  5
420
100
AcDbEntity
  8
L1_115
  6
CONTINUOUS
 62
         7
100
AcDbLine
 10
1622.5489385605
 20
37.2317653397
 30
0.0
 11
1623.0489385605
 21
36.7317653397
 31
0.0
  0
LINE
  5
421
100
AcDbEntity
  8
L1_115
  6
CONTINUOUS
 62
         7
100
AcDbLine
 10
1656.5149639642
 20
36.7317653397
 30
0.0
 11
1623.0489385605
 21
36.7317653397
 31
0.0
  0
LINE
  5
422
100
AcDbEntity
  8
L1_115
  6
CONTINUOUS
 62
         7
100
AcDbLine
 10
1622.5489385605
 20
37.2317653397
 30
0.0
 11
1622.5489385605
 21
99.2317653397
 31
0.0
  0
LINE
  5
423
100
AcDbEntity
  8
L1_115
  6
CONTINUOUS
 62
         7
100
AcDbLine
 10
1622.5489385605
 20
99.2317653397
 30
0.0
 11
1623.0489385605
 21
99.7317653397
 31
0.0
  0
LINE
  5
424
100
AcDbEntity
  8
L1_115
  6
CONTINUOUS
 62
         7
100
AcDbLine
 10
1656.5149639642
 20
99.7317653397
 30
0.0
 11
1623.0489385605
 21
99.7317653397
 31
0.0
  0
ARC
  5
425
100
AcDbEntity
  8
L1_115
  6
CONTINUOUS
 62
         7
100
AcDbCircle
 10
1659.1489385605
 20
38.5204404742
 30
0.0
 40
0.5
100
AcDbArc
 50
300.0
 51
360.0
  0
ARC
  5
426
100
AcDbEntity
  8
L1_115
  6
CONTINUOUS
 62
         7
100
AcDbCircle
 10
1659.1489385605
 20
97.9430902051
 30
0.0
 40
0.5
100
AcDbArc
 50
0.0
 51
59.9999999999
  0
ARC
  5
427
100
AcDbEntity
  8
L1_115
  6
CONTINUOUS
 62
         7
100
AcDbCircle
 10
1656.5149639642
 20
38.7317653397
 30
0.0
 40
2.0
100
AcDbArc
 50
270.0
 51
300.0
  0
ARC
  5
428
100
AcDbEntity
  8
L1_115
  6
CONTINUOUS
 62
         7
100
AcDbCircle
 10
1656.5149639642
 20
97.7317653397
 30
0.0
 40
2.0
100
AcDbArc
 50
60.0
 51
90.0
  0
LINE
  5
429
100
AcDbEntity
  8
L1_115
  6
CONTINUOUS
 62
         7
100
AcDbLine
 10
1659.6489385605
 20
38.5204404742
 30
0.0
 11
1659.6489385605
 21
97.9430902051
 31
0.0
  0
LINE
  5
42A
100
AcDbEntity
  8
L1_115
  6
CONTINUOUS
 62
         7
100
AcDbLine
 10
1657.5149639642
 20
36.9997145321
 30
0.0
 11
1659.3989385605
 21
38.0874277724
 31
0.0
  0
LINE
  5
42B
100
AcDbEntity
  8
L1_115
  6
CONTINUOUS
 62
         7
100
AcDbLine
 10
1657.5149639642
 20
99.4638161472
 30
0.0
 11
1659.3989385605
 21
98.376102907
 31
0.0
  0
LINE
  5
42C
100
AcDbEntity
  8
L1_115
  6
CENTER
 62
         1
100
AcDbLine
 10
1759.7589385605
 20
84.6390935514
 30
0.0
 11
1759.7589385605
 21
86.4654532793
 31
0.0
  0
ARC
  5
42D
100
AcDbEntity
  8
L1_115
  6
CONTINUOUS
 62
         7
100
AcDbCircle
 10
1745.4589385605
 20
48.2317653397
 30
0.0
 40
0.5
100
AcDbArc
 50
0.0
 51
180.0
  0
ARC
  5
42E
100
AcDbEntity
  8
L1_115
  6
CONTINUOUS
 62
         7
100
AcDbCircle
 10
1745.4589385605
 20
88.2317653397
 30
0.0
 40
0.5
100
AcDbArc
 50
180.0
 51
360.0
  0
LINE
  5
42F
100
AcDbEntity
  8
L1_115
  6
CONTINUOUS
 62
         7
100
AcDbLine
 10
1799.2089385605
 20
48.7317653397
 30
0.0
 11
1798.7089385605
 21
48.2317653397
 31
0.0
  0
LINE
  5
430
100
AcDbEntity
  8
L1_115
  6
CONTINUOUS
 62
         7
100
AcDbLine
 10
1798.7089385605
 20
88.2317653397
 30
0.0
 11
1799.2089385605
 21
87.7317653397
 31
0.0
  0
LINE
  5
431
100
AcDbEntity
  8
L1_115
  6
CONTINUOUS
 62
         7
100
AcDbLine
 10
1744.9589385605
 20
45.2317653397
 30
0.0
 11
1744.9589385605
 21
91.2317653397
 31
0.0
  0
LINE
  5
432
100
AcDbEntity
  8
L1_115
  6
CONTINUOUS
 62
         7
100
AcDbLine
 10
1697.0989385605
 20
53.7317653397
 30
0.0
 11
1697.0989385605
 21
82.7317653397
 31
0.0
  0
LINE
  5
433
100
AcDbEntity
  8
L1_115
  6
CONTINUOUS
 62
         7
100
AcDbLine
 10
1798.7089385605
 20
48.2317653397
 30
0.0
 11
1791.7089385605
 21
48.2317653397
 31
0.0
  0
LINE
  5
434
100
AcDbEntity
  8
L1_115
  6
CONTINUOUS
 62
         7
100
AcDbLine
 10
1798.7089385605
 20
88.2317653397
 30
0.0
 11
1791.7089385605
 21
88.2317653397
 31
0.0
  0
LINE
  5
435
100
AcDbEntity
  8
L1_115
  6
CONTINUOUS
 62
         7
100
AcDbLine
 10
1745.9589385605
 20
88.2317653397
 30
0.0
 11
1790.2089385605
 21
88.2317653397
 31
0.0
  0
LINE
  5
436
100
AcDbEntity
  8
L1_115
  6
CONTINUOUS
 62
         7
100
AcDbLine
 10
1790.2089385605
 20
48.2317653397
 30
0.0
 11
1745.9589385605
 21
48.2317653397
 31
0.0
  0
LINE
  5
437
100
AcDbEntity
  8
L1_115
  6
CONTINUOUS
 62
         7
100
AcDbLine
 10
1791.7089385605
 20
87.7317653397
 30
0.0
 11
1790.2089385605
 21
87.7317653397
 31
0.0
  0
LINE
  5
438
100
AcDbEntity
  8
L1_115
  6
CONTINUOUS
 62
         7
100
AcDbLine
 10
1790.2089385605
 20
48.2317653397
 30
0.0
 11
1790.2089385605
 21
88.2317653397
 31
0.0
  0
LINE
  5
439
100
AcDbEntity
  8
L1_115
  6
CONTINUOUS
 62
         7
100
AcDbLine
 10
1791.7089385605
 20
48.7317653397
 30
0.0
 11
1790.2089385605
 21
48.7317653397
 31
0.0
  0
LINE
  5
43A
100
AcDbEntity
  8
L1_115
  6
CONTINUOUS
 62
         7
100
AcDbLine
 10
1791.7089385605
 20
48.2317653397
 30
0.0
 11
1791.7089385605
 21
88.2317653397
 31
0.0
  0
LINE
  5
43B
100
AcDbEntity
  8
L1_115
  6
CONTINUOUS
 62
         7
100
AcDbLine
 10
1743.9589385605
 20
92.2317653397
 30
0.0
 11
1719.10129975
 21
92.2317653397
 31
0.0
  0
LINE
  5
43C
100
AcDbEntity
  8
L1_115
  6
CONTINUOUS
 62
         7
100
AcDbLine
 10
1743.9589385605
 20
44.2317653397
 30
0.0
 11
1719.10129975
 21
44.2317653397
 31
0.0
  0
LINE
  5
43D
100
AcDbEntity
  8
L1_115
  6
CONTINUOUS
 62
         7
100
AcDbLine
 10
1743.9589385605
 20
92.2317653397
 30
0.0
 11
1744.9589385605
 21
91.2317653397
 31
0.0
  0
LINE
  5
43E
100
AcDbEntity
  8
L1_115
  6
CONTINUOUS
 62
         7
100
AcDbLine
 10
1744.9589385605
 20
45.2317653397
 30
0.0
 11
1743.9589385605
 21
44.2317653397
 31
0.0
  0
LINE
  5
43F
100
AcDbEntity
  8
L1_115
  6
CONTINUOUS
 62
         7
100
AcDbLine
 10
1718.10129975
 20
91.2317653397
 30
0.0
 11
1719.10129975
 21
92.2317653397
 31
0.0
  0
LINE
  5
440
100
AcDbEntity
  8
L1_115
  6
CONTINUOUS
 62
         7
100
AcDbLine
 10
1717.10129975
 20
83.7317653397
 30
0.0
 11
1698.0989385605
 21
83.7317653397
 31
0.0
  0
LINE
  5
441
100
AcDbEntity
  8
L1_115
  6
CONTINUOUS
 62
         7
100
AcDbLine
 10
1697.0989385605
 20
82.7317653397
 30
0.0
 11
1698.0989385605
 21
83.7317653397
 31
0.0
  0
LINE
  5
442
100
AcDbEntity
  8
L1_115
  6
CONTINUOUS
 62
         7
100
AcDbLine
 10
1697.0989385605
 20
53.7317653397
 30
0.0
 11
1698.0989385605
 21
52.7317653397
 31
0.0
  0
LINE
  5
443
100
AcDbEntity
  8
L1_115
  6
CONTINUOUS
 62
         7
100
AcDbLine
 10
1717.10129975
 20
52.7317653397
 30
0.0
 11
1698.0989385605
 21
52.7317653397
 31
0.0
  0
LINE
  5
444
100
AcDbEntity
  8
L1_115
  6
CONTINUOUS
 62
         7
100
AcDbLine
 10
1718.10129975
 20
91.2317653397
 30
0.0
 11
1718.10129975
 21
45.2317653397
 31
0.0
  0
LINE
  5
445
100
AcDbEntity
  8
L1_115
  6
CONTINUOUS
 62
         7
100
AcDbLine
 10
1718.10129975
 20
45.2317653397
 30
0.0
 11
1719.10129975
 21
44.2317653397
 31
0.0
  0
ARC
  5
446
100
AcDbEntity
  8
L1_115
  6
CONTINUOUS
 62
         7
100
AcDbCircle
 10
1717.60129975
 20
83.7317653397
 30
0.0
 40
0.5
100
AcDbArc
 50
180.0
 51
360.0
  0
ARC
  5
447
100
AcDbEntity
  8
L1_115
  6
CONTINUOUS
 62
         7
100
AcDbCircle
 10
1717.60129975
 20
52.7317653397
 30
0.0
 40
0.5
100
AcDbArc
 50
0.0
 51
180.0
  0
LINE
  5
448
100
AcDbEntity
  8
L1_115
  6
CENTER
 62
         1
100
AcDbLine
 10
1769.5089385605
 20
71.4817653397
 30
0.0
 11
1769.5089385605
 21
64.9817653397
 31
0.0
  0
CIRCLE
  5
449
100
AcDbEntity
  8
L1_115
  6
CONTINUOUS
 62
         7
100
AcDbCircle
 10
1769.5089385605
 20
68.2317653397
 30
0.0
 40
3.25
  0
LINE
  5
44A
100
AcDbEntity
  8
L1_115
  6
CENTER
 62
         1
100
AcDbLine
 10
1737.6900700283
 20
61.8072168992
 30
0.0
 11
1737.6900700283
 21
75.0821732891
 31
0.0
  0
LINE
  5
44B
100
AcDbEntity
  8
L1_115
  6
CENTER
 62
         1
100
AcDbLine
 10
1725.3829504232
 20
61.807216893
 30
0.0
 11
1725.3829504232
 21
75.0821732828
 31
0.0
  0
LINE
  5
44C
100
AcDbEntity
  8
L1_115
  6
CENTER
 62
         1
100
AcDbLine
 10
1799.2089385605
 20
68.2317653397
 30
0.0
 11
1612.1644462906
 21
68.2317653397
 31
0.0
  0
LINE
  5
44D
100
AcDbEntity
  8
L1_115
  6
CONTINUOUS
 62
         4
100
AcDbLine
 10
1604.1177396254
 20
-124.6953625807
 30
0.0
 11
1604.1177396254
 21
-71.6953625807
 31
0.0
  0
LINE
  5
44E
100
AcDbEntity
  8
L1_115
  6
CONTINUOUS
 62
         4
100
AcDbLine
 10
1612.1177396254
 20
-71.6953625807
 30
0.0
 11
1612.1177396254
 21
-124.6953625807
 31
0.0
  0
LINE
  5
44F
100
AcDbEntity
  8
L1_115
  6
CONTINUOUS
 62
         4
100
AcDbLine
 10
1533.7177396254
 20
-82.6953625807
 30
0.0
 11
1533.7177396254
 21
-113.6953625807
 31
0.0
  0
LINE
  5
450
100
AcDbEntity
  8
L1_115
  6
CONTINUOUS
 62
         7
100
AcDbLine
 10
1547.9677396254
 20
-113.5953625807
 30
0.0
 11
1547.9677396254
 21
-82.7953625807
 31
0.0
  0
LINE
  5
451
100
AcDbEntity
  8
L1_115
  6
CONTINUOUS
 62
         7
100
AcDbLine
 10
1539.2177396254
 20
-113.5953625807
 30
0.0
 11
1539.2177396254
 21
-82.7953625807
 31
0.0
  0
LINE
  5
452
100
AcDbEntity
  8
L1_115
  6
CONTINUOUS
 62
         7
100
AcDbLine
 10
1549.8677396254
 20
-82.6953625807
 30
0.0
 11
1549.9677396254
 21
-82.7953625807
 31
0.0
  0
LINE
  5
453
100
AcDbEntity
  8
L1_115
  6
CONTINUOUS
 62
         7
100
AcDbLine
 10
1549.9677396254
 20
-113.5953625807
 30
0.0
 11
1549.9677396254
 21
-82.7953625807
 31
0.0
  0
LINE
  5
454
100
AcDbEntity
  8
L1_115
  6
CONTINUOUS
 62
         7
100
AcDbLine
 10
1549.8677396254
 20
-82.6953625807
 30
0.0
 11
1548.0677396254
 21
-82.6953625807
 31
0.0
  0
LINE
  5
455
100
AcDbEntity
  8
L1_115
  6
CONTINUOUS
 62
         7
100
AcDbLine
 10
1549.9677396254
 20
-113.5953625807
 30
0.0
 11
1549.8677396254
 21
-113.6953625807
 31
0.0
  0
LINE
  5
456
100
AcDbEntity
  8
L1_115
  6
CONTINUOUS
 62
         7
100
AcDbLine
 10
1549.8677396254
 20
-113.6953625807
 30
0.0
 11
1548.0677396254
 21
-113.6953625807
 31
0.0
  0
LINE
  5
457
100
AcDbEntity
  8
L1_115
  6
CONTINUOUS
 62
         7
100
AcDbLine
 10
1548.0677396254
 20
-82.6953625807
 30
0.0
 11
1547.9677396254
 21
-82.7953625807
 31
0.0
  0
LINE
  5
458
100
AcDbEntity
  8
L1_115
  6
CONTINUOUS
 62
         7
100
AcDbLine
 10
1547.9677396254
 20
-113.5953625807
 30
0.0
 11
1548.0677396254
 21
-113.6953625807
 31
0.0
  0
LINE
  5
459
100
AcDbEntity
  8
L1_115
  6
CONTINUOUS
 62
         7
100
AcDbLine
 10
1539.1177396254
 20
-113.6953625807
 30
0.0
 11
1533.7177396254
 21
-113.6953625807
 31
0.0
  0
LINE
  5
45A
100
AcDbEntity
  8
L1_115
  6
CONTINUOUS
 62
         7
100
AcDbLine
 10
1539.1177396254
 20
-82.6953625807
 30
0.0
 11
1533.7177396254
 21
-82.6953625807
 31
0.0
  0
LINE
  5
45B
100
AcDbEntity
  8
L1_115
  6
CONTINUOUS
 62
         7
100
AcDbLine
 10
1533.2177396254
 20
-113.1953625807
 30
0.0
 11
1533.7177396254
 21
-113.6953625807
 31
0.0
  0
LINE
  5
45C
100
AcDbEntity
  8
L1_115
  6
CONTINUOUS
 62
         7
100
AcDbLine
 10
1533.2177396254
 20
-113.1953625807
 30
0.0
 11
1533.2177396254
 21
-83.1953625807
 31
0.0
  0
LINE
  5
45D
100
AcDbEntity
  8
L1_115
  6
CONTINUOUS
 62
         7
100
AcDbLine
 10
1533.7177396254
 20
-82.6953625807
 30
0.0
 11
1533.2177396254
 21
-83.1953625807
 31
0.0
  0
LINE
  5
45E
100
AcDbEntity
  8
L1_115
  6
CONTINUOUS
 62
         7
100
AcDbLine
 10
1547.9677396254
 20
-111.6953625807
 30
0.0
 11
1539.2177396254
 21
-111.6953625807
 31
0.0
  0
LINE
  5
45F
100
AcDbEntity
  8
L1_115
  6
CONTINUOUS
 62
         7
100
AcDbLine
 10
1547.9677396254
 20
-84.6953625807
 30
0.0
 11
1539.2177396254
 21
-84.6953625807
 31
0.0
  0
LINE
  5
460
100
AcDbEntity
  8
L1_115
  6
CONTINUOUS
 62
         7
100
AcDbLine
 10
1539.1177396254
 20
-82.6953625807
 30
0.0
 11
1539.2177396254
 21
-82.7953625807
 31
0.0
  0
LINE
  5
461
100
AcDbEntity
  8
L1_115
  6
CONTINUOUS
 62
         7
100
AcDbLine
 10
1539.2177396254
 20
-113.5953625807
 30
0.0
 11
1539.1177396254
 21
-113.6953625807
 31
0.0
  0
LINE
  5
462
100
AcDbEntity
  8
L1_115
  6
CONTINUOUS
 62
         7
100
AcDbLine
 10
1612.1177396254
 20
-71.6953625807
 30
0.0
 11
1612.6177396254
 21
-72.1953625807
 31
0.0
  0
LINE
  5
463
100
AcDbEntity
  8
L1_115
  6
CONTINUOUS
 62
         7
100
AcDbLine
 10
1612.6177396254
 20
-124.1953625807
 30
0.0
 11
1612.1177396254
 21
-124.6953625807
 31
0.0
  0
LINE
  5
464
100
AcDbEntity
  8
L1_115
  6
CONTINUOUS
 62
         7
100
AcDbLine
 10
1612.6177396254
 20
-124.1953625807
 30
0.0
 11
1612.6177396254
 21
-72.1953625807
 31
0.0
  0
LINE
  5
465
100
AcDbEntity
  8
L1_115
  6
CONTINUOUS
 62
         7
100
AcDbLine
 10
1565.0677396254
 20
-74.1953625807
 30
0.0
 11
1564.8677396254
 21
-74.3953625807
 31
0.0
  0
LINE
  5
466
100
AcDbEntity
  8
L1_115
  6
CONTINUOUS
 62
         7
100
AcDbLine
 10
1564.8677396254
 20
-74.3953625807
 30
0.0
 11
1564.8677396254
 21
-121.9953625807
 31
0.0
  0
LINE
  5
467
100
AcDbEntity
  8
L1_115
  6
CONTINUOUS
 62
         7
100
AcDbLine
 10
1564.8677396254
 20
-121.9953625807
 30
0.0
 11
1565.0677396254
 21
-122.1953625807
 31
0.0
  0
LINE
  5
468
100
AcDbEntity
  8
L1_115
  6
CONTINUOUS
 62
         7
100
AcDbLine
 10
1603.6177396254
 20
-124.1953625807
 30
0.0
 11
1603.6177396254
 21
-72.1953625807
 31
0.0
  0
LINE
  5
469
100
AcDbEntity
  8
L1_115
  6
CONTINUOUS
 62
         7
100
AcDbLine
 10
1604.1177396254
 20
-71.6953625807
 30
0.0
 11
1603.6177396254
 21
-72.1953625807
 31
0.0
  0
LINE
  5
46A
100
AcDbEntity
  8
L1_115
  6
CONTINUOUS
 62
         7
100
AcDbLine
 10
1612.1177396254
 20
-71.6953625807
 30
0.0
 11
1604.1177396254
 21
-71.6953625807
 31
0.0
  0
ARC
  5
46B
100
AcDbEntity
  8
L1_115
  6
CONTINUOUS
 62
         7
100
AcDbCircle
 10
1603.1177396254
 20
-74.1953625807
 30
0.0
 40
0.5
100
AcDbArc
 50
179.9999999998
 51
360.0000000002
  0
LINE
  5
46C
100
AcDbEntity
  8
L1_115
  6
CONTINUOUS
 62
         7
100
AcDbLine
 10
1602.6177396254
 20
-74.1953625807
 30
0.0
 11
1565.0677396254
 21
-74.1953625807
 31
0.0
  0
LINE
  5
46D
100
AcDbEntity
  8
L1_115
  6
CONTINUOUS
 62
         7
100
AcDbLine
 10
1603.6177396254
 20
-124.1953625807
 30
0.0
 11
1604.1177396254
 21
-124.6953625807
 31
0.0
  0
LINE
  5
46E
100
AcDbEntity
  8
L1_115
  6
CONTINUOUS
 62
         7
100
AcDbLine
 10
1612.1177396254
 20
-124.6953625807
 30
0.0
 11
1604.1177396254
 21
-124.6953625807
 31
0.0
  0
ARC
  5
46F
100
AcDbEntity
  8
L1_115
  6
CONTINUOUS
 62
         7
100
AcDbCircle
 10
1603.1177396254
 20
-122.1953625807
 30
0.0
 40
0.5
100
AcDbArc
 50
359.9999999998
 51
540.0000000002
  0
LINE
  5
470
100
AcDbEntity
  8
L1_115
  6
CONTINUOUS
 62
         7
100
AcDbLine
 10
1602.6177396254
 20
-122.1953625807
 30
0.0
 11
1565.0677396254
 21
-122.1953625807
 31
0.0
  0
LINE
  5
471
100
AcDbEntity
  8
L1_115
  6
CENTER
 62
         1
100
AcDbLine
 10
1623.5401109677
 20
-98.1953625807
 30
0.0
 11
1518.2177396254
 21
-98.1953625807
 31
0.0
  0
LINE
  5
472
100
AcDbEntity
  8
_Y__________
  6
CONTINUOUS
 62
         7
100
AcDbLine
 10
1367.7033403763
 20
-19.9933347407
 30
0.0
 11
1371.773659774
 21
-12.9433347407
 31
0.0
  0
LINE
  5
473
100
AcDbEntity
  8
_Y__________
  6
CONTINUOUS
 62
         7
100
AcDbLine
 10
1367.7033403763
 20
-5.8933347407
 30
0.0
 11
1371.773659774
 21
-12.9433347407
 31
0.0
  0
LINE
  5
474
100
AcDbEntity
  8
_Y__________
  6
CONTINUOUS
 62
         7
100
AcDbLine
 10
1367.7033403763
 20
-5.8933347407
 30
0.0
 11
1367.7033403763
 21
-19.9933347407
 31
0.0
  0
LINE
  5
475
100
AcDbEntity
  8
_Y__________
  6
CONTINUOUS
 62
         7
100
AcDbLine
 10
1367.7033403763
 20
-19.9933347407
 30
0.0
 11
1335.7033403763
 21
-19.9933347407
 31
0.0
  0
LINE
  5
476
100
AcDbEntity
  8
_Y__________
  6
CONTINUOUS
 62
         7
100
AcDbLine
 10
1367.7033403763
 20
-5.8933347407
 30
0.0
 11
1335.7033403763
 21
-5.8933347407
 31
0.0
  0
ARC
  5
477
100
AcDbEntity
  8
_Y__________
  6
CONTINUOUS
 62
         7
100
AcDbCircle
 10
1395.1033403763
 20
17.5566652593
 30
0.0
 40
1.0
100
AcDbArc
 50
90.0
 51
180.0
  0
LINE
  5
478
100
AcDbEntity
  8
_Y__________
  6
CONTINUOUS
 62
         7
100
AcDbLine
 10
1395.1033403763
 20
18.5566652593
 30
0.0
 11
1396.1033403763
 21
18.5566652593
 31
0.0
  0
LINE
  5
479
100
AcDbEntity
  8
_Y__________
  6
CONTINUOUS
 62
         7
100
AcDbLine
 10
1394.1033403763
 20
-42.4433347407
 30
0.0
 11
1394.1033403763
 21
-43.4433347407
 31
0.0
  0
ARC
  5
47A
100
AcDbEntity
  8
_Y__________
  6
CONTINUOUS
 62
         7
100
AcDbCircle
 10
1395.1033403763
 20
-43.4433347407
 30
0.0
 40
1.0
100
AcDbArc
 50
180.0
 51
270.0
  0
LINE
  5
47B
100
AcDbEntity
  8
_Y__________
  6
CONTINUOUS
 62
         7
100
AcDbLine
 10
1395.1033403763
 20
-44.4433347407
 30
0.0
 11
1396.1033403763
 21
-44.4433347407
 31
0.0
  0
LINE
  5
47C
100
AcDbEntity
  8
_Y__________
  6
CONTINUOUS
 62
         7
100
AcDbLine
 10
1394.1033403763
 20
16.5566652593
 30
0.0
 11
1394.1033403763
 21
17.5566652593
 31
0.0
  0
LINE
  5
47D
100
AcDbEntity
  8
_Y__________
  6
CONTINUOUS
 62
         7
100
AcDbLine
 10
1394.1033403763
 20
179.6846417294
 30
0.0
 11
1394.1033403763
 21
180.6846417294
 31
0.0
  0
LINE
  5
47E
100
AcDbEntity
  8
_Y__________
  6
CONTINUOUS
 62
         7
100
AcDbLine
 10
1395.1033403763
 20
118.6846417294
 30
0.0
 11
1396.1033403763
 21
118.6846417294
 31
0.0
  0
ARC
  5
47F
100
AcDbEntity
  8
_Y__________
  6
CONTINUOUS
 62
         7
100
AcDbCircle
 10
1395.1033403763
 20
119.6846417294
 30
0.0
 40
1.0
100
AcDbArc
 50
180.0
 51
270.0
  0
LINE
  5
480
100
AcDbEntity
  8
_Y__________
  6
CONTINUOUS
 62
         7
100
AcDbLine
 10
1394.1033403763
 20
120.6846417294
 30
0.0
 11
1394.1033403763
 21
119.6846417294
 31
0.0
  0
LINE
  5
481
100
AcDbEntity
  8
_Y__________
  6
CONTINUOUS
 62
         7
100
AcDbLine
 10
1395.1033403763
 20
181.6846417294
 30
0.0
 11
1396.1033403763
 21
181.6846417294
 31
0.0
  0
ARC
  5
482
100
AcDbEntity
  8
_Y__________
  6
CONTINUOUS
 62
         7
100
AcDbCircle
 10
1395.1033403763
 20
180.6846417294
 30
0.0
 40
1.0
100
AcDbArc
 50
90.0
 51
180.0
  0
LINE
  5
483
100
AcDbEntity
  8
_Y__________
  6
CONTINUOUS
 62
         7
100
AcDbLine
 10
1420.4347112261
 20
-43.4433347407
 30
0.0
 11
1426.3033403763
 21
-43.4433347407
 31
0.0
  0
LINE
  5
484
100
AcDbEntity
  8
_Y__________
  6
CONTINUOUS
 62
         7
100
AcDbLine
 10
1419.8690258012
 20
-43.6776493157
 30
0.0
 11
1419.1033403763
 21
-44.4433347407
 31
0.0
  0
ARC
  5
485
100
AcDbEntity
  8
_Y__________
  6
CONTINUOUS
 62
         7
100
AcDbCircle
 10
1420.4347112261
 20
-44.2433347407
 30
0.0
 40
0.8
100
AcDbArc
 50
90.0
 51
134.9999999999
  0
LINE
  5
486
100
AcDbEntity
  8
_Y__________
  6
CONTINUOUS
 62
         7
100
AcDbLine
 10
1419.1033403763
 20
-44.4433347407
 30
0.0
 11
1418.1033403763
 21
-44.4433347407
 31
0.0
  0
LINE
  5
487
100
AcDbEntity
  8
_Y__________
  6
CONTINUOUS
 62
         7
100
AcDbLine
 10
1420.4347112261
 20
17.5566652593
 30
0.0
 11
1426.3033403763
 21
17.5566652593
 31
0.0
  0
LINE
  5
488
100
AcDbEntity
  8
_Y__________
  6
CONTINUOUS
 62
         7
100
AcDbLine
 10
1419.8690258012
 20
17.7909798344
 30
0.0
 11
1419.1033403763
 21
18.5566652593
 31
0.0
  0
ARC
  5
489
100
AcDbEntity
  8
_Y__________
  6
CONTINUOUS
 62
         7
100
AcDbCircle
 10
1420.4347112261
 20
18.3566652593
 30
0.0
 40
0.8
100
AcDbArc
 50
225.0000000001
 51
270.0
  0
LINE
  5
48A
100
AcDbEntity
  8
_Y__________
  6
CONTINUOUS
 62
         7
100
AcDbLine
 10
1419.1033403763
 20
18.5566652593
 30
0.0
 11
1418.1033403763
 21
18.5566652593
 31
0.0
  0
LINE
  5
48B
100
AcDbEntity
  8
_Y__________
  6
CONTINUOUS
 62
         7
100
AcDbLine
 10
1419.1033403763
 20
181.6846417294
 30
0.0
 11
1418.1033403763
 21
181.6846417294
 31
0.0
  0
LINE
  5
48C
100
AcDbEntity
  8
_Y__________
  6
CONTINUOUS
 62
         7
100
AcDbLine
 10
1419.8690258012
 20
180.9189563044
 30
0.0
 11
1419.1033403763
 21
181.6846417294
 31
0.0
  0
ARC
  5
48D
100
AcDbEntity
  8
_Y__________
  6
CONTINUOUS
 62
         7
100
AcDbCircle
 10
1420.4347112261
 20
181.4846417294
 30
0.0
 40
0.8
100
AcDbArc
 50
225.0000000001
 51
270.0
  0
LINE
  5
48E
100
AcDbEntity
  8
_Y__________
  6
CONTINUOUS
 62
         4
100
AcDbLine
 10
1420.1033403763
 20
180.6846417294
 30
0.0
 11
1420.1033403763
 21
119.6846417294
 31
0.0
  0
LINE
  5
48F
100
AcDbEntity
  8
_Y__________
  6
CONTINUOUS
 62
         7
100
AcDbLine
 10
1420.4347112261
 20
180.6846417294
 30
0.0
 11
1426.3033403763
 21
180.6846417294
 31
0.0
  0
LINE
  5
490
100
AcDbEntity
  8
_Y__________
  6
CONTINUOUS
 62
         7
100
AcDbLine
 10
1419.1033403763
 20
118.6846417294
 30
0.0
 11
1418.1033403763
 21
118.6846417294
 31
0.0
  0
LINE
  5
491
100
AcDbEntity
  8
_Y__________
  6
CONTINUOUS
 62
         7
100
AcDbLine
 10
1419.8690258012
 20
119.4503271543
 30
0.0
 11
1419.1033403763
 21
118.6846417294
 31
0.0
  0
ARC
  5
492
100
AcDbEntity
  8
_Y__________
  6
CONTINUOUS
 62
         7
100
AcDbCircle
 10
1420.4347112261
 20
118.8846417294
 30
0.0
 40
0.8
100
AcDbArc
 50
90.0
 51
134.9999999999
  0
LINE
  5
493
100
AcDbEntity
  8
_Y__________
  6
CONTINUOUS
 62
         7
100
AcDbLine
 10
1420.4347112261
 20
119.6846417294
 30
0.0
 11
1426.3033403763
 21
119.6846417294
 31
0.0
  0
LINE
  5
494
100
AcDbEntity
  8
_Y__________
  6
CONTINUOUS
 62
         7
100
AcDbLine
 10
1427.1033403763
 20
181.3007949654
 30
0.0
 11
1427.1033403763
 21
119.0684884933
 31
0.0
  0
LINE
  5
495
100
AcDbEntity
  8
_Y__________
  6
CONTINUOUS
 62
         7
100
AcDbLine
 10
1357.7033403763
 20
-4.9433347407
 30
0.0
 11
1357.7033403763
 21
-20.9433347407
 31
0.0
  0
LINE
  5
496
100
AcDbEntity
  8
_Y__________
  6
CONTINUOUS
 62
         7
100
AcDbLine
 10
1413.7034823826
 20
18.5566652593
 30
0.0
 11
1418.1033403763
 21
18.5566652593
 31
0.0
  0
LINE
  5
497
100
AcDbEntity
  8
_Y__________
  6
CONTINUOUS
 62
         7
100
AcDbLine
 10
1411.2033403763
 20
14.2262922782
 30
0.0
 11
1413.7034823826
 21
18.5566652593
 31
0.0
  0
LINE
  5
498
100
AcDbEntity
  8
_Y__________
  6
CONTINUOUS
 62
         7
100
AcDbLine
 10
1411.2033403763
 20
14.2262922782
 30
0.0
 11
1411.2033403763
 21
13.5566652593
 31
0.0
  0
LINE
  5
499
100
AcDbEntity
  8
_Y__________
  6
CONTINUOUS
 62
         7
100
AcDbLine
 10
1406.2033403763
 20
13.5566652593
 30
0.0
 11
1411.2033403763
 21
13.5566652593
 31
0.0
  0
LINE
  5
49A
100
AcDbEntity
  8
_Y__________
  6
CONTINUOUS
 62
         7
100
AcDbLine
 10
1406.2033403763
 20
14.2262922782
 30
0.0
 11
1406.2033403763
 21
13.5566652593
 31
0.0
  0
LINE
  5
49B
100
AcDbEntity
  8
_Y__________
  6
CONTINUOUS
 62
         7
100
AcDbLine
 10
1406.2033403763
 20
14.2262922782
 30
0.0
 11
1403.7031983699
 21
18.5566652593
 31
0.0
  0
LINE
  5
49C
100
AcDbEntity
  8
_Y__________
  6
CONTINUOUS
 62
         7
100
AcDbLine
 10
1395.1033403763
 20
18.5566652593
 30
0.0
 11
1403.7031983699
 21
18.5566652593
 31
0.0
  0
LINE
  5
49D
100
AcDbEntity
  8
_Y__________
  6
CONTINUOUS
 62
         7
100
AcDbLine
 10
1394.1033403763
 20
17.5566652593
 30
0.0
 11
1394.1033403763
 21
9.5545815252
 31
0.0
  0
ARC
  5
49E
100
AcDbEntity
  8
_Y__________
  6
CONTINUOUS
 62
         7
100
AcDbCircle
 10
1393.7033403763
 20
9.5545815252
 30
0.0
 40
0.4
100
AcDbArc
 50
270.0
 51
360.0
  0
LINE
  5
49F
100
AcDbEntity
  8
_Y__________
  6
CONTINUOUS
 62
         7
100
AcDbLine
 10
1393.3497505378
 20
9.1545815252
 30
0.0
 11
1393.7033403763
 21
9.1545815252
 31
0.0
  0
LINE
  5
4A0
100
AcDbEntity
  8
_Y__________
  6
CONTINUOUS
 62
         7
100
AcDbLine
 10
1392.6033403763
 20
9.3545815252
 30
0.0
 11
1393.3497505378
 21
9.1545815252
 31
0.0
  0
LINE
  5
4A1
100
AcDbEntity
  8
_Y__________
  6
CONTINUOUS
 62
         7
100
AcDbLine
 10
1327.5590342598
 20
-0.1309943129
 30
0.0
 11
1392.6033403763
 21
9.3545815252
 31
0.0
  0
ARC
  5
4A2
100
AcDbEntity
  8
_Y__________
  6
CONTINUOUS
 62
         7
100
AcDbCircle
 10
1327.7033403763
 20
-1.1205274073
 30
0.0
 40
1.0
100
AcDbArc
 50
98.2971
 51
180.0
  0
LINE
  5
4A3
100
AcDbEntity
  8
_Y__________
  6
CONTINUOUS
 62
         7
100
AcDbLine
 10
1326.7033403763
 20
-1.1205274073
 30
0.0
 11
1326.7033403763
 21
-24.7661420741
 31
0.0
  0
ARC
  5
4A4
100
AcDbEntity
  8
_Y__________
  6
CONTINUOUS
 62
         7
100
AcDbCircle
 10
1327.7033403763
 20
-24.7661420741
 30
0.0
 40
1.0
100
AcDbArc
 50
180.0
 51
261.7029
  0
LINE
  5
4A5
100
AcDbEntity
  8
_Y__________
  6
CONTINUOUS
 62
         7
100
AcDbLine
 10
1327.5590342598
 20
-25.7556751684
 30
0.0
 11
1392.6033403763
 21
-35.2412510066
 31
0.0
  0
LINE
  5
4A6
100
AcDbEntity
  8
_Y__________
  6
CONTINUOUS
 62
         7
100
AcDbLine
 10
1392.6033403763
 20
-35.2412510066
 30
0.0
 11
1393.3497505378
 21
-35.0412510066
 31
0.0
  0
LINE
  5
4A7
100
AcDbEntity
  8
_Y__________
  6
CONTINUOUS
 62
         7
100
AcDbLine
 10
1393.3497505378
 20
-35.0412510066
 30
0.0
 11
1393.7033403763
 21
-35.0412510066
 31
0.0
  0
ARC
  5
4A8
100
AcDbEntity
  8
_Y__________
  6
CONTINUOUS
 62
         7
100
AcDbCircle
 10
1393.7033403763
 20
-35.4412510066
 30
0.0
 40
0.4
100
AcDbArc
 50
0.0
 51
90.0
  0
LINE
  5
4A9
100
AcDbEntity
  8
_Y__________
  6
CONTINUOUS
 62
         7
100
AcDbLine
 10
1394.1033403763
 20
-35.4412510066
 30
0.0
 11
1394.1033403763
 21
-43.4433347407
 31
0.0
  0
LINE
  5
4AA
100
AcDbEntity
  8
_Y__________
  6
CONTINUOUS
 62
         7
100
AcDbLine
 10
1395.1033403763
 20
-44.4433347407
 30
0.0
 11
1403.7031983699
 21
-44.4433347407
 31
0.0
  0
LINE
  5
4AB
100
AcDbEntity
  8
_Y__________
  6
CONTINUOUS
 62
         7
100
AcDbLine
 10
1406.2033403763
 20
-40.1129617596
 30
0.0
 11
1403.7031983699
 21
-44.4433347407
 31
0.0
  0
LINE
  5
4AC
100
AcDbEntity
  8
_Y__________
  6
CONTINUOUS
 62
         7
100
AcDbLine
 10
1406.2033403763
 20
-39.4433347407
 30
0.0
 11
1406.2033403763
 21
-40.1129617596
 31
0.0
  0
LINE
  5
4AD
100
AcDbEntity
  8
_Y__________
  6
CONTINUOUS
 62
         7
100
AcDbLine
 10
1406.2033403763
 20
-39.4433347407
 30
0.0
 11
1411.2033403763
 21
-39.4433347407
 31
0.0
  0
LINE
  5
4AE
100
AcDbEntity
  8
_Y__________
  6
CONTINUOUS
 62
         7
100
AcDbLine
 10
1411.2033403763
 20
-39.4433347407
 30
0.0
 11
1411.2033403763
 21
-40.1129617596
 31
0.0
  0
LINE
  5
4AF
100
AcDbEntity
  8
_Y__________
  6
CONTINUOUS
 62
         7
100
AcDbLine
 10
1411.2033403763
 20
-40.1129617596
 30
0.0
 11
1413.7034823826
 21
-44.4433347407
 31
0.0
  0
LINE
  5
4B0
100
AcDbEntity
  8
_Y__________
  6
CONTINUOUS
 62
         7
100
AcDbLine
 10
1413.7034823826
 20
-44.4433347407
 30
0.0
 11
1418.1033403763
 21
-44.4433347407
 31
0.0
  0
LINE
  5
4B1
100
AcDbEntity
  8
_Y__________
  6
CONTINUOUS
 62
         7
100
AcDbLine
 10
1335.7033403763
 20
-5.8933347407
 30
0.0
 11
1357.7033403763
 21
-5.8933347407
 31
0.0
  0
LINE
  5
4B2
100
AcDbEntity
  8
_Y__________
  6
CONTINUOUS
 62
         7
100
AcDbLine
 10
1335.7033403763
 20
-19.9933347407
 30
0.0
 11
1357.7033403763
 21
-19.9933347407
 31
0.0
  0
LINE
  5
4B3
100
AcDbEntity
  8
_Y__________
  6
CONTINUOUS
 62
         7
100
AcDbLine
 10
1335.7033403763
 20
-4.8433347407
 30
0.0
 11
1335.7033403763
 21
-21.0433347407
 31
0.0
  0
ARC
  5
4B4
100
AcDbEntity
  8
_Y__________
  6
CONTINUOUS
 62
         7
100
AcDbCircle
 10
1335.1033403763
 20
-4.8433347407
 30
0.0
 40
0.6
100
AcDbArc
 50
360.0
 51
450.0
  0
LINE
  5
4B5
100
AcDbEntity
  8
_Y__________
  6
CONTINUOUS
 62
         7
100
AcDbLine
 10
1334.5287420363
 20
-4.2433347407
 30
0.0
 11
1335.1033403763
 21
-4.2433347407
 31
0.0
  0
ARC
  5
4B6
100
AcDbEntity
  8
_Y__________
  6
CONTINUOUS
 62
         7
100
AcDbCircle
 10
1334.5287420363
 20
-4.8433347407
 30
0.0
 40
0.6
100
AcDbArc
 50
90.0
 51
105.0
  0
LINE
  5
4B7
100
AcDbEntity
  8
_Y__________
  6
CONTINUOUS
 62
         7
100
AcDbLine
 10
1333.7033403763
 20
-4.4433347407
 30
0.0
 11
1334.3734506093
 21
-4.2637792449
 31
0.0
  0
LINE
  5
4B8
100
AcDbEntity
  8
_Y__________
  6
CONTINUOUS
 62
         7
100
AcDbLine
 10
1328.2033403763
 20
-4.4433347407
 30
0.0
 11
1333.7033403763
 21
-4.4433347407
 31
0.0
  0
ARC
  5
4B9
100
AcDbEntity
  8
_Y__________
  6
CONTINUOUS
 62
         7
100
AcDbCircle
 10
1328.2033403763
 20
-2.9433347407
 30
0.0
 40
1.5
100
AcDbArc
 50
180.0
 51
270.0
  0
LINE
  5
4BA
100
AcDbEntity
  8
_Y__________
  6
CONTINUOUS
 62
         7
100
AcDbLine
 10
1328.4353911838
 20
-4.4433347407
 30
0.0
 11
1328.4353911838
 21
-21.4433347407
 31
0.0
  0
LINE
  5
4BB
100
AcDbEntity
  8
_Y__________
  6
CONTINUOUS
 62
         7
100
AcDbLine
 10
1333.7033403763
 20
-4.4433347407
 30
0.0
 11
1333.7033403763
 21
-21.4433347407
 31
0.0
  0
ARC
  5
4BC
100
AcDbEntity
  8
_Y__________
  6
CONTINUOUS
 62
         7
100
AcDbCircle
 10
1335.1033403763
 20
-21.0433347407
 30
0.0
 40
0.6
100
AcDbArc
 50
270.0
 51
360.0
  0
LINE
  5
4BD
100
AcDbEntity
  8
_Y__________
  6
CONTINUOUS
 62
         7
100
AcDbLine
 10
1334.5287420363
 20
-21.6433347407
 30
0.0
 11
1335.1033403763
 21
-21.6433347407
 31
0.0
  0
LINE
  5
4BE
100
AcDbEntity
  8
_Y__________
  6
CONTINUOUS
 62
         7
100
AcDbLine
 10
1328.2033403763
 20
-21.4433347407
 30
0.0
 11
1333.7033403763
 21
-21.4433347407
 31
0.0
  0
LINE
  5
4BF
100
AcDbEntity
  8
_Y__________
  6
CONTINUOUS
 62
         7
100
AcDbLine
 10
1333.7033403763
 20
-21.4433347407
 30
0.0
 11
1334.3734506093
 21
-21.6228902364
 31
0.0
  0
ARC
  5
4C0
100
AcDbEntity
  8
_Y__________
  6
CONTINUOUS
 62
         7
100
AcDbCircle
 10
1334.5287420363
 20
-21.0433347407
 30
0.0
 40
0.6
100
AcDbArc
 50
255.0
 51
270.0
  0
ARC
  5
4C1
100
AcDbEntity
  8
_Y__________
  6
CONTINUOUS
 62
         7
100
AcDbCircle
 10
1328.2033403763
 20
-22.9433347407
 30
0.0
 40
1.5
100
AcDbArc
 50
90.0
 51
180.0
  0
LINE
  5
4C2
100
AcDbEntity
  8
_Y__________
  6
CONTINUOUS
 62
         5
100
AcDbLine
 10
1335.7033403763
 20
-20.9433347407
 30
0.0
 11
1357.7033403763
 21
-20.9433347407
 31
0.0
  0
LINE
  5
4C3
100
AcDbEntity
  8
_Y__________
  6
CONTINUOUS
 62
         5
100
AcDbLine
 10
1335.7033403763
 20
-4.9433347407
 30
0.0
 11
1357.7033403763
 21
-4.9433347407
 31
0.0
  0
LINE
  5
4C4
100
AcDbEntity
  8
_Y__________
  6
CENTER
 62
         1
100
AcDbLine
 10
1323.7864097888
 20
-12.9433347407
 30
0.0
 11
1397.1033403763
 21
-12.9433347407
 31
0.0
  0
LINE
  5
4C5
100
AcDbEntity
  8
_Y__________
  6
CENTER
 62
         1
100
AcDbLine
 10
1408.7033403763
 20
181.6846417294
 30
0.0
 11
1408.7033403763
 21
118.6846417294
 31
0.0
  0
LINE
  5
4C6
100
AcDbEntity
  8
_Y__________
  6
CONTINUOUS
 62
         7
100
AcDbLine
 10
1419.1033403763
 20
181.6846417294
 30
0.0
 11
1419.1033403763
 21
118.6846417294
 31
0.0
  0
LINE
  5
4C7
100
AcDbEntity
  8
_Y__________
  6
CONTINUOUS
 62
         7
100
AcDbLine
 10
1394.1033403763
 20
180.6846417294
 30
0.0
 11
1394.1033403763
 21
119.6846417294
 31
0.0
  0
LINE
  5
4C8
100
AcDbEntity
  8
_Y__________
  6
CONTINUOUS
 62
         7
100
AcDbLine
 10
1327.5590342598
 20
162.9969821571
 30
0.0
 11
1392.6033403763
 21
172.4825579953
 31
0.0
  0
LINE
  5
4C9
100
AcDbEntity
  8
_Y__________
  6
CONTINUOUS
 62
         7
100
AcDbLine
 10
1327.5590342598
 20
137.3723013017
 30
0.0
 11
1392.6033403763
 21
127.8867254635
 31
0.0
  0
ARC
  5
4CA
100
AcDbEntity
  8
_Y__________
  6
CONTINUOUS
 62
         7
100
AcDbCircle
 10
1327.7033403763
 20
162.0074490628
 30
0.0
 40
1.0
100
AcDbArc
 50
98.2971
 51
180.0
  0
ARC
  5
4CB
100
AcDbEntity
  8
_Y__________
  6
CONTINUOUS
 62
         7
100
AcDbCircle
 10
1327.7033403763
 20
138.361834396
 30
0.0
 40
1.0
100
AcDbArc
 50
180.0
 51
261.7029
  0
LINE
  5
4CC
100
AcDbEntity
  8
_Y__________
  6
CONTINUOUS
 62
         7
100
AcDbLine
 10
1326.7033403763
 20
162.0074490628
 30
0.0
 11
1326.7033403763
 21
138.361834396
 31
0.0
  0
LINE
  5
4CD
100
AcDbEntity
  8
_Y__________
  6
CONTINUOUS
 62
         7
100
AcDbLine
 10
1395.1033403763
 20
118.6846417294
 30
0.0
 11
1403.7031983699
 21
118.6846417294
 31
0.0
  0
LINE
  5
4CE
100
AcDbEntity
  8
_Y__________
  6
CENTER
 62
         1
100
AcDbLine
 10
1392.1033403763
 20
172.4096417294
 30
0.0
 11
1392.1033403763
 21
127.9596417294
 31
0.0
  0
LINE
  5
4CF
100
AcDbEntity
  8
_Y__________
  6
CONTINUOUS
 62
         7
100
AcDbLine
 10
1392.6033403763
 20
172.4825579953
 30
0.0
 11
1392.6033403763
 21
127.8867254635
 31
0.0
  0
LINE
  5
4D0
100
AcDbEntity
  8
_Y__________
  6
CONTINUOUS
 62
         7
100
AcDbLine
 10
1393.3497505378
 20
128.0867254635
 30
0.0
 11
1393.7033403763
 21
128.0867254635
 31
0.0
  0
ARC
  5
4D1
100
AcDbEntity
  8
_Y__________
  6
CONTINUOUS
 62
         7
100
AcDbCircle
 10
1393.7033403763
 20
127.6867254635
 30
0.0
 40
0.4
100
AcDbArc
 50
0.0
 51
90.0
  0
LINE
  5
4D2
100
AcDbEntity
  8
_Y__________
  6
CONTINUOUS
 62
         7
100
AcDbLine
 10
1392.6033403763
 20
127.8867254635
 30
0.0
 11
1393.3497505378
 21
128.0867254635
 31
0.0
  0
ARC
  5
4D3
100
AcDbEntity
  8
_Y__________
  6
CONTINUOUS
 62
         7
100
AcDbCircle
 10
1393.7033403763
 20
172.6825579953
 30
0.0
 40
0.4
100
AcDbArc
 50
270.0
 51
360.0
  0
LINE
  5
4D4
100
AcDbEntity
  8
_Y__________
  6
CONTINUOUS
 62
         7
100
AcDbLine
 10
1393.3497505378
 20
172.2825579953
 30
0.0
 11
1393.7033403763
 21
172.2825579953
 31
0.0
  0
LINE
  5
4D5
100
AcDbEntity
  8
_Y__________
  6
CONTINUOUS
 62
         7
100
AcDbLine
 10
1392.6033403763
 20
172.4825579953
 30
0.0
 11
1393.3497505378
 21
172.2825579953
 31
0.0
  0
LINE
  5
4D6
100
AcDbEntity
  8
_Y__________
  6
CONTINUOUS
 62
         7
100
AcDbLine
 10
1411.2033403763
 20
123.0150147105
 30
0.0
 11
1413.7034823826
 21
118.6846417294
 31
0.0
  0
LINE
  5
4D7
100
AcDbEntity
  8
_Y__________
  6
CONTINUOUS
 62
         7
100
AcDbLine
 10
1406.2033403763
 20
123.0150147105
 30
0.0
 11
1403.7031983699
 21
118.6846417294
 31
0.0
  0
LINE
  5
4D8
100
AcDbEntity
  8
_Y__________
  6
CONTINUOUS
 62
         7
100
AcDbLine
 10
1413.7034823826
 20
118.6846417294
 30
0.0
 11
1418.1033403763
 21
118.6846417294
 31
0.0
  0
LINE
  5
4D9
100
AcDbEntity
  8
_Y__________
  6
CONTINUOUS
 62
         7
100
AcDbLine
 10
1395.1033403763
 20
181.6846417294
 30
0.0
 11
1403.7031983699
 21
181.6846417294
 31
0.0
  0
LINE
  5
4DA
100
AcDbEntity
  8
_Y__________
  6
CONTINUOUS
 62
         7
100
AcDbLine
 10
1413.7034823826
 20
181.6846417294
 30
0.0
 11
1418.1033403763
 21
181.6846417294
 31
0.0
  0
LINE
  5
4DB
100
AcDbEntity
  8
_Y__________
  6
CONTINUOUS
 62
         7
100
AcDbLine
 10
1411.2033403763
 20
177.3542687483
 30
0.0
 11
1413.7034823826
 21
181.6846417294
 31
0.0
  0
LINE
  5
4DC
100
AcDbEntity
  8
_Y__________
  6
CONTINUOUS
 62
         7
100
AcDbLine
 10
1406.2033403763
 20
177.3542687483
 30
0.0
 11
1403.7031983699
 21
181.6846417294
 31
0.0
  0
LINE
  5
4DD
100
AcDbEntity
  8
_Y__________
  6
CENTER
 62
         1
100
AcDbLine
 10
1321.1945221388
 20
150.1846417294
 30
0.0
 11
1367.7664645448
 21
150.1846417294
 31
0.0
  0
LINE
  5
4DE
100
AcDbEntity
  8
_Y__________
  6
CENTER
 62
         1
100
AcDbLine
 10
1380.541891064
 20
150.1846417294
 30
0.0
 11
1419.1033403763
 21
150.1846417294
 31
0.0
  0
LINE
  5
4DF
100
AcDbEntity
  8
_Y__________
  6
CONTINUOUS
 62
         7
100
AcDbLine
 10
1406.2033403763
 20
176.6846417294
 30
0.0
 11
1411.2033403763
 21
176.6846417294
 31
0.0
  0
LINE
  5
4E0
100
AcDbEntity
  8
_Y__________
  6
CONTINUOUS
 62
         7
100
AcDbLine
 10
1406.2033403763
 20
123.6846417294
 30
0.0
 11
1411.2033403763
 21
123.6846417294
 31
0.0
  0
LINE
  5
4E1
100
AcDbEntity
  8
_Y__________
  6
CENTER
 62
         1
100
AcDbLine
 10
1723.2833403763
 20
184.6846417294
 30
0.0
 11
1723.2833403763
 21
106.9924543695
 31
0.0
  0
CIRCLE
  5
4E2
100
AcDbEntity
  8
_Y__________
  6
CONTINUOUS
 62
         7
100
AcDbCircle
 10
1723.2833403763
 20
150.1846417294
 30
0.0
 40
31.5
  0
LINE
  5
4E3
100
AcDbEntity
  8
_Y__________
  6
CENTER
 62
         1
100
AcDbLine
 10
1688.7833403763
 20
150.1846417294
 30
0.0
 11
1757.7833403763
 21
150.1846417294
 31
0.0
  0
ARC
  5
4E4
100
AcDbEntity
  8
_Y__________
  6
CONTINUOUS
 62
         4
100
AcDbCircle
 10
1214.9233403763
 20
150.1846417294
 30
0.0
 40
8.0
100
AcDbArc
 50
265.563559301
 51
540.0
  0
CIRCLE
  5
4E5
100
AcDbEntity
  8
_Y__________
  6
CONTINUOUS
 62
         7
100
AcDbCircle
 10
1214.9233403763
 20
150.1846417294
 30
0.0
 40
8.5
  0
CIRCLE
  5
4E6
100
AcDbEntity
  8
_Y__________
  6
CONTINUOUS
 62
         7
100
AcDbCircle
 10
1214.9233403763
 20
150.1846417294
 30
0.0
 40
7.0
  0
CIRCLE
  5
4E7
100
AcDbEntity
  8
_Y__________
  6
CONTINUOUS
 62
         7
100
AcDbCircle
 10
1214.9233403763
 20
150.1846417294
 30
0.0
 40
22.2979162659
  0
CIRCLE
  5
4E8
100
AcDbEntity
  8
_Y__________
  6
CONTINUOUS
 62
         7
100
AcDbCircle
 10
1214.9233403763
 20
150.1846417294
 30
0.0
 40
12.6875524223
  0
LINE
  5
4E9
100
AcDbEntity
  8
_Y__________
  6
CENTER
 62
         1
100
AcDbLine
 10
1214.9233403763
 20
184.6846417294
 30
0.0
 11
1214.9233403763
 21
115.6846417294
 31
0.0
  0
CIRCLE
  5
4EA
100
AcDbEntity
  8
_Y__________
  6
CONTINUOUS
 62
         7
100
AcDbCircle
 10
1214.9233403763
 20
150.1846417294
 30
0.0
 40
31.5
  0
LINE
  5
4EB
100
AcDbEntity
  8
_Y__________
  6
CENTER
 62
         1
100
AcDbLine
 10
1180.4233403763
 20
150.1846417294
 30
0.0
 11
1249.4233403763
 21
150.1846417294
 31
0.0
  0
LINE
  5
4EC
100
AcDbEntity
  8
_Y__________
  6
CONTINUOUS
 62
         7
100
AcDbLine
 10
1192.3233403763
 20
142.9346417294
 30
0.0
 11
1191.5233403763
 21
142.1346417294
 31
0.0
  0
LINE
  5
4ED
100
AcDbEntity
  8
_Y__________
  6
CONTINUOUS
 62
         7
100
AcDbLine
 10
1191.5233403763
 20
158.2346417294
 30
0.0
 11
1192.3233403763
 21
157.4346417294
 31
0.0
  0
LINE
  5
4EE
100
AcDbEntity
  8
_Y__________
  6
CONTINUOUS
 62
         7
100
AcDbLine
 10
1184.9693176535
 20
142.1346417294
 30
0.0
 11
1184.5760087767
 21
141.7413328526
 31
0.0
  0
LINE
  5
4EF
100
AcDbEntity
  8
_Y__________
  6
CONTINUOUS
 62
         7
100
AcDbLine
 10
1184.9693176535
 20
158.2346417294
 30
0.0
 11
1184.5760087767
 21
158.6279506061
 31
0.0
  0
LINE
  5
4F0
100
AcDbEntity
  8
_Y__________
  6
CONTINUOUS
 62
         7
100
AcDbLine
 10
1192.3233403763
 20
157.4346417294
 30
0.0
 11
1192.3233403763
 21
142.9346417294
 31
0.0
  0
LINE
  5
4F1
100
AcDbEntity
  8
_Y__________
  6
CONTINUOUS
 62
         7
100
AcDbLine
 10
1184.9693176535
 20
158.2346417294
 30
0.0
 11
1191.5233403763
 21
158.2346417294
 31
0.0
  0
LINE
  5
4F2
100
AcDbEntity
  8
_Y__________
  6
CONTINUOUS
 62
         7
100
AcDbLine
 10
1184.9693176535
 20
142.1346417294
 30
0.0
 11
1191.5233403763
 21
142.1346417294
 31
0.0
  0
LINE
  5
4F3
100
AcDbEntity
  8
_Y__________
  6
CONTINUOUS
 62
         7
100
AcDbLine
 10
1237.5233403763
 20
157.4346417294
 30
0.0
 11
1238.3233403763
 21
158.2346417294
 31
0.0
  0
LINE
  5
4F4
100
AcDbEntity
  8
_Y__________
  6
CONTINUOUS
 62
         7
100
AcDbLine
 10
1237.5233403763
 20
142.9346417294
 30
0.0
 11
1238.3233403763
 21
142.1346417294
 31
0.0
  0
LINE
  5
4F5
100
AcDbEntity
  8
_Y__________
  6
CONTINUOUS
 62
         7
100
AcDbLine
 10
1244.877363099
 20
142.1346417294
 30
0.0
 11
1245.2706719758
 21
141.7413328526
 31
0.0
  0
LINE
  5
4F6
100
AcDbEntity
  8
_Y__________
  6
CONTINUOUS
 62
         7
100
AcDbLine
 10
1244.877363099
 20
158.2346417294
 30
0.0
 11
1245.2706719758
 21
158.6279506061
 31
0.0
  0
LINE
  5
4F7
100
AcDbEntity
  8
_Y__________
  6
CONTINUOUS
 62
         7
100
AcDbLine
 10
1244.877363099
 20
142.1346417294
 30
0.0
 11
1238.3233403763
 21
142.1346417294
 31
0.0
  0
LINE
  5
4F8
100
AcDbEntity
  8
_Y__________
  6
CONTINUOUS
 62
         7
100
AcDbLine
 10
1244.877363099
 20
158.2346417294
 30
0.0
 11
1238.3233403763
 21
158.2346417294
 31
0.0
  0
LINE
  5
4F9
100
AcDbEntity
  8
_Y__________
  6
CONTINUOUS
 62
         7
100
AcDbLine
 10
1237.5233403763
 20
157.4346417294
 30
0.0
 11
1237.5233403763
 21
142.9346417294
 31
0.0
  0
ARC
  5
4FA
100
AcDbEntity
  8
_Y__________
  6
DASHED
 62
         2
100
AcDbCircle
 10
1214.9233403763
 20
150.1846417294
 30
0.0
 40
26.5
100
AcDbArc
 50
17.6843950499
 51
162.3156049501
  0
ARC
  5
4FB
100
AcDbEntity
  8
_Y__________
  6
DASHED
 62
         2
100
AcDbCircle
 10
1214.9233403763
 20
150.1846417294
 30
0.0
 40
26.5
100
AcDbArc
 50
197.6843950499
 51
342.3156049501
  0
LINE
  5
4FC
100
AcDbEntity
  8
_Y__________
  6
CONTINUOUS
 62
         4
100
AcDbLine
 10
1394.1033403763
 20
158.7346417294
 30
0.0
 11
1403.7033403763
 21
158.7346417294
 31
0.0
  0
LINE
  5
4FD
100
AcDbEntity
  8
_Y__________
  6
CONTINUOUS
 62
         7
100
AcDbLine
 10
1403.7033403763
 20
181.6846417294
 30
0.0
 11
1403.7033403763
 21
158.7346417294
 31
0.0
  0
LINE
  5
4FE
100
AcDbEntity
  8
_Y__________
  6
CONTINUOUS
 62
         7
100
AcDbLine
 10
1406.2033403763
 20
177.3542687483
 30
0.0
 11
1406.2033403763
 21
158.2346417294
 31
0.0
  0
LINE
  5
4FF
100
AcDbEntity
  8
_Y__________
  6
CONTINUOUS
 62
         7
100
AcDbLine
 10
1411.2033403763
 20
177.3542687483
 30
0.0
 11
1411.2033403763
 21
157.5927454004
 31
0.0
  0
LINE
  5
500
100
AcDbEntity
  8
_Y__________
  6
CONTINUOUS
 62
         7
100
AcDbLine
 10
1413.7033403763
 20
181.6846417294
 30
0.0
 11
1413.7033403763
 21
156.6018062122
 31
0.0
  0
LINE
  5
501
100
AcDbEntity
  8
_Y__________
  6
CONTINUOUS
 62
         4
100
AcDbLine
 10
1403.7033403763
 20
158.7346417294
 30
0.0
 11
1406.2033403763
 21
158.2346417294
 31
0.0
  0
LINE
  5
502
100
AcDbEntity
  8
_Y__________
  6
CONTINUOUS
 62
         4
100
AcDbLine
 10
1403.7033403763
 20
141.6346417294
 30
0.0
 11
1406.2033403763
 21
142.1346417294
 31
0.0
  0
LINE
  5
503
100
AcDbEntity
  8
_Y__________
  6
CONTINUOUS
 62
         4
100
AcDbLine
 10
1411.2033403763
 20
142.7765380584
 30
0.0
 11
1413.7033403763
 21
143.7674772465
 31
0.0
  0
LINE
  5
504
100
AcDbEntity
  8
_Y__________
  6
CONTINUOUS
 62
         4
100
AcDbLine
 10
1411.2033403763
 20
157.5927454004
 30
0.0
 11
1413.7033403763
 21
156.6018062122
 31
0.0
  0
ARC
  5
505
100
AcDbEntity
  8
_Y__________
  6
CONTINUOUS
 62
         4
100
AcDbCircle
 10
1408.0533403763
 20
150.1846417294
 30
0.0
 40
8.55
100
AcDbArc
 50
311.3623424579
 51
408.6376575421
  0
ARC
  5
506
100
AcDbEntity
  8
_Y__________
  6
CONTINUOUS
 62
         7
100
AcDbCircle
 10
1408.0533403763
 20
150.1846417294
 30
0.0
 40
8.05
100
AcDbArc
 50
270.0
 51
450.0
  0
LINE
  5
507
100
AcDbEntity
  8
_Y__________
  6
CONTINUOUS
 62
         7
100
AcDbLine
 10
1394.1033403763
 20
158.2346417294
 30
0.0
 11
1408.0533403763
 21
158.2346417294
 31
0.0
  0
LINE
  5
508
100
AcDbEntity
  8
_Y__________
  6
CONTINUOUS
 62
         7
100
AcDbLine
 10
1394.1033403763
 20
142.1346417294
 30
0.0
 11
1408.0533403763
 21
142.1346417294
 31
0.0
  0
LINE
  5
509
100
AcDbEntity
  8
_Y__________
  6
CONTINUOUS
 62
         4
100
AcDbLine
 10
1394.1033403763
 20
141.6346417294
 30
0.0
 11
1403.7033403763
 21
141.6346417294
 31
0.0
  0
LINE
  5
50A
100
AcDbEntity
  8
_Y__________
  6
CONTINUOUS
 62
         7
100
AcDbLine
 10
1403.7033403763
 20
141.6346417294
 30
0.0
 11
1403.7033403763
 21
118.6846417294
 31
0.0
  0
LINE
  5
50B
100
AcDbEntity
  8
_Y__________
  6
CONTINUOUS
 62
         7
100
AcDbLine
 10
1406.2033403763
 20
142.1346417294
 30
0.0
 11
1406.2033403763
 21
123.0150147105
 31
0.0
  0
LINE
  5
50C
100
AcDbEntity
  8
_Y__________
  6
CONTINUOUS
 62
         7
100
AcDbLine
 10
1411.2033403763
 20
142.7765380584
 30
0.0
 11
1411.2033403763
 21
123.0150147105
 31
0.0
  0
LINE
  5
50D
100
AcDbEntity
  8
_Y__________
  6
CONTINUOUS
 62
         7
100
AcDbLine
 10
1413.7033403763
 20
143.7674772465
 30
0.0
 11
1413.7033403763
 21
118.6846417294
 31
0.0
  0
ARC
  5
50E
100
AcDbEntity
  8
_Y__________
  6
DASHED
 62
         2
100
AcDbCircle
 10
1723.2833403763
 20
150.1846417294
 30
0.0
 40
26.5
100
AcDbArc
 50
17.6843950499
 51
162.3156049501
  0
ARC
  5
50F
100
AcDbEntity
  8
_Y__________
  6
DASHED
 62
         2
100
AcDbCircle
 10
1723.2833403763
 20
150.1846417294
 30
0.0
 40
26.5
100
AcDbArc
 50
197.6843950499
 51
342.3156049501
  0
LINE
  5
510
100
AcDbEntity
  8
_Y__________
  6
DASHED
 62
         2
100
AcDbLine
 10
1745.8833403763
 20
142.9346417294
 30
0.0
 11
1746.6833403763
 21
142.1346417294
 31
0.0
  0
LINE
  5
511
100
AcDbEntity
  8
_Y__________
  6
DASHED
 62
         2
100
AcDbLine
 10
1746.6833403763
 20
158.2346417294
 30
0.0
 11
1745.8833403763
 21
157.4346417294
 31
0.0
  0
LINE
  5
512
100
AcDbEntity
  8
_Y__________
  6
DASHED
 62
         2
100
AcDbLine
 10
1753.237363099
 20
142.1346417294
 30
0.0
 11
1753.6306719758
 21
141.7413328526
 31
0.0
  0
LINE
  5
513
100
AcDbEntity
  8
_Y__________
  6
DASHED
 62
         2
100
AcDbLine
 10
1753.237363099
 20
158.2346417294
 30
0.0
 11
1753.6306719758
 21
158.6279506061
 31
0.0
  0
LINE
  5
514
100
AcDbEntity
  8
_Y__________
  6
DASHED
 62
         2
100
AcDbLine
 10
1753.237363099
 20
142.1346417294
 30
0.0
 11
1746.6833403763
 21
142.1346417294
 31
0.0
  0
LINE
  5
515
100
AcDbEntity
  8
_Y__________
  6
DASHED
 62
         2
100
AcDbLine
 10
1753.237363099
 20
158.2346417294
 30
0.0
 11
1746.6833403763
 21
158.2346417294
 31
0.0
  0
LINE
  5
516
100
AcDbEntity
  8
_Y__________
  6
DASHED
 62
         2
100
AcDbLine
 10
1745.8833403763
 20
157.4346417294
 30
0.0
 11
1745.8833403763
 21
142.9346417294
 31
0.0
  0
LINE
  5
517
100
AcDbEntity
  8
_Y__________
  6
DASHED
 62
         2
100
AcDbLine
 10
1700.6833403763
 20
157.4346417294
 30
0.0
 11
1699.8833403763
 21
158.2346417294
 31
0.0
  0
LINE
  5
518
100
AcDbEntity
  8
_Y__________
  6
DASHED
 62
         2
100
AcDbLine
 10
1700.6833403763
 20
142.9346417294
 30
0.0
 11
1699.8833403763
 21
142.1346417294
 31
0.0
  0
LINE
  5
519
100
AcDbEntity
  8
_Y__________
  6
DASHED
 62
         2
100
AcDbLine
 10
1693.3293176535
 20
142.1346417294
 30
0.0
 11
1692.9360087767
 21
141.7413328526
 31
0.0
  0
LINE
  5
51A
100
AcDbEntity
  8
_Y__________
  6
DASHED
 62
         2
100
AcDbLine
 10
1693.3293176535
 20
158.2346417294
 30
0.0
 11
1692.9360087767
 21
158.6279506061
 31
0.0
  0
LINE
  5
51B
100
AcDbEntity
  8
_Y__________
  6
DASHED
 62
         2
100
AcDbLine
 10
1700.6833403763
 20
157.4346417294
 30
0.0
 11
1700.6833403763
 21
142.9346417294
 31
0.0
  0
LINE
  5
51C
100
AcDbEntity
  8
_Y__________
  6
DASHED
 62
         2
100
AcDbLine
 10
1693.3293176535
 20
158.2346417294
 30
0.0
 11
1699.8833403763
 21
158.2346417294
 31
0.0
  0
LINE
  5
51D
100
AcDbEntity
  8
_Y__________
  6
DASHED
 62
         2
100
AcDbLine
 10
1693.3293176535
 20
142.1346417294
 30
0.0
 11
1699.8833403763
 21
142.1346417294
 31
0.0
  0
CIRCLE
  5
51E
100
AcDbEntity
  8
_Y__________
  6
DASHED
 62
         2
100
AcDbCircle
 10
1723.2833403763
 20
150.1846417294
 30
0.0
 40
30.5
  0
INSERT
  5
572
100
AcDbEntity
  8
0
  6
CONTINUOUS
100
AcDbBlockReference
  2
*X20
 10
0.0
 20
0.0
 30
0.0
  0
DIMENSION
  5
575
100
AcDbEntity
  8
L1_115
  6
CONTINUOUS
 62
         4
100
AcDbDimension
  2
*D21
 10
1432.1057015658
 20
-65.7933929011
 30
0.0
 11
1452.9157191756
 21
-62.6613929011
 31
0.0
  3
DIMSTYLE1
100
AcDbAlignedDimension
 13
1432.1057015658
 23
-37.4433347407
 33
0.0
 14
1485.1033403763
 24
-37.7886342023
 34
0.0
100
AcDbRotatedDimension
  0
DIMENSION
  5
583
100
AcDbEntity
  8
L1_115
  6
CONTINUOUS
 62
         4
100
AcDbDimension
  2
*D22
 10
1485.1033403763
 20
-77.7782125383
 30
0.0
 11
1442.1783403763
 21
-74.6462125383
 31
0.0
  3
DIMSTYLE1
100
AcDbAlignedDimension
 13
1485.1033403763
 23
-37.3278646868
 33
0.0
 14
1405.1033403763
 24
-30.9433347407
 34
0.0
100
AcDbRotatedDimension
  0
DIMENSION
  5
591
100
AcDbEntity
  8
L1_115
  6
CONTINUOUS
 62
         4
100
AcDbDimension
  2
*D23
 10
1434.4376547917
 20
-37.4433347407
 30
0.0
 11
1431.3056547917
 21
20.2772884656
 31
0.0
  3
DIMSTYLE1
100
AcDbAlignedDimension
 13
1437.1057015658
 23
-37.4433347407
 33
0.0
 14
1437.1057015658
 24
11.5566652593
 34
0.0
 50
90.0
100
AcDbRotatedDimension
  0
DIMENSION
  5
5A0
100
AcDbEntity
  8
L1_115
  6
CONTINUOUS
 62
         4
100
AcDbDimension
  2
*D24
 10
1441.0583403763
 20
22.5276946084
 30
0.0
 11
1449.4283403763
 21
25.6596946084
 31
0.0
  3
DIMSTYLE1
100
AcDbAlignedDimension
 13
1441.0583403763
 23
16.0566652593
 33
0.0
 14
1469.0483403763
 24
16.0566652593
 34
0.0
100
AcDbRotatedDimension
  0
DIMENSION
  5
5AE
100
AcDbEntity
  8
L1_115
  6
CONTINUOUS
 62
         4
100
AcDbDimension
  2
*D25
 10
1506.0565824091
 20
4.5566652593
 30
0.0
 11
1504.0315824091
 21
-14.0997643509
 31
0.0
  3
DIMSTYLE1
100
AcDbAlignedDimension
 13
1431.1057015658
 23
4.5566652593
 33
0.0
 14
1431.1057015658
 24
-30.4433347407
 34
0.0
 50
90.0
100
AcDbRotatedDimension
  0
DIMENSION
  5
5BC
100
AcDbEntity
  8
L1_115
  6
CONTINUOUS
 62
         4
100
AcDbDimension
  2
*D26
 10
1519.8871677832
 20
11.0566652593
 30
0.0
 11
1517.8621677832
 21
-20.3134223664
 31
0.0
  3
DIMSTYLE1
100
AcDbAlignedDimension
 13
1484.9033403763
 23
11.0566652593
 33
0.0
 14
1484.9033403763
 24
-36.9433347407
 34
0.0
 50
90.0
100
AcDbRotatedDimension
  0
DIMENSION
  5
5CA
100
AcDbEntity
  8
L1_115
  6
CONTINUOUS
 62
         4
100
AcDbDimension
  2
*D27
 10
1441.1505054696
 20
155.1346417294
 30
0.0
 11
1438.0185054696
 21
98.9374013793
 31
0.0
  3
DIMSTYLE1
100
AcDbAlignedDimension
 13
1446.0083403763
 23
155.1346417294
 33
0.0
 14
1446.0083403763
 24
145.2346417294
 34
0.0
 50
90.0
100
AcDbRotatedDimension
  0
DIMENSION
  5
5D9
100
AcDbEntity
  8
L1_115
  6
CONTINUOUS
 62
         4
100
AcDbDimension
  2
*D28
 10
1485.1033403763
 20
100.5306055178
 30
0.0
 11
1456.2473021024
 21
103.6626055178
 31
0.0
  3
DIMSTYLE1
100
AcDbAlignedDimension
 13
1485.1033403763
 23
125.8001117832
 33
0.0
 14
1446.0083403763
 24
142.3499119489
 34
0.0
100
AcDbRotatedDimension
  0
DIMENSION
  5
5E7
100
AcDbEntity
  8
L1_115
  6
CONTINUOUS
 62
         4
100
AcDbDimension
  2
*D29
 10
1464.0983403763
 20
110.4110370841
 30
0.0
 11
1467.8223564215
 21
113.5430370841
 31
0.0
  3
DIMSTYLE1
100
AcDbAlignedDimension
 13
1464.0983403763
 23
142.3499119521
 33
0.0
 14
1485.1033403763
 24
125.8001117832
 34
0.0
100
AcDbRotatedDimension
  0
DIMENSION
  5
5F5
100
AcDbEntity
  8
L1_115
  6
CONTINUOUS
 62
         4
100
AcDbDimension
  2
*D30
 10
1516.3247483741
 20
179.1846417294
 30
0.0
 11
1513.1927483741
 21
144.1021067257
 31
0.0
  3
DIMSTYLE1
100
AcDbAlignedDimension
 13
1476.6432133573
 23
179.1846417294
 33
0.0
 14
1476.1033403763
 24
121.1846417294
 34
0.0
 50
90.0
100
AcDbRotatedDimension
  0
DIMENSION
  5
603
100
AcDbEntity
  8
L1_115
  6
CONTINUOUS
 62
         4
100
AcDbDimension
  2
*D31
 10
1474.1033403763
 20
193.3621388287
 30
0.0
 11
1461.7637979098
 21
196.4941388287
 31
0.0
  3
DIMSTYLE1
100
AcDbAlignedDimension
 13
1474.1033403763
 23
179.1846417294
 33
0.0
 14
1476.1033403763
 24
179.1846417294
 34
0.0
100
AcDbRotatedDimension
  0
DIMENSION
  5
613
100
AcDbEntity
  8
L1_115
  6
CONTINUOUS
 62
         4
100
AcDbDimension
  2
*D32
 10
1485.1033403763
 20
200.1269903782
 30
0.0
 11
1470.093585493
 21
203.2589903782
 31
0.0
  3
DIMSTYLE1
100
AcDbAlignedDimension
 13
1485.1033403763
 23
174.5691716756
 33
0.0
 14
1474.1033403763
 24
179.1846417294
 34
0.0
100
AcDbRotatedDimension
  0
DIMENSION
  5
622
100
AcDbEntity
  8
L1_115
  6
CONTINUOUS
 62
         4
100
AcDbDimension
  2
*D33
 10
1485.1033403763
 20
208.256856565
 30
0.0
 11
1451.8524694299
 21
211.388856565
 31
0.0
  3
DIMSTYLE1
100
AcDbAlignedDimension
 13
1485.1033403763
 23
174.5691716756
 33
0.0
 14
1434.1033403763
 24
180.6846417294
 34
0.0
100
AcDbRotatedDimension
  0
TEXT
  5
62F
100
AcDbEntity
  8
L1_115
  6
CONTINUOUS
 62
         2
100
AcDbText
 10
1723.8839358596
 20
206.5077517653
 30
0.0
 40
4.5
  1
532268
 41
0.98
  7
BOX
100
AcDbText
  0
ENDSEC
  0
SECTION
  2
OBJECTS
  0
DICTIONARY
  5
19
100
AcDbDictionary
  3
ACAD_GROUP
350
1A
  3
ACAD_MLINESTYLE
350
1B
  0
DICTIONARY
  5
1A
102
{ACAD_REACTORS
330
19
102
}
100
AcDbDictionary
  0
DICTIONARY
  5
1B
102
{ACAD_REACTORS
330
19
102
}
100
AcDbDictionary
  3
STANDARD
350
1C
  0
MLINESTYLE
  5
1C
102
{ACAD_REACTORS
330
1B
102
}
100
AcDbMlineStyle
  2
STANDARD
 70
         0
  3

 62
         0
 51
90.0
 52
90.0
 71
         2
 49
0.5
 62
       256
  6
BYLAYER
 49
-0.5
 62
       256
  6
BYLAYER
  0
ENDSEC
  0
EOF
