  0
SECTION
  2
HEADER
  9
$ACADVER
  1
AC1014
  9
$ACADMAINTVER
 70
         0
  9
$DWGCODEPAGE
  3
BIG5
  9
$INSBASE
 10
0.0
 20
0.0
 30
0.0
  9
$EXTMIN
 10
1076.1856166227
 20
-319.6863130025
 30
0.0
  9
$EXTMAX
 10
2199.1152640554
 20
246.4599850639
 30
0.0
  9
$LIMMIN
 10
0.0
 20
0.0
  9
$LIMMAX
 10
0.0
 20
0.0
  9
$ORTHOMODE
 70
         0
  9
$REGENMODE
 70
         1
  9
$FILLMODE
 70
         1
  9
$QTEXTMODE
 70
         0
  9
$MIRRTEXT
 70
         1
  9
$DRAGMODE
 70
         2
  9
$LTSCALE
 40
1.0
  9
$OSMODE
 70
         0
  9
$ATTMODE
 70
         1
  9
$TEXTSIZE
 40
6.5
  9
$TRACEWID
 40
0.05
  9
$TEXTSTYLE
  7
STANDARD
  9
$CLAYER
  8
0
  9
$CELTYPE
  6
CONTINUOUS
  9
$CECOLOR
 62
         4
  9
$CELTSCALE
 40
1.0
  9
$DELOBJ
 70
         1
  9
$DISPSILH
 70
         0
  9
$DIMSCALE
 40
1.0
  9
$DIMASZ
 40
0.18
  9
$DIMEXO
 40
0.0625
  9
$DIMDLI
 40
0.38
  9
$DIMRND
 40
0.0
  9
$DIMDLE
 40
0.0
  9
$DIMEXE
 40
0.25
  9
$DIMTP
 40
0.01
  9
$DIMTM
 40
-0.01
  9
$DIMTXT
 40
3.5
  9
$DIMCEN
 40
0.09
  9
$DIMTSZ
 40
0.0
  9
$DIMTOL
 70
         0
  9
$DIMLIM
 70
         0
  9
$DIMTIH
 70
         1
  9
$DIMTOH
 70
         1
  9
$DIMSE1
 70
         0
  9
$DIMSE2
 70
         0
  9
$DIMTAD
 70
         0
  9
$DIMZIN
 70
         0
  9
$DIMBLK
  1

  9
$DIMASO
 70
         1
  9
$DIMSHO
 70
         1
  9
$DIMPOST
  1

  9
$DIMAPOST
  1

  9
$DIMALT
 70
         0
  9
$DIMALTD
 70
         2
  9
$DIMALTF
 40
25.4
  9
$DIMLFAC
 40
1.0
  9
$DIMTOFL
 70
         0
  9
$DIMTVP
 40
0.0
  9
$DIMTIX
 70
         0
  9
$DIMSOXD
 70
         0
  9
$DIMSAH
 70
         0
  9
$DIMBLK1
  1

  9
$DIMBLK2
  1

  9
$DIMSTYLE
  2
STANDARD
  9
$DIMCLRD
 70
         0
  9
$DIMCLRE
 70
         0
  9
$DIMCLRT
 70
         4
  9
$DIMTFAC
 40
1.0
  9
$DIMGAP
 40
0.09
  9
$DIMJUST
 70
         0
  9
$DIMSD1
 70
         0
  9
$DIMSD2
 70
         0
  9
$DIMTOLJ
 70
         1
  9
$DIMTZIN
 70
         0
  9
$DIMALTZ
 70
         0
  9
$DIMALTTZ
 70
         0
  9
$DIMFIT
 70
         3
  9
$DIMUPT
 70
         0
  9
$DIMUNIT
 70
         2
  9
$DIMDEC
 70
         4
  9
$DIMTDEC
 70
         4
  9
$DIMALTU
 70
         2
  9
$DIMALTTD
 70
         2
  9
$DIMTXSTY
  7
STANDARD
  9
$DIMAUNIT
 70
         0
  9
$LUNITS
 70
         2
  9
$LUPREC
 70
        10
  9
$SKETCHINC
 40
0.1
  9
$FILLETRAD
 40
0.0
  9
$AUNITS
 70
         0
  9
$AUPREC
 70
         0
  9
$MENU
  1
acad
  9
$ELEVATION
 40
0.0
  9
$PELEVATION
 40
0.0
  9
$THICKNESS
 40
0.0
  9
$LIMCHECK
 70
         0
  9
$BLIPMODE
 70
         1
  9
$CHAMFERA
 40
0.0
  9
$CHAMFERB
 40
0.0
  9
$CHAMFERC
 40
0.0
  9
$CHAMFERD
 40
0.0
  9
$SKPOLY
 70
         0
  9
$TDCREATE
 40
0.000000000
  9
$TDUPDATE
 40
0.000000000
  9
$TDINDWG
 40
0.0000000000
  9
$TDUSRTIMER
 40
0.0000000000
  9
$USRTIMER
 70
         1
  9
$ANGBASE
 50
0.0
  9
$ANGDIR
 70
         0
  9
$PDMODE
 70
         2
  9
$PDSIZE
 40
0.0
  9
$PLINEWID
 40
0.0
  9
$COORDS
 70
         1
  9
$SPLFRAME
 70
         0
  9
$SPLINETYPE
 70
         6
  9
$SPLINESEGS
 70
         8
  9
$ATTDIA
 70
         0
  9
$ATTREQ
 70
         1
  9
$HANDLING
 70
         1
  9
$HANDSEED
  5
654
  9
$SURFTAB1
 70
         6
  9
$SURFTAB2
 70
         6
  9
$SURFTYPE
 70
         6
  9
$SURFU
 70
         6
  9
$SURFV
 70
         6
  9
$UCSNAME
  2

  9
$UCSORG
 10
0.0
 20
0.0
 30
0.0
  9
$UCSXDIR
 10
1.0
 20
0.0
 30
0.0
  9
$UCSYDIR
 10
0.0
 20
1.0
 30
0.0
  9
$PUCSNAME
  2

  9
$PUCSORG
 10
0.0
 20
0.0
 30
0.0
  9
$PUCSXDIR
 10
1.0
 20
0.0
 30
0.0
  9
$PUCSYDIR
 10
0.0
 20
1.0
 30
0.0
  9
$USERI1
 70
         0
  9
$USERI2
 70
         0
  9
$USERI3
 70
         0
  9
$USERI4
 70
         0
  9
$USERI5
 70
         0
  9
$USERR1
 40
0.0
  9
$USERR2
 40
0.0
  9
$USERR3
 40
0.0
  9
$USERR4
 40
0.0
  9
$USERR5
 40
0.0
  9
$WORLDVIEW
 70
         1
  9
$SHADEDGE
 70
         3
  9
$SHADEDIF
 70
        70
  9
$TILEMODE
 70
         1
  9
$MAXACTVP
 70
        16
  9
$PINSBASE
 10
0.0
 20
0.0
 30
0.0
  9
$PLIMCHECK
 70
         0
  9
$PEXTMIN
 10
1.0000000000E+20
 20
1.0000000000E+20
 30
1.0000000000E+20
  9
$PEXTMAX
 10
-1.0000000000E+20
 20
-1.0000000000E+20
 30
-1.0000000000E+20
  9
$PLIMMIN
 10
0.0
 20
0.0
  9
$PLIMMAX
 10
12.0
 20
9.0
  9
$UNITMODE
 70
         0
  9
$VISRETAIN
 70
         0
  9
$PLINEGEN
 70
         1
  9
$PSLTSCALE
 70
         0
  9
$TREEDEPTH
 70
      3020
  9
$PICKSTYLE
 70
         1
  9
$CMLSTYLE
  2
STANDARD
  9
$CMLJUST
 70
         0
  9
$CMLSCALE
 40
1.0
  9
$PROXYGRAPHICS
 70
         0
  9
$MEASUREMENT
 70
         0
  0
ENDSEC
  0
SECTION
  2
CLASSES
  0
CLASS
  1
LWPOLYLINE
  2
AcDbPolyline
  3
"AutoCAD"
 90
        0
280
         0
281
         1
  0
CLASS
  1
IMAGE
  2
AcDbRasterImage
  3
ISM
 90
      127
280
         0
281
         1
  0
CLASS
  1
OLE2FRAME
  2
AcDbOle2Frame
  3
""
 90
        0
280
         0
281
         1
  0
CLASS
  1
HATCH
  2
AcDbHatch
  3
"ACAD_SEDONA"
 90
        0
280
         0
281
         1
  0
CLASS
  1
DICTIONARYVAR
  2
AcDbDictionaryVar
  3
"AutoCAD"
 90
        0
280
         0
281
         0
  0
CLASS
  1
RASTERVARIABLES
  2
AcDbRasterVariables
  3
ISM
 90
        0
280
         0
281
         0
  0
CLASS
  1
IMAGEDEF
  2
AcDbRasterImageDef
  3
ISM
 90
        0
280
         0
281
         0
  0
CLASS
  1
IMAGEDEF_REACTOR
  2
AcDbRasterImageDefReactor
  3
ISM
 90
        1
280
         0
281
         0
  0
CLASS
  1
IDBUFFER
  2
AcDbIdBuffer
  3
"Acad"
 90
        0
280
         0
281
         0
  0
CLASS
  1
SPATIAL_FILTER
  2
AcDbSpatialFilter
  3
"Acad"
 90
        0
280
         0
281
         0
  0
CLASS
  1
XRECORD
  2
AcDbXrecord
  3
"<Built In>"
 90
        0
280
         0
281
         0
  0
CLASS
  1
SORTENTSTABLE
  2
AcDbSortentsTable
  3
"AutoCAD"
 90
        0
280
         0
281
         0
  0
CLASS
  1
LAYER_INDEX
  2
AcDbLayerIndex
  3
"Acad"
 90
        0
280
         0
281
         0
  0
CLASS
  1
SPATIAL_INDEX
  2
AcDbSpatialIndex
  3
"Acad"
 90
        0
280
         0
281
         0
  0
CLASS
  1
OBJECT_PTR
  2
CAseDLPNTableRecord
  3
"ASE-LPNTableRecord"
 90
        1
280
         0
281
         0
  0
CLASS
  1
LAYOUT
  2
AcDbLayout
  3
"AutoCAD 2000"
 90
        1
280
         0
281
         0
  0
CLASS
  1
PLOTSETTINGS
  2
AcDbPlotSettings
  3
"AutoCAD 2000"
 90
        1
280
         0
281
         0
  0
CLASS
  1
ACDBDICTIONARYWDFLT
  2
AcDbDictionaryWithDefault
  3
"AutoCAD 2000"
 90
        1
280
         0
281
         0
  0
CLASS
  1
ACDBPLACEHOLDER
  2
AcDbPlaceHolder
  3
"AutoCAD 2000"
 90
        1
280
         0
281
         0
  0
CLASS
  1
VBA_PROJECT
  2
AcDbVbaProject
  3
"acadvba"
 90
        1
280
         0
281
         0
  0
CLASS
  1
WIPEOUT
  2
AcDbWipeout
  3
WipeOut|AutoCAD Express Tool|expresstools@autodesk.com
 90
      127
280
         0
281
         1
  0
CLASS
  1
WIPEOUTVARIABLES
  2
AcDbWipeoutVariables
  3
WipeOut|AutoCAD Express Tool|expresstools@autodesk.com
 90
        0
280
         0
281
         0
  0
CLASS
  1
RTEXT
  2
RText
  3
RText|AutoCAD Express Tool|expresstools@autodesk.com
 90
        0
280
         0
281
         1
  0
CLASS
  1
ARCALIGNEDTEXT
  2
AcDbArcAlignedText
  3
ATEXT|AutoCAD Express Tool|expresstools@autodesk.com
 90
        0
280
         0
281
         1
  0
ENDSEC
  0
SECTION
  2
TABLES
  0
TABLE
  2
VPORT
  5
7
100
AcDbSymbolTable
 70
         1
  0
VPORT
  5
15
100
AcDbSymbolTableRecord
100
AcDbViewportTableRecord
  2
*ACTIVE
 70
         0
 10
0.0
 20
0.0
 11
1.0
 21
1.0
 12
1637.6504403391
 22
-36.6131639693
 13
0.0
 23
0.0
 14
1.0
 24
1.0
 15
0.0
 25
0.0
 16
0.0
 26
0.0
 36
1.0
 17
0.0
 27
0.0
 37
0.0
 40
566.1462980664
 41
1.9834619625
 42
50.0
 43
0.0
 44
0.0
 50
0.0
 51
0.0
 71
         0
 72
       100
 73
         1
 74
         1
 75
         0
 76
         0
 77
         0
 78
         0
  0
ENDTAB
  0
TABLE
  2
LTYPE
  5
4
100
AcDbSymbolTable
 70
         6
  0
LTYPE
  5
11
100
AcDbSymbolTableRecord
100
AcDbLinetypeTableRecord
  2
BYBLOCK
 70
        64
  3

 72
        65
 73
         0
 40
0.0
  0
LTYPE
  5
12
100
AcDbSymbolTableRecord
100
AcDbLinetypeTableRecord
  2
BYLAYER
 70
        64
  3

 72
        65
 73
         0
 40
0.0
  0
LTYPE
  5
13
100
AcDbSymbolTableRecord
100
AcDbLinetypeTableRecord
  2
CONTINUOUS
 70
        64
  3
Solid line
 72
        65
 73
         0
 40
0.0
  0
LTYPE
  5
1D
100
AcDbSymbolTableRecord
100
AcDbLinetypeTableRecord
  2
DASHED
 70
        64
  3
_ _ _ _ _ _ _ _ _ _ _ _ _ _ _ _
 72
        65
 73
         2
 40
0.2
 49
0.1
 74
         0
 49
-0.1
 74
         0
  0
LTYPE
  5
1E
100
AcDbSymbolTableRecord
100
AcDbLinetypeTableRecord
  2
CENTER
 70
        64
  3
___ _ ___ _ ___ _ ___ _ ___ _ ___ _ ___ _ ___ _
 72
        65
 73
         4
 40
0.95
 49
0.625
 74
         0
 49
-0.125
 74
         0
 49
0.075
 74
         0
 49
-0.125
 74
         0
  0
LTYPE
  5
1F
100
AcDbSymbolTableRecord
100
AcDbLinetypeTableRecord
  2
PHANTOM
 70
        64
  3
______  __  __  ______  __  __  ______  __  __  
 72
        65
 73
         6
 40
1.025
 49
0.625
 74
         0
 49
-0.125
 74
         0
 49
0.075
 74
         0
 49
-0.125
 74
         0
 49
0.075
 74
         0
 49
-0.125
 74
         0
  0
ENDTAB
  0
TABLE
  2
LAYER
  5
2
100
AcDbSymbolTable
 70
         7
  0
LAYER
  5
14
100
AcDbSymbolTableRecord
100
AcDbLayerTableRecord
  2
0
 70
         0
 62
         7
  6
CONTINUOUS
  0
LAYER
  5
21
100
AcDbSymbolTableRecord
100
AcDbLayerTableRecord
  2
_____U
 70
         1
 62
         7
  6
CONTINUOUS
  0
LAYER
  5
22
100
AcDbSymbolTableRecord
100
AcDbLayerTableRecord
  2
_____T______
 70
         1
 62
         7
  6
CONTINUOUS
  0
LAYER
  5
23
100
AcDbSymbolTableRecord
100
AcDbLayerTableRecord
  2
_Y__________
 70
         0
 62
         7
  6
CONTINUOUS
  0
LAYER
  5
24
100
AcDbSymbolTableRecord
100
AcDbLayerTableRecord
  2
_X______
 70
         0
 62
         7
  6
CONTINUOUS
  0
LAYER
  5
25
100
AcDbSymbolTableRecord
100
AcDbLayerTableRecord
  2
L1_
 70
         0
 62
         7
  6
CONTINUOUS
  0
LAYER
  5
2B
100
AcDbSymbolTableRecord
100
AcDbLayerTableRecord
  2
DEFPOINTS
 70
         0
 62
        -7
  6
CONTINUOUS
  0
ENDTAB
  0
TABLE
  2
STYLE
  5
3
100
AcDbSymbolTable
 70
        36
  0
STYLE
  5
17
100
AcDbSymbolTableRecord
100
AcDbTextStyleTableRecord
  2
STANDARD
 70
         0
 40
0.0
 41
1.0
 50
0.0
 71
         0
 42
0.0
  3
txt
  4

  0
STYLE
  5
34
100
AcDbSymbolTableRecord
100
AcDbTextStyleTableRecord
  2
BOX
 70
         0
 40
1.0
 41
1.0
 50
0.0
 71
         0
 42
0.2
  3
txt.shx
  4

  0
STYLE
  5
42
100
AcDbSymbolTableRecord
100
AcDbTextStyleTableRecord
  2
BOX
 70
         0
 40
1.0
 41
1.0
 50
0.0
 71
         0
 42
0.2
  3
txt.shx
  4

  0
STYLE
  5
62
100
AcDbSymbolTableRecord
100
AcDbTextStyleTableRecord
  2
BOX
 70
         0
 40
1.0
 41
1.0
 50
0.0
 71
         0
 42
0.2
  3
txt.shx
  4

  0
STYLE
  5
70
100
AcDbSymbolTableRecord
100
AcDbTextStyleTableRecord
  2
BOX
 70
         0
 40
1.0
 41
1.0
 50
0.0
 71
         0
 42
0.2
  3
txt.shx
  4

  0
STYLE
  5
7E
100
AcDbSymbolTableRecord
100
AcDbTextStyleTableRecord
  2
BOX
 70
         0
 40
1.0
 41
1.0
 50
0.0
 71
         0
 42
0.2
  3
txt.shx
  4

  0
STYLE
  5
8D
100
AcDbSymbolTableRecord
100
AcDbTextStyleTableRecord
  2
BOX
 70
         0
 40
1.0
 41
1.0
 50
0.0
 71
         0
 42
0.2
  3
txt.shx
  4

  0
STYLE
  5
98
100
AcDbSymbolTableRecord
100
AcDbTextStyleTableRecord
  2
BOX
 70
         0
 40
1.0
 41
1.0
 50
0.0
 71
         0
 42
0.2
  3
txt.shx
  4

  0
STYLE
  5
B3
100
AcDbSymbolTableRecord
100
AcDbTextStyleTableRecord
  2
BOX
 70
         0
 40
1.0
 41
1.0
 50
0.0
 71
         0
 42
0.2
  3
txt.shx
  4

  0
STYLE
  5
C1
100
AcDbSymbolTableRecord
100
AcDbTextStyleTableRecord
  2
BOX
 70
         0
 40
1.0
 41
1.0
 50
0.0
 71
         0
 42
0.2
  3
txt.shx
  4

  0
STYLE
  5
12F
100
AcDbSymbolTableRecord
100
AcDbTextStyleTableRecord
  2
BOX
 70
         0
 40
1.0
 41
1.0
 50
0.0
 71
         0
 42
0.2
  3
txt.shx
  4

  0
STYLE
  5
13D
100
AcDbSymbolTableRecord
100
AcDbTextStyleTableRecord
  2
BOX
 70
         0
 40
1.0
 41
1.0
 50
0.0
 71
         0
 42
0.2
  3
txt.shx
  4

  0
STYLE
  5
14B
100
AcDbSymbolTableRecord
100
AcDbTextStyleTableRecord
  2
BOX
 70
         0
 40
1.0
 41
1.0
 50
0.0
 71
         0
 42
0.2
  3
txt.shx
  4

  0
STYLE
  5
159
100
AcDbSymbolTableRecord
100
AcDbTextStyleTableRecord
  2
BOX
 70
         0
 40
1.0
 41
1.0
 50
0.0
 71
         0
 42
0.2
  3
txt.shx
  4

  0
STYLE
  5
167
100
AcDbSymbolTableRecord
100
AcDbTextStyleTableRecord
  2
BOX
 70
         0
 40
1.0
 41
1.0
 50
0.0
 71
         0
 42
0.2
  3
txt.shx
  4

  0
STYLE
  5
180
100
AcDbSymbolTableRecord
100
AcDbTextStyleTableRecord
  2
BOX
 70
         0
 40
1.0
 41
1.0
 50
0.0
 71
         0
 42
0.2
  3
txt.shx
  4

  0
STYLE
  5
405
100
AcDbSymbolTableRecord
100
AcDbTextStyleTableRecord
  2
BOX
 70
         0
 40
1.0
 41
1.0
 50
0.0
 71
         0
 42
0.2
  3
txt.shx
  4

  0
STYLE
  5
413
100
AcDbSymbolTableRecord
100
AcDbTextStyleTableRecord
  2
BOX
 70
         0
 40
1.0
 41
1.0
 50
0.0
 71
         0
 42
0.2
  3
txt.shx
  4

  0
STYLE
  5
43E
100
AcDbSymbolTableRecord
100
AcDbTextStyleTableRecord
  2
BOX
 70
         0
 40
1.0
 41
1.0
 50
0.0
 71
         0
 42
0.2
  3
txt.shx
  4

  0
STYLE
  5
457
100
AcDbSymbolTableRecord
100
AcDbTextStyleTableRecord
  2
BOX
 70
         0
 40
1.0
 41
1.0
 50
0.0
 71
         0
 42
0.2
  3
txt.shx
  4

  0
STYLE
  5
4C1
100
AcDbSymbolTableRecord
100
AcDbTextStyleTableRecord
  2
BOX
 70
         0
 40
1.0
 41
1.0
 50
0.0
 71
         0
 42
0.2
  3
txt.shx
  4

  0
STYLE
  5
587
100
AcDbSymbolTableRecord
100
AcDbTextStyleTableRecord
  2
BOX
 70
         0
 40
1.0
 41
1.0
 50
0.0
 71
         0
 42
0.2
  3
txt.shx
  4

  0
STYLE
  5
5A3
100
AcDbSymbolTableRecord
100
AcDbTextStyleTableRecord
  2
BOX
 70
         0
 40
1.0
 41
1.0
 50
0.0
 71
         0
 42
0.2
  3
txt.shx
  4

  0
STYLE
  5
5B1
100
AcDbSymbolTableRecord
100
AcDbTextStyleTableRecord
  2
BOX
 70
         0
 40
1.0
 41
1.0
 50
0.0
 71
         0
 42
0.2
  3
txt.shx
  4

  0
STYLE
  5
5BF
100
AcDbSymbolTableRecord
100
AcDbTextStyleTableRecord
  2
BOX
 70
         0
 40
1.0
 41
1.0
 50
0.0
 71
         0
 42
0.2
  3
txt.shx
  4

  0
STYLE
  5
5CD
100
AcDbSymbolTableRecord
100
AcDbTextStyleTableRecord
  2
BOX
 70
         0
 40
1.0
 41
1.0
 50
0.0
 71
         0
 42
0.2
  3
txt.shx
  4

  0
STYLE
  5
5DB
100
AcDbSymbolTableRecord
100
AcDbTextStyleTableRecord
  2
BOX
 70
         0
 40
1.0
 41
1.0
 50
0.0
 71
         0
 42
0.2
  3
txt.shx
  4

  0
STYLE
  5
5E9
100
AcDbSymbolTableRecord
100
AcDbTextStyleTableRecord
  2
BOX
 70
         0
 40
1.0
 41
1.0
 50
0.0
 71
         0
 42
0.2
  3
txt.shx
  4

  0
STYLE
  5
5F8
100
AcDbSymbolTableRecord
100
AcDbTextStyleTableRecord
  2
BOX
 70
         0
 40
1.0
 41
1.0
 50
0.0
 71
         0
 42
0.2
  3
txt.shx
  4

  0
STYLE
  5
608
100
AcDbSymbolTableRecord
100
AcDbTextStyleTableRecord
  2
BOX
 70
         0
 40
1.0
 41
1.0
 50
0.0
 71
         0
 42
0.2
  3
txt.shx
  4

  0
STYLE
  5
616
100
AcDbSymbolTableRecord
100
AcDbTextStyleTableRecord
  2
BOX
 70
         0
 40
1.0
 41
1.0
 50
0.0
 71
         0
 42
0.2
  3
txt.shx
  4

  0
STYLE
  5
624
100
AcDbSymbolTableRecord
100
AcDbTextStyleTableRecord
  2
BOX
 70
         0
 40
1.0
 41
1.0
 50
0.0
 71
         0
 42
0.2
  3
txt.shx
  4

  0
STYLE
  5
632
100
AcDbSymbolTableRecord
100
AcDbTextStyleTableRecord
  2
BOX
 70
         0
 40
1.0
 41
1.0
 50
0.0
 71
         0
 42
0.2
  3
txt.shx
  4

  0
STYLE
  5
640
100
AcDbSymbolTableRecord
100
AcDbTextStyleTableRecord
  2
BOX
 70
         0
 40
1.0
 41
1.0
 50
0.0
 71
         0
 42
0.2
  3
txt.shx
  4

  0
STYLE
  5
64F
100
AcDbSymbolTableRecord
100
AcDbTextStyleTableRecord
  2
BOX
 70
         0
 40
1.0
 41
1.0
 50
0.0
 71
         0
 42
0.2
  3
txt.shx
  4

  0
STYLE
  5
652
100
AcDbSymbolTableRecord
100
AcDbTextStyleTableRecord
  2
BOX
 70
         0
 40
1.0
 41
1.0
 50
0.0
 71
         0
 42
0.2
  3
txt.shx
  4

  0
ENDTAB
  0
TABLE
  2
VIEW
  5
5
100
AcDbSymbolTable
 70
         0
  0
ENDTAB
  0
TABLE
  2
UCS
  5
6
100
AcDbSymbolTable
 70
         1
  0
UCS
  5
20
100
AcDbSymbolTableRecord
100
AcDbUCSTableRecord
  2
CK_VIEW_1
 70
         0
 10
0.0
 20
0.0
 30
1.0
 11
1.0
 21
0.0
 31
0.0
 12
0.0
 22
1.0
 32
0.0
  0
ENDTAB
  0
TABLE
  2
APPID
  5
8
100
AcDbSymbolTable
 70
         1
  0
APPID
  5
16
100
AcDbSymbolTableRecord
100
AcDbRegAppTableRecord
  2
ACAD
 70
         0
  0
ENDTAB
  0
TABLE
  2
DIMSTYLE
  5
9
100
AcDbSymbolTable
 70
         3
  0
DIMSTYLE
105
18
100
AcDbSymbolTableRecord
100
AcDbDimStyleTableRecord
  2
STANDARD
 70
         0
  3

  4

  5

  6

  7

 40
1.0
 41
0.18
 42
0.0625
 43
0.38
 44
0.18
 45
0.0
 46
0.0
 47
0.0
 48
0.0
 71
         0
 72
         0
 73
         1
 74
         1
 75
         0
 76
         0
 77
         0
 78
         0
140
0.18
141
0.09
142
0.0
143
25.4
144
1.0
145
0.0
146
1.0
147
0.09
170
         0
171
         2
172
         0
173
         0
174
         0
175
         0
176
         0
177
         0
178
         0
270
         2
271
         4
272
         4
273
         2
274
         2
275
         0
280
         0
281
         0
282
         0
283
         1
284
         0
285
         0
286
         0
287
         0
288
         0
340
17
  0
DIMSTYLE
105
27
100
AcDbSymbolTableRecord
100
AcDbDimStyleTableRecord
  2
DIMSTYLE1
 70
         0
  3

  4

  5

  6

  7

 40
1.0
 41
3.24
 42
0.0625
 43
0.38
 44
3.24
 45
0.0
 46
0.0
 47
0.0
 48
0.0
 71
         0
 72
         0
 73
         1
 74
         1
 75
         0
 76
         0
 77
         0
 78
         0
140
3.24
141
0.09
142
0.0
143
25.4
144
1.0
145
0.0
146
1.0
147
0.09
170
         0
171
         2
172
         0
173
         0
174
         0
175
         0
176
         0
177
         0
178
         0
270
         2
271
         4
272
         4
273
         2
274
         2
275
         0
280
         0
281
         0
282
         0
283
         1
284
         0
285
         0
286
         0
287
         0
288
         0
340
17
  0
DIMSTYLE
105
3F9
100
AcDbSymbolTableRecord
100
AcDbDimStyleTableRecord
  2
DIMSTYLE2
 70
         0
  3

  4

  5

  6

  7

 40
1.0
 41
3.5
 42
0.0625
 43
0.38
 44
3.5
 45
0.0
 46
0.0
 47
0.0
 48
0.0
 71
         0
 72
         0
 73
         1
 74
         1
 75
         0
 76
         0
 77
         0
 78
         0
140
3.5
141
0.09
142
0.0
143
25.4
144
1.0
145
0.0
146
1.0
147
0.09
170
         0
171
         2
172
         0
173
         0
174
         0
175
         0
176
         0
177
         0
178
         0
270
         2
271
         4
272
         4
273
         2
274
         2
275
         0
280
         0
281
         0
282
         0
283
         1
284
         0
285
         0
286
         0
287
         0
288
         0
340
17
  0
ENDTAB
  0
TABLE
  2
BLOCK_RECORD
  5
1
100
AcDbSymbolTable
 70
        35
  0
BLOCK_RECORD
  5
A
100
AcDbSymbolTableRecord
100
AcDbBlockTableRecord
  2
*MODEL_SPACE
  0
BLOCK_RECORD
  5
B
100
AcDbSymbolTableRecord
100
AcDbBlockTableRecord
  2
*PAPER_SPACE
  0
BLOCK_RECORD
  5
28
100
AcDbSymbolTableRecord
100
AcDbBlockTableRecord
  2
*D0
  0
BLOCK_RECORD
  5
37
100
AcDbSymbolTableRecord
100
AcDbBlockTableRecord
  2
*D1
  0
BLOCK_RECORD
  5
57
100
AcDbSymbolTableRecord
100
AcDbBlockTableRecord
  2
*D2
  0
BLOCK_RECORD
  5
65
100
AcDbSymbolTableRecord
100
AcDbBlockTableRecord
  2
*D3
  0
BLOCK_RECORD
  5
73
100
AcDbSymbolTableRecord
100
AcDbBlockTableRecord
  2
*D4
  0
BLOCK_RECORD
  5
85
100
AcDbSymbolTableRecord
100
AcDbBlockTableRecord
  2
*D5
  0
BLOCK_RECORD
  5
90
100
AcDbSymbolTableRecord
100
AcDbBlockTableRecord
  2
*D6
  0
BLOCK_RECORD
  5
A8
100
AcDbSymbolTableRecord
100
AcDbBlockTableRecord
  2
*D7
  0
BLOCK_RECORD
  5
B6
100
AcDbSymbolTableRecord
100
AcDbBlockTableRecord
  2
*D8
  0
BLOCK_RECORD
  5
124
100
AcDbSymbolTableRecord
100
AcDbBlockTableRecord
  2
*D9
  0
BLOCK_RECORD
  5
132
100
AcDbSymbolTableRecord
100
AcDbBlockTableRecord
  2
*D10
  0
BLOCK_RECORD
  5
140
100
AcDbSymbolTableRecord
100
AcDbBlockTableRecord
  2
*D11
  0
BLOCK_RECORD
  5
14E
100
AcDbSymbolTableRecord
100
AcDbBlockTableRecord
  2
*D12
  0
BLOCK_RECORD
  5
15C
100
AcDbSymbolTableRecord
100
AcDbBlockTableRecord
  2
*D13
  0
BLOCK_RECORD
  5
175
100
AcDbSymbolTableRecord
100
AcDbBlockTableRecord
  2
*D14
  0
BLOCK_RECORD
  5
2E9
100
AcDbSymbolTableRecord
100
AcDbBlockTableRecord
  2
*X15
  0
BLOCK_RECORD
  5
3FA
100
AcDbSymbolTableRecord
100
AcDbBlockTableRecord
  2
*D16
  0
BLOCK_RECORD
  5
408
100
AcDbSymbolTableRecord
100
AcDbBlockTableRecord
  2
*D17
  0
BLOCK_RECORD
  5
433
100
AcDbSymbolTableRecord
100
AcDbBlockTableRecord
  2
*D18
  0
BLOCK_RECORD
  5
44C
100
AcDbSymbolTableRecord
100
AcDbBlockTableRecord
  2
*D19
  0
BLOCK_RECORD
  5
4B6
100
AcDbSymbolTableRecord
100
AcDbBlockTableRecord
  2
*D20
  0
BLOCK_RECORD
  5
57C
100
AcDbSymbolTableRecord
100
AcDbBlockTableRecord
  2
*D21
  0
BLOCK_RECORD
  5
598
100
AcDbSymbolTableRecord
100
AcDbBlockTableRecord
  2
*D22
  0
BLOCK_RECORD
  5
5A6
100
AcDbSymbolTableRecord
100
AcDbBlockTableRecord
  2
*D23
  0
BLOCK_RECORD
  5
5B4
100
AcDbSymbolTableRecord
100
AcDbBlockTableRecord
  2
*D24
  0
BLOCK_RECORD
  5
5C2
100
AcDbSymbolTableRecord
100
AcDbBlockTableRecord
  2
*D25
  0
BLOCK_RECORD
  5
5D0
100
AcDbSymbolTableRecord
100
AcDbBlockTableRecord
  2
*D26
  0
BLOCK_RECORD
  5
5DE
100
AcDbSymbolTableRecord
100
AcDbBlockTableRecord
  2
*D27
  0
BLOCK_RECORD
  5
5EC
100
AcDbSymbolTableRecord
100
AcDbBlockTableRecord
  2
*D28
  0
BLOCK_RECORD
  5
5FB
100
AcDbSymbolTableRecord
100
AcDbBlockTableRecord
  2
*D29
  0
BLOCK_RECORD
  5
60B
100
AcDbSymbolTableRecord
100
AcDbBlockTableRecord
  2
*D30
  0
BLOCK_RECORD
  5
619
100
AcDbSymbolTableRecord
100
AcDbBlockTableRecord
  2
*D31
  0
BLOCK_RECORD
  5
627
100
AcDbSymbolTableRecord
100
AcDbBlockTableRecord
  2
*D32
  0
BLOCK_RECORD
  5
635
100
AcDbSymbolTableRecord
100
AcDbBlockTableRecord
  2
*D33
  0
BLOCK_RECORD
  5
643
100
AcDbSymbolTableRecord
100
AcDbBlockTableRecord
  2
*D34
  0
ENDTAB
  0
ENDSEC
  0
SECTION
  2
BLOCKS
  0
BLOCK
  5
D
100
AcDbEntity
  8
0
100
AcDbBlockBegin
  2
*MODEL_SPACE
 70
         0
 10
0.0
 20
0.0
 30
0.0
  3
*MODEL_SPACE
  1

  0
ENDBLK
  5
E
100
AcDbEntity
  8
0
100
AcDbBlockEnd
  0
BLOCK
  5
F
100
AcDbEntity
 67
         1
  8
0
100
AcDbBlockBegin
  2
*PAPER_SPACE
 70
         0
 10
0.0
 20
0.0
 30
0.0
  3
*PAPER_SPACE
  1

  0
ENDBLK
  5
10
100
AcDbEntity
 67
         1
  8
0
100
AcDbBlockEnd
  0
BLOCK
  5
29
100
AcDbEntity
  8
0
100
AcDbBlockBegin
  2
*D0
 70
        65
 10
0.0
 20
0.0
 30
0.0
  3
*D0
  1

  0
POINT
  5
2C
100
AcDbEntity
  8
DEFPOINTS
  6
CONTINUOUS
 62
         0
100
AcDbPoint
 10
1829.7217501984
 20
-233.0523903631
 30
0.0
  0
POINT
  5
2D
100
AcDbEntity
  8
DEFPOINTS
  6
CONTINUOUS
 62
         0
100
AcDbPoint
 10
1817.5069359353
 20
-233.0523903631
 30
0.0
  0
POINT
  5
2E
100
AcDbEntity
  8
DEFPOINTS
  6
CONTINUOUS
 62
         0
100
AcDbPoint
 10
1817.5069359353
 20
-282.8523903631
 30
0.0
  0
LINE
  5
2F
100
AcDbEntity
  8
L1_
  6
CONTINUOUS
 62
         4
100
AcDbLine
 10
1819.1269359353
 20
-233.0523903631
 30
0.0
 11
1830.5317501984
 21
-233.0523903631
 31
0.0
  0
LINE
  5
30
100
AcDbEntity
  8
L1_
  6
CONTINUOUS
 62
         4
100
AcDbLine
 10
1819.1269359353
 20
-282.8523903631
 30
0.0
 11
1830.5317501984
 21
-282.8523903631
 31
0.0
  0
LINE
  5
31
100
AcDbEntity
  8
L1_
  6
CONTINUOUS
 62
         4
100
AcDbLine
 10
1829.7217501984
 20
-233.0523903631
 30
0.0
 11
1829.7217501984
 21
-282.8523903631
 31
0.0
  0
SOLID
  5
32
100
AcDbEntity
  8
L1_
  6
CONTINUOUS
 62
         4
100
AcDbTrace
 10
1829.7217501984
 20
-233.0523903631
 30
0.0
 11
1830.2077501984
 21
-236.2923903631
 31
0.0
 12
1829.2357501984
 22
-236.2923903631
 32
0.0
 13
1829.7217501984
 23
-233.0523903631
 33
0.0
  0
SOLID
  5
33
100
AcDbEntity
  8
L1_
  6
CONTINUOUS
 62
         4
100
AcDbTrace
 10
1829.7217501984
 20
-282.8523903631
 30
0.0
 11
1829.2357501984
 21
-279.6123903631
 31
0.0
 12
1830.2077501984
 22
-279.6123903631
 32
0.0
 13
1829.7217501984
 23
-282.8523903631
 33
0.0
  0
TEXT
  5
35
100
AcDbEntity
  8
L1_
  6
CONTINUOUS
 62
         4
100
AcDbText
 10
1827.2917501984
 20
-267.6723903631
 30
0.0
 40
3.24
  1
崷40.5
 50
90.0
  7
BOX
100
AcDbText
  0
ENDBLK
  5
36
100
AcDbEntity
  8
0
  6
CONTINUOUS
100
AcDbBlockEnd
  0
BLOCK
  5
38
100
AcDbEntity
  8
0
100
AcDbBlockBegin
  2
*D1
 70
        65
 10
0.0
 20
0.0
 30
0.0
  3
*D1
  1

  0
POINT
  5
3A
100
AcDbEntity
  8
DEFPOINTS
  6
CONTINUOUS
 62
         0
100
AcDbPoint
 10
1800.2117529206
 20
-238.4523903631
 30
0.0
  0
POINT
  5
3B
100
AcDbEntity
  8
DEFPOINTS
  6
CONTINUOUS
 62
         0
100
AcDbPoint
 10
1787.4574249827
 20
-238.4523903631
 30
0.0
  0
POINT
  5
3C
100
AcDbEntity
  8
DEFPOINTS
  6
CONTINUOUS
 62
         0
100
AcDbPoint
 10
1787.4574249827
 20
-277.4523903631
 30
0.0
  0
LINE
  5
3D
100
AcDbEntity
  8
L1_
  6
CONTINUOUS
 62
         4
100
AcDbLine
 10
1789.0774249827
 20
-238.4523903631
 30
0.0
 11
1801.0217529206
 21
-238.4523903631
 31
0.0
  0
LINE
  5
3E
100
AcDbEntity
  8
L1_
  6
CONTINUOUS
 62
         4
100
AcDbLine
 10
1789.0774249827
 20
-277.4523903631
 30
0.0
 11
1801.0217529206
 21
-277.4523903631
 31
0.0
  0
LINE
  5
3F
100
AcDbEntity
  8
L1_
  6
CONTINUOUS
 62
         4
100
AcDbLine
 10
1800.2117529206
 20
-238.4523903631
 30
0.0
 11
1800.2117529206
 21
-277.4523903631
 31
0.0
  0
SOLID
  5
40
100
AcDbEntity
  8
L1_
  6
CONTINUOUS
 62
         4
100
AcDbTrace
 10
1800.2117529206
 20
-238.4523903631
 30
0.0
 11
1800.6977529206
 21
-241.6923903631
 31
0.0
 12
1799.7257529206
 22
-241.6923903631
 32
0.0
 13
1800.2117529206
 23
-238.4523903631
 33
0.0
  0
SOLID
  5
41
100
AcDbEntity
  8
L1_
  6
CONTINUOUS
 62
         4
100
AcDbTrace
 10
1800.2117529206
 20
-277.4523903631
 30
0.0
 11
1799.7257529206
 21
-274.2123903631
 31
0.0
 12
1800.6977529206
 22
-274.2123903631
 32
0.0
 13
1800.2117529206
 23
-277.4523903631
 33
0.0
  0
TEXT
  5
43
100
AcDbEntity
  8
L1_
  6
CONTINUOUS
 62
         4
100
AcDbText
 10
1797.7817529206
 20
-267.6723903631
 30
0.0
 40
3.24
  1
崷33.5
 50
90.0
  7
BOX
100
AcDbText
  0
ENDBLK
  5
44
100
AcDbEntity
  8
0
  6
CONTINUOUS
100
AcDbBlockEnd
  0
BLOCK
  5
58
100
AcDbEntity
  8
0
100
AcDbBlockBegin
  2
*D2
 70
        65
 10
0.0
 20
0.0
 30
0.0
  3
*D2
  1

  0
POINT
  5
5A
100
AcDbEntity
  8
DEFPOINTS
  6
CONTINUOUS
 62
         0
100
AcDbPoint
 10
1725.1211370446
 20
-221.9523903631
 30
0.0
  0
POINT
  5
5B
100
AcDbEntity
  8
DEFPOINTS
  6
CONTINUOUS
 62
         0
100
AcDbPoint
 10
1710.0568964368
 20
-221.9523903631
 30
0.0
  0
POINT
  5
5C
100
AcDbEntity
  8
DEFPOINTS
  6
CONTINUOUS
 62
         0
100
AcDbPoint
 10
1710.0568964368
 20
-293.9523903631
 30
0.0
  0
LINE
  5
5D
100
AcDbEntity
  8
L1_
  6
CONTINUOUS
 62
         4
100
AcDbLine
 10
1711.6768964368
 20
-221.9523903631
 30
0.0
 11
1725.9311370446
 21
-221.9523903631
 31
0.0
  0
LINE
  5
5E
100
AcDbEntity
  8
L1_
  6
CONTINUOUS
 62
         4
100
AcDbLine
 10
1711.6768964368
 20
-293.9523903631
 30
0.0
 11
1725.9311370446
 21
-293.9523903631
 31
0.0
  0
LINE
  5
5F
100
AcDbEntity
  8
L1_
  6
CONTINUOUS
 62
         4
100
AcDbLine
 10
1725.1211370446
 20
-221.9523903631
 30
0.0
 11
1725.1211370446
 21
-293.9523903631
 31
0.0
  0
SOLID
  5
60
100
AcDbEntity
  8
L1_
  6
CONTINUOUS
 62
         4
100
AcDbTrace
 10
1725.1211370446
 20
-221.9523903631
 30
0.0
 11
1725.6071370446
 21
-225.1923903631
 31
0.0
 12
1724.6351370446
 22
-225.1923903631
 32
0.0
 13
1725.1211370446
 23
-221.9523903631
 33
0.0
  0
SOLID
  5
61
100
AcDbEntity
  8
L1_
  6
CONTINUOUS
 62
         4
100
AcDbTrace
 10
1725.1211370446
 20
-293.9523903631
 30
0.0
 11
1724.6351370446
 21
-290.7123903631
 31
0.0
 12
1725.6071370446
 22
-290.7123903631
 32
0.0
 13
1725.1211370446
 23
-293.9523903631
 33
0.0
  0
TEXT
  5
63
100
AcDbEntity
  8
L1_
  6
CONTINUOUS
 62
         4
100
AcDbText
 10
1722.6911370446
 20
-264.4323903631
 30
0.0
 40
3.24
  1
崷59
 50
90.0
  7
BOX
100
AcDbText
  0
ENDBLK
  5
64
100
AcDbEntity
  8
0
  6
CONTINUOUS
100
AcDbBlockEnd
  0
BLOCK
  5
66
100
AcDbEntity
  8
0
100
AcDbBlockBegin
  2
*D3
 70
        65
 10
0.0
 20
0.0
 30
0.0
  3
*D3
  1

  0
POINT
  5
68
100
AcDbEntity
  8
DEFPOINTS
  6
CONTINUOUS
 62
         0
100
AcDbPoint
 10
1760.6927926535
 20
-242.4123903631
 30
0.0
  0
POINT
  5
69
100
AcDbEntity
  8
DEFPOINTS
  6
CONTINUOUS
 62
         0
100
AcDbPoint
 10
1751.7143400336
 20
-242.4123903631
 30
0.0
  0
POINT
  5
6A
100
AcDbEntity
  8
DEFPOINTS
  6
CONTINUOUS
 62
         0
100
AcDbPoint
 10
1751.7143400336
 20
-273.4923903631
 30
0.0
  0
LINE
  5
6B
100
AcDbEntity
  8
L1_
  6
CONTINUOUS
 62
         4
100
AcDbLine
 10
1753.3343400336
 20
-242.4123903631
 30
0.0
 11
1761.5027926535
 21
-242.4123903631
 31
0.0
  0
LINE
  5
6C
100
AcDbEntity
  8
L1_
  6
CONTINUOUS
 62
         4
100
AcDbLine
 10
1753.3343400336
 20
-273.4923903631
 30
0.0
 11
1761.5027926535
 21
-273.4923903631
 31
0.0
  0
LINE
  5
6D
100
AcDbEntity
  8
L1_
  6
CONTINUOUS
 62
         4
100
AcDbLine
 10
1760.6927926535
 20
-242.4123903631
 30
0.0
 11
1760.6927926535
 21
-273.4923903631
 31
0.0
  0
SOLID
  5
6E
100
AcDbEntity
  8
L1_
  6
CONTINUOUS
 62
         4
100
AcDbTrace
 10
1760.6927926535
 20
-242.4123903631
 30
0.0
 11
1761.1787926535
 21
-245.6523903631
 31
0.0
 12
1760.2067926535
 22
-245.6523903631
 32
0.0
 13
1760.6927926535
 23
-242.4123903631
 33
0.0
  0
SOLID
  5
6F
100
AcDbEntity
  8
L1_
  6
CONTINUOUS
 62
         4
100
AcDbTrace
 10
1760.6927926535
 20
-273.4923903631
 30
0.0
 11
1760.2067926535
 21
-270.2523903631
 31
0.0
 12
1761.1787926535
 22
-270.2523903631
 32
0.0
 13
1760.6927926535
 23
-273.4923903631
 33
0.0
  0
TEXT
  5
71
100
AcDbEntity
  8
L1_
  6
CONTINUOUS
 62
         4
100
AcDbText
 10
1758.2627926535
 20
-264.4323903631
 30
0.0
 40
3.24
  1
崷26
 50
90.0
  7
BOX
100
AcDbText
  0
ENDBLK
  5
72
100
AcDbEntity
  8
0
  6
CONTINUOUS
100
AcDbBlockEnd
  0
BLOCK
  5
74
100
AcDbEntity
  8
0
100
AcDbBlockBegin
  2
*D4
 70
        65
 10
0.0
 20
0.0
 30
0.0
  3
*D4
  1

  0
POINT
  5
76
100
AcDbEntity
  8
DEFPOINTS
  6
CONTINUOUS
 62
         0
100
AcDbPoint
 10
1750.2743400336
 20
-235.8780286575
 30
0.0
  0
POINT
  5
77
100
AcDbEntity
  8
DEFPOINTS
  6
CONTINUOUS
 62
         0
100
AcDbPoint
 10
1750.2743400336
 20
-242.4123903631
 30
0.0
  0
POINT
  5
78
100
AcDbEntity
  8
DEFPOINTS
  6
CONTINUOUS
 62
         0
100
AcDbPoint
 10
1751.7143400336
 20
-242.4123903631
 30
0.0
  0
LINE
  5
79
100
AcDbEntity
  8
L1_
  6
CONTINUOUS
 62
         4
100
AcDbLine
 10
1750.2743400336
 20
-240.7923903631
 30
0.0
 11
1750.2743400336
 21
-235.0680286575
 31
0.0
  0
LINE
  5
7A
100
AcDbEntity
  8
L1_
  6
CONTINUOUS
 62
         4
100
AcDbLine
 10
1751.7143400336
 20
-240.7923903631
 30
0.0
 11
1751.7143400336
 21
-235.0680286575
 31
0.0
  0
LINE
  5
7B
100
AcDbEntity
  8
L1_
  6
CONTINUOUS
 62
         4
100
AcDbLine
 10
1750.2743400336
 20
-235.8780286575
 30
0.0
 11
1751.7143400336
 21
-235.8780286575
 31
0.0
  0
SOLID
  5
7C
100
AcDbEntity
  8
L1_
  6
CONTINUOUS
 62
         4
100
AcDbTrace
 10
1750.2743400336
 20
-235.8780286575
 30
0.0
 11
1753.5143400336
 21
-235.3920286575
 31
0.0
 12
1753.5143400336
 22
-236.3640286575
 32
0.0
 13
1750.2743400336
 23
-235.8780286575
 33
0.0
  0
SOLID
  5
7D
100
AcDbEntity
  8
L1_
  6
CONTINUOUS
 62
         4
100
AcDbTrace
 10
1751.7143400336
 20
-235.8780286575
 30
0.0
 11
1748.4743400336
 21
-236.3640286575
 31
0.0
 12
1748.4743400336
 22
-235.3920286575
 32
0.0
 13
1751.7143400336
 23
-235.8780286575
 33
0.0
  0
TEXT
  5
7F
100
AcDbEntity
  8
L1_
  6
CONTINUOUS
 62
         4
100
AcDbText
 10
1746.1343400336
 20
-233.4480286575
 30
0.0
 40
3.24
  1
1.2
  7
BOX
100
AcDbText
  0
ENDBLK
  5
80
100
AcDbEntity
  8
0
  6
CONTINUOUS
100
AcDbBlockEnd
  0
BLOCK
  5
86
100
AcDbEntity
  8
0
100
AcDbBlockBegin
  2
*D5
 70
        65
 10
0.0
 20
0.0
 30
0.0
  3
*D5
  1

  0
POINT
  5
88
100
AcDbEntity
  8
DEFPOINTS
  6
CONTINUOUS
 62
         0
100
AcDbPoint
 10
1853.7762958332
 20
-257.9523903631
 30
0.0
  0
POINT
  5
89
100
AcDbEntity
  8
DEFPOINTS
  6
CONTINUOUS
 62
         0
100
AcDbPoint
 10
1855.8894251746
 20
-254.7820931552
 30
0.0
  0
LINE
  5
8A
100
AcDbEntity
  8
L1_
  6
CONTINUOUS
 62
         4
100
AcDbLine
 10
1855.8894251746
 20
-254.7820931552
 30
0.0
 11
1853.7762958332
 21
-257.9523903631
 31
0.0
  0
LINE
  5
8B
100
AcDbEntity
  8
L1_
  6
CONTINUOUS
 62
         4
100
AcDbLine
 10
1855.8894251746
 20
-254.7820931552
 30
0.0
 11
1871.719675489
 21
-231.0321989152
 31
0.0
  0
SOLID
  5
8C
100
AcDbEntity
  8
L1_
  6
CONTINUOUS
 62
         4
100
AcDbTrace
 10
1855.8894251746
 20
-254.7820931552
 30
0.0
 11
1854.49683341
 21
-257.7476427126
 31
0.0
 12
1853.6880331775
 22
-257.2085451483
 32
0.0
 13
1855.8894251746
 23
-254.7820931552
 33
0.0
  0
TEXT
  5
8E
100
AcDbEntity
  8
L1_
  6
CONTINUOUS
 62
         4
100
AcDbText
 10
1858.9893780518
 20
-247.0464369796
 30
0.0
 40
3.24
  1
R3.175
 50
56.3149641695
  7
BOX
100
AcDbText
  0
ENDBLK
  5
8F
100
AcDbEntity
  8
0
  6
CONTINUOUS
100
AcDbBlockEnd
  0
BLOCK
  5
91
100
AcDbEntity
  8
0
100
AcDbBlockBegin
  2
*D6
 70
        65
 10
0.0
 20
0.0
 30
0.0
  3
*D6
  1

  0
POINT
  5
93
100
AcDbEntity
  8
DEFPOINTS
  6
CONTINUOUS
 62
         0
100
AcDbPoint
 10
1883.8477198186
 20
-257.9523903631
 30
0.0
  0
POINT
  5
94
100
AcDbEntity
  8
DEFPOINTS
  6
CONTINUOUS
 62
         0
100
AcDbPoint
 10
1888.5311464391
 20
-254.6772201246
 30
0.0
  0
LINE
  5
95
100
AcDbEntity
  8
L1_
  6
CONTINUOUS
 62
         4
100
AcDbLine
 10
1888.5311464391
 20
-254.6772201246
 30
0.0
 11
1883.8477198186
 21
-257.9523903631
 31
0.0
  0
LINE
  5
96
100
AcDbEntity
  8
L1_
  6
CONTINUOUS
 62
         4
100
AcDbLine
 10
1888.5311464391
 20
-254.6772201246
 30
0.0
 11
1905.2373382667
 21
-242.9944018153
 31
0.0
  0
SOLID
  5
97
100
AcDbEntity
  8
L1_
  6
CONTINUOUS
 62
         4
100
AcDbTrace
 10
1888.5311464391
 20
-254.6772201246
 30
0.0
 11
1886.1544938557
 21
-256.9322852008
 31
0.0
 12
1885.5974570277
 22
-256.1357339016
 32
0.0
 13
1888.5311464391
 23
-254.6772201246
 33
0.0
  0
TEXT
  5
99
100
AcDbEntity
  8
L1_
  6
CONTINUOUS
 62
         4
100
AcDbText
 10
1887.3999078572
 20
-253.4258338324
 30
0.0
 40
3.24
  1
R4.763
 50
34.965504684
  7
BOX
100
AcDbText
  0
ENDBLK
  5
9A
100
AcDbEntity
  8
0
  6
CONTINUOUS
100
AcDbBlockEnd
  0
BLOCK
  5
A9
100
AcDbEntity
  8
0
100
AcDbBlockBegin
  2
*D7
 70
        65
 10
0.0
 20
0.0
 30
0.0
  3
*D7
  1

  0
POINT
  5
AB
100
AcDbEntity
  8
DEFPOINTS
  6
CONTINUOUS
 62
         0
100
AcDbPoint
 10
1700.3523895124
 20
-135.6901829518
 30
0.0
  0
POINT
  5
AC
100
AcDbEntity
  8
DEFPOINTS
  6
CONTINUOUS
 62
         0
100
AcDbPoint
 10
1700.3523895124
 20
-165.175169037
 30
0.0
  0
POINT
  5
AD
100
AcDbEntity
  8
DEFPOINTS
  6
CONTINUOUS
 62
         0
100
AcDbPoint
 10
1768.4523895124
 20
-160.975169037
 30
0.0
  0
LINE
  5
AE
100
AcDbEntity
  8
L1_
  6
CONTINUOUS
 62
         4
100
AcDbLine
 10
1700.3523895124
 20
-163.555169037
 30
0.0
 11
1700.3523895124
 21
-134.8801829518
 31
0.0
  0
LINE
  5
AF
100
AcDbEntity
  8
L1_
  6
CONTINUOUS
 62
         4
100
AcDbLine
 10
1768.4523895124
 20
-159.355169037
 30
0.0
 11
1768.4523895124
 21
-134.8801829518
 31
0.0
  0
LINE
  5
B0
100
AcDbEntity
  8
L1_
  6
CONTINUOUS
 62
         4
100
AcDbLine
 10
1700.3523895124
 20
-135.6901829518
 30
0.0
 11
1768.4523895124
 21
-135.6901829518
 31
0.0
  0
SOLID
  5
B1
100
AcDbEntity
  8
L1_
  6
CONTINUOUS
 62
         4
100
AcDbTrace
 10
1700.3523895124
 20
-135.6901829518
 30
0.0
 11
1703.5923895124
 21
-135.2041829518
 31
0.0
 12
1703.5923895124
 22
-136.1761829518
 32
0.0
 13
1700.3523895124
 23
-135.6901829518
 33
0.0
  0
SOLID
  5
B2
100
AcDbEntity
  8
L1_
  6
CONTINUOUS
 62
         4
100
AcDbTrace
 10
1768.4523895124
 20
-135.6901829518
 30
0.0
 11
1765.2123895124
 21
-136.1761829518
 31
0.0
 12
1765.2123895124
 22
-135.2041829518
 32
0.0
 13
1768.4523895124
 23
-135.6901829518
 33
0.0
  0
TEXT
  5
B4
100
AcDbEntity
  8
L1_
  6
CONTINUOUS
 62
         4
100
AcDbText
 10
1725.4939093623
 20
-133.2601829518
 30
0.0
 40
3.24
  1
56.75
  7
BOX
100
AcDbText
  0
ENDBLK
  5
B5
100
AcDbEntity
  8
0
  6
CONTINUOUS
100
AcDbBlockEnd
  0
BLOCK
  5
B7
100
AcDbEntity
  8
0
100
AcDbBlockBegin
  2
*D8
 70
        65
 10
0.0
 20
0.0
 30
0.0
  3
*D8
  1

  0
POINT
  5
B9
100
AcDbEntity
  8
DEFPOINTS
  6
CONTINUOUS
 62
         0
100
AcDbPoint
 10
1777.2396844582
 20
-160.375169037
 30
0.0
  0
POINT
  5
BA
100
AcDbEntity
  8
DEFPOINTS
  6
CONTINUOUS
 62
         0
100
AcDbPoint
 10
1767.8523895124
 20
-160.375169037
 30
0.0
  0
POINT
  5
BB
100
AcDbEntity
  8
DEFPOINTS
  6
CONTINUOUS
 62
         0
100
AcDbPoint
 10
1767.8523895124
 20
-175.975169037
 30
0.0
  0
LINE
  5
BC
100
AcDbEntity
  8
L1_
  6
CONTINUOUS
 62
         4
100
AcDbLine
 10
1769.4723895124
 20
-160.375169037
 30
0.0
 11
1778.0496844582
 21
-160.375169037
 31
0.0
  0
LINE
  5
BD
100
AcDbEntity
  8
L1_
  6
CONTINUOUS
 62
         4
100
AcDbLine
 10
1769.4723895124
 20
-175.975169037
 30
0.0
 11
1778.0496844582
 21
-175.975169037
 31
0.0
  0
LINE
  5
BE
100
AcDbEntity
  8
L1_
  6
CONTINUOUS
 62
         4
100
AcDbLine
 10
1777.2396844582
 20
-160.375169037
 30
0.0
 11
1777.2396844582
 21
-175.975169037
 31
0.0
  0
SOLID
  5
BF
100
AcDbEntity
  8
L1_
  6
CONTINUOUS
 62
         4
100
AcDbTrace
 10
1777.2396844582
 20
-160.375169037
 30
0.0
 11
1777.7256844582
 21
-163.615169037
 31
0.0
 12
1776.7536844582
 22
-163.615169037
 32
0.0
 13
1777.2396844582
 23
-160.375169037
 33
0.0
  0
SOLID
  5
C0
100
AcDbEntity
  8
L1_
  6
CONTINUOUS
 62
         4
100
AcDbTrace
 10
1777.2396844582
 20
-175.975169037
 30
0.0
 11
1776.7536844582
 21
-172.735169037
 31
0.0
 12
1777.7256844582
 22
-172.735169037
 32
0.0
 13
1777.2396844582
 23
-175.975169037
 33
0.0
  0
TEXT
  5
C2
100
AcDbEntity
  8
L1_
  6
CONTINUOUS
 62
         4
100
AcDbText
 10
1774.8096844582
 20
-174.655169037
 30
0.0
 40
3.24
  1
崷13
 50
90.0
  7
BOX
100
AcDbText
  0
ENDBLK
  5
C3
100
AcDbEntity
  8
0
  6
CONTINUOUS
100
AcDbBlockEnd
  0
BLOCK
  5
125
100
AcDbEntity
  8
0
100
AcDbBlockBegin
  2
*D9
 70
        65
 10
0.0
 20
0.0
 30
0.0
  3
*D9
  1

  0
POINT
  5
127
100
AcDbEntity
  8
DEFPOINTS
  6
CONTINUOUS
 62
         0
100
AcDbPoint
 10
1929.1479278602
 20
-156.091169037
 30
0.0
  0
POINT
  5
128
100
AcDbEntity
  8
DEFPOINTS
  6
CONTINUOUS
 62
         0
100
AcDbPoint
 10
1940.8102060641
 20
-156.091169037
 30
0.0
  0
POINT
  5
129
100
AcDbEntity
  8
DEFPOINTS
  6
CONTINUOUS
 62
         0
100
AcDbPoint
 10
1939.1662060641
 20
-180.259169037
 30
0.0
  0
LINE
  5
12A
100
AcDbEntity
  8
L1_
  6
CONTINUOUS
 62
         4
100
AcDbLine
 10
1939.1902060641
 20
-156.091169037
 30
0.0
 11
1928.3379278602
 21
-156.091169037
 31
0.0
  0
LINE
  5
12B
100
AcDbEntity
  8
L1_
  6
CONTINUOUS
 62
         4
100
AcDbLine
 10
1937.5462060641
 20
-180.259169037
 30
0.0
 11
1928.3379278602
 21
-180.259169037
 31
0.0
  0
LINE
  5
12C
100
AcDbEntity
  8
L1_
  6
CONTINUOUS
 62
         4
100
AcDbLine
 10
1929.1479278602
 20
-156.091169037
 30
0.0
 11
1929.1479278602
 21
-180.259169037
 31
0.0
  0
SOLID
  5
12D
100
AcDbEntity
  8
L1_
  6
CONTINUOUS
 62
         4
100
AcDbTrace
 10
1929.1479278602
 20
-156.091169037
 30
0.0
 11
1929.6339278602
 21
-159.331169037
 31
0.0
 12
1928.6619278602
 22
-159.331169037
 32
0.0
 13
1929.1479278602
 23
-156.091169037
 33
0.0
  0
SOLID
  5
12E
100
AcDbEntity
  8
L1_
  6
CONTINUOUS
 62
         4
100
AcDbTrace
 10
1929.1479278602
 20
-180.259169037
 30
0.0
 11
1928.6619278602
 21
-177.019169037
 31
0.0
 12
1929.6339278602
 22
-177.019169037
 32
0.0
 13
1929.1479278602
 23
-180.259169037
 33
0.0
  0
TEXT
  5
130
100
AcDbEntity
  8
L1_
  6
CONTINUOUS
 62
         4
100
AcDbText
 10
1926.7179278602
 20
-174.655169037
 30
0.0
 40
3.24
  1
崷21
 50
90.0
  7
BOX
100
AcDbText
  0
ENDBLK
  5
131
100
AcDbEntity
  8
0
  6
CONTINUOUS
100
AcDbBlockEnd
  0
BLOCK
  5
133
100
AcDbEntity
  8
0
100
AcDbBlockBegin
  2
*D10
 70
        65
 10
0.0
 20
0.0
 30
0.0
  3
*D10
  1

  0
POINT
  5
135
100
AcDbEntity
  8
DEFPOINTS
  6
CONTINUOUS
 62
         0
100
AcDbPoint
 10
1874.8105398694
 20
-160.561169037
 30
0.0
  0
POINT
  5
136
100
AcDbEntity
  8
DEFPOINTS
  6
CONTINUOUS
 62
         0
100
AcDbPoint
 10
1883.6823699083
 20
-160.561169037
 30
0.0
  0
POINT
  5
137
100
AcDbEntity
  8
DEFPOINTS
  6
CONTINUOUS
 62
         0
100
AcDbPoint
 10
1881.9183699083
 20
-175.789169037
 30
0.0
  0
LINE
  5
138
100
AcDbEntity
  8
L1_
  6
CONTINUOUS
 62
         4
100
AcDbLine
 10
1882.0623699083
 20
-160.561169037
 30
0.0
 11
1874.0005398694
 21
-160.561169037
 31
0.0
  0
LINE
  5
139
100
AcDbEntity
  8
L1_
  6
CONTINUOUS
 62
         4
100
AcDbLine
 10
1880.2983699083
 20
-175.789169037
 30
0.0
 11
1874.0005398694
 21
-175.789169037
 31
0.0
  0
LINE
  5
13A
100
AcDbEntity
  8
L1_
  6
CONTINUOUS
 62
         4
100
AcDbLine
 10
1874.8105398694
 20
-160.561169037
 30
0.0
 11
1874.8105398694
 21
-175.789169037
 31
0.0
  0
SOLID
  5
13B
100
AcDbEntity
  8
L1_
  6
CONTINUOUS
 62
         4
100
AcDbTrace
 10
1874.8105398694
 20
-160.561169037
 30
0.0
 11
1875.2965398694
 21
-163.801169037
 31
0.0
 12
1874.3245398694
 22
-163.801169037
 32
0.0
 13
1874.8105398694
 23
-160.561169037
 33
0.0
  0
SOLID
  5
13C
100
AcDbEntity
  8
L1_
  6
CONTINUOUS
 62
         4
100
AcDbTrace
 10
1874.8105398694
 20
-175.789169037
 30
0.0
 11
1874.3245398694
 21
-172.549169037
 31
0.0
 12
1875.2965398694
 22
-172.549169037
 32
0.0
 13
1874.8105398694
 23
-175.789169037
 33
0.0
  0
TEXT
  5
13E
100
AcDbEntity
  8
L1_
  6
CONTINUOUS
 62
         4
100
AcDbText
 10
1872.3805398694
 20
-174.655169037
 30
0.0
 40
3.24
  1
崷12
 50
90.0
  7
BOX
100
AcDbText
  0
ENDBLK
  5
13F
100
AcDbEntity
  8
0
  6
CONTINUOUS
100
AcDbBlockEnd
  0
BLOCK
  5
141
100
AcDbEntity
  8
0
100
AcDbBlockBegin
  2
*D11
 70
        65
 10
0.0
 20
0.0
 30
0.0
  3
*D11
  1

  0
POINT
  5
143
100
AcDbEntity
  8
DEFPOINTS
  6
CONTINUOUS
 62
         0
100
AcDbPoint
 10
1841.9248531445
 20
-141.919169037
 30
0.0
  0
POINT
  5
144
100
AcDbEntity
  8
DEFPOINTS
  6
CONTINUOUS
 62
         0
100
AcDbPoint
 10
1850.1801224494
 20
-141.919169037
 30
0.0
  0
POINT
  5
145
100
AcDbEntity
  8
DEFPOINTS
  6
CONTINUOUS
 62
         0
100
AcDbPoint
 10
1848.0561224494
 20
-194.431169037
 30
0.0
  0
LINE
  5
146
100
AcDbEntity
  8
L1_
  6
CONTINUOUS
 62
         4
100
AcDbLine
 10
1848.5601224494
 20
-141.919169037
 30
0.0
 11
1841.1148531445
 21
-141.919169037
 31
0.0
  0
LINE
  5
147
100
AcDbEntity
  8
L1_
  6
CONTINUOUS
 62
         4
100
AcDbLine
 10
1846.4361224494
 20
-194.431169037
 30
0.0
 11
1841.1148531445
 21
-194.431169037
 31
0.0
  0
LINE
  5
148
100
AcDbEntity
  8
L1_
  6
CONTINUOUS
 62
         4
100
AcDbLine
 10
1841.9248531445
 20
-141.919169037
 30
0.0
 11
1841.9248531445
 21
-194.431169037
 31
0.0
  0
SOLID
  5
149
100
AcDbEntity
  8
L1_
  6
CONTINUOUS
 62
         4
100
AcDbTrace
 10
1841.9248531445
 20
-141.919169037
 30
0.0
 11
1842.4108531445
 21
-145.159169037
 31
0.0
 12
1841.4388531445
 22
-145.159169037
 32
0.0
 13
1841.9248531445
 23
-141.919169037
 33
0.0
  0
SOLID
  5
14A
100
AcDbEntity
  8
L1_
  6
CONTINUOUS
 62
         4
100
AcDbTrace
 10
1841.9248531445
 20
-194.431169037
 30
0.0
 11
1841.4388531445
 21
-191.191169037
 31
0.0
 12
1842.4108531445
 22
-191.191169037
 32
0.0
 13
1841.9248531445
 23
-194.431169037
 33
0.0
  0
TEXT
  5
14C
100
AcDbEntity
  8
L1_
  6
CONTINUOUS
 62
         4
100
AcDbText
 10
1839.4948531445
 20
-174.655169037
 30
0.0
 40
3.24
  1
崷44
 50
90.0
  7
BOX
100
AcDbText
  0
ENDBLK
  5
14D
100
AcDbEntity
  8
0
  6
CONTINUOUS
100
AcDbBlockEnd
  0
BLOCK
  5
14F
100
AcDbEntity
  8
0
100
AcDbBlockBegin
  2
*D12
 70
        65
 10
0.0
 20
0.0
 30
0.0
  3
*D12
  1

  0
POINT
  5
151
100
AcDbEntity
  8
DEFPOINTS
  6
CONTINUOUS
 62
         0
100
AcDbPoint
 10
1796.1200054622
 20
-154.153169037
 30
0.0
  0
POINT
  5
152
100
AcDbEntity
  8
DEFPOINTS
  6
CONTINUOUS
 62
         0
100
AcDbPoint
 10
1802.9761023422
 20
-154.153169037
 30
0.0
  0
POINT
  5
153
100
AcDbEntity
  8
DEFPOINTS
  6
CONTINUOUS
 62
         0
100
AcDbPoint
 10
1801.0921023422
 20
-182.197169037
 30
0.0
  0
LINE
  5
154
100
AcDbEntity
  8
L1_
  6
CONTINUOUS
 62
         4
100
AcDbLine
 10
1801.3561023422
 20
-154.153169037
 30
0.0
 11
1795.3100054622
 21
-154.153169037
 31
0.0
  0
LINE
  5
155
100
AcDbEntity
  8
L1_
  6
CONTINUOUS
 62
         4
100
AcDbLine
 10
1799.4721023422
 20
-182.197169037
 30
0.0
 11
1795.3100054622
 21
-182.197169037
 31
0.0
  0
LINE
  5
156
100
AcDbEntity
  8
L1_
  6
CONTINUOUS
 62
         4
100
AcDbLine
 10
1796.1200054622
 20
-154.153169037
 30
0.0
 11
1796.1200054622
 21
-182.197169037
 31
0.0
  0
SOLID
  5
157
100
AcDbEntity
  8
L1_
  6
CONTINUOUS
 62
         4
100
AcDbTrace
 10
1796.1200054622
 20
-154.153169037
 30
0.0
 11
1796.6060054622
 21
-157.393169037
 31
0.0
 12
1795.6340054622
 22
-157.393169037
 32
0.0
 13
1796.1200054622
 23
-154.153169037
 33
0.0
  0
SOLID
  5
158
100
AcDbEntity
  8
L1_
  6
CONTINUOUS
 62
         4
100
AcDbTrace
 10
1796.1200054622
 20
-182.197169037
 30
0.0
 11
1795.6340054622
 21
-178.957169037
 31
0.0
 12
1796.6060054622
 22
-178.957169037
 32
0.0
 13
1796.1200054622
 23
-182.197169037
 33
0.0
  0
TEXT
  5
15A
100
AcDbEntity
  8
L1_
  6
CONTINUOUS
 62
         4
100
AcDbText
 10
1793.6900054622
 20
-177.895169037
 30
0.0
 40
3.24
  1
崷23.5
 50
90.0
  7
BOX
100
AcDbText
  0
ENDBLK
  5
15B
100
AcDbEntity
  8
0
  6
CONTINUOUS
100
AcDbBlockEnd
  0
BLOCK
  5
15D
100
AcDbEntity
  8
0
100
AcDbBlockBegin
  2
*D13
 70
        65
 10
0.0
 20
0.0
 30
0.0
  3
*D13
  1

  0
POINT
  5
15F
100
AcDbEntity
  8
DEFPOINTS
  6
CONTINUOUS
 62
         0
100
AcDbPoint
 10
1693.3351078823
 20
-164.575169037
 30
0.0
  0
POINT
  5
160
100
AcDbEntity
  8
DEFPOINTS
  6
CONTINUOUS
 62
         0
100
AcDbPoint
 10
1700.9523895124
 20
-164.575169037
 30
0.0
  0
POINT
  5
161
100
AcDbEntity
  8
DEFPOINTS
  6
CONTINUOUS
 62
         0
100
AcDbPoint
 10
1700.9523895124
 20
-171.775169037
 30
0.0
  0
LINE
  5
162
100
AcDbEntity
  8
L1_
  6
CONTINUOUS
 62
         4
100
AcDbLine
 10
1699.3323895124
 20
-164.575169037
 30
0.0
 11
1692.5251078823
 21
-164.575169037
 31
0.0
  0
LINE
  5
163
100
AcDbEntity
  8
L1_
  6
CONTINUOUS
 62
         4
100
AcDbLine
 10
1699.3323895124
 20
-171.775169037
 30
0.0
 11
1692.5251078823
 21
-171.775169037
 31
0.0
  0
LINE
  5
164
100
AcDbEntity
  8
L1_
  6
CONTINUOUS
 62
         4
100
AcDbLine
 10
1693.3351078823
 20
-164.575169037
 30
0.0
 11
1693.3351078823
 21
-171.775169037
 31
0.0
  0
SOLID
  5
165
100
AcDbEntity
  8
L1_
  6
CONTINUOUS
 62
         4
100
AcDbTrace
 10
1693.3351078823
 20
-164.575169037
 30
0.0
 11
1693.8211078823
 21
-167.815169037
 31
0.0
 12
1692.8491078823
 22
-167.815169037
 32
0.0
 13
1693.3351078823
 23
-164.575169037
 33
0.0
  0
SOLID
  5
166
100
AcDbEntity
  8
L1_
  6
CONTINUOUS
 62
         4
100
AcDbTrace
 10
1693.3351078823
 20
-171.775169037
 30
0.0
 11
1692.8491078823
 21
-168.535169037
 31
0.0
 12
1693.8211078823
 22
-168.535169037
 32
0.0
 13
1693.3351078823
 23
-171.775169037
 33
0.0
  0
TEXT
  5
168
100
AcDbEntity
  8
L1_
  6
CONTINUOUS
 62
         4
100
AcDbText
 10
1690.9051078823
 20
-176.275169037
 30
0.0
 40
3.24
  1
M6xP1
 50
90.0
  7
BOX
100
AcDbText
  0
ENDBLK
  5
169
100
AcDbEntity
  8
0
  6
CONTINUOUS
100
AcDbBlockEnd
  0
BLOCK
  5
176
100
AcDbEntity
  8
0
100
AcDbBlockBegin
  2
*D14
 70
        65
 10
0.0
 20
0.0
 30
0.0
  3
*D14
  1

  0
POINT
  5
178
100
AcDbEntity
  8
DEFPOINTS
  6
CONTINUOUS
 62
         0
100
AcDbPoint
 10
1700.3523895124
 20
-146.6403419938
 30
0.0
  0
POINT
  5
179
100
AcDbEntity
  8
DEFPOINTS
  6
CONTINUOUS
 62
         0
100
AcDbPoint
 10
1700.3523895124
 20
-165.175169037
 30
0.0
  0
POINT
  5
17A
100
AcDbEntity
  8
DEFPOINTS
  6
CONTINUOUS
 62
         0
100
AcDbPoint
 10
1713.8523895124
 20
-164.575169037
 30
0.0
  0
LINE
  5
17B
100
AcDbEntity
  8
L1_
  6
CONTINUOUS
 62
         4
100
AcDbLine
 10
1700.3523895124
 20
-163.555169037
 30
0.0
 11
1700.3523895124
 21
-145.8303419938
 31
0.0
  0
LINE
  5
17C
100
AcDbEntity
  8
L1_
  6
CONTINUOUS
 62
         4
100
AcDbLine
 10
1713.8523895124
 20
-162.955169037
 30
0.0
 11
1713.8523895124
 21
-145.8303419938
 31
0.0
  0
LINE
  5
17D
100
AcDbEntity
  8
L1_
  6
CONTINUOUS
 62
         4
100
AcDbLine
 10
1700.3523895124
 20
-146.6403419938
 30
0.0
 11
1713.8523895124
 21
-146.6403419938
 31
0.0
  0
SOLID
  5
17E
100
AcDbEntity
  8
L1_
  6
CONTINUOUS
 62
         4
100
AcDbTrace
 10
1700.3523895124
 20
-146.6403419938
 30
0.0
 11
1703.5923895124
 21
-146.1543419938
 31
0.0
 12
1703.5923895124
 22
-147.1263419938
 32
0.0
 13
1700.3523895124
 23
-146.6403419938
 33
0.0
  0
SOLID
  5
17F
100
AcDbEntity
  8
L1_
  6
CONTINUOUS
 62
         4
100
AcDbTrace
 10
1713.8523895124
 20
-146.6403419938
 30
0.0
 11
1710.6123895124
 21
-147.1263419938
 31
0.0
 12
1710.6123895124
 22
-146.1543419938
 32
0.0
 13
1713.8523895124
 23
-146.6403419938
 33
0.0
  0
TEXT
  5
181
100
AcDbEntity
  8
L1_
  6
CONTINUOUS
 62
         4
100
AcDbText
 10
1701.5431649834
 20
-144.2103419938
 30
0.0
 40
3.24
  1
11.25
  7
BOX
100
AcDbText
  0
ENDBLK
  5
182
100
AcDbEntity
  8
0
  6
CONTINUOUS
100
AcDbBlockEnd
  0
BLOCK
  5
2EA
100
AcDbEntity
  8
0
100
AcDbBlockBegin
  2
*X15
 70
        65
 10
0.0
 20
0.0
 30
0.0
  3
*X15
  1

  0
LINE
  5
2EB
100
AcDbEntity
  8
L1_
  6
CONTINUOUS
 62
         4
100
AcDbLine
 10
1637.75587239
 20
-155.7400166132
 30
0.0
 11
1642.7243927089
 21
-150.7714962943
 31
0.0
  0
LINE
  5
2EC
100
AcDbEntity
  8
L1_
  6
CONTINUOUS
 62
         4
100
AcDbLine
 10
1634.5132317029
 20
-154.7400166132
 30
0.0
 11
1638.5132317029
 21
-150.7400166132
 31
0.0
  0
LINE
  5
2ED
100
AcDbEntity
  8
L1_
  6
CONTINUOUS
 62
         4
100
AcDbLine
 10
1629.2705910158
 20
-155.7400166132
 30
0.0
 11
1634.2705910158
 21
-150.7400166132
 31
0.0
  0
LINE
  5
2EE
100
AcDbEntity
  8
L1_
  6
CONTINUOUS
 62
         4
100
AcDbLine
 10
1625.0279503287
 20
-155.7400166132
 30
0.0
 11
1630.0279503287
 21
-150.7400166132
 31
0.0
  0
LINE
  5
2EF
100
AcDbEntity
  8
L1_
  6
CONTINUOUS
 62
         4
100
AcDbLine
 10
1620.7853096415
 20
-155.7400166132
 30
0.0
 11
1625.7853096415
 21
-150.7400166132
 31
0.0
  0
LINE
  5
2F0
100
AcDbEntity
  8
L1_
  6
CONTINUOUS
 62
         4
100
AcDbLine
 10
1616.5426689544
 20
-155.7400166132
 30
0.0
 11
1621.5426689544
 21
-150.7400166132
 31
0.0
  0
LINE
  5
2F1
100
AcDbEntity
  8
L1_
  6
CONTINUOUS
 62
         4
100
AcDbLine
 10
1612.3000282673
 20
-155.7400166132
 30
0.0
 11
1617.3000282673
 21
-150.7400166132
 31
0.0
  0
LINE
  5
2F2
100
AcDbEntity
  8
L1_
  6
CONTINUOUS
 62
         4
100
AcDbLine
 10
1608.0573875802
 20
-155.7400166132
 30
0.0
 11
1613.0573875802
 21
-150.7400166132
 31
0.0
  0
LINE
  5
2F3
100
AcDbEntity
  8
L1_
  6
CONTINUOUS
 62
         4
100
AcDbLine
 10
1603.8147468931
 20
-155.7400166132
 30
0.0
 11
1608.8147468931
 21
-150.7400166132
 31
0.0
  0
LINE
  5
2F4
100
AcDbEntity
  8
L1_
  6
CONTINUOUS
 62
         4
100
AcDbLine
 10
1599.572106206
 20
-155.7400166132
 30
0.0
 11
1604.572106206
 21
-150.7400166132
 31
0.0
  0
LINE
  5
2F5
100
AcDbEntity
  8
L1_
  6
CONTINUOUS
 62
         4
100
AcDbLine
 10
1595.4186999334
 20
-155.6507821986
 30
0.0
 11
1600.3294655188
 21
-150.7400166132
 31
0.0
  0
LINE
  5
2F6
100
AcDbEntity
  8
L1_
  6
CONTINUOUS
 62
         4
100
AcDbLine
 10
1588.5868248317
 20
-158.2400166132
 30
0.0
 11
1593.4186999334
 21
-153.4081415115
 31
0.0
  0
LINE
  5
2F7
100
AcDbEntity
  8
L1_
  6
CONTINUOUS
 62
         4
100
AcDbLine
 10
1595.4186999334
 20
-151.4081415115
 30
0.0
 11
1595.5868248317
 21
-151.2400166132
 31
0.0
  0
LINE
  5
2F8
100
AcDbEntity
  8
L1_
  6
CONTINUOUS
 62
         4
100
AcDbLine
 10
1595.9210611229
 20
-150.905780322
 30
0.0
 11
1596.0868248317
 21
-150.7400166132
 31
0.0
  0
LINE
  5
2F9
100
AcDbEntity
  8
L1_
  6
CONTINUOUS
 62
         4
100
AcDbLine
 10
1584.3441841446
 20
-158.2400166132
 30
0.0
 11
1591.4579065993
 21
-151.1262941585
 31
0.0
  0
LINE
  5
2FA
100
AcDbEntity
  8
L1_
  6
CONTINUOUS
 62
         4
100
AcDbLine
 10
1639.8441841446
 20
-102.7400166132
 30
0.0
 11
1643.2772748051
 21
-99.3069259527
 31
0.0
  0
LINE
  5
2FB
100
AcDbEntity
  8
L1_
  6
CONTINUOUS
 62
         4
100
AcDbLine
 10
1580.1015434575
 20
-158.2400166132
 30
0.0
 11
1590.9210611229
 21
-147.4204989478
 31
0.0
  0
LINE
  5
2FC
100
AcDbEntity
  8
L1_
  6
CONTINUOUS
 62
         4
100
AcDbLine
 10
1635.6015434575
 20
-102.7400166132
 30
0.0
 11
1640.1195284014
 21
-98.2220316693
 31
0.0
  0
LINE
  5
2FD
100
AcDbEntity
  8
L1_
  6
CONTINUOUS
 62
         4
100
AcDbLine
 10
1575.8589027704
 20
-158.2400166132
 30
0.0
 11
1589.8589027704
 21
-144.2400166132
 31
0.0
  0
LINE
  5
2FE
100
AcDbEntity
  8
L1_
  6
CONTINUOUS
 62
         4
100
AcDbLine
 10
1631.3589027704
 20
-102.7400166132
 30
0.0
 11
1636.3589027704
 21
-97.7400166132
 31
0.0
  0
LINE
  5
2FF
100
AcDbEntity
  8
L1_
  6
CONTINUOUS
 62
         4
100
AcDbLine
 10
1571.6162620832
 20
-158.2400166132
 30
0.0
 11
1585.6162620832
 21
-144.2400166132
 31
0.0
  0
LINE
  5
300
100
AcDbEntity
  8
L1_
  6
CONTINUOUS
 62
         4
100
AcDbLine
 10
1627.8636999334
 20
-101.992578763
 30
0.0
 11
1632.1162620832
 21
-97.7400166132
 31
0.0
  0
LINE
  5
301
100
AcDbEntity
  8
L1_
  6
CONTINUOUS
 62
         4
100
AcDbLine
 10
1567.3736213961
 20
-158.2400166132
 30
0.0
 11
1581.3736213961
 21
-144.2400166132
 31
0.0
  0
LINE
  5
302
100
AcDbEntity
  8
L1_
  6
CONTINUOUS
 62
         4
100
AcDbLine
 10
1627.8636999334
 20
-97.7499380759
 30
0.0
 11
1627.8736213961
 21
-97.7400166132
 31
0.0
  0
LINE
  5
303
100
AcDbEntity
  8
L1_
  6
CONTINUOUS
 62
         4
100
AcDbLine
 10
1563.130980709
 20
-158.2400166132
 30
0.0
 11
1577.130980709
 21
-144.2400166132
 31
0.0
  0
LINE
  5
304
100
AcDbEntity
  8
L1_
  6
CONTINUOUS
 62
         4
100
AcDbLine
 10
1540.3883400219
 20
-176.7400166132
 30
0.0
 11
1542.8786999334
 21
-174.2496567017
 31
0.0
  0
LINE
  5
305
100
AcDbEntity
  8
L1_
  6
CONTINUOUS
 62
         4
100
AcDbLine
 10
1558.8883400219
 20
-158.2400166132
 30
0.0
 11
1572.8883400219
 21
-144.2400166132
 31
0.0
  0
LINE
  5
306
100
AcDbEntity
  8
L1_
  6
CONTINUOUS
 62
         4
100
AcDbLine
 10
1536.1456993348
 20
-176.7400166132
 30
0.0
 11
1542.8786999334
 21
-170.0070160146
 31
0.0
  0
LINE
  5
307
100
AcDbEntity
  8
L1_
  6
CONTINUOUS
 62
         4
100
AcDbLine
 10
1554.6456993348
 20
-158.2400166132
 30
0.0
 11
1568.1456993348
 21
-144.7400166132
 31
0.0
  0
LINE
  5
308
100
AcDbEntity
  8
L1_
  6
CONTINUOUS
 62
         4
100
AcDbLine
 10
1534.2168942407
 20
-174.4261810202
 30
0.0
 11
1542.8786999334
 21
-165.7643753274
 31
0.0
  0
LINE
  5
309
100
AcDbEntity
  8
L1_
  6
CONTINUOUS
 62
         4
100
AcDbLine
 10
1550.4030586476
 20
-158.2400166132
 30
0.0
 11
1564.203815759
 21
-144.4392595018
 31
0.0
  0
LINE
  5
30A
100
AcDbEntity
  8
L1_
  6
CONTINUOUS
 62
         4
100
AcDbLine
 10
1532.6639799701
 20
-171.7364546037
 30
0.0
 11
1543.4167571365
 21
-160.9836774373
 31
0.0
  0
LINE
  5
30B
100
AcDbEntity
  8
L1_
  6
CONTINUOUS
 62
         4
100
AcDbLine
 10
1545.6223607575
 20
-158.7780738163
 30
0.0
 11
1563.9186999334
 21
-140.4817346403
 31
0.0
  0
LINE
  5
30C
100
AcDbEntity
  8
L1_
  6
CONTINUOUS
 62
         4
100
AcDbLine
 10
1530.9177772734
 20
-169.2400166132
 30
0.0
 11
1563.9186999334
 21
-136.2390939532
 31
0.0
  0
LINE
  5
30D
100
AcDbEntity
  8
L1_
  6
CONTINUOUS
 62
         4
100
AcDbLine
 10
1597.4177772734
 20
-102.7400166132
 30
0.0
 11
1599.8736999334
 21
-100.2840939532
 31
0.0
  0
LINE
  5
30E
100
AcDbEntity
  8
L1_
  6
CONTINUOUS
 62
         4
100
AcDbLine
 10
1519.1751365863
 20
-176.7400166132
 30
0.0
 11
1522.5573117851
 21
-173.3578414144
 31
0.0
  0
LINE
  5
30F
100
AcDbEntity
  8
L1_
  6
CONTINUOUS
 62
         4
100
AcDbLine
 10
1526.6751365863
 20
-169.2400166132
 30
0.0
 11
1563.9186999334
 21
-131.9964532661
 31
0.0
  0
LINE
  5
310
100
AcDbEntity
  8
L1_
  6
CONTINUOUS
 62
         4
100
AcDbLine
 10
1586.6751365863
 20
-109.2400166132
 30
0.0
 11
1590.9210611229
 21
-104.9940920766
 31
0.0
  0
LINE
  5
311
100
AcDbEntity
  8
L1_
  6
CONTINUOUS
 62
         4
100
AcDbLine
 10
1593.6751365863
 20
-102.2400166132
 30
0.0
 11
1598.1751365863
 21
-97.7400166132
 31
0.0
  0
LINE
  5
312
100
AcDbEntity
  8
L1_
  6
CONTINUOUS
 62
         4
100
AcDbLine
 10
1514.9324958992
 20
-176.7400166132
 30
0.0
 11
1562.4324958992
 21
-129.2400166132
 31
0.0
  0
LINE
  5
313
100
AcDbEntity
  8
L1_
  6
CONTINUOUS
 62
         4
100
AcDbLine
 10
1582.4324958992
 20
-109.2400166132
 30
0.0
 11
1593.7324958992
 21
-97.9400166132
 31
0.0
  0
LINE
  5
314
100
AcDbEntity
  8
L1_
  6
CONTINUOUS
 62
         4
100
AcDbLine
 10
1510.689855212
 20
-176.7400166132
 30
0.0
 11
1558.189855212
 21
-129.2400166132
 31
0.0
  0
LINE
  5
315
100
AcDbEntity
  8
L1_
  6
CONTINUOUS
 62
         4
100
AcDbLine
 10
1578.189855212
 20
-109.2400166132
 30
0.0
 11
1592.189855212
 21
-95.2400166132
 31
0.0
  0
LINE
  5
316
100
AcDbEntity
  8
L1_
  6
CONTINUOUS
 62
         4
100
AcDbLine
 10
1507.8786999334
 20
-175.3085312047
 30
0.0
 11
1553.9472145249
 21
-129.2400166132
 31
0.0
  0
LINE
  5
317
100
AcDbEntity
  8
L1_
  6
CONTINUOUS
 62
         4
100
AcDbLine
 10
1558.9472145249
 20
-124.2400166132
 30
0.0
 11
1563.9186999334
 21
-119.2685312047
 31
0.0
  0
LINE
  5
318
100
AcDbEntity
  8
L1_
  6
CONTINUOUS
 62
         4
100
AcDbLine
 10
1573.9472145249
 20
-109.2400166132
 30
0.0
 11
1587.9472145249
 21
-95.2400166132
 31
0.0
  0
LINE
  5
319
100
AcDbEntity
  8
L1_
  6
CONTINUOUS
 62
         4
100
AcDbLine
 10
1507.8786999334
 20
-171.0658905176
 30
0.0
 11
1549.7045738378
 21
-129.2400166132
 31
0.0
  0
LINE
  5
31A
100
AcDbEntity
  8
L1_
  6
CONTINUOUS
 62
         4
100
AcDbLine
 10
1554.7045738378
 20
-124.2400166132
 30
0.0
 11
1563.9186999334
 21
-115.0258905176
 31
0.0
  0
LINE
  5
31B
100
AcDbEntity
  8
L1_
  6
CONTINUOUS
 62
         4
100
AcDbLine
 10
1569.7045738378
 20
-109.2400166132
 30
0.0
 11
1583.7045738378
 21
-95.2400166132
 31
0.0
  0
LINE
  5
31C
100
AcDbEntity
  8
L1_
  6
CONTINUOUS
 62
         4
100
AcDbLine
 10
1507.8786999334
 20
-166.8232498305
 30
0.0
 11
1545.7373377684
 21
-128.9646119955
 31
0.0
  0
LINE
  5
31D
100
AcDbEntity
  8
L1_
  6
CONTINUOUS
 62
         4
100
AcDbLine
 10
1550.4619331507
 20
-124.2400166132
 30
0.0
 11
1563.9186999334
 21
-110.7832498305
 31
0.0
  0
LINE
  5
31E
100
AcDbEntity
  8
L1_
  6
CONTINUOUS
 62
         4
100
AcDbLine
 10
1565.9619331507
 20
-108.7400166132
 30
0.0
 11
1579.4619331507
 21
-95.2400166132
 31
0.0
  0
LINE
  5
31F
100
AcDbEntity
  8
L1_
  6
CONTINUOUS
 62
         4
100
AcDbLine
 10
1507.8786999334
 20
-162.5806091434
 30
0.0
 11
1545.3410854536
 21
-125.1182236232
 31
0.0
  0
LINE
  5
320
100
AcDbEntity
  8
L1_
  6
CONTINUOUS
 62
         4
100
AcDbLine
 10
1546.2192924636
 20
-124.2400166132
 30
0.0
 11
1575.2192924636
 21
-95.2400166132
 31
0.0
  0
LINE
  5
321
100
AcDbEntity
  8
L1_
  6
CONTINUOUS
 62
         4
100
AcDbLine
 10
1504.5271289426
 20
-161.6895394471
 30
0.0
 11
1570.9766517764
 21
-95.2400166132
 31
0.0
  0
LINE
  5
322
100
AcDbEntity
  8
L1_
  6
CONTINUOUS
 62
         4
100
AcDbLine
 10
1500.8244581164
 20
-161.1495695862
 30
0.0
 11
1566.7340110893
 21
-95.2400166132
 31
0.0
  0
LINE
  5
323
100
AcDbEntity
  8
L1_
  6
CONTINUOUS
 62
         4
100
AcDbLine
 10
1497.1217872901
 20
-160.6095997253
 30
0.0
 11
1562.4913704022
 21
-95.2400166132
 31
0.0
  0
LINE
  5
324
100
AcDbEntity
  8
L1_
  6
CONTINUOUS
 62
         4
100
AcDbLine
 10
1493.4191164639
 20
-160.0696298644
 30
0.0
 11
1558.2487297151
 21
-95.2400166132
 31
0.0
  0
LINE
  5
325
100
AcDbEntity
  8
L1_
  6
CONTINUOUS
 62
         4
100
AcDbLine
 10
1489.7164456377
 20
-159.5296600035
 30
0.0
 11
1554.006089028
 21
-95.2400166132
 31
0.0
  0
LINE
  5
326
100
AcDbEntity
  8
L1_
  6
CONTINUOUS
 62
         4
100
AcDbLine
 10
1486.0137748115
 20
-158.9896901426
 30
0.0
 11
1549.7634483409
 21
-95.2400166132
 31
0.0
  0
LINE
  5
327
100
AcDbEntity
  8
L1_
  6
CONTINUOUS
 62
         4
100
AcDbLine
 10
1482.3111039853
 20
-158.4497202817
 30
0.0
 11
1545.920300074
 21
-94.8405241929
 31
0.0
  0
LINE
  5
328
100
AcDbEntity
  8
L1_
  6
CONTINUOUS
 62
         4
100
AcDbLine
 10
1478.608433159
 20
-157.9097504208
 30
0.0
 11
1543.6346602932
 21
-92.8835232866
 31
0.0
  0
LINE
  5
329
100
AcDbEntity
  8
L1_
  6
CONTINUOUS
 62
         4
100
AcDbLine
 10
1474.9057623328
 20
-157.3697805599
 30
0.0
 11
1542.8786999334
 21
-89.3968429593
 31
0.0
  0
LINE
  5
32A
100
AcDbEntity
  8
L1_
  6
CONTINUOUS
 62
         4
100
AcDbLine
 10
1471.2030915066
 20
-156.829810699
 30
0.0
 11
1542.8786999334
 21
-85.1542022722
 31
0.0
  0
LINE
  5
32B
100
AcDbEntity
  8
L1_
  6
CONTINUOUS
 62
         4
100
AcDbLine
 10
1467.5004206804
 20
-156.2898408381
 30
0.0
 11
1542.8786999334
 21
-80.9115615851
 31
0.0
  0
LINE
  5
32C
100
AcDbEntity
  8
L1_
  6
CONTINUOUS
 62
         4
100
AcDbLine
 10
1463.7977498541
 20
-155.7498709772
 30
0.0
 11
1542.5493647561
 21
-76.9982560753
 31
0.0
  0
LINE
  5
32D
100
AcDbEntity
  8
L1_
  6
CONTINUOUS
 62
         4
100
AcDbLine
 10
1460.0950790279
 20
-155.2099011163
 30
0.0
 11
1531.064963531
 21
-84.2400166132
 31
0.0
  0
LINE
  5
32E
100
AcDbEntity
  8
L1_
  6
CONTINUOUS
 62
         4
100
AcDbLine
 10
1531.5786999334
 20
-83.7262802108
 30
0.0
 11
1538.564963531
 21
-76.7400166132
 31
0.0
  0
LINE
  5
32F
100
AcDbEntity
  8
L1_
  6
CONTINUOUS
 62
         4
100
AcDbLine
 10
1456.3924082017
 20
-154.6699312554
 30
0.0
 11
1526.8223228439
 21
-84.2400166132
 31
0.0
  0
LINE
  5
330
100
AcDbEntity
  8
L1_
  6
CONTINUOUS
 62
         4
100
AcDbLine
 10
1452.6897373755
 20
-154.1299613945
 30
0.0
 11
1524.072728395
 21
-82.746970375
 31
0.0
  0
LINE
  5
331
100
AcDbEntity
  8
L1_
  6
CONTINUOUS
 62
         4
100
AcDbLine
 10
1448.9870665493
 20
-153.5899915336
 30
0.0
 11
1522.5198141244
 21
-80.0572439585
 31
0.0
  0
LINE
  5
332
100
AcDbEntity
  8
L1_
  6
CONTINUOUS
 62
         4
100
AcDbLine
 10
1445.284395723
 20
-153.0500216727
 30
0.0
 11
1506.3358495749
 21
-91.9985678208
 31
0.0
  0
LINE
  5
333
100
AcDbEntity
  8
L1_
  6
CONTINUOUS
 62
         4
100
AcDbLine
 10
1507.8786999334
 20
-90.4557174623
 30
0.0
 11
1520.9668998538
 21
-77.367517542
 31
0.0
  0
LINE
  5
334
100
AcDbEntity
  8
L1_
  6
CONTINUOUS
 62
         4
100
AcDbLine
 10
1441.5817248968
 20
-152.5100518118
 30
0.0
 11
1456.8517600954
 21
-137.2400166132
 31
0.0
  0
LINE
  5
335
100
AcDbEntity
  8
L1_
  6
CONTINUOUS
 62
         4
100
AcDbLine
 10
1459.754730921
 20
-134.3370457876
 30
0.0
 11
1501.9212628846
 21
-92.170513824
 31
0.0
  0
LINE
  5
336
100
AcDbEntity
  8
L1_
  6
CONTINUOUS
 62
         4
100
AcDbLine
 10
1507.8786999334
 20
-86.2130767752
 30
0.0
 11
1517.3517600954
 21
-76.7400166132
 31
0.0
  0
LINE
  5
337
100
AcDbEntity
  8
L1_
  6
CONTINUOUS
 62
         4
100
AcDbLine
 10
1437.8790540706
 20
-151.9700819509
 30
0.0
 11
1452.6091194083
 21
-137.2400166132
 31
0.0
  0
LINE
  5
338
100
AcDbEntity
  8
L1_
  6
CONTINUOUS
 62
         4
100
AcDbLine
 10
1463.7632279926
 20
-126.0859080289
 30
0.0
 11
1496.9542735705
 21
-92.894862451
 31
0.0
  0
LINE
  5
339
100
AcDbEntity
  8
L1_
  6
CONTINUOUS
 62
         4
100
AcDbLine
 10
1507.8786999334
 20
-81.9704360881
 30
0.0
 11
1513.1091194083
 21
-76.7400166132
 31
0.0
  0
LINE
  5
33A
100
AcDbEntity
  8
L1_
  6
CONTINUOUS
 62
         4
100
AcDbLine
 10
1434.1763832444
 20
-151.43011209
 30
0.0
 11
1448.3664787212
 21
-137.2400166132
 31
0.0
  0
LINE
  5
33B
100
AcDbEntity
  8
L1_
  6
CONTINUOUS
 62
         4
100
AcDbLine
 10
1462.210313722
 20
-123.3961816124
 30
0.0
 11
1491.9872842565
 21
-93.6192110779
 31
0.0
  0
LINE
  5
33C
100
AcDbEntity
  8
L1_
  6
CONTINUOUS
 62
         4
100
AcDbLine
 10
1507.8787755422
 20
-77.7277197922
 30
0.0
 11
1508.8664031124
 21
-76.740092222
 31
0.0
  0
LINE
  5
33D
100
AcDbEntity
  8
L1_
  6
CONTINUOUS
 62
         4
100
AcDbLine
 10
1430.4737124181
 20
-150.8901422291
 30
0.0
 11
1444.1238380341
 21
-137.2400166132
 31
0.0
  0
LINE
  5
33E
100
AcDbEntity
  8
L1_
  6
CONTINUOUS
 62
         4
100
AcDbLine
 10
1460.6573994514
 20
-120.7064551959
 30
0.0
 11
1487.0202949424
 21
-94.3435597049
 31
0.0
  0
LINE
  5
33F
100
AcDbEntity
  8
L1_
  6
CONTINUOUS
 62
         4
100
AcDbLine
 10
1426.7710415919
 20
-150.3501723682
 30
0.0
 11
1439.8811973469
 21
-137.2400166132
 31
0.0
  0
LINE
  5
340
100
AcDbEntity
  8
L1_
  6
CONTINUOUS
 62
         4
100
AcDbLine
 10
1459.1044851808
 20
-118.0167287793
 30
0.0
 11
1482.0533056283
 21
-95.0679083318
 31
0.0
  0
LINE
  5
341
100
AcDbEntity
  8
L1_
  6
CONTINUOUS
 62
         4
100
AcDbLine
 10
1423.0683707657
 20
-149.8102025073
 30
0.0
 11
1435.6385566598
 21
-137.2400166132
 31
0.0
  0
LINE
  5
342
100
AcDbEntity
  8
L1_
  6
CONTINUOUS
 62
         4
100
AcDbLine
 10
1456.6385566598
 20
-116.2400166132
 30
0.0
 11
1477.0863163143
 21
-95.7922569587
 31
0.0
  0
LINE
  5
343
100
AcDbEntity
  8
L1_
  6
CONTINUOUS
 62
         4
100
AcDbLine
 10
1419.3656999395
 20
-149.2702326464
 30
0.0
 11
1431.3959159727
 21
-137.2400166132
 31
0.0
  0
LINE
  5
344
100
AcDbEntity
  8
L1_
  6
CONTINUOUS
 62
         4
100
AcDbLine
 10
1452.3959159727
 20
-116.2400166132
 30
0.0
 11
1472.1193270002
 21
-96.5166055857
 31
0.0
  0
LINE
  5
345
100
AcDbEntity
  8
L1_
  6
CONTINUOUS
 62
         4
100
AcDbLine
 10
1415.6630291133
 20
-148.7302627855
 30
0.0
 11
1427.1532752856
 21
-137.2400166132
 31
0.0
  0
LINE
  5
346
100
AcDbEntity
  8
L1_
  6
CONTINUOUS
 62
         4
100
AcDbLine
 10
1448.1532752856
 20
-116.2400166132
 30
0.0
 11
1467.1523376862
 21
-97.2409542126
 31
0.0
  0
LINE
  5
347
100
AcDbEntity
  8
L1_
  6
CONTINUOUS
 62
         4
100
AcDbLine
 10
1411.960358287
 20
-148.1902929246
 30
0.0
 11
1422.9106345985
 21
-137.2400166132
 31
0.0
  0
LINE
  5
348
100
AcDbEntity
  8
L1_
  6
CONTINUOUS
 62
         4
100
AcDbLine
 10
1443.9106345985
 20
-116.2400166132
 30
0.0
 11
1462.1853483721
 21
-97.9653028396
 31
0.0
  0
LINE
  5
349
100
AcDbEntity
  8
L1_
  6
CONTINUOUS
 62
         4
100
AcDbLine
 10
1408.2576874608
 20
-147.6503230637
 30
0.0
 11
1418.6679939113
 21
-137.2400166132
 31
0.0
  0
LINE
  5
34A
100
AcDbEntity
  8
L1_
  6
CONTINUOUS
 62
         4
100
AcDbLine
 10
1439.6679939113
 20
-116.2400166132
 30
0.0
 11
1457.218359058
 21
-98.6896514665
 31
0.0
  0
LINE
  5
34B
100
AcDbEntity
  8
L1_
  6
CONTINUOUS
 62
         4
100
AcDbLine
 10
1404.5550166346
 20
-147.1103532028
 30
0.0
 11
1412.4253532242
 21
-139.2400166132
 31
0.0
  0
LINE
  5
34C
100
AcDbEntity
  8
L1_
  6
CONTINUOUS
 62
         4
100
AcDbLine
 10
1435.4253532242
 20
-116.2400166132
 30
0.0
 11
1452.251369744
 21
-99.4140000934
 31
0.0
  0
LINE
  5
34D
100
AcDbEntity
  8
L1_
  6
CONTINUOUS
 62
         4
100
AcDbLine
 10
1403.0736999334
 20
-144.3490292169
 30
0.0
 11
1408.1827125371
 21
-139.2400166132
 31
0.0
  0
LINE
  5
34E
100
AcDbEntity
  8
L1_
  6
CONTINUOUS
 62
         4
100
AcDbLine
 10
1431.1827125371
 20
-116.2400166132
 30
0.0
 11
1447.2843804299
 21
-100.1383487204
 31
0.0
  0
LINE
  5
34F
100
AcDbEntity
  8
L1_
  6
CONTINUOUS
 62
         4
100
AcDbLine
 10
1426.94007185
 20
-116.2400166132
 30
0.0
 11
1442.3173911159
 21
-100.8626973473
 31
0.0
  0
LINE
  5
350
100
AcDbEntity
  8
L1_
  6
CONTINUOUS
 62
         4
100
AcDbLine
 10
1422.6974311629
 20
-116.2400166132
 30
0.0
 11
1437.3504018018
 21
-101.5870459743
 31
0.0
  0
LINE
  5
351
100
AcDbEntity
  8
L1_
  6
CONTINUOUS
 62
         4
100
AcDbLine
 10
1418.4547904757
 20
-116.2400166132
 30
0.0
 11
1432.3834124877
 21
-102.3113946012
 31
0.0
  0
LINE
  5
352
100
AcDbEntity
  8
L1_
  6
CONTINUOUS
 62
         4
100
AcDbLine
 10
1416.060158059
 20
-114.3920083428
 30
0.0
 11
1427.4164231737
 21
-103.0357432282
 31
0.0
  0
LINE
  5
353
100
AcDbEntity
  8
L1_
  6
CONTINUOUS
 62
         4
100
AcDbLine
 10
1411.9695091015
 20
-114.2400166132
 30
0.0
 11
1422.4494338596
 21
-103.7600918551
 31
0.0
  0
LINE
  5
354
100
AcDbEntity
  8
L1_
  6
CONTINUOUS
 62
         4
100
AcDbLine
 10
1407.7268684144
 20
-114.2400166132
 30
0.0
 11
1417.4824445456
 21
-104.484440482
 31
0.0
  0
LINE
  5
355
100
AcDbEntity
  8
L1_
  6
CONTINUOUS
 62
         4
100
AcDbLine
 10
1403.969768849
 20
-113.7544754915
 30
0.0
 11
1412.5154552315
 21
-105.208789109
 31
0.0
  0
LINE
  5
356
100
AcDbEntity
  8
L1_
  6
CONTINUOUS
 62
         4
100
AcDbLine
 10
1403.0736999334
 20
-110.40790372
 30
0.0
 11
1407.5484659174
 21
-105.9331377359
 31
0.0
  0
ENDBLK
  5
357
100
AcDbEntity
  8
0
  6
CONTINUOUS
100
AcDbBlockEnd
  0
BLOCK
  5
3FB
100
AcDbEntity
  8
0
100
AcDbBlockBegin
  2
*D16
 70
        65
 10
0.0
 20
0.0
 30
0.0
  3
*D16
  1

  0
POINT
  5
3FD
100
AcDbEntity
  8
DEFPOINTS
  6
CONTINUOUS
 62
         0
100
AcDbPoint
 10
1643.9186999334
 20
205.6330449579
 30
0.0
  0
POINT
  5
3FE
100
AcDbEntity
  8
DEFPOINTS
  6
CONTINUOUS
 62
         0
100
AcDbPoint
 10
1643.9186999334
 20
112.2524144385
 30
0.0
  0
POINT
  5
3FF
100
AcDbEntity
  8
DEFPOINTS
  6
CONTINUOUS
 62
         0
100
AcDbPoint
 10
1504.8786999334
 20
147.2532077601
 30
0.0
  0
LINE
  5
400
100
AcDbEntity
  8
L1_
  6
CONTINUOUS
 62
         4
100
AcDbLine
 10
1643.9186999334
 20
114.0024144385
 30
0.0
 11
1643.9186999334
 21
206.5080449579
 31
0.0
  0
LINE
  5
401
100
AcDbEntity
  8
L1_
  6
CONTINUOUS
 62
         4
100
AcDbLine
 10
1504.8786999334
 20
149.0032077601
 30
0.0
 11
1504.8786999334
 21
206.5080449579
 31
0.0
  0
LINE
  5
402
100
AcDbEntity
  8
L1_
  6
CONTINUOUS
 62
         4
100
AcDbLine
 10
1643.9186999334
 20
205.6330449579
 30
0.0
 11
1504.8786999334
 21
205.6330449579
 31
0.0
  0
SOLID
  5
403
100
AcDbEntity
  8
L1_
  6
CONTINUOUS
 62
         4
100
AcDbTrace
 10
1643.9186999334
 20
205.6330449579
 30
0.0
 11
1640.4186999334
 21
205.1080449579
 31
0.0
 12
1640.4186999334
 22
206.1580449579
 32
0.0
 13
1643.9186999334
 23
205.6330449579
 33
0.0
  0
SOLID
  5
404
100
AcDbEntity
  8
L1_
  6
CONTINUOUS
 62
         4
100
AcDbTrace
 10
1504.8786999334
 20
205.6330449579
 30
0.0
 11
1508.3786999334
 21
206.1580449579
 31
0.0
 12
1508.3786999334
 22
205.1080449579
 32
0.0
 13
1504.8786999334
 23
205.6330449579
 33
0.0
  0
TEXT
  5
406
100
AcDbEntity
  8
L1_
  6
CONTINUOUS
 62
         4
100
AcDbText
 10
1565.4730013575
 20
208.2580449579
 30
0.0
 40
3.5
  1
139.04
  7
BOX
100
AcDbText
  0
ENDBLK
  5
407
100
AcDbEntity
  8
0
  6
CONTINUOUS
100
AcDbBlockEnd
  0
BLOCK
  5
409
100
AcDbEntity
  8
0
100
AcDbBlockBegin
  2
*D17
 70
        65
 10
0.0
 20
0.0
 30
0.0
  3
*D17
  1

  0
POINT
  5
40B
100
AcDbEntity
  8
DEFPOINTS
  6
CONTINUOUS
 62
         0
100
AcDbPoint
 10
1403.0836999334
 20
214.6010624245
 30
0.0
  0
POINT
  5
40C
100
AcDbEntity
  8
DEFPOINTS
  6
CONTINUOUS
 62
         0
100
AcDbPoint
 10
1403.0836999334
 20
131.5419817744
 30
0.0
  0
POINT
  5
40D
100
AcDbEntity
  8
DEFPOINTS
  6
CONTINUOUS
 62
         0
100
AcDbPoint
 10
1643.9186999334
 20
112.2524144385
 30
0.0
  0
LINE
  5
40E
100
AcDbEntity
  8
L1_
  6
CONTINUOUS
 62
         4
100
AcDbLine
 10
1403.0836999334
 20
133.2919817744
 30
0.0
 11
1403.0836999334
 21
215.4760624245
 31
0.0
  0
LINE
  5
40F
100
AcDbEntity
  8
L1_
  6
CONTINUOUS
 62
         4
100
AcDbLine
 10
1643.9186999334
 20
114.0024144385
 30
0.0
 11
1643.9186999334
 21
215.4760624245
 31
0.0
  0
LINE
  5
410
100
AcDbEntity
  8
L1_
  6
CONTINUOUS
 62
         4
100
AcDbLine
 10
1403.0836999334
 20
214.6010624245
 30
0.0
 11
1643.9186999334
 21
214.6010624245
 31
0.0
  0
SOLID
  5
411
100
AcDbEntity
  8
L1_
  6
CONTINUOUS
 62
         4
100
AcDbTrace
 10
1403.0836999334
 20
214.6010624245
 30
0.0
 11
1406.5836999334
 21
215.1260624245
 31
0.0
 12
1406.5836999334
 22
214.0760624245
 32
0.0
 13
1403.0836999334
 23
214.6010624245
 33
0.0
  0
SOLID
  5
412
100
AcDbEntity
  8
L1_
  6
CONTINUOUS
 62
         4
100
AcDbTrace
 10
1643.9186999334
 20
214.6010624245
 30
0.0
 11
1640.4186999334
 21
214.0760624245
 31
0.0
 12
1640.4186999334
 22
215.1260624245
 32
0.0
 13
1643.9186999334
 23
214.6010624245
 33
0.0
  0
TEXT
  5
414
100
AcDbEntity
  8
L1_
  6
CONTINUOUS
 62
         4
100
AcDbText
 10
1512.5056481954
 20
217.2260624245
 30
0.0
 40
3.5
  1
240.84
  7
BOX
100
AcDbText
  0
ENDBLK
  5
415
100
AcDbEntity
  8
0
  6
CONTINUOUS
100
AcDbBlockEnd
  0
BLOCK
  5
434
100
AcDbEntity
  8
0
100
AcDbBlockBegin
  2
*D18
 70
        65
 10
0.0
 20
0.0
 30
0.0
  3
*D18
  1

  0
POINT
  5
436
100
AcDbEntity
  8
DEFPOINTS
  6
CONTINUOUS
 62
         0
100
AcDbPoint
 10
1690.1373551314
 20
143.7524144385
 30
0.0
  0
POINT
  5
437
100
AcDbEntity
  8
DEFPOINTS
  6
CONTINUOUS
 62
         0
100
AcDbPoint
 10
1591.9186999334
 20
143.7524144385
 30
0.0
  0
POINT
  5
438
100
AcDbEntity
  8
DEFPOINTS
  6
CONTINUOUS
 62
         0
100
AcDbPoint
 10
1591.9186999334
 20
80.7524144385
 30
0.0
  0
LINE
  5
439
100
AcDbEntity
  8
L1_
  6
CONTINUOUS
 62
         4
100
AcDbLine
 10
1593.6686999334
 20
143.7524144385
 30
0.0
 11
1691.0123551314
 21
143.7524144385
 31
0.0
  0
LINE
  5
43A
100
AcDbEntity
  8
L1_
  6
CONTINUOUS
 62
         4
100
AcDbLine
 10
1593.6686999334
 20
80.7524144385
 30
0.0
 11
1691.0123551314
 21
80.7524144385
 31
0.0
  0
LINE
  5
43B
100
AcDbEntity
  8
L1_
  6
CONTINUOUS
 62
         4
100
AcDbLine
 10
1690.1373551314
 20
143.7524144385
 30
0.0
 11
1690.1373551314
 21
80.7524144385
 31
0.0
  0
SOLID
  5
43C
100
AcDbEntity
  8
L1_
  6
CONTINUOUS
 62
         4
100
AcDbTrace
 10
1690.1373551314
 20
143.7524144385
 30
0.0
 11
1690.6623551314
 21
140.2524144385
 31
0.0
 12
1689.6123551314
 22
140.2524144385
 32
0.0
 13
1690.1373551314
 23
143.7524144385
 33
0.0
  0
SOLID
  5
43D
100
AcDbEntity
  8
L1_
  6
CONTINUOUS
 62
         4
100
AcDbTrace
 10
1690.1373551314
 20
80.7524144385
 30
0.0
 11
1689.6123551314
 21
84.2524144385
 31
0.0
 12
1690.6623551314
 22
84.2524144385
 32
0.0
 13
1690.1373551314
 23
80.7524144385
 33
0.0
  0
TEXT
  5
43F
100
AcDbEntity
  8
L1_
  6
CONTINUOUS
 62
         4
100
AcDbText
 10
1686.0773551314
 20
105.2176470922
 30
0.0
 40
3.5
  1
崷63
 50
90.0
  7
BOX
100
AcDbText
  0
ENDBLK
  5
440
100
AcDbEntity
  8
0
  6
CONTINUOUS
100
AcDbBlockEnd
  0
BLOCK
  5
44D
100
AcDbEntity
  8
0
100
AcDbBlockBegin
  2
*D19
 70
        65
 10
0.0
 20
0.0
 30
0.0
  3
*D19
  1

  0
POINT
  5
44F
100
AcDbEntity
  8
DEFPOINTS
  6
CONTINUOUS
 62
         0
100
AcDbPoint
 10
1660.1596208409
 20
139.7524144385
 30
0.0
  0
POINT
  5
450
100
AcDbEntity
  8
DEFPOINTS
  6
CONTINUOUS
 62
         0
100
AcDbPoint
 10
1643.9186999334
 20
139.7524144385
 30
0.0
  0
POINT
  5
451
100
AcDbEntity
  8
DEFPOINTS
  6
CONTINUOUS
 62
         0
100
AcDbPoint
 10
1643.9186999334
 20
84.7524144385
 30
0.0
  0
LINE
  5
452
100
AcDbEntity
  8
L1_
  6
CONTINUOUS
 62
         4
100
AcDbLine
 10
1645.6686999334
 20
139.7524144385
 30
0.0
 11
1661.0346208409
 21
139.7524144385
 31
0.0
  0
LINE
  5
453
100
AcDbEntity
  8
L1_
  6
CONTINUOUS
 62
         4
100
AcDbLine
 10
1645.6686999334
 20
84.7524144385
 30
0.0
 11
1661.0346208409
 21
84.7524144385
 31
0.0
  0
LINE
  5
454
100
AcDbEntity
  8
L1_
  6
CONTINUOUS
 62
         4
100
AcDbLine
 10
1660.1596208409
 20
139.7524144385
 30
0.0
 11
1660.1596208409
 21
84.7524144385
 31
0.0
  0
SOLID
  5
455
100
AcDbEntity
  8
L1_
  6
CONTINUOUS
 62
         4
100
AcDbTrace
 10
1660.1596208409
 20
139.7524144385
 30
0.0
 11
1660.6846208409
 21
136.2524144385
 31
0.0
 12
1659.6346208409
 22
136.2524144385
 32
0.0
 13
1660.1596208409
 23
139.7524144385
 33
0.0
  0
SOLID
  5
456
100
AcDbEntity
  8
L1_
  6
CONTINUOUS
 62
         4
100
AcDbTrace
 10
1660.1596208409
 20
84.7524144385
 30
0.0
 11
1659.6346208409
 21
88.2524144385
 31
0.0
 12
1660.6846208409
 22
88.2524144385
 32
0.0
 13
1660.1596208409
 23
84.7524144385
 33
0.0
  0
TEXT
  5
458
100
AcDbEntity
  8
L1_
  6
CONTINUOUS
 62
         4
100
AcDbText
 10
1657.5346208409
 20
105.2363051293
 30
0.0
 40
3.5
  1
崷55
 50
90.0
  7
BOX
100
AcDbText
  0
ENDBLK
  5
459
100
AcDbEntity
  8
0
  6
CONTINUOUS
100
AcDbBlockEnd
  0
BLOCK
  5
4B7
100
AcDbEntity
  8
0
100
AcDbBlockBegin
  2
*D20
 70
        65
 10
0.0
 20
0.0
 30
0.0
  3
*D20
  1

  0
POINT
  5
4B9
100
AcDbEntity
  8
DEFPOINTS
  6
CONTINUOUS
 62
         0
100
AcDbPoint
 10
1643.9186999334
 20
-173.0093121114
 30
0.0
  0
POINT
  5
4BA
100
AcDbEntity
  8
DEFPOINTS
  6
CONTINUOUS
 62
         0
100
AcDbPoint
 10
1643.9186999334
 20
-153.0853160748
 30
0.0
  0
POINT
  5
4BB
100
AcDbEntity
  8
DEFPOINTS
  6
CONTINUOUS
 62
         0
100
AcDbPoint
 10
1594.4186999334
 20
-158.2400166132
 30
0.0
  0
LINE
  5
4BC
100
AcDbEntity
  8
L1_
  6
CONTINUOUS
 62
         4
100
AcDbLine
 10
1643.9186999334
 20
-154.8353160748
 30
0.0
 11
1643.9186999334
 21
-173.8843121114
 31
0.0
  0
LINE
  5
4BD
100
AcDbEntity
  8
L1_
  6
CONTINUOUS
 62
         4
100
AcDbLine
 10
1594.4186999334
 20
-159.9900166132
 30
0.0
 11
1594.4186999334
 21
-173.8843121114
 31
0.0
  0
LINE
  5
4BE
100
AcDbEntity
  8
L1_
  6
CONTINUOUS
 62
         4
100
AcDbLine
 10
1643.9186999334
 20
-173.0093121114
 30
0.0
 11
1594.4186999334
 21
-173.0093121114
 31
0.0
  0
SOLID
  5
4BF
100
AcDbEntity
  8
L1_
  6
CONTINUOUS
 62
         4
100
AcDbTrace
 10
1643.9186999334
 20
-173.0093121114
 30
0.0
 11
1640.4186999334
 21
-173.5343121114
 31
0.0
 12
1640.4186999334
 22
-172.4843121114
 32
0.0
 13
1643.9186999334
 23
-173.0093121114
 33
0.0
  0
SOLID
  5
4C0
100
AcDbEntity
  8
L1_
  6
CONTINUOUS
 62
         4
100
AcDbTrace
 10
1594.4186999334
 20
-173.0093121114
 30
0.0
 11
1597.9186999334
 21
-172.4843121114
 31
0.0
 12
1597.9186999334
 22
-173.5343121114
 32
0.0
 13
1594.4186999334
 23
-173.0093121114
 33
0.0
  0
TEXT
  5
4C2
100
AcDbEntity
  8
L1_
  6
CONTINUOUS
 62
         4
100
AcDbText
 10
1612.3470307771
 20
-170.3843121114
 30
0.0
 40
3.5
  1
49.5
  7
BOX
100
AcDbText
  0
ENDBLK
  5
4C3
100
AcDbEntity
  8
0
  6
CONTINUOUS
100
AcDbBlockEnd
  0
BLOCK
  5
57D
100
AcDbEntity
  8
0
100
AcDbBlockBegin
  2
*D21
 70
        65
 10
0.0
 20
0.0
 30
0.0
  3
*D21
  1

  0
POINT
  5
57F
100
AcDbEntity
  8
DEFPOINTS
  6
CONTINUOUS
 62
         0
100
AcDbPoint
 10
1643.9186999334
 20
-211.871099153
 30
0.0
  0
POINT
  5
580
100
AcDbEntity
  8
DEFPOINTS
  6
CONTINUOUS
 62
         0
100
AcDbPoint
 10
1643.9186999334
 20
-152.7053626372
 30
0.0
  0
POINT
  5
581
100
AcDbEntity
  8
DEFPOINTS
  6
CONTINUOUS
 62
         0
100
AcDbPoint
 10
1545.918375068
 20
-129.2400166132
 30
0.0
  0
LINE
  5
582
100
AcDbEntity
  8
L1_
  6
CONTINUOUS
 62
         4
100
AcDbLine
 10
1643.9186999334
 20
-154.4553626372
 30
0.0
 11
1643.9186999334
 21
-212.746099153
 31
0.0
  0
LINE
  5
583
100
AcDbEntity
  8
L1_
  6
CONTINUOUS
 62
         4
100
AcDbLine
 10
1545.918375068
 20
-130.9900166132
 30
0.0
 11
1545.918375068
 21
-212.746099153
 31
0.0
  0
LINE
  5
584
100
AcDbEntity
  8
L1_
  6
CONTINUOUS
 62
         4
100
AcDbLine
 10
1643.9186999334
 20
-211.871099153
 30
0.0
 11
1545.918375068
 21
-211.871099153
 31
0.0
  0
SOLID
  5
585
100
AcDbEntity
  8
L1_
  6
CONTINUOUS
 62
         4
100
AcDbTrace
 10
1643.9186999334
 20
-211.871099153
 30
0.0
 11
1640.4186999334
 21
-212.396099153
 31
0.0
 12
1640.4186999334
 22
-211.346099153
 32
0.0
 13
1643.9186999334
 23
-211.871099153
 33
0.0
  0
SOLID
  5
586
100
AcDbEntity
  8
L1_
  6
CONTINUOUS
 62
         4
100
AcDbTrace
 10
1545.918375068
 20
-211.871099153
 30
0.0
 11
1549.418375068
 21
-211.346099153
 31
0.0
 12
1549.418375068
 22
-212.396099153
 32
0.0
 13
1545.918375068
 23
-211.871099153
 33
0.0
  0
TEXT
  5
588
100
AcDbEntity
  8
L1_
  6
CONTINUOUS
 62
         4
100
AcDbText
 10
1592.3876076839
 20
-209.246099153
 30
0.0
 40
3.5
  1
98
  7
BOX
100
AcDbText
  0
ENDBLK
  5
589
100
AcDbEntity
  8
0
  6
CONTINUOUS
100
AcDbBlockEnd
  0
BLOCK
  5
599
100
AcDbEntity
  8
0
100
AcDbBlockBegin
  2
*D22
 70
        65
 10
0.0
 20
0.0
 30
0.0
  3
*D22
  1

  0
POINT
  5
59B
100
AcDbEntity
  8
DEFPOINTS
  6
CONTINUOUS
 62
         0
100
AcDbPoint
 10
1599.8736999334
 20
-88.6067385362
 30
0.0
  0
POINT
  5
59C
100
AcDbEntity
  8
DEFPOINTS
  6
CONTINUOUS
 62
         0
100
AcDbPoint
 10
1599.8736999334
 20
-97.7400166132
 30
0.0
  0
POINT
  5
59D
100
AcDbEntity
  8
DEFPOINTS
  6
CONTINUOUS
 62
         0
100
AcDbPoint
 10
1627.8636999334
 20
-97.7400166132
 30
0.0
  0
LINE
  5
59E
100
AcDbEntity
  8
L1_
  6
CONTINUOUS
 62
         4
100
AcDbLine
 10
1599.8736999334
 20
-95.9900166132
 30
0.0
 11
1599.8736999334
 21
-87.7317385362
 31
0.0
  0
LINE
  5
59F
100
AcDbEntity
  8
L1_
  6
CONTINUOUS
 62
         4
100
AcDbLine
 10
1627.8636999334
 20
-95.9900166132
 30
0.0
 11
1627.8636999334
 21
-87.7317385362
 31
0.0
  0
LINE
  5
5A0
100
AcDbEntity
  8
L1_
  6
CONTINUOUS
 62
         4
100
AcDbLine
 10
1599.8736999334
 20
-88.6067385362
 30
0.0
 11
1627.8636999334
 21
-88.6067385362
 31
0.0
  0
SOLID
  5
5A1
100
AcDbEntity
  8
L1_
  6
CONTINUOUS
 62
         4
100
AcDbTrace
 10
1599.8736999334
 20
-88.6067385362
 30
0.0
 11
1603.3736999334
 21
-88.0817385362
 31
0.0
 12
1603.3736999334
 22
-89.1317385362
 32
0.0
 13
1599.8736999334
 23
-88.6067385362
 33
0.0
  0
SOLID
  5
5A2
100
AcDbEntity
  8
L1_
  6
CONTINUOUS
 62
         4
100
AcDbTrace
 10
1627.8636999334
 20
-88.6067385362
 30
0.0
 11
1624.3636999334
 21
-89.1317385362
 31
0.0
 12
1624.3636999334
 22
-88.0817385362
 32
0.0
 13
1627.8636999334
 23
-88.6067385362
 33
0.0
  0
TEXT
  5
5A4
100
AcDbEntity
  8
L1_
  6
CONTINUOUS
 62
         4
100
AcDbText
 10
1604.1305607727
 20
-84.5467385362
 30
0.0
 40
3.5
  1
27.7
  7
BOX
100
AcDbText
  0
ENDBLK
  5
5A5
100
AcDbEntity
  8
0
  6
CONTINUOUS
100
AcDbBlockEnd
  0
BLOCK
  5
5A7
100
AcDbEntity
  8
0
100
AcDbBlockBegin
  2
*D23
 70
        65
 10
0.0
 20
0.0
 30
0.0
  3
*D23
  1

  0
POINT
  5
5A9
100
AcDbEntity
  8
DEFPOINTS
  6
CONTINUOUS
 62
         0
100
AcDbPoint
 10
1661.2494140106
 20
-109.2400166132
 30
0.0
  0
POINT
  5
5AA
100
AcDbEntity
  8
DEFPOINTS
  6
CONTINUOUS
 62
         0
100
AcDbPoint
 10
1589.9210611229
 20
-109.2400166132
 30
0.0
  0
POINT
  5
5AB
100
AcDbEntity
  8
DEFPOINTS
  6
CONTINUOUS
 62
         0
100
AcDbPoint
 10
1589.9210611229
 20
-144.2400166132
 30
0.0
  0
LINE
  5
5AC
100
AcDbEntity
  8
L1_
  6
CONTINUOUS
 62
         4
100
AcDbLine
 10
1591.6710611229
 20
-109.2400166132
 30
0.0
 11
1662.1244140106
 21
-109.2400166132
 31
0.0
  0
LINE
  5
5AD
100
AcDbEntity
  8
L1_
  6
CONTINUOUS
 62
         4
100
AcDbLine
 10
1591.6710611229
 20
-144.2400166132
 30
0.0
 11
1662.1244140106
 21
-144.2400166132
 31
0.0
  0
LINE
  5
5AE
100
AcDbEntity
  8
L1_
  6
CONTINUOUS
 62
         4
100
AcDbLine
 10
1661.2494140106
 20
-109.2400166132
 30
0.0
 11
1661.2494140106
 21
-144.2400166132
 31
0.0
  0
SOLID
  5
5AF
100
AcDbEntity
  8
L1_
  6
CONTINUOUS
 62
         4
100
AcDbTrace
 10
1661.2494140106
 20
-109.2400166132
 30
0.0
 11
1661.7744140106
 21
-112.7400166132
 31
0.0
 12
1660.7244140106
 22
-112.7400166132
 32
0.0
 13
1661.2494140106
 23
-109.2400166132
 33
0.0
  0
SOLID
  5
5B0
100
AcDbEntity
  8
L1_
  6
CONTINUOUS
 62
         4
100
AcDbTrace
 10
1661.2494140106
 20
-144.2400166132
 30
0.0
 11
1660.7244140106
 21
-140.7400166132
 31
0.0
 12
1661.7744140106
 22
-140.7400166132
 32
0.0
 13
1661.2494140106
 23
-144.2400166132
 33
0.0
  0
TEXT
  5
5B2
100
AcDbEntity
  8
L1_
  6
CONTINUOUS
 62
         4
100
AcDbText
 10
1657.1894140106
 20
-134.0316832799
 30
0.0
 40
3.5
  1
崷35
 50
90.0
  7
BOX
100
AcDbText
  0
ENDBLK
  5
5B3
100
AcDbEntity
  8
0
  6
CONTINUOUS
100
AcDbBlockEnd
  0
BLOCK
  5
5B5
100
AcDbEntity
  8
0
100
AcDbBlockBegin
  2
*D24
 70
        65
 10
0.0
 20
0.0
 30
0.0
  3
*D24
  1

  0
POINT
  5
5B7
100
AcDbEntity
  8
DEFPOINTS
  6
CONTINUOUS
 62
         0
100
AcDbPoint
 10
1680.0975273403
 20
-102.7400166132
 30
0.0
  0
POINT
  5
5B8
100
AcDbEntity
  8
DEFPOINTS
  6
CONTINUOUS
 62
         0
100
AcDbPoint
 10
1643.7186999334
 20
-102.7400166132
 30
0.0
  0
POINT
  5
5B9
100
AcDbEntity
  8
DEFPOINTS
  6
CONTINUOUS
 62
         0
100
AcDbPoint
 10
1643.7186999334
 20
-150.7400166132
 30
0.0
  0
LINE
  5
5BA
100
AcDbEntity
  8
L1_
  6
CONTINUOUS
 62
         4
100
AcDbLine
 10
1645.4686999334
 20
-102.7400166132
 30
0.0
 11
1680.9725273403
 21
-102.7400166132
 31
0.0
  0
LINE
  5
5BB
100
AcDbEntity
  8
L1_
  6
CONTINUOUS
 62
         4
100
AcDbLine
 10
1645.4686999334
 20
-150.7400166132
 30
0.0
 11
1680.9725273403
 21
-150.7400166132
 31
0.0
  0
LINE
  5
5BC
100
AcDbEntity
  8
L1_
  6
CONTINUOUS
 62
         4
100
AcDbLine
 10
1680.0975273403
 20
-102.7400166132
 30
0.0
 11
1680.0975273403
 21
-150.7400166132
 31
0.0
  0
SOLID
  5
5BD
100
AcDbEntity
  8
L1_
  6
CONTINUOUS
 62
         4
100
AcDbTrace
 10
1680.0975273403
 20
-102.7400166132
 30
0.0
 11
1680.6225273403
 21
-106.2400166132
 31
0.0
 12
1679.5725273403
 22
-106.2400166132
 32
0.0
 13
1680.0975273403
 23
-102.7400166132
 33
0.0
  0
SOLID
  5
5BE
100
AcDbEntity
  8
L1_
  6
CONTINUOUS
 62
         4
100
AcDbTrace
 10
1680.0975273403
 20
-150.7400166132
 30
0.0
 11
1679.5725273403
 21
-147.2400166132
 31
0.0
 12
1680.6225273403
 22
-147.2400166132
 32
0.0
 13
1680.0975273403
 23
-150.7400166132
 33
0.0
  0
TEXT
  5
5C0
100
AcDbEntity
  8
L1_
  6
CONTINUOUS
 62
         4
100
AcDbText
 10
1676.0375273403
 20
-134.0316832799
 30
0.0
 40
3.5
  1
崷48
 50
90.0
  7
BOX
100
AcDbText
  0
ENDBLK
  5
5C1
100
AcDbEntity
  8
0
  6
CONTINUOUS
100
AcDbBlockEnd
  0
BLOCK
  5
5C3
100
AcDbEntity
  8
0
100
AcDbBlockBegin
  2
*D25
 70
        65
 10
0.0
 20
0.0
 30
0.0
  3
*D25
  1

  0
POINT
  5
5C5
100
AcDbEntity
  8
DEFPOINTS
  6
CONTINUOUS
 62
         0
100
AcDbPoint
 10
1590.9210611229
 20
-189.6046795837
 30
0.0
  0
POINT
  5
5C6
100
AcDbEntity
  8
DEFPOINTS
  6
CONTINUOUS
 62
         0
100
AcDbPoint
 10
1590.9210611229
 20
-151.2400166132
 30
0.0
  0
POINT
  5
5C7
100
AcDbEntity
  8
DEFPOINTS
  6
CONTINUOUS
 62
         0
100
AcDbPoint
 10
1643.9186999334
 20
-151.5853160748
 30
0.0
  0
LINE
  5
5C8
100
AcDbEntity
  8
L1_
  6
CONTINUOUS
 62
         4
100
AcDbLine
 10
1590.9210611229
 20
-152.9900166132
 30
0.0
 11
1590.9210611229
 21
-190.4796795837
 31
0.0
  0
LINE
  5
5C9
100
AcDbEntity
  8
L1_
  6
CONTINUOUS
 62
         4
100
AcDbLine
 10
1643.9186999334
 20
-153.3353160748
 30
0.0
 11
1643.9186999334
 21
-190.4796795837
 31
0.0
  0
LINE
  5
5CA
100
AcDbEntity
  8
L1_
  6
CONTINUOUS
 62
         4
100
AcDbLine
 10
1590.9210611229
 20
-189.6046795837
 30
0.0
 11
1643.9186999334
 21
-189.6046795837
 31
0.0
  0
SOLID
  5
5CB
100
AcDbEntity
  8
L1_
  6
CONTINUOUS
 62
         4
100
AcDbTrace
 10
1590.9210611229
 20
-189.6046795837
 30
0.0
 11
1594.4210611229
 21
-189.0796795837
 31
0.0
 12
1594.4210611229
 22
-190.1296795837
 32
0.0
 13
1590.9210611229
 23
-189.6046795837
 33
0.0
  0
SOLID
  5
5CC
100
AcDbEntity
  8
L1_
  6
CONTINUOUS
 62
         4
100
AcDbTrace
 10
1643.9186999334
 20
-189.6046795837
 30
0.0
 11
1640.4186999334
 21
-190.1296795837
 31
0.0
 12
1640.4186999334
 22
-189.0796795837
 32
0.0
 13
1643.9186999334
 23
-189.6046795837
 33
0.0
  0
TEXT
  5
5CE
100
AcDbEntity
  8
L1_
  6
CONTINUOUS
 62
         4
100
AcDbText
 10
1608.9971291083
 20
-185.5446795837
 30
0.0
 40
3.5
  1
53
  7
BOX
100
AcDbText
  0
ENDBLK
  5
5CF
100
AcDbEntity
  8
0
  6
CONTINUOUS
100
AcDbBlockEnd
  0
BLOCK
  5
5D1
100
AcDbEntity
  8
0
100
AcDbBlockBegin
  2
*D26
 70
        65
 10
0.0
 20
0.0
 30
0.0
  3
*D26
  1

  0
POINT
  5
5D3
100
AcDbEntity
  8
DEFPOINTS
  6
CONTINUOUS
 62
         0
100
AcDbPoint
 10
1643.9186999334
 20
-201.3486262171
 30
0.0
  0
POINT
  5
5D4
100
AcDbEntity
  8
DEFPOINTS
  6
CONTINUOUS
 62
         0
100
AcDbPoint
 10
1643.9186999334
 20
-151.1245465594
 30
0.0
  0
POINT
  5
5D5
100
AcDbEntity
  8
DEFPOINTS
  6
CONTINUOUS
 62
         0
100
AcDbPoint
 10
1563.9186999334
 20
-144.7400166132
 30
0.0
  0
LINE
  5
5D6
100
AcDbEntity
  8
L1_
  6
CONTINUOUS
 62
         4
100
AcDbLine
 10
1643.9186999334
 20
-152.8745465594
 30
0.0
 11
1643.9186999334
 21
-202.2236262171
 31
0.0
  0
LINE
  5
5D7
100
AcDbEntity
  8
L1_
  6
CONTINUOUS
 62
         4
100
AcDbLine
 10
1563.9186999334
 20
-146.4900166132
 30
0.0
 11
1563.9186999334
 21
-202.2236262171
 31
0.0
  0
LINE
  5
5D8
100
AcDbEntity
  8
L1_
  6
CONTINUOUS
 62
         4
100
AcDbLine
 10
1643.9186999334
 20
-201.3486262171
 30
0.0
 11
1563.9186999334
 21
-201.3486262171
 31
0.0
  0
SOLID
  5
5D9
100
AcDbEntity
  8
L1_
  6
CONTINUOUS
 62
         4
100
AcDbTrace
 10
1643.9186999334
 20
-201.3486262171
 30
0.0
 11
1640.4186999334
 21
-201.8736262171
 31
0.0
 12
1640.4186999334
 22
-200.8236262171
 32
0.0
 13
1643.9186999334
 23
-201.3486262171
 33
0.0
  0
SOLID
  5
5DA
100
AcDbEntity
  8
L1_
  6
CONTINUOUS
 62
         4
100
AcDbTrace
 10
1563.9186999334
 20
-201.3486262171
 30
0.0
 11
1567.4186999334
 21
-200.8236262171
 31
0.0
 12
1567.4186999334
 22
-201.8736262171
 32
0.0
 13
1563.9186999334
 23
-201.3486262171
 33
0.0
  0
TEXT
  5
5DC
100
AcDbEntity
  8
L1_
  6
CONTINUOUS
 62
         4
100
AcDbText
 10
1594.420400196
 20
-197.2886262171
 30
0.0
 40
3.5
  1
80
  7
BOX
100
AcDbText
  0
ENDBLK
  5
5DD
100
AcDbEntity
  8
0
  6
CONTINUOUS
100
AcDbBlockEnd
  0
BLOCK
  5
5DF
100
AcDbEntity
  8
0
100
AcDbBlockBegin
  2
*D27
 70
        65
 10
0.0
 20
0.0
 30
0.0
  3
*D27
  1

  0
POINT
  5
5E1
100
AcDbEntity
  8
DEFPOINTS
  6
CONTINUOUS
 62
         0
100
AcDbPoint
 10
1643.9186999334
 20
177.6605605892
 30
0.0
  0
POINT
  5
5E2
100
AcDbEntity
  8
DEFPOINTS
  6
CONTINUOUS
 62
         0
100
AcDbPoint
 10
1643.9186999334
 20
136.6369443847
 30
0.0
  0
POINT
  5
5E3
100
AcDbEntity
  8
DEFPOINTS
  6
CONTINUOUS
 62
         0
100
AcDbPoint
 10
1592.9186999334
 20
142.7524144385
 30
0.0
  0
LINE
  5
5E4
100
AcDbEntity
  8
L1_
  6
CONTINUOUS
 62
         4
100
AcDbLine
 10
1643.9186999334
 20
138.3869443847
 30
0.0
 11
1643.9186999334
 21
178.5355605892
 31
0.0
  0
LINE
  5
5E5
100
AcDbEntity
  8
L1_
  6
CONTINUOUS
 62
         4
100
AcDbLine
 10
1592.9186999334
 20
144.5024144385
 30
0.0
 11
1592.9186999334
 21
178.5355605892
 31
0.0
  0
LINE
  5
5E6
100
AcDbEntity
  8
L1_
  6
CONTINUOUS
 62
         4
100
AcDbLine
 10
1643.9186999334
 20
177.6605605892
 30
0.0
 11
1592.9186999334
 21
177.6605605892
 31
0.0
  0
SOLID
  5
5E7
100
AcDbEntity
  8
L1_
  6
CONTINUOUS
 62
         4
100
AcDbTrace
 10
1643.9186999334
 20
177.6605605892
 30
0.0
 11
1640.4186999334
 21
177.1355605892
 31
0.0
 12
1640.4186999334
 22
178.1855605892
 32
0.0
 13
1643.9186999334
 23
177.6605605892
 33
0.0
  0
SOLID
  5
5E8
100
AcDbEntity
  8
L1_
  6
CONTINUOUS
 62
         4
100
AcDbTrace
 10
1592.9186999334
 20
177.6605605892
 30
0.0
 11
1596.4186999334
 21
178.1855605892
 31
0.0
 12
1596.4186999334
 22
177.1355605892
 32
0.0
 13
1592.9186999334
 23
177.6605605892
 33
0.0
  0
TEXT
  5
5EA
100
AcDbEntity
  8
L1_
  6
CONTINUOUS
 62
         4
100
AcDbText
 10
1610.762279875
 20
181.7205605892
 30
0.0
 40
3.5
  1
51
  7
BOX
100
AcDbText
  0
ENDBLK
  5
5EB
100
AcDbEntity
  8
0
  6
CONTINUOUS
100
AcDbBlockEnd
  0
BLOCK
  5
5ED
100
AcDbEntity
  8
0
100
AcDbBlockBegin
  2
*D28
 70
        65
 10
0.0
 20
0.0
 30
0.0
  3
*D28
  1

  0
POINT
  5
5EF
100
AcDbEntity
  8
DEFPOINTS
  6
CONTINUOUS
 62
         0
100
AcDbPoint
 10
1643.9186999334
 20
167.6248243751
 30
0.0
  0
POINT
  5
5F0
100
AcDbEntity
  8
DEFPOINTS
  6
CONTINUOUS
 62
         0
100
AcDbPoint
 10
1643.9186999334
 20
136.6369443847
 30
0.0
  0
POINT
  5
5F1
100
AcDbEntity
  8
DEFPOINTS
  6
CONTINUOUS
 62
         0
100
AcDbPoint
 10
1632.9186999334
 20
141.2524144385
 30
0.0
  0
LINE
  5
5F2
100
AcDbEntity
  8
L1_
  6
CONTINUOUS
 62
         4
100
AcDbLine
 10
1643.9186999334
 20
138.3869443847
 30
0.0
 11
1643.9186999334
 21
168.4998243751
 31
0.0
  0
LINE
  5
5F3
100
AcDbEntity
  8
L1_
  6
CONTINUOUS
 62
         4
100
AcDbLine
 10
1632.9186999334
 20
143.0024144385
 30
0.0
 11
1632.9186999334
 21
168.4998243751
 31
0.0
  0
LINE
  5
5F4
100
AcDbEntity
  8
L1_
  6
CONTINUOUS
 62
         4
100
AcDbLine
 10
1643.9186999334
 20
167.6248243751
 30
0.0
 11
1632.9186999334
 21
167.6248243751
 31
0.0
  0
SOLID
  5
5F5
100
AcDbEntity
  8
L1_
  6
CONTINUOUS
 62
         4
100
AcDbTrace
 10
1643.9186999334
 20
167.6248243751
 30
0.0
 11
1640.4186999334
 21
167.0998243751
 31
0.0
 12
1640.4186999334
 22
168.1498243751
 32
0.0
 13
1643.9186999334
 23
167.6248243751
 33
0.0
  0
LINE
  5
5F6
100
AcDbEntity
  8
L1_
  6
CONTINUOUS
 62
         4
100
AcDbLine
 10
1632.9186999334
 20
167.6248243751
 30
0.0
 11
1621.539156284
 21
167.6248243751
 31
0.0
  0
SOLID
  5
5F7
100
AcDbEntity
  8
L1_
  6
CONTINUOUS
 62
         4
100
AcDbTrace
 10
1632.9186999334
 20
167.6248243751
 30
0.0
 11
1636.4186999334
 21
168.1498243751
 31
0.0
 12
1636.4186999334
 22
167.0998243751
 32
0.0
 13
1632.9186999334
 23
167.6248243751
 33
0.0
  0
TEXT
  5
5F9
100
AcDbEntity
  8
L1_
  6
CONTINUOUS
 62
         4
100
AcDbText
 10
1623.289156284
 20
171.6848243751
 30
0.0
 40
3.5
  1
11
  7
BOX
100
AcDbText
  0
ENDBLK
  5
5FA
100
AcDbEntity
  8
0
  6
CONTINUOUS
100
AcDbBlockEnd
  0
BLOCK
  5
5FC
100
AcDbEntity
  8
0
100
AcDbBlockBegin
  2
*D29
 70
        65
 10
0.0
 20
0.0
 30
0.0
  3
*D29
  1

  0
POINT
  5
5FE
100
AcDbEntity
  8
DEFPOINTS
  6
CONTINUOUS
 62
         0
100
AcDbPoint
 10
1632.9186999334
 20
156.521456649
 30
0.0
  0
POINT
  5
5FF
100
AcDbEntity
  8
DEFPOINTS
  6
CONTINUOUS
 62
         0
100
AcDbPoint
 10
1632.9186999334
 20
141.2524144385
 30
0.0
  0
POINT
  5
600
100
AcDbEntity
  8
DEFPOINTS
  6
CONTINUOUS
 62
         0
100
AcDbPoint
 10
1634.9186999334
 20
141.2524144385
 30
0.0
  0
LINE
  5
601
100
AcDbEntity
  8
L1_
  6
CONTINUOUS
 62
         4
100
AcDbLine
 10
1632.9186999334
 20
143.0024144385
 30
0.0
 11
1632.9186999334
 21
157.396456649
 31
0.0
  0
LINE
  5
602
100
AcDbEntity
  8
L1_
  6
CONTINUOUS
 62
         4
100
AcDbLine
 10
1634.9186999334
 20
143.0024144385
 30
0.0
 11
1634.9186999334
 21
157.396456649
 31
0.0
  0
LINE
  5
603
100
AcDbEntity
  8
L1_
  6
CONTINUOUS
 62
         4
100
AcDbLine
 10
1632.9186999334
 20
156.521456649
 30
0.0
 11
1613.9509393246
 21
156.521456649
 31
0.0
  0
SOLID
  5
604
100
AcDbEntity
  8
L1_
  6
CONTINUOUS
 62
         4
100
AcDbTrace
 10
1632.9186999334
 20
156.521456649
 30
0.0
 11
1629.4186999334
 21
155.996456649
 31
0.0
 12
1629.4186999334
 22
157.046456649
 32
0.0
 13
1632.9186999334
 23
156.521456649
 33
0.0
  0
LINE
  5
605
100
AcDbEntity
  8
L1_
  6
CONTINUOUS
 62
         4
100
AcDbLine
 10
1634.9186999334
 20
156.521456649
 30
0.0
 11
1641.9186999334
 21
156.521456649
 31
0.0
  0
SOLID
  5
606
100
AcDbEntity
  8
L1_
  6
CONTINUOUS
 62
         4
100
AcDbTrace
 10
1634.9186999334
 20
156.521456649
 30
0.0
 11
1638.4186999334
 21
157.046456649
 31
0.0
 12
1638.4186999334
 22
155.996456649
 32
0.0
 13
1634.9186999334
 23
156.521456649
 33
0.0
  0
LINE
  5
607
100
AcDbEntity
  8
L1_
  6
CONTINUOUS
 62
         4
100
AcDbLine
 10
1632.9186999334
 20
156.521456649
 30
0.0
 11
1634.9186999334
 21
156.521456649
 31
0.0
  0
TEXT
  5
609
100
AcDbEntity
  8
L1_
  6
CONTINUOUS
 62
         4
100
AcDbText
 10
1615.7009393246
 20
160.581456649
 30
0.0
 40
3.5
  1
2
  7
BOX
100
AcDbText
  0
ENDBLK
  5
60A
100
AcDbEntity
  8
0
  6
CONTINUOUS
100
AcDbBlockEnd
  0
BLOCK
  5
60C
100
AcDbEntity
  8
0
100
AcDbBlockBegin
  2
*D30
 70
        65
 10
0.0
 20
0.0
 30
0.0
  3
*D30
  1

  0
POINT
  5
60E
100
AcDbEntity
  8
DEFPOINTS
  6
CONTINUOUS
 62
         0
100
AcDbPoint
 10
1680.8186605768
 20
141.2524144385
 30
0.0
  0
POINT
  5
60F
100
AcDbEntity
  8
DEFPOINTS
  6
CONTINUOUS
 62
         0
100
AcDbPoint
 10
1635.4585729145
 20
141.2524144385
 30
0.0
  0
POINT
  5
610
100
AcDbEntity
  8
DEFPOINTS
  6
CONTINUOUS
 62
         0
100
AcDbPoint
 10
1634.9186999334
 20
83.2524144385
 30
0.0
  0
LINE
  5
611
100
AcDbEntity
  8
L1_
  6
CONTINUOUS
 62
         4
100
AcDbLine
 10
1637.2085729145
 20
141.2524144385
 30
0.0
 11
1681.6936605768
 21
141.2524144385
 31
0.0
  0
LINE
  5
612
100
AcDbEntity
  8
L1_
  6
CONTINUOUS
 62
         4
100
AcDbLine
 10
1636.6686999334
 20
83.2524144385
 30
0.0
 11
1681.6936605768
 21
83.2524144385
 31
0.0
  0
LINE
  5
613
100
AcDbEntity
  8
L1_
  6
CONTINUOUS
 62
         4
100
AcDbLine
 10
1680.8186605768
 20
141.2524144385
 30
0.0
 11
1680.8186605768
 21
83.2524144385
 31
0.0
  0
SOLID
  5
614
100
AcDbEntity
  8
L1_
  6
CONTINUOUS
 62
         4
100
AcDbTrace
 10
1680.8186605768
 20
141.2524144385
 30
0.0
 11
1681.3436605768
 21
137.7524144385
 31
0.0
 12
1680.2936605768
 22
137.7524144385
 32
0.0
 13
1680.8186605768
 23
141.2524144385
 33
0.0
  0
SOLID
  5
615
100
AcDbEntity
  8
L1_
  6
CONTINUOUS
 62
         4
100
AcDbTrace
 10
1680.8186605768
 20
83.2524144385
 30
0.0
 11
1680.2936605768
 21
86.7524144385
 31
0.0
 12
1681.3436605768
 22
86.7524144385
 32
0.0
 13
1680.8186605768
 23
83.2524144385
 33
0.0
  0
TEXT
  5
617
100
AcDbEntity
  8
L1_
  6
CONTINUOUS
 62
         4
100
AcDbText
 10
1676.7586605768
 20
99.5021600365
 30
0.0
 40
3.5
  1
崷58
 50
90.0
  7
BOX
100
AcDbText
  0
ENDBLK
  5
618
100
AcDbEntity
  8
0
  6
CONTINUOUS
100
AcDbBlockEnd
  0
BLOCK
  5
61A
100
AcDbEntity
  8
0
100
AcDbBlockBegin
  2
*D31
 70
        65
 10
0.0
 20
0.0
 30
0.0
  3
*D31
  1

  0
POINT
  5
61C
100
AcDbEntity
  8
DEFPOINTS
  6
CONTINUOUS
 62
         0
100
AcDbPoint
 10
1670.9175476125
 20
140.2524144385
 30
0.0
  0
POINT
  5
61D
100
AcDbEntity
  8
DEFPOINTS
  6
CONTINUOUS
 62
         0
100
AcDbPoint
 10
1634.9186999334
 20
140.2524144385
 30
0.0
  0
POINT
  5
61E
100
AcDbEntity
  8
DEFPOINTS
  6
CONTINUOUS
 62
         0
100
AcDbPoint
 10
1634.9186999334
 20
84.2524144385
 30
0.0
  0
LINE
  5
61F
100
AcDbEntity
  8
L1_
  6
CONTINUOUS
 62
         4
100
AcDbLine
 10
1636.6686999334
 20
140.2524144385
 30
0.0
 11
1671.7925476125
 21
140.2524144385
 31
0.0
  0
LINE
  5
620
100
AcDbEntity
  8
L1_
  6
CONTINUOUS
 62
         4
100
AcDbLine
 10
1636.6686999334
 20
84.2524144385
 30
0.0
 11
1671.7925476125
 21
84.2524144385
 31
0.0
  0
LINE
  5
621
100
AcDbEntity
  8
L1_
  6
CONTINUOUS
 62
         4
100
AcDbLine
 10
1670.9175476125
 20
140.2524144385
 30
0.0
 11
1670.9175476125
 21
84.2524144385
 31
0.0
  0
SOLID
  5
622
100
AcDbEntity
  8
L1_
  6
CONTINUOUS
 62
         4
100
AcDbTrace
 10
1670.9175476125
 20
140.2524144385
 30
0.0
 11
1671.4425476125
 21
136.7524144385
 31
0.0
 12
1670.3925476125
 22
136.7524144385
 32
0.0
 13
1670.9175476125
 23
140.2524144385
 33
0.0
  0
SOLID
  5
623
100
AcDbEntity
  8
L1_
  6
CONTINUOUS
 62
         4
100
AcDbTrace
 10
1670.9175476125
 20
84.2524144385
 30
0.0
 11
1670.3925476125
 21
87.7524144385
 31
0.0
 12
1671.4425476125
 22
87.7524144385
 32
0.0
 13
1670.9175476125
 23
84.2524144385
 33
0.0
  0
TEXT
  5
625
100
AcDbEntity
  8
L1_
  6
CONTINUOUS
 62
         4
100
AcDbText
 10
1666.8575476125
 20
99.6351255183
 30
0.0
 40
3.5
  1
崷56
 50
90.0
  7
BOX
100
AcDbText
  0
ENDBLK
  5
626
100
AcDbEntity
  8
0
  6
CONTINUOUS
100
AcDbBlockEnd
  0
BLOCK
  5
628
100
AcDbEntity
  8
0
100
AcDbBlockBegin
  2
*D32
 70
        65
 10
0.0
 20
0.0
 30
0.0
  3
*D32
  1

  0
POINT
  5
62A
100
AcDbEntity
  8
DEFPOINTS
  6
CONTINUOUS
 62
         0
100
AcDbPoint
 10
1622.9136999334
 20
70.2713197536
 30
0.0
  0
POINT
  5
62B
100
AcDbEntity
  8
DEFPOINTS
  6
CONTINUOUS
 62
         0
100
AcDbPoint
 10
1622.9136999334
 20
104.4176846612
 30
0.0
  0
POINT
  5
62C
100
AcDbEntity
  8
DEFPOINTS
  6
CONTINUOUS
 62
         0
100
AcDbPoint
 10
1643.9186999334
 20
87.8678844924
 30
0.0
  0
LINE
  5
62D
100
AcDbEntity
  8
L1_
  6
CONTINUOUS
 62
         4
100
AcDbLine
 10
1622.9136999334
 20
102.6676846612
 30
0.0
 11
1622.9136999334
 21
69.3963197536
 31
0.0
  0
LINE
  5
62E
100
AcDbEntity
  8
L1_
  6
CONTINUOUS
 62
         4
100
AcDbLine
 10
1643.9186999334
 20
86.1178844924
 30
0.0
 11
1643.9186999334
 21
69.3963197536
 31
0.0
  0
LINE
  5
62F
100
AcDbEntity
  8
L1_
  6
CONTINUOUS
 62
         4
100
AcDbLine
 10
1622.9136999334
 20
70.2713197536
 30
0.0
 11
1643.9186999334
 21
70.2713197536
 31
0.0
  0
SOLID
  5
630
100
AcDbEntity
  8
L1_
  6
CONTINUOUS
 62
         4
100
AcDbTrace
 10
1622.9136999334
 20
70.2713197536
 30
0.0
 11
1626.4136999334
 21
70.7963197536
 31
0.0
 12
1626.4136999334
 22
69.7463197536
 32
0.0
 13
1622.9136999334
 23
70.2713197536
 33
0.0
  0
SOLID
  5
631
100
AcDbEntity
  8
L1_
  6
CONTINUOUS
 62
         4
100
AcDbTrace
 10
1643.9186999334
 20
70.2713197536
 30
0.0
 11
1640.4186999334
 21
69.7463197536
 31
0.0
 12
1640.4186999334
 22
70.7963197536
 32
0.0
 13
1643.9186999334
 23
70.2713197536
 33
0.0
  0
TEXT
  5
633
100
AcDbEntity
  8
L1_
  6
CONTINUOUS
 62
         4
100
AcDbText
 10
1624.23680635
 20
74.3313197536
 30
0.0
 40
3.5
  1
21
  7
BOX
100
AcDbText
  0
ENDBLK
  5
634
100
AcDbEntity
  8
0
  6
CONTINUOUS
100
AcDbBlockEnd
  0
BLOCK
  5
636
100
AcDbEntity
  8
0
100
AcDbBlockBegin
  2
*D33
 70
        65
 10
0.0
 20
0.0
 30
0.0
  3
*D33
  1

  0
POINT
  5
638
100
AcDbEntity
  8
DEFPOINTS
  6
CONTINUOUS
 62
         0
100
AcDbPoint
 10
1643.9186999334
 20
59.0779659429
 30
0.0
  0
POINT
  5
639
100
AcDbEntity
  8
DEFPOINTS
  6
CONTINUOUS
 62
         0
100
AcDbPoint
 10
1643.9186999334
 20
87.8678844924
 30
0.0
  0
POINT
  5
63A
100
AcDbEntity
  8
DEFPOINTS
  6
CONTINUOUS
 62
         0
100
AcDbPoint
 10
1604.8236999334
 20
104.4176846581
 30
0.0
  0
LINE
  5
63B
100
AcDbEntity
  8
L1_
  6
CONTINUOUS
 62
         4
100
AcDbLine
 10
1643.9186999334
 20
86.1178844924
 30
0.0
 11
1643.9186999334
 21
58.2029659429
 31
0.0
  0
LINE
  5
63C
100
AcDbEntity
  8
L1_
  6
CONTINUOUS
 62
         4
100
AcDbLine
 10
1604.8236999334
 20
102.6676846581
 30
0.0
 11
1604.8236999334
 21
58.2029659429
 31
0.0
  0
LINE
  5
63D
100
AcDbEntity
  8
L1_
  6
CONTINUOUS
 62
         4
100
AcDbLine
 10
1643.9186999334
 20
59.0779659429
 30
0.0
 11
1604.8236999334
 21
59.0779659429
 31
0.0
  0
SOLID
  5
63E
100
AcDbEntity
  8
L1_
  6
CONTINUOUS
 62
         4
100
AcDbTrace
 10
1643.9186999334
 20
59.0779659429
 30
0.0
 11
1640.4186999334
 21
58.5529659429
 31
0.0
 12
1640.4186999334
 22
59.6029659429
 32
0.0
 13
1643.9186999334
 23
59.0779659429
 33
0.0
  0
SOLID
  5
63F
100
AcDbEntity
  8
L1_
  6
CONTINUOUS
 62
         4
100
AcDbTrace
 10
1604.8236999334
 20
59.0779659429
 30
0.0
 11
1608.3236999334
 21
59.6029659429
 31
0.0
 12
1608.3236999334
 22
58.5529659429
 32
0.0
 13
1604.8236999334
 23
59.0779659429
 33
0.0
  0
TEXT
  5
641
100
AcDbEntity
  8
L1_
  6
CONTINUOUS
 62
         4
100
AcDbText
 10
1616.6598774823
 20
63.1379659429
 30
0.0
 40
3.5
  1
39.1
  7
BOX
100
AcDbText
  0
ENDBLK
  5
642
100
AcDbEntity
  8
0
  6
CONTINUOUS
100
AcDbBlockEnd
  0
BLOCK
  5
644
100
AcDbEntity
  8
0
100
AcDbBlockBegin
  2
*D34
 70
        65
 10
0.0
 20
0.0
 30
0.0
  3
*D34
  1

  0
POINT
  5
646
100
AcDbEntity
  8
DEFPOINTS
  6
CONTINUOUS
 62
         0
100
AcDbPoint
 10
1613.8012783126
 20
117.2024144385
 30
0.0
  0
POINT
  5
647
100
AcDbEntity
  8
DEFPOINTS
  6
CONTINUOUS
 62
         0
100
AcDbPoint
 10
1604.8236999334
 20
117.2024144385
 30
0.0
  0
POINT
  5
648
100
AcDbEntity
  8
DEFPOINTS
  6
CONTINUOUS
 62
         0
100
AcDbPoint
 10
1604.8236999334
 20
107.3024144385
 30
0.0
  0
LINE
  5
649
100
AcDbEntity
  8
L1_
  6
CONTINUOUS
 62
         4
100
AcDbLine
 10
1606.5736999334
 20
117.2024144385
 30
0.0
 11
1614.6762783126
 21
117.2024144385
 31
0.0
  0
LINE
  5
64A
100
AcDbEntity
  8
L1_
  6
CONTINUOUS
 62
         4
100
AcDbLine
 10
1606.5736999334
 20
107.3024144385
 30
0.0
 11
1614.6762783126
 21
107.3024144385
 31
0.0
  0
LINE
  5
64B
100
AcDbEntity
  8
L1_
  6
CONTINUOUS
 62
         4
100
AcDbLine
 10
1613.8012783126
 20
117.2024144385
 30
0.0
 11
1613.8012783126
 21
107.3024144385
 31
0.0
  0
SOLID
  5
64C
100
AcDbEntity
  8
L1_
  6
CONTINUOUS
 62
         4
100
AcDbTrace
 10
1613.8012783126
 20
117.2024144385
 30
0.0
 11
1614.3262783126
 21
113.7024144385
 31
0.0
 12
1613.2762783126
 22
113.7024144385
 32
0.0
 13
1613.8012783126
 23
117.2024144385
 33
0.0
  0
LINE
  5
64D
100
AcDbEntity
  8
L1_
  6
CONTINUOUS
 62
         4
100
AcDbLine
 10
1613.8012783126
 20
107.3024144385
 30
0.0
 11
1613.8012783126
 21
27.8743455289
 31
0.0
  0
SOLID
  5
64E
100
AcDbEntity
  8
L1_
  6
CONTINUOUS
 62
         4
100
AcDbTrace
 10
1613.8012783126
 20
107.3024144385
 30
0.0
 11
1613.2762783126
 21
110.8024144385
 31
0.0
 12
1614.3262783126
 22
110.8024144385
 32
0.0
 13
1613.8012783126
 23
107.3024144385
 33
0.0
  0
TEXT
  5
650
100
AcDbEntity
  8
L1_
  6
CONTINUOUS
 62
         4
100
AcDbText
 10
1609.7412783126
 20
29.6243455289
 30
0.0
 40
3.5
  1
9.55
 50
90.0
  7
BOX
100
AcDbText
  0
ENDBLK
  5
651
100
AcDbEntity
  8
0
  6
CONTINUOUS
100
AcDbBlockEnd
  0
ENDSEC
  0
SECTION
  2
ENTITIES
  0
LINE
  5
26
100
AcDbEntity
  8
L1_
  6
CENTER
 62
         1
100
AcDbLine
 10
1896.7098712502
 20
-257.9523903631
 30
0.0
 11
1693.5994756623
 21
-257.9523903631
 31
0.0
  0
DIMENSION
  5
2A
100
AcDbEntity
  8
L1_
  6
CONTINUOUS
 62
         4
100
AcDbDimension
  2
*D0
 10
1829.7217501984
 20
-233.0523903631
 30
0.0
 11
1827.2917501984
 21
-267.6723903631
 31
0.0
  3
DIMSTYLE1
100
AcDbAlignedDimension
 13
1817.5069359353
 23
-233.0523903631
 33
0.0
 14
1817.5069359353
 24
-282.8523903631
 34
0.0
 50
90.0
100
AcDbRotatedDimension
  0
DIMENSION
  5
39
100
AcDbEntity
  8
L1_
  6
CONTINUOUS
 62
         4
100
AcDbDimension
  2
*D1
 10
1800.2117529206
 20
-238.4523903631
 30
0.0
 11
1797.7817529206
 21
-267.6723903631
 31
0.0
  3
DIMSTYLE1
100
AcDbAlignedDimension
 13
1787.4574249827
 23
-238.4523903631
 33
0.0
 14
1787.4574249827
 24
-277.4523903631
 34
0.0
 50
90.0
100
AcDbRotatedDimension
  0
CIRCLE
  5
45
100
AcDbEntity
  8
L1_
  6
CONTINUOUS
 62
         7
100
AcDbCircle
 10
1787.4574249827
 20
-276.5523903631
 30
0.0
 40
0.9
  0
LINE
  5
46
100
AcDbEntity
  8
L1_
  6
CONTINUOUS
 62
         7
100
AcDbLine
 10
1786.5574249827
 20
-239.3523903631
 30
0.0
 11
1786.5574249827
 21
-276.5523903631
 31
0.0
  0
LINE
  5
47
100
AcDbEntity
  8
L1_
  6
CONTINUOUS
 62
         7
100
AcDbLine
 10
1788.3574249827
 20
-276.5523903631
 30
0.0
 11
1788.3574249827
 21
-239.3523903631
 31
0.0
  0
CIRCLE
  5
48
100
AcDbEntity
  8
L1_
  6
CONTINUOUS
 62
         7
100
AcDbCircle
 10
1787.4574249827
 20
-239.3523903631
 30
0.0
 40
0.9
  0
CIRCLE
  5
49
100
AcDbEntity
  8
L1_
  6
CONTINUOUS
 62
         7
100
AcDbCircle
 10
1817.5069359353
 20
-281.9523903631
 30
0.0
 40
0.9
  0
LINE
  5
4A
100
AcDbEntity
  8
L1_
  6
CONTINUOUS
 62
         7
100
AcDbLine
 10
1818.4069359353
 20
-233.9523903631
 30
0.0
 11
1818.4069359353
 21
-281.9523903631
 31
0.0
  0
LINE
  5
4B
100
AcDbEntity
  8
L1_
  6
CONTINUOUS
 62
         7
100
AcDbLine
 10
1816.6069359353
 20
-281.9523903631
 30
0.0
 11
1816.6069359353
 21
-233.9523903631
 31
0.0
  0
CIRCLE
  5
4C
100
AcDbEntity
  8
L1_
  6
CONTINUOUS
 62
         7
100
AcDbCircle
 10
1817.5069359353
 20
-233.9523903631
 30
0.0
 40
0.9
  0
LINE
  5
4D
100
AcDbEntity
  8
L1_
  6
CONTINUOUS
 62
         7
100
AcDbLine
 10
1751.7143400336
 20
-273.4923903631
 30
0.0
 11
1751.7143400336
 21
-242.4123903631
 31
0.0
  0
LINE
  5
4E
100
AcDbEntity
  8
L1_
  6
CONTINUOUS
 62
         7
100
AcDbLine
 10
1750.2743400336
 20
-273.4923903631
 30
0.0
 11
1750.2743400336
 21
-242.4123903631
 31
0.0
  0
LINE
  5
4F
100
AcDbEntity
  8
L1_
  6
CONTINUOUS
 62
         7
100
AcDbLine
 10
1751.7143400336
 20
-242.4123903631
 30
0.0
 11
1750.2743400336
 21
-242.4123903631
 31
0.0
  0
LINE
  5
50
100
AcDbEntity
  8
L1_
  6
CONTINUOUS
 62
         7
100
AcDbLine
 10
1751.7143400336
 20
-273.4923903631
 30
0.0
 11
1750.2743400336
 21
-273.4923903631
 31
0.0
  0
LINE
  5
51
100
AcDbEntity
  8
L1_
  6
CONTINUOUS
 62
         7
100
AcDbLine
 10
1751.7143400336
 20
-245.4123903631
 30
0.0
 11
1750.2743400336
 21
-245.4123903631
 31
0.0
  0
LINE
  5
52
100
AcDbEntity
  8
L1_
  6
CONTINUOUS
 62
         7
100
AcDbLine
 10
1751.7143400336
 20
-270.4923903631
 30
0.0
 11
1750.2743400336
 21
-270.4923903631
 31
0.0
  0
CIRCLE
  5
53
100
AcDbEntity
  8
L1_
  6
CONTINUOUS
 62
         7
100
AcDbCircle
 10
1710.0568964368
 20
-223.1523903631
 30
0.0
 40
1.2
  0
CIRCLE
  5
54
100
AcDbEntity
  8
L1_
  6
CONTINUOUS
 62
         7
100
AcDbCircle
 10
1710.0568964368
 20
-292.7523903631
 30
0.0
 40
1.2
  0
LINE
  5
55
100
AcDbEntity
  8
L1_
  6
CONTINUOUS
 62
         7
100
AcDbLine
 10
1711.2568964368
 20
-223.1523903631
 30
0.0
 11
1711.2568964368
 21
-292.7523903631
 31
0.0
  0
LINE
  5
56
100
AcDbEntity
  8
L1_
  6
CONTINUOUS
 62
         7
100
AcDbLine
 10
1708.8568964368
 20
-292.7523903631
 30
0.0
 11
1708.8568964368
 21
-223.1523903631
 31
0.0
  0
DIMENSION
  5
59
100
AcDbEntity
  8
L1_
  6
CONTINUOUS
 62
         4
100
AcDbDimension
  2
*D2
 10
1725.1211370446
 20
-221.9523903631
 30
0.0
 11
1722.6911370446
 21
-264.4323903631
 31
0.0
  3
DIMSTYLE1
100
AcDbAlignedDimension
 13
1710.0568964368
 23
-221.9523903631
 33
0.0
 14
1710.0568964368
 24
-293.9523903631
 34
0.0
 50
90.0
100
AcDbRotatedDimension
  0
DIMENSION
  5
67
100
AcDbEntity
  8
L1_
  6
CONTINUOUS
 62
         4
100
AcDbDimension
  2
*D3
 10
1760.6927926535
 20
-242.4123903631
 30
0.0
 11
1758.2627926535
 21
-264.4323903631
 31
0.0
  3
DIMSTYLE1
100
AcDbAlignedDimension
 13
1751.7143400336
 23
-242.4123903631
 33
0.0
 14
1751.7143400336
 24
-273.4923903631
 34
0.0
 50
90.0
100
AcDbRotatedDimension
  0
DIMENSION
  5
75
100
AcDbEntity
  8
L1_
  6
CONTINUOUS
 62
         4
100
AcDbDimension
  2
*D4
 10
1750.2743400336
 20
-235.8780286575
 30
0.0
 11
1746.1343400336
 21
-233.4480286575
 31
0.0
  3
DIMSTYLE1
100
AcDbAlignedDimension
 13
1750.2743400336
 23
-242.4123903631
 33
0.0
 14
1751.7143400336
 24
-242.4123903631
 34
0.0
100
AcDbRotatedDimension
  0
LINE
  5
81
100
AcDbEntity
  8
L1_
  6
CENTER
 62
         1
100
AcDbLine
 10
1853.7762958332
 20
-267.822832259
 30
0.0
 11
1853.7762958332
 21
-245.2861713709
 31
0.0
  0
LINE
  5
82
100
AcDbEntity
  8
L1_
  6
CENTER
 62
         1
100
AcDbLine
 10
1883.8477198186
 20
-267.822832259
 30
0.0
 11
1883.8477198186
 21
-245.2861713709
 31
0.0
  0
CIRCLE
  5
83
100
AcDbEntity
  8
L1_
  6
CONTINUOUS
 62
         7
100
AcDbCircle
 10
1853.7762958332
 20
-257.9523903631
 30
0.0
 40
3.81
  0
CIRCLE
  5
84
100
AcDbEntity
  8
L1_
  6
CONTINUOUS
 62
         7
100
AcDbCircle
 10
1883.8477198186
 20
-257.9523903631
 30
0.0
 40
5.715
  0
DIMENSION
  5
87
100
AcDbEntity
  8
L1_
  6
CONTINUOUS
 62
         4
100
AcDbDimension
  2
*D5
 10
1853.7762958332
 20
-257.9523903631
 30
0.0
 11
1858.9893780518
 21
-247.0464369796
 31
0.0
 70
         4
  3
DIMSTYLE1
100
AcDbRadialDimension
 15
1855.8894251746
 25
-254.7820931552
 35
0.0
 40
0.0
  0
DIMENSION
  5
92
100
AcDbEntity
  8
L1_
  6
CONTINUOUS
 62
         4
100
AcDbDimension
  2
*D6
 10
1883.8477198186
 20
-257.9523903631
 30
0.0
 11
1887.3999078572
 21
-253.4258338324
 31
0.0
 70
         4
  3
DIMSTYLE1
100
AcDbRadialDimension
 15
1888.5311464391
 25
-254.6772201246
 35
0.0
 40
0.0
  0
LINE
  5
9B
100
AcDbEntity
  8
L1_
  6
CENTER
 62
         1
100
AcDbLine
 10
1957.2934691693
 20
-168.175169037
 30
0.0
 11
1683.1117548177
 21
-168.175169037
 31
0.0
  0
LINE
  5
9C
100
AcDbEntity
  8
L1_
  6
CONTINUOUS
 62
         4
100
AcDbLine
 10
1767.8523895124
 20
-160.375169037
 30
0.0
 11
1767.8523895124
 21
-175.975169037
 31
0.0
  0
LINE
  5
9D
100
AcDbEntity
  8
L1_
  6
CONTINUOUS
 62
         4
100
AcDbLine
 10
1762.4523895124
 20
-160.375169037
 30
0.0
 11
1762.4523895124
 21
-175.975169037
 31
0.0
  0
LINE
  5
9E
100
AcDbEntity
  8
L1_
  6
CONTINUOUS
 62
         7
100
AcDbLine
 10
1762.4523895124
 20
-160.375169037
 30
0.0
 11
1761.8523895124
 21
-160.975169037
 31
0.0
  0
LINE
  5
9F
100
AcDbEntity
  8
L1_
  6
CONTINUOUS
 62
         7
100
AcDbLine
 10
1761.8523895124
 20
-175.375169037
 30
0.0
 11
1761.8523895124
 21
-160.975169037
 31
0.0
  0
LINE
  5
A0
100
AcDbEntity
  8
L1_
  6
CONTINUOUS
 62
         7
100
AcDbLine
 10
1761.8523895124
 20
-175.375169037
 30
0.0
 11
1762.4523895124
 21
-175.975169037
 31
0.0
  0
LINE
  5
A1
100
AcDbEntity
  8
L1_
  6
CONTINUOUS
 62
         7
100
AcDbLine
 10
1767.8523895124
 20
-175.975169037
 30
0.0
 11
1762.4523895124
 21
-175.975169037
 31
0.0
  0
LINE
  5
A2
100
AcDbEntity
  8
L1_
  6
CONTINUOUS
 62
         7
100
AcDbLine
 10
1768.4523895124
 20
-175.375169037
 30
0.0
 11
1767.8523895124
 21
-175.975169037
 31
0.0
  0
LINE
  5
A3
100
AcDbEntity
  8
L1_
  6
CONTINUOUS
 62
         7
100
AcDbLine
 10
1768.4523895124
 20
-175.375169037
 30
0.0
 11
1768.4523895124
 21
-160.975169037
 31
0.0
  0
LINE
  5
A4
100
AcDbEntity
  8
L1_
  6
CONTINUOUS
 62
         7
100
AcDbLine
 10
1767.8523895124
 20
-160.375169037
 30
0.0
 11
1762.4523895124
 21
-160.375169037
 31
0.0
  0
LINE
  5
A5
100
AcDbEntity
  8
L1_
  6
CONTINUOUS
 62
         7
100
AcDbLine
 10
1768.4523895124
 20
-160.975169037
 30
0.0
 11
1767.8523895124
 21
-160.375169037
 31
0.0
  0
LINE
  5
A6
100
AcDbEntity
  8
L1_
  6
CONTINUOUS
 62
         7
100
AcDbLine
 10
1761.8523895124
 20
-163.404569037
 30
0.0
 11
1715.0229895124
 21
-163.404569037
 31
0.0
  0
LINE
  5
A7
100
AcDbEntity
  8
L1_
  6
CONTINUOUS
 62
         7
100
AcDbLine
 10
1761.8523895124
 20
-172.945769037
 30
0.0
 11
1715.0229895124
 21
-172.945769037
 31
0.0
  0
DIMENSION
  5
AA
100
AcDbEntity
  8
L1_
  6
CONTINUOUS
 62
         4
100
AcDbDimension
  2
*D7
 10
1700.3523895124
 20
-135.6901829518
 30
0.0
 11
1725.4939093623
 21
-133.2601829518
 31
0.0
  3
DIMSTYLE1
100
AcDbAlignedDimension
 13
1700.3523895124
 23
-165.175169037
 33
0.0
 14
1768.4523895124
 24
-160.975169037
 34
0.0
100
AcDbRotatedDimension
  0
DIMENSION
  5
B8
100
AcDbEntity
  8
L1_
  6
CONTINUOUS
 62
         4
100
AcDbDimension
  2
*D8
 10
1777.2396844582
 20
-160.375169037
 30
0.0
 11
1774.8096844582
 21
-174.655169037
 31
0.0
  3
DIMSTYLE1
100
AcDbAlignedDimension
 13
1767.8523895124
 23
-160.375169037
 33
0.0
 14
1767.8523895124
 24
-175.975169037
 34
0.0
 50
90.0
100
AcDbRotatedDimension
  0
CIRCLE
  5
C4
100
AcDbEntity
  8
L1_
  6
CONTINUOUS
 62
         7
100
AcDbCircle
 10
1883.6823699083
 20
-161.443169037
 30
0.0
 40
0.882
  0
CIRCLE
  5
C5
100
AcDbEntity
  8
L1_
  6
CONTINUOUS
 62
         7
100
AcDbCircle
 10
1885.4463699083
 20
-161.443169037
 30
0.0
 40
0.882
  0
CIRCLE
  5
C6
100
AcDbEntity
  8
L1_
  6
CONTINUOUS
 62
         7
100
AcDbCircle
 10
1887.2103699083
 20
-161.443169037
 30
0.0
 40
0.882
  0
CIRCLE
  5
C7
100
AcDbEntity
  8
L1_
  6
CONTINUOUS
 62
         7
100
AcDbCircle
 10
1888.9743699083
 20
-161.443169037
 30
0.0
 40
0.882
  0
CIRCLE
  5
C8
100
AcDbEntity
  8
L1_
  6
CONTINUOUS
 62
         7
100
AcDbCircle
 10
1890.7383699083
 20
-161.443169037
 30
0.0
 40
0.882
  0
CIRCLE
  5
C9
100
AcDbEntity
  8
L1_
  6
CONTINUOUS
 62
         7
100
AcDbCircle
 10
1892.5023699083
 20
-161.443169037
 30
0.0
 40
0.882
  0
CIRCLE
  5
CA
100
AcDbEntity
  8
L1_
  6
CONTINUOUS
 62
         7
100
AcDbCircle
 10
1894.2663699083
 20
-161.443169037
 30
0.0
 40
0.882
  0
CIRCLE
  5
CB
100
AcDbEntity
  8
L1_
  6
CONTINUOUS
 62
         7
100
AcDbCircle
 10
1896.0303699083
 20
-161.443169037
 30
0.0
 40
0.882
  0
CIRCLE
  5
CC
100
AcDbEntity
  8
L1_
  6
CONTINUOUS
 62
         7
100
AcDbCircle
 10
1897.7943699083
 20
-161.443169037
 30
0.0
 40
0.882
  0
CIRCLE
  5
CD
100
AcDbEntity
  8
L1_
  6
CONTINUOUS
 62
         7
100
AcDbCircle
 10
1899.5583699083
 20
-161.443169037
 30
0.0
 40
0.882
  0
CIRCLE
  5
CE
100
AcDbEntity
  8
L1_
  6
CONTINUOUS
 62
         7
100
AcDbCircle
 10
1901.3223699083
 20
-161.443169037
 30
0.0
 40
0.882
  0
CIRCLE
  5
CF
100
AcDbEntity
  8
L1_
  6
CONTINUOUS
 62
         7
100
AcDbCircle
 10
1903.0863699083
 20
-161.443169037
 30
0.0
 40
0.882
  0
CIRCLE
  5
D0
100
AcDbEntity
  8
L1_
  6
CONTINUOUS
 62
         7
100
AcDbCircle
 10
1904.8503699083
 20
-161.443169037
 30
0.0
 40
0.882
  0
CIRCLE
  5
D1
100
AcDbEntity
  8
L1_
  6
CONTINUOUS
 62
         7
100
AcDbCircle
 10
1906.6143699083
 20
-161.443169037
 30
0.0
 40
0.882
  0
CIRCLE
  5
D2
100
AcDbEntity
  8
L1_
  6
CONTINUOUS
 62
         7
100
AcDbCircle
 10
1908.3783699083
 20
-161.443169037
 30
0.0
 40
0.882
  0
CIRCLE
  5
D3
100
AcDbEntity
  8
L1_
  6
CONTINUOUS
 62
         7
100
AcDbCircle
 10
1881.9183699083
 20
-174.907169037
 30
0.0
 40
0.882
  0
CIRCLE
  5
D4
100
AcDbEntity
  8
L1_
  6
CONTINUOUS
 62
         7
100
AcDbCircle
 10
1883.6823699083
 20
-174.907169037
 30
0.0
 40
0.882
  0
CIRCLE
  5
D5
100
AcDbEntity
  8
L1_
  6
CONTINUOUS
 62
         7
100
AcDbCircle
 10
1885.4463699083
 20
-174.907169037
 30
0.0
 40
0.882
  0
CIRCLE
  5
D6
100
AcDbEntity
  8
L1_
  6
CONTINUOUS
 62
         7
100
AcDbCircle
 10
1887.2103699083
 20
-174.907169037
 30
0.0
 40
0.882
  0
CIRCLE
  5
D7
100
AcDbEntity
  8
L1_
  6
CONTINUOUS
 62
         7
100
AcDbCircle
 10
1888.9743699083
 20
-174.907169037
 30
0.0
 40
0.882
  0
CIRCLE
  5
D8
100
AcDbEntity
  8
L1_
  6
CONTINUOUS
 62
         7
100
AcDbCircle
 10
1890.7383699083
 20
-174.907169037
 30
0.0
 40
0.882
  0
CIRCLE
  5
D9
100
AcDbEntity
  8
L1_
  6
CONTINUOUS
 62
         7
100
AcDbCircle
 10
1892.5023699083
 20
-174.907169037
 30
0.0
 40
0.882
  0
CIRCLE
  5
DA
100
AcDbEntity
  8
L1_
  6
CONTINUOUS
 62
         7
100
AcDbCircle
 10
1894.2663699083
 20
-174.907169037
 30
0.0
 40
0.882
  0
CIRCLE
  5
DB
100
AcDbEntity
  8
L1_
  6
CONTINUOUS
 62
         7
100
AcDbCircle
 10
1896.0303699083
 20
-174.907169037
 30
0.0
 40
0.882
  0
CIRCLE
  5
DC
100
AcDbEntity
  8
L1_
  6
CONTINUOUS
 62
         7
100
AcDbCircle
 10
1897.7943699083
 20
-174.907169037
 30
0.0
 40
0.882
  0
CIRCLE
  5
DD
100
AcDbEntity
  8
L1_
  6
CONTINUOUS
 62
         7
100
AcDbCircle
 10
1899.5583699083
 20
-174.907169037
 30
0.0
 40
0.882
  0
CIRCLE
  5
DE
100
AcDbEntity
  8
L1_
  6
CONTINUOUS
 62
         7
100
AcDbCircle
 10
1901.3223699083
 20
-174.907169037
 30
0.0
 40
0.882
  0
CIRCLE
  5
DF
100
AcDbEntity
  8
L1_
  6
CONTINUOUS
 62
         7
100
AcDbCircle
 10
1903.0863699083
 20
-174.907169037
 30
0.0
 40
0.882
  0
CIRCLE
  5
E0
100
AcDbEntity
  8
L1_
  6
CONTINUOUS
 62
         7
100
AcDbCircle
 10
1904.8503699083
 20
-174.907169037
 30
0.0
 40
0.882
  0
CIRCLE
  5
E1
100
AcDbEntity
  8
L1_
  6
CONTINUOUS
 62
         7
100
AcDbCircle
 10
1906.6143699083
 20
-174.907169037
 30
0.0
 40
0.882
  0
LINE
  5
E2
100
AcDbEntity
  8
L1_
  6
CONTINUOUS
 62
         7
100
AcDbLine
 10
1909.2603699083
 20
-161.443169037
 30
0.0
 11
1907.4963699083
 21
-174.907169037
 31
0.0
  0
LINE
  5
E3
100
AcDbEntity
  8
L1_
  6
CONTINUOUS
 62
         7
100
AcDbLine
 10
1905.7323699083
 20
-174.907169037
 30
0.0
 11
1907.4963699083
 21
-161.443169037
 31
0.0
  0
LINE
  5
E4
100
AcDbEntity
  8
L1_
  6
CONTINUOUS
 62
         7
100
AcDbLine
 10
1902.2043699083
 20
-174.907169037
 30
0.0
 11
1903.9683699083
 21
-161.443169037
 31
0.0
  0
LINE
  5
E5
100
AcDbEntity
  8
L1_
  6
CONTINUOUS
 62
         7
100
AcDbLine
 10
1905.7323699083
 20
-161.443169037
 30
0.0
 11
1903.9683699083
 21
-174.907169037
 31
0.0
  0
LINE
  5
E6
100
AcDbEntity
  8
L1_
  6
CONTINUOUS
 62
         7
100
AcDbLine
 10
1898.6763699083
 20
-174.907169037
 30
0.0
 11
1900.4403699083
 21
-161.443169037
 31
0.0
  0
LINE
  5
E7
100
AcDbEntity
  8
L1_
  6
CONTINUOUS
 62
         7
100
AcDbLine
 10
1902.2043699083
 20
-161.443169037
 30
0.0
 11
1900.4403699083
 21
-174.907169037
 31
0.0
  0
LINE
  5
E8
100
AcDbEntity
  8
L1_
  6
CONTINUOUS
 62
         7
100
AcDbLine
 10
1895.1483699083
 20
-174.907169037
 30
0.0
 11
1896.9123699083
 21
-161.443169037
 31
0.0
  0
LINE
  5
E9
100
AcDbEntity
  8
L1_
  6
CONTINUOUS
 62
         7
100
AcDbLine
 10
1898.6763699083
 20
-161.443169037
 30
0.0
 11
1896.9123699083
 21
-174.907169037
 31
0.0
  0
LINE
  5
EA
100
AcDbEntity
  8
L1_
  6
CONTINUOUS
 62
         7
100
AcDbLine
 10
1891.6203699083
 20
-174.907169037
 30
0.0
 11
1893.3843699083
 21
-161.443169037
 31
0.0
  0
LINE
  5
EB
100
AcDbEntity
  8
L1_
  6
CONTINUOUS
 62
         7
100
AcDbLine
 10
1895.1483699083
 20
-161.443169037
 30
0.0
 11
1893.3843699083
 21
-174.907169037
 31
0.0
  0
LINE
  5
EC
100
AcDbEntity
  8
L1_
  6
CONTINUOUS
 62
         7
100
AcDbLine
 10
1888.0923699083
 20
-174.907169037
 30
0.0
 11
1889.8563699083
 21
-161.443169037
 31
0.0
  0
LINE
  5
ED
100
AcDbEntity
  8
L1_
  6
CONTINUOUS
 62
         7
100
AcDbLine
 10
1891.6203699083
 20
-161.443169037
 30
0.0
 11
1889.8563699083
 21
-174.907169037
 31
0.0
  0
LINE
  5
EE
100
AcDbEntity
  8
L1_
  6
CONTINUOUS
 62
         7
100
AcDbLine
 10
1884.5643699083
 20
-174.907169037
 30
0.0
 11
1886.3283699083
 21
-161.443169037
 31
0.0
  0
LINE
  5
EF
100
AcDbEntity
  8
L1_
  6
CONTINUOUS
 62
         7
100
AcDbLine
 10
1888.0923699083
 20
-161.443169037
 30
0.0
 11
1886.3283699083
 21
-174.907169037
 31
0.0
  0
LINE
  5
F0
100
AcDbEntity
  8
L1_
  6
CONTINUOUS
 62
         7
100
AcDbLine
 10
1881.0363699083
 20
-174.907169037
 30
0.0
 11
1882.8003699083
 21
-161.443169037
 31
0.0
  0
LINE
  5
F1
100
AcDbEntity
  8
L1_
  6
CONTINUOUS
 62
         7
100
AcDbLine
 10
1884.5643699083
 20
-161.443169037
 30
0.0
 11
1882.8003699083
 21
-174.907169037
 31
0.0
  0
CIRCLE
  5
F2
100
AcDbEntity
  8
L1_
  6
CONTINUOUS
 62
         7
100
AcDbCircle
 10
1940.8102060641
 20
-156.913169037
 30
0.0
 40
0.822
  0
CIRCLE
  5
F3
100
AcDbEntity
  8
L1_
  6
CONTINUOUS
 62
         7
100
AcDbCircle
 10
1942.4542060641
 20
-156.913169037
 30
0.0
 40
0.822
  0
CIRCLE
  5
F4
100
AcDbEntity
  8
L1_
  6
CONTINUOUS
 62
         7
100
AcDbCircle
 10
1944.0982060641
 20
-156.913169037
 30
0.0
 40
0.822
  0
CIRCLE
  5
F5
100
AcDbEntity
  8
L1_
  6
CONTINUOUS
 62
         7
100
AcDbCircle
 10
1945.7422060641
 20
-156.913169037
 30
0.0
 40
0.822
  0
CIRCLE
  5
F6
100
AcDbEntity
  8
L1_
  6
CONTINUOUS
 62
         7
100
AcDbCircle
 10
1947.3862060641
 20
-156.913169037
 30
0.0
 40
0.822
  0
CIRCLE
  5
F7
100
AcDbEntity
  8
L1_
  6
CONTINUOUS
 62
         7
100
AcDbCircle
 10
1949.0302060641
 20
-156.913169037
 30
0.0
 40
0.822
  0
CIRCLE
  5
F8
100
AcDbEntity
  8
L1_
  6
CONTINUOUS
 62
         7
100
AcDbCircle
 10
1939.1662060641
 20
-179.437169037
 30
0.0
 40
0.822
  0
CIRCLE
  5
F9
100
AcDbEntity
  8
L1_
  6
CONTINUOUS
 62
         7
100
AcDbCircle
 10
1940.8102060641
 20
-179.437169037
 30
0.0
 40
0.822
  0
CIRCLE
  5
FA
100
AcDbEntity
  8
L1_
  6
CONTINUOUS
 62
         7
100
AcDbCircle
 10
1942.4542060641
 20
-179.437169037
 30
0.0
 40
0.822
  0
CIRCLE
  5
FB
100
AcDbEntity
  8
L1_
  6
CONTINUOUS
 62
         7
100
AcDbCircle
 10
1944.0982060641
 20
-179.437169037
 30
0.0
 40
0.822
  0
CIRCLE
  5
FC
100
AcDbEntity
  8
L1_
  6
CONTINUOUS
 62
         7
100
AcDbCircle
 10
1945.7422060641
 20
-179.437169037
 30
0.0
 40
0.822
  0
CIRCLE
  5
FD
100
AcDbEntity
  8
L1_
  6
CONTINUOUS
 62
         7
100
AcDbCircle
 10
1947.3862060641
 20
-179.437169037
 30
0.0
 40
0.822
  0
LINE
  5
FE
100
AcDbEntity
  8
L1_
  6
CONTINUOUS
 62
         7
100
AcDbLine
 10
1949.8522060641
 20
-156.913169037
 30
0.0
 11
1948.2082060641
 21
-179.437169037
 31
0.0
  0
LINE
  5
FF
100
AcDbEntity
  8
L1_
  6
CONTINUOUS
 62
         7
100
AcDbLine
 10
1946.5642060641
 20
-179.437169037
 30
0.0
 11
1948.2082060641
 21
-156.913169037
 31
0.0
  0
LINE
  5
100
100
AcDbEntity
  8
L1_
  6
CONTINUOUS
 62
         7
100
AcDbLine
 10
1946.5642060641
 20
-156.913169037
 30
0.0
 11
1944.9202060641
 21
-179.437169037
 31
0.0
  0
LINE
  5
101
100
AcDbEntity
  8
L1_
  6
CONTINUOUS
 62
         7
100
AcDbLine
 10
1943.2762060641
 20
-179.437169037
 30
0.0
 11
1944.9202060641
 21
-156.913169037
 31
0.0
  0
LINE
  5
102
100
AcDbEntity
  8
L1_
  6
CONTINUOUS
 62
         7
100
AcDbLine
 10
1943.2762060641
 20
-156.913169037
 30
0.0
 11
1941.6322060641
 21
-179.437169037
 31
0.0
  0
LINE
  5
103
100
AcDbEntity
  8
L1_
  6
CONTINUOUS
 62
         7
100
AcDbLine
 10
1939.9882060641
 20
-179.437169037
 30
0.0
 11
1941.6322060641
 21
-156.913169037
 31
0.0
  0
LINE
  5
104
100
AcDbEntity
  8
L1_
  6
CONTINUOUS
 62
         7
100
AcDbLine
 10
1939.9882060641
 20
-156.913169037
 30
0.0
 11
1938.3442060641
 21
-179.437169037
 31
0.0
  0
CIRCLE
  5
105
100
AcDbEntity
  8
L1_
  6
CONTINUOUS
 62
         7
100
AcDbCircle
 10
1801.0921023422
 20
-181.255169037
 30
0.0
 40
0.942
  0
CIRCLE
  5
106
100
AcDbEntity
  8
L1_
  6
CONTINUOUS
 62
         7
100
AcDbCircle
 10
1802.9761023422
 20
-181.255169037
 30
0.0
 40
0.942
  0
CIRCLE
  5
107
100
AcDbEntity
  8
L1_
  6
CONTINUOUS
 62
         7
100
AcDbCircle
 10
1804.8601023422
 20
-181.255169037
 30
0.0
 40
0.942
  0
CIRCLE
  5
108
100
AcDbEntity
  8
L1_
  6
CONTINUOUS
 62
         7
100
AcDbCircle
 10
1806.7441023422
 20
-181.255169037
 30
0.0
 40
0.942
  0
CIRCLE
  5
109
100
AcDbEntity
  8
L1_
  6
CONTINUOUS
 62
         7
100
AcDbCircle
 10
1808.6281023422
 20
-181.255169037
 30
0.0
 40
0.942
  0
CIRCLE
  5
10A
100
AcDbEntity
  8
L1_
  6
CONTINUOUS
 62
         7
100
AcDbCircle
 10
1810.5121023422
 20
-181.255169037
 30
0.0
 40
0.942
  0
CIRCLE
  5
10B
100
AcDbEntity
  8
L1_
  6
CONTINUOUS
 62
         7
100
AcDbCircle
 10
1802.9761023422
 20
-155.095169037
 30
0.0
 40
0.942
  0
CIRCLE
  5
10C
100
AcDbEntity
  8
L1_
  6
CONTINUOUS
 62
         7
100
AcDbCircle
 10
1804.8601023422
 20
-155.095169037
 30
0.0
 40
0.942
  0
CIRCLE
  5
10D
100
AcDbEntity
  8
L1_
  6
CONTINUOUS
 62
         7
100
AcDbCircle
 10
1806.7441023422
 20
-155.095169037
 30
0.0
 40
0.942
  0
CIRCLE
  5
10E
100
AcDbEntity
  8
L1_
  6
CONTINUOUS
 62
         7
100
AcDbCircle
 10
1808.6281023422
 20
-155.095169037
 30
0.0
 40
0.942
  0
CIRCLE
  5
10F
100
AcDbEntity
  8
L1_
  6
CONTINUOUS
 62
         7
100
AcDbCircle
 10
1810.5121023422
 20
-155.095169037
 30
0.0
 40
0.942
  0
CIRCLE
  5
110
100
AcDbEntity
  8
L1_
  6
CONTINUOUS
 62
         7
100
AcDbCircle
 10
1812.3961023422
 20
-155.095169037
 30
0.0
 40
0.942
  0
CIRCLE
  5
111
100
AcDbEntity
  8
L1_
  6
CONTINUOUS
 62
         7
100
AcDbCircle
 10
1814.2801023422
 20
-155.095169037
 30
0.0
 40
0.942
  0
LINE
  5
112
100
AcDbEntity
  8
L1_
  6
CONTINUOUS
 62
         7
100
AcDbLine
 10
1802.0341023422
 20
-155.095169037
 30
0.0
 11
1800.1501023422
 21
-181.255169037
 31
0.0
  0
LINE
  5
113
100
AcDbEntity
  8
L1_
  6
CONTINUOUS
 62
         7
100
AcDbLine
 10
1811.4541023422
 20
-181.255169037
 30
0.0
 11
1815.2221023422
 21
-155.095169037
 31
0.0
  0
LINE
  5
114
100
AcDbEntity
  8
L1_
  6
CONTINUOUS
 62
         7
100
AcDbLine
 10
1803.9181023422
 20
-155.095169037
 30
0.0
 11
1802.0341023422
 21
-181.255169037
 31
0.0
  0
LINE
  5
115
100
AcDbEntity
  8
L1_
  6
CONTINUOUS
 62
         7
100
AcDbLine
 10
1803.9181023422
 20
-181.255169037
 30
0.0
 11
1805.8021023422
 21
-155.095169037
 31
0.0
  0
LINE
  5
116
100
AcDbEntity
  8
L1_
  6
CONTINUOUS
 62
         7
100
AcDbLine
 10
1807.6861023422
 20
-155.095169037
 30
0.0
 11
1805.8021023422
 21
-181.255169037
 31
0.0
  0
LINE
  5
117
100
AcDbEntity
  8
L1_
  6
CONTINUOUS
 62
         7
100
AcDbLine
 10
1807.6861023422
 20
-181.255169037
 30
0.0
 11
1809.5701023422
 21
-155.095169037
 31
0.0
  0
LINE
  5
118
100
AcDbEntity
  8
L1_
  6
CONTINUOUS
 62
         7
100
AcDbLine
 10
1811.4541023422
 20
-155.095169037
 30
0.0
 11
1809.5701023422
 21
-181.255169037
 31
0.0
  0
LINE
  5
119
100
AcDbEntity
  8
L1_
  6
CONTINUOUS
 62
         7
100
AcDbLine
 10
1811.4541023422
 20
-181.255169037
 30
0.0
 11
1813.3381023422
 21
-155.095169037
 31
0.0
  0
CIRCLE
  5
11A
100
AcDbEntity
  8
L1_
  6
CONTINUOUS
 62
         7
100
AcDbCircle
 10
1852.3041224494
 20
-193.369169037
 30
0.0
 40
1.062
  0
CIRCLE
  5
11B
100
AcDbEntity
  8
L1_
  6
CONTINUOUS
 62
         7
100
AcDbCircle
 10
1850.1801224494
 20
-193.369169037
 30
0.0
 40
1.062
  0
CIRCLE
  5
11C
100
AcDbEntity
  8
L1_
  6
CONTINUOUS
 62
         7
100
AcDbCircle
 10
1848.0561224494
 20
-193.369169037
 30
0.0
 40
1.062
  0
CIRCLE
  5
11D
100
AcDbEntity
  8
L1_
  6
CONTINUOUS
 62
         7
100
AcDbCircle
 10
1854.4281224494
 20
-142.981169037
 30
0.0
 40
1.062
  0
CIRCLE
  5
11E
100
AcDbEntity
  8
L1_
  6
CONTINUOUS
 62
         7
100
AcDbCircle
 10
1852.3041224494
 20
-142.981169037
 30
0.0
 40
1.062
  0
CIRCLE
  5
11F
100
AcDbEntity
  8
L1_
  6
CONTINUOUS
 62
         7
100
AcDbCircle
 10
1850.1801224494
 20
-142.981169037
 30
0.0
 40
1.062
  0
LINE
  5
120
100
AcDbEntity
  8
L1_
  6
CONTINUOUS
 62
         7
100
AcDbLine
 10
1855.4901224494
 20
-142.981169037
 30
0.0
 11
1853.3661224494
 21
-193.369169037
 31
0.0
  0
LINE
  5
121
100
AcDbEntity
  8
L1_
  6
CONTINUOUS
 62
         7
100
AcDbLine
 10
1851.2421224494
 20
-193.369169037
 30
0.0
 11
1853.3661224494
 21
-142.981169037
 31
0.0
  0
LINE
  5
122
100
AcDbEntity
  8
L1_
  6
CONTINUOUS
 62
         7
100
AcDbLine
 10
1851.2421224494
 20
-142.981169037
 30
0.0
 11
1849.1181224494
 21
-193.369169037
 31
0.0
  0
LINE
  5
123
100
AcDbEntity
  8
L1_
  6
CONTINUOUS
 62
         7
100
AcDbLine
 10
1849.1181224494
 20
-142.981169037
 30
0.0
 11
1846.9941224494
 21
-193.369169037
 31
0.0
  0
DIMENSION
  5
126
100
AcDbEntity
  8
L1_
  6
CONTINUOUS
 62
         4
100
AcDbDimension
  2
*D9
 10
1929.1479278602
 20
-156.091169037
 30
0.0
 11
1926.7179278602
 21
-174.655169037
 31
0.0
  3
DIMSTYLE1
100
AcDbAlignedDimension
 13
1940.8102060641
 23
-156.091169037
 33
0.0
 14
1939.1662060641
 24
-180.259169037
 34
0.0
 50
90.0
100
AcDbRotatedDimension
  0
DIMENSION
  5
134
100
AcDbEntity
  8
L1_
  6
CONTINUOUS
 62
         4
100
AcDbDimension
  2
*D10
 10
1874.8105398694
 20
-160.561169037
 30
0.0
 11
1872.3805398694
 21
-174.655169037
 31
0.0
  3
DIMSTYLE1
100
AcDbAlignedDimension
 13
1883.6823699083
 23
-160.561169037
 33
0.0
 14
1881.9183699083
 24
-175.789169037
 34
0.0
 50
90.0
100
AcDbRotatedDimension
  0
DIMENSION
  5
142
100
AcDbEntity
  8
L1_
  6
CONTINUOUS
 62
         4
100
AcDbDimension
  2
*D11
 10
1841.9248531445
 20
-141.919169037
 30
0.0
 11
1839.4948531445
 21
-174.655169037
 31
0.0
  3
DIMSTYLE1
100
AcDbAlignedDimension
 13
1850.1801224494
 23
-141.919169037
 33
0.0
 14
1848.0561224494
 24
-194.431169037
 34
0.0
 50
90.0
100
AcDbRotatedDimension
  0
DIMENSION
  5
150
100
AcDbEntity
  8
L1_
  6
CONTINUOUS
 62
         4
100
AcDbDimension
  2
*D12
 10
1796.1200054622
 20
-154.153169037
 30
0.0
 11
1793.6900054622
 21
-177.895169037
 31
0.0
  3
DIMSTYLE1
100
AcDbAlignedDimension
 13
1802.9761023422
 23
-154.153169037
 33
0.0
 14
1801.0921023422
 24
-182.197169037
 34
0.0
 50
90.0
100
AcDbRotatedDimension
  0
DIMENSION
  5
15E
100
AcDbEntity
  8
L1_
  6
CONTINUOUS
 62
         4
100
AcDbDimension
  2
*D13
 10
1693.3351078823
 20
-164.575169037
 30
0.0
 11
1690.9051078823
 21
-176.275169037
 31
0.0
  3
DIMSTYLE1
100
AcDbAlignedDimension
 13
1700.9523895124
 23
-164.575169037
 33
0.0
 14
1700.9523895124
 24
-171.775169037
 34
0.0
 50
90.0
100
AcDbRotatedDimension
  0
LINE
  5
16A
100
AcDbEntity
  8
L1_
  6
CONTINUOUS
 62
         7
100
AcDbLine
 10
1715.0229895124
 20
-163.404569037
 30
0.0
 11
1713.8523895124
 21
-164.575169037
 31
0.0
  0
LINE
  5
16B
100
AcDbEntity
  8
L1_
  6
CONTINUOUS
 62
         7
100
AcDbLine
 10
1715.0229895124
 20
-172.945769037
 30
0.0
 11
1713.8523895124
 21
-171.775169037
 31
0.0
  0
LINE
  5
16C
100
AcDbEntity
  8
L1_
  6
CONTINUOUS
 62
         7
100
AcDbLine
 10
1713.8523895124
 20
-171.775169037
 30
0.0
 11
1713.8523895124
 21
-164.575169037
 31
0.0
  0
LINE
  5
16D
100
AcDbEntity
  8
L1_
  6
CONTINUOUS
 62
         4
100
AcDbLine
 10
1715.0229895124
 20
-163.404569037
 30
0.0
 11
1715.0229895124
 21
-172.945769037
 31
0.0
  0
LINE
  5
16E
100
AcDbEntity
  8
L1_
  6
CONTINUOUS
 62
         7
100
AcDbLine
 10
1713.8523895124
 20
-164.575169037
 30
0.0
 11
1700.9523895124
 21
-164.575169037
 31
0.0
  0
LINE
  5
16F
100
AcDbEntity
  8
L1_
  6
CONTINUOUS
 62
         7
100
AcDbLine
 10
1700.9523895124
 20
-164.575169037
 30
0.0
 11
1700.3523895124
 21
-165.175169037
 31
0.0
  0
LINE
  5
170
100
AcDbEntity
  8
L1_
  6
CONTINUOUS
 62
         7
100
AcDbLine
 10
1700.3523895124
 20
-171.175169037
 30
0.0
 11
1700.3523895124
 21
-165.175169037
 31
0.0
  0
LINE
  5
171
100
AcDbEntity
  8
L1_
  6
CONTINUOUS
 62
         7
100
AcDbLine
 10
1700.9523895124
 20
-171.775169037
 30
0.0
 11
1700.3523895124
 21
-171.175169037
 31
0.0
  0
LINE
  5
172
100
AcDbEntity
  8
L1_
  6
CONTINUOUS
 62
         7
100
AcDbLine
 10
1713.8523895124
 20
-171.775169037
 30
0.0
 11
1700.9523895124
 21
-171.775169037
 31
0.0
  0
LINE
  5
173
100
AcDbEntity
  8
L1_
  6
CONTINUOUS
 62
         4
100
AcDbLine
 10
1713.8523895124
 20
-165.175169037
 30
0.0
 11
1700.3523895124
 21
-165.175169037
 31
0.0
  0
LINE
  5
174
100
AcDbEntity
  8
L1_
  6
CONTINUOUS
 62
         4
100
AcDbLine
 10
1713.8523895124
 20
-171.175169037
 30
0.0
 11
1700.3523895124
 21
-171.175169037
 31
0.0
  0
DIMENSION
  5
177
100
AcDbEntity
  8
L1_
  6
CONTINUOUS
 62
         4
100
AcDbDimension
  2
*D14
 10
1700.3523895124
 20
-146.6403419938
 30
0.0
 11
1701.5431649834
 21
-144.2103419938
 31
0.0
  3
DIMSTYLE1
100
AcDbAlignedDimension
 13
1700.3523895124
 23
-165.175169037
 33
0.0
 14
1713.8523895124
 24
-164.575169037
 34
0.0
100
AcDbRotatedDimension
  0
LINE
  5
183
100
AcDbEntity
  8
L1_
  6
CENTER
 62
         1
100
AcDbLine
 10
2090.3775403019
 20
-67.2374416878
 30
0.0
 11
1743.6200855262
 21
-67.2374416878
 31
0.0
  0
LINE
  5
184
100
AcDbEntity
  8
L1_
  6
CENTER
 62
         1
100
AcDbLine
 10
1880.1395089265
 20
-74.9468998239
 30
0.0
 11
1880.1395089265
 21
-59.016952156
 31
0.0
  0
LINE
  5
185
100
AcDbEntity
  8
L1_
  6
CENTER
 62
         1
100
AcDbLine
 10
1894.9080524525
 20
-74.9468998163
 30
0.0
 11
1894.9080524525
 21
-59.0169521485
 31
0.0
  0
CIRCLE
  5
186
100
AcDbEntity
  8
L1_
  6
CONTINUOUS
 62
         7
100
AcDbCircle
 10
1933.0906946911
 20
-67.2374416878
 30
0.0
 40
3.9
  0
LINE
  5
187
100
AcDbEntity
  8
L1_
  6
CENTER
 62
         1
100
AcDbLine
 10
1933.0906946911
 20
-63.3374416878
 30
0.0
 11
1933.0906946911
 21
-71.1374416878
 31
0.0
  0
LINE
  5
188
100
AcDbEntity
  8
L1_
  6
CONTINUOUS
 62
         7
100
AcDbLine
 10
2065.2706946911
 20
-96.0374416878
 30
0.0
 11
2020.2106946911
 21
-96.0374416878
 31
0.0
  0
ARC
  5
189
100
AcDbEntity
  8
L1_
  6
CONTINUOUS
 62
         7
100
AcDbCircle
 10
2065.8706946911
 20
-96.0374416878
 30
0.0
 40
0.6
100
AcDbArc
 50
359.9999999998
 51
540.0000000002
  0
LINE
  5
18A
100
AcDbEntity
  8
L1_
  6
CONTINUOUS
 62
         7
100
AcDbLine
 10
2076.6706946911
 20
-99.0374416878
 30
0.0
 11
2067.0706946911
 21
-99.0374416878
 31
0.0
  0
LINE
  5
18B
100
AcDbEntity
  8
L1_
  6
CONTINUOUS
 62
         7
100
AcDbLine
 10
2066.4706946911
 20
-98.4374416878
 30
0.0
 11
2067.0706946911
 21
-99.0374416878
 31
0.0
  0
LINE
  5
18C
100
AcDbEntity
  8
L1_
  6
CONTINUOUS
 62
         7
100
AcDbLine
 10
2065.2706946911
 20
-38.4374416878
 30
0.0
 11
2020.2106946911
 21
-38.4374416878
 31
0.0
  0
ARC
  5
18D
100
AcDbEntity
  8
L1_
  6
CONTINUOUS
 62
         7
100
AcDbCircle
 10
2065.8706946911
 20
-38.4374416878
 30
0.0
 40
0.6
100
AcDbArc
 50
179.9999999998
 51
360.0000000002
  0
LINE
  5
18E
100
AcDbEntity
  8
L1_
  6
CONTINUOUS
 62
         7
100
AcDbLine
 10
2076.6706946911
 20
-35.4374416878
 30
0.0
 11
2067.0706946911
 21
-35.4374416878
 31
0.0
  0
LINE
  5
18F
100
AcDbEntity
  8
L1_
  6
CONTINUOUS
 62
         7
100
AcDbLine
 10
2067.0706946911
 20
-35.4374416878
 30
0.0
 11
2066.4706946911
 21
-36.0374416878
 31
0.0
  0
LINE
  5
190
100
AcDbEntity
  8
L1_
  6
CONTINUOUS
 62
         7
100
AcDbLine
 10
2066.4706946911
 20
-98.4374416878
 30
0.0
 11
2066.4706946911
 21
-36.0374416878
 31
0.0
  0
LINE
  5
191
100
AcDbEntity
  8
L1_
  6
CONTINUOUS
 62
         7
100
AcDbLine
 10
2019.9706946911
 20
-95.7974416878
 30
0.0
 11
2020.2106946911
 21
-96.0374416878
 31
0.0
  0
LINE
  5
192
100
AcDbEntity
  8
L1_
  6
CONTINUOUS
 62
         7
100
AcDbLine
 10
2019.9706946911
 20
-38.6774416878
 30
0.0
 11
2019.9706946911
 21
-95.7974416878
 31
0.0
  0
LINE
  5
193
100
AcDbEntity
  8
L1_
  6
CONTINUOUS
 62
         7
100
AcDbLine
 10
2020.2106946911
 20
-38.4374416878
 30
0.0
 11
2019.9706946911
 21
-38.6774416878
 31
0.0
  0
LINE
  5
194
100
AcDbEntity
  8
L1_
  6
CONTINUOUS
 62
         7
100
AcDbLine
 10
2077.2706946911
 20
-98.4374416878
 30
0.0
 11
2077.2706946911
 21
-36.0374416878
 31
0.0
  0
LINE
  5
195
100
AcDbEntity
  8
L1_
  6
CONTINUOUS
 62
         7
100
AcDbLine
 10
2077.2706946911
 20
-98.4374416878
 30
0.0
 11
2076.6706946911
 21
-99.0374416878
 31
0.0
  0
LINE
  5
196
100
AcDbEntity
  8
L1_
  6
CONTINUOUS
 62
         7
100
AcDbLine
 10
2076.6706946911
 20
-35.4374416878
 30
0.0
 11
2077.2706946911
 21
-36.0374416878
 31
0.0
  0
LINE
  5
197
100
AcDbEntity
  8
L1_
  6
CONTINUOUS
 62
         7
100
AcDbLine
 10
1989.1906946911
 20
-85.7174416878
 30
0.0
 11
1989.0706946911
 21
-85.8374416878
 31
0.0
  0
LINE
  5
198
100
AcDbEntity
  8
L1_
  6
CONTINUOUS
 62
         7
100
AcDbLine
 10
1989.0706946911
 20
-48.6374416878
 30
0.0
 11
1989.1906946911
 21
-48.7574416878
 31
0.0
  0
LINE
  5
199
100
AcDbEntity
  8
L1_
  6
CONTINUOUS
 62
         7
100
AcDbLine
 10
1999.6906946911
 20
-51.0374416878
 30
0.0
 11
1989.1906946911
 21
-51.0374416878
 31
0.0
  0
LINE
  5
19A
100
AcDbEntity
  8
L1_
  6
CONTINUOUS
 62
         7
100
AcDbLine
 10
1999.6906946911
 20
-83.4374416878
 30
0.0
 11
1989.1906946911
 21
-83.4374416878
 31
0.0
  0
LINE
  5
19B
100
AcDbEntity
  8
L1_
  6
CONTINUOUS
 62
         7
100
AcDbLine
 10
1982.5906946911
 20
-48.6374416878
 30
0.0
 11
1981.9906946911
 21
-49.2374416878
 31
0.0
  0
LINE
  5
19C
100
AcDbEntity
  8
L1_
  6
CONTINUOUS
 62
         7
100
AcDbLine
 10
1981.9906946911
 20
-85.2374416878
 30
0.0
 11
1981.9906946911
 21
-49.2374416878
 31
0.0
  0
LINE
  5
19D
100
AcDbEntity
  8
L1_
  6
CONTINUOUS
 62
         7
100
AcDbLine
 10
1981.9906946911
 20
-85.2374416878
 30
0.0
 11
1982.5906946911
 21
-85.8374416878
 31
0.0
  0
LINE
  5
19E
100
AcDbEntity
  8
L1_
  6
CONTINUOUS
 62
         7
100
AcDbLine
 10
1989.0706946911
 20
-48.6374416878
 30
0.0
 11
1982.5906946911
 21
-48.6374416878
 31
0.0
  0
LINE
  5
19F
100
AcDbEntity
  8
L1_
  6
CONTINUOUS
 62
         7
100
AcDbLine
 10
1989.0706946911
 20
-85.8374416878
 30
0.0
 11
1982.5906946911
 21
-85.8374416878
 31
0.0
  0
LINE
  5
1A0
100
AcDbEntity
  8
L1_
  6
CONTINUOUS
 62
         7
100
AcDbLine
 10
1999.6906946911
 20
-85.7174416878
 30
0.0
 11
1999.8106946911
 21
-85.8374416878
 31
0.0
  0
LINE
  5
1A1
100
AcDbEntity
  8
L1_
  6
CONTINUOUS
 62
         7
100
AcDbLine
 10
1999.8106946911
 20
-48.6374416878
 30
0.0
 11
1999.6906946911
 21
-48.7574416878
 31
0.0
  0
LINE
  5
1A2
100
AcDbEntity
  8
L1_
  6
CONTINUOUS
 62
         7
100
AcDbLine
 10
2001.9706946911
 20
-85.8374416878
 30
0.0
 11
1999.8106946911
 21
-85.8374416878
 31
0.0
  0
LINE
  5
1A3
100
AcDbEntity
  8
L1_
  6
CONTINUOUS
 62
         7
100
AcDbLine
 10
2002.0906946911
 20
-85.7174416878
 30
0.0
 11
2001.9706946911
 21
-85.8374416878
 31
0.0
  0
LINE
  5
1A4
100
AcDbEntity
  8
L1_
  6
CONTINUOUS
 62
         7
100
AcDbLine
 10
2001.9706946911
 20
-48.6374416878
 30
0.0
 11
1999.8106946911
 21
-48.6374416878
 31
0.0
  0
LINE
  5
1A5
100
AcDbEntity
  8
L1_
  6
CONTINUOUS
 62
         7
100
AcDbLine
 10
2002.0906946911
 20
-85.7174416878
 30
0.0
 11
2002.0906946911
 21
-48.7574416878
 31
0.0
  0
LINE
  5
1A6
100
AcDbEntity
  8
L1_
  6
CONTINUOUS
 62
         7
100
AcDbLine
 10
2001.9706946911
 20
-48.6374416878
 30
0.0
 11
2002.0906946911
 21
-48.7574416878
 31
0.0
  0
LINE
  5
1A7
100
AcDbEntity
  8
L1_
  6
CONTINUOUS
 62
         7
100
AcDbLine
 10
1989.1906946911
 20
-85.7174416878
 30
0.0
 11
1989.1906946911
 21
-48.7574416878
 31
0.0
  0
LINE
  5
1A8
100
AcDbEntity
  8
L1_
  6
CONTINUOUS
 62
         7
100
AcDbLine
 10
1999.6906946911
 20
-85.7174416878
 30
0.0
 11
1999.6906946911
 21
-48.7574416878
 31
0.0
  0
ARC
  5
1A9
100
AcDbEntity
  8
L1_
  6
CONTINUOUS
 62
         7
100
AcDbCircle
 10
1870.8015281185
 20
-85.8374416878
 30
0.0
 40
0.6
100
AcDbArc
 50
0.0
 51
180.0
  0
ARC
  5
1AA
100
AcDbEntity
  8
L1_
  6
CONTINUOUS
 62
         7
100
AcDbCircle
 10
1870.8015281185
 20
-48.6374416878
 30
0.0
 40
0.6
100
AcDbArc
 50
180.0
 51
360.0
  0
LINE
  5
1AB
100
AcDbEntity
  8
L1_
  6
CONTINUOUS
 62
         7
100
AcDbLine
 10
1871.4015281185
 20
-94.8374416878
 30
0.0
 11
1872.6015281185
 21
-96.0374416878
 31
0.0
  0
LINE
  5
1AC
100
AcDbEntity
  8
L1_
  6
CONTINUOUS
 62
         7
100
AcDbLine
 10
1871.4015281185
 20
-39.6374416878
 30
0.0
 11
1871.4015281185
 21
-94.8374416878
 31
0.0
  0
LINE
  5
1AD
100
AcDbEntity
  8
L1_
  6
CONTINUOUS
 62
         7
100
AcDbLine
 10
1870.2015281185
 20
-85.8374416878
 30
0.0
 11
1847.3986946911
 21
-85.8374416878
 31
0.0
  0
LINE
  5
1AE
100
AcDbEntity
  8
L1_
  6
CONTINUOUS
 62
         7
100
AcDbLine
 10
1846.1986946911
 20
-84.6374416878
 30
0.0
 11
1847.3986946911
 21
-85.8374416878
 31
0.0
  0
LINE
  5
1AF
100
AcDbEntity
  8
L1_
  6
CONTINUOUS
 62
         7
100
AcDbLine
 10
1846.1986946911
 20
-49.8374416878
 30
0.0
 11
1847.3986946911
 21
-48.6374416878
 31
0.0
  0
LINE
  5
1B0
100
AcDbEntity
  8
L1_
  6
CONTINUOUS
 62
         7
100
AcDbLine
 10
1870.2015281185
 20
-48.6374416878
 30
0.0
 11
1847.3986946911
 21
-48.6374416878
 31
0.0
  0
LINE
  5
1B1
100
AcDbEntity
  8
L1_
  6
CONTINUOUS
 62
         7
100
AcDbLine
 10
1871.4015281185
 20
-39.6374416878
 30
0.0
 11
1872.6015281185
 21
-38.4374416878
 31
0.0
  0
LINE
  5
1B2
100
AcDbEntity
  8
L1_
  6
CONTINUOUS
 62
         7
100
AcDbLine
 10
1903.6306946911
 20
-94.8374416878
 30
0.0
 11
1902.4306946911
 21
-96.0374416878
 31
0.0
  0
LINE
  5
1B3
100
AcDbEntity
  8
L1_
  6
CONTINUOUS
 62
         7
100
AcDbLine
 10
1902.4306946911
 20
-38.4374416878
 30
0.0
 11
1903.6306946911
 21
-39.6374416878
 31
0.0
  0
LINE
  5
1B4
100
AcDbEntity
  8
L1_
  6
CONTINUOUS
 62
         7
100
AcDbLine
 10
1902.4306946911
 20
-96.0374416878
 30
0.0
 11
1872.6015281185
 21
-96.0374416878
 31
0.0
  0
LINE
  5
1B5
100
AcDbEntity
  8
L1_
  6
CONTINUOUS
 62
         7
100
AcDbLine
 10
1902.4306946911
 20
-38.4374416878
 30
0.0
 11
1872.6015281185
 21
-38.4374416878
 31
0.0
  0
LINE
  5
1B6
100
AcDbEntity
  8
L1_
  6
CONTINUOUS
 62
         7
100
AcDbLine
 10
1959.7306946911
 20
-91.2374416878
 30
0.0
 11
1959.7306946911
 21
-43.2374416878
 31
0.0
  0
LINE
  5
1B7
100
AcDbEntity
  8
L1_
  6
CONTINUOUS
 62
         7
100
AcDbLine
 10
1959.7306946911
 20
-90.6374416878
 30
0.0
 11
1957.9306946911
 21
-90.6374416878
 31
0.0
  0
LINE
  5
1B8
100
AcDbEntity
  8
L1_
  6
CONTINUOUS
 62
         7
100
AcDbLine
 10
1957.9306946911
 20
-91.2374416878
 30
0.0
 11
1957.9306946911
 21
-43.2374416878
 31
0.0
  0
LINE
  5
1B9
100
AcDbEntity
  8
L1_
  6
CONTINUOUS
 62
         7
100
AcDbLine
 10
1959.7306946911
 20
-43.8374416878
 30
0.0
 11
1957.9306946911
 21
-43.8374416878
 31
0.0
  0
LINE
  5
1BA
100
AcDbEntity
  8
L1_
  6
CONTINUOUS
 62
         7
100
AcDbLine
 10
1957.9306946911
 20
-91.2374416878
 30
0.0
 11
1904.8306946911
 21
-91.2374416878
 31
0.0
  0
LINE
  5
1BB
100
AcDbEntity
  8
L1_
  6
CONTINUOUS
 62
         7
100
AcDbLine
 10
1904.8306946911
 20
-43.2374416878
 30
0.0
 11
1957.9306946911
 21
-43.2374416878
 31
0.0
  0
LINE
  5
1BC
100
AcDbEntity
  8
L1_
  6
CONTINUOUS
 62
         7
100
AcDbLine
 10
1968.1306946911
 20
-43.2374416878
 30
0.0
 11
1959.7306946911
 21
-43.2374416878
 31
0.0
  0
LINE
  5
1BD
100
AcDbEntity
  8
L1_
  6
CONTINUOUS
 62
         7
100
AcDbLine
 10
1968.1306946911
 20
-91.2374416878
 30
0.0
 11
1959.7306946911
 21
-91.2374416878
 31
0.0
  0
LINE
  5
1BE
100
AcDbEntity
  8
L1_
  6
CONTINUOUS
 62
         7
100
AcDbLine
 10
1846.1986946911
 20
-84.6374416878
 30
0.0
 11
1846.1986946911
 21
-49.8374416878
 31
0.0
  0
LINE
  5
1BF
100
AcDbEntity
  8
L1_
  6
CONTINUOUS
 62
         7
100
AcDbLine
 10
1903.6306946911
 20
-94.8374416878
 30
0.0
 11
1903.6306946911
 21
-39.6374416878
 31
0.0
  0
LINE
  5
1C0
100
AcDbEntity
  8
L1_
  6
CONTINUOUS
 62
         7
100
AcDbLine
 10
1968.1306946911
 20
-43.2374416878
 30
0.0
 11
1968.7306946911
 21
-43.8374416878
 31
0.0
  0
LINE
  5
1C1
100
AcDbEntity
  8
L1_
  6
CONTINUOUS
 62
         7
100
AcDbLine
 10
1968.7306946911
 20
-90.6374416878
 30
0.0
 11
1968.1306946911
 21
-91.2374416878
 31
0.0
  0
ARC
  5
1C2
100
AcDbEntity
  8
L1_
  6
CONTINUOUS
 62
         7
100
AcDbCircle
 10
1904.2306946911
 20
-43.2374416878
 30
0.0
 40
0.6
100
AcDbArc
 50
180.0
 51
360.0
  0
ARC
  5
1C3
100
AcDbEntity
  8
L1_
  6
CONTINUOUS
 62
         7
100
AcDbCircle
 10
1904.2306946911
 20
-91.2374416878
 30
0.0
 40
0.6
100
AcDbArc
 50
0.0
 51
180.0
  0
LINE
  5
1C4
100
AcDbEntity
  8
L1_
  6
CENTER
 62
         1
100
AcDbLine
 10
1921.3906946911
 20
-47.5486478337
 30
0.0
 11
1921.3906946911
 21
-45.3570161603
 31
0.0
  0
LINE
  5
1C5
100
AcDbEntity
  8
L1_
  6
CONTINUOUS
 62
         7
100
AcDbLine
 10
1798.6979251756
 20
-29.7589807187
 30
0.0
 11
1800.9586946911
 21
-31.0642366071
 31
0.0
  0
LINE
  5
1C6
100
AcDbEntity
  8
L1_
  6
CONTINUOUS
 62
         7
100
AcDbLine
 10
1798.6979251756
 20
-104.7159026569
 30
0.0
 11
1800.9586946911
 21
-103.4106467686
 31
0.0
  0
LINE
  5
1C7
100
AcDbEntity
  8
L1_
  6
CONTINUOUS
 62
         7
100
AcDbLine
 10
1801.2586946911
 20
-102.8910315263
 30
0.0
 11
1801.2586946911
 21
-31.5838518493
 31
0.0
  0
ARC
  5
1C8
100
AcDbEntity
  8
L1_
  6
CONTINUOUS
 62
         7
100
AcDbCircle
 10
1797.4979251756
 20
-31.8374416878
 30
0.0
 40
2.4
100
AcDbArc
 50
60.0
 51
90.0
  0
ARC
  5
1C9
100
AcDbEntity
  8
L1_
  6
CONTINUOUS
 62
         7
100
AcDbCircle
 10
1797.4979251756
 20
-102.6374416878
 30
0.0
 40
2.4
100
AcDbArc
 50
270.0
 51
300.0
  0
ARC
  5
1CA
100
AcDbEntity
  8
L1_
  6
CONTINUOUS
 62
         7
100
AcDbCircle
 10
1800.6586946911
 20
-31.5838518493
 30
0.0
 40
0.6
100
AcDbArc
 50
0.0
 51
59.9999999999
  0
ARC
  5
1CB
100
AcDbEntity
  8
L1_
  6
CONTINUOUS
 62
         7
100
AcDbCircle
 10
1800.6586946911
 20
-102.8910315263
 30
0.0
 40
0.6
100
AcDbArc
 50
300.0
 51
360.0
  0
LINE
  5
1CC
100
AcDbEntity
  8
L1_
  6
CONTINUOUS
 62
         7
100
AcDbLine
 10
1797.4979251756
 20
-29.4374416878
 30
0.0
 11
1757.3386946911
 21
-29.4374416878
 31
0.0
  0
LINE
  5
1CD
100
AcDbEntity
  8
L1_
  6
CONTINUOUS
 62
         7
100
AcDbLine
 10
1756.7386946911
 20
-30.0374416878
 30
0.0
 11
1757.3386946911
 21
-29.4374416878
 31
0.0
  0
LINE
  5
1CE
100
AcDbEntity
  8
L1_
  6
CONTINUOUS
 62
         7
100
AcDbLine
 10
1756.7386946911
 20
-104.4374416878
 30
0.0
 11
1756.7386946911
 21
-30.0374416878
 31
0.0
  0
LINE
  5
1CF
100
AcDbEntity
  8
L1_
  6
CONTINUOUS
 62
         7
100
AcDbLine
 10
1797.4979251756
 20
-105.0374416878
 30
0.0
 11
1757.3386946911
 21
-105.0374416878
 31
0.0
  0
LINE
  5
1D0
100
AcDbEntity
  8
L1_
  6
CONTINUOUS
 62
         7
100
AcDbLine
 10
1756.7386946911
 20
-104.4374416878
 30
0.0
 11
1757.3386946911
 21
-105.0374416878
 31
0.0
  0
LINE
  5
1D1
100
AcDbEntity
  8
L1_
  6
CONTINUOUS
 62
         7
100
AcDbLine
 10
1811.1106946911
 20
-78.9374416878
 30
0.0
 11
1811.1106946911
 21
-55.5374416878
 31
0.0
  0
LINE
  5
1D2
100
AcDbEntity
  8
L1_
  6
CONTINUOUS
 62
         7
100
AcDbLine
 10
1834.9906946911
 20
-81.0374416878
 30
0.0
 11
1834.3906946911
 21
-81.6374416878
 31
0.0
  0
LINE
  5
1D3
100
AcDbEntity
  8
L1_
  6
CONTINUOUS
 62
         7
100
AcDbLine
 10
1834.3906946911
 20
-81.6374416878
 30
0.0
 11
1829.1106946911
 21
-81.6374416878
 31
0.0
  0
LINE
  5
1D4
100
AcDbEntity
  8
L1_
  6
CONTINUOUS
 62
         7
100
AcDbLine
 10
1834.9906946911
 20
-81.0374416878
 30
0.0
 11
1834.9906946911
 21
-53.4374416878
 31
0.0
  0
LINE
  5
1D5
100
AcDbEntity
  8
L1_
  6
CONTINUOUS
 62
         7
100
AcDbLine
 10
1834.3906946911
 20
-52.8374416878
 30
0.0
 11
1834.9906946911
 21
-53.4374416878
 31
0.0
  0
LINE
  5
1D6
100
AcDbEntity
  8
L1_
  6
CONTINUOUS
 62
         7
100
AcDbLine
 10
1834.3906946911
 20
-52.8374416878
 30
0.0
 11
1829.1106946911
 21
-52.8374416878
 31
0.0
  0
ARC
  5
1D7
100
AcDbEntity
  8
L1_
  6
CONTINUOUS
 62
         7
100
AcDbCircle
 10
1828.3906946911
 20
-80.1374416878
 30
0.0
 40
0.6
100
AcDbArc
 50
0.0
 51
90.0
  0
LINE
  5
1D8
100
AcDbEntity
  8
L1_
  6
CONTINUOUS
 62
         7
100
AcDbLine
 10
1828.3906946911
 20
-79.5374416878
 30
0.0
 11
1811.7106946911
 21
-79.5374416878
 31
0.0
  0
LINE
  5
1D9
100
AcDbEntity
  8
L1_
  6
CONTINUOUS
 62
         7
100
AcDbLine
 10
1828.3906946911
 20
-54.9374416878
 30
0.0
 11
1811.7106946911
 21
-54.9374416878
 31
0.0
  0
LINE
  5
1DA
100
AcDbEntity
  8
L1_
  6
CONTINUOUS
 62
         7
100
AcDbLine
 10
1828.9906946911
 20
-81.5174416878
 30
0.0
 11
1828.9906946911
 21
-52.9574416878
 31
0.0
  0
ARC
  5
1DB
100
AcDbEntity
  8
L1_
  6
CONTINUOUS
 62
         7
100
AcDbCircle
 10
1828.3906946911
 20
-54.3374416878
 30
0.0
 40
0.6
100
AcDbArc
 50
270.0
 51
360.0
  0
LINE
  5
1DC
100
AcDbEntity
  8
L1_
  6
CONTINUOUS
 62
         7
100
AcDbLine
 10
1829.1106946911
 20
-81.6374416878
 30
0.0
 11
1828.9906946911
 21
-81.5174416878
 31
0.0
  0
LINE
  5
1DD
100
AcDbEntity
  8
L1_
  6
CONTINUOUS
 62
         7
100
AcDbLine
 10
1828.9906946911
 20
-52.9574416878
 30
0.0
 11
1829.1106946911
 21
-52.8374416878
 31
0.0
  0
POLYLINE
  5
1DF
100
AcDbEntity
  8
L1_
  6
CONTINUOUS
 62
         7
100
AcDb2dPolyline
 66
         1
 10
0.0
 20
0.0
 30
0.0
 70
         2
  0
VERTEX
  5
1E1
100
AcDbEntity
  8
L1_
  6
CONTINUOUS
 62
         7
100
AcDbVertex
100
AcDb2dVertex
 10
1923.7906946911
 20
-46.452831997
 30
0.0
 70
         1
  0
VERTEX
  5
1E3
100
AcDbEntity
  8
L1_
  6
CONTINUOUS
 62
         7
100
AcDbVertex
100
AcDb2dVertex
 10
1923.7520081391
 20
-46.2568709597
 30
0.0
 70
         1
  0
VERTEX
  5
1E5
100
AcDbEntity
  8
L1_
  6
CONTINUOUS
 62
         7
100
AcDbVertex
100
AcDb2dVertex
 10
1923.700720681
 20
-46.1555993417
 30
0.0
 70
         1
  0
VERTEX
  5
1E7
100
AcDbEntity
  8
L1_
  6
CONTINUOUS
 62
         7
100
AcDbVertex
100
AcDb2dVertex
 10
1923.626152763
 20
-46.0540725817
 30
0.0
 70
         1
  0
VERTEX
  5
1E9
100
AcDbEntity
  8
L1_
  6
CONTINUOUS
 62
         7
100
AcDbVertex
100
AcDb2dVertex
 10
1923.527600661
 20
-45.9539914844
 30
0.0
 70
         1
  0
VERTEX
  5
1EB
100
AcDbEntity
  8
L1_
  6
CONTINUOUS
 62
         7
100
AcDbVertex
100
AcDb2dVertex
 10
1923.4051517613
 20
-45.857168
 30
0.0
 70
         1
  0
VERTEX
  5
1ED
100
AcDbEntity
  8
L1_
  6
CONTINUOUS
 62
         7
100
AcDbVertex
100
AcDb2dVertex
 10
1923.2597634845
 20
-45.7654280305
 30
0.0
 70
         1
  0
VERTEX
  5
1EF
100
AcDbEntity
  8
L1_
  6
CONTINUOUS
 62
         7
100
AcDbVertex
100
AcDb2dVertex
 10
1923.093272079
 20
-45.6805023007
 30
0.0
 70
         1
  0
VERTEX
  5
1F1
100
AcDbEntity
  8
L1_
  6
CONTINUOUS
 62
         7
100
AcDbVertex
100
AcDb2dVertex
 10
1922.908322691
 20
-45.6039178178
 30
0.0
 70
         1
  0
VERTEX
  5
1F3
100
AcDbEntity
  8
L1_
  6
CONTINUOUS
 62
         7
100
AcDbVertex
100
AcDb2dVertex
 10
1922.7082244394
 20
-45.5369035616
 30
0.0
 70
         1
  0
VERTEX
  5
1F5
100
AcDbEntity
  8
L1_
  6
CONTINUOUS
 62
         7
100
AcDbVertex
100
AcDb2dVertex
 10
1922.4222709004
 20
-45.4634056679
 30
0.0
 70
         1
  0
VERTEX
  5
1F7
100
AcDbEntity
  8
L1_
  6
CONTINUOUS
 62
         7
100
AcDbVertex
100
AcDb2dVertex
 10
1922.1254665222
 20
-45.4096353728
 30
0.0
 70
         1
  0
VERTEX
  5
1F9
100
AcDbEntity
  8
L1_
  6
CONTINUOUS
 62
         7
100
AcDbVertex
100
AcDb2dVertex
 10
1921.827171343
 20
-45.3752905792
 30
0.0
 70
         1
  0
VERTEX
  5
1FB
100
AcDbEntity
  8
L1_
  6
CONTINUOUS
 62
         7
100
AcDbVertex
100
AcDb2dVertex
 10
1921.4373822157
 20
-45.3572235217
 30
0.0
 70
         1
  0
VERTEX
  5
1FD
100
AcDbEntity
  8
L1_
  6
CONTINUOUS
 62
         7
100
AcDbVertex
100
AcDb2dVertex
 10
1921.0748537465
 20
-45.3665466372
 30
0.0
 70
         1
  0
VERTEX
  5
1FF
100
AcDbEntity
  8
L1_
  6
CONTINUOUS
 62
         7
100
AcDbVertex
100
AcDb2dVertex
 10
1920.7487954695
 20
-45.3969372609
 30
0.0
 70
         1
  0
VERTEX
  5
201
100
AcDbEntity
  8
L1_
  6
CONTINUOUS
 62
         7
100
AcDbVertex
100
AcDb2dVertex
 10
1920.463072731
 20
-45.4421768609
 30
0.0
 70
         1
  0
VERTEX
  5
203
100
AcDbEntity
  8
L1_
  6
CONTINUOUS
 62
         7
100
AcDbVertex
100
AcDb2dVertex
 10
1920.2175778718
 20
-45.4968459693
 30
0.0
 70
         1
  0
VERTEX
  5
205
100
AcDbEntity
  8
L1_
  6
CONTINUOUS
 62
         7
100
AcDbVertex
100
AcDb2dVertex
 10
1920.0096824896
 20
-45.5566115208
 30
0.0
 70
         1
  0
VERTEX
  5
207
100
AcDbEntity
  8
L1_
  6
CONTINUOUS
 62
         7
100
AcDbVertex
100
AcDb2dVertex
 10
1919.7813723142
 20
-45.6398862866
 30
0.0
 70
         1
  0
VERTEX
  5
209
100
AcDbEntity
  8
L1_
  6
CONTINUOUS
 62
         7
100
AcDbVertex
100
AcDb2dVertex
 10
1919.6036511767
 20
-45.7213647401
 30
0.0
 70
         1
  0
VERTEX
  5
20B
100
AcDbEntity
  8
L1_
  6
CONTINUOUS
 62
         7
100
AcDbVertex
100
AcDb2dVertex
 10
1919.4662282431
 20
-45.7980704304
 30
0.0
 70
         1
  0
VERTEX
  5
20D
100
AcDbEntity
  8
L1_
  6
CONTINUOUS
 62
         7
100
AcDbVertex
100
AcDb2dVertex
 10
1919.3285456573
 20
-45.8922218564
 30
0.0
 70
         1
  0
VERTEX
  5
20F
100
AcDbEntity
  8
L1_
  6
CONTINUOUS
 62
         7
100
AcDbVertex
100
AcDb2dVertex
 10
1919.2039609773
 20
-46.0012473194
 30
0.0
 70
         1
  0
VERTEX
  5
211
100
AcDbEntity
  8
L1_
  6
CONTINUOUS
 62
         7
100
AcDbVertex
100
AcDb2dVertex
 10
1919.1266016409
 20
-46.0893099403
 30
0.0
 70
         1
  0
VERTEX
  5
213
100
AcDbEntity
  8
L1_
  6
CONTINUOUS
 62
         7
100
AcDbVertex
100
AcDb2dVertex
 10
1919.0646858925
 20
-46.1828320784
 30
0.0
 70
         1
  0
VERTEX
  5
215
100
AcDbEntity
  8
L1_
  6
CONTINUOUS
 62
         7
100
AcDbVertex
100
AcDb2dVertex
 10
1919.0132497393
 20
-46.3029511785
 30
0.0
 70
         1
  0
VERTEX
  5
217
100
AcDbEntity
  8
L1_
  6
CONTINUOUS
 62
         7
100
AcDbVertex
100
AcDb2dVertex
 10
1918.9919752738
 20
-46.4170394313
 30
0.0
 70
         1
  0
VERTEX
  5
219
100
AcDbEntity
  8
L1_
  6
CONTINUOUS
 62
         7
100
AcDbVertex
100
AcDb2dVertex
 10
1918.9906946911
 20
-46.452831997
 30
0.0
 70
         1
  0
VERTEX
  5
21B
100
AcDbEntity
  8
L1_
  6
CONTINUOUS
 62
         7
100
AcDbVertex
100
AcDb2dVertex
 10
1918.9906946911
 20
-46.452831997
 30
0.0
 70
         1
  0
VERTEX
  5
21D
100
AcDbEntity
  8
L1_
  6
CONTINUOUS
 62
         7
100
AcDbVertex
100
AcDb2dVertex
 10
1919.0293812431
 20
-46.6487930343
 30
0.0
 70
         1
  0
VERTEX
  5
21F
100
AcDbEntity
  8
L1_
  6
CONTINUOUS
 62
         7
100
AcDbVertex
100
AcDb2dVertex
 10
1919.0806687012
 20
-46.7500646523
 30
0.0
 70
         1
  0
VERTEX
  5
221
100
AcDbEntity
  8
L1_
  6
CONTINUOUS
 62
         7
100
AcDbVertex
100
AcDb2dVertex
 10
1919.1552366192
 20
-46.8515914123
 30
0.0
 70
         1
  0
VERTEX
  5
223
100
AcDbEntity
  8
L1_
  6
CONTINUOUS
 62
         7
100
AcDbVertex
100
AcDb2dVertex
 10
1919.2537887213
 20
-46.9516725096
 30
0.0
 70
         1
  0
VERTEX
  5
225
100
AcDbEntity
  8
L1_
  6
CONTINUOUS
 62
         7
100
AcDbVertex
100
AcDb2dVertex
 10
1919.3762376209
 20
-47.048495994
 30
0.0
 70
         1
  0
VERTEX
  5
227
100
AcDbEntity
  8
L1_
  6
CONTINUOUS
 62
         7
100
AcDbVertex
100
AcDb2dVertex
 10
1919.5216258977
 20
-47.1402359635
 30
0.0
 70
         1
  0
VERTEX
  5
229
100
AcDbEntity
  8
L1_
  6
CONTINUOUS
 62
         7
100
AcDbVertex
100
AcDb2dVertex
 10
1919.6881173032
 20
-47.2251616933
 30
0.0
 70
         1
  0
VERTEX
  5
22B
100
AcDbEntity
  8
L1_
  6
CONTINUOUS
 62
         7
100
AcDbVertex
100
AcDb2dVertex
 10
1919.8730666913
 20
-47.3017461762
 30
0.0
 70
         1
  0
VERTEX
  5
22D
100
AcDbEntity
  8
L1_
  6
CONTINUOUS
 62
         7
100
AcDbVertex
100
AcDb2dVertex
 10
1920.0731649428
 20
-47.3687604324
 30
0.0
 70
         1
  0
VERTEX
  5
22F
100
AcDbEntity
  8
L1_
  6
CONTINUOUS
 62
         7
100
AcDbVertex
100
AcDb2dVertex
 10
1920.3591184818
 20
-47.4422583261
 30
0.0
 70
         1
  0
VERTEX
  5
231
100
AcDbEntity
  8
L1_
  6
CONTINUOUS
 62
         7
100
AcDbVertex
100
AcDb2dVertex
 10
1920.65592286
 20
-47.4960286212
 30
0.0
 70
         1
  0
VERTEX
  5
233
100
AcDbEntity
  8
L1_
  6
CONTINUOUS
 62
         7
100
AcDbVertex
100
AcDb2dVertex
 10
1920.9542180392
 20
-47.5303734148
 30
0.0
 70
         1
  0
VERTEX
  5
235
100
AcDbEntity
  8
L1_
  6
CONTINUOUS
 62
         7
100
AcDbVertex
100
AcDb2dVertex
 10
1921.3440071665
 20
-47.5484404723
 30
0.0
 70
         1
  0
VERTEX
  5
237
100
AcDbEntity
  8
L1_
  6
CONTINUOUS
 62
         7
100
AcDbVertex
100
AcDb2dVertex
 10
1921.7065356357
 20
-47.5391173568
 30
0.0
 70
         1
  0
VERTEX
  5
239
100
AcDbEntity
  8
L1_
  6
CONTINUOUS
 62
         7
100
AcDbVertex
100
AcDb2dVertex
 10
1922.0325939127
 20
-47.5087267331
 30
0.0
 70
         1
  0
VERTEX
  5
23B
100
AcDbEntity
  8
L1_
  6
CONTINUOUS
 62
         7
100
AcDbVertex
100
AcDb2dVertex
 10
1922.3183166512
 20
-47.4634871331
 30
0.0
 70
         1
  0
VERTEX
  5
23D
100
AcDbEntity
  8
L1_
  6
CONTINUOUS
 62
         7
100
AcDbVertex
100
AcDb2dVertex
 10
1922.5638115104
 20
-47.4088180247
 30
0.0
 70
         1
  0
VERTEX
  5
23F
100
AcDbEntity
  8
L1_
  6
CONTINUOUS
 62
         7
100
AcDbVertex
100
AcDb2dVertex
 10
1922.7717068926
 20
-47.3490524732
 30
0.0
 70
         1
  0
VERTEX
  5
241
100
AcDbEntity
  8
L1_
  6
CONTINUOUS
 62
         7
100
AcDbVertex
100
AcDb2dVertex
 10
1923.0000170681
 20
-47.2657777074
 30
0.0
 70
         1
  0
VERTEX
  5
243
100
AcDbEntity
  8
L1_
  6
CONTINUOUS
 62
         7
100
AcDbVertex
100
AcDb2dVertex
 10
1923.1777382055
 20
-47.1842992539
 30
0.0
 70
         1
  0
VERTEX
  5
245
100
AcDbEntity
  8
L1_
  6
CONTINUOUS
 62
         7
100
AcDbVertex
100
AcDb2dVertex
 10
1923.3151611391
 20
-47.1075935636
 30
0.0
 70
         1
  0
VERTEX
  5
247
100
AcDbEntity
  8
L1_
  6
CONTINUOUS
 62
         7
100
AcDbVertex
100
AcDb2dVertex
 10
1923.4528437249
 20
-47.0134421376
 30
0.0
 70
         1
  0
VERTEX
  5
249
100
AcDbEntity
  8
L1_
  6
CONTINUOUS
 62
         7
100
AcDbVertex
100
AcDb2dVertex
 10
1923.5774284049
 20
-46.9044166746
 30
0.0
 70
         1
  0
VERTEX
  5
24B
100
AcDbEntity
  8
L1_
  6
CONTINUOUS
 62
         7
100
AcDbVertex
100
AcDb2dVertex
 10
1923.6547877413
 20
-46.8163540537
 30
0.0
 70
         1
  0
VERTEX
  5
24D
100
AcDbEntity
  8
L1_
  6
CONTINUOUS
 62
         7
100
AcDbVertex
100
AcDb2dVertex
 10
1923.7167034897
 20
-46.7228319156
 30
0.0
 70
         1
  0
VERTEX
  5
24F
100
AcDbEntity
  8
L1_
  6
CONTINUOUS
 62
         7
100
AcDbVertex
100
AcDb2dVertex
 10
1923.7681396429
 20
-46.6027128155
 30
0.0
 70
         1
  0
VERTEX
  5
251
100
AcDbEntity
  8
L1_
  6
CONTINUOUS
 62
         7
100
AcDbVertex
100
AcDb2dVertex
 10
1923.7894141084
 20
-46.4886245627
 30
0.0
 70
         1
  0
VERTEX
  5
253
100
AcDbEntity
  8
L1_
  6
CONTINUOUS
 62
         7
100
AcDbVertex
100
AcDb2dVertex
 10
1923.7906946911
 20
-46.452831997
 30
0.0
 70
         1
  0
SEQEND
  5
255
100
AcDbEntity
  8
L1_
  6
CONTINUOUS
 62
         7
  0
POLYLINE
  5
257
100
AcDbEntity
  8
L1_
  6
CONTINUOUS
 62
         7
100
AcDb2dPolyline
 66
         1
 10
0.0
 20
0.0
 30
0.0
 70
         2
  0
VERTEX
  5
259
100
AcDbEntity
  8
L1_
  6
CONTINUOUS
 62
         7
100
AcDbVertex
100
AcDb2dVertex
 10
1918.9906946911
 20
-88.0220513787
 30
0.0
 70
         1
  0
VERTEX
  5
25B
100
AcDbEntity
  8
L1_
  6
CONTINUOUS
 62
         7
100
AcDbVertex
100
AcDb2dVertex
 10
1919.0293812431
 20
-88.218012416
 30
0.0
 70
         1
  0
VERTEX
  5
25D
100
AcDbEntity
  8
L1_
  6
CONTINUOUS
 62
         7
100
AcDbVertex
100
AcDb2dVertex
 10
1919.0806687012
 20
-88.319284034
 30
0.0
 70
         1
  0
VERTEX
  5
25F
100
AcDbEntity
  8
L1_
  6
CONTINUOUS
 62
         7
100
AcDbVertex
100
AcDb2dVertex
 10
1919.1552366192
 20
-88.4208107939
 30
0.0
 70
         1
  0
VERTEX
  5
261
100
AcDbEntity
  8
L1_
  6
CONTINUOUS
 62
         7
100
AcDbVertex
100
AcDb2dVertex
 10
1919.2537887213
 20
-88.5208918913
 30
0.0
 70
         1
  0
VERTEX
  5
263
100
AcDbEntity
  8
L1_
  6
CONTINUOUS
 62
         7
100
AcDbVertex
100
AcDb2dVertex
 10
1919.3762376209
 20
-88.6177153757
 30
0.0
 70
         1
  0
VERTEX
  5
265
100
AcDbEntity
  8
L1_
  6
CONTINUOUS
 62
         7
100
AcDbVertex
100
AcDb2dVertex
 10
1919.5216258977
 20
-88.7094553451
 30
0.0
 70
         1
  0
VERTEX
  5
267
100
AcDbEntity
  8
L1_
  6
CONTINUOUS
 62
         7
100
AcDbVertex
100
AcDb2dVertex
 10
1919.6881173032
 20
-88.794381075
 30
0.0
 70
         1
  0
VERTEX
  5
269
100
AcDbEntity
  8
L1_
  6
CONTINUOUS
 62
         7
100
AcDbVertex
100
AcDb2dVertex
 10
1919.8730666913
 20
-88.8709655578
 30
0.0
 70
         1
  0
VERTEX
  5
26B
100
AcDbEntity
  8
L1_
  6
CONTINUOUS
 62
         7
100
AcDbVertex
100
AcDb2dVertex
 10
1920.0731649428
 20
-88.937979814
 30
0.0
 70
         1
  0
VERTEX
  5
26D
100
AcDbEntity
  8
L1_
  6
CONTINUOUS
 62
         7
100
AcDbVertex
100
AcDb2dVertex
 10
1920.3591184818
 20
-89.0114777078
 30
0.0
 70
         1
  0
VERTEX
  5
26F
100
AcDbEntity
  8
L1_
  6
CONTINUOUS
 62
         7
100
AcDbVertex
100
AcDb2dVertex
 10
1920.65592286
 20
-89.0652480029
 30
0.0
 70
         1
  0
VERTEX
  5
271
100
AcDbEntity
  8
L1_
  6
CONTINUOUS
 62
         7
100
AcDbVertex
100
AcDb2dVertex
 10
1920.9542180392
 20
-89.0995927965
 30
0.0
 70
         1
  0
VERTEX
  5
273
100
AcDbEntity
  8
L1_
  6
CONTINUOUS
 62
         7
100
AcDbVertex
100
AcDb2dVertex
 10
1921.3440071665
 20
-89.117659854
 30
0.0
 70
         1
  0
VERTEX
  5
275
100
AcDbEntity
  8
L1_
  6
CONTINUOUS
 62
         7
100
AcDbVertex
100
AcDb2dVertex
 10
1921.7065356357
 20
-89.1083367384
 30
0.0
 70
         1
  0
VERTEX
  5
277
100
AcDbEntity
  8
L1_
  6
CONTINUOUS
 62
         7
100
AcDbVertex
100
AcDb2dVertex
 10
1922.0325939127
 20
-89.0779461148
 30
0.0
 70
         1
  0
VERTEX
  5
279
100
AcDbEntity
  8
L1_
  6
CONTINUOUS
 62
         7
100
AcDbVertex
100
AcDb2dVertex
 10
1922.3183166512
 20
-89.0327065148
 30
0.0
 70
         1
  0
VERTEX
  5
27B
100
AcDbEntity
  8
L1_
  6
CONTINUOUS
 62
         7
100
AcDbVertex
100
AcDb2dVertex
 10
1922.5638115105
 20
-88.9780374063
 30
0.0
 70
         1
  0
VERTEX
  5
27D
100
AcDbEntity
  8
L1_
  6
CONTINUOUS
 62
         7
100
AcDbVertex
100
AcDb2dVertex
 10
1922.7717068926
 20
-88.9182718549
 30
0.0
 70
         1
  0
VERTEX
  5
27F
100
AcDbEntity
  8
L1_
  6
CONTINUOUS
 62
         7
100
AcDbVertex
100
AcDb2dVertex
 10
1923.0000170681
 20
-88.8349970891
 30
0.0
 70
         1
  0
VERTEX
  5
281
100
AcDbEntity
  8
L1_
  6
CONTINUOUS
 62
         7
100
AcDbVertex
100
AcDb2dVertex
 10
1923.1777382055
 20
-88.7535186356
 30
0.0
 70
         1
  0
VERTEX
  5
283
100
AcDbEntity
  8
L1_
  6
CONTINUOUS
 62
         7
100
AcDbVertex
100
AcDb2dVertex
 10
1923.3151611392
 20
-88.6768129452
 30
0.0
 70
         1
  0
VERTEX
  5
285
100
AcDbEntity
  8
L1_
  6
CONTINUOUS
 62
         7
100
AcDbVertex
100
AcDb2dVertex
 10
1923.4528437249
 20
-88.5826615192
 30
0.0
 70
         1
  0
VERTEX
  5
287
100
AcDbEntity
  8
L1_
  6
CONTINUOUS
 62
         7
100
AcDbVertex
100
AcDb2dVertex
 10
1923.5774284049
 20
-88.4736360562
 30
0.0
 70
         1
  0
VERTEX
  5
289
100
AcDbEntity
  8
L1_
  6
CONTINUOUS
 62
         7
100
AcDbVertex
100
AcDb2dVertex
 10
1923.6547877413
 20
-88.3855734353
 30
0.0
 70
         1
  0
VERTEX
  5
28B
100
AcDbEntity
  8
L1_
  6
CONTINUOUS
 62
         7
100
AcDbVertex
100
AcDb2dVertex
 10
1923.7167034897
 20
-88.2920512972
 30
0.0
 70
         1
  0
VERTEX
  5
28D
100
AcDbEntity
  8
L1_
  6
CONTINUOUS
 62
         7
100
AcDbVertex
100
AcDb2dVertex
 10
1923.7681396429
 20
-88.1719321972
 30
0.0
 70
         1
  0
VERTEX
  5
28F
100
AcDbEntity
  8
L1_
  6
CONTINUOUS
 62
         7
100
AcDbVertex
100
AcDb2dVertex
 10
1923.7894141084
 20
-88.0578439443
 30
0.0
 70
         1
  0
VERTEX
  5
291
100
AcDbEntity
  8
L1_
  6
CONTINUOUS
 62
         7
100
AcDbVertex
100
AcDb2dVertex
 10
1923.7906946911
 20
-88.0220513787
 30
0.0
 70
         1
  0
VERTEX
  5
293
100
AcDbEntity
  8
L1_
  6
CONTINUOUS
 62
         7
100
AcDbVertex
100
AcDb2dVertex
 10
1923.7906946911
 20
-88.0220513787
 30
0.0
 70
         1
  0
VERTEX
  5
295
100
AcDbEntity
  8
L1_
  6
CONTINUOUS
 62
         7
100
AcDbVertex
100
AcDb2dVertex
 10
1923.7520081391
 20
-87.8260903414
 30
0.0
 70
         1
  0
VERTEX
  5
297
100
AcDbEntity
  8
L1_
  6
CONTINUOUS
 62
         7
100
AcDbVertex
100
AcDb2dVertex
 10
1923.700720681
 20
-87.7248187233
 30
0.0
 70
         1
  0
VERTEX
  5
299
100
AcDbEntity
  8
L1_
  6
CONTINUOUS
 62
         7
100
AcDbVertex
100
AcDb2dVertex
 10
1923.626152763
 20
-87.6232919634
 30
0.0
 70
         1
  0
VERTEX
  5
29B
100
AcDbEntity
  8
L1_
  6
CONTINUOUS
 62
         7
100
AcDbVertex
100
AcDb2dVertex
 10
1923.527600661
 20
-87.523210866
 30
0.0
 70
         1
  0
VERTEX
  5
29D
100
AcDbEntity
  8
L1_
  6
CONTINUOUS
 62
         7
100
AcDbVertex
100
AcDb2dVertex
 10
1923.4051517613
 20
-87.4263873816
 30
0.0
 70
         1
  0
VERTEX
  5
29F
100
AcDbEntity
  8
L1_
  6
CONTINUOUS
 62
         7
100
AcDbVertex
100
AcDb2dVertex
 10
1923.2597634845
 20
-87.3346474122
 30
0.0
 70
         1
  0
VERTEX
  5
2A1
100
AcDbEntity
  8
L1_
  6
CONTINUOUS
 62
         7
100
AcDbVertex
100
AcDb2dVertex
 10
1923.093272079
 20
-87.2497216823
 30
0.0
 70
         1
  0
VERTEX
  5
2A3
100
AcDbEntity
  8
L1_
  6
CONTINUOUS
 62
         7
100
AcDbVertex
100
AcDb2dVertex
 10
1922.908322691
 20
-87.1731371995
 30
0.0
 70
         1
  0
VERTEX
  5
2A5
100
AcDbEntity
  8
L1_
  6
CONTINUOUS
 62
         7
100
AcDbVertex
100
AcDb2dVertex
 10
1922.7082244394
 20
-87.1061229433
 30
0.0
 70
         1
  0
VERTEX
  5
2A7
100
AcDbEntity
  8
L1_
  6
CONTINUOUS
 62
         7
100
AcDbVertex
100
AcDb2dVertex
 10
1922.4222709004
 20
-87.0326250495
 30
0.0
 70
         1
  0
VERTEX
  5
2A9
100
AcDbEntity
  8
L1_
  6
CONTINUOUS
 62
         7
100
AcDbVertex
100
AcDb2dVertex
 10
1922.1254665222
 20
-86.9788547544
 30
0.0
 70
         1
  0
VERTEX
  5
2AB
100
AcDbEntity
  8
L1_
  6
CONTINUOUS
 62
         7
100
AcDbVertex
100
AcDb2dVertex
 10
1921.827171343
 20
-86.9445099608
 30
0.0
 70
         1
  0
VERTEX
  5
2AD
100
AcDbEntity
  8
L1_
  6
CONTINUOUS
 62
         7
100
AcDbVertex
100
AcDb2dVertex
 10
1921.4373822157
 20
-86.9264429033
 30
0.0
 70
         1
  0
VERTEX
  5
2AF
100
AcDbEntity
  8
L1_
  6
CONTINUOUS
 62
         7
100
AcDbVertex
100
AcDb2dVertex
 10
1921.0748537465
 20
-86.9357660189
 30
0.0
 70
         1
  0
VERTEX
  5
2B1
100
AcDbEntity
  8
L1_
  6
CONTINUOUS
 62
         7
100
AcDbVertex
100
AcDb2dVertex
 10
1920.7487954695
 20
-86.9661566425
 30
0.0
 70
         1
  0
VERTEX
  5
2B3
100
AcDbEntity
  8
L1_
  6
CONTINUOUS
 62
         7
100
AcDbVertex
100
AcDb2dVertex
 10
1920.463072731
 20
-87.0113962425
 30
0.0
 70
         1
  0
VERTEX
  5
2B5
100
AcDbEntity
  8
L1_
  6
CONTINUOUS
 62
         7
100
AcDbVertex
100
AcDb2dVertex
 10
1920.2175778718
 20
-87.066065351
 30
0.0
 70
         1
  0
VERTEX
  5
2B7
100
AcDbEntity
  8
L1_
  6
CONTINUOUS
 62
         7
100
AcDbVertex
100
AcDb2dVertex
 10
1920.0096824896
 20
-87.1258309025
 30
0.0
 70
         1
  0
VERTEX
  5
2B9
100
AcDbEntity
  8
L1_
  6
CONTINUOUS
 62
         7
100
AcDbVertex
100
AcDb2dVertex
 10
1919.7813723142
 20
-87.2091056682
 30
0.0
 70
         1
  0
VERTEX
  5
2BB
100
AcDbEntity
  8
L1_
  6
CONTINUOUS
 62
         7
100
AcDbVertex
100
AcDb2dVertex
 10
1919.6036511767
 20
-87.2905841217
 30
0.0
 70
         1
  0
VERTEX
  5
2BD
100
AcDbEntity
  8
L1_
  6
CONTINUOUS
 62
         7
100
AcDbVertex
100
AcDb2dVertex
 10
1919.4662282431
 20
-87.3672898121
 30
0.0
 70
         1
  0
VERTEX
  5
2BF
100
AcDbEntity
  8
L1_
  6
CONTINUOUS
 62
         7
100
AcDbVertex
100
AcDb2dVertex
 10
1919.3285456573
 20
-87.4614412381
 30
0.0
 70
         1
  0
VERTEX
  5
2C1
100
AcDbEntity
  8
L1_
  6
CONTINUOUS
 62
         7
100
AcDbVertex
100
AcDb2dVertex
 10
1919.2039609773
 20
-87.5704667011
 30
0.0
 70
         1
  0
VERTEX
  5
2C3
100
AcDbEntity
  8
L1_
  6
CONTINUOUS
 62
         7
100
AcDbVertex
100
AcDb2dVertex
 10
1919.126601641
 20
-87.658529322
 30
0.0
 70
         1
  0
VERTEX
  5
2C5
100
AcDbEntity
  8
L1_
  6
CONTINUOUS
 62
         7
100
AcDbVertex
100
AcDb2dVertex
 10
1919.0646858925
 20
-87.7520514601
 30
0.0
 70
         1
  0
VERTEX
  5
2C7
100
AcDbEntity
  8
L1_
  6
CONTINUOUS
 62
         7
100
AcDbVertex
100
AcDb2dVertex
 10
1919.0132497393
 20
-87.8721705601
 30
0.0
 70
         1
  0
VERTEX
  5
2C9
100
AcDbEntity
  8
L1_
  6
CONTINUOUS
 62
         7
100
AcDbVertex
100
AcDb2dVertex
 10
1918.9919752738
 20
-87.986258813
 30
0.0
 70
         1
  0
VERTEX
  5
2CB
100
AcDbEntity
  8
L1_
  6
CONTINUOUS
 62
         7
100
AcDbVertex
100
AcDb2dVertex
 10
1918.9906946911
 20
-88.0220513787
 30
0.0
 70
         1
  0
SEQEND
  5
2CD
100
AcDbEntity
  8
L1_
  6
CONTINUOUS
 62
         7
  0
LINE
  5
2CE
100
AcDbEntity
  8
L1_
  6
CENTER
 62
         1
100
AcDbLine
 10
1921.3906946911
 20
-86.9262355419
 30
0.0
 11
1921.3906946911
 21
-89.1178672154
 31
0.0
  0
LINE
  5
2CF
100
AcDbEntity
  8
L1_
  6
CONTINUOUS
 62
         7
100
AcDbLine
 10
1894.9080524525
 20
-61.5314416878
 30
0.0
 11
1880.1395089265
 21
-61.5314416916
 31
0.0
  0
LINE
  5
2D0
100
AcDbEntity
  8
L1_
  6
CONTINUOUS
 62
         7
100
AcDbLine
 10
1894.9080524525
 20
-72.9434416878
 30
0.0
 11
1880.1395089265
 21
-72.9434416916
 31
0.0
  0
ARC
  5
2D1
100
AcDbEntity
  8
L1_
  6
CONTINUOUS
 62
         7
100
AcDbCircle
 10
1880.1395089265
 20
-67.2374416916
 30
0.0
 40
5.706
100
AcDbArc
 50
90.0
 51
270.0
  0
ARC
  5
2D2
100
AcDbEntity
  8
L1_
  6
CONTINUOUS
 62
         7
100
AcDbCircle
 10
1894.9080524525
 20
-67.2374416878
 30
0.0
 40
5.706
100
AcDbArc
 50
270.0
 51
450.0
  0
ARC
  5
2D3
100
AcDbEntity
  8
L1_
  6
CONTINUOUS
 62
         7
100
AcDbCircle
 10
1961.5306946911
 20
-57.9374416878
 30
0.0
 40
0.6
100
AcDbArc
 50
90.0
 51
180.0
  0
LINE
  5
2D4
100
AcDbEntity
  8
L1_
  6
CONTINUOUS
 62
         7
100
AcDbLine
 10
1960.9306946911
 20
-76.5374416878
 30
0.0
 11
1960.9306946911
 21
-57.9374416878
 31
0.0
  0
LINE
  5
2D5
100
AcDbEntity
  8
L1_
  6
CONTINUOUS
 62
         7
100
AcDbLine
 10
1968.1306946911
 20
-57.3374416878
 30
0.0
 11
1961.5306946911
 21
-57.3374416878
 31
0.0
  0
ARC
  5
2D6
100
AcDbEntity
  8
L1_
  6
CONTINUOUS
 62
         7
100
AcDbCircle
 10
1961.5306946911
 20
-76.5374416878
 30
0.0
 40
0.6
100
AcDbArc
 50
180.0
 51
270.0
  0
LINE
  5
2D7
100
AcDbEntity
  8
L1_
  6
CONTINUOUS
 62
         7
100
AcDbLine
 10
1968.1306946911
 20
-77.1374416878
 30
0.0
 11
1961.5306946911
 21
-77.1374416878
 31
0.0
  0
LINE
  5
2D8
100
AcDbEntity
  8
L1_
  6
CONTINUOUS
 62
         7
100
AcDbLine
 10
1968.7306946911
 20
-77.7374416878
 30
0.0
 11
1968.1306946911
 21
-77.1374416878
 31
0.0
  0
LINE
  5
2D9
100
AcDbEntity
  8
L1_
  6
CONTINUOUS
 62
         7
100
AcDbLine
 10
1968.7306946911
 20
-56.7374416878
 30
0.0
 11
1968.1306946911
 21
-57.3374416878
 31
0.0
  0
LINE
  5
2DA
100
AcDbEntity
  8
L1_
  6
CONTINUOUS
 62
         7
100
AcDbLine
 10
1968.7306946911
 20
-90.6374416878
 30
0.0
 11
1968.7306946911
 21
-77.7374416878
 31
0.0
  0
LINE
  5
2DB
100
AcDbEntity
  8
L1_
  6
CONTINUOUS
 62
         7
100
AcDbLine
 10
1968.7306946911
 20
-56.7374416878
 30
0.0
 11
1968.7306946911
 21
-43.8374416878
 31
0.0
  0
LINE
  5
2DC
100
AcDbEntity
  8
L1_
  6
CONTINUOUS
 62
         7
100
AcDbLine
 10
1811.1106946911
 20
-78.9374416878
 30
0.0
 11
1811.7106946911
 21
-79.5374416878
 31
0.0
  0
LINE
  5
2DD
100
AcDbEntity
  8
L1_
  6
CONTINUOUS
 62
         7
100
AcDbLine
 10
1811.1106946911
 20
-55.5374416878
 30
0.0
 11
1811.7106946911
 21
-54.9374416878
 31
0.0
  0
LINE
  5
2DE
100
AcDbEntity
  8
L1_
  6
CONTINUOUS
 62
         4
100
AcDbLine
 10
1797.4979251756
 20
-105.0374416878
 30
0.0
 11
1797.4979251756
 21
-29.4374416878
 31
0.0
  0
LINE
  5
2DF
100
AcDbEntity
  8
L1_
  6
CONTINUOUS
 62
         4
100
AcDbLine
 10
1834.3906946911
 20
-81.6374416878
 30
0.0
 11
1834.3906946911
 21
-52.8374416878
 31
0.0
  0
LINE
  5
2E0
100
AcDbEntity
  8
L1_
  6
CONTINUOUS
 62
         4
100
AcDbLine
 10
1811.7106946911
 20
-54.9374416878
 30
0.0
 11
1811.7106946911
 21
-79.5374416878
 31
0.0
  0
LINE
  5
2E1
100
AcDbEntity
  8
L1_
  6
CONTINUOUS
 62
         4
100
AcDbLine
 10
1847.3986946911
 20
-85.8374416878
 30
0.0
 11
1847.3986946911
 21
-48.6374416878
 31
0.0
  0
LINE
  5
2E2
100
AcDbEntity
  8
L1_
  6
CONTINUOUS
 62
         4
100
AcDbLine
 10
1872.6015281185
 20
-38.4374416878
 30
0.0
 11
1872.6015281185
 21
-96.0374416878
 31
0.0
  0
LINE
  5
2E3
100
AcDbEntity
  8
L1_
  6
CONTINUOUS
 62
         4
100
AcDbLine
 10
1902.4306946911
 20
-96.0374416878
 30
0.0
 11
1902.4306946911
 21
-38.4374416878
 31
0.0
  0
LINE
  5
2E4
100
AcDbEntity
  8
L1_
  6
CONTINUOUS
 62
         4
100
AcDbLine
 10
1968.1306946911
 20
-57.3374416878
 30
0.0
 11
1968.1306946911
 21
-43.2374416878
 31
0.0
  0
LINE
  5
2E5
100
AcDbEntity
  8
L1_
  6
CONTINUOUS
 62
         4
100
AcDbLine
 10
1968.1306946911
 20
-77.1374416878
 30
0.0
 11
1968.1306946911
 21
-91.2374416878
 31
0.0
  0
LINE
  5
2E6
100
AcDbEntity
  8
L1_
  6
CONTINUOUS
 62
         4
100
AcDbLine
 10
1982.5906946911
 20
-48.6374416878
 30
0.0
 11
1982.5906946911
 21
-85.8374416878
 31
0.0
  0
LINE
  5
2E7
100
AcDbEntity
  8
L1_
  6
CONTINUOUS
 62
         4
100
AcDbLine
 10
2076.6706946911
 20
-35.4374416878
 30
0.0
 11
2076.6706946911
 21
-99.0374416878
 31
0.0
  0
LINE
  5
2E8
100
AcDbEntity
  8
L1_
  6
CONTINUOUS
 62
         4
100
AcDbLine
 10
2067.0706946911
 20
-99.0374416878
 30
0.0
 11
2067.0706946911
 21
-35.4374416878
 31
0.0
  0
INSERT
  5
359
100
AcDbEntity
  8
0
  6
CONTINUOUS
100
AcDbBlockReference
  2
*X15
 10
0.0
 20
0.0
 30
0.0
  0
ARC
  5
35A
100
AcDbEntity
  8
_Y__________
  6
CONTINUOUS
 62
         7
100
AcDbCircle
 10
1404.0761999334
 20
92.9617533587
 30
0.0
 40
1.0
100
AcDbArc
 50
180.0
 51
261.7029
  0
LINE
  5
35B
100
AcDbEntity
  8
_Y__________
  6
CONTINUOUS
 62
         7
100
AcDbLine
 10
1403.0761999334
 20
131.5423463558
 30
0.0
 11
1403.0761999334
 21
92.9617533587
 31
0.0
  0
ARC
  5
35C
100
AcDbEntity
  8
_Y__________
  6
CONTINUOUS
 62
         7
100
AcDbCircle
 10
1404.0761999334
 20
131.5423463558
 30
0.0
 40
1.0
100
AcDbArc
 50
98.2971
 51
180.0
  0
LINE
  5
35D
100
AcDbEntity
  8
_Y__________
  6
CONTINUOUS
 62
         7
100
AcDbLine
 10
1524.5786999334
 20
-84.2400166132
 30
0.0
 11
1531.5786999334
 21
-84.2400166132
 31
0.0
  0
LINE
  5
35E
100
AcDbEntity
  8
_Y__________
  6
CONTINUOUS
 62
         7
100
AcDbLine
 10
1531.5786999334
 20
-83.6233387867
 30
0.0
 11
1535.5527878432
 21
-76.7400166132
 31
0.0
  0
LINE
  5
35F
100
AcDbEntity
  8
_Y__________
  6
CONTINUOUS
 62
         7
100
AcDbLine
 10
1531.5786999334
 20
-83.6233387867
 30
0.0
 11
1531.5786999334
 21
-84.2400166132
 31
0.0
  0
LINE
  5
360
100
AcDbEntity
  8
_Y__________
  6
CONTINUOUS
 62
         7
100
AcDbLine
 10
1508.8786999334
 20
-76.7400166132
 30
0.0
 11
1520.6046120236
 21
-76.7400166132
 31
0.0
  0
ARC
  5
361
100
AcDbEntity
  8
_Y__________
  6
CONTINUOUS
 62
         7
100
AcDbCircle
 10
1507.2786999334
 20
-91.4421003473
 30
0.0
 40
0.6
100
AcDbArc
 50
270.0
 51
360.0
  0
LINE
  5
362
100
AcDbEntity
  8
_Y__________
  6
CONTINUOUS
 62
         7
100
AcDbLine
 10
1506.4983151757
 20
-92.0421003473
 30
0.0
 11
1507.2786999334
 21
-92.0421003473
 31
0.0
  0
LINE
  5
363
100
AcDbEntity
  8
_Y__________
  6
CONTINUOUS
 62
         7
100
AcDbLine
 10
1505.1955277024
 20
-91.693019496
 30
0.0
 11
1506.4983151757
 21
-92.0421003473
 31
0.0
  0
LINE
  5
364
100
AcDbEntity
  8
_Y__________
  6
CONTINUOUS
 62
         7
100
AcDbLine
 10
1507.8786999334
 20
-77.7400166132
 30
0.0
 11
1507.8786999334
 21
-91.4421003473
 31
0.0
  0
LINE
  5
365
100
AcDbEntity
  8
_Y__________
  6
CONTINUOUS
 62
         7
100
AcDbLine
 10
1524.5786999334
 20
-83.6233387867
 30
0.0
 11
1520.6046120236
 21
-76.7400166132
 31
0.0
  0
LINE
  5
366
100
AcDbEntity
  8
_Y__________
  6
CONTINUOUS
 62
         7
100
AcDbLine
 10
1524.5786999334
 20
-83.6233387867
 30
0.0
 11
1524.5786999334
 21
-84.2400166132
 31
0.0
  0
LINE
  5
367
100
AcDbEntity
  8
_Y__________
  6
CONTINUOUS
 62
         7
100
AcDbLine
 10
1524.5786999334
 20
-84.2400166132
 30
0.0
 11
1531.5786999334
 21
-84.2400166132
 31
0.0
  0
LINE
  5
368
100
AcDbEntity
  8
_Y__________
  6
CONTINUOUS
 62
         7
100
AcDbLine
 10
1535.5527878432
 20
-76.7400166132
 30
0.0
 11
1541.8786999334
 21
-76.7400166132
 31
0.0
  0
LINE
  5
369
100
AcDbEntity
  8
_Y__________
  6
CONTINUOUS
 62
         7
100
AcDbLine
 10
1505.1955277024
 20
-161.7870137304
 30
0.0
 11
1506.4983151757
 21
-161.4379328791
 31
0.0
  0
ARC
  5
36A
100
AcDbEntity
  8
_Y__________
  6
CONTINUOUS
 62
         7
100
AcDbCircle
 10
1507.2786999334
 20
-162.0379328791
 30
0.0
 40
0.6
100
AcDbArc
 50
0.0
 51
90.0
  0
LINE
  5
36B
100
AcDbEntity
  8
_Y__________
  6
CONTINUOUS
 62
         7
100
AcDbLine
 10
1531.5786999334
 20
-169.8566944397
 30
0.0
 11
1535.5527878432
 21
-176.7400166132
 31
0.0
  0
LINE
  5
36C
100
AcDbEntity
  8
_Y__________
  6
CONTINUOUS
 62
         7
100
AcDbLine
 10
1531.5786999334
 20
-169.2400166132
 30
0.0
 11
1531.5786999334
 21
-169.8566944397
 31
0.0
  0
LINE
  5
36D
100
AcDbEntity
  8
_Y__________
  6
CONTINUOUS
 62
         7
100
AcDbLine
 10
1508.8786999334
 20
-176.7400166132
 30
0.0
 11
1520.6046120236
 21
-176.7400166132
 31
0.0
  0
LINE
  5
36E
100
AcDbEntity
  8
_Y__________
  6
CONTINUOUS
 62
         7
100
AcDbLine
 10
1524.5786999334
 20
-169.8566944397
 30
0.0
 11
1520.6046120236
 21
-176.7400166132
 31
0.0
  0
LINE
  5
36F
100
AcDbEntity
  8
_Y__________
  6
CONTINUOUS
 62
         7
100
AcDbLine
 10
1524.5786999334
 20
-169.2400166132
 30
0.0
 11
1524.5786999334
 21
-169.8566944397
 31
0.0
  0
LINE
  5
370
100
AcDbEntity
  8
_Y__________
  6
CONTINUOUS
 62
         7
100
AcDbLine
 10
1524.5786999334
 20
-169.2400166132
 30
0.0
 11
1531.5786999334
 21
-169.2400166132
 31
0.0
  0
LINE
  5
371
100
AcDbEntity
  8
_Y__________
  6
CONTINUOUS
 62
         7
100
AcDbLine
 10
1507.8786999334
 20
-162.0379328791
 30
0.0
 11
1507.8786999334
 21
-175.7400166132
 31
0.0
  0
LINE
  5
372
100
AcDbEntity
  8
_Y__________
  6
CONTINUOUS
 62
         7
100
AcDbLine
 10
1506.4983151757
 20
-161.4379328791
 30
0.0
 11
1507.2786999334
 21
-161.4379328791
 31
0.0
  0
LINE
  5
373
100
AcDbEntity
  8
_Y__________
  6
CONTINUOUS
 62
         7
100
AcDbLine
 10
1448.0686999334
 20
-114.7400166132
 30
0.0
 11
1448.0686999334
 21
-138.7400166132
 31
0.0
  0
LINE
  5
374
100
AcDbEntity
  8
_Y__________
  6
CONTINUOUS
 62
         7
100
AcDbLine
 10
1535.5527878432
 20
-176.7400166132
 30
0.0
 11
1541.8786999334
 21
-176.7400166132
 31
0.0
  0
LINE
  5
375
100
AcDbEntity
  8
_Y__________
  6
CONTINUOUS
 62
         7
100
AcDbLine
 10
1413.5786999334
 20
-114.2400166132
 30
0.0
 11
1413.5786999334
 21
-139.2400166132
 31
0.0
  0
LINE
  5
376
100
AcDbEntity
  8
_Y__________
  6
CONTINUOUS
 62
         7
100
AcDbLine
 10
1416.0786999334
 20
-114.5400166132
 30
0.0
 11
1416.0786999334
 21
-138.9400166132
 31
0.0
  0
ARC
  5
377
100
AcDbEntity
  8
_Y__________
  6
CONTINUOUS
 62
         7
100
AcDbCircle
 10
1414.7773066742
 20
-138.9400166132
 30
0.0
 40
0.6
100
AcDbArc
 50
255.0
 51
270.0
  0
ARC
  5
378
100
AcDbEntity
  8
_Y__________
  6
CONTINUOUS
 62
         7
100
AcDbCircle
 10
1415.4786999334
 20
-138.9400166132
 30
0.0
 40
0.6
100
AcDbArc
 50
270.0
 51
360.0
  0
LINE
  5
379
100
AcDbEntity
  8
_Y__________
  6
CONTINUOUS
 62
         7
100
AcDbLine
 10
1413.5786999334
 20
-139.2400166132
 30
0.0
 11
1414.6220152472
 21
-139.519572109
 31
0.0
  0
LINE
  5
37A
100
AcDbEntity
  8
_Y__________
  6
CONTINUOUS
 62
         7
100
AcDbLine
 10
1414.7773066742
 20
-139.5400166132
 30
0.0
 11
1415.4786999334
 21
-139.5400166132
 31
0.0
  0
ARC
  5
37B
100
AcDbEntity
  8
_Y__________
  6
CONTINUOUS
 62
         7
100
AcDbCircle
 10
1415.4786999334
 20
-114.5400166132
 30
0.0
 40
0.6
100
AcDbArc
 50
0.0
 51
90.0
  0
LINE
  5
37C
100
AcDbEntity
  8
_Y__________
  6
CONTINUOUS
 62
         7
100
AcDbLine
 10
1413.5786999334
 20
-114.2400166132
 30
0.0
 11
1414.6220152472
 21
-113.9604611174
 31
0.0
  0
LINE
  5
37D
100
AcDbEntity
  8
_Y__________
  6
CONTINUOUS
 62
         7
100
AcDbLine
 10
1414.7773066742
 20
-113.9400166132
 30
0.0
 11
1415.4786999334
 21
-113.9400166132
 31
0.0
  0
ARC
  5
37E
100
AcDbEntity
  8
_Y__________
  6
CONTINUOUS
 62
         7
100
AcDbCircle
 10
1414.7773066742
 20
-114.5400166132
 30
0.0
 40
0.6
100
AcDbArc
 50
90.0
 51
105.0
  0
LINE
  5
37F
100
AcDbEntity
  8
_Y__________
  6
CONTINUOUS
 62
         7
100
AcDbLine
 10
1403.0786999334
 20
-140.2400166132
 30
0.0
 11
1404.810750741
 21
-139.2400166132
 31
0.0
  0
LINE
  5
380
100
AcDbEntity
  8
_Y__________
  6
CONTINUOUS
 62
         7
100
AcDbLine
 10
1403.0786999334
 20
-113.2400166132
 30
0.0
 11
1404.810750741
 21
-114.2400166132
 31
0.0
  0
LINE
  5
381
100
AcDbEntity
  8
_Y__________
  6
CONTINUOUS
 62
         7
100
AcDbLine
 10
1404.810750741
 20
-139.2400166132
 30
0.0
 11
1413.5786999334
 21
-139.2400166132
 31
0.0
  0
LINE
  5
382
100
AcDbEntity
  8
_Y__________
  6
CONTINUOUS
 62
         7
100
AcDbLine
 10
1404.810750741
 20
-114.2400166132
 30
0.0
 11
1413.5786999334
 21
-114.2400166132
 31
0.0
  0
LINE
  5
383
100
AcDbEntity
  8
_Y__________
  6
CONTINUOUS
 62
         5
100
AcDbLine
 10
1416.0786999334
 20
-114.7400166132
 30
0.0
 11
1448.0686999334
 21
-114.7400166132
 31
0.0
  0
LINE
  5
384
100
AcDbEntity
  8
_Y__________
  6
CONTINUOUS
 62
         5
100
AcDbLine
 10
1416.0786999334
 20
-138.7400166132
 30
0.0
 11
1448.0686999334
 21
-138.7400166132
 31
0.0
  0
LINE
  5
385
100
AcDbEntity
  8
_Y__________
  6
CONTINUOUS
 62
         7
100
AcDbLine
 10
1416.0786999334
 20
-116.2400166132
 30
0.0
 11
1448.0686999334
 21
-116.2400166132
 31
0.0
  0
LINE
  5
386
100
AcDbEntity
  8
_Y__________
  6
CONTINUOUS
 62
         7
100
AcDbLine
 10
1416.0786999334
 20
-137.2400166132
 30
0.0
 11
1448.0686999334
 21
-137.2400166132
 31
0.0
  0
LINE
  5
387
100
AcDbEntity
  8
_Y__________
  6
CENTER
 62
         1
100
AcDbLine
 10
1398.5898393473
 20
-126.7400166132
 30
0.0
 11
1542.8786999334
 21
-126.7400166132
 31
0.0
  0
LINE
  5
388
100
AcDbEntity
  8
_Y__________
  6
CONTINUOUS
 62
         7
100
AcDbLine
 10
1531.5786999334
 20
155.519092265
 30
0.0
 11
1535.509486573
 21
162.3274144385
 31
0.0
  0
LINE
  5
389
100
AcDbEntity
  8
_Y__________
  6
CONTINUOUS
 62
         7
100
AcDbLine
 10
1524.5786999334
 20
155.519092265
 30
0.0
 11
1520.6479132938
 21
162.3274144385
 31
0.0
  0
LINE
  5
38A
100
AcDbEntity
  8
_Y__________
  6
CONTINUOUS
 62
         7
100
AcDbLine
 10
1508.8386999334
 20
162.3274144385
 30
0.0
 11
1520.6479132938
 21
162.3274144385
 31
0.0
  0
LINE
  5
38B
100
AcDbEntity
  8
_Y__________
  6
CONTINUOUS
 62
         7
100
AcDbLine
 10
1524.5786999334
 20
154.7524144385
 30
0.0
 11
1531.5786999334
 21
154.7524144385
 31
0.0
  0
LINE
  5
38C
100
AcDbEntity
  8
_Y__________
  6
CONTINUOUS
 62
         7
100
AcDbLine
 10
1505.1955277024
 20
147.2994115558
 30
0.0
 11
1506.4983151757
 21
146.9503307044
 31
0.0
  0
LINE
  5
38D
100
AcDbEntity
  8
_Y__________
  6
CONTINUOUS
 62
         7
100
AcDbLine
 10
1506.4983151757
 20
146.9503307044
 30
0.0
 11
1507.8386999334
 21
146.9503307044
 31
0.0
  0
LINE
  5
38E
100
AcDbEntity
  8
_Y__________
  6
CENTER
 62
         1
100
AcDbLine
 10
1488.1913479344
 20
112.2524144385
 30
0.0
 11
1542.8786999334
 21
112.2524144385
 31
0.0
  0
LINE
  5
38F
100
AcDbEntity
  8
_Y__________
  6
CONTINUOUS
 62
         7
100
AcDbLine
 10
1535.509486573
 20
162.3274144385
 30
0.0
 11
1541.8786999334
 21
162.3274144385
 31
0.0
  0
LINE
  5
390
100
AcDbEntity
  8
_Y__________
  6
CENTER
 62
         1
100
AcDbLine
 10
1400.3626759545
 20
112.2524144385
 30
0.0
 11
1468.6206362027
 21
112.2524144385
 31
0.0
  0
LINE
  5
391
100
AcDbEntity
  8
_Y__________
  6
CONTINUOUS
 62
         7
100
AcDbLine
 10
1403.929393817
 20
132.5315148688
 30
0.0
 11
1505.1955277024
 21
147.2994115558
 31
0.0
  0
LINE
  5
392
100
AcDbEntity
  8
_Y__________
  6
CONTINUOUS
 62
         7
100
AcDbLine
 10
1524.5786999334
 20
69.7524144385
 30
0.0
 11
1531.5786999334
 21
69.7524144385
 31
0.0
  0
LINE
  5
393
100
AcDbEntity
  8
_Y__________
  6
CONTINUOUS
 62
         7
100
AcDbLine
 10
1508.8386999334
 20
62.1774144385
 30
0.0
 11
1520.6479132938
 21
62.1774144385
 31
0.0
  0
LINE
  5
394
100
AcDbEntity
  8
_Y__________
  6
CONTINUOUS
 62
         7
100
AcDbLine
 10
1531.5786999334
 20
68.9857366121
 30
0.0
 11
1535.509486573
 21
62.1774144385
 31
0.0
  0
LINE
  5
395
100
AcDbEntity
  8
_Y__________
  6
CONTINUOUS
 62
         7
100
AcDbLine
 10
1524.5786999334
 20
68.9857366121
 30
0.0
 11
1520.6479132938
 21
62.1774144385
 31
0.0
  0
LINE
  5
396
100
AcDbEntity
  8
_Y__________
  6
CONTINUOUS
 62
         7
100
AcDbLine
 10
1506.4983151757
 20
77.5544981727
 30
0.0
 11
1507.8386999334
 21
77.5544981727
 31
0.0
  0
LINE
  5
397
100
AcDbEntity
  8
_Y__________
  6
CONTINUOUS
 62
         7
100
AcDbLine
 10
1505.1955277024
 20
77.2054173213
 30
0.0
 11
1506.4983151757
 21
77.5544981727
 31
0.0
  0
LINE
  5
398
100
AcDbEntity
  8
_Y__________
  6
CONTINUOUS
 62
         7
100
AcDbLine
 10
1535.509486573
 20
62.1774144385
 30
0.0
 11
1541.8786999334
 21
62.1774144385
 31
0.0
  0
LINE
  5
399
100
AcDbEntity
  8
_Y__________
  6
CONTINUOUS
 62
         7
100
AcDbLine
 10
1542.8786999334
 20
161.3274144385
 30
0.0
 11
1542.8786999334
 21
63.1774144385
 31
0.0
  0
LINE
  5
39A
100
AcDbEntity
  8
_Y__________
  6
CONTINUOUS
 62
         7
100
AcDbLine
 10
1507.8386999334
 20
161.3274144385
 30
0.0
 11
1507.8386999334
 21
63.1774144385
 31
0.0
  0
LINE
  5
39B
100
AcDbEntity
  8
_Y__________
  6
CONTINUOUS
 62
         7
100
AcDbLine
 10
1506.4983151757
 20
146.9503307044
 30
0.0
 11
1506.4983151757
 21
77.5544981727
 31
0.0
  0
LINE
  5
39C
100
AcDbEntity
  8
_Y__________
  6
CENTER
 62
         1
100
AcDbLine
 10
1504.8786999334
 20
147.2532077601
 30
0.0
 11
1504.8786999334
 21
77.251621117
 31
0.0
  0
LINE
  5
39D
100
AcDbEntity
  8
_Y__________
  6
CENTER
 62
         1
100
AcDbLine
 10
1528.0786999334
 20
162.322642964
 30
0.0
 11
1528.0786999334
 21
61.1649935715
 31
0.0
  0
LINE
  5
39E
100
AcDbEntity
  8
_Y__________
  6
CONTINUOUS
 62
         7
100
AcDbLine
 10
1403.929393817
 20
91.9733140083
 30
0.0
 11
1505.1955277024
 21
77.2054173213
 31
0.0
  0
ARC
  5
39F
100
AcDbEntity
  8
_Y__________
  6
CONTINUOUS
 62
         7
100
AcDbCircle
 10
1404.0736999334
 20
-107.4504492773
 30
0.0
 40
1.0
100
AcDbArc
 50
98.2971
 51
180.0
  0
LINE
  5
3A0
100
AcDbEntity
  8
_Y__________
  6
CONTINUOUS
 62
         7
100
AcDbLine
 10
1403.0736999334
 20
-107.4504492773
 30
0.0
 11
1403.0736999334
 21
-146.0295839491
 31
0.0
  0
ARC
  5
3A1
100
AcDbEntity
  8
_Y__________
  6
CONTINUOUS
 62
         7
100
AcDbCircle
 10
1404.0736999334
 20
-146.0295839491
 30
0.0
 40
1.0
100
AcDbArc
 50
180.0
 51
261.7029
  0
LINE
  5
3A2
100
AcDbEntity
  8
_Y__________
  6
CONTINUOUS
 62
         7
100
AcDbLine
 10
1403.929393817
 20
-106.460916183
 30
0.0
 11
1505.1955277024
 21
-91.693019496
 31
0.0
  0
LINE
  5
3A3
100
AcDbEntity
  8
_Y__________
  6
CONTINUOUS
 62
         7
100
AcDbLine
 10
1403.929393817
 20
-147.0191170434
 30
0.0
 11
1505.1955277024
 21
-161.7870137304
 31
0.0
  0
LINE
  5
3A4
100
AcDbEntity
  8
_Y__________
  6
CONTINUOUS
 62
         7
100
AcDbLine
 10
1520.6046120236
 20
126.1024144385
 30
0.0
 11
1524.5786999334
 21
125.1024144385
 31
0.0
  0
LINE
  5
3A5
100
AcDbEntity
  8
_Y__________
  6
CONTINUOUS
 62
         7
100
AcDbLine
 10
1507.8786999334
 20
125.1024144385
 30
0.0
 11
1526.0286999334
 21
125.1024144385
 31
0.0
  0
LINE
  5
3A6
100
AcDbEntity
  8
_Y__________
  6
CONTINUOUS
 62
         7
100
AcDbLine
 10
1507.8386999334
 20
126.1024144385
 30
0.0
 11
1520.6046120236
 21
126.1024144385
 31
0.0
  0
LINE
  5
3A7
100
AcDbEntity
  8
_Y__________
  6
CONTINUOUS
 62
         7
100
AcDbLine
 10
1531.5786999334
 20
123.8420649941
 30
0.0
 11
1535.5527878432
 21
122.3079725775
 31
0.0
  0
LINE
  5
3A8
100
AcDbEntity
  8
_Y__________
  6
CONTINUOUS
 62
         7
100
AcDbLine
 10
1520.6046120236
 20
98.4024144385
 30
0.0
 11
1524.5786999334
 21
99.4024144385
 31
0.0
  0
LINE
  5
3A9
100
AcDbEntity
  8
_Y__________
  6
CONTINUOUS
 62
         7
100
AcDbLine
 10
1507.8786999334
 20
99.4024144385
 30
0.0
 11
1526.0286999334
 21
99.4024144385
 31
0.0
  0
LINE
  5
3AA
100
AcDbEntity
  8
_Y__________
  6
CONTINUOUS
 62
         7
100
AcDbLine
 10
1507.8386999334
 20
98.4024144385
 30
0.0
 11
1520.6046120236
 21
98.4024144385
 31
0.0
  0
LINE
  5
3AB
100
AcDbEntity
  8
_Y__________
  6
CONTINUOUS
 62
         7
100
AcDbLine
 10
1531.5786999334
 20
100.662763883
 30
0.0
 11
1535.5527878432
 21
102.1968562996
 31
0.0
  0
ARC
  5
3AC
100
AcDbEntity
  8
_Y__________
  6
CONTINUOUS
 62
         7
100
AcDbCircle
 10
1526.0286999334
 20
112.2524144385
 30
0.0
 40
13.85
100
AcDbArc
 50
313.4451442301
 51
406.5548557699
  0
ARC
  5
3AD
100
AcDbEntity
  8
_Y__________
  6
CONTINUOUS
 62
         7
100
AcDbCircle
 10
1526.0286999334
 20
112.2524144385
 30
0.0
 40
12.85
100
AcDbArc
 50
270.0
 51
450.0
  0
LINE
  5
3AE
100
AcDbEntity
  8
_Y__________
  6
CONTINUOUS
 62
         7
100
AcDbLine
 10
1535.5527878432
 20
102.1968562996
 30
0.0
 11
1535.5527878432
 21
62.1774144385
 31
0.0
  0
LINE
  5
3AF
100
AcDbEntity
  8
_Y__________
  6
CONTINUOUS
 62
         7
100
AcDbLine
 10
1531.5786999334
 20
100.662763883
 30
0.0
 11
1531.5786999334
 21
68.9857366121
 31
0.0
  0
LINE
  5
3B0
100
AcDbEntity
  8
_Y__________
  6
CONTINUOUS
 62
         7
100
AcDbLine
 10
1524.5786999334
 20
99.4024144385
 30
0.0
 11
1524.5786999334
 21
68.9857366121
 31
0.0
  0
LINE
  5
3B1
100
AcDbEntity
  8
_Y__________
  6
CONTINUOUS
 62
         7
100
AcDbLine
 10
1520.6046120236
 20
98.4024144385
 30
0.0
 11
1520.6046120236
 21
62.1774144385
 31
0.0
  0
LINE
  5
3B2
100
AcDbEntity
  8
_Y__________
  6
CONTINUOUS
 62
         7
100
AcDbLine
 10
1535.5527878432
 20
162.3274144385
 30
0.0
 11
1535.5527878432
 21
122.3079725775
 31
0.0
  0
LINE
  5
3B3
100
AcDbEntity
  8
_Y__________
  6
CONTINUOUS
 62
         7
100
AcDbLine
 10
1531.5786999334
 20
155.519092265
 30
0.0
 11
1531.5786999334
 21
123.8420649941
 31
0.0
  0
LINE
  5
3B4
100
AcDbEntity
  8
_Y__________
  6
CONTINUOUS
 62
         7
100
AcDbLine
 10
1524.5786999334
 20
155.519092265
 30
0.0
 11
1524.5786999334
 21
125.1024144385
 31
0.0
  0
LINE
  5
3B5
100
AcDbEntity
  8
_Y__________
  6
CONTINUOUS
 62
         7
100
AcDbLine
 10
1520.6046120236
 20
162.3274144385
 30
0.0
 11
1520.6046120236
 21
126.1024144385
 31
0.0
  0
LINE
  5
3B6
100
AcDbEntity
  8
_Y__________
  6
CONTINUOUS
 62
         7
100
AcDbLine
 10
1275.3233403763
 20
124.3024144385
 30
0.0
 11
1275.3233403763
 21
100.2024144385
 31
0.0
  0
LINE
  5
3B7
100
AcDbEntity
  8
_Y__________
  6
CONTINUOUS
 62
         7
100
AcDbLine
 10
1288.2439105302
 20
99.4024144385
 30
0.0
 11
1276.1233403763
 21
99.4024144385
 31
0.0
  0
LINE
  5
3B8
100
AcDbEntity
  8
_Y__________
  6
CONTINUOUS
 62
         7
100
AcDbLine
 10
1288.2439105302
 20
125.1024144385
 30
0.0
 11
1276.1233403763
 21
125.1024144385
 31
0.0
  0
ARC
  5
3B9
100
AcDbEntity
  8
_Y__________
  6
CONTINUOUS
 62
         5
100
AcDbCircle
 10
1239.9233403763
 20
112.2524144385
 30
0.0
 40
12.0
100
AcDbArc
 50
254.3467118715
 51
525.9849549731
  0
CIRCLE
  5
3BA
100
AcDbEntity
  8
_Y__________
  6
CONTINUOUS
 62
         7
100
AcDbCircle
 10
1239.9233403763
 20
112.2524144385
 30
0.0
 40
10.5
  0
CIRCLE
  5
3BB
100
AcDbEntity
  8
_Y__________
  6
CONTINUOUS
 62
         7
100
AcDbCircle
 10
1239.9233403763
 20
112.2524144385
 30
0.0
 40
13.5
  0
CIRCLE
  5
3BC
100
AcDbEntity
  8
_Y__________
  6
CONTINUOUS
 62
         7
100
AcDbCircle
 10
1239.9233403763
 20
112.2524144385
 30
0.0
 40
12.5
  0
LINE
  5
3BD
100
AcDbEntity
  8
_Y__________
  6
CONTINUOUS
 62
         7
100
AcDbLine
 10
1204.5233403763
 20
124.3024144385
 30
0.0
 11
1204.5233403763
 21
100.2024144385
 31
0.0
  0
LINE
  5
3BE
100
AcDbEntity
  8
_Y__________
  6
CONTINUOUS
 62
         7
100
AcDbLine
 10
1191.6027702223
 20
99.4024144385
 30
0.0
 11
1203.7233403763
 21
99.4024144385
 31
0.0
  0
LINE
  5
3BF
100
AcDbEntity
  8
_Y__________
  6
CONTINUOUS
 62
         7
100
AcDbLine
 10
1191.6027702223
 20
125.1024144385
 30
0.0
 11
1203.7233403763
 21
125.1024144385
 31
0.0
  0
CIRCLE
  5
3C0
100
AcDbEntity
  8
_Y__________
  6
CONTINUOUS
 62
         7
100
AcDbCircle
 10
1239.9233403763
 20
112.2524144385
 30
0.0
 40
20.0792482659
  0
LINE
  5
3C1
100
AcDbEntity
  8
_Y__________
  6
CENTER
 62
         1
100
AcDbLine
 10
1294.9233403763
 20
112.2524144385
 30
0.0
 11
1184.9233403763
 21
112.2524144385
 31
0.0
  0
LINE
  5
3C2
100
AcDbEntity
  8
_Y__________
  6
CENTER
 62
         1
100
AcDbLine
 10
1239.9233403763
 20
167.2524144385
 30
0.0
 11
1239.9233403763
 21
57.2524144385
 31
0.0
  0
CIRCLE
  5
3C3
100
AcDbEntity
  8
_Y__________
  6
CONTINUOUS
 62
         7
100
AcDbCircle
 10
1239.9233403763
 20
112.2524144385
 30
0.0
 40
50.0
  0
CIRCLE
  5
3C4
100
AcDbEntity
  8
_Y__________
  6
CONTINUOUS
 62
         7
100
AcDbCircle
 10
1239.9233403763
 20
112.2524144385
 30
0.0
 40
34.9979162659
  0
LINE
  5
3C5
100
AcDbEntity
  8
_Y__________
  6
CONTINUOUS
 62
         7
100
AcDbLine
 10
1203.7233403763
 20
125.1024144385
 30
0.0
 11
1204.5233403763
 21
124.3024144385
 31
0.0
  0
LINE
  5
3C6
100
AcDbEntity
  8
_Y__________
  6
CONTINUOUS
 62
         7
100
AcDbLine
 10
1204.5233403763
 20
100.2024144385
 30
0.0
 11
1203.7233403763
 21
99.4024144385
 31
0.0
  0
LINE
  5
3C7
100
AcDbEntity
  8
_Y__________
  6
CONTINUOUS
 62
         7
100
AcDbLine
 10
1276.1233403763
 20
125.1024144385
 30
0.0
 11
1275.3233403763
 21
124.3024144385
 31
0.0
  0
LINE
  5
3C8
100
AcDbEntity
  8
_Y__________
  6
CONTINUOUS
 62
         7
100
AcDbLine
 10
1275.3233403763
 20
100.2024144385
 30
0.0
 11
1276.1233403763
 21
99.4024144385
 31
0.0
  0
LINE
  5
3C9
100
AcDbEntity
  8
_Y__________
  6
CENTER
 62
         1
100
AcDbLine
 10
1900.8340594905
 20
112.2524144385
 30
0.0
 11
1790.8340594905
 21
112.2524144385
 31
0.0
  0
LINE
  5
3CA
100
AcDbEntity
  8
_Y__________
  6
CENTER
 62
         1
100
AcDbLine
 10
1845.8340594905
 20
167.2524144385
 30
0.0
 11
1845.8340594905
 21
57.2524144385
 31
0.0
  0
CIRCLE
  5
3CB
100
AcDbEntity
  8
_Y__________
  6
CONTINUOUS
 62
         7
100
AcDbCircle
 10
1845.8340594905
 20
112.2524144385
 30
0.0
 40
50.0
  0
ARC
  5
3CC
100
AcDbEntity
  8
_Y__________
  6
DASHED
 62
         2
100
AcDbCircle
 10
1845.8340594905
 20
112.2524144385
 30
0.0
 40
42.5
100
AcDbArc
 50
17.5989811731
 51
162.4010188269
  0
ARC
  5
3CD
100
AcDbEntity
  8
_Y__________
  6
DASHED
 62
         2
100
AcDbCircle
 10
1845.8340594905
 20
112.2524144385
 30
0.0
 40
42.5
100
AcDbArc
 50
197.5989811731
 51
342.4010188269
  0
LINE
  5
3CE
100
AcDbEntity
  8
_Y__________
  6
DASHED
 62
         2
100
AcDbLine
 10
1798.5489931376
 20
125.1024144385
 30
0.0
 11
1809.6340594905
 21
125.1024144385
 31
0.0
  0
LINE
  5
3CF
100
AcDbEntity
  8
_Y__________
  6
DASHED
 62
         2
100
AcDbLine
 10
1798.5489931376
 20
125.1024144385
 30
0.0
 11
1797.7905635728
 21
126.1024144385
 31
0.0
  0
LINE
  5
3D0
100
AcDbEntity
  8
_Y__________
  6
DASHED
 62
         2
100
AcDbLine
 10
1798.5489931376
 20
99.4024144385
 30
0.0
 11
1809.6340594905
 21
99.4024144385
 31
0.0
  0
LINE
  5
3D1
100
AcDbEntity
  8
_Y__________
  6
DASHED
 62
         2
100
AcDbLine
 10
1798.5489931376
 20
99.4024144385
 30
0.0
 11
1797.7905635728
 21
98.4024144385
 31
0.0
  0
LINE
  5
3D2
100
AcDbEntity
  8
_Y__________
  6
DASHED
 62
         2
100
AcDbLine
 10
1810.4340594905
 20
124.3024144385
 30
0.0
 11
1810.4340594905
 21
100.2024144385
 31
0.0
  0
LINE
  5
3D3
100
AcDbEntity
  8
_Y__________
  6
DASHED
 62
         2
100
AcDbLine
 10
1893.1191258435
 20
125.1024144385
 30
0.0
 11
1882.0340594905
 21
125.1024144385
 31
0.0
  0
LINE
  5
3D4
100
AcDbEntity
  8
_Y__________
  6
DASHED
 62
         2
100
AcDbLine
 10
1893.1191258435
 20
125.1024144385
 30
0.0
 11
1893.8775554083
 21
126.1024144385
 31
0.0
  0
LINE
  5
3D5
100
AcDbEntity
  8
_Y__________
  6
DASHED
 62
         2
100
AcDbLine
 10
1893.1191258435
 20
99.4024144385
 30
0.0
 11
1882.0340594905
 21
99.4024144385
 31
0.0
  0
LINE
  5
3D6
100
AcDbEntity
  8
_Y__________
  6
DASHED
 62
         2
100
AcDbLine
 10
1893.1191258435
 20
99.4024144385
 30
0.0
 11
1893.8775554083
 21
98.4024144385
 31
0.0
  0
LINE
  5
3D7
100
AcDbEntity
  8
_Y__________
  6
DASHED
 62
         2
100
AcDbLine
 10
1881.2340594905
 20
124.3024144385
 30
0.0
 11
1881.2340594905
 21
100.2024144385
 31
0.0
  0
LINE
  5
3D8
100
AcDbEntity
  8
_Y__________
  6
CONTINUOUS
 62
         2
100
AcDbLine
 10
1882.0340594905
 20
99.4024144385
 30
0.0
 11
1881.2340594905
 21
100.2024144385
 31
0.0
  0
LINE
  5
3D9
100
AcDbEntity
  8
_Y__________
  6
DASHED
 62
         2
100
AcDbLine
 10
1881.2340594905
 20
124.3024144385
 30
0.0
 11
1882.0340594905
 21
125.1024144385
 31
0.0
  0
LINE
  5
3DA
100
AcDbEntity
  8
_Y__________
  6
DASHED
 62
         2
100
AcDbLine
 10
1810.4340594905
 20
124.3024144385
 30
0.0
 11
1809.6340594905
 21
125.1024144385
 31
0.0
  0
LINE
  5
3DB
100
AcDbEntity
  8
_Y__________
  6
DASHED
 62
         2
100
AcDbLine
 10
1810.4340594905
 20
100.2024144385
 30
0.0
 11
1809.6340594905
 21
99.4024144385
 31
0.0
  0
LINE
  5
3DC
100
AcDbEntity
  8
_Y__________
  6
CONTINUOUS
 62
         7
100
AcDbLine
 10
1507.8386999334
 20
161.3274144385
 30
0.0
 11
1507.8386999334
 21
160.3274144385
 31
0.0
  0
ARC
  5
3DD
100
AcDbEntity
  8
_Y__________
  6
CONTINUOUS
 62
         7
100
AcDbCircle
 10
1508.8386999334
 20
161.3274144385
 30
0.0
 40
1.0
100
AcDbArc
 50
90.0
 51
180.0
  0
LINE
  5
3DE
100
AcDbEntity
  8
_Y__________
  6
CONTINUOUS
 62
         7
100
AcDbLine
 10
1508.8386999334
 20
162.3274144385
 30
0.0
 11
1509.8386999334
 21
162.3274144385
 31
0.0
  0
LINE
  5
3DF
100
AcDbEntity
  8
_Y__________
  6
CONTINUOUS
 62
         7
100
AcDbLine
 10
1540.8786999334
 20
162.3274144385
 30
0.0
 11
1541.8786999334
 21
162.3274144385
 31
0.0
  0
ARC
  5
3E0
100
AcDbEntity
  8
_Y__________
  6
CONTINUOUS
 62
         7
100
AcDbCircle
 10
1541.8786999334
 20
161.3274144385
 30
0.0
 40
1.0
100
AcDbArc
 50
0.0
 51
90.0
  0
LINE
  5
3E1
100
AcDbEntity
  8
_Y__________
  6
CONTINUOUS
 62
         7
100
AcDbLine
 10
1542.8786999334
 20
161.3274144385
 30
0.0
 11
1542.8786999334
 21
160.3274144385
 31
0.0
  0
ARC
  5
3E2
100
AcDbEntity
  8
_Y__________
  6
CONTINUOUS
 62
         7
100
AcDbCircle
 10
1541.8786999334
 20
63.1774144385
 30
0.0
 40
1.0
100
AcDbArc
 50
270.0
 51
360.0
  0
LINE
  5
3E3
100
AcDbEntity
  8
_Y__________
  6
CONTINUOUS
 62
         7
100
AcDbLine
 10
1540.8786999334
 20
62.1774144385
 30
0.0
 11
1541.8786999334
 21
62.1774144385
 31
0.0
  0
LINE
  5
3E4
100
AcDbEntity
  8
_Y__________
  6
CONTINUOUS
 62
         7
100
AcDbLine
 10
1508.8386999334
 20
62.1774144385
 30
0.0
 11
1509.8386999334
 21
62.1774144385
 31
0.0
  0
ARC
  5
3E5
100
AcDbEntity
  8
_Y__________
  6
CONTINUOUS
 62
         7
100
AcDbCircle
 10
1508.8386999334
 20
63.1774144385
 30
0.0
 40
1.0
100
AcDbArc
 50
180.0
 51
270.0
  0
LINE
  5
3E6
100
AcDbEntity
  8
_Y__________
  6
CONTINUOUS
 62
         7
100
AcDbLine
 10
1542.8786999334
 20
64.1774144385
 30
0.0
 11
1542.8786999334
 21
63.1774144385
 31
0.0
  0
LINE
  5
3E7
100
AcDbEntity
  8
_Y__________
  6
CONTINUOUS
 62
         7
100
AcDbLine
 10
1507.8386999334
 20
64.1774144385
 30
0.0
 11
1507.8386999334
 21
63.1774144385
 31
0.0
  0
LINE
  5
3E8
100
AcDbEntity
  8
_Y__________
  6
CONTINUOUS
 62
         7
100
AcDbLine
 10
1540.8786999334
 20
-76.7400166132
 30
0.0
 11
1541.8786999334
 21
-76.7400166132
 31
0.0
  0
ARC
  5
3E9
100
AcDbEntity
  8
_Y__________
  6
CONTINUOUS
 62
         7
100
AcDbCircle
 10
1541.8786999334
 20
-77.7400166132
 30
0.0
 40
1.0
100
AcDbArc
 50
0.0
 51
90.0
  0
LINE
  5
3EA
100
AcDbEntity
  8
_Y__________
  6
CONTINUOUS
 62
         7
100
AcDbLine
 10
1542.8786999334
 20
-77.7400166132
 30
0.0
 11
1542.8786999334
 21
-90.2400166132
 31
0.0
  0
LINE
  5
3EB
100
AcDbEntity
  8
_Y__________
  6
CONTINUOUS
 62
         7
100
AcDbLine
 10
1507.8786999334
 20
-77.7400166132
 30
0.0
 11
1507.8786999334
 21
-78.7400166132
 31
0.0
  0
ARC
  5
3EC
100
AcDbEntity
  8
_Y__________
  6
CONTINUOUS
 62
         7
100
AcDbCircle
 10
1508.8786999334
 20
-77.7400166132
 30
0.0
 40
1.0
100
AcDbArc
 50
90.0
 51
180.0
  0
LINE
  5
3ED
100
AcDbEntity
  8
_Y__________
  6
CONTINUOUS
 62
         7
100
AcDbLine
 10
1508.8786999334
 20
-76.7400166132
 30
0.0
 11
1509.8786999334
 21
-76.7400166132
 31
0.0
  0
ARC
  5
3EE
100
AcDbEntity
  8
_Y__________
  6
CONTINUOUS
 62
         7
100
AcDbCircle
 10
1541.8786999334
 20
-175.7400166132
 30
0.0
 40
1.0
100
AcDbArc
 50
270.0
 51
360.0
  0
LINE
  5
3EF
100
AcDbEntity
  8
_Y__________
  6
CONTINUOUS
 62
         7
100
AcDbLine
 10
1540.8786999334
 20
-176.7400166132
 30
0.0
 11
1541.8786999334
 21
-176.7400166132
 31
0.0
  0
LINE
  5
3F0
100
AcDbEntity
  8
_Y__________
  6
CONTINUOUS
 62
         7
100
AcDbLine
 10
1542.8786999334
 20
-163.2400166132
 30
0.0
 11
1542.8786999334
 21
-175.7400166132
 31
0.0
  0
LINE
  5
3F1
100
AcDbEntity
  8
_Y__________
  6
CONTINUOUS
 62
         7
100
AcDbLine
 10
1508.8786999334
 20
-176.7400166132
 30
0.0
 11
1509.8786999334
 21
-176.7400166132
 31
0.0
  0
ARC
  5
3F2
100
AcDbEntity
  8
_Y__________
  6
CONTINUOUS
 62
         7
100
AcDbCircle
 10
1508.8786999334
 20
-175.7400166132
 30
0.0
 40
1.0
100
AcDbArc
 50
180.0
 51
270.0
  0
LINE
  5
3F3
100
AcDbEntity
  8
_Y__________
  6
CONTINUOUS
 62
         7
100
AcDbLine
 10
1507.8786999334
 20
-174.7400166132
 30
0.0
 11
1507.8786999334
 21
-175.7400166132
 31
0.0
  0
LINE
  5
3F4
100
AcDbEntity
  8
_X______
  6
CONTINUOUS
 62
         7
100
AcDbLine
 10
1458.0786999334
 20
-137.2400166132
 30
0.0
 11
1464.1408777599
 21
-126.7400166132
 31
0.0
  0
LINE
  5
3F5
100
AcDbEntity
  8
_X______
  6
CONTINUOUS
 62
         7
100
AcDbLine
 10
1458.0786999334
 20
-116.2400166132
 30
0.0
 11
1464.1408777599
 21
-126.7400166132
 31
0.0
  0
LINE
  5
3F6
100
AcDbEntity
  8
_X______
  6
CONTINUOUS
 62
         7
100
AcDbLine
 10
1458.0786999334
 20
-137.2400166132
 30
0.0
 11
1416.0786999334
 21
-137.2400166132
 31
0.0
  0
LINE
  5
3F7
100
AcDbEntity
  8
_X______
  6
CONTINUOUS
 62
         7
100
AcDbLine
 10
1458.0786999334
 20
-116.2400166132
 30
0.0
 11
1416.0786999334
 21
-116.2400166132
 31
0.0
  0
LINE
  5
3F8
100
AcDbEntity
  8
_X______
  6
CONTINUOUS
 62
         7
100
AcDbLine
 10
1458.0786999334
 20
-116.2400166132
 30
0.0
 11
1458.0786999334
 21
-137.2400166132
 31
0.0
  0
DIMENSION
  5
3FC
100
AcDbEntity
  8
L1_
  6
CONTINUOUS
 62
         4
100
AcDbDimension
  2
*D16
 10
1643.9186999334
 20
205.6330449579
 30
0.0
 11
1565.4730013575
 21
208.2580449579
 31
0.0
  3
DIMSTYLE2
100
AcDbAlignedDimension
 13
1643.9186999334
 23
112.2524144385
 33
0.0
 14
1504.8786999334
 24
147.2532077601
 34
0.0
100
AcDbRotatedDimension
  0
DIMENSION
  5
40A
100
AcDbEntity
  8
L1_
  6
CONTINUOUS
 62
         4
100
AcDbDimension
  2
*D17
 10
1403.0836999334
 20
214.6010624245
 30
0.0
 11
1512.5056481954
 21
217.2260624245
 31
0.0
  3
DIMSTYLE2
100
AcDbAlignedDimension
 13
1403.0836999334
 23
131.5419817744
 33
0.0
 14
1643.9186999334
 24
112.2524144385
 34
0.0
100
AcDbRotatedDimension
  0
LINE
  5
416
100
AcDbEntity
  8
L1_
  6
CONTINUOUS
 62
         7
100
AcDbLine
 10
1507.8386999334
 20
161.3274144385
 30
0.0
 11
1507.8386999334
 21
63.1774144385
 31
0.0
  0
LINE
  5
417
100
AcDbEntity
  8
L1_
  6
CENTER
 62
         1
100
AcDbLine
 10
1504.8786999334
 20
147.2532077601
 30
0.0
 11
1504.8786999334
 21
77.251621117
 31
0.0
  0
LINE
  5
418
100
AcDbEntity
  8
L1_
  6
CONTINUOUS
 62
         7
100
AcDbLine
 10
1403.0836999334
 20
131.5419817744
 30
0.0
 11
1403.0836999334
 21
92.9628471027
 31
0.0
  0
LINE
  5
419
100
AcDbEntity
  8
L1_
  6
CENTER
 62
         1
100
AcDbLine
 10
1643.9186999334
 20
112.2524144385
 30
0.0
 11
1542.8786999334
 21
112.2524144385
 31
0.0
  0
LINE
  5
41A
100
AcDbEntity
  8
L1_
  6
CONTINUOUS
 62
         4
100
AcDbLine
 10
1595.4186999334
 20
83.2524144385
 30
0.0
 11
1595.4186999334
 21
141.2524144385
 31
0.0
  0
ARC
  5
41B
100
AcDbEntity
  8
L1_
  6
CONTINUOUS
 62
         7
100
AcDbCircle
 10
1593.2186999334
 20
83.0524144385
 30
0.0
 40
0.4
100
AcDbArc
 50
90.0
 51
178.4890283439
  0
LINE
  5
41C
100
AcDbEntity
  8
L1_
  6
CONTINUOUS
 62
         7
100
AcDbLine
 10
1592.8188390158
 20
83.062961788
 30
0.0
 11
1592.9186999334
 21
82.3524144385
 31
0.0
  0
LINE
  5
41D
100
AcDbEntity
  8
L1_
  6
CONTINUOUS
 62
         7
100
AcDbLine
 10
1596.0551916065
 20
83.2524144385
 30
0.0
 11
1595.4186999334
 21
83.2524144385
 31
0.0
  0
ARC
  5
41E
100
AcDbEntity
  8
L1_
  6
CONTINUOUS
 62
         7
100
AcDbCircle
 10
1594.6196287728
 20
83.0524144385
 30
0.0
 40
0.4
100
AcDbArc
 50
75.0
 51
90.0
  0
LINE
  5
41F
100
AcDbEntity
  8
L1_
  6
CONTINUOUS
 62
         7
100
AcDbLine
 10
1594.7231563909
 20
83.4387847691
 30
0.0
 11
1595.4186999334
 21
83.2524144385
 31
0.0
  0
LINE
  5
420
100
AcDbEntity
  8
L1_
  6
CONTINUOUS
 62
         7
100
AcDbLine
 10
1594.6196287728
 20
83.4524144385
 30
0.0
 11
1593.2186999334
 21
83.4524144385
 31
0.0
  0
ARC
  5
421
100
AcDbEntity
  8
L1_
  6
CONTINUOUS
 62
         7
100
AcDbCircle
 10
1593.2186999334
 20
141.4524144385
 30
0.0
 40
0.4
100
AcDbArc
 50
181.5109716561
 51
270.0
  0
LINE
  5
422
100
AcDbEntity
  8
L1_
  6
CONTINUOUS
 62
         7
100
AcDbLine
 10
1592.8188390158
 20
141.4418670891
 30
0.0
 11
1592.9186999334
 21
142.1524144385
 31
0.0
  0
LINE
  5
423
100
AcDbEntity
  8
L1_
  6
CONTINUOUS
 62
         7
100
AcDbLine
 10
1596.0551916065
 20
141.2524144385
 30
0.0
 11
1595.4186999334
 21
141.2524144385
 31
0.0
  0
ARC
  5
424
100
AcDbEntity
  8
L1_
  6
CONTINUOUS
 62
         7
100
AcDbCircle
 10
1594.6196287728
 20
141.4524144385
 30
0.0
 40
0.4
100
AcDbArc
 50
270.0
 51
285.0
  0
LINE
  5
425
100
AcDbEntity
  8
L1_
  6
CONTINUOUS
 62
         7
100
AcDbLine
 10
1594.7231563909
 20
141.066044108
 30
0.0
 11
1595.4186999334
 21
141.2524144385
 31
0.0
  0
LINE
  5
426
100
AcDbEntity
  8
L1_
  6
CONTINUOUS
 62
         7
100
AcDbLine
 10
1594.6196287728
 20
141.0524144385
 30
0.0
 11
1593.2186999334
 21
141.0524144385
 31
0.0
  0
LINE
  5
427
100
AcDbEntity
  8
L1_
  6
CONTINUOUS
 62
         7
100
AcDbLine
 10
1632.9186999334
 20
141.1524144385
 30
0.0
 11
1632.9186999334
 21
83.3524144385
 31
0.0
  0
LINE
  5
428
100
AcDbEntity
  8
L1_
  6
CONTINUOUS
 62
         7
100
AcDbLine
 10
1634.9186999334
 20
84.2524144385
 30
0.0
 11
1632.9186999334
 21
84.2524144385
 31
0.0
  0
LINE
  5
429
100
AcDbEntity
  8
L1_
  6
CONTINUOUS
 62
         7
100
AcDbLine
 10
1634.9186999334
 20
141.1524144385
 30
0.0
 11
1634.9186999334
 21
83.3524144385
 31
0.0
  0
LINE
  5
42A
100
AcDbEntity
  8
L1_
  6
CONTINUOUS
 62
         7
100
AcDbLine
 10
1638.0573187269
 20
83.2524144385
 30
0.0
 11
1635.0186999334
 21
83.2524144385
 31
0.0
  0
LINE
  5
42B
100
AcDbEntity
  8
L1_
  6
CONTINUOUS
 62
         7
100
AcDbLine
 10
1632.8186999334
 20
83.2524144385
 30
0.0
 11
1595.4186999334
 21
83.2524144385
 31
0.0
  0
LINE
  5
42C
100
AcDbEntity
  8
L1_
  6
CONTINUOUS
 62
         7
100
AcDbLine
 10
1638.0573187269
 20
141.2524144385
 30
0.0
 11
1635.0186999334
 21
141.2524144385
 31
0.0
  0
LINE
  5
42D
100
AcDbEntity
  8
L1_
  6
CONTINUOUS
 62
         7
100
AcDbLine
 10
1634.9186999334
 20
140.2524144385
 30
0.0
 11
1632.9186999334
 21
140.2524144385
 31
0.0
  0
LINE
  5
42E
100
AcDbEntity
  8
L1_
  6
CONTINUOUS
 62
         7
100
AcDbLine
 10
1632.8186999334
 20
141.2524144385
 30
0.0
 11
1595.4186999334
 21
141.2524144385
 31
0.0
  0
LINE
  5
42F
100
AcDbEntity
  8
L1_
  6
CONTINUOUS
 62
         7
100
AcDbLine
 10
1643.9186999334
 20
86.2870684145
 30
0.0
 11
1643.9186999334
 21
138.2177604626
 31
0.0
  0
LINE
  5
430
100
AcDbEntity
  8
L1_
  6
CONTINUOUS
 62
         7
100
AcDbLine
 10
1592.9186999334
 20
81.2524144385
 30
0.0
 11
1592.9186999334
 21
82.3524144385
 31
0.0
  0
LINE
  5
431
100
AcDbEntity
  8
L1_
  6
CONTINUOUS
 62
         7
100
AcDbLine
 10
1592.4186999334
 20
143.7524144385
 30
0.0
 11
1547.8786999334
 21
143.7524144385
 31
0.0
  0
LINE
  5
432
100
AcDbEntity
  8
L1_
  6
CONTINUOUS
 62
         7
100
AcDbLine
 10
1592.4186999334
 20
80.7524144385
 30
0.0
 11
1547.8786999334
 21
80.7524144385
 31
0.0
  0
DIMENSION
  5
435
100
AcDbEntity
  8
L1_
  6
CONTINUOUS
 62
         4
100
AcDbDimension
  2
*D18
 10
1690.1373551314
 20
143.7524144385
 30
0.0
 11
1686.0773551314
 21
105.2176470922
 31
0.0
  3
DIMSTYLE2
100
AcDbAlignedDimension
 13
1591.9186999334
 23
143.7524144385
 33
0.0
 14
1591.9186999334
 24
80.7524144385
 34
0.0
 50
90.0
100
AcDbRotatedDimension
  0
LINE
  5
441
100
AcDbEntity
  8
L1_
  6
CENTER
 62
         1
100
AcDbLine
 10
1622.9136999334
 20
104.4176846612
 30
0.0
 11
1622.9136999334
 21
120.1270266021
 31
0.0
  0
LINE
  5
442
100
AcDbEntity
  8
L1_
  6
CENTER
 62
         1
100
AcDbLine
 10
1604.8236999334
 20
104.4176846581
 30
0.0
 11
1604.8236999334
 21
120.127026599
 31
0.0
  0
ARC
  5
443
100
AcDbEntity
  8
L1_
  6
CONTINUOUS
 62
         7
100
AcDbCircle
 10
1592.4186999334
 20
143.2524144385
 30
0.0
 40
0.5
100
AcDbArc
 50
0.0
 51
90.0
  0
ARC
  5
444
100
AcDbEntity
  8
L1_
  6
CONTINUOUS
 62
         7
100
AcDbCircle
 10
1592.4186999334
 20
81.2524144385
 30
0.0
 40
0.5
100
AcDbArc
 50
270.0
 51
360.0
  0
LINE
  5
445
100
AcDbEntity
  8
L1_
  6
CONTINUOUS
 62
         7
100
AcDbLine
 10
1592.9186999334
 20
142.1524144385
 30
0.0
 11
1592.9186999334
 21
143.2524144385
 31
0.0
  0
LINE
  5
446
100
AcDbEntity
  8
L1_
  6
CONTINUOUS
 62
         7
100
AcDbLine
 10
1592.9186999334
 20
83.3169895697
 30
0.0
 11
1592.9186999334
 21
141.1878393074
 31
0.0
  0
LINE
  5
447
100
AcDbEntity
  8
L1_
  6
CONTINUOUS
 62
         4
100
AcDbLine
 10
1592.4186999334
 20
143.7524144385
 30
0.0
 11
1592.4186999334
 21
80.7524144385
 31
0.0
  0
LINE
  5
448
100
AcDbEntity
  8
L1_
  6
CONTINUOUS
 62
         7
100
AcDbLine
 10
1634.9186999334
 20
141.1524144385
 30
0.0
 11
1635.0186999334
 21
141.2524144385
 31
0.0
  0
LINE
  5
449
100
AcDbEntity
  8
L1_
  6
CONTINUOUS
 62
         7
100
AcDbLine
 10
1632.8186999334
 20
141.2524144385
 30
0.0
 11
1632.9186999334
 21
141.1524144385
 31
0.0
  0
LINE
  5
44A
100
AcDbEntity
  8
L1_
  6
CONTINUOUS
 62
         7
100
AcDbLine
 10
1632.9186999334
 20
83.3524144385
 30
0.0
 11
1632.8186999334
 21
83.2524144385
 31
0.0
  0
LINE
  5
44B
100
AcDbEntity
  8
L1_
  6
CONTINUOUS
 62
         7
100
AcDbLine
 10
1634.9186999334
 20
83.3524144385
 30
0.0
 11
1635.0186999334
 21
83.2524144385
 31
0.0
  0
DIMENSION
  5
44E
100
AcDbEntity
  8
L1_
  6
CONTINUOUS
 62
         4
100
AcDbDimension
  2
*D19
 10
1660.1596208409
 20
139.7524144385
 30
0.0
 11
1657.5346208409
 21
105.2363051293
 31
0.0
  3
DIMSTYLE2
100
AcDbAlignedDimension
 13
1643.9186999334
 23
139.7524144385
 33
0.0
 14
1643.9186999334
 24
84.7524144385
 34
0.0
 50
90.0
100
AcDbRotatedDimension
  0
LINE
  5
45A
100
AcDbEntity
  8
L1_
  6
CONTINUOUS
 62
         7
100
AcDbLine
 10
1642.4363380236
 20
140.1496121152
 30
0.0
 11
1638.5749568171
 21
141.1842660911
 31
0.0
  0
ARC
  5
45B
100
AcDbEntity
  8
L1_
  6
CONTINUOUS
 62
         7
100
AcDbCircle
 10
1641.9186999334
 20
138.2177604626
 30
0.0
 40
2.0
100
AcDbArc
 50
0.0
 51
75.0
  0
ARC
  5
45C
100
AcDbEntity
  8
L1_
  6
CONTINUOUS
 62
         7
100
AcDbCircle
 10
1638.0573187269
 20
139.2524144385
 30
0.0
 40
2.0
100
AcDbArc
 50
75.0
 51
90.0
  0
ARC
  5
45D
100
AcDbEntity
  8
L1_
  6
CONTINUOUS
 62
         7
100
AcDbCircle
 10
1641.9186999334
 20
86.2870684145
 30
0.0
 40
2.0
100
AcDbArc
 50
285.0
 51
360.0
  0
ARC
  5
45E
100
AcDbEntity
  8
L1_
  6
CONTINUOUS
 62
         7
100
AcDbCircle
 10
1638.0573187269
 20
85.2524144385
 30
0.0
 40
2.0
100
AcDbArc
 50
270.0
 51
285.0
  0
LINE
  5
45F
100
AcDbEntity
  8
L1_
  6
CONTINUOUS
 62
         7
100
AcDbLine
 10
1642.4363380236
 20
84.3552167619
 30
0.0
 11
1638.5749568171
 21
83.320562786
 31
0.0
  0
LINE
  5
460
100
AcDbEntity
  8
L1_
  6
CONTINUOUS
 62
         4
100
AcDbLine
 10
1638.320623722
 20
83.2698225795
 30
0.0
 11
1638.320623722
 21
141.2350062976
 31
0.0
  0
LINE
  5
461
100
AcDbEntity
  8
L1_
  6
CONTINUOUS
 62
         7
100
AcDbLine
 10
1622.9136999334
 20
117.2024144385
 30
0.0
 11
1604.8236999334
 21
117.2024144385
 31
0.0
  0
LINE
  5
462
100
AcDbEntity
  8
L1_
  6
CONTINUOUS
 62
         7
100
AcDbLine
 10
1622.9136999334
 20
107.3024144385
 30
0.0
 11
1604.8236999334
 21
107.3024144385
 31
0.0
  0
ARC
  5
463
100
AcDbEntity
  8
L1_
  6
CONTINUOUS
 62
         7
100
AcDbCircle
 10
1604.8236999334
 20
112.2524144385
 30
0.0
 40
4.95
100
AcDbArc
 50
90.0
 51
270.0
  0
ARC
  5
464
100
AcDbEntity
  8
L1_
  6
CONTINUOUS
 62
         7
100
AcDbCircle
 10
1622.9136999334
 20
112.2524144385
 30
0.0
 40
4.95
100
AcDbArc
 50
270.0
 51
450.0
  0
LINE
  5
465
100
AcDbEntity
  8
L1_
  6
CENTER
 62
         1
100
AcDbLine
 10
1845.8340594905
 20
112.2524144385
 30
0.0
 11
1861.5840594905
 21
139.5322146578
 31
0.0
  0
LINE
  5
466
100
AcDbEntity
  8
L1_
  6
CENTER
 62
         1
100
AcDbLine
 10
1845.8340594905
 20
112.2524144385
 30
0.0
 11
1861.5840594905
 21
84.9726142193
 31
0.0
  0
CIRCLE
  5
467
100
AcDbEntity
  8
L1_
  6
DASHED
 62
         2
100
AcDbCircle
 10
1845.8340594905
 20
112.2524144385
 30
0.0
 40
24.5
  0
CIRCLE
  5
468
100
AcDbEntity
  8
L1_
  6
CONTINUOUS
 62
         7
100
AcDbCircle
 10
1845.8340594905
 20
112.2524144385
 30
0.0
 40
24.0
  0
CIRCLE
  5
469
100
AcDbEntity
  8
L1_
  6
DASHED
 62
         2
100
AcDbCircle
 10
1845.8340594905
 20
112.2524144385
 30
0.0
 40
18.0
  0
CIRCLE
  5
46A
100
AcDbEntity
  8
L1_
  6
CONTINUOUS
 62
         7
100
AcDbCircle
 10
1845.8340594905
 20
112.2524144385
 30
0.0
 40
17.5
  0
ARC
  5
46B
100
AcDbEntity
  8
L1_
  6
CONTINUOUS
 62
         4
100
AcDbCircle
 10
1845.8340594905
 20
112.2524144385
 30
0.0
 40
3.0
100
AcDbArc
 50
270.0
 51
540.0
  0
CIRCLE
  5
46C
100
AcDbEntity
  8
L1_
  6
CONTINUOUS
 62
         7
100
AcDbCircle
 10
1845.8340594905
 20
112.2524144385
 30
0.0
 40
2.0
  0
CIRCLE
  5
46D
100
AcDbEntity
  8
L1_
  6
CONTINUOUS
 62
         7
100
AcDbCircle
 10
1845.8340594905
 20
112.2524144385
 30
0.0
 40
27.5
  0
LINE
  5
46E
100
AcDbEntity
  8
L1_
  6
CENTER
 62
         1
100
AcDbLine
 10
1845.8340594905
 20
80.7524144385
 30
0.0
 11
1845.8340594905
 21
143.7524144385
 31
0.0
  0
LINE
  5
46F
100
AcDbEntity
  8
L1_
  6
CENTER
 62
         1
100
AcDbLine
 10
1877.3340594905
 20
112.2524144385
 30
0.0
 11
1814.3340594905
 21
112.2524144385
 31
0.0
  0
CIRCLE
  5
470
100
AcDbEntity
  8
L1_
  6
CONTINUOUS
 62
         7
100
AcDbCircle
 10
1845.8340594905
 20
112.2524144385
 30
0.0
 40
31.5
  0
CIRCLE
  5
471
100
AcDbEntity
  8
L1_
  6
CONTINUOUS
 62
         7
100
AcDbCircle
 10
1845.8340594905
 20
112.2524144385
 30
0.0
 40
29.0
  0
CIRCLE
  5
472
100
AcDbEntity
  8
L1_
  6
DASHED
 62
         2
100
AcDbCircle
 10
1845.8340594905
 20
112.2524144385
 30
0.0
 40
28.0
  0
LINE
  5
473
100
AcDbEntity
  8
L1_
  6
DASHED
 62
         2
100
AcDbLine
 10
1822.3500755866
 20
117.2024144385
 30
0.0
 11
1817.2596391115
 21
117.2024144385
 31
0.0
  0
LINE
  5
474
100
AcDbEntity
  8
L1_
  6
DASHED
 62
         2
100
AcDbLine
 10
1822.3500755866
 20
107.3024144385
 30
0.0
 11
1817.2596391115
 21
107.3024144385
 31
0.0
  0
LINE
  5
475
100
AcDbEntity
  8
L1_
  6
DASHED
 62
         2
100
AcDbLine
 10
1853.2892256938
 20
89.4396877957
 30
0.0
 11
1855.8344439313
 21
85.0312404919
 31
0.0
  0
LINE
  5
476
100
AcDbEntity
  8
L1_
  6
DASHED
 62
         2
100
AcDbLine
 10
1861.8628771912
 20
94.3896877957
 30
0.0
 11
1864.4080954288
 21
89.9812404919
 31
0.0
  0
LINE
  5
477
100
AcDbEntity
  8
L1_
  6
DASHED
 62
         2
100
AcDbLine
 10
1861.8628771912
 20
130.1151410814
 30
0.0
 11
1864.4080954288
 21
134.5235883852
 31
0.0
  0
LINE
  5
478
100
AcDbEntity
  8
L1_
  6
DASHED
 62
         2
100
AcDbLine
 10
1853.2892256938
 20
135.0651410814
 30
0.0
 11
1855.8344439313
 21
139.4735883852
 31
0.0
  0
LINE
  5
479
100
AcDbEntity
  8
L1_
  6
CENTER
 62
         1
100
AcDbLine
 10
1622.9136999334
 20
-105.5747463905
 30
0.0
 11
1622.9136999334
 21
-94.9465579056
 31
0.0
  0
LINE
  5
47A
100
AcDbEntity
  8
L1_
  6
CENTER
 62
         1
100
AcDbLine
 10
1604.8236999334
 20
-105.5747463936
 30
0.0
 11
1604.8236999334
 21
-94.9465579056
 31
0.0
  0
LINE
  5
47B
100
AcDbEntity
  8
L1_
  6
CONTINUOUS
 62
         4
100
AcDbLine
 10
1545.918375068
 20
-129.2400166132
 30
0.0
 11
1545.918375068
 21
-124.2400166132
 31
0.0
  0
LINE
  5
47C
100
AcDbEntity
  8
L1_
  6
CONTINUOUS
 62
         7
100
AcDbLine
 10
1562.9186999334
 20
-129.2400166132
 30
0.0
 11
1545.918375068
 21
-129.2400166132
 31
0.0
  0
LINE
  5
47D
100
AcDbEntity
  8
L1_
  6
CONTINUOUS
 62
         7
100
AcDbLine
 10
1562.9186999334
 20
-124.2400166132
 30
0.0
 11
1545.918375068
 21
-124.2400166132
 31
0.0
  0
LINE
  5
47E
100
AcDbEntity
  8
L1_
  6
CONTINUOUS
 62
         7
100
AcDbLine
 10
1545.918375068
 20
-129.2400166132
 30
0.0
 11
1544.274999395
 21
-126.7400166132
 31
0.0
  0
LINE
  5
47F
100
AcDbEntity
  8
L1_
  6
CONTINUOUS
 62
         7
100
AcDbLine
 10
1545.918375068
 20
-124.2400166132
 30
0.0
 11
1544.274999395
 21
-126.7400166132
 31
0.0
  0
LINE
  5
480
100
AcDbEntity
  8
L1_
  6
CENTER
 62
         1
100
AcDbLine
 10
1643.9186999334
 20
-126.7400166132
 30
0.0
 11
1568.9186999334
 21
-126.7400166132
 31
0.0
  0
LINE
  5
481
100
AcDbEntity
  8
L1_
  6
CONTINUOUS
 62
         7
100
AcDbLine
 10
1592.9186999334
 20
-96.8400166132
 30
0.0
 11
1592.9186999334
 21
-95.7400166132
 31
0.0
  0
LINE
  5
482
100
AcDbEntity
  8
L1_
  6
CONTINUOUS
 62
         7
100
AcDbLine
 10
1592.8188390158
 20
-97.5505639627
 30
0.0
 11
1592.9186999334
 21
-96.8400166132
 31
0.0
  0
LINE
  5
483
100
AcDbEntity
  8
L1_
  6
CONTINUOUS
 62
         7
100
AcDbLine
 10
1596.0551916065
 20
-97.7400166132
 30
0.0
 11
1595.4186999334
 21
-97.7400166132
 31
0.0
  0
ARC
  5
484
100
AcDbEntity
  8
L1_
  6
CONTINUOUS
 62
         7
100
AcDbCircle
 10
1594.6196287728
 20
-97.5400166132
 30
0.0
 40
0.4
100
AcDbArc
 50
270.0
 51
285.0
  0
LINE
  5
485
100
AcDbEntity
  8
L1_
  6
CONTINUOUS
 62
         7
100
AcDbLine
 10
1594.7231563909
 20
-97.9263869437
 30
0.0
 11
1595.4186999334
 21
-97.7400166132
 31
0.0
  0
LINE
  5
486
100
AcDbEntity
  8
L1_
  6
CONTINUOUS
 62
         7
100
AcDbLine
 10
1594.6196287728
 20
-97.9400166132
 30
0.0
 11
1593.2186999334
 21
-97.9400166132
 31
0.0
  0
LINE
  5
487
100
AcDbEntity
  8
L1_
  6
CONTINUOUS
 62
         7
100
AcDbLine
 10
1592.9186999334
 20
-156.6400166132
 30
0.0
 11
1592.9186999334
 21
-157.7400166132
 31
0.0
  0
ARC
  5
488
100
AcDbEntity
  8
L1_
  6
CONTINUOUS
 62
         7
100
AcDbCircle
 10
1593.2186999334
 20
-155.9400166132
 30
0.0
 40
0.4
100
AcDbArc
 50
90.0
 51
178.4890283439
  0
LINE
  5
489
100
AcDbEntity
  8
L1_
  6
CONTINUOUS
 62
         7
100
AcDbLine
 10
1592.8188390158
 20
-155.9294692637
 30
0.0
 11
1592.9186999334
 21
-156.6400166132
 31
0.0
  0
LINE
  5
48A
100
AcDbEntity
  8
L1_
  6
CONTINUOUS
 62
         7
100
AcDbLine
 10
1596.0551916065
 20
-155.7400166132
 30
0.0
 11
1595.4186999334
 21
-155.7400166132
 31
0.0
  0
ARC
  5
48B
100
AcDbEntity
  8
L1_
  6
CONTINUOUS
 62
         7
100
AcDbCircle
 10
1594.6196287728
 20
-155.9400166132
 30
0.0
 40
0.4
100
AcDbArc
 50
75.0
 51
90.0
  0
LINE
  5
48C
100
AcDbEntity
  8
L1_
  6
CONTINUOUS
 62
         7
100
AcDbLine
 10
1594.7231563909
 20
-155.5536462827
 30
0.0
 11
1595.4186999334
 21
-155.7400166132
 31
0.0
  0
LINE
  5
48D
100
AcDbEntity
  8
L1_
  6
CONTINUOUS
 62
         7
100
AcDbLine
 10
1594.6196287728
 20
-155.5400166132
 30
0.0
 11
1593.2186999334
 21
-155.5400166132
 31
0.0
  0
LINE
  5
48E
100
AcDbEntity
  8
L1_
  6
CONTINUOUS
 62
         7
100
AcDbLine
 10
1593.4186999334
 20
-155.5400166132
 30
0.0
 11
1593.4186999334
 21
-151.2400166132
 31
0.0
  0
LINE
  5
48F
100
AcDbEntity
  8
L1_
  6
CONTINUOUS
 62
         7
100
AcDbLine
 10
1595.4186999334
 20
-155.7400166132
 30
0.0
 11
1595.4186999334
 21
-151.2400166132
 31
0.0
  0
LINE
  5
490
100
AcDbEntity
  8
L1_
  6
CENTER
 62
         1
100
AcDbLine
 10
1594.4186999334
 20
-158.2400166132
 30
0.0
 11
1594.4186999334
 21
-144.7400166132
 31
0.0
  0
LINE
  5
491
100
AcDbEntity
  8
L1_
  6
CONTINUOUS
 62
         7
100
AcDbLine
 10
1568.9186999334
 20
-144.7400166132
 30
0.0
 11
1564.9186999334
 21
-144.7400166132
 31
0.0
  0
LINE
  5
492
100
AcDbEntity
  8
L1_
  6
CONTINUOUS
 62
         7
100
AcDbLine
 10
1568.9186999334
 20
-108.7400166132
 30
0.0
 11
1564.9186999334
 21
-108.7400166132
 31
0.0
  0
LINE
  5
493
100
AcDbEntity
  8
L1_
  6
CONTINUOUS
 62
         7
100
AcDbLine
 10
1589.9210611229
 20
-144.2400166132
 30
0.0
 11
1590.9210611229
 21
-145.2400166132
 31
0.0
  0
LINE
  5
494
100
AcDbEntity
  8
L1_
  6
CONTINUOUS
 62
         7
100
AcDbLine
 10
1590.9210611229
 20
-108.2400166132
 30
0.0
 11
1589.9210611229
 21
-109.2400166132
 31
0.0
  0
LINE
  5
495
100
AcDbEntity
  8
L1_
  6
CONTINUOUS
 62
         7
100
AcDbLine
 10
1595.9210611229
 20
-151.2400166132
 30
0.0
 11
1591.9210611229
 21
-151.2400166132
 31
0.0
  0
LINE
  5
496
100
AcDbEntity
  8
L1_
  6
CONTINUOUS
 62
         7
100
AcDbLine
 10
1595.9210611229
 20
-102.2400166132
 30
0.0
 11
1591.9210611229
 21
-102.2400166132
 31
0.0
  0
LINE
  5
497
100
AcDbEntity
  8
L1_
  6
CONTINUOUS
 62
         7
100
AcDbLine
 10
1589.9210611229
 20
-144.2400166132
 30
0.0
 11
1568.9186999334
 21
-144.2400166132
 31
0.0
  0
LINE
  5
498
100
AcDbEntity
  8
L1_
  6
CONTINUOUS
 62
         7
100
AcDbLine
 10
1589.9210611229
 20
-109.2400166132
 30
0.0
 11
1568.9186999334
 21
-109.2400166132
 31
0.0
  0
LINE
  5
499
100
AcDbEntity
  8
L1_
  6
CONTINUOUS
 62
         7
100
AcDbLine
 10
1563.9186999334
 20
-143.7400166132
 30
0.0
 11
1563.9186999334
 21
-109.7400166132
 31
0.0
  0
LINE
  5
49A
100
AcDbEntity
  8
L1_
  6
CONTINUOUS
 62
         7
100
AcDbLine
 10
1590.9210611229
 20
-150.2400166132
 30
0.0
 11
1590.9210611229
 21
-103.2400166132
 31
0.0
  0
LINE
  5
49B
100
AcDbEntity
  8
L1_
  6
CONTINUOUS
 62
         7
100
AcDbLine
 10
1632.9186999334
 20
-154.7400166132
 30
0.0
 11
1632.9186999334
 21
-155.6400166132
 31
0.0
  0
LINE
  5
49C
100
AcDbEntity
  8
L1_
  6
CONTINUOUS
 62
         7
100
AcDbLine
 10
1634.9186999334
 20
-154.7400166132
 30
0.0
 11
1632.9186999334
 21
-154.7400166132
 31
0.0
  0
LINE
  5
49D
100
AcDbEntity
  8
L1_
  6
CONTINUOUS
 62
         7
100
AcDbLine
 10
1634.9186999334
 20
-154.7400166132
 30
0.0
 11
1634.9186999334
 21
-155.6400166132
 31
0.0
  0
LINE
  5
49E
100
AcDbEntity
  8
L1_
  6
CONTINUOUS
 62
         7
100
AcDbLine
 10
1638.0573187269
 20
-155.7400166132
 30
0.0
 11
1635.0186999334
 21
-155.7400166132
 31
0.0
  0
LINE
  5
49F
100
AcDbEntity
  8
L1_
  6
CONTINUOUS
 62
         7
100
AcDbLine
 10
1632.8186999334
 20
-155.7400166132
 30
0.0
 11
1595.4186999334
 21
-155.7400166132
 31
0.0
  0
LINE
  5
4A0
100
AcDbEntity
  8
L1_
  6
CONTINUOUS
 62
         7
100
AcDbLine
 10
1634.9186999334
 20
-98.7400166132
 30
0.0
 11
1634.9186999334
 21
-97.8400166132
 31
0.0
  0
LINE
  5
4A1
100
AcDbEntity
  8
L1_
  6
CONTINUOUS
 62
         7
100
AcDbLine
 10
1638.0573187269
 20
-97.7400166132
 30
0.0
 11
1635.0186999334
 21
-97.7400166132
 31
0.0
  0
LINE
  5
4A2
100
AcDbEntity
  8
L1_
  6
CONTINUOUS
 62
         7
100
AcDbLine
 10
1634.9186999334
 20
-98.7400166132
 30
0.0
 11
1632.9186999334
 21
-98.7400166132
 31
0.0
  0
LINE
  5
4A3
100
AcDbEntity
  8
L1_
  6
CONTINUOUS
 62
         7
100
AcDbLine
 10
1632.9186999334
 20
-98.7400166132
 30
0.0
 11
1632.9186999334
 21
-97.8400166132
 31
0.0
  0
LINE
  5
4A4
100
AcDbEntity
  8
L1_
  6
CONTINUOUS
 62
         7
100
AcDbLine
 10
1632.8186999334
 20
-97.7400166132
 30
0.0
 11
1595.4186999334
 21
-97.7400166132
 31
0.0
  0
LINE
  5
4A5
100
AcDbEntity
  8
L1_
  6
CONTINUOUS
 62
         7
100
AcDbLine
 10
1643.9186999334
 20
-152.7053626372
 30
0.0
 11
1643.9186999334
 21
-100.7746705892
 31
0.0
  0
LINE
  5
4A6
100
AcDbEntity
  8
L1_
  6
CONTINUOUS
 62
         7
100
AcDbLine
 10
1642.4186999334
 20
-150.7400166132
 30
0.0
 11
1595.9210611229
 21
-150.7400166132
 31
0.0
  0
LINE
  5
4A7
100
AcDbEntity
  8
L1_
  6
CONTINUOUS
 62
         7
100
AcDbLine
 10
1642.4186999334
 20
-102.7400166132
 30
0.0
 11
1595.9210611229
 21
-102.7400166132
 31
0.0
  0
LINE
  5
4A8
100
AcDbEntity
  8
L1_
  6
CONTINUOUS
 62
         7
100
AcDbLine
 10
1592.4186999334
 20
-95.2400166132
 30
0.0
 11
1547.8786999334
 21
-95.2400166132
 31
0.0
  0
LINE
  5
4A9
100
AcDbEntity
  8
L1_
  6
CONTINUOUS
 62
         7
100
AcDbLine
 10
1592.4186999334
 20
-158.2400166132
 30
0.0
 11
1547.8786999334
 21
-158.2400166132
 31
0.0
  0
LINE
  5
4AA
100
AcDbEntity
  8
L1_
  6
CONTINUOUS
 62
         4
100
AcDbLine
 10
1563.4186999334
 20
-123.7400166132
 30
0.0
 11
1550.9186999334
 21
-123.7400166132
 31
0.0
  0
LINE
  5
4AB
100
AcDbEntity
  8
L1_
  6
CONTINUOUS
 62
         4
100
AcDbLine
 10
1563.4186999334
 20
-129.7400166132
 30
0.0
 11
1550.9186999334
 21
-129.7400166132
 31
0.0
  0
LINE
  5
4AC
100
AcDbEntity
  8
L1_
  6
CONTINUOUS
 62
         4
100
AcDbLine
 10
1550.9186999334
 20
-129.7400166132
 30
0.0
 11
1550.9186999334
 21
-123.7400166132
 31
0.0
  0
LINE
  5
4AD
100
AcDbEntity
  8
L1_
  6
CONTINUOUS
 62
         7
100
AcDbLine
 10
1568.9186999334
 20
-144.7400166132
 30
0.0
 11
1568.9186999334
 21
-108.7400166132
 31
0.0
  0
LINE
  5
4AE
100
AcDbEntity
  8
L1_
  6
CONTINUOUS
 62
         7
100
AcDbLine
 10
1595.9210611229
 20
-151.2400166132
 30
0.0
 11
1595.9210611229
 21
-102.2400166132
 31
0.0
  0
LINE
  5
4AF
100
AcDbEntity
  8
L1_
  6
CONTINUOUS
 62
         4
100
AcDbLine
 10
1589.9210611229
 20
-109.2400166132
 30
0.0
 11
1589.9210611229
 21
-144.2400166132
 31
0.0
  0
ARC
  5
4B0
100
AcDbEntity
  8
L1_
  6
CONTINUOUS
 62
         7
100
AcDbCircle
 10
1592.4186999334
 20
-95.7400166132
 30
0.0
 40
0.5
100
AcDbArc
 50
0.0
 51
90.0
  0
ARC
  5
4B1
100
AcDbEntity
  8
L1_
  6
CONTINUOUS
 62
         7
100
AcDbCircle
 10
1592.4186999334
 20
-157.7400166132
 30
0.0
 40
0.5
100
AcDbArc
 50
270.0
 51
360.0
  0
LINE
  5
4B2
100
AcDbEntity
  8
L1_
  6
CONTINUOUS
 62
         7
100
AcDbLine
 10
1632.8186999334
 20
-97.7400166132
 30
0.0
 11
1632.9186999334
 21
-97.8400166132
 31
0.0
  0
LINE
  5
4B3
100
AcDbEntity
  8
L1_
  6
CONTINUOUS
 62
         7
100
AcDbLine
 10
1634.9186999334
 20
-97.8400166132
 30
0.0
 11
1635.0186999334
 21
-97.7400166132
 31
0.0
  0
LINE
  5
4B4
100
AcDbEntity
  8
L1_
  6
CONTINUOUS
 62
         7
100
AcDbLine
 10
1632.9186999334
 20
-155.6400166132
 30
0.0
 11
1632.8186999334
 21
-155.7400166132
 31
0.0
  0
LINE
  5
4B5
100
AcDbEntity
  8
L1_
  6
CONTINUOUS
 62
         7
100
AcDbLine
 10
1634.9186999334
 20
-155.6400166132
 30
0.0
 11
1635.0186999334
 21
-155.7400166132
 31
0.0
  0
DIMENSION
  5
4B8
100
AcDbEntity
  8
L1_
  6
CONTINUOUS
 62
         4
100
AcDbDimension
  2
*D20
 10
1643.9186999334
 20
-173.0093121114
 30
0.0
 11
1612.3470307771
 21
-170.3843121114
 31
0.0
  3
DIMSTYLE2
100
AcDbAlignedDimension
 13
1643.9186999334
 23
-153.0853160748
 33
0.0
 14
1594.4186999334
 24
-158.2400166132
 34
0.0
100
AcDbRotatedDimension
  0
POLYLINE
  5
4C5
100
AcDbEntity
  8
L1_
  6
CONTINUOUS
 62
         7
100
AcDb2dPolyline
 66
         1
 10
0.0
 20
0.0
 30
0.0
 70
         2
  0
VERTEX
  5
4C7
100
AcDbEntity
  8
L1_
  6
CONTINUOUS
 62
         7
100
AcDbVertex
100
AcDb2dVertex
 10
1604.6286999334
 20
-137.5774735609
 30
0.0
 70
         1
  0
VERTEX
  5
4C9
100
AcDbEntity
  8
L1_
  6
CONTINUOUS
 62
         7
100
AcDbVertex
100
AcDb2dVertex
 10
1603.8923863836
 20
-137.6138883104
 30
0.0
 70
         1
  0
VERTEX
  5
4CB
100
AcDbEntity
  8
L1_
  6
CONTINUOUS
 62
         7
100
AcDbVertex
100
AcDb2dVertex
 10
1603.5351858108
 20
-137.6583892664
 30
0.0
 70
         1
  0
VERTEX
  5
4CD
100
AcDbEntity
  8
L1_
  6
CONTINUOUS
 62
         7
100
AcDbVertex
100
AcDb2dVertex
 10
1603.1905575324
 20
-137.7188637405
 30
0.0
 70
         1
  0
VERTEX
  5
4CF
100
AcDbEntity
  8
L1_
  6
CONTINUOUS
 62
         7
100
AcDbVertex
100
AcDb2dVertex
 10
1602.8617938404
 20
-137.7936383653
 30
0.0
 70
         1
  0
VERTEX
  5
4D1
100
AcDbEntity
  8
L1_
  6
CONTINUOUS
 62
         7
100
AcDbVertex
100
AcDb2dVertex
 10
1602.447251612
 20
-137.9139190387
 30
0.0
 70
         1
  0
VERTEX
  5
4D3
100
AcDbEntity
  8
L1_
  6
CONTINUOUS
 62
         7
100
AcDbVertex
100
AcDb2dVertex
 10
1602.0708450101
 20
-138.051479132
 30
0.0
 70
         1
  0
VERTEX
  5
4D5
100
AcDbEntity
  8
L1_
  6
CONTINUOUS
 62
         7
100
AcDbVertex
100
AcDb2dVertex
 10
1601.7347209648
 20
-138.2009970325
 30
0.0
 70
         1
  0
VERTEX
  5
4D7
100
AcDbEntity
  8
L1_
  6
CONTINUOUS
 62
         7
100
AcDbVertex
100
AcDb2dVertex
 10
1601.4390112831
 20
-138.3574739646
 30
0.0
 70
         1
  0
VERTEX
  5
4D9
100
AcDbEntity
  8
L1_
  6
CONTINUOUS
 62
         7
100
AcDbVertex
100
AcDb2dVertex
 10
1601.1822504786
 20
-138.5165061096
 30
0.0
 70
         1
  0
VERTEX
  5
4DB
100
AcDbEntity
  8
L1_
  6
CONTINUOUS
 62
         7
100
AcDbVertex
100
AcDb2dVertex
 10
1600.8911043522
 20
-138.7301615109
 30
0.0
 70
         1
  0
VERTEX
  5
4DD
100
AcDbEntity
  8
L1_
  6
CONTINUOUS
 62
         7
100
AcDbVertex
100
AcDb2dVertex
 10
1600.6585378324
 20
-138.9349922472
 30
0.0
 70
         1
  0
VERTEX
  5
4DF
100
AcDbEntity
  8
L1_
  6
CONTINUOUS
 62
         7
100
AcDbVertex
100
AcDb2dVertex
 10
1600.4753669322
 20
-139.1265429953
 30
0.0
 70
         1
  0
VERTEX
  5
4E1
100
AcDbEntity
  8
L1_
  6
CONTINUOUS
 62
         7
100
AcDbVertex
100
AcDb2dVertex
 10
1600.2887736817
 20
-139.362841404
 30
0.0
 70
         1
  0
VERTEX
  5
4E3
100
AcDbEntity
  8
L1_
  6
CONTINUOUS
 62
         7
100
AcDbVertex
100
AcDb2dVertex
 10
1600.1581999743
 20
-139.5678339576
 30
0.0
 70
         1
  0
VERTEX
  5
4E5
100
AcDbEntity
  8
L1_
  6
CONTINUOUS
 62
         7
100
AcDbVertex
100
AcDb2dVertex
 10
1600.0412919798
 20
-139.8019811949
 30
0.0
 70
         1
  0
VERTEX
  5
4E7
100
AcDbEntity
  8
L1_
  6
CONTINUOUS
 62
         7
100
AcDbVertex
100
AcDb2dVertex
 10
1599.9527579323
 20
-140.0482005468
 30
0.0
 70
         1
  0
VERTEX
  5
4E9
100
AcDbEntity
  8
L1_
  6
CONTINUOUS
 62
         7
100
AcDbVertex
100
AcDb2dVertex
 10
1599.9002704295
 20
-140.277717291
 30
0.0
 70
         1
  0
VERTEX
  5
4EB
100
AcDbEntity
  8
L1_
  6
CONTINUOUS
 62
         7
100
AcDbVertex
100
AcDb2dVertex
 10
1599.8753649506
 20
-140.5165361066
 30
0.0
 70
         1
  0
VERTEX
  5
4ED
100
AcDbEntity
  8
L1_
  6
CONTINUOUS
 62
         7
100
AcDbVertex
100
AcDb2dVertex
 10
1599.8736999334
 20
-140.5964213731
 30
0.0
 70
         1
  0
SEQEND
  5
4EF
100
AcDbEntity
  8
L1_
  6
CONTINUOUS
 62
         7
  0
LINE
  5
4F0
100
AcDbEntity
  8
L1_
  6
CONTINUOUS
 62
         7
100
AcDbLine
 10
1623.1086999334
 20
-137.5774763049
 30
0.0
 11
1604.6286999334
 21
-137.5774735609
 31
0.0
  0
POLYLINE
  5
4F2
100
AcDbEntity
  8
L1_
  6
CONTINUOUS
 62
         7
100
AcDb2dPolyline
 66
         1
 10
0.0
 20
0.0
 30
0.0
 70
         2
  0
VERTEX
  5
4F4
100
AcDbEntity
  8
L1_
  6
CONTINUOUS
 62
         7
100
AcDbVertex
100
AcDb2dVertex
 10
1623.1086999334
 20
-142.3524763049
 30
0.0
 70
         1
  0
VERTEX
  5
4F6
100
AcDbEntity
  8
L1_
  6
CONTINUOUS
 62
         7
100
AcDbVertex
100
AcDb2dVertex
 10
1624.1373015182
 20
-142.3108974107
 30
0.0
 70
         1
  0
VERTEX
  5
4F8
100
AcDbEntity
  8
L1_
  6
CONTINUOUS
 62
         7
100
AcDbVertex
100
AcDb2dVertex
 10
1624.5888431093
 20
-142.2652317259
 30
0.0
 70
         1
  0
VERTEX
  5
4FA
100
AcDbEntity
  8
L1_
  6
CONTINUOUS
 62
         7
100
AcDbVertex
100
AcDb2dVertex
 10
1624.9958074849
 20
-142.2082617048
 30
0.0
 70
         1
  0
VERTEX
  5
4FC
100
AcDbEntity
  8
L1_
  6
CONTINUOUS
 62
         7
100
AcDbVertex
100
AcDb2dVertex
 10
1625.3589016814
 20
-142.1434001905
 30
0.0
 70
         1
  0
VERTEX
  5
4FE
100
AcDbEntity
  8
L1_
  6
CONTINUOUS
 62
         7
100
AcDbVertex
100
AcDb2dVertex
 10
1625.6802613641
 20
-142.0735159052
 30
0.0
 70
         1
  0
VERTEX
  5
500
100
AcDbEntity
  8
L1_
  6
CONTINUOUS
 62
         7
100
AcDbVertex
100
AcDb2dVertex
 10
1625.9629040323
 20
-142.0009322462
 30
0.0
 70
         1
  0
VERTEX
  5
502
100
AcDbEntity
  8
L1_
  6
CONTINUOUS
 62
         7
100
AcDbVertex
100
AcDb2dVertex
 10
1626.288496145
 20
-141.9020632539
 30
0.0
 70
         1
  0
VERTEX
  5
504
100
AcDbEntity
  8
L1_
  6
CONTINUOUS
 62
         7
100
AcDbVertex
100
AcDb2dVertex
 10
1626.5589839534
 20
-141.8047711979
 30
0.0
 70
         1
  0
VERTEX
  5
506
100
AcDbEntity
  8
L1_
  6
CONTINUOUS
 62
         7
100
AcDbVertex
100
AcDb2dVertex
 10
1626.7828054114
 20
-141.7111531165
 30
0.0
 70
         1
  0
VERTEX
  5
508
100
AcDbEntity
  8
L1_
  6
CONTINUOUS
 62
         7
100
AcDbVertex
100
AcDb2dVertex
 10
1626.9675937963
 20
-141.6224690528
 30
0.0
 70
         1
  0
VERTEX
  5
50A
100
AcDbEntity
  8
L1_
  6
CONTINUOUS
 62
         7
100
AcDbVertex
100
AcDb2dVertex
 10
1627.1669625442
 20
-141.5115689062
 30
0.0
 70
         1
  0
VERTEX
  5
50C
100
AcDbEntity
  8
L1_
  6
CONTINUOUS
 62
         7
100
AcDbVertex
100
AcDb2dVertex
 10
1627.3206480192
 20
-141.4113721191
 30
0.0
 70
         1
  0
VERTEX
  5
50E
100
AcDbEntity
  8
L1_
  6
CONTINUOUS
 62
         7
100
AcDbVertex
100
AcDb2dVertex
 10
1627.4748984611
 20
-141.2918915565
 30
0.0
 70
         1
  0
VERTEX
  5
510
100
AcDbEntity
  8
L1_
  6
CONTINUOUS
 62
         7
100
AcDbVertex
100
AcDb2dVertex
 10
1627.5839130875
 20
-141.1899045551
 30
0.0
 70
         1
  0
VERTEX
  5
512
100
AcDbEntity
  8
L1_
  6
CONTINUOUS
 62
         7
100
AcDbVertex
100
AcDb2dVertex
 10
1627.6839092602
 20
-141.0747415067
 30
0.0
 70
         1
  0
VERTEX
  5
514
100
AcDbEntity
  8
L1_
  6
CONTINUOUS
 62
         7
100
AcDbVertex
100
AcDb2dVertex
 10
1627.7648291091
 20
-140.9526634278
 30
0.0
 70
         1
  0
VERTEX
  5
516
100
AcDbEntity
  8
L1_
  6
CONTINUOUS
 62
         7
100
AcDbVertex
100
AcDb2dVertex
 10
1627.8201000326
 20
-140.8336827784
 30
0.0
 70
         1
  0
VERTEX
  5
518
100
AcDbEntity
  8
L1_
  6
CONTINUOUS
 62
         7
100
AcDbVertex
100
AcDb2dVertex
 10
1627.8559277772
 20
-140.6967863645
 30
0.0
 70
         1
  0
VERTEX
  5
51A
100
AcDbEntity
  8
L1_
  6
CONTINUOUS
 62
         7
100
AcDbVertex
100
AcDb2dVertex
 10
1627.8636999334
 20
-140.5964241171
 30
0.0
 70
         1
  0
SEQEND
  5
51C
100
AcDbEntity
  8
L1_
  6
CONTINUOUS
 62
         7
  0
POLYLINE
  5
51E
100
AcDbEntity
  8
L1_
  6
CONTINUOUS
 62
         7
100
AcDb2dPolyline
 66
         1
 10
0.0
 20
0.0
 30
0.0
 70
         2
  0
VERTEX
  5
520
100
AcDbEntity
  8
L1_
  6
CONTINUOUS
 62
         7
100
AcDbVertex
100
AcDb2dVertex
 10
1599.8736999334
 20
-140.5964213731
 30
0.0
 70
         1
  0
VERTEX
  5
522
100
AcDbEntity
  8
L1_
  6
CONTINUOUS
 62
         7
100
AcDbVertex
100
AcDb2dVertex
 10
1599.93105506
 20
-140.868346719
 30
0.0
 70
         1
  0
VERTEX
  5
524
100
AcDbEntity
  8
L1_
  6
CONTINUOUS
 62
         7
100
AcDbVertex
100
AcDb2dVertex
 10
1600.0011463828
 20
-141.0002631959
 30
0.0
 70
         1
  0
VERTEX
  5
526
100
AcDbEntity
  8
L1_
  6
CONTINUOUS
 62
         7
100
AcDbVertex
100
AcDb2dVertex
 10
1600.0963968285
 20
-141.1275366433
 30
0.0
 70
         1
  0
VERTEX
  5
528
100
AcDbEntity
  8
L1_
  6
CONTINUOUS
 62
         7
100
AcDbVertex
100
AcDb2dVertex
 10
1600.214170756
 20
-141.2489511965
 30
0.0
 70
         1
  0
VERTEX
  5
52A
100
AcDbEntity
  8
L1_
  6
CONTINUOUS
 62
         7
100
AcDbVertex
100
AcDb2dVertex
 10
1600.3513903877
 20
-141.3635348012
 30
0.0
 70
         1
  0
VERTEX
  5
52C
100
AcDbEntity
  8
L1_
  6
CONTINUOUS
 62
         7
100
AcDbVertex
100
AcDb2dVertex
 10
1600.5047160619
 20
-141.4705770064
 30
0.0
 70
         1
  0
VERTEX
  5
52E
100
AcDbEntity
  8
L1_
  6
CONTINUOUS
 62
         7
100
AcDbVertex
100
AcDb2dVertex
 10
1600.6707203315
 20
-141.5696277906
 30
0.0
 70
         1
  0
VERTEX
  5
530
100
AcDbEntity
  8
L1_
  6
CONTINUOUS
 62
         7
100
AcDbVertex
100
AcDb2dVertex
 10
1600.846041825
 20
-141.6604805348
 30
0.0
 70
         1
  0
VERTEX
  5
532
100
AcDbEntity
  8
L1_
  6
CONTINUOUS
 62
         7
100
AcDbVertex
100
AcDb2dVertex
 10
1601.092201244
 20
-141.7702816751
 30
0.0
 70
         1
  0
VERTEX
  5
534
100
AcDbEntity
  8
L1_
  6
CONTINUOUS
 62
         7
100
AcDbVertex
100
AcDb2dVertex
 10
1601.3426428065
 20
-141.8656677261
 30
0.0
 70
         1
  0
VERTEX
  5
536
100
AcDbEntity
  8
L1_
  6
CONTINUOUS
 62
         7
100
AcDbVertex
100
AcDb2dVertex
 10
1601.5915490486
 20
-141.9475854235
 30
0.0
 70
         1
  0
VERTEX
  5
538
100
AcDbEntity
  8
L1_
  6
CONTINUOUS
 62
         7
100
AcDbVertex
100
AcDb2dVertex
 10
1601.9191331482
 20
-142.0394729482
 30
0.0
 70
         1
  0
VERTEX
  5
53A
100
AcDbEntity
  8
L1_
  6
CONTINUOUS
 62
         7
100
AcDbVertex
100
AcDb2dVertex
 10
1602.2274995233
 20
-142.1121201002
 30
0.0
 70
         1
  0
VERTEX
  5
53C
100
AcDbEntity
  8
L1_
  6
CONTINUOUS
 62
         7
100
AcDbVertex
100
AcDb2dVertex
 10
1602.610063239
 20
-142.1863759817
 30
0.0
 70
         1
  0
VERTEX
  5
53E
100
AcDbEntity
  8
L1_
  6
CONTINUOUS
 62
         7
100
AcDbVertex
100
AcDb2dVertex
 10
1603.0580234035
 20
-142.2539039662
 30
0.0
 70
         1
  0
VERTEX
  5
540
100
AcDbEntity
  8
L1_
  6
CONTINUOUS
 62
         7
100
AcDbVertex
100
AcDb2dVertex
 10
1603.5386991349
 20
-142.3057128488
 30
0.0
 70
         1
  0
VERTEX
  5
542
100
AcDbEntity
  8
L1_
  6
CONTINUOUS
 62
         7
100
AcDbVertex
100
AcDb2dVertex
 10
1604.1466347938
 20
-142.3434258631
 30
0.0
 70
         1
  0
VERTEX
  5
544
100
AcDbEntity
  8
L1_
  6
CONTINUOUS
 62
         7
100
AcDbVertex
100
AcDb2dVertex
 10
1604.6286999334
 20
-142.3524735609
 30
0.0
 70
         1
  0
SEQEND
  5
546
100
AcDbEntity
  8
L1_
  6
CONTINUOUS
 62
         7
  0
LINE
  5
547
100
AcDbEntity
  8
L1_
  6
CONTINUOUS
 62
         7
100
AcDbLine
 10
1623.1087037567
 20
-142.3524763049
 30
0.0
 11
1604.6286999203
 21
-142.3524735609
 31
0.0
  0
POLYLINE
  5
549
100
AcDbEntity
  8
L1_
  6
CONTINUOUS
 62
         7
100
AcDb2dPolyline
 66
         1
 10
0.0
 20
0.0
 30
0.0
 70
         2
  0
VERTEX
  5
54B
100
AcDbEntity
  8
L1_
  6
CONTINUOUS
 62
         7
100
AcDbVertex
100
AcDb2dVertex
 10
1627.8636999334
 20
-140.5964241171
 30
0.0
 70
         1
  0
VERTEX
  5
54D
100
AcDbEntity
  8
L1_
  6
CONTINUOUS
 62
         7
100
AcDbVertex
100
AcDb2dVertex
 10
1627.7991211019
 20
-140.1005621039
 30
0.0
 70
         1
  0
VERTEX
  5
54F
100
AcDbEntity
  8
L1_
  6
CONTINUOUS
 62
         7
100
AcDbVertex
100
AcDb2dVertex
 10
1627.7255118034
 20
-139.8739001875
 30
0.0
 70
         1
  0
VERTEX
  5
551
100
AcDbEntity
  8
L1_
  6
CONTINUOUS
 62
         7
100
AcDbVertex
100
AcDb2dVertex
 10
1627.630539331
 20
-139.6626696604
 30
0.0
 70
         1
  0
VERTEX
  5
553
100
AcDbEntity
  8
L1_
  6
CONTINUOUS
 62
         7
100
AcDbVertex
100
AcDb2dVertex
 10
1627.518505734
 20
-139.4671523712
 30
0.0
 70
         1
  0
VERTEX
  5
555
100
AcDbEntity
  8
L1_
  6
CONTINUOUS
 62
         7
100
AcDbVertex
100
AcDb2dVertex
 10
1627.3479605588
 20
-139.2290008576
 30
0.0
 70
         1
  0
VERTEX
  5
557
100
AcDbEntity
  8
L1_
  6
CONTINUOUS
 62
         7
100
AcDbVertex
100
AcDb2dVertex
 10
1627.1618103922
 20
-139.0177923208
 30
0.0
 70
         1
  0
VERTEX
  5
559
100
AcDbEntity
  8
L1_
  6
CONTINUOUS
 62
         7
100
AcDbVertex
100
AcDb2dVertex
 10
1626.9667484508
 20
-138.8317358138
 30
0.0
 70
         1
  0
VERTEX
  5
55B
100
AcDbEntity
  8
L1_
  6
CONTINUOUS
 62
         7
100
AcDbVertex
100
AcDb2dVertex
 10
1626.6991224365
 20
-138.6171158183
 30
0.0
 70
         1
  0
VERTEX
  5
55D
100
AcDbEntity
  8
L1_
  6
CONTINUOUS
 62
         7
100
AcDbVertex
100
AcDb2dVertex
 10
1626.4342449403
 20
-138.4386267738
 30
0.0
 70
         1
  0
VERTEX
  5
55F
100
AcDbEntity
  8
L1_
  6
CONTINUOUS
 62
         7
100
AcDbVertex
100
AcDb2dVertex
 10
1626.091323574
 20
-138.2452388081
 30
0.0
 70
         1
  0
VERTEX
  5
561
100
AcDbEntity
  8
L1_
  6
CONTINUOUS
 62
         7
100
AcDbVertex
100
AcDb2dVertex
 10
1625.7732493045
 20
-138.0959992674
 30
0.0
 70
         1
  0
VERTEX
  5
563
100
AcDbEntity
  8
L1_
  6
CONTINUOUS
 62
         7
100
AcDbVertex
100
AcDb2dVertex
 10
1625.3868898437
 20
-137.9465355551
 30
0.0
 70
         1
  0
VERTEX
  5
565
100
AcDbEntity
  8
L1_
  6
CONTINUOUS
 62
         7
100
AcDbVertex
100
AcDb2dVertex
 10
1625.0531615853
 20
-137.8414355893
 30
0.0
 70
         1
  0
VERTEX
  5
567
100
AcDbEntity
  8
L1_
  6
CONTINUOUS
 62
         7
100
AcDbVertex
100
AcDb2dVertex
 10
1624.6740128207
 20
-137.7457444674
 30
0.0
 70
         1
  0
VERTEX
  5
569
100
AcDbEntity
  8
L1_
  6
CONTINUOUS
 62
         7
100
AcDbVertex
100
AcDb2dVertex
 10
1624.2714236743
 20
-137.6691237189
 30
0.0
 70
         1
  0
VERTEX
  5
56B
100
AcDbEntity
  8
L1_
  6
CONTINUOUS
 62
         7
100
AcDbVertex
100
AcDb2dVertex
 10
1623.8801322362
 20
-137.617471383
 30
0.0
 70
         1
  0
VERTEX
  5
56D
100
AcDbEntity
  8
L1_
  6
CONTINUOUS
 62
         7
100
AcDbVertex
100
AcDb2dVertex
 10
1623.5418046287
 20
-137.5900254438
 30
0.0
 70
         1
  0
VERTEX
  5
56F
100
AcDbEntity
  8
L1_
  6
CONTINUOUS
 62
         7
100
AcDbVertex
100
AcDb2dVertex
 10
1623.2135979986
 20
-137.5782110088
 30
0.0
 70
         1
  0
VERTEX
  5
571
100
AcDbEntity
  8
L1_
  6
CONTINUOUS
 62
         7
100
AcDbVertex
100
AcDb2dVertex
 10
1623.1086999334
 20
-137.5774763049
 30
0.0
 70
         1
  0
SEQEND
  5
573
100
AcDbEntity
  8
L1_
  6
CONTINUOUS
 62
         7
  0
ARC
  5
574
100
AcDbEntity
  8
L1_
  6
CONTINUOUS
 62
         7
100
AcDbCircle
 10
1641.9186999334
 20
-152.7053626372
 30
0.0
 40
2.0
100
AcDbArc
 50
285.0
 51
360.0
  0
LINE
  5
575
100
AcDbEntity
  8
L1_
  6
CONTINUOUS
 62
         7
100
AcDbLine
 10
1642.4363380236
 20
-154.6372142898
 30
0.0
 11
1638.5749568171
 21
-155.6718682658
 31
0.0
  0
ARC
  5
576
100
AcDbEntity
  8
L1_
  6
CONTINUOUS
 62
         7
100
AcDbCircle
 10
1641.9186999334
 20
-100.7746705892
 30
0.0
 40
2.0
100
AcDbArc
 50
0.0
 51
75.0
  0
ARC
  5
577
100
AcDbEntity
  8
L1_
  6
CONTINUOUS
 62
         7
100
AcDbCircle
 10
1638.0573187269
 20
-99.7400166132
 30
0.0
 40
2.0
100
AcDbArc
 50
75.0
 51
90.0
  0
LINE
  5
578
100
AcDbEntity
  8
L1_
  6
CONTINUOUS
 62
         7
100
AcDbLine
 10
1642.4363380236
 20
-98.8428189366
 30
0.0
 11
1638.5749568171
 21
-97.8081649606
 31
0.0
  0
ARC
  5
579
100
AcDbEntity
  8
L1_
  6
CONTINUOUS
 62
         7
100
AcDbCircle
 10
1638.0573187269
 20
-153.7400166132
 30
0.0
 40
2.0
100
AcDbArc
 50
270.0
 51
285.0
  0
LINE
  5
57A
100
AcDbEntity
  8
L1_
  6
CONTINUOUS
 62
         7
100
AcDbLine
 10
1627.8636999334
 20
-102.7400166132
 30
0.0
 11
1627.8636999334
 21
-97.7400166132
 31
0.0
  0
LINE
  5
57B
100
AcDbEntity
  8
L1_
  6
CONTINUOUS
 62
         7
100
AcDbLine
 10
1599.8736999334
 20
-102.7400166132
 30
0.0
 11
1599.8736999334
 21
-97.7400166132
 31
0.0
  0
DIMENSION
  5
57E
100
AcDbEntity
  8
L1_
  6
CONTINUOUS
 62
         4
100
AcDbDimension
  2
*D21
 10
1643.9186999334
 20
-211.871099153
 30
0.0
 11
1592.3876076839
 21
-209.246099153
 31
0.0
  3
DIMSTYLE2
100
AcDbAlignedDimension
 13
1643.9186999334
 23
-152.7053626372
 33
0.0
 14
1545.918375068
 24
-129.2400166132
 34
0.0
100
AcDbRotatedDimension
  0
ARC
  5
58A
100
AcDbEntity
  8
L1_
  6
CONTINUOUS
 62
         7
100
AcDbCircle
 10
1564.9186999334
 20
-109.7400166132
 30
0.0
 40
1.0
100
AcDbArc
 50
90.0
 51
180.0
  0
ARC
  5
58B
100
AcDbEntity
  8
L1_
  6
CONTINUOUS
 62
         7
100
AcDbCircle
 10
1564.9186999334
 20
-143.7400166132
 30
0.0
 40
1.0
100
AcDbArc
 50
180.0
 51
270.0
  0
ARC
  5
58C
100
AcDbEntity
  8
L1_
  6
CONTINUOUS
 62
         7
100
AcDbCircle
 10
1591.9210611229
 20
-150.2400166132
 30
0.0
 40
1.0
100
AcDbArc
 50
180.0
 51
270.0
  0
ARC
  5
58D
100
AcDbEntity
  8
L1_
  6
CONTINUOUS
 62
         7
100
AcDbCircle
 10
1591.9210611229
 20
-103.2400166132
 30
0.0
 40
1.0
100
AcDbArc
 50
90.0
 51
180.0
  0
LINE
  5
58E
100
AcDbEntity
  8
L1_
  6
CONTINUOUS
 62
         7
100
AcDbLine
 10
1563.9186999334
 20
-123.2400166132
 30
0.0
 11
1562.9186999334
 21
-124.2400166132
 31
0.0
  0
LINE
  5
58F
100
AcDbEntity
  8
L1_
  6
CONTINUOUS
 62
         4
100
AcDbLine
 10
1562.9186999334
 20
-129.2400166132
 30
0.0
 11
1562.9186999334
 21
-124.2400166132
 31
0.0
  0
LINE
  5
590
100
AcDbEntity
  8
L1_
  6
CONTINUOUS
 62
         7
100
AcDbLine
 10
1562.9186999334
 20
-129.2400166132
 30
0.0
 11
1563.9186999334
 21
-130.2400166132
 31
0.0
  0
LINE
  5
591
100
AcDbEntity
  8
L1_
  6
CONTINUOUS
 62
         4
100
AcDbLine
 10
1642.4186999334
 20
-150.7400166132
 30
0.0
 11
1642.4186999334
 21
-102.7400166132
 31
0.0
  0
ARC
  5
592
100
AcDbEntity
  8
L1_
  6
CONTINUOUS
 62
         7
100
AcDbCircle
 10
1642.4186999334
 20
-101.2400166132
 30
0.0
 40
1.5
100
AcDbArc
 50
270.0
 51
360.0
  0
ARC
  5
593
100
AcDbEntity
  8
L1_
  6
CONTINUOUS
 62
         7
100
AcDbCircle
 10
1642.4186999334
 20
-152.2400166132
 30
0.0
 40
1.5
100
AcDbArc
 50
0.0
 51
90.0
  0
ARC
  5
594
100
AcDbEntity
  8
L1_
  6
CONTINUOUS
 62
         7
100
AcDbCircle
 10
1547.8786999334
 20
148.7524144385
 30
0.0
 40
5.0
100
AcDbArc
 50
180.0
 51
270.0
  0
ARC
  5
595
100
AcDbEntity
  8
L1_
  6
CONTINUOUS
 62
         7
100
AcDbCircle
 10
1547.8786999334
 20
75.7524144385
 30
0.0
 40
5.0
100
AcDbArc
 50
90.0
 51
180.0
  0
ARC
  5
596
100
AcDbEntity
  8
L1_
  6
CONTINUOUS
 62
         7
100
AcDbCircle
 10
1547.8786999334
 20
-90.2400166132
 30
0.0
 40
5.0
100
AcDbArc
 50
180.0
 51
270.0
  0
ARC
  5
597
100
AcDbEntity
  8
L1_
  6
CONTINUOUS
 62
         7
100
AcDbCircle
 10
1547.8786999334
 20
-163.2400166132
 30
0.0
 40
5.0
100
AcDbArc
 50
90.0
 51
180.0
  0
DIMENSION
  5
59A
100
AcDbEntity
  8
L1_
  6
CONTINUOUS
 62
         4
100
AcDbDimension
  2
*D22
 10
1599.8736999334
 20
-88.6067385362
 30
0.0
 11
1604.1305607727
 21
-84.5467385362
 31
0.0
  3
DIMSTYLE2
100
AcDbAlignedDimension
 13
1599.8736999334
 23
-97.7400166132
 33
0.0
 14
1627.8636999334
 24
-97.7400166132
 34
0.0
100
AcDbRotatedDimension
  0
DIMENSION
  5
5A8
100
AcDbEntity
  8
L1_
  6
CONTINUOUS
 62
         4
100
AcDbDimension
  2
*D23
 10
1661.2494140106
 20
-109.2400166132
 30
0.0
 11
1657.1894140106
 21
-134.0316832799
 31
0.0
  3
DIMSTYLE2
100
AcDbAlignedDimension
 13
1589.9210611229
 23
-109.2400166132
 33
0.0
 14
1589.9210611229
 24
-144.2400166132
 34
0.0
 50
90.0
100
AcDbRotatedDimension
  0
DIMENSION
  5
5B6
100
AcDbEntity
  8
L1_
  6
CONTINUOUS
 62
         4
100
AcDbDimension
  2
*D24
 10
1680.0975273403
 20
-102.7400166132
 30
0.0
 11
1676.0375273403
 21
-134.0316832799
 31
0.0
  3
DIMSTYLE2
100
AcDbAlignedDimension
 13
1643.7186999334
 23
-102.7400166132
 33
0.0
 14
1643.7186999334
 24
-150.7400166132
 34
0.0
 50
90.0
100
AcDbRotatedDimension
  0
DIMENSION
  5
5C4
100
AcDbEntity
  8
L1_
  6
CONTINUOUS
 62
         4
100
AcDbDimension
  2
*D25
 10
1590.9210611229
 20
-189.6046795837
 30
0.0
 11
1608.9971291083
 21
-185.5446795837
 31
0.0
  3
DIMSTYLE2
100
AcDbAlignedDimension
 13
1590.9210611229
 23
-151.2400166132
 33
0.0
 14
1643.9186999334
 24
-151.5853160748
 34
0.0
100
AcDbRotatedDimension
  0
DIMENSION
  5
5D2
100
AcDbEntity
  8
L1_
  6
CONTINUOUS
 62
         4
100
AcDbDimension
  2
*D26
 10
1643.9186999334
 20
-201.3486262171
 30
0.0
 11
1594.420400196
 21
-197.2886262171
 31
0.0
  3
DIMSTYLE2
100
AcDbAlignedDimension
 13
1643.9186999334
 23
-151.1245465594
 33
0.0
 14
1563.9186999334
 24
-144.7400166132
 34
0.0
100
AcDbRotatedDimension
  0
DIMENSION
  5
5E0
100
AcDbEntity
  8
L1_
  6
CONTINUOUS
 62
         4
100
AcDbDimension
  2
*D27
 10
1643.9186999334
 20
177.6605605892
 30
0.0
 11
1610.762279875
 21
181.7205605892
 31
0.0
  3
DIMSTYLE2
100
AcDbAlignedDimension
 13
1643.9186999334
 23
136.6369443847
 33
0.0
 14
1592.9186999334
 24
142.7524144385
 34
0.0
100
AcDbRotatedDimension
  0
DIMENSION
  5
5EE
100
AcDbEntity
  8
L1_
  6
CONTINUOUS
 62
         4
100
AcDbDimension
  2
*D28
 10
1643.9186999334
 20
167.6248243751
 30
0.0
 11
1623.289156284
 21
171.6848243751
 31
0.0
  3
DIMSTYLE2
100
AcDbAlignedDimension
 13
1643.9186999334
 23
136.6369443847
 33
0.0
 14
1632.9186999334
 24
141.2524144385
 34
0.0
100
AcDbRotatedDimension
  0
DIMENSION
  5
5FD
100
AcDbEntity
  8
L1_
  6
CONTINUOUS
 62
         4
100
AcDbDimension
  2
*D29
 10
1632.9186999334
 20
156.521456649
 30
0.0
 11
1615.7009393246
 21
160.581456649
 31
0.0
  3
DIMSTYLE2
100
AcDbAlignedDimension
 13
1632.9186999334
 23
141.2524144385
 33
0.0
 14
1634.9186999334
 24
141.2524144385
 34
0.0
100
AcDbRotatedDimension
  0
DIMENSION
  5
60D
100
AcDbEntity
  8
L1_
  6
CONTINUOUS
 62
         4
100
AcDbDimension
  2
*D30
 10
1680.8186605768
 20
141.2524144385
 30
0.0
 11
1676.7586605768
 21
99.5021600365
 31
0.0
  3
DIMSTYLE2
100
AcDbAlignedDimension
 13
1635.4585729145
 23
141.2524144385
 33
0.0
 14
1634.9186999334
 24
83.2524144385
 34
0.0
 50
90.0
100
AcDbRotatedDimension
  0
DIMENSION
  5
61B
100
AcDbEntity
  8
L1_
  6
CONTINUOUS
 62
         4
100
AcDbDimension
  2
*D31
 10
1670.9175476125
 20
140.2524144385
 30
0.0
 11
1666.8575476125
 21
99.6351255183
 31
0.0
  3
DIMSTYLE2
100
AcDbAlignedDimension
 13
1634.9186999334
 23
140.2524144385
 33
0.0
 14
1634.9186999334
 24
84.2524144385
 34
0.0
 50
90.0
100
AcDbRotatedDimension
  0
DIMENSION
  5
629
100
AcDbEntity
  8
L1_
  6
CONTINUOUS
 62
         4
100
AcDbDimension
  2
*D32
 10
1622.9136999334
 20
70.2713197536
 30
0.0
 11
1624.23680635
 21
74.3313197536
 31
0.0
  3
DIMSTYLE2
100
AcDbAlignedDimension
 13
1622.9136999334
 23
104.4176846612
 33
0.0
 14
1643.9186999334
 24
87.8678844924
 34
0.0
100
AcDbRotatedDimension
  0
DIMENSION
  5
637
100
AcDbEntity
  8
L1_
  6
CONTINUOUS
 62
         4
100
AcDbDimension
  2
*D33
 10
1643.9186999334
 20
59.0779659429
 30
0.0
 11
1616.6598774823
 21
63.1379659429
 31
0.0
  3
DIMSTYLE2
100
AcDbAlignedDimension
 13
1643.9186999334
 23
87.8678844924
 33
0.0
 14
1604.8236999334
 24
104.4176846581
 34
0.0
100
AcDbRotatedDimension
  0
DIMENSION
  5
645
100
AcDbEntity
  8
L1_
  6
CONTINUOUS
 62
         4
100
AcDbDimension
  2
*D34
 10
1613.8012783126
 20
117.2024144385
 30
0.0
 11
1609.7412783126
 21
29.6243455289
 31
0.0
  3
DIMSTYLE2
100
AcDbAlignedDimension
 13
1604.8236999334
 23
117.2024144385
 33
0.0
 14
1604.8236999334
 24
107.3024144385
 34
0.0
 50
90.0
100
AcDbRotatedDimension
  0
TEXT
  5
653
100
AcDbEntity
  8
L1_
  6
CONTINUOUS
 62
         2
100
AcDbText
 10
1830.4058372732
 20
186.4382511173
 30
0.0
 40
4.5
  1
532277
 41
0.98
  7
BOX
100
AcDbText
  0
ENDSEC
  0
SECTION
  2
OBJECTS
  0
DICTIONARY
  5
19
100
AcDbDictionary
  3
ACAD_GROUP
350
1A
  3
ACAD_MLINESTYLE
350
1B
  0
DICTIONARY
  5
1A
102
{ACAD_REACTORS
330
19
102
}
100
AcDbDictionary
  0
DICTIONARY
  5
1B
102
{ACAD_REACTORS
330
19
102
}
100
AcDbDictionary
  3
STANDARD
350
1C
  0
MLINESTYLE
  5
1C
102
{ACAD_REACTORS
330
1B
102
}
100
AcDbMlineStyle
  2
STANDARD
 70
         0
  3

 62
         0
 51
90.0
 52
90.0
 71
         2
 49
0.5
 62
       256
  6
BYLAYER
 49
-0.5
 62
       256
  6
BYLAYER
  0
ENDSEC
  0
EOF
