  0
SECTION
  2
HEADER
  9
$ACADVER
  1
AC1014
  9
$ACADMAINTVER
 70
         0
  9
$DWGCODEPAGE
  3
BIG5
  9
$INSBASE
 10
0.0
 20
0.0
 30
0.0
  9
$EXTMIN
 10
1143.1762232378
 20
-57.8427881189
 30
0.0
  9
$EXTMAX
 10
1727.8769573084
 20
236.9451862013
 30
0.0
  9
$LIMMIN
 10
0.0
 20
0.0
  9
$LIMMAX
 10
0.0
 20
0.0
  9
$ORTHOMODE
 70
         0
  9
$REGENMODE
 70
         1
  9
$FILLMODE
 70
         1
  9
$QTEXTMODE
 70
         0
  9
$MIRRTEXT
 70
         1
  9
$DRAGMODE
 70
         2
  9
$LTSCALE
 40
1.0
  9
$OSMODE
 70
         0
  9
$ATTMODE
 70
         1
  9
$TEXTSIZE
 40
2.7
  9
$TRACEWID
 40
0.05
  9
$TEXTSTYLE
  7
STANDARD
  9
$CLAYER
  8
0
  9
$CELTYPE
  6
CONTINUOUS
  9
$CECOLOR
 62
        16
  9
$CELTSCALE
 40
1.0
  9
$DELOBJ
 70
         1
  9
$DISPSILH
 70
         0
  9
$DIMSCALE
 40
1.0
  9
$DIMASZ
 40
0.18
  9
$DIMEXO
 40
0.0625
  9
$DIMDLI
 40
0.38
  9
$DIMRND
 40
0.0
  9
$DIMDLE
 40
0.0
  9
$DIMEXE
 40
0.25
  9
$DIMTP
 40
0.01
  9
$DIMTM
 40
-0.01
  9
$DIMTXT
 40
2.7
  9
$DIMCEN
 40
0.09
  9
$DIMTSZ
 40
0.0
  9
$DIMTOL
 70
         0
  9
$DIMLIM
 70
         0
  9
$DIMTIH
 70
         1
  9
$DIMTOH
 70
         1
  9
$DIMSE1
 70
         0
  9
$DIMSE2
 70
         0
  9
$DIMTAD
 70
         0
  9
$DIMZIN
 70
         0
  9
$DIMBLK
  1

  9
$DIMASO
 70
         1
  9
$DIMSHO
 70
         1
  9
$DIMPOST
  1

  9
$DIMAPOST
  1

  9
$DIMALT
 70
         0
  9
$DIMALTD
 70
         2
  9
$DIMALTF
 40
25.4
  9
$DIMLFAC
 40
1.0
  9
$DIMTOFL
 70
         0
  9
$DIMTVP
 40
0.0
  9
$DIMTIX
 70
         0
  9
$DIMSOXD
 70
         0
  9
$DIMSAH
 70
         0
  9
$DIMBLK1
  1

  9
$DIMBLK2
  1

  9
$DIMSTYLE
  2
STANDARD
  9
$DIMCLRD
 70
         0
  9
$DIMCLRE
 70
         0
  9
$DIMCLRT
 70
        16
  9
$DIMTFAC
 40
0.7
  9
$DIMGAP
 40
0.09
  9
$DIMJUST
 70
         0
  9
$DIMSD1
 70
         0
  9
$DIMSD2
 70
         0
  9
$DIMTOLJ
 70
         1
  9
$DIMTZIN
 70
         0
  9
$DIMALTZ
 70
         0
  9
$DIMALTTZ
 70
         0
  9
$DIMFIT
 70
         3
  9
$DIMUPT
 70
         0
  9
$DIMUNIT
 70
         2
  9
$DIMDEC
 70
         4
  9
$DIMTDEC
 70
         4
  9
$DIMALTU
 70
         2
  9
$DIMALTTD
 70
         2
  9
$DIMTXSTY
  7
STANDARD
  9
$DIMAUNIT
 70
         0
  9
$LUNITS
 70
         2
  9
$LUPREC
 70
        10
  9
$SKETCHINC
 40
0.1
  9
$FILLETRAD
 40
0.0
  9
$AUNITS
 70
         0
  9
$AUPREC
 70
         0
  9
$MENU
  1
acad
  9
$ELEVATION
 40
0.0
  9
$PELEVATION
 40
0.0
  9
$THICKNESS
 40
0.0
  9
$LIMCHECK
 70
         0
  9
$BLIPMODE
 70
         1
  9
$CHAMFERA
 40
0.0
  9
$CHAMFERB
 40
0.0
  9
$CHAMFERC
 40
0.0
  9
$CHAMFERD
 40
0.0
  9
$SKPOLY
 70
         0
  9
$TDCREATE
 40
0.000000000
  9
$TDUPDATE
 40
0.000000000
  9
$TDINDWG
 40
0.0000000000
  9
$TDUSRTIMER
 40
0.0000000000
  9
$USRTIMER
 70
         1
  9
$ANGBASE
 50
0.0
  9
$ANGDIR
 70
         0
  9
$PDMODE
 70
         2
  9
$PDSIZE
 40
0.0
  9
$PLINEWID
 40
0.0
  9
$COORDS
 70
         1
  9
$SPLFRAME
 70
         0
  9
$SPLINETYPE
 70
         6
  9
$SPLINESEGS
 70
         8
  9
$ATTDIA
 70
         0
  9
$ATTREQ
 70
         1
  9
$HANDLING
 70
         1
  9
$HANDSEED
  5
4E3
  9
$SURFTAB1
 70
         6
  9
$SURFTAB2
 70
         6
  9
$SURFTYPE
 70
         6
  9
$SURFU
 70
         6
  9
$SURFV
 70
         6
  9
$UCSNAME
  2

  9
$UCSORG
 10
0.0
 20
0.0
 30
0.0
  9
$UCSXDIR
 10
1.0
 20
0.0
 30
0.0
  9
$UCSYDIR
 10
0.0
 20
1.0
 30
0.0
  9
$PUCSNAME
  2

  9
$PUCSORG
 10
0.0
 20
0.0
 30
0.0
  9
$PUCSXDIR
 10
1.0
 20
0.0
 30
0.0
  9
$PUCSYDIR
 10
0.0
 20
1.0
 30
0.0
  9
$USERI1
 70
         0
  9
$USERI2
 70
         0
  9
$USERI3
 70
         0
  9
$USERI4
 70
         0
  9
$USERI5
 70
         0
  9
$USERR1
 40
0.0
  9
$USERR2
 40
0.0
  9
$USERR3
 40
0.0
  9
$USERR4
 40
0.0
  9
$USERR5
 40
0.0
  9
$WORLDVIEW
 70
         1
  9
$SHADEDGE
 70
         3
  9
$SHADEDIF
 70
        70
  9
$TILEMODE
 70
         1
  9
$MAXACTVP
 70
        16
  9
$PINSBASE
 10
0.0
 20
0.0
 30
0.0
  9
$PLIMCHECK
 70
         0
  9
$PEXTMIN
 10
1.0000000000E+20
 20
1.0000000000E+20
 30
1.0000000000E+20
  9
$PEXTMAX
 10
-1.0000000000E+20
 20
-1.0000000000E+20
 30
-1.0000000000E+20
  9
$PLIMMIN
 10
0.0
 20
0.0
  9
$PLIMMAX
 10
12.0
 20
9.0
  9
$UNITMODE
 70
         0
  9
$VISRETAIN
 70
         0
  9
$PLINEGEN
 70
         1
  9
$PSLTSCALE
 70
         0
  9
$TREEDEPTH
 70
      3020
  9
$PICKSTYLE
 70
         1
  9
$CMLSTYLE
  2
STANDARD
  9
$CMLJUST
 70
         0
  9
$CMLSCALE
 40
1.0
  9
$PROXYGRAPHICS
 70
         0
  9
$MEASUREMENT
 70
         0
  0
ENDSEC
  0
SECTION
  2
CLASSES
  0
CLASS
  1
LWPOLYLINE
  2
AcDbPolyline
  3
"AutoCAD"
 90
        0
280
         0
281
         1
  0
CLASS
  1
IMAGE
  2
AcDbRasterImage
  3
ISM
 90
      127
280
         0
281
         1
  0
CLASS
  1
OLE2FRAME
  2
AcDbOle2Frame
  3
""
 90
        0
280
         0
281
         1
  0
CLASS
  1
HATCH
  2
AcDbHatch
  3
"ACAD_SEDONA"
 90
        0
280
         0
281
         1
  0
CLASS
  1
DICTIONARYVAR
  2
AcDbDictionaryVar
  3
"AutoCAD"
 90
        0
280
         0
281
         0
  0
CLASS
  1
RASTERVARIABLES
  2
AcDbRasterVariables
  3
ISM
 90
        0
280
         0
281
         0
  0
CLASS
  1
IMAGEDEF
  2
AcDbRasterImageDef
  3
ISM
 90
        0
280
         0
281
         0
  0
CLASS
  1
IMAGEDEF_REACTOR
  2
AcDbRasterImageDefReactor
  3
ISM
 90
        1
280
         0
281
         0
  0
CLASS
  1
IDBUFFER
  2
AcDbIdBuffer
  3
"Acad"
 90
        0
280
         0
281
         0
  0
CLASS
  1
SPATIAL_FILTER
  2
AcDbSpatialFilter
  3
"Acad"
 90
        0
280
         0
281
         0
  0
CLASS
  1
XRECORD
  2
AcDbXrecord
  3
"<Built In>"
 90
        0
280
         0
281
         0
  0
CLASS
  1
SORTENTSTABLE
  2
AcDbSortentsTable
  3
"AutoCAD"
 90
        0
280
         0
281
         0
  0
CLASS
  1
LAYER_INDEX
  2
AcDbLayerIndex
  3
"Acad"
 90
        0
280
         0
281
         0
  0
CLASS
  1
SPATIAL_INDEX
  2
AcDbSpatialIndex
  3
"Acad"
 90
        0
280
         0
281
         0
  0
CLASS
  1
OBJECT_PTR
  2
CAseDLPNTableRecord
  3
"ASE-LPNTableRecord"
 90
        1
280
         0
281
         0
  0
CLASS
  1
LAYOUT
  2
AcDbLayout
  3
"AutoCAD 2000"
 90
        1
280
         0
281
         0
  0
CLASS
  1
PLOTSETTINGS
  2
AcDbPlotSettings
  3
"AutoCAD 2000"
 90
        1
280
         0
281
         0
  0
CLASS
  1
ACDBDICTIONARYWDFLT
  2
AcDbDictionaryWithDefault
  3
"AutoCAD 2000"
 90
        1
280
         0
281
         0
  0
CLASS
  1
ACDBPLACEHOLDER
  2
AcDbPlaceHolder
  3
"AutoCAD 2000"
 90
        1
280
         0
281
         0
  0
CLASS
  1
VBA_PROJECT
  2
AcDbVbaProject
  3
"acadvba"
 90
        1
280
         0
281
         0
  0
CLASS
  1
WIPEOUT
  2
AcDbWipeout
  3
WipeOut|AutoCAD Express Tool|expresstools@autodesk.com
 90
      127
280
         0
281
         1
  0
CLASS
  1
WIPEOUTVARIABLES
  2
AcDbWipeoutVariables
  3
WipeOut|AutoCAD Express Tool|expresstools@autodesk.com
 90
        0
280
         0
281
         0
  0
CLASS
  1
RTEXT
  2
RText
  3
RText|AutoCAD Express Tool|expresstools@autodesk.com
 90
        0
280
         0
281
         1
  0
CLASS
  1
ARCALIGNEDTEXT
  2
AcDbArcAlignedText
  3
ATEXT|AutoCAD Express Tool|expresstools@autodesk.com
 90
        0
280
         0
281
         1
  0
ENDSEC
  0
SECTION
  2
TABLES
  0
TABLE
  2
VPORT
  5
7
100
AcDbSymbolTable
 70
         1
  0
VPORT
  5
15
100
AcDbSymbolTableRecord
100
AcDbViewportTableRecord
  2
*ACTIVE
 70
         0
 10
0.0
 20
0.0
 11
1.0
 21
1.0
 12
1435.5265902731
 22
89.5511990412
 13
0.0
 23
0.0
 14
1.0
 24
1.0
 15
0.0
 25
0.0
 16
0.0
 26
0.0
 36
1.0
 17
0.0
 27
0.0
 37
0.0
 40
294.7879743202
 41
1.9834619625
 42
50.0
 43
0.0
 44
0.0
 50
0.0
 51
0.0
 71
         0
 72
       100
 73
         1
 74
         1
 75
         0
 76
         0
 77
         0
 78
         0
  0
ENDTAB
  0
TABLE
  2
LTYPE
  5
4
100
AcDbSymbolTable
 70
         6
  0
LTYPE
  5
11
100
AcDbSymbolTableRecord
100
AcDbLinetypeTableRecord
  2
BYBLOCK
 70
        64
  3

 72
        65
 73
         0
 40
0.0
  0
LTYPE
  5
12
100
AcDbSymbolTableRecord
100
AcDbLinetypeTableRecord
  2
BYLAYER
 70
        64
  3

 72
        65
 73
         0
 40
0.0
  0
LTYPE
  5
13
100
AcDbSymbolTableRecord
100
AcDbLinetypeTableRecord
  2
CONTINUOUS
 70
        64
  3
Solid line
 72
        65
 73
         0
 40
0.0
  0
LTYPE
  5
1D
100
AcDbSymbolTableRecord
100
AcDbLinetypeTableRecord
  2
DASHED
 70
        64
  3
_ _ _ _ _ _ _ _ _ _ _ _ _ _ _ _
 72
        65
 73
         2
 40
0.2
 49
0.1
 74
         0
 49
-0.1
 74
         0
  0
LTYPE
  5
1E
100
AcDbSymbolTableRecord
100
AcDbLinetypeTableRecord
  2
CENTER
 70
        64
  3
___ _ ___ _ ___ _ ___ _ ___ _ ___ _ ___ _ ___ _
 72
        65
 73
         4
 40
0.95
 49
0.625
 74
         0
 49
-0.125
 74
         0
 49
0.075
 74
         0
 49
-0.125
 74
         0
  0
LTYPE
  5
1F
100
AcDbSymbolTableRecord
100
AcDbLinetypeTableRecord
  2
PHANTOM
 70
        64
  3
______  __  __  ______  __  __  ______  __  __  
 72
        65
 73
         6
 40
1.025
 49
0.625
 74
         0
 49
-0.125
 74
         0
 49
0.075
 74
         0
 49
-0.125
 74
         0
 49
0.075
 74
         0
 49
-0.125
 74
         0
  0
ENDTAB
  0
TABLE
  2
LAYER
  5
2
100
AcDbSymbolTable
 70
         5
  0
LAYER
  5
14
100
AcDbSymbolTableRecord
100
AcDbLayerTableRecord
  2
0
 70
         0
 62
         7
  6
CONTINUOUS
  0
LAYER
  5
21
100
AcDbSymbolTableRecord
100
AcDbLayerTableRecord
  2
_____U
 70
         1
 62
         7
  6
CONTINUOUS
  0
LAYER
  5
22
100
AcDbSymbolTableRecord
100
AcDbLayerTableRecord
  2
_Y__________
 70
         0
 62
         7
  6
CONTINUOUS
  0
LAYER
  5
23
100
AcDbSymbolTableRecord
100
AcDbLayerTableRecord
  2
L1_100
 70
         0
 62
         7
  6
CONTINUOUS
  0
LAYER
  5
14E
100
AcDbSymbolTableRecord
100
AcDbLayerTableRecord
  2
DEFPOINTS
 70
         0
 62
        -7
  6
CONTINUOUS
  0
ENDTAB
  0
TABLE
  2
STYLE
  5
3
100
AcDbSymbolTable
 70
        15
  0
STYLE
  5
17
100
AcDbSymbolTableRecord
100
AcDbTextStyleTableRecord
  2
STANDARD
 70
         0
 40
0.0
 41
1.0
 50
0.0
 71
         0
 42
0.0
  3
txt
  4

  0
STYLE
  5
157
100
AcDbSymbolTableRecord
100
AcDbTextStyleTableRecord
  2
BOX
 70
         0
 40
1.0
 41
1.0
 50
0.0
 71
         0
 42
0.2
  3
txt.shx
  4

  0
STYLE
  5
165
100
AcDbSymbolTableRecord
100
AcDbTextStyleTableRecord
  2
BOX
 70
         0
 40
1.0
 41
1.0
 50
0.0
 71
         0
 42
0.2
  3
txt.shx
  4

  0
STYLE
  5
176
100
AcDbSymbolTableRecord
100
AcDbTextStyleTableRecord
  2
BOX
 70
         0
 40
1.0
 41
1.0
 50
0.0
 71
         0
 42
0.2
  3
txt.shx
  4

  0
STYLE
  5
194
100
AcDbSymbolTableRecord
100
AcDbTextStyleTableRecord
  2
BOX
 70
         0
 40
1.0
 41
1.0
 50
0.0
 71
         0
 42
0.2
  3
txt.shx
  4

  0
STYLE
  5
1CB
100
AcDbSymbolTableRecord
100
AcDbTextStyleTableRecord
  2
BOX
 70
         0
 40
1.0
 41
1.0
 50
0.0
 71
         0
 42
0.2
  3
txt.shx
  4

  0
STYLE
  5
485
100
AcDbSymbolTableRecord
100
AcDbTextStyleTableRecord
  2
BOX
 70
         0
 40
1.0
 41
1.0
 50
0.0
 71
         0
 42
0.2
  3
txt.shx
  4

  0
STYLE
  5
495
100
AcDbSymbolTableRecord
100
AcDbTextStyleTableRecord
  2
BOX
 70
         0
 40
1.0
 41
1.0
 50
0.0
 71
         0
 42
0.2
  3
txt.shx
  4

  0
STYLE
  5
4A3
100
AcDbSymbolTableRecord
100
AcDbTextStyleTableRecord
  2
BOX
 70
         0
 40
1.0
 41
1.0
 50
0.0
 71
         0
 42
0.2
  3
txt.shx
  4

  0
STYLE
  5
4B1
100
AcDbSymbolTableRecord
100
AcDbTextStyleTableRecord
  2
BOX
 70
         0
 40
1.0
 41
1.0
 50
0.0
 71
         0
 42
0.2
  3
txt.shx
  4

  0
STYLE
  5
4BF
100
AcDbSymbolTableRecord
100
AcDbTextStyleTableRecord
  2
BOX
 70
         0
 40
1.0
 41
1.0
 50
0.0
 71
         0
 42
0.2
  3
txt.shx
  4

  0
STYLE
  5
4CD
100
AcDbSymbolTableRecord
100
AcDbTextStyleTableRecord
  2
BOX
 70
         0
 40
1.0
 41
1.0
 50
0.0
 71
         0
 42
0.2
  3
txt.shx
  4

  0
STYLE
  5
4DC
100
AcDbSymbolTableRecord
100
AcDbTextStyleTableRecord
  2
BOX
 70
         0
 40
1.0
 41
1.0
 50
0.0
 71
         0
 42
0.2
  3
txt.shx
  4

  0
STYLE
  5
4DE
100
AcDbSymbolTableRecord
100
AcDbTextStyleTableRecord
  2
BOX
 70
         0
 40
1.0
 41
1.0
 50
0.0
 71
         0
 42
0.2
  3
txt.shx
  4

  0
STYLE
  5
4E1
100
AcDbSymbolTableRecord
100
AcDbTextStyleTableRecord
  2
BOX
 70
         0
 40
1.0
 41
1.0
 50
0.0
 71
         0
 42
0.2
  3
txt.shx
  4

  0
ENDTAB
  0
TABLE
  2
VIEW
  5
5
100
AcDbSymbolTable
 70
         0
  0
ENDTAB
  0
TABLE
  2
UCS
  5
6
100
AcDbSymbolTable
 70
         1
  0
UCS
  5
20
100
AcDbSymbolTableRecord
100
AcDbUCSTableRecord
  2
CK_VIEW_1
 70
         0
 10
0.0
 20
0.0
 30
1.0
 11
1.0
 21
0.0
 31
0.0
 12
0.0
 22
1.0
 32
0.0
  0
ENDTAB
  0
TABLE
  2
APPID
  5
8
100
AcDbSymbolTable
 70
         1
  0
APPID
  5
16
100
AcDbSymbolTableRecord
100
AcDbRegAppTableRecord
  2
ACAD
 70
         0
  0
ENDTAB
  0
TABLE
  2
DIMSTYLE
  5
9
100
AcDbSymbolTable
 70
         4
  0
DIMSTYLE
105
18
100
AcDbSymbolTableRecord
100
AcDbDimStyleTableRecord
  2
STANDARD
 70
         0
  3

  4

  5

  6

  7

 40
1.0
 41
0.18
 42
0.0625
 43
0.38
 44
0.18
 45
0.0
 46
0.0
 47
0.0
 48
0.0
 71
         0
 72
         0
 73
         1
 74
         1
 75
         0
 76
         0
 77
         0
 78
         0
140
0.18
141
0.09
142
0.0
143
25.4
144
1.0
145
0.0
146
1.0
147
0.09
170
         0
171
         2
172
         0
173
         0
174
         0
175
         0
176
         0
177
         0
178
         0
270
         2
271
         4
272
         4
273
         2
274
         2
275
         0
280
         0
281
         0
282
         0
283
         1
284
         0
285
         0
286
         0
287
         0
288
         0
340
17
  0
DIMSTYLE
105
14A
100
AcDbSymbolTableRecord
100
AcDbDimStyleTableRecord
  2
DIMSTYLE1
 70
         0
  3

  4

  5

  6

  7

 40
1.0
 41
2.7
 42
0.0625
 43
0.38
 44
2.7
 45
0.0
 46
0.0
 47
0.0
 48
0.0
 71
         0
 72
         0
 73
         1
 74
         1
 75
         0
 76
         0
 77
         0
 78
         0
140
2.7
141
0.09
142
0.0
143
25.4
144
1.0
145
0.0
146
1.0
147
0.09
170
         0
171
         2
172
         0
173
         0
174
         0
175
         0
176
         0
177
         0
178
         0
270
         2
271
         4
272
         4
273
         2
274
         2
275
         0
280
         0
281
         0
282
         0
283
         1
284
         0
285
         0
286
         0
287
         0
288
         0
340
17
  0
DIMSTYLE
105
16B
100
AcDbSymbolTableRecord
100
AcDbDimStyleTableRecord
  2
DIMSTYLE2
 70
         0
  3

  4

  5

  6

  7

 40
1.0
 41
2.6666666664
 42
0.0625
 43
0.38
 44
2.6666666664
 45
0.0
 46
0.0
 47
0.0
 48
0.0
 71
         0
 72
         0
 73
         1
 74
         1
 75
         0
 76
         0
 77
         0
 78
         0
140
2.6666666664
141
0.09
142
0.0
143
25.4
144
1.0
145
0.0
146
1.0
147
0.09
170
         0
171
         2
172
         0
173
         0
174
         0
175
         0
176
         0
177
         0
178
         0
270
         2
271
         4
272
         4
273
         2
274
         2
275
         0
280
         0
281
         0
282
         0
283
         1
284
         0
285
         0
286
         0
287
         0
288
         0
340
17
  0
DIMSTYLE
105
189
100
AcDbSymbolTableRecord
100
AcDbDimStyleTableRecord
  2
DIMSTYLE3
 70
         0
  3

  4

  5

  6

  7

 40
1.0
 41
2.16
 42
0.0625
 43
0.38
 44
2.16
 45
0.0
 46
0.0
 47
0.0
 48
0.0
 71
         0
 72
         0
 73
         1
 74
         1
 75
         0
 76
         0
 77
         0
 78
         0
140
2.16
141
0.09
142
0.0
143
25.4
144
1.0
145
0.0
146
1.0
147
0.09
170
         0
171
         2
172
         0
173
         0
174
         0
175
         0
176
         0
177
         0
178
         0
270
         2
271
         4
272
         4
273
         2
274
         2
275
         0
280
         0
281
         0
282
         0
283
         1
284
         0
285
         0
286
         0
287
         0
288
         0
340
17
  0
ENDTAB
  0
TABLE
  2
BLOCK_RECORD
  5
1
100
AcDbSymbolTable
 70
        13
  0
BLOCK_RECORD
  5
A
100
AcDbSymbolTableRecord
100
AcDbBlockTableRecord
  2
*MODEL_SPACE
  0
BLOCK_RECORD
  5
B
100
AcDbSymbolTableRecord
100
AcDbBlockTableRecord
  2
*PAPER_SPACE
  0
BLOCK_RECORD
  5
14B
100
AcDbSymbolTableRecord
100
AcDbBlockTableRecord
  2
*D0
  0
BLOCK_RECORD
  5
15A
100
AcDbSymbolTableRecord
100
AcDbBlockTableRecord
  2
*D1
  0
BLOCK_RECORD
  5
16C
100
AcDbSymbolTableRecord
100
AcDbBlockTableRecord
  2
*D2
  0
BLOCK_RECORD
  5
18A
100
AcDbSymbolTableRecord
100
AcDbBlockTableRecord
  2
*D3
  0
BLOCK_RECORD
  5
1C0
100
AcDbSymbolTableRecord
100
AcDbBlockTableRecord
  2
*D4
  0
BLOCK_RECORD
  5
436
100
AcDbSymbolTableRecord
100
AcDbBlockTableRecord
  2
*X5
  0
BLOCK_RECORD
  5
47A
100
AcDbSymbolTableRecord
100
AcDbBlockTableRecord
  2
*D6
  0
BLOCK_RECORD
  5
488
100
AcDbSymbolTableRecord
100
AcDbBlockTableRecord
  2
*D7
  0
BLOCK_RECORD
  5
498
100
AcDbSymbolTableRecord
100
AcDbBlockTableRecord
  2
*D8
  0
BLOCK_RECORD
  5
4A6
100
AcDbSymbolTableRecord
100
AcDbBlockTableRecord
  2
*D9
  0
BLOCK_RECORD
  5
4B4
100
AcDbSymbolTableRecord
100
AcDbBlockTableRecord
  2
*D10
  0
BLOCK_RECORD
  5
4C2
100
AcDbSymbolTableRecord
100
AcDbBlockTableRecord
  2
*D11
  0
BLOCK_RECORD
  5
4D0
100
AcDbSymbolTableRecord
100
AcDbBlockTableRecord
  2
*D12
  0
ENDTAB
  0
ENDSEC
  0
SECTION
  2
BLOCKS
  0
BLOCK
  5
D
100
AcDbEntity
  8
0
100
AcDbBlockBegin
  2
*MODEL_SPACE
 70
         0
 10
0.0
 20
0.0
 30
0.0
  3
*MODEL_SPACE
  1

  0
ENDBLK
  5
E
100
AcDbEntity
  8
0
100
AcDbBlockEnd
  0
BLOCK
  5
F
100
AcDbEntity
 67
         1
  8
0
100
AcDbBlockBegin
  2
*PAPER_SPACE
 70
         0
 10
0.0
 20
0.0
 30
0.0
  3
*PAPER_SPACE
  1

  0
ENDBLK
  5
10
100
AcDbEntity
 67
         1
  8
0
100
AcDbBlockEnd
  0
BLOCK
  5
14C
100
AcDbEntity
  8
0
100
AcDbBlockBegin
  2
*D0
 70
        65
 10
0.0
 20
0.0
 30
0.0
  3
*D0
  1

  0
POINT
  5
14F
100
AcDbEntity
  8
DEFPOINTS
  6
CONTINUOUS
 62
         0
100
AcDbPoint
 10
1467.1033403763
 20
211.6366188629
 30
0.0
  0
POINT
  5
150
100
AcDbEntity
  8
DEFPOINTS
  6
CONTINUOUS
 62
         0
100
AcDbPoint
 10
1467.1033403763
 20
150.1846417294
 30
0.0
  0
POINT
  5
151
100
AcDbEntity
  8
DEFPOINTS
  6
CONTINUOUS
 62
         0
100
AcDbPoint
 10
1392.1033403763
 20
172.4096417294
 30
0.0
  0
LINE
  5
152
100
AcDbEntity
  8
L1_100
  6
CONTINUOUS
 62
         4
100
AcDbLine
 10
1467.1033403763
 20
151.5346417294
 30
0.0
 11
1467.1033403763
 21
212.3116188629
 31
0.0
  0
LINE
  5
153
100
AcDbEntity
  8
L1_100
  6
CONTINUOUS
 62
         4
100
AcDbLine
 10
1392.1033403763
 20
173.7596417294
 30
0.0
 11
1392.1033403763
 21
212.3116188629
 31
0.0
  0
LINE
  5
154
100
AcDbEntity
  8
L1_100
  6
CONTINUOUS
 62
         4
100
AcDbLine
 10
1467.1033403763
 20
211.6366188629
 30
0.0
 11
1392.1033403763
 21
211.6366188629
 31
0.0
  0
SOLID
  5
155
100
AcDbEntity
  8
L1_100
  6
CONTINUOUS
 62
         4
100
AcDbTrace
 10
1467.1033403763
 20
211.6366188629
 30
0.0
 11
1464.4033403763
 21
211.2316188629
 31
0.0
 12
1464.4033403763
 22
212.0416188629
 32
0.0
 13
1467.1033403763
 23
211.6366188629
 33
0.0
  0
SOLID
  5
156
100
AcDbEntity
  8
L1_100
  6
CONTINUOUS
 62
         4
100
AcDbTrace
 10
1392.1033403763
 20
211.6366188629
 30
0.0
 11
1394.8033403763
 21
212.0416188629
 31
0.0
 12
1394.8033403763
 22
211.2316188629
 32
0.0
 13
1392.1033403763
 23
211.6366188629
 33
0.0
  0
TEXT
  5
158
100
AcDbEntity
  8
L1_100
  6
CONTINUOUS
 62
         4
100
AcDbText
 10
1423.9171287503
 20
213.6616188629
 30
0.0
 40
2.7
  1
75
  7
BOX
100
AcDbText
  0
ENDBLK
  5
159
100
AcDbEntity
  8
0
  6
CONTINUOUS
100
AcDbBlockEnd
  0
BLOCK
  5
15B
100
AcDbEntity
  8
0
100
AcDbBlockBegin
  2
*D1
 70
        65
 10
0.0
 20
0.0
 30
0.0
  3
*D1
  1

  0
POINT
  5
15D
100
AcDbEntity
  8
DEFPOINTS
  6
CONTINUOUS
 62
         0
100
AcDbPoint
 10
1326.7033403763
 20
218.8207328232
 30
0.0
  0
POINT
  5
15E
100
AcDbEntity
  8
DEFPOINTS
  6
CONTINUOUS
 62
         0
100
AcDbPoint
 10
1326.7033403763
 20
162.0074490628
 30
0.0
  0
POINT
  5
15F
100
AcDbEntity
  8
DEFPOINTS
  6
CONTINUOUS
 62
         0
100
AcDbPoint
 10
1467.1033403763
 20
150.1846417294
 30
0.0
  0
LINE
  5
160
100
AcDbEntity
  8
L1_100
  6
CONTINUOUS
 62
         4
100
AcDbLine
 10
1326.7033403763
 20
163.3574490628
 30
0.0
 11
1326.7033403763
 21
219.4957328232
 31
0.0
  0
LINE
  5
161
100
AcDbEntity
  8
L1_100
  6
CONTINUOUS
 62
         4
100
AcDbLine
 10
1467.1033403763
 20
151.5346417294
 30
0.0
 11
1467.1033403763
 21
219.4957328232
 31
0.0
  0
LINE
  5
162
100
AcDbEntity
  8
L1_100
  6
CONTINUOUS
 62
         4
100
AcDbLine
 10
1326.7033403763
 20
218.8207328232
 30
0.0
 11
1467.1033403763
 21
218.8207328232
 31
0.0
  0
SOLID
  5
163
100
AcDbEntity
  8
L1_100
  6
CONTINUOUS
 62
         4
100
AcDbTrace
 10
1326.7033403763
 20
218.8207328232
 30
0.0
 11
1329.4033403763
 21
219.2257328232
 31
0.0
 12
1329.4033403763
 22
218.4157328232
 32
0.0
 13
1326.7033403763
 23
218.8207328232
 33
0.0
  0
SOLID
  5
164
100
AcDbEntity
  8
L1_100
  6
CONTINUOUS
 62
         4
100
AcDbTrace
 10
1467.1033403763
 20
218.8207328232
 30
0.0
 11
1464.4033403763
 21
218.4157328232
 31
0.0
 12
1464.4033403763
 22
219.2257328232
 32
0.0
 13
1467.1033403763
 23
218.8207328232
 33
0.0
  0
TEXT
  5
166
100
AcDbEntity
  8
L1_100
  6
CONTINUOUS
 62
         4
100
AcDbText
 10
1391.9195167953
 20
220.8457328232
 30
0.0
 40
2.7
  1
140.4
  7
BOX
100
AcDbText
  0
ENDBLK
  5
167
100
AcDbEntity
  8
0
  6
CONTINUOUS
100
AcDbBlockEnd
  0
BLOCK
  5
16D
100
AcDbEntity
  8
0
100
AcDbBlockBegin
  2
*D2
 70
        65
 10
0.0
 20
0.0
 30
0.0
  3
*D2
  1

  0
POINT
  5
16F
100
AcDbEntity
  8
DEFPOINTS
  6
CONTINUOUS
 62
         0
100
AcDbPoint
 10
1657.1569319304
 20
70.9286168407
 30
0.0
  0
POINT
  5
170
100
AcDbEntity
  8
DEFPOINTS
  6
CONTINUOUS
 62
         0
100
AcDbPoint
 10
1661.8844686424
 20
71.5004915053
 30
0.0
  0
LINE
  5
171
100
AcDbEntity
  8
L1_100
  6
CONTINUOUS
 62
         4
100
AcDbLine
 10
1661.8844686424
 20
71.5004915053
 30
0.0
 11
1683.0250947037
 21
74.0578039445
 31
0.0
  0
SOLID
  5
172
100
AcDbEntity
  8
L1_100
  6
CONTINUOUS
 62
         4
100
AcDbTrace
 10
1661.8844686424
 20
71.5004915053
 30
0.0
 11
1664.4837997426
 21
72.2178400544
 31
0.0
 12
1664.5798727649
 22
71.423629771
 32
0.0
 13
1661.8844686424
 23
71.5004915053
 33
0.0
  0
LINE
  5
173
100
AcDbEntity
  8
L1_100
  6
CONTINUOUS
 62
         4
100
AcDbLine
 10
1657.1569319304
 20
70.9286168407
 30
0.0
 11
1651.8621967076
 21
70.2881300259
 31
0.0
  0
SOLID
  5
174
100
AcDbEntity
  8
L1_100
  6
CONTINUOUS
 62
         4
100
AcDbTrace
 10
1657.1569319304
 20
70.9286168407
 30
0.0
 11
1654.5576008301
 21
70.2112682916
 31
0.0
 12
1654.4615278079
 22
71.005478575
 32
0.0
 13
1657.1569319304
 23
70.9286168407
 33
0.0
  0
LINE
  5
175
100
AcDbEntity
  8
L1_100
  6
CONTINUOUS
 62
         4
100
AcDbLine
 10
1657.1569319304
 20
70.9286168407
 30
0.0
 11
1661.8844686424
 21
71.5004915053
 31
0.0
  0
TEXT
  5
177
100
AcDbEntity
  8
L1_100
  6
CONTINUOUS
 62
         4
100
AcDbText
 10
1663.0935136238
 20
72.9535953478
 30
0.0
 40
2.6666666664
  1
崷4.762
 50
6.897370506
  7
BOX
100
AcDbText
  0
ENDBLK
  5
178
100
AcDbEntity
  8
0
  6
CONTINUOUS
100
AcDbBlockEnd
  0
BLOCK
  5
18B
100
AcDbEntity
  8
0
100
AcDbBlockBegin
  2
*D3
 70
        65
 10
0.0
 20
0.0
 30
0.0
  3
*D3
  1

  0
POINT
  5
18D
100
AcDbEntity
  8
DEFPOINTS
  6
CONTINUOUS
 62
         0
100
AcDbPoint
 10
1651.8935339569
 20
-4.5716324302
 30
0.0
  0
POINT
  5
18E
100
AcDbEntity
  8
DEFPOINTS
  6
CONTINUOUS
 62
         0
100
AcDbPoint
 10
1673.7717298539
 20
3.2431208155
 30
0.0
  0
LINE
  5
18F
100
AcDbEntity
  8
L1_100
  6
CONTINUOUS
 62
         4
100
AcDbLine
 10
1673.7717298539
 20
3.2431208155
 30
0.0
 11
1662.8326319054
 21
-0.6642558074
 31
0.0
  0
SOLID
  5
190
100
AcDbEntity
  8
L1_100
  6
CONTINUOUS
 62
         4
100
AcDbTrace
 10
1673.7717298539
 20
3.2431208155
 30
0.0
 11
1671.8465868147
 21
2.2114230503
 31
0.0
 12
1671.6286133255
 22
2.8216619855
 32
0.0
 13
1673.7717298539
 23
3.2431208155
 33
0.0
  0
LINE
  5
191
100
AcDbEntity
  8
L1_100
  6
CONTINUOUS
 62
         4
100
AcDbLine
 10
1662.8326319054
 20
-0.6642558074
 30
0.0
 11
1651.8935339569
 21
-4.5716324302
 31
0.0
  0
SOLID
  5
192
100
AcDbEntity
  8
L1_100
  6
CONTINUOUS
 62
         4
100
AcDbTrace
 10
1651.8935339569
 20
-4.5716324302
 30
0.0
 11
1653.8186769961
 21
-3.539934665
 31
0.0
 12
1654.0366504854
 22
-4.1501736002
 32
0.0
 13
1651.8935339569
 23
-4.5716324302
 33
0.0
  0
LINE
  5
193
100
AcDbEntity
  8
L1_100
  6
CONTINUOUS
 62
         4
100
AcDbLine
 10
1673.7717298539
 20
3.2431208155
 30
0.0
 11
1690.6298401699
 21
9.2647312321
 31
0.0
  0
TEXT
  5
195
100
AcDbEntity
  8
L1_100
  6
CONTINUOUS
 62
         4
100
AcDbText
 10
1677.1297675863
 20
5.8609026272
 30
0.0
 40
2.16
  1
崷24.2
 50
19.6564064115
  7
BOX
100
AcDbText
  0
ENDBLK
  5
196
100
AcDbEntity
  8
0
  6
CONTINUOUS
100
AcDbBlockEnd
  0
BLOCK
  5
1C1
100
AcDbEntity
  8
0
100
AcDbBlockBegin
  2
*D4
 70
        65
 10
0.0
 20
0.0
 30
0.0
  3
*D4
  1

  0
POINT
  5
1C3
100
AcDbEntity
  8
DEFPOINTS
  6
CONTINUOUS
 62
         0
100
AcDbPoint
 10
1440.1033403763
 20
-33.448781705
 30
0.0
  0
POINT
  5
1C4
100
AcDbEntity
  8
DEFPOINTS
  6
CONTINUOUS
 62
         0
100
AcDbPoint
 10
1440.1033403763
 20
-22.9433347407
 30
0.0
  0
POINT
  5
1C5
100
AcDbEntity
  8
DEFPOINTS
  6
CONTINUOUS
 62
         0
100
AcDbPoint
 10
1445.1033403763
 20
-22.9433347407
 30
0.0
  0
LINE
  5
1C6
100
AcDbEntity
  8
L1_100
  6
CONTINUOUS
 62
         4
100
AcDbLine
 10
1440.1033403763
 20
-24.2933347407
 30
0.0
 11
1440.1033403763
 21
-34.123781705
 31
0.0
  0
LINE
  5
1C7
100
AcDbEntity
  8
L1_100
  6
CONTINUOUS
 62
         4
100
AcDbLine
 10
1445.1033403763
 20
-24.2933347407
 30
0.0
 11
1445.1033403763
 21
-34.123781705
 31
0.0
  0
LINE
  5
1C8
100
AcDbEntity
  8
L1_100
  6
CONTINUOUS
 62
         4
100
AcDbLine
 10
1440.1033403763
 20
-33.448781705
 30
0.0
 11
1445.1033403763
 21
-33.448781705
 31
0.0
  0
SOLID
  5
1C9
100
AcDbEntity
  8
L1_100
  6
CONTINUOUS
 62
         4
100
AcDbTrace
 10
1440.1033403763
 20
-33.448781705
 30
0.0
 11
1442.8033403763
 21
-33.043781705
 31
0.0
 12
1442.8033403763
 22
-33.853781705
 32
0.0
 13
1440.1033403763
 23
-33.448781705
 33
0.0
  0
SOLID
  5
1CA
100
AcDbEntity
  8
L1_100
  6
CONTINUOUS
 62
         4
100
AcDbTrace
 10
1445.1033403763
 20
-33.448781705
 30
0.0
 11
1442.4033403763
 21
-33.853781705
 31
0.0
 12
1442.4033403763
 22
-33.043781705
 32
0.0
 13
1445.1033403763
 23
-33.448781705
 33
0.0
  0
TEXT
  5
1CC
100
AcDbEntity
  8
L1_100
  6
CONTINUOUS
 62
         4
100
AcDbText
 10
1441.224567443
 20
-31.423781705
 30
0.0
 40
2.7
  1
5
  7
BOX
100
AcDbText
  0
ENDBLK
  5
1CD
100
AcDbEntity
  8
0
  6
CONTINUOUS
100
AcDbBlockEnd
  0
BLOCK
  5
437
100
AcDbEntity
  8
0
100
AcDbBlockBegin
  2
*X5
 70
        65
 10
0.0
 20
0.0
 30
0.0
  3
*X5
  1

  0
LINE
  5
438
100
AcDbEntity
  8
L1_100
  6
CONTINUOUS
 62
         4
100
AcDbLine
 10
1462.9743192
 20
-25.9433347407
 30
0.0
 11
1466.1676274854
 21
-22.7500264553
 31
0.0
  0
LINE
  5
439
100
AcDbEntity
  8
L1_100
  6
CONTINUOUS
 62
         4
100
AcDbLine
 10
1458.7316785129
 20
-25.9433347407
 30
0.0
 11
1462.2316785129
 21
-22.4433347407
 31
0.0
  0
LINE
  5
43A
100
AcDbEntity
  8
L1_100
  6
CONTINUOUS
 62
         4
100
AcDbLine
 10
1454.4890378258
 20
-25.9433347407
 30
0.0
 11
1457.9890378258
 21
-22.4433347407
 31
0.0
  0
LINE
  5
43B
100
AcDbEntity
  8
L1_100
  6
CONTINUOUS
 62
         4
100
AcDbLine
 10
1451.603340376
 20
-24.5863915034
 30
0.0
 11
1453.7463971387
 21
-22.4433347407
 31
0.0
  0
LINE
  5
43C
100
AcDbEntity
  8
L1_100
  6
CONTINUOUS
 62
         4
100
AcDbLine
 10
1446.0037564516
 20
-25.9433347407
 30
0.0
 11
1446.6033403765
 21
-25.3437508157
 31
0.0
  0
LINE
  5
43D
100
AcDbEntity
  8
L1_100
  6
CONTINUOUS
 62
         4
100
AcDbLine
 10
1441.2611157645
 20
-26.4433347407
 30
0.0
 11
1444.7611157645
 21
-22.9433347407
 31
0.0
  0
LINE
  5
43E
100
AcDbEntity
  8
L1_100
  6
CONTINUOUS
 62
         4
100
AcDbLine
 10
1445.1033403763
 20
-22.6011101289
 30
0.0
 11
1445.2611157645
 21
-22.4433347407
 31
0.0
  0
LINE
  5
43F
100
AcDbEntity
  8
L1_100
  6
CONTINUOUS
 62
         4
100
AcDbLine
 10
1464.2611157645
 20
-3.4433347407
 30
0.0
 11
1467.1033403763
 21
-0.6011101289
 31
0.0
  0
LINE
  5
440
100
AcDbEntity
  8
L1_100
  6
CONTINUOUS
 62
         4
100
AcDbLine
 10
1437.0184750773
 20
-26.4433347407
 30
0.0
 11
1440.5184750773
 21
-22.9433347407
 31
0.0
  0
LINE
  5
441
100
AcDbEntity
  8
L1_100
  6
CONTINUOUS
 62
         4
100
AcDbLine
 10
1460.0184750773
 20
-3.4433347407
 30
0.0
 11
1463.5184750773
 21
0.0566652593
 31
0.0
  0
LINE
  5
442
100
AcDbEntity
  8
L1_100
  6
CONTINUOUS
 62
         4
100
AcDbLine
 10
1414.7758343902
 20
-44.4433347407
 30
0.0
 11
1419.1033403763
 21
-40.1158287546
 31
0.0
  0
LINE
  5
443
100
AcDbEntity
  8
L1_100
  6
CONTINUOUS
 62
         4
100
AcDbLine
 10
1429.7758343902
 20
-29.4433347407
 30
0.0
 11
1438.8853886541
 21
-20.3337804768
 31
0.0
  0
LINE
  5
444
100
AcDbEntity
  8
L1_100
  6
CONTINUOUS
 62
         4
100
AcDbLine
 10
1455.7758343902
 20
-3.4433347407
 30
0.0
 11
1459.2758343902
 21
0.0566652593
 31
0.0
  0
LINE
  5
445
100
AcDbEntity
  8
L1_100
  6
CONTINUOUS
 62
         4
100
AcDbLine
 10
1412.5430761886
 20
-42.4334522552
 30
0.0
 11
1419.1033403763
 21
-35.8731880675
 31
0.0
  0
LINE
  5
446
100
AcDbEntity
  8
L1_100
  6
CONTINUOUS
 62
         4
100
AcDbLine
 10
1425.5331937031
 20
-29.4433347407
 30
0.0
 11
1437.3324743835
 21
-17.6440540603
 31
0.0
  0
LINE
  5
447
100
AcDbEntity
  8
L1_100
  6
CONTINUOUS
 62
         4
100
AcDbLine
 10
1451.5331937031
 20
-3.4433347407
 30
0.0
 11
1455.0331937031
 21
0.0566652593
 31
0.0
  0
LINE
  5
448
100
AcDbEntity
  8
L1_100
  6
CONTINUOUS
 62
         4
100
AcDbLine
 10
1411.2033403763
 20
-39.5305473804
 30
0.0
 11
1419.1033403763
 21
-31.6305473804
 31
0.0
  0
LINE
  5
449
100
AcDbEntity
  8
L1_100
  6
CONTINUOUS
 62
         4
100
AcDbLine
 10
1421.290553016
 20
-29.4433347407
 30
0.0
 11
1435.7795601129
 21
-14.9543276438
 31
0.0
  0
LINE
  5
44A
100
AcDbEntity
  8
L1_100
  6
CONTINUOUS
 62
         4
100
AcDbLine
 10
1402.0479123289
 20
-44.4433347407
 30
0.0
 11
1405.9643611526
 21
-40.5268859169
 31
0.0
  0
LINE
  5
44B
100
AcDbEntity
  8
L1_100
  6
CONTINUOUS
 62
         4
100
AcDbLine
 10
1407.0479123289
 20
-39.4433347407
 30
0.0
 11
1436.0809802857
 21
-10.4102667838
 31
0.0
  0
LINE
  5
44C
100
AcDbEntity
  8
L1_100
  6
CONTINUOUS
 62
         4
100
AcDbLine
 10
1443.5479123289
 20
-2.9433347407
 30
0.0
 11
1446.5256263527
 21
0.0343792832
 31
0.0
  0
LINE
  5
44D
100
AcDbEntity
  8
L1_100
  6
CONTINUOUS
 62
         4
100
AcDbLine
 10
1397.8052716417
 20
-44.4433347407
 30
0.0
 11
1442.2214649449
 21
-0.0271414375
 31
0.0
  0
LINE
  5
44E
100
AcDbEntity
  8
L1_100
  6
CONTINUOUS
 62
         4
100
AcDbLine
 10
1394.1796034417
 20
-43.8263622536
 30
0.0
 11
1438.5626309546
 21
0.5566652593
 31
0.0
  0
LINE
  5
44F
100
AcDbEntity
  8
L1_100
  6
CONTINUOUS
 62
         4
100
AcDbLine
 10
1394.1033403763
 20
-39.6599846319
 30
0.0
 11
1434.3751156136
 21
0.6117906054
 31
0.0
  0
LINE
  5
450
100
AcDbEntity
  8
L1_100
  6
CONTINUOUS
 62
         4
100
AcDbLine
 10
1394.1026651582
 20
-35.4180191629
 30
0.0
 11
1433.0773495804
 21
3.5566652593
 31
0.0
  0
LINE
  5
451
100
AcDbEntity
  8
L1_100
  6
CONTINUOUS
 62
         4
100
AcDbLine
 10
1390.3634425921
 20
-34.9146010418
 30
0.0
 11
1428.8347088933
 21
3.5566652593
 31
0.0
  0
LINE
  5
452
100
AcDbEntity
  8
L1_100
  6
CONTINUOUS
 62
         4
100
AcDbLine
 10
1386.6607717659
 20
-34.3746311809
 30
0.0
 11
1424.5920682061
 21
3.5566652593
 31
0.0
  0
LINE
  5
453
100
AcDbEntity
  8
L1_100
  6
CONTINUOUS
 62
         4
100
AcDbLine
 10
1382.9581009397
 20
-33.83466132
 30
0.0
 11
1420.349427519
 21
3.5566652593
 31
0.0
  0
LINE
  5
454
100
AcDbEntity
  8
L1_100
  6
CONTINUOUS
 62
         4
100
AcDbLine
 10
1379.2554301135
 20
-33.2946914591
 30
0.0
 11
1419.1033403763
 21
6.5532188037
 31
0.0
  0
LINE
  5
455
100
AcDbEntity
  8
L1_100
  6
CONTINUOUS
 62
         4
100
AcDbLine
 10
1375.5527592872
 20
-32.7547215982
 30
0.0
 11
1419.1033403763
 21
10.7958594908
 31
0.0
  0
LINE
  5
456
100
AcDbEntity
  8
L1_100
  6
CONTINUOUS
 62
         4
100
AcDbLine
 10
1371.850088461
 20
-32.2147517373
 30
0.0
 11
1419.1033403763
 21
15.0385001779
 31
0.0
  0
LINE
  5
457
100
AcDbEntity
  8
L1_100
  6
CONTINUOUS
 62
         4
100
AcDbLine
 10
1368.1474176348
 20
-31.6747818764
 30
0.0
 11
1418.3483782721
 21
18.5261787608
 31
0.0
  0
LINE
  5
458
100
AcDbEntity
  8
L1_100
  6
CONTINUOUS
 62
         4
100
AcDbLine
 10
1364.4447468086
 20
-31.1348120155
 30
0.0
 11
1409.1362240834
 21
13.5566652593
 31
0.0
  0
LINE
  5
459
100
AcDbEntity
  8
L1_100
  6
CONTINUOUS
 62
         4
100
AcDbLine
 10
1413.1123462259
 20
17.5327874018
 30
0.0
 11
1414.1362240834
 21
18.5566652593
 31
0.0
  0
LINE
  5
45A
100
AcDbEntity
  8
L1_100
  6
CONTINUOUS
 62
         4
100
AcDbLine
 10
1360.7420759824
 20
-30.5948421546
 30
0.0
 11
1405.9690365488
 21
14.6321184118
 31
0.0
  0
LINE
  5
45B
100
AcDbEntity
  8
L1_100
  6
CONTINUOUS
 62
         4
100
AcDbLine
 10
1357.0394051561
 20
-30.0548722937
 30
0.0
 11
1367.1009427092
 21
-19.9933347407
 31
0.0
  0
LINE
  5
45C
100
AcDbEntity
  8
L1_100
  6
CONTINUOUS
 62
         4
100
AcDbLine
 10
1368.5262308926
 20
-18.5680465572
 30
0.0
 11
1404.4161222782
 21
17.3218448283
 31
0.0
  0
LINE
  5
45D
100
AcDbEntity
  8
L1_100
  6
CONTINUOUS
 62
         4
100
AcDbLine
 10
1353.3367343299
 20
-29.5149024328
 30
0.0
 11
1362.8583020221
 21
-19.9933347407
 31
0.0
  0
LINE
  5
45E
100
AcDbEntity
  8
L1_100
  6
CONTINUOUS
 62
         4
100
AcDbLine
 10
1371.0908914497
 20
-11.7607453131
 30
0.0
 11
1392.1384173921
 21
9.2867806294
 31
0.0
  0
LINE
  5
45F
100
AcDbEntity
  8
L1_100
  6
CONTINUOUS
 62
         4
100
AcDbLine
 10
1394.1033403763
 20
11.2517036135
 30
0.0
 11
1401.4083020221
 21
18.5566652593
 31
0.0
  0
LINE
  5
460
100
AcDbEntity
  8
L1_100
  6
CONTINUOUS
 62
         4
100
AcDbLine
 10
1349.6340635037
 20
-28.9749325719
 30
0.0
 11
1358.6156613349
 21
-19.9933347407
 31
0.0
  0
LINE
  5
461
100
AcDbEntity
  8
L1_100
  6
CONTINUOUS
 62
         4
100
AcDbLine
 10
1369.5379771791
 20
-9.0710188966
 30
0.0
 11
1387.171428078
 21
8.5624320024
 31
0.0
  0
LINE
  5
462
100
AcDbEntity
  8
L1_100
  6
CONTINUOUS
 62
         4
100
AcDbLine
 10
1394.1033403763
 20
15.4943443006
 30
0.0
 11
1397.1656613349
 21
18.5566652593
 31
0.0
  0
LINE
  5
463
100
AcDbEntity
  8
L1_100
  6
CONTINUOUS
 62
         4
100
AcDbLine
 10
1345.9313926775
 20
-28.434962711
 30
0.0
 11
1354.3730206478
 21
-19.9933347407
 31
0.0
  0
LINE
  5
464
100
AcDbEntity
  8
L1_100
  6
CONTINUOUS
 62
         4
100
AcDbLine
 10
1367.9850629084
 20
-6.3812924801
 30
0.0
 11
1382.204438764
 21
7.8380833755
 31
0.0
  0
LINE
  5
465
100
AcDbEntity
  8
L1_100
  6
CONTINUOUS
 62
         4
100
AcDbLine
 10
1342.2287218513
 20
-27.8949928501
 30
0.0
 11
1350.1303799607
 21
-19.9933347407
 31
0.0
  0
LINE
  5
466
100
AcDbEntity
  8
L1_100
  6
CONTINUOUS
 62
         4
100
AcDbLine
 10
1364.2303799607
 20
-5.8933347407
 30
0.0
 11
1377.2374494499
 21
7.1137347485
 31
0.0
  0
LINE
  5
467
100
AcDbEntity
  8
L1_100
  6
CONTINUOUS
 62
         4
100
AcDbLine
 10
1338.526051025
 20
-27.3550229892
 30
0.0
 11
1345.8877392736
 21
-19.9933347407
 31
0.0
  0
LINE
  5
468
100
AcDbEntity
  8
L1_100
  6
CONTINUOUS
 62
         4
100
AcDbLine
 10
1359.9877392736
 20
-5.8933347407
 30
0.0
 11
1372.2704601358
 21
6.3893861216
 31
0.0
  0
LINE
  5
469
100
AcDbEntity
  8
L1_100
  6
CONTINUOUS
 62
         4
100
AcDbLine
 10
1334.8233801988
 20
-26.8150531283
 30
0.0
 11
1341.6450985865
 21
-19.9933347407
 31
0.0
  0
LINE
  5
46A
100
AcDbEntity
  8
L1_100
  6
CONTINUOUS
 62
         4
100
AcDbLine
 10
1355.7450985865
 20
-5.8933347407
 30
0.0
 11
1367.3034708218
 21
5.6650374946
 31
0.0
  0
LINE
  5
46B
100
AcDbEntity
  8
L1_100
  6
CONTINUOUS
 62
         4
100
AcDbLine
 10
1331.1207093726
 20
-26.2750832674
 30
0.0
 11
1337.4024578994
 21
-19.9933347407
 31
0.0
  0
LINE
  5
46C
100
AcDbEntity
  8
L1_100
  6
CONTINUOUS
 62
         4
100
AcDbLine
 10
1351.5024578994
 20
-5.8933347407
 30
0.0
 11
1362.3364815077
 21
4.9406888677
 31
0.0
  0
LINE
  5
46D
100
AcDbEntity
  8
L1_100
  6
CONTINUOUS
 62
         4
100
AcDbLine
 10
1327.4261848184
 20
-25.7269671345
 30
0.0
 11
1331.7098172122
 21
-21.4433347407
 31
0.0
  0
LINE
  5
46E
100
AcDbEntity
  8
L1_100
  6
CONTINUOUS
 62
         4
100
AcDbLine
 10
1347.2598172122
 20
-5.8933347407
 30
0.0
 11
1357.3694921937
 21
4.2163402408
 31
0.0
  0
LINE
  5
46F
100
AcDbEntity
  8
L1_100
  6
CONTINUOUS
 62
         4
100
AcDbLine
 10
1343.0171765251
 20
-5.8933347407
 30
0.0
 11
1352.4025028796
 21
3.4919916138
 31
0.0
  0
LINE
  5
470
100
AcDbEntity
  8
L1_100
  6
CONTINUOUS
 62
         4
100
AcDbLine
 10
1338.774535838
 20
-5.8933347407
 30
0.0
 11
1347.4355135655
 21
2.7676429869
 31
0.0
  0
LINE
  5
471
100
AcDbEntity
  8
L1_100
  6
CONTINUOUS
 62
         4
100
AcDbLine
 10
1335.6929694896
 20
-4.732260402
 30
0.0
 11
1342.4685242515
 21
2.0432943599
 31
0.0
  0
LINE
  5
472
100
AcDbEntity
  8
L1_100
  6
CONTINUOUS
 62
         4
100
AcDbLine
 10
1331.7392544638
 20
-4.4433347407
 30
0.0
 11
1337.5015349374
 21
1.318945733
 31
0.0
  0
LINE
  5
473
100
AcDbEntity
  8
L1_100
  6
CONTINUOUS
 62
         4
100
AcDbLine
 10
1327.6162701444
 20
-4.3236783729
 30
0.0
 11
1332.5345456234
 21
0.5945971061
 31
0.0
  0
LINE
  5
474
100
AcDbEntity
  8
L1_100
  6
CONTINUOUS
 62
         4
100
AcDbLine
 10
1326.7126078667
 20
-0.9846999635
 30
0.0
 11
1327.5675563093
 21
-0.1297515209
 31
0.0
  0
ENDBLK
  5
475
100
AcDbEntity
  8
0
  6
CONTINUOUS
100
AcDbBlockEnd
  0
BLOCK
  5
47B
100
AcDbEntity
  8
0
100
AcDbBlockBegin
  2
*D6
 70
        65
 10
0.0
 20
0.0
 30
0.0
  3
*D6
  1

  0
POINT
  5
47D
100
AcDbEntity
  8
DEFPOINTS
  6
CONTINUOUS
 62
         0
100
AcDbPoint
 10
1449.1033403763
 20
19.348752621
 30
0.0
  0
POINT
  5
47E
100
AcDbEntity
  8
DEFPOINTS
  6
CONTINUOUS
 62
         0
100
AcDbPoint
 10
1449.1033403763
 20
0.3383656979
 30
0.0
  0
POINT
  5
47F
100
AcDbEntity
  8
DEFPOINTS
  6
CONTINUOUS
 62
         0
100
AcDbPoint
 10
1467.1033403763
 20
-0.4433347407
 30
0.0
  0
LINE
  5
480
100
AcDbEntity
  8
L1_100
  6
CONTINUOUS
 62
         4
100
AcDbLine
 10
1449.1033403763
 20
1.6883656979
 30
0.0
 11
1449.1033403763
 21
20.023752621
 31
0.0
  0
LINE
  5
481
100
AcDbEntity
  8
L1_100
  6
CONTINUOUS
 62
         4
100
AcDbLine
 10
1467.1033403763
 20
0.9066652593
 30
0.0
 11
1467.1033403763
 21
20.023752621
 31
0.0
  0
LINE
  5
482
100
AcDbEntity
  8
L1_100
  6
CONTINUOUS
 62
         4
100
AcDbLine
 10
1449.1033403763
 20
19.348752621
 30
0.0
 11
1467.1033403763
 21
19.348752621
 31
0.0
  0
SOLID
  5
483
100
AcDbEntity
  8
L1_100
  6
CONTINUOUS
 62
         4
100
AcDbTrace
 10
1449.1033403763
 20
19.348752621
 30
0.0
 11
1451.8033403763
 21
19.753752621
 31
0.0
 12
1451.8033403763
 22
18.943752621
 32
0.0
 13
1449.1033403763
 23
19.348752621
 33
0.0
  0
SOLID
  5
484
100
AcDbEntity
  8
L1_100
  6
CONTINUOUS
 62
         4
100
AcDbTrace
 10
1467.1033403763
 20
19.348752621
 30
0.0
 11
1464.4033403763
 21
18.943752621
 31
0.0
 12
1464.4033403763
 22
19.753752621
 32
0.0
 13
1467.1033403763
 23
19.348752621
 33
0.0
  0
TEXT
  5
486
100
AcDbEntity
  8
L1_100
  6
CONTINUOUS
 62
         4
100
AcDbText
 10
1447.340362077
 20
22.480752621
 30
0.0
 40
2.7
  1
18
  7
BOX
100
AcDbText
  0
ENDBLK
  5
487
100
AcDbEntity
  8
0
  6
CONTINUOUS
100
AcDbBlockEnd
  0
BLOCK
  5
489
100
AcDbEntity
  8
0
100
AcDbBlockBegin
  2
*D7
 70
        65
 10
0.0
 20
0.0
 30
0.0
  3
*D7
  1

  0
POINT
  5
48B
100
AcDbEntity
  8
DEFPOINTS
  6
CONTINUOUS
 62
         0
100
AcDbPoint
 10
1467.1033403763
 20
6.2502106776
 30
0.0
  0
POINT
  5
48C
100
AcDbEntity
  8
DEFPOINTS
  6
CONTINUOUS
 62
         0
100
AcDbPoint
 10
1467.1033403763
 20
-0.4433347407
 30
0.0
  0
POINT
  5
48D
100
AcDbEntity
  8
DEFPOINTS
  6
CONTINUOUS
 62
         0
100
AcDbPoint
 10
1462.1033403763
 20
-8.1933347407
 30
0.0
  0
LINE
  5
48E
100
AcDbEntity
  8
L1_100
  6
CONTINUOUS
 62
         4
100
AcDbLine
 10
1467.1033403763
 20
0.9066652593
 30
0.0
 11
1467.1033403763
 21
6.9252106776
 31
0.0
  0
LINE
  5
48F
100
AcDbEntity
  8
L1_100
  6
CONTINUOUS
 62
         4
100
AcDbLine
 10
1462.1033403763
 20
-6.8433347407
 30
0.0
 11
1462.1033403763
 21
6.9252106776
 31
0.0
  0
LINE
  5
490
100
AcDbEntity
  8
L1_100
  6
CONTINUOUS
 62
         4
100
AcDbLine
 10
1467.1033403763
 20
6.2502106776
 30
0.0
 11
1479.1952403842
 21
6.2502106776
 31
0.0
  0
SOLID
  5
491
100
AcDbEntity
  8
L1_100
  6
CONTINUOUS
 62
         4
100
AcDbTrace
 10
1467.1033403763
 20
6.2502106776
 30
0.0
 11
1469.8033403763
 21
6.6552106776
 31
0.0
 12
1469.8033403763
 22
5.8452106776
 32
0.0
 13
1467.1033403763
 23
6.2502106776
 33
0.0
  0
LINE
  5
492
100
AcDbEntity
  8
L1_100
  6
CONTINUOUS
 62
         4
100
AcDbLine
 10
1462.1033403763
 20
6.2502106776
 30
0.0
 11
1456.7033403763
 21
6.2502106776
 31
0.0
  0
SOLID
  5
493
100
AcDbEntity
  8
L1_100
  6
CONTINUOUS
 62
         4
100
AcDbTrace
 10
1462.1033403763
 20
6.2502106776
 30
0.0
 11
1459.4033403763
 21
5.8452106776
 31
0.0
 12
1459.4033403763
 22
6.6552106776
 32
0.0
 13
1462.1033403763
 23
6.2502106776
 33
0.0
  0
LINE
  5
494
100
AcDbEntity
  8
L1_100
  6
CONTINUOUS
 62
         4
100
AcDbLine
 10
1467.1033403763
 20
6.2502106776
 30
0.0
 11
1462.1033403763
 21
6.2502106776
 31
0.0
  0
TEXT
  5
496
100
AcDbEntity
  8
L1_100
  6
CONTINUOUS
 62
         4
100
AcDbText
 10
1474.2452403842
 20
9.3822106776
 30
0.0
 40
2.7
  1
5
  7
BOX
100
AcDbText
  0
ENDBLK
  5
497
100
AcDbEntity
  8
0
  6
CONTINUOUS
100
AcDbBlockEnd
  0
BLOCK
  5
499
100
AcDbEntity
  8
0
100
AcDbBlockBegin
  2
*D8
 70
        65
 10
0.0
 20
0.0
 30
0.0
  3
*D8
  1

  0
POINT
  5
49B
100
AcDbEntity
  8
DEFPOINTS
  6
CONTINUOUS
 62
         0
100
AcDbPoint
 10
1505.0346446204
 20
-3.4433347407
 30
0.0
  0
POINT
  5
49C
100
AcDbEntity
  8
DEFPOINTS
  6
CONTINUOUS
 62
         0
100
AcDbPoint
 10
1465.1033403763
 20
-3.4433347407
 30
0.0
  0
POINT
  5
49D
100
AcDbEntity
  8
DEFPOINTS
  6
CONTINUOUS
 62
         0
100
AcDbPoint
 10
1465.1033403763
 20
-22.4433347407
 30
0.0
  0
LINE
  5
49E
100
AcDbEntity
  8
L1_100
  6
CONTINUOUS
 62
         4
100
AcDbLine
 10
1466.4533403763
 20
-3.4433347407
 30
0.0
 11
1505.7096446204
 21
-3.4433347407
 31
0.0
  0
LINE
  5
49F
100
AcDbEntity
  8
L1_100
  6
CONTINUOUS
 62
         4
100
AcDbLine
 10
1466.4533403763
 20
-22.4433347407
 30
0.0
 11
1505.7096446204
 21
-22.4433347407
 31
0.0
  0
LINE
  5
4A0
100
AcDbEntity
  8
L1_100
  6
CONTINUOUS
 62
         4
100
AcDbLine
 10
1505.0346446204
 20
-3.4433347407
 30
0.0
 11
1505.0346446204
 21
-22.4433347407
 31
0.0
  0
SOLID
  5
4A1
100
AcDbEntity
  8
L1_100
  6
CONTINUOUS
 62
         4
100
AcDbTrace
 10
1505.0346446204
 20
-3.4433347407
 30
0.0
 11
1505.4396446204
 21
-6.1433347407
 31
0.0
 12
1504.6296446204
 22
-6.1433347407
 32
0.0
 13
1505.0346446204
 23
-3.4433347407
 33
0.0
  0
SOLID
  5
4A2
100
AcDbEntity
  8
L1_100
  6
CONTINUOUS
 62
         4
100
AcDbTrace
 10
1505.0346446204
 20
-22.4433347407
 30
0.0
 11
1504.6296446204
 21
-19.7433347407
 31
0.0
 12
1505.4396446204
 22
-19.7433347407
 32
0.0
 13
1505.0346446204
 23
-22.4433347407
 33
0.0
  0
TEXT
  5
4A4
100
AcDbEntity
  8
L1_100
  6
CONTINUOUS
 62
         4
100
AcDbText
 10
1501.9026446204
 20
-21.107148578
 30
0.0
 40
2.7
  1
崷19
 50
90.0
  7
BOX
100
AcDbText
  0
ENDBLK
  5
4A5
100
AcDbEntity
  8
0
  6
CONTINUOUS
100
AcDbBlockEnd
  0
BLOCK
  5
4A7
100
AcDbEntity
  8
0
100
AcDbBlockBegin
  2
*D9
 70
        65
 10
0.0
 20
0.0
 30
0.0
  3
*D9
  1

  0
POINT
  5
4A9
100
AcDbEntity
  8
DEFPOINTS
  6
CONTINUOUS
 62
         0
100
AcDbPoint
 10
1467.1033403763
 20
-41.3133137124
 30
0.0
  0
POINT
  5
4AA
100
AcDbEntity
  8
DEFPOINTS
  6
CONTINUOUS
 62
         0
100
AcDbPoint
 10
1467.1033403763
 20
-18.6933347407
 30
0.0
  0
POINT
  5
4AB
100
AcDbEntity
  8
DEFPOINTS
  6
CONTINUOUS
 62
         0
100
AcDbPoint
 10
1440.1033403763
 20
-22.9433347407
 30
0.0
  0
LINE
  5
4AC
100
AcDbEntity
  8
L1_100
  6
CONTINUOUS
 62
         4
100
AcDbLine
 10
1467.1033403763
 20
-20.0433347407
 30
0.0
 11
1467.1033403763
 21
-41.9883137124
 31
0.0
  0
LINE
  5
4AD
100
AcDbEntity
  8
L1_100
  6
CONTINUOUS
 62
         4
100
AcDbLine
 10
1440.1033403763
 20
-24.2933347407
 30
0.0
 11
1440.1033403763
 21
-41.9883137124
 31
0.0
  0
LINE
  5
4AE
100
AcDbEntity
  8
L1_100
  6
CONTINUOUS
 62
         4
100
AcDbLine
 10
1467.1033403763
 20
-41.3133137124
 30
0.0
 11
1440.1033403763
 21
-41.3133137124
 31
0.0
  0
SOLID
  5
4AF
100
AcDbEntity
  8
L1_100
  6
CONTINUOUS
 62
         4
100
AcDbTrace
 10
1467.1033403763
 20
-41.3133137124
 30
0.0
 11
1464.4033403763
 21
-41.7183137124
 31
0.0
 12
1464.4033403763
 22
-40.9083137124
 32
0.0
 13
1467.1033403763
 23
-41.3133137124
 33
0.0
  0
SOLID
  5
4B0
100
AcDbEntity
  8
L1_100
  6
CONTINUOUS
 62
         4
100
AcDbTrace
 10
1440.1033403763
 20
-41.3133137124
 30
0.0
 11
1442.8033403763
 21
-40.9083137124
 31
0.0
 12
1442.8033403763
 22
-41.7183137124
 32
0.0
 13
1440.1033403763
 23
-41.3133137124
 33
0.0
  0
TEXT
  5
4B2
100
AcDbEntity
  8
L1_100
  6
CONTINUOUS
 62
         4
100
AcDbText
 10
1450.6783403763
 20
-38.1813137124
 30
0.0
 40
2.7
  1
27
  7
BOX
100
AcDbText
  0
ENDBLK
  5
4B3
100
AcDbEntity
  8
0
  6
CONTINUOUS
100
AcDbBlockEnd
  0
BLOCK
  5
4B5
100
AcDbEntity
  8
0
100
AcDbBlockBegin
  2
*D10
 70
        65
 10
0.0
 20
0.0
 30
0.0
  3
*D10
  1

  0
POINT
  5
4B7
100
AcDbEntity
  8
DEFPOINTS
  6
CONTINUOUS
 62
         0
100
AcDbPoint
 10
1467.1033403763
 20
192.8361658586
 30
0.0
  0
POINT
  5
4B8
100
AcDbEntity
  8
DEFPOINTS
  6
CONTINUOUS
 62
         0
100
AcDbPoint
 10
1467.1033403763
 20
162.6846417294
 30
0.0
  0
POINT
  5
4B9
100
AcDbEntity
  8
DEFPOINTS
  6
CONTINUOUS
 62
         0
100
AcDbPoint
 10
1434.1033403763
 20
166.1846417294
 30
0.0
  0
LINE
  5
4BA
100
AcDbEntity
  8
L1_100
  6
CONTINUOUS
 62
         4
100
AcDbLine
 10
1467.1033403763
 20
164.0346417294
 30
0.0
 11
1467.1033403763
 21
193.5111658586
 31
0.0
  0
LINE
  5
4BB
100
AcDbEntity
  8
L1_100
  6
CONTINUOUS
 62
         4
100
AcDbLine
 10
1434.1033403763
 20
167.5346417294
 30
0.0
 11
1434.1033403763
 21
193.5111658586
 31
0.0
  0
LINE
  5
4BC
100
AcDbEntity
  8
L1_100
  6
CONTINUOUS
 62
         4
100
AcDbLine
 10
1467.1033403763
 20
192.8361658586
 30
0.0
 11
1434.1033403763
 21
192.8361658586
 31
0.0
  0
SOLID
  5
4BD
100
AcDbEntity
  8
L1_100
  6
CONTINUOUS
 62
         4
100
AcDbTrace
 10
1467.1033403763
 20
192.8361658586
 30
0.0
 11
1464.4033403763
 21
192.4311658586
 31
0.0
 12
1464.4033403763
 22
193.2411658586
 32
0.0
 13
1467.1033403763
 23
192.8361658586
 33
0.0
  0
SOLID
  5
4BE
100
AcDbEntity
  8
L1_100
  6
CONTINUOUS
 62
         4
100
AcDbTrace
 10
1434.1033403763
 20
192.8361658586
 30
0.0
 11
1436.8033403763
 21
193.2411658586
 31
0.0
 12
1436.8033403763
 22
192.4311658586
 32
0.0
 13
1434.1033403763
 23
192.8361658586
 33
0.0
  0
TEXT
  5
4C0
100
AcDbEntity
  8
L1_100
  6
CONTINUOUS
 62
         4
100
AcDbText
 10
1447.6783403763
 20
195.9681658586
 30
0.0
 40
2.7
  1
33
  7
BOX
100
AcDbText
  0
ENDBLK
  5
4C1
100
AcDbEntity
  8
0
  6
CONTINUOUS
100
AcDbBlockEnd
  0
BLOCK
  5
4C3
100
AcDbEntity
  8
0
100
AcDbBlockBegin
  2
*D11
 70
        65
 10
0.0
 20
0.0
 30
0.0
  3
*D11
  1

  0
POINT
  5
4C5
100
AcDbEntity
  8
DEFPOINTS
  6
CONTINUOUS
 62
         0
100
AcDbPoint
 10
1467.1033403763
 20
184.6027123938
 30
0.0
  0
POINT
  5
4C6
100
AcDbEntity
  8
DEFPOINTS
  6
CONTINUOUS
 62
         0
100
AcDbPoint
 10
1467.1033403763
 20
162.6846417294
 30
0.0
  0
POINT
  5
4C7
100
AcDbEntity
  8
DEFPOINTS
  6
CONTINUOUS
 62
         0
100
AcDbPoint
 10
1442.1033403763
 20
163.3846417294
 30
0.0
  0
LINE
  5
4C8
100
AcDbEntity
  8
L1_100
  6
CONTINUOUS
 62
         4
100
AcDbLine
 10
1467.1033403763
 20
164.0346417294
 30
0.0
 11
1467.1033403763
 21
185.2777123938
 31
0.0
  0
LINE
  5
4C9
100
AcDbEntity
  8
L1_100
  6
CONTINUOUS
 62
         4
100
AcDbLine
 10
1442.1033403763
 20
164.7346417294
 30
0.0
 11
1442.1033403763
 21
185.2777123938
 31
0.0
  0
LINE
  5
4CA
100
AcDbEntity
  8
L1_100
  6
CONTINUOUS
 62
         4
100
AcDbLine
 10
1467.1033403763
 20
184.6027123938
 30
0.0
 11
1442.1033403763
 21
184.6027123938
 31
0.0
  0
SOLID
  5
4CB
100
AcDbEntity
  8
L1_100
  6
CONTINUOUS
 62
         4
100
AcDbTrace
 10
1467.1033403763
 20
184.6027123938
 30
0.0
 11
1464.4033403763
 21
184.1977123938
 31
0.0
 12
1464.4033403763
 22
185.0077123938
 32
0.0
 13
1467.1033403763
 23
184.6027123938
 33
0.0
  0
SOLID
  5
4CC
100
AcDbEntity
  8
L1_100
  6
CONTINUOUS
 62
         4
100
AcDbTrace
 10
1442.1033403763
 20
184.6027123938
 30
0.0
 11
1444.8033403763
 21
185.0077123938
 31
0.0
 12
1444.8033403763
 22
184.1977123938
 32
0.0
 13
1442.1033403763
 23
184.6027123938
 33
0.0
  0
TEXT
  5
4CE
100
AcDbEntity
  8
L1_100
  6
CONTINUOUS
 62
         4
100
AcDbText
 10
1447.5980735329
 20
187.7347123938
 30
0.0
 40
2.7
  1
25
  7
BOX
100
AcDbText
  0
ENDBLK
  5
4CF
100
AcDbEntity
  8
0
  6
CONTINUOUS
100
AcDbBlockEnd
  0
BLOCK
  5
4D1
100
AcDbEntity
  8
0
100
AcDbBlockBegin
  2
*D12
 70
        65
 10
0.0
 20
0.0
 30
0.0
  3
*D12
  1

  0
POINT
  5
4D3
100
AcDbEntity
  8
DEFPOINTS
  6
CONTINUOUS
 62
         0
100
AcDbPoint
 10
1438.9610134735
 20
163.6846417294
 30
0.0
  0
POINT
  5
4D4
100
AcDbEntity
  8
DEFPOINTS
  6
CONTINUOUS
 62
         0
100
AcDbPoint
 10
1441.1033403763
 20
163.6846417294
 30
0.0
  0
POINT
  5
4D5
100
AcDbEntity
  8
DEFPOINTS
  6
CONTINUOUS
 62
         0
100
AcDbPoint
 10
1441.1033403763
 20
136.6846417294
 30
0.0
  0
LINE
  5
4D6
100
AcDbEntity
  8
L1_100
  6
CONTINUOUS
 62
         4
100
AcDbLine
 10
1439.7533403763
 20
163.6846417294
 30
0.0
 11
1438.2860134735
 21
163.6846417294
 31
0.0
  0
LINE
  5
4D7
100
AcDbEntity
  8
L1_100
  6
CONTINUOUS
 62
         4
100
AcDbLine
 10
1439.7533403763
 20
136.6846417294
 30
0.0
 11
1438.2860134735
 21
136.6846417294
 31
0.0
  0
LINE
  5
4D8
100
AcDbEntity
  8
L1_100
  6
CONTINUOUS
 62
         4
100
AcDbLine
 10
1438.9610134735
 20
163.6846417294
 30
0.0
 11
1438.9610134735
 21
136.6846417294
 31
0.0
  0
SOLID
  5
4D9
100
AcDbEntity
  8
L1_100
  6
CONTINUOUS
 62
         4
100
AcDbTrace
 10
1438.9610134735
 20
163.6846417294
 30
0.0
 11
1439.3660134735
 21
160.9846417294
 31
0.0
 12
1438.5560134735
 22
160.9846417294
 32
0.0
 13
1438.9610134735
 23
163.6846417294
 33
0.0
  0
LINE
  5
4DA
100
AcDbEntity
  8
L1_100
  6
CONTINUOUS
 62
         4
100
AcDbLine
 10
1438.9610134735
 20
136.6846417294
 30
0.0
 11
1438.9610134735
 21
111.2340629848
 31
0.0
  0
SOLID
  5
4DB
100
AcDbEntity
  8
L1_100
  6
CONTINUOUS
 62
         4
100
AcDbTrace
 10
1438.9610134735
 20
136.6846417294
 30
0.0
 11
1438.5560134735
 21
139.3846417294
 31
0.0
 12
1439.3660134735
 22
139.3846417294
 32
0.0
 13
1438.9610134735
 23
136.6846417294
 33
0.0
  0
TEXT
  5
4DD
100
AcDbEntity
  8
L1_100
  6
CONTINUOUS
 62
         4
100
AcDbText
 10
1435.8290134735
 20
112.5840629848
 30
0.0
 40
2.7
  1
崷27
 50
90.0
  7
BOX
100
AcDbText
  0
TEXT
  5
4DF
100
AcDbEntity
  8
L1_100
  6
CONTINUOUS
 62
         4
100
AcDbText
 10
1440.1490134735
 20
112.5840629848
 30
0.0
 40
2.7
  1
+0.2
 50
90.0
  7
BOX
100
AcDbText
  0
ENDBLK
  5
4E0
100
AcDbEntity
  8
0
  6
CONTINUOUS
100
AcDbBlockEnd
  0
ENDSEC
  0
SECTION
  2
ENTITIES
  0
ARC
  5
24
100
AcDbEntity
  8
L1_100
  6
CONTINUOUS
 62
         7
100
AcDbCircle
 10
1420.1033403763
 20
4.5566652593
 30
0.0
 40
1.0
100
AcDbArc
 50
180.0
 51
270.0
  0
ARC
  5
25
100
AcDbEntity
  8
L1_100
  6
CONTINUOUS
 62
         7
100
AcDbCircle
 10
1420.1033403763
 20
-30.4433347407
 30
0.0
 40
1.0
100
AcDbArc
 50
90.0
 51
180.0
  0
ARC
  5
26
100
AcDbEntity
  8
L1_100
  6
CONTINUOUS
 62
         7
100
AcDbCircle
 10
1420.1033403763
 20
132.6846417294
 30
0.0
 40
1.0
100
AcDbArc
 50
90.0
 51
180.0
  0
ARC
  5
27
100
AcDbEntity
  8
L1_100
  6
CONTINUOUS
 62
         7
100
AcDbCircle
 10
1420.1033403763
 20
167.6846417294
 30
0.0
 40
1.0
100
AcDbArc
 50
180.0
 51
270.0
  0
LINE
  5
28
100
AcDbEntity
  8
L1_100
  6
CENTER
 62
         1
100
AcDbLine
 10
1451.6033403763
 20
-19.4433347407
 30
0.0
 11
1446.6033403763
 21
-19.4433347407
 31
0.0
  0
LINE
  5
29
100
AcDbEntity
  8
L1_100
  6
CENTER
 62
         1
100
AcDbLine
 10
1451.6033403763
 20
-6.4433347407
 30
0.0
 11
1446.6033403763
 21
-6.4433347407
 31
0.0
  0
POLYLINE
  5
2B
100
AcDbEntity
  8
L1_100
  6
CONTINUOUS
 62
         7
100
AcDb2dPolyline
 66
         1
 10
0.0
 20
0.0
 30
0.0
 70
         2
  0
VERTEX
  5
2D
100
AcDbEntity
  8
L1_100
  6
CONTINUOUS
 62
         7
100
AcDbVertex
100
AcDb2dVertex
 10
1446.6033403763
 20
-19.4433347407
 30
0.0
 70
         1
  0
VERTEX
  5
2F
100
AcDbEntity
  8
L1_100
  6
CONTINUOUS
 62
         7
100
AcDbVertex
100
AcDb2dVertex
 10
1446.643638868
 20
-19.8088096548
 30
0.0
 70
         1
  0
VERTEX
  5
31
100
AcDbEntity
  8
L1_100
  6
CONTINUOUS
 62
         7
100
AcDbVertex
100
AcDb2dVertex
 10
1446.6970633035
 20
-19.9976851395
 30
0.0
 70
         1
  0
VERTEX
  5
33
100
AcDbEntity
  8
L1_100
  6
CONTINUOUS
 62
         7
100
AcDbVertex
100
AcDb2dVertex
 10
1446.774738218
 20
-20.1870364737
 30
0.0
 70
         1
  0
VERTEX
  5
35
100
AcDbEntity
  8
L1_100
  6
CONTINUOUS
 62
         7
100
AcDbVertex
100
AcDb2dVertex
 10
1446.8773966577
 20
-20.3736915913
 30
0.0
 70
         1
  0
VERTEX
  5
37
100
AcDbEntity
  8
L1_100
  6
CONTINUOUS
 62
         7
100
AcDbVertex
100
AcDb2dVertex
 10
1447.0049475948
 20
-20.5542711347
 30
0.0
 70
         1
  0
VERTEX
  5
39
100
AcDbEntity
  8
L1_100
  6
CONTINUOUS
 62
         7
100
AcDbVertex
100
AcDb2dVertex
 10
1447.1563937164
 20
-20.7253697262
 30
0.0
 70
         1
  0
VERTEX
  5
3B
100
AcDbEntity
  8
L1_100
  6
CONTINUOUS
 62
         7
100
AcDbVertex
100
AcDb2dVertex
 10
1447.3298222639
 20
-20.8837594971
 30
0.0
 70
         1
  0
VERTEX
  5
3D
100
AcDbEntity
  8
L1_100
  6
CONTINUOUS
 62
         7
100
AcDbVertex
100
AcDb2dVertex
 10
1447.5224778764
 20
-21.0265925199
 30
0.0
 70
         1
  0
VERTEX
  5
3F
100
AcDbEntity
  8
L1_100
  6
CONTINUOUS
 62
         7
100
AcDbVertex
100
AcDb2dVertex
 10
1447.7309135551
 20
-21.1515766997
 30
0.0
 70
         1
  0
VERTEX
  5
41
100
AcDbEntity
  8
L1_100
  6
CONTINUOUS
 62
         7
100
AcDbVertex
100
AcDb2dVertex
 10
1447.9512028112
 20
-21.2571028249
 30
0.0
 70
         1
  0
VERTEX
  5
43
100
AcDbEntity
  8
L1_100
  6
CONTINUOUS
 62
         7
100
AcDbVertex
100
AcDb2dVertex
 10
1448.1791861645
 20
-21.3423083198
 30
0.0
 70
         1
  0
VERTEX
  5
45
100
AcDbEntity
  8
L1_100
  6
CONTINUOUS
 62
         7
100
AcDbVertex
100
AcDb2dVertex
 10
1448.4107209212
 20
-21.4070738358
 30
0.0
 70
         1
  0
VERTEX
  5
47
100
AcDbEntity
  8
L1_100
  6
CONTINUOUS
 62
         7
100
AcDbVertex
100
AcDb2dVertex
 10
1448.7205153408
 20
-21.4629699079
 30
0.0
 70
         1
  0
VERTEX
  5
49
100
AcDbEntity
  8
L1_100
  6
CONTINUOUS
 62
         7
100
AcDbVertex
100
AcDb2dVertex
 10
1449.0215200409
 20
-21.4859788119
 30
0.0
 70
         1
  0
VERTEX
  5
4B
100
AcDbEntity
  8
L1_100
  6
CONTINUOUS
 62
         7
100
AcDbVertex
100
AcDb2dVertex
 10
1449.3073338288
 20
-21.4802585558
 30
0.0
 70
         1
  0
VERTEX
  5
4D
100
AcDbEntity
  8
L1_100
  6
CONTINUOUS
 62
         7
100
AcDbVertex
100
AcDb2dVertex
 10
1449.573502904
 20
-21.4506063732
 30
0.0
 70
         1
  0
VERTEX
  5
4F
100
AcDbEntity
  8
L1_100
  6
CONTINUOUS
 62
         7
100
AcDbVertex
100
AcDb2dVertex
 10
1449.8173985377
 20
-21.4019355443
 30
0.0
 70
         1
  0
VERTEX
  5
51
100
AcDbEntity
  8
L1_100
  6
CONTINUOUS
 62
         7
100
AcDbVertex
100
AcDb2dVertex
 10
1450.1089173154
 20
-21.3144560246
 30
0.0
 70
         1
  0
VERTEX
  5
53
100
AcDbEntity
  8
L1_100
  6
CONTINUOUS
 62
         7
100
AcDbVertex
100
AcDb2dVertex
 10
1450.3587972291
 20
-21.2106815254
 30
0.0
 70
         1
  0
VERTEX
  5
55
100
AcDbEntity
  8
L1_100
  6
CONTINUOUS
 62
         7
100
AcDbVertex
100
AcDb2dVertex
 10
1450.5700424372
 20
-21.0983918321
 30
0.0
 70
         1
  0
VERTEX
  5
57
100
AcDbEntity
  8
L1_100
  6
CONTINUOUS
 62
         7
100
AcDbVertex
100
AcDb2dVertex
 10
1450.7468800943
 20
-20.9833491123
 30
0.0
 70
         1
  0
VERTEX
  5
59
100
AcDbEntity
  8
L1_100
  6
CONTINUOUS
 62
         7
100
AcDbVertex
100
AcDb2dVertex
 10
1450.9393773414
 20
-20.8304222008
 30
0.0
 70
         1
  0
VERTEX
  5
5B
100
AcDbEntity
  8
L1_100
  6
CONTINUOUS
 62
         7
100
AcDbVertex
100
AcDb2dVertex
 10
1451.0883357956
 20
-20.6857648131
 30
0.0
 70
         1
  0
VERTEX
  5
5D
100
AcDbEntity
  8
L1_100
  6
CONTINUOUS
 62
         7
100
AcDbVertex
100
AcDb2dVertex
 10
1451.237612664
 20
-20.5076128152
 30
0.0
 70
         1
  0
VERTEX
  5
5F
100
AcDbEntity
  8
L1_100
  6
CONTINUOUS
 62
         7
100
AcDbVertex
100
AcDb2dVertex
 10
1451.342453915
 20
-20.3523260576
 30
0.0
 70
         1
  0
VERTEX
  5
61
100
AcDbEntity
  8
L1_100
  6
CONTINUOUS
 62
         7
100
AcDbVertex
100
AcDb2dVertex
 10
1451.4376412037
 20
-20.1749999634
 30
0.0
 70
         1
  0
VERTEX
  5
63
100
AcDbEntity
  8
L1_100
  6
CONTINUOUS
 62
         7
100
AcDbVertex
100
AcDb2dVertex
 10
1451.5135067284
 20
-19.986276227
 30
0.0
 70
         1
  0
VERTEX
  5
65
100
AcDbEntity
  8
L1_100
  6
CONTINUOUS
 62
         7
100
AcDbVertex
100
AcDb2dVertex
 10
1451.5643364724
 20
-19.8029382226
 30
0.0
 70
         1
  0
VERTEX
  5
67
100
AcDbEntity
  8
L1_100
  6
CONTINUOUS
 62
         7
100
AcDbVertex
100
AcDb2dVertex
 10
1451.5965233225
 20
-19.5941594534
 30
0.0
 70
         1
  0
VERTEX
  5
69
100
AcDbEntity
  8
L1_100
  6
CONTINUOUS
 62
         7
100
AcDbVertex
100
AcDb2dVertex
 10
1451.6033403763
 20
-19.4433347407
 30
0.0
 70
         1
  0
SEQEND
  5
6B
100
AcDbEntity
  8
L1_100
  6
CONTINUOUS
 62
         7
  0
POLYLINE
  5
6D
100
AcDbEntity
  8
L1_100
  6
CONTINUOUS
 62
         7
100
AcDb2dPolyline
 66
         1
 10
0.0
 20
0.0
 30
0.0
 70
         2
  0
VERTEX
  5
6F
100
AcDbEntity
  8
L1_100
  6
CONTINUOUS
 62
         7
100
AcDbVertex
100
AcDb2dVertex
 10
1451.6033403763
 20
-19.4433347407
 30
0.0
 70
         1
  0
VERTEX
  5
71
100
AcDbEntity
  8
L1_100
  6
CONTINUOUS
 62
         7
100
AcDbVertex
100
AcDb2dVertex
 10
1451.5630418846
 20
-19.0344676954
 30
0.0
 70
         1
  0
VERTEX
  5
73
100
AcDbEntity
  8
L1_100
  6
CONTINUOUS
 62
         7
100
AcDbVertex
100
AcDb2dVertex
 10
1451.5096174491
 20
-18.823167389
 30
0.0
 70
         1
  0
VERTEX
  5
75
100
AcDbEntity
  8
L1_100
  6
CONTINUOUS
 62
         7
100
AcDbVertex
100
AcDb2dVertex
 10
1451.4319425346
 20
-18.6113347363
 30
0.0
 70
         1
  0
VERTEX
  5
77
100
AcDbEntity
  8
L1_100
  6
CONTINUOUS
 62
         7
100
AcDbVertex
100
AcDb2dVertex
 10
1451.329284095
 20
-18.402518417
 30
0.0
 70
         1
  0
VERTEX
  5
79
100
AcDbEntity
  8
L1_100
  6
CONTINUOUS
 62
         7
100
AcDbVertex
100
AcDb2dVertex
 10
1451.2017331579
 20
-18.2004990129
 30
0.0
 70
         1
  0
VERTEX
  5
7B
100
AcDbEntity
  8
L1_100
  6
CONTINUOUS
 62
         7
100
AcDbVertex
100
AcDb2dVertex
 10
1451.0502870364
 20
-18.0090862159
 30
0.0
 70
         1
  0
VERTEX
  5
7D
100
AcDbEntity
  8
L1_100
  6
CONTINUOUS
 62
         7
100
AcDbVertex
100
AcDb2dVertex
 10
1450.876858489
 20
-17.8318911331
 30
0.0
 70
         1
  0
VERTEX
  5
7F
100
AcDbEntity
  8
L1_100
  6
CONTINUOUS
 62
         7
100
AcDbVertex
100
AcDb2dVertex
 10
1450.6842028766
 20
-17.6720998213
 30
0.0
 70
         1
  0
VERTEX
  5
81
100
AcDbEntity
  8
L1_100
  6
CONTINUOUS
 62
         7
100
AcDbVertex
100
AcDb2dVertex
 10
1450.4757671981
 20
-17.532276511
 30
0.0
 70
         1
  0
VERTEX
  5
83
100
AcDbEntity
  8
L1_100
  6
CONTINUOUS
 62
         7
100
AcDbVertex
100
AcDb2dVertex
 10
1450.2554779421
 20
-17.4142214726
 30
0.0
 70
         1
  0
VERTEX
  5
85
100
AcDbEntity
  8
L1_100
  6
CONTINUOUS
 62
         7
100
AcDbVertex
100
AcDb2dVertex
 10
1450.0274945889
 20
-17.3188996937
 30
0.0
 70
         1
  0
VERTEX
  5
87
100
AcDbEntity
  8
L1_100
  6
CONTINUOUS
 62
         7
100
AcDbVertex
100
AcDb2dVertex
 10
1449.7959598323
 20
-17.2464446928
 30
0.0
 70
         1
  0
VERTEX
  5
89
100
AcDbEntity
  8
L1_100
  6
CONTINUOUS
 62
         7
100
AcDbVertex
100
AcDb2dVertex
 10
1449.5647754254
 20
-17.1962299552
 30
0.0
 70
         1
  0
VERTEX
  5
8B
100
AcDbEntity
  8
L1_100
  6
CONTINUOUS
 62
         7
100
AcDbVertex
100
AcDb2dVertex
 10
1449.2608394668
 20
-17.1614884383
 30
0.0
 70
         1
  0
VERTEX
  5
8D
100
AcDbEntity
  8
L1_100
  6
CONTINUOUS
 62
         7
100
AcDbVertex
100
AcDb2dVertex
 10
1448.9706439301
 20
-17.1601696754
 30
0.0
 70
         1
  0
VERTEX
  5
8F
100
AcDbEntity
  8
L1_100
  6
CONTINUOUS
 62
         7
100
AcDbVertex
100
AcDb2dVertex
 10
1448.6991372871
 20
-17.1870285681
 30
0.0
 70
         1
  0
VERTEX
  5
91
100
AcDbEntity
  8
L1_100
  6
CONTINUOUS
 62
         7
100
AcDbVertex
100
AcDb2dVertex
 10
1448.4493921827
 20
-17.236554117
 30
0.0
 70
         1
  0
VERTEX
  5
93
100
AcDbEntity
  8
L1_100
  6
CONTINUOUS
 62
         7
100
AcDbVertex
100
AcDb2dVertex
 10
1448.2228578758
 20
-17.3034414817
 30
0.0
 70
         1
  0
VERTEX
  5
95
100
AcDbEntity
  8
L1_100
  6
CONTINUOUS
 62
         7
100
AcDbVertex
100
AcDb2dVertex
 10
1447.9546184721
 20
-17.4126023665
 30
0.0
 70
         1
  0
VERTEX
  5
97
100
AcDbEntity
  8
L1_100
  6
CONTINUOUS
 62
         7
100
AcDbVertex
100
AcDb2dVertex
 10
1447.7265714419
 20
-17.5348905968
 30
0.0
 70
         1
  0
VERTEX
  5
99
100
AcDbEntity
  8
L1_100
  6
CONTINUOUS
 62
         7
100
AcDbVertex
100
AcDb2dVertex
 10
1447.5349114631
 20
-17.6628784824
 30
0.0
 70
         1
  0
VERTEX
  5
9B
100
AcDbEntity
  8
L1_100
  6
CONTINUOUS
 62
         7
100
AcDbVertex
100
AcDb2dVertex
 10
1447.3256600612
 20
-17.8357316594
 30
0.0
 70
         1
  0
VERTEX
  5
9D
100
AcDbEntity
  8
L1_100
  6
CONTINUOUS
 62
         7
100
AcDbVertex
100
AcDb2dVertex
 10
1447.1634261657
 20
-18.0011380049
 30
0.0
 70
         1
  0
VERTEX
  5
9F
100
AcDbEntity
  8
L1_100
  6
CONTINUOUS
 62
         7
100
AcDbVertex
100
AcDb2dVertex
 10
1447.0007195728
 20
-18.2064902361
 30
0.0
 70
         1
  0
VERTEX
  5
A1
100
AcDbEntity
  8
L1_100
  6
CONTINUOUS
 62
         7
100
AcDbVertex
100
AcDb2dVertex
 10
1446.8864732308
 20
-18.3864396079
 30
0.0
 70
         1
  0
VERTEX
  5
A3
100
AcDbEntity
  8
L1_100
  6
CONTINUOUS
 62
         7
100
AcDbVertex
100
AcDb2dVertex
 10
1446.7828636191
 20
-18.5925586412
 30
0.0
 70
         1
  0
VERTEX
  5
A5
100
AcDbEntity
  8
L1_100
  6
CONTINUOUS
 62
         7
100
AcDbVertex
100
AcDb2dVertex
 10
1446.700456429
 20
-18.812259328
 30
0.0
 70
         1
  0
VERTEX
  5
A7
100
AcDbEntity
  8
L1_100
  6
CONTINUOUS
 62
         7
100
AcDbVertex
100
AcDb2dVertex
 10
1446.6454027493
 20
-19.0256896729
 30
0.0
 70
         1
  0
VERTEX
  5
A9
100
AcDbEntity
  8
L1_100
  6
CONTINUOUS
 62
         7
100
AcDbVertex
100
AcDb2dVertex
 10
1446.6164428802
 20
-19.2095574543
 30
0.0
 70
         1
  0
VERTEX
  5
AB
100
AcDbEntity
  8
L1_100
  6
CONTINUOUS
 62
         7
100
AcDbVertex
100
AcDb2dVertex
 10
1446.6033403763
 20
-19.4433347396
 30
0.0
 70
         1
  0
SEQEND
  5
AD
100
AcDbEntity
  8
L1_100
  6
CONTINUOUS
 62
         7
  0
POLYLINE
  5
AF
100
AcDbEntity
  8
L1_100
  6
CONTINUOUS
 62
         7
100
AcDb2dPolyline
 66
         1
 10
0.0
 20
0.0
 30
0.0
 70
         2
  0
VERTEX
  5
B1
100
AcDbEntity
  8
L1_100
  6
CONTINUOUS
 62
         7
100
AcDbVertex
100
AcDb2dVertex
 10
1451.6033403763
 20
-6.4433347407
 30
0.0
 70
         1
  0
VERTEX
  5
B3
100
AcDbEntity
  8
L1_100
  6
CONTINUOUS
 62
         7
100
AcDbVertex
100
AcDb2dVertex
 10
1451.5630418845
 20
-6.0778598266
 30
0.0
 70
         1
  0
VERTEX
  5
B5
100
AcDbEntity
  8
L1_100
  6
CONTINUOUS
 62
         7
100
AcDbVertex
100
AcDb2dVertex
 10
1451.5096174491
 20
-5.8889843419
 30
0.0
 70
         1
  0
VERTEX
  5
B7
100
AcDbEntity
  8
L1_100
  6
CONTINUOUS
 62
         7
100
AcDbVertex
100
AcDb2dVertex
 10
1451.4319425345
 20
-5.6996330076
 30
0.0
 70
         1
  0
VERTEX
  5
B9
100
AcDbEntity
  8
L1_100
  6
CONTINUOUS
 62
         7
100
AcDbVertex
100
AcDb2dVertex
 10
1451.3292840948
 20
-5.5129778901
 30
0.0
 70
         1
  0
VERTEX
  5
BB
100
AcDbEntity
  8
L1_100
  6
CONTINUOUS
 62
         7
100
AcDbVertex
100
AcDb2dVertex
 10
1451.2017331577
 20
-5.3323983466
 30
0.0
 70
         1
  0
VERTEX
  5
BD
100
AcDbEntity
  8
L1_100
  6
CONTINUOUS
 62
         7
100
AcDbVertex
100
AcDb2dVertex
 10
1451.0502870361
 20
-5.1612997552
 30
0.0
 70
         1
  0
VERTEX
  5
BF
100
AcDbEntity
  8
L1_100
  6
CONTINUOUS
 62
         7
100
AcDbVertex
100
AcDb2dVertex
 10
1450.8768584886
 20
-5.0029099842
 30
0.0
 70
         1
  0
VERTEX
  5
C1
100
AcDbEntity
  8
L1_100
  6
CONTINUOUS
 62
         7
100
AcDbVertex
100
AcDb2dVertex
 10
1450.6842028761
 20
-4.8600769615
 30
0.0
 70
         1
  0
VERTEX
  5
C3
100
AcDbEntity
  8
L1_100
  6
CONTINUOUS
 62
         7
100
AcDbVertex
100
AcDb2dVertex
 10
1450.4757671974
 20
-4.7350927816
 30
0.0
 70
         1
  0
VERTEX
  5
C5
100
AcDbEntity
  8
L1_100
  6
CONTINUOUS
 62
         7
100
AcDbVertex
100
AcDb2dVertex
 10
1450.2554779413
 20
-4.6295666565
 30
0.0
 70
         1
  0
VERTEX
  5
C7
100
AcDbEntity
  8
L1_100
  6
CONTINUOUS
 62
         7
100
AcDbVertex
100
AcDb2dVertex
 10
1450.027494588
 20
-4.5443611616
 30
0.0
 70
         1
  0
VERTEX
  5
C9
100
AcDbEntity
  8
L1_100
  6
CONTINUOUS
 62
         7
100
AcDbVertex
100
AcDb2dVertex
 10
1449.7959598313
 20
-4.4795956455
 30
0.0
 70
         1
  0
VERTEX
  5
CB
100
AcDbEntity
  8
L1_100
  6
CONTINUOUS
 62
         7
100
AcDbVertex
100
AcDb2dVertex
 10
1449.4861654117
 20
-4.4236995734
 30
0.0
 70
         1
  0
VERTEX
  5
CD
100
AcDbEntity
  8
L1_100
  6
CONTINUOUS
 62
         7
100
AcDbVertex
100
AcDb2dVertex
 10
1449.1851607116
 20
-4.4006906694
 30
0.0
 70
         1
  0
VERTEX
  5
CF
100
AcDbEntity
  8
L1_100
  6
CONTINUOUS
 62
         7
100
AcDbVertex
100
AcDb2dVertex
 10
1448.8993469237
 20
-4.4064109256
 30
0.0
 70
         1
  0
VERTEX
  5
D1
100
AcDbEntity
  8
L1_100
  6
CONTINUOUS
 62
         7
100
AcDbVertex
100
AcDb2dVertex
 10
1448.6331778485
 20
-4.4360631081
 30
0.0
 70
         1
  0
VERTEX
  5
D3
100
AcDbEntity
  8
L1_100
  6
CONTINUOUS
 62
         7
100
AcDbVertex
100
AcDb2dVertex
 10
1448.3892822148
 20
-4.484733937
 30
0.0
 70
         1
  0
VERTEX
  5
D5
100
AcDbEntity
  8
L1_100
  6
CONTINUOUS
 62
         7
100
AcDbVertex
100
AcDb2dVertex
 10
1448.0977634371
 20
-4.5722134567
 30
0.0
 70
         1
  0
VERTEX
  5
D7
100
AcDbEntity
  8
L1_100
  6
CONTINUOUS
 62
         7
100
AcDbVertex
100
AcDb2dVertex
 10
1447.8478835235
 20
-4.6759879559
 30
0.0
 70
         1
  0
VERTEX
  5
D9
100
AcDbEntity
  8
L1_100
  6
CONTINUOUS
 62
         7
100
AcDbVertex
100
AcDb2dVertex
 10
1447.6366383153
 20
-4.7882776493
 30
0.0
 70
         1
  0
VERTEX
  5
DB
100
AcDbEntity
  8
L1_100
  6
CONTINUOUS
 62
         7
100
AcDbVertex
100
AcDb2dVertex
 10
1447.4598006582
 20
-4.9033203691
 30
0.0
 70
         1
  0
VERTEX
  5
DD
100
AcDbEntity
  8
L1_100
  6
CONTINUOUS
 62
         7
100
AcDbVertex
100
AcDb2dVertex
 10
1447.2673034111
 20
-5.0562472805
 30
0.0
 70
         1
  0
VERTEX
  5
DF
100
AcDbEntity
  8
L1_100
  6
CONTINUOUS
 62
         7
100
AcDbVertex
100
AcDb2dVertex
 10
1447.1183449569
 20
-5.2009046682
 30
0.0
 70
         1
  0
VERTEX
  5
E1
100
AcDbEntity
  8
L1_100
  6
CONTINUOUS
 62
         7
100
AcDbVertex
100
AcDb2dVertex
 10
1446.9690680885
 20
-5.3790566662
 30
0.0
 70
         1
  0
VERTEX
  5
E3
100
AcDbEntity
  8
L1_100
  6
CONTINUOUS
 62
         7
100
AcDbVertex
100
AcDb2dVertex
 10
1446.8642268375
 20
-5.5343434237
 30
0.0
 70
         1
  0
VERTEX
  5
E5
100
AcDbEntity
  8
L1_100
  6
CONTINUOUS
 62
         7
100
AcDbVertex
100
AcDb2dVertex
 10
1446.7690395488
 20
-5.711669518
 30
0.0
 70
         1
  0
VERTEX
  5
E7
100
AcDbEntity
  8
L1_100
  6
CONTINUOUS
 62
         7
100
AcDbVertex
100
AcDb2dVertex
 10
1446.6931740241
 20
-5.9003932543
 30
0.0
 70
         1
  0
VERTEX
  5
E9
100
AcDbEntity
  8
L1_100
  6
CONTINUOUS
 62
         7
100
AcDbVertex
100
AcDb2dVertex
 10
1446.6423442801
 20
-6.0837312587
 30
0.0
 70
         1
  0
VERTEX
  5
EB
100
AcDbEntity
  8
L1_100
  6
CONTINUOUS
 62
         7
100
AcDbVertex
100
AcDb2dVertex
 10
1446.6101574301
 20
-6.2925100279
 30
0.0
 70
         1
  0
VERTEX
  5
ED
100
AcDbEntity
  8
L1_100
  6
CONTINUOUS
 62
         7
100
AcDbVertex
100
AcDb2dVertex
 10
1446.6033403763
 20
-6.4433347407
 30
0.0
 70
         1
  0
SEQEND
  5
EF
100
AcDbEntity
  8
L1_100
  6
CONTINUOUS
 62
         7
  0
POLYLINE
  5
F1
100
AcDbEntity
  8
L1_100
  6
CONTINUOUS
 62
         7
100
AcDb2dPolyline
 66
         1
 10
0.0
 20
0.0
 30
0.0
 70
         2
  0
VERTEX
  5
F3
100
AcDbEntity
  8
L1_100
  6
CONTINUOUS
 62
         7
100
AcDbVertex
100
AcDb2dVertex
 10
1446.6033403763
 20
-6.4433347417
 30
0.0
 70
         1
  0
VERTEX
  5
F5
100
AcDbEntity
  8
L1_100
  6
CONTINUOUS
 62
         7
100
AcDbVertex
100
AcDb2dVertex
 10
1446.6436388682
 20
-6.8522017871
 30
0.0
 70
         1
  0
VERTEX
  5
F7
100
AcDbEntity
  8
L1_100
  6
CONTINUOUS
 62
         7
100
AcDbVertex
100
AcDb2dVertex
 10
1446.6970633038
 20
-7.0635020936
 30
0.0
 70
         1
  0
VERTEX
  5
F9
100
AcDbEntity
  8
L1_100
  6
CONTINUOUS
 62
         7
100
AcDbVertex
100
AcDb2dVertex
 10
1446.7747382185
 20
-7.2753347463
 30
0.0
 70
         1
  0
VERTEX
  5
FB
100
AcDbEntity
  8
L1_100
  6
CONTINUOUS
 62
         7
100
AcDbVertex
100
AcDb2dVertex
 10
1446.8773966583
 20
-7.4841510657
 30
0.0
 70
         1
  0
VERTEX
  5
FD
100
AcDbEntity
  8
L1_100
  6
CONTINUOUS
 62
         7
100
AcDbVertex
100
AcDb2dVertex
 10
1447.0049475955
 20
-7.6861704698
 30
0.0
 70
         1
  0
VERTEX
  5
FF
100
AcDbEntity
  8
L1_100
  6
CONTINUOUS
 62
         7
100
AcDbVertex
100
AcDb2dVertex
 10
1447.1563937173
 20
-7.8775832668
 30
0.0
 70
         1
  0
VERTEX
  5
101
100
AcDbEntity
  8
L1_100
  6
CONTINUOUS
 62
         7
100
AcDbVertex
100
AcDb2dVertex
 10
1447.3298222649
 20
-8.0547783495
 30
0.0
 70
         1
  0
VERTEX
  5
103
100
AcDbEntity
  8
L1_100
  6
CONTINUOUS
 62
         7
100
AcDbVertex
100
AcDb2dVertex
 10
1447.5224778775
 20
-8.2145696612
 30
0.0
 70
         1
  0
VERTEX
  5
105
100
AcDbEntity
  8
L1_100
  6
CONTINUOUS
 62
         7
100
AcDbVertex
100
AcDb2dVertex
 10
1447.7309135562
 20
-8.3543929714
 30
0.0
 70
         1
  0
VERTEX
  5
107
100
AcDbEntity
  8
L1_100
  6
CONTINUOUS
 62
         7
100
AcDbVertex
100
AcDb2dVertex
 10
1447.9512028123
 20
-8.4724480097
 30
0.0
 70
         1
  0
VERTEX
  5
109
100
AcDbEntity
  8
L1_100
  6
CONTINUOUS
 62
         7
100
AcDbVertex
100
AcDb2dVertex
 10
1448.1791861657
 20
-8.5677697884
 30
0.0
 70
         1
  0
VERTEX
  5
10B
100
AcDbEntity
  8
L1_100
  6
CONTINUOUS
 62
         7
100
AcDbVertex
100
AcDb2dVertex
 10
1448.4107209224
 20
-8.6402247891
 30
0.0
 70
         1
  0
VERTEX
  5
10D
100
AcDbEntity
  8
L1_100
  6
CONTINUOUS
 62
         7
100
AcDbVertex
100
AcDb2dVertex
 10
1448.6419053293
 20
-8.6904395265
 30
0.0
 70
         1
  0
VERTEX
  5
10F
100
AcDbEntity
  8
L1_100
  6
CONTINUOUS
 62
         7
100
AcDbVertex
100
AcDb2dVertex
 10
1448.945841288
 20
-8.7251810431
 30
0.0
 70
         1
  0
VERTEX
  5
111
100
AcDbEntity
  8
L1_100
  6
CONTINUOUS
 62
         7
100
AcDbVertex
100
AcDb2dVertex
 10
1449.2360368247
 20
-8.7264998058
 30
0.0
 70
         1
  0
VERTEX
  5
113
100
AcDbEntity
  8
L1_100
  6
CONTINUOUS
 62
         7
100
AcDbVertex
100
AcDb2dVertex
 10
1449.5075434677
 20
-8.699640913
 30
0.0
 70
         1
  0
VERTEX
  5
115
100
AcDbEntity
  8
L1_100
  6
CONTINUOUS
 62
         7
100
AcDbVertex
100
AcDb2dVertex
 10
1449.757288572
 20
-8.6501153638
 30
0.0
 70
         1
  0
VERTEX
  5
117
100
AcDbEntity
  8
L1_100
  6
CONTINUOUS
 62
         7
100
AcDbVertex
100
AcDb2dVertex
 10
1449.9838228788
 20
-8.5832279989
 30
0.0
 70
         1
  0
VERTEX
  5
119
100
AcDbEntity
  8
L1_100
  6
CONTINUOUS
 62
         7
100
AcDbVertex
100
AcDb2dVertex
 10
1450.2520622823
 20
-8.4740671139
 30
0.0
 70
         1
  0
VERTEX
  5
11B
100
AcDbEntity
  8
L1_100
  6
CONTINUOUS
 62
         7
100
AcDbVertex
100
AcDb2dVertex
 10
1450.4801093124
 20
-8.3517788835
 30
0.0
 70
         1
  0
VERTEX
  5
11D
100
AcDbEntity
  8
L1_100
  6
CONTINUOUS
 62
         7
100
AcDbVertex
100
AcDb2dVertex
 10
1450.671769291
 20
-8.2237909978
 30
0.0
 70
         1
  0
VERTEX
  5
11F
100
AcDbEntity
  8
L1_100
  6
CONTINUOUS
 62
         7
100
AcDbVertex
100
AcDb2dVertex
 10
1450.8810206927
 20
-8.0509378207
 30
0.0
 70
         1
  0
VERTEX
  5
121
100
AcDbEntity
  8
L1_100
  6
CONTINUOUS
 62
         7
100
AcDbVertex
100
AcDb2dVertex
 10
1451.043254588
 20
-7.8855314752
 30
0.0
 70
         1
  0
VERTEX
  5
123
100
AcDbEntity
  8
L1_100
  6
CONTINUOUS
 62
         7
100
AcDbVertex
100
AcDb2dVertex
 10
1451.2059611806
 20
-7.6801792439
 30
0.0
 70
         1
  0
VERTEX
  5
125
100
AcDbEntity
  8
L1_100
  6
CONTINUOUS
 62
         7
100
AcDbVertex
100
AcDb2dVertex
 10
1451.3202075225
 20
-7.500229872
 30
0.0
 70
         1
  0
VERTEX
  5
127
100
AcDbEntity
  8
L1_100
  6
CONTINUOUS
 62
         7
100
AcDbVertex
100
AcDb2dVertex
 10
1451.423817134
 20
-7.2941108388
 30
0.0
 70
         1
  0
VERTEX
  5
129
100
AcDbEntity
  8
L1_100
  6
CONTINUOUS
 62
         7
100
AcDbVertex
100
AcDb2dVertex
 10
1451.5062243239
 20
-7.0744101521
 30
0.0
 70
         1
  0
VERTEX
  5
12B
100
AcDbEntity
  8
L1_100
  6
CONTINUOUS
 62
         7
100
AcDbVertex
100
AcDb2dVertex
 10
1451.5612780034
 20
-6.8609798073
 30
0.0
 70
         1
  0
VERTEX
  5
12D
100
AcDbEntity
  8
L1_100
  6
CONTINUOUS
 62
         7
100
AcDbVertex
100
AcDb2dVertex
 10
1451.5902378724
 20
-6.6771120259
 30
0.0
 70
         1
  0
VERTEX
  5
12F
100
AcDbEntity
  8
L1_100
  6
CONTINUOUS
 62
         7
100
AcDbVertex
100
AcDb2dVertex
 10
1451.6033403763
 20
-6.4433347407
 30
0.0
 70
         1
  0
SEQEND
  5
131
100
AcDbEntity
  8
L1_100
  6
CONTINUOUS
 62
         7
  0
LINE
  5
132
100
AcDbEntity
  8
L1_100
  6
CENTER
 62
         1
100
AcDbLine
 10
1616.5804611927
 20
59.9156360559
 30
0.0
 11
1572.112241854
 21
59.9156360559
 31
0.0
  0
LINE
  5
133
100
AcDbEntity
  8
L1_100
  6
CONTINUOUS
 62
         7
100
AcDbLine
 10
1582.7144336058
 20
39.9156360559
 30
0.0
 11
1582.7144336058
 21
79.9156360559
 31
0.0
  0
LINE
  5
134
100
AcDbEntity
  8
L1_100
  6
CONTINUOUS
 62
         7
100
AcDbLine
 10
1601.5597330674
 20
79.9156360559
 30
0.0
 11
1601.5597330674
 21
39.9156360559
 31
0.0
  0
LINE
  5
135
100
AcDbEntity
  8
L1_100
  6
CONTINUOUS
 62
         7
100
AcDbLine
 10
1601.5597330674
 20
79.9156360559
 30
0.0
 11
1602.1370833366
 21
78.9156360559
 31
0.0
  0
LINE
  5
136
100
AcDbEntity
  8
L1_100
  6
CONTINUOUS
 62
         7
100
AcDbLine
 10
1582.7144336058
 20
79.9156360559
 30
0.0
 11
1582.1370833366
 21
78.9156360559
 31
0.0
  0
LINE
  5
137
100
AcDbEntity
  8
L1_100
  6
CONTINUOUS
 62
         7
100
AcDbLine
 10
1582.7144336058
 20
39.9156360559
 30
0.0
 11
1582.1370833366
 21
40.9156360559
 31
0.0
  0
LINE
  5
138
100
AcDbEntity
  8
L1_100
  6
CONTINUOUS
 62
         7
100
AcDbLine
 10
1601.5597330674
 20
39.9156360559
 30
0.0
 11
1602.1370833366
 21
40.9156360559
 31
0.0
  0
LINE
  5
139
100
AcDbEntity
  8
L1_100
  6
CONTINUOUS
 62
         7
100
AcDbLine
 10
1612.1370833366
 20
41.4156360559
 30
0.0
 11
1611.6370833366
 21
40.9156360559
 31
0.0
  0
LINE
  5
13A
100
AcDbEntity
  8
L1_100
  6
CONTINUOUS
 62
         7
100
AcDbLine
 10
1611.6370833366
 20
78.9156360559
 30
0.0
 11
1612.1370833366
 21
78.4156360559
 31
0.0
  0
LINE
  5
13B
100
AcDbEntity
  8
L1_100
  6
CONTINUOUS
 62
         7
100
AcDbLine
 10
1578.1370833366
 20
41.4156360559
 30
0.0
 11
1578.6370833366
 21
40.9156360559
 31
0.0
  0
LINE
  5
13C
100
AcDbEntity
  8
L1_100
  6
CONTINUOUS
 62
         7
100
AcDbLine
 10
1578.6370833366
 20
78.9156360559
 30
0.0
 11
1578.1370833366
 21
78.4156360559
 31
0.0
  0
LINE
  5
13D
100
AcDbEntity
  8
L1_100
  6
CONTINUOUS
 62
         7
100
AcDbLine
 10
1582.1370833366
 20
40.9156360559
 30
0.0
 11
1578.6370833366
 21
40.9156360559
 31
0.0
  0
LINE
  5
13E
100
AcDbEntity
  8
L1_100
  6
CONTINUOUS
 62
         7
100
AcDbLine
 10
1582.1370833366
 20
78.9156360559
 30
0.0
 11
1578.6370833366
 21
78.9156360559
 31
0.0
  0
LINE
  5
13F
100
AcDbEntity
  8
L1_100
  6
CONTINUOUS
 62
         7
100
AcDbLine
 10
1601.5597330674
 20
39.9156360559
 30
0.0
 11
1582.7144336058
 21
39.9156360559
 31
0.0
  0
LINE
  5
140
100
AcDbEntity
  8
L1_100
  6
CONTINUOUS
 62
         7
100
AcDbLine
 10
1582.1370833366
 20
78.9156360559
 30
0.0
 11
1582.1370833366
 21
40.9156360559
 31
0.0
  0
LINE
  5
141
100
AcDbEntity
  8
L1_100
  6
CONTINUOUS
 62
         7
100
AcDbLine
 10
1611.6370833366
 20
40.9156360559
 30
0.0
 11
1602.1370833366
 21
40.9156360559
 31
0.0
  0
LINE
  5
142
100
AcDbEntity
  8
L1_100
  6
CONTINUOUS
 62
         7
100
AcDbLine
 10
1611.6370833366
 20
78.9156360559
 30
0.0
 11
1602.1370833366
 21
78.9156360559
 31
0.0
  0
LINE
  5
143
100
AcDbEntity
  8
L1_100
  6
CONTINUOUS
 62
         7
100
AcDbLine
 10
1601.5597330674
 20
79.9156360559
 30
0.0
 11
1582.7144336058
 21
79.9156360559
 31
0.0
  0
LINE
  5
144
100
AcDbEntity
  8
L1_100
  6
CONTINUOUS
 62
         7
100
AcDbLine
 10
1602.1370833366
 20
78.9156360559
 30
0.0
 11
1602.1370833366
 21
40.9156360559
 31
0.0
  0
LINE
  5
145
100
AcDbEntity
  8
L1_100
  6
CONTINUOUS
 62
         7
100
AcDbLine
 10
1612.1370833366
 20
78.4156360559
 30
0.0
 11
1612.1370833366
 21
41.4156360559
 31
0.0
  0
LINE
  5
146
100
AcDbEntity
  8
L1_100
  6
CONTINUOUS
 62
         7
100
AcDbLine
 10
1578.1370833366
 20
78.4156360559
 30
0.0
 11
1578.1370833366
 21
41.4156360559
 31
0.0
  0
LINE
  5
147
100
AcDbEntity
  8
L1_100
  6
CONTINUOUS
 62
         7
100
AcDbLine
 10
1611.6370833366
 20
78.9156360559
 30
0.0
 11
1611.6370833366
 21
40.9156360559
 31
0.0
  0
LINE
  5
148
100
AcDbEntity
  8
L1_100
  6
CONTINUOUS
 62
         7
100
AcDbLine
 10
1578.6370833366
 20
78.9156360559
 30
0.0
 11
1578.6370833366
 21
40.9156360559
 31
0.0
  0
LINE
  5
149
100
AcDbEntity
  8
L1_100
  6
DASHED
 62
         2
100
AcDbLine
 10
1426.1033403763
 20
133.6846417294
 30
0.0
 11
1426.1033403763
 21
166.6846417294
 31
0.0
  0
DIMENSION
  5
14D
100
AcDbEntity
  8
L1_100
  6
CONTINUOUS
 62
         4
100
AcDbDimension
  2
*D0
 10
1467.1033403763
 20
211.6366188629
 30
0.0
 11
1423.9171287503
 21
213.6616188629
 31
0.0
  3
DIMSTYLE1
100
AcDbAlignedDimension
 13
1467.1033403763
 23
150.1846417294
 33
0.0
 14
1392.1033403763
 24
172.4096417294
 34
0.0
100
AcDbRotatedDimension
  0
DIMENSION
  5
15C
100
AcDbEntity
  8
L1_100
  6
CONTINUOUS
 62
         4
100
AcDbDimension
  2
*D1
 10
1326.7033403763
 20
218.8207328232
 30
0.0
 11
1391.9195167953
 21
220.8457328232
 31
0.0
  3
DIMSTYLE1
100
AcDbAlignedDimension
 13
1326.7033403763
 23
162.0074490628
 33
0.0
 14
1467.1033403763
 24
150.1846417294
 34
0.0
100
AcDbRotatedDimension
  0
LINE
  5
168
100
AcDbEntity
  8
L1_100
  6
CONTINUOUS
 62
         7
100
AcDbLine
 10
1394.1033403763
 20
180.6846417294
 30
0.0
 11
1394.1033403763
 21
119.6846417294
 31
0.0
  0
LINE
  5
169
100
AcDbEntity
  8
L1_100
  6
CENTER
 62
         1
100
AcDbLine
 10
1392.1033403763
 20
172.4096417294
 30
0.0
 11
1392.1033403763
 21
127.9596417294
 31
0.0
  0
LINE
  5
16A
100
AcDbEntity
  8
L1_100
  6
CONTINUOUS
 62
         7
100
AcDbLine
 10
1326.7033403763
 20
162.0074490628
 30
0.0
 11
1326.7033403763
 21
138.361834396
 31
0.0
  0
DIMENSION
  5
16E
100
AcDbEntity
  8
L1_100
  6
CONTINUOUS
 62
         4
100
AcDbDimension
  2
*D2
 10
1657.1569319304
 20
70.9286168407
 30
0.0
 11
1663.0935136238
 21
72.9535953478
 31
0.0
 70
         3
  3
DIMSTYLE2
100
AcDbDiametricDimension
 15
1661.8844686424
 25
71.5004915053
 35
0.0
 40
0.0
  0
CIRCLE
  5
179
100
AcDbEntity
  8
L1_100
  6
CONTINUOUS
 62
         7
100
AcDbCircle
 10
1659.5207002864
 20
71.214554173
 30
0.0
 40
2.3809999998
  0
LINE
  5
17A
100
AcDbEntity
  8
L1_100
  6
CENTER
 62
         1
100
AcDbLine
 10
1677.9195393156
 20
-0.0402558074
 30
0.0
 11
1646.2170839597
 21
-0.0402558074
 31
0.0
  0
CIRCLE
  5
17B
100
AcDbEntity
  8
L1_100
  6
CONTINUOUS
 62
         7
100
AcDbCircle
 10
1666.6726319054
 20
-14.5842558074
 30
0.0
 40
0.96
  0
CIRCLE
  5
17C
100
AcDbEntity
  8
L1_100
  6
CONTINUOUS
 62
         7
100
AcDbCircle
 10
1658.9926319054
 20
-14.5842558074
 30
0.0
 40
0.96
  0
LINE
  5
17D
100
AcDbEntity
  8
L1_100
  6
CONTINUOUS
 62
         7
100
AcDbLine
 10
1660.9126319054
 20
-16.5042558074
 30
0.0
 11
1658.9926319054
 21
-16.5042558074
 31
0.0
  0
LINE
  5
17E
100
AcDbEntity
  8
L1_100
  6
CONTINUOUS
 62
         7
100
AcDbLine
 10
1666.6726319054
 20
-16.5042558074
 30
0.0
 11
1664.7526319054
 21
-16.5042558074
 31
0.0
  0
ARC
  5
17F
100
AcDbEntity
  8
L1_100
  6
CONTINUOUS
 62
         7
100
AcDbCircle
 10
1666.6726319054
 20
-14.5842558074
 30
0.0
 40
1.92
100
AcDbArc
 50
270.0
 51
360.0
  0
LINE
  5
180
100
AcDbEntity
  8
L1_100
  6
CONTINUOUS
 62
         7
100
AcDbLine
 10
1668.5926319054
 20
-14.5842558074
 30
0.0
 11
1668.5926319054
 21
-13.9487476019
 31
0.0
  0
ARC
  5
181
100
AcDbEntity
  8
L1_100
  6
CONTINUOUS
 62
         7
100
AcDbCircle
 10
1670.5126319054
 20
-13.9487476019
 30
0.0
 40
1.92
100
AcDbArc
 50
118.906630073
 51
180.0000000001
  0
ARC
  5
182
100
AcDbEntity
  8
L1_100
  6
CONTINUOUS
 62
         7
100
AcDbCircle
 10
1662.8326319054
 20
-0.0402558074
 30
0.0
 40
13.968
100
AcDbArc
 50
298.906630073
 51
601.093369927
  0
ARC
  5
183
100
AcDbEntity
  8
L1_100
  6
CONTINUOUS
 62
         7
100
AcDbCircle
 10
1658.9926319054
 20
-14.5842558074
 30
0.0
 40
1.92
100
AcDbArc
 50
180.0
 51
270.0
  0
LINE
  5
184
100
AcDbEntity
  8
L1_100
  6
CONTINUOUS
 62
         7
100
AcDbLine
 10
1657.0726319054
 20
-14.5842558074
 30
0.0
 11
1657.0726319054
 21
-13.9487476019
 31
0.0
  0
ARC
  5
185
100
AcDbEntity
  8
L1_100
  6
CONTINUOUS
 62
         7
100
AcDbCircle
 10
1655.1526319054
 20
-13.9487476019
 30
0.0
 40
1.92
100
AcDbArc
 50
0.0
 51
61.0933699271
  0
LINE
  5
186
100
AcDbEntity
  8
L1_100
  6
CONTINUOUS
 62
         7
100
AcDbLine
 10
1660.9126319054
 20
-16.5042558074
 30
0.0
 11
1660.9126319054
 21
-12.1204792689
 31
0.0
  0
LINE
  5
187
100
AcDbEntity
  8
L1_100
  6
CONTINUOUS
 62
         7
100
AcDbLine
 10
1664.7526319054
 20
-16.5042558074
 30
0.0
 11
1664.7526319054
 21
-12.1204792689
 31
0.0
  0
ARC
  5
188
100
AcDbEntity
  8
L1_100
  6
CONTINUOUS
 62
         7
100
AcDbCircle
 10
1662.8326319054
 20
-0.6642558074
 30
0.0
 40
11.616
100
AcDbArc
 50
279.5140383561
 51
620.4859616439
  0
DIMENSION
  5
18C
100
AcDbEntity
  8
L1_100
  6
CONTINUOUS
 62
         4
100
AcDbDimension
  2
*D3
 10
1651.8935339569
 20
-4.5716324302
 30
0.0
 11
1677.1297675863
 21
5.8609026272
 31
0.0
 70
         3
  3
DIMSTYLE3
100
AcDbDiametricDimension
 15
1673.7717298539
 25
3.2431208155
 35
0.0
 40
0.0
  0
LINE
  5
197
100
AcDbEntity
  8
L1_100
  6
CENTER
 62
         1
100
AcDbLine
 10
1662.8326319054
 20
-16.893057631
 30
0.0
 11
1662.8326319054
 21
15.3354037941
 31
0.0
  0
ARC
  5
198
100
AcDbEntity
  8
L1_100
  6
CONTINUOUS
 62
         7
100
AcDbCircle
 10
1581.7060425956
 20
-18.1958927486
 30
0.0
 40
0.96768
100
AcDbArc
 50
165.0604480709
 51
360.0000000001
  0
ARC
  5
199
100
AcDbEntity
  8
L1_100
  6
CONTINUOUS
 62
         7
100
AcDbCircle
 10
1583.7672040463
 20
12.4687472514
 30
0.0
 40
0.96768
100
AcDbArc
 50
345.0604480705
 51
539.9999999997
  0
ARC
  5
19A
100
AcDbEntity
  8
L1_100
  6
CONTINUOUS
 62
         7
100
AcDbCircle
 10
1585.5767625956
 20
-18.1958927486
 30
0.0
 40
0.96768
100
AcDbArc
 50
165.0604480713
 51
359.9999999997
  0
ARC
  5
19B
100
AcDbEntity
  8
L1_100
  6
CONTINUOUS
 62
         7
100
AcDbCircle
 10
1587.6379240463
 20
12.4687472514
 30
0.0
 40
0.96768
100
AcDbArc
 50
345.0604480709
 51
539.9999999997
  0
ARC
  5
19C
100
AcDbEntity
  8
L1_100
  6
CONTINUOUS
 62
         7
100
AcDbCircle
 10
1589.4474825956
 20
-18.1958927486
 30
0.0
 40
0.96768
100
AcDbArc
 50
165.0604480709
 51
359.9999999997
  0
ARC
  5
19D
100
AcDbEntity
  8
L1_100
  6
CONTINUOUS
 62
         7
100
AcDbCircle
 10
1591.5086440463
 20
12.4687472514
 30
0.0
 40
0.96768
100
AcDbArc
 50
345.0604480705
 51
539.9999999997
  0
ARC
  5
19E
100
AcDbEntity
  8
L1_100
  6
CONTINUOUS
 62
         7
100
AcDbCircle
 10
1593.3182025956
 20
-18.1958927486
 30
0.0
 40
0.96768
100
AcDbArc
 50
165.0604480713
 51
360.0000000001
  0
ARC
  5
19F
100
AcDbEntity
  8
L1_100
  6
CONTINUOUS
 62
         7
100
AcDbCircle
 10
1595.3793640463
 20
12.4687472514
 30
0.0
 40
0.96768
100
AcDbArc
 50
345.0604480713
 51
540.0000000001
  0
ARC
  5
1A0
100
AcDbEntity
  8
L1_100
  6
CONTINUOUS
 62
         7
100
AcDbCircle
 10
1597.1889225956
 20
-18.1958927486
 30
0.0
 40
0.96768
100
AcDbArc
 50
165.0604480709
 51
359.9999999997
  0
ARC
  5
1A1
100
AcDbEntity
  8
L1_100
  6
CONTINUOUS
 62
         7
100
AcDbCircle
 10
1599.2500840463
 20
12.4687472514
 30
0.0
 40
0.96768
100
AcDbArc
 50
345.0604480713
 51
539.9999999997
  0
ARC
  5
1A2
100
AcDbEntity
  8
L1_100
  6
CONTINUOUS
 62
         7
100
AcDbCircle
 10
1601.0596425956
 20
-18.1958927486
 30
0.0
 40
0.96768
100
AcDbArc
 50
165.0604480713
 51
360.0000000006
  0
ARC
  5
1A3
100
AcDbEntity
  8
L1_100
  6
CONTINUOUS
 62
         7
100
AcDbCircle
 10
1603.1208040463
 20
12.4687472514
 30
0.0
 40
0.96768
100
AcDbArc
 50
345.0604480709
 51
539.9999999997
  0
ARC
  5
1A4
100
AcDbEntity
  8
L1_100
  6
CONTINUOUS
 62
         7
100
AcDbCircle
 10
1604.9303625956
 20
-18.1958927486
 30
0.0
 40
0.96768
100
AcDbArc
 50
165.0604480713
 51
360.0000000001
  0
ARC
  5
1A5
100
AcDbEntity
  8
L1_100
  6
CONTINUOUS
 62
         7
100
AcDbCircle
 10
1606.9915240463
 20
12.4687472514
 30
0.0
 40
0.96768
100
AcDbArc
 50
345.0604480713
 51
539.9999999997
  0
LINE
  5
1A6
100
AcDbEntity
  8
L1_100
  6
CONTINUOUS
 62
         7
100
AcDbLine
 10
1582.7995240463
 20
12.4687472514
 30
0.0
 11
1580.7383625956
 21
-18.1958927486
 31
0.0
  0
LINE
  5
1A7
100
AcDbEntity
  8
L1_100
  6
CONTINUOUS
 62
         7
100
AcDbLine
 10
1584.7348840463
 20
12.4687472514
 30
0.0
 11
1582.6737225956
 21
-18.1958927486
 31
0.0
  0
LINE
  5
1A8
100
AcDbEntity
  8
L1_100
  6
CONTINUOUS
 62
         7
100
AcDbLine
 10
1586.6702440463
 20
12.4687472514
 30
0.0
 11
1584.6090825956
 21
-18.1958927486
 31
0.0
  0
LINE
  5
1A9
100
AcDbEntity
  8
L1_100
  6
CONTINUOUS
 62
         7
100
AcDbLine
 10
1588.6056040463
 20
12.4687472514
 30
0.0
 11
1586.5444425956
 21
-18.1958927486
 31
0.0
  0
LINE
  5
1AA
100
AcDbEntity
  8
L1_100
  6
CONTINUOUS
 62
         7
100
AcDbLine
 10
1590.5409640463
 20
12.4687472514
 30
0.0
 11
1588.4798025956
 21
-18.1958927486
 31
0.0
  0
LINE
  5
1AB
100
AcDbEntity
  8
L1_100
  6
CONTINUOUS
 62
         7
100
AcDbLine
 10
1592.4763240463
 20
12.4687472514
 30
0.0
 11
1590.4151625956
 21
-18.1958927486
 31
0.0
  0
LINE
  5
1AC
100
AcDbEntity
  8
L1_100
  6
CONTINUOUS
 62
         7
100
AcDbLine
 10
1594.4116840463
 20
12.4687472514
 30
0.0
 11
1592.3505225956
 21
-18.1958927486
 31
0.0
  0
LINE
  5
1AD
100
AcDbEntity
  8
L1_100
  6
CONTINUOUS
 62
         7
100
AcDbLine
 10
1596.3470440463
 20
12.4687472514
 30
0.0
 11
1594.2858825956
 21
-18.1958927486
 31
0.0
  0
LINE
  5
1AE
100
AcDbEntity
  8
L1_100
  6
CONTINUOUS
 62
         7
100
AcDbLine
 10
1598.2824040463
 20
12.4687472514
 30
0.0
 11
1596.2212425956
 21
-18.1958927486
 31
0.0
  0
LINE
  5
1AF
100
AcDbEntity
  8
L1_100
  6
CONTINUOUS
 62
         7
100
AcDbLine
 10
1600.2177640463
 20
12.4687472514
 30
0.0
 11
1598.1566025956
 21
-18.1958927486
 31
0.0
  0
LINE
  5
1B0
100
AcDbEntity
  8
L1_100
  6
CONTINUOUS
 62
         7
100
AcDbLine
 10
1602.1531240463
 20
12.4687472514
 30
0.0
 11
1600.0919625956
 21
-18.1958927486
 31
0.0
  0
LINE
  5
1B1
100
AcDbEntity
  8
L1_100
  6
CONTINUOUS
 62
         7
100
AcDbLine
 10
1604.0884840463
 20
12.4687472514
 30
0.0
 11
1602.0273225956
 21
-18.1958927486
 31
0.0
  0
LINE
  5
1B2
100
AcDbEntity
  8
L1_100
  6
CONTINUOUS
 62
         7
100
AcDbLine
 10
1606.0238440463
 20
12.4687472514
 30
0.0
 11
1603.9626825956
 21
-18.1958927486
 31
0.0
  0
LINE
  5
1B3
100
AcDbEntity
  8
L1_100
  6
CONTINUOUS
 62
         7
100
AcDbLine
 10
1607.9592040463
 20
12.4687472514
 30
0.0
 11
1605.8980425956
 21
-18.1958927486
 31
0.0
  0
LINE
  5
1B4
100
AcDbEntity
  8
L1_100
  6
CONTINUOUS
 62
         7
100
AcDbLine
 10
1604.993263321
 20
-2.8635727486
 30
0.0
 11
1604.0884840463
 21
12.4687472514
 31
0.0
  0
LINE
  5
1B5
100
AcDbEntity
  8
L1_100
  6
CONTINUOUS
 62
         7
100
AcDbLine
 10
1603.9626825956
 20
-18.1958927486
 30
0.0
 11
1603.057903321
 21
-2.8635727486
 31
0.0
  0
LINE
  5
1B6
100
AcDbEntity
  8
L1_100
  6
CONTINUOUS
 62
         7
100
AcDbLine
 10
1601.122543321
 20
-2.8635727486
 30
0.0
 11
1600.2177640463
 21
12.4687472514
 31
0.0
  0
LINE
  5
1B7
100
AcDbEntity
  8
L1_100
  6
CONTINUOUS
 62
         7
100
AcDbLine
 10
1600.0919625956
 20
-18.1958927486
 30
0.0
 11
1599.187183321
 21
-2.8635727486
 31
0.0
  0
LINE
  5
1B8
100
AcDbEntity
  8
L1_100
  6
CONTINUOUS
 62
         7
100
AcDbLine
 10
1597.251823321
 20
-2.8635727486
 30
0.0
 11
1596.3470440463
 21
12.4687472514
 31
0.0
  0
LINE
  5
1B9
100
AcDbEntity
  8
L1_100
  6
CONTINUOUS
 62
         7
100
AcDbLine
 10
1596.2212425956
 20
-18.1958927486
 30
0.0
 11
1595.316463321
 21
-2.8635727486
 31
0.0
  0
LINE
  5
1BA
100
AcDbEntity
  8
L1_100
  6
CONTINUOUS
 62
         7
100
AcDbLine
 10
1593.381103321
 20
-2.8635727486
 30
0.0
 11
1592.4763240463
 21
12.4687472514
 31
0.0
  0
LINE
  5
1BB
100
AcDbEntity
  8
L1_100
  6
CONTINUOUS
 62
         7
100
AcDbLine
 10
1592.3505225956
 20
-18.1958927486
 30
0.0
 11
1591.445743321
 21
-2.8635727486
 31
0.0
  0
LINE
  5
1BC
100
AcDbEntity
  8
L1_100
  6
CONTINUOUS
 62
         7
100
AcDbLine
 10
1589.510383321
 20
-2.8635727486
 30
0.0
 11
1588.6056040463
 21
12.4687472514
 31
0.0
  0
LINE
  5
1BD
100
AcDbEntity
  8
L1_100
  6
CONTINUOUS
 62
         7
100
AcDbLine
 10
1588.4798025956
 20
-18.1958927486
 30
0.0
 11
1587.575023321
 21
-2.8635727486
 31
0.0
  0
LINE
  5
1BE
100
AcDbEntity
  8
L1_100
  6
CONTINUOUS
 62
         7
100
AcDbLine
 10
1585.6723725042
 20
-2.6141050069
 30
0.0
 11
1584.7675932295
 21
12.7182149931
 31
0.0
  0
LINE
  5
1BF
100
AcDbEntity
  8
L1_100
  6
CONTINUOUS
 62
         7
100
AcDbLine
 10
1584.6417917788
 20
-17.9464250069
 30
0.0
 11
1583.7370125042
 21
-2.6141050069
 31
0.0
  0
DIMENSION
  5
1C2
100
AcDbEntity
  8
L1_100
  6
CONTINUOUS
 62
         4
100
AcDbDimension
  2
*D4
 10
1440.1033403763
 20
-33.448781705
 30
0.0
 11
1441.224567443
 21
-31.423781705
 31
0.0
  3
DIMSTYLE3
100
AcDbAlignedDimension
 13
1440.1033403763
 23
-22.9433347407
 33
0.0
 14
1445.1033403763
 24
-22.9433347407
 34
0.0
100
AcDbRotatedDimension
  0
POLYLINE
  5
1CF
100
AcDbEntity
  8
L1_100
  6
CONTINUOUS
 62
         7
100
AcDb2dPolyline
 66
         1
 10
0.0
 20
0.0
 30
0.0
 70
         2
  0
VERTEX
  5
1D1
100
AcDbEntity
  8
L1_100
  6
CONTINUOUS
 62
         7
100
AcDbVertex
100
AcDb2dVertex
 10
1451.6033403763
 20
143.6846417294
 30
0.0
 70
         1
  0
VERTEX
  5
1D3
100
AcDbEntity
  8
L1_100
  6
CONTINUOUS
 62
         7
100
AcDbVertex
100
AcDb2dVertex
 10
1451.5630418846
 20
144.0935087746
 30
0.0
 70
         1
  0
VERTEX
  5
1D5
100
AcDbEntity
  8
L1_100
  6
CONTINUOUS
 62
         7
100
AcDbVertex
100
AcDb2dVertex
 10
1451.5096174491
 20
144.304809081
 30
0.0
 70
         1
  0
VERTEX
  5
1D7
100
AcDbEntity
  8
L1_100
  6
CONTINUOUS
 62
         7
100
AcDbVertex
100
AcDb2dVertex
 10
1451.4319425346
 20
144.5166417337
 30
0.0
 70
         1
  0
VERTEX
  5
1D9
100
AcDbEntity
  8
L1_100
  6
CONTINUOUS
 62
         7
100
AcDbVertex
100
AcDb2dVertex
 10
1451.329284095
 20
144.7254580531
 30
0.0
 70
         1
  0
VERTEX
  5
1DB
100
AcDbEntity
  8
L1_100
  6
CONTINUOUS
 62
         7
100
AcDbVertex
100
AcDb2dVertex
 10
1451.2017331579
 20
144.9274774572
 30
0.0
 70
         1
  0
VERTEX
  5
1DD
100
AcDbEntity
  8
L1_100
  6
CONTINUOUS
 62
         7
100
AcDbVertex
100
AcDb2dVertex
 10
1451.0502870364
 20
145.1188902542
 30
0.0
 70
         1
  0
VERTEX
  5
1DF
100
AcDbEntity
  8
L1_100
  6
CONTINUOUS
 62
         7
100
AcDbVertex
100
AcDb2dVertex
 10
1450.876858489
 20
145.2960853369
 30
0.0
 70
         1
  0
VERTEX
  5
1E1
100
AcDbEntity
  8
L1_100
  6
CONTINUOUS
 62
         7
100
AcDbVertex
100
AcDb2dVertex
 10
1450.6842028766
 20
145.4558766488
 30
0.0
 70
         1
  0
VERTEX
  5
1E3
100
AcDbEntity
  8
L1_100
  6
CONTINUOUS
 62
         7
100
AcDbVertex
100
AcDb2dVertex
 10
1450.4757671981
 20
145.5956999591
 30
0.0
 70
         1
  0
VERTEX
  5
1E5
100
AcDbEntity
  8
L1_100
  6
CONTINUOUS
 62
         7
100
AcDbVertex
100
AcDb2dVertex
 10
1450.2554779421
 20
145.7137549975
 30
0.0
 70
         1
  0
VERTEX
  5
1E7
100
AcDbEntity
  8
L1_100
  6
CONTINUOUS
 62
         7
100
AcDbVertex
100
AcDb2dVertex
 10
1450.0274945889
 20
145.8090767764
 30
0.0
 70
         1
  0
VERTEX
  5
1E9
100
AcDbEntity
  8
L1_100
  6
CONTINUOUS
 62
         7
100
AcDbVertex
100
AcDb2dVertex
 10
1449.7959598323
 20
145.8815317773
 30
0.0
 70
         1
  0
VERTEX
  5
1EB
100
AcDbEntity
  8
L1_100
  6
CONTINUOUS
 62
         7
100
AcDbVertex
100
AcDb2dVertex
 10
1449.5647754254
 20
145.9317465148
 30
0.0
 70
         1
  0
VERTEX
  5
1ED
100
AcDbEntity
  8
L1_100
  6
CONTINUOUS
 62
         7
100
AcDbVertex
100
AcDb2dVertex
 10
1449.2608394668
 20
145.9664880317
 30
0.0
 70
         1
  0
VERTEX
  5
1EF
100
AcDbEntity
  8
L1_100
  6
CONTINUOUS
 62
         7
100
AcDbVertex
100
AcDb2dVertex
 10
1448.9706439301
 20
145.9678067947
 30
0.0
 70
         1
  0
VERTEX
  5
1F1
100
AcDbEntity
  8
L1_100
  6
CONTINUOUS
 62
         7
100
AcDbVertex
100
AcDb2dVertex
 10
1448.6991372871
 20
145.940947902
 30
0.0
 70
         1
  0
VERTEX
  5
1F3
100
AcDbEntity
  8
L1_100
  6
CONTINUOUS
 62
         7
100
AcDbVertex
100
AcDb2dVertex
 10
1448.4493921827
 20
145.8914223531
 30
0.0
 70
         1
  0
VERTEX
  5
1F5
100
AcDbEntity
  8
L1_100
  6
CONTINUOUS
 62
         7
100
AcDbVertex
100
AcDb2dVertex
 10
1448.2228578758
 20
145.8245349884
 30
0.0
 70
         1
  0
VERTEX
  5
1F7
100
AcDbEntity
  8
L1_100
  6
CONTINUOUS
 62
         7
100
AcDbVertex
100
AcDb2dVertex
 10
1447.9546184721
 20
145.7153741036
 30
0.0
 70
         1
  0
VERTEX
  5
1F9
100
AcDbEntity
  8
L1_100
  6
CONTINUOUS
 62
         7
100
AcDbVertex
100
AcDb2dVertex
 10
1447.7265714419
 20
145.5930858733
 30
0.0
 70
         1
  0
VERTEX
  5
1FB
100
AcDbEntity
  8
L1_100
  6
CONTINUOUS
 62
         7
100
AcDbVertex
100
AcDb2dVertex
 10
1447.5349114631
 20
145.4650979876
 30
0.0
 70
         1
  0
VERTEX
  5
1FD
100
AcDbEntity
  8
L1_100
  6
CONTINUOUS
 62
         7
100
AcDbVertex
100
AcDb2dVertex
 10
1447.3256600612
 20
145.2922448107
 30
0.0
 70
         1
  0
VERTEX
  5
1FF
100
AcDbEntity
  8
L1_100
  6
CONTINUOUS
 62
         7
100
AcDbVertex
100
AcDb2dVertex
 10
1447.1634261657
 20
145.1268384652
 30
0.0
 70
         1
  0
VERTEX
  5
201
100
AcDbEntity
  8
L1_100
  6
CONTINUOUS
 62
         7
100
AcDbVertex
100
AcDb2dVertex
 10
1447.0007195728
 20
144.921486234
 30
0.0
 70
         1
  0
VERTEX
  5
203
100
AcDbEntity
  8
L1_100
  6
CONTINUOUS
 62
         7
100
AcDbVertex
100
AcDb2dVertex
 10
1446.8864732308
 20
144.7415368621
 30
0.0
 70
         1
  0
VERTEX
  5
205
100
AcDbEntity
  8
L1_100
  6
CONTINUOUS
 62
         7
100
AcDbVertex
100
AcDb2dVertex
 10
1446.7828636191
 20
144.5354178288
 30
0.0
 70
         1
  0
VERTEX
  5
207
100
AcDbEntity
  8
L1_100
  6
CONTINUOUS
 62
         7
100
AcDbVertex
100
AcDb2dVertex
 10
1446.700456429
 20
144.3157171421
 30
0.0
 70
         1
  0
VERTEX
  5
209
100
AcDbEntity
  8
L1_100
  6
CONTINUOUS
 62
         7
100
AcDbVertex
100
AcDb2dVertex
 10
1446.6454027493
 20
144.1022867972
 30
0.0
 70
         1
  0
VERTEX
  5
20B
100
AcDbEntity
  8
L1_100
  6
CONTINUOUS
 62
         7
100
AcDbVertex
100
AcDb2dVertex
 10
1446.6164428802
 20
143.9184190158
 30
0.0
 70
         1
  0
VERTEX
  5
20D
100
AcDbEntity
  8
L1_100
  6
CONTINUOUS
 62
         7
100
AcDbVertex
100
AcDb2dVertex
 10
1446.6033403763
 20
143.6846417304
 30
0.0
 70
         1
  0
SEQEND
  5
20F
100
AcDbEntity
  8
L1_100
  6
CONTINUOUS
 62
         7
  0
POLYLINE
  5
211
100
AcDbEntity
  8
L1_100
  6
CONTINUOUS
 62
         7
100
AcDb2dPolyline
 66
         1
 10
0.0
 20
0.0
 30
0.0
 70
         2
  0
VERTEX
  5
213
100
AcDbEntity
  8
L1_100
  6
CONTINUOUS
 62
         7
100
AcDbVertex
100
AcDb2dVertex
 10
1446.6033403763
 20
143.6846417294
 30
0.0
 70
         1
  0
VERTEX
  5
215
100
AcDbEntity
  8
L1_100
  6
CONTINUOUS
 62
         7
100
AcDbVertex
100
AcDb2dVertex
 10
1446.643638868
 20
143.3191668153
 30
0.0
 70
         1
  0
VERTEX
  5
217
100
AcDbEntity
  8
L1_100
  6
CONTINUOUS
 62
         7
100
AcDbVertex
100
AcDb2dVertex
 10
1446.6970633035
 20
143.1302913306
 30
0.0
 70
         1
  0
VERTEX
  5
219
100
AcDbEntity
  8
L1_100
  6
CONTINUOUS
 62
         7
100
AcDbVertex
100
AcDb2dVertex
 10
1446.774738218
 20
142.9409399963
 30
0.0
 70
         1
  0
VERTEX
  5
21B
100
AcDbEntity
  8
L1_100
  6
CONTINUOUS
 62
         7
100
AcDbVertex
100
AcDb2dVertex
 10
1446.8773966577
 20
142.7542848788
 30
0.0
 70
         1
  0
VERTEX
  5
21D
100
AcDbEntity
  8
L1_100
  6
CONTINUOUS
 62
         7
100
AcDbVertex
100
AcDb2dVertex
 10
1447.0049475948
 20
142.5737053353
 30
0.0
 70
         1
  0
VERTEX
  5
21F
100
AcDbEntity
  8
L1_100
  6
CONTINUOUS
 62
         7
100
AcDbVertex
100
AcDb2dVertex
 10
1447.1563937164
 20
142.4026067439
 30
0.0
 70
         1
  0
VERTEX
  5
221
100
AcDbEntity
  8
L1_100
  6
CONTINUOUS
 62
         7
100
AcDbVertex
100
AcDb2dVertex
 10
1447.3298222639
 20
142.2442169729
 30
0.0
 70
         1
  0
VERTEX
  5
223
100
AcDbEntity
  8
L1_100
  6
CONTINUOUS
 62
         7
100
AcDbVertex
100
AcDb2dVertex
 10
1447.5224778764
 20
142.1013839502
 30
0.0
 70
         1
  0
VERTEX
  5
225
100
AcDbEntity
  8
L1_100
  6
CONTINUOUS
 62
         7
100
AcDbVertex
100
AcDb2dVertex
 10
1447.7309135551
 20
141.9763997704
 30
0.0
 70
         1
  0
VERTEX
  5
227
100
AcDbEntity
  8
L1_100
  6
CONTINUOUS
 62
         7
100
AcDbVertex
100
AcDb2dVertex
 10
1447.9512028112
 20
141.8708736452
 30
0.0
 70
         1
  0
VERTEX
  5
229
100
AcDbEntity
  8
L1_100
  6
CONTINUOUS
 62
         7
100
AcDbVertex
100
AcDb2dVertex
 10
1448.1791861645
 20
141.7856681503
 30
0.0
 70
         1
  0
VERTEX
  5
22B
100
AcDbEntity
  8
L1_100
  6
CONTINUOUS
 62
         7
100
AcDbVertex
100
AcDb2dVertex
 10
1448.4107209212
 20
141.7209026342
 30
0.0
 70
         1
  0
VERTEX
  5
22D
100
AcDbEntity
  8
L1_100
  6
CONTINUOUS
 62
         7
100
AcDbVertex
100
AcDb2dVertex
 10
1448.7205153408
 20
141.6650065621
 30
0.0
 70
         1
  0
VERTEX
  5
22F
100
AcDbEntity
  8
L1_100
  6
CONTINUOUS
 62
         7
100
AcDbVertex
100
AcDb2dVertex
 10
1449.0215200409
 20
141.6419976581
 30
0.0
 70
         1
  0
VERTEX
  5
231
100
AcDbEntity
  8
L1_100
  6
CONTINUOUS
 62
         7
100
AcDbVertex
100
AcDb2dVertex
 10
1449.3073338288
 20
141.6477179143
 30
0.0
 70
         1
  0
VERTEX
  5
233
100
AcDbEntity
  8
L1_100
  6
CONTINUOUS
 62
         7
100
AcDbVertex
100
AcDb2dVertex
 10
1449.573502904
 20
141.6773700968
 30
0.0
 70
         1
  0
VERTEX
  5
235
100
AcDbEntity
  8
L1_100
  6
CONTINUOUS
 62
         7
100
AcDbVertex
100
AcDb2dVertex
 10
1449.8173985377
 20
141.7260409258
 30
0.0
 70
         1
  0
VERTEX
  5
237
100
AcDbEntity
  8
L1_100
  6
CONTINUOUS
 62
         7
100
AcDbVertex
100
AcDb2dVertex
 10
1450.1089173154
 20
141.8135204454
 30
0.0
 70
         1
  0
VERTEX
  5
239
100
AcDbEntity
  8
L1_100
  6
CONTINUOUS
 62
         7
100
AcDbVertex
100
AcDb2dVertex
 10
1450.3587972291
 20
141.9172949446
 30
0.0
 70
         1
  0
VERTEX
  5
23B
100
AcDbEntity
  8
L1_100
  6
CONTINUOUS
 62
         7
100
AcDbVertex
100
AcDb2dVertex
 10
1450.5700424372
 20
142.029584638
 30
0.0
 70
         1
  0
VERTEX
  5
23D
100
AcDbEntity
  8
L1_100
  6
CONTINUOUS
 62
         7
100
AcDbVertex
100
AcDb2dVertex
 10
1450.7468800943
 20
142.1446273578
 30
0.0
 70
         1
  0
VERTEX
  5
23F
100
AcDbEntity
  8
L1_100
  6
CONTINUOUS
 62
         7
100
AcDbVertex
100
AcDb2dVertex
 10
1450.9393773414
 20
142.2975542692
 30
0.0
 70
         1
  0
VERTEX
  5
241
100
AcDbEntity
  8
L1_100
  6
CONTINUOUS
 62
         7
100
AcDbVertex
100
AcDb2dVertex
 10
1451.0883357956
 20
142.4422116569
 30
0.0
 70
         1
  0
VERTEX
  5
243
100
AcDbEntity
  8
L1_100
  6
CONTINUOUS
 62
         7
100
AcDbVertex
100
AcDb2dVertex
 10
1451.237612664
 20
142.6203636549
 30
0.0
 70
         1
  0
VERTEX
  5
245
100
AcDbEntity
  8
L1_100
  6
CONTINUOUS
 62
         7
100
AcDbVertex
100
AcDb2dVertex
 10
1451.342453915
 20
142.7756504125
 30
0.0
 70
         1
  0
VERTEX
  5
247
100
AcDbEntity
  8
L1_100
  6
CONTINUOUS
 62
         7
100
AcDbVertex
100
AcDb2dVertex
 10
1451.4376412037
 20
142.9529765067
 30
0.0
 70
         1
  0
VERTEX
  5
249
100
AcDbEntity
  8
L1_100
  6
CONTINUOUS
 62
         7
100
AcDbVertex
100
AcDb2dVertex
 10
1451.5135067284
 20
143.1417002431
 30
0.0
 70
         1
  0
VERTEX
  5
24B
100
AcDbEntity
  8
L1_100
  6
CONTINUOUS
 62
         7
100
AcDbVertex
100
AcDb2dVertex
 10
1451.5643364724
 20
143.3250382474
 30
0.0
 70
         1
  0
VERTEX
  5
24D
100
AcDbEntity
  8
L1_100
  6
CONTINUOUS
 62
         7
100
AcDbVertex
100
AcDb2dVertex
 10
1451.5965233225
 20
143.5338170166
 30
0.0
 70
         1
  0
VERTEX
  5
24F
100
AcDbEntity
  8
L1_100
  6
CONTINUOUS
 62
         7
100
AcDbVertex
100
AcDb2dVertex
 10
1451.6033403763
 20
143.6846417294
 30
0.0
 70
         1
  0
SEQEND
  5
251
100
AcDbEntity
  8
L1_100
  6
CONTINUOUS
 62
         7
  0
POLYLINE
  5
253
100
AcDbEntity
  8
L1_100
  6
CONTINUOUS
 62
         7
100
AcDb2dPolyline
 66
         1
 10
0.0
 20
0.0
 30
0.0
 70
         2
  0
VERTEX
  5
255
100
AcDbEntity
  8
L1_100
  6
CONTINUOUS
 62
         7
100
AcDbVertex
100
AcDb2dVertex
 10
1446.6033403763
 20
156.6846417283
 30
0.0
 70
         1
  0
VERTEX
  5
257
100
AcDbEntity
  8
L1_100
  6
CONTINUOUS
 62
         7
100
AcDbVertex
100
AcDb2dVertex
 10
1446.6436388682
 20
156.2757746829
 30
0.0
 70
         1
  0
VERTEX
  5
259
100
AcDbEntity
  8
L1_100
  6
CONTINUOUS
 62
         7
100
AcDbVertex
100
AcDb2dVertex
 10
1446.6970633038
 20
156.0644743765
 30
0.0
 70
         1
  0
VERTEX
  5
25B
100
AcDbEntity
  8
L1_100
  6
CONTINUOUS
 62
         7
100
AcDbVertex
100
AcDb2dVertex
 10
1446.7747382185
 20
155.8526417237
 30
0.0
 70
         1
  0
VERTEX
  5
25D
100
AcDbEntity
  8
L1_100
  6
CONTINUOUS
 62
         7
100
AcDbVertex
100
AcDb2dVertex
 10
1446.8773966583
 20
155.6438254043
 30
0.0
 70
         1
  0
VERTEX
  5
25F
100
AcDbEntity
  8
L1_100
  6
CONTINUOUS
 62
         7
100
AcDbVertex
100
AcDb2dVertex
 10
1447.0049475955
 20
155.4418060002
 30
0.0
 70
         1
  0
VERTEX
  5
261
100
AcDbEntity
  8
L1_100
  6
CONTINUOUS
 62
         7
100
AcDbVertex
100
AcDb2dVertex
 10
1447.1563937173
 20
155.2503932033
 30
0.0
 70
         1
  0
VERTEX
  5
263
100
AcDbEntity
  8
L1_100
  6
CONTINUOUS
 62
         7
100
AcDbVertex
100
AcDb2dVertex
 10
1447.3298222649
 20
155.0731981206
 30
0.0
 70
         1
  0
VERTEX
  5
265
100
AcDbEntity
  8
L1_100
  6
CONTINUOUS
 62
         7
100
AcDbVertex
100
AcDb2dVertex
 10
1447.5224778775
 20
154.9134068088
 30
0.0
 70
         1
  0
VERTEX
  5
267
100
AcDbEntity
  8
L1_100
  6
CONTINUOUS
 62
         7
100
AcDbVertex
100
AcDb2dVertex
 10
1447.7309135562
 20
154.7735834986
 30
0.0
 70
         1
  0
VERTEX
  5
269
100
AcDbEntity
  8
L1_100
  6
CONTINUOUS
 62
         7
100
AcDbVertex
100
AcDb2dVertex
 10
1447.9512028123
 20
154.6555284604
 30
0.0
 70
         1
  0
VERTEX
  5
26B
100
AcDbEntity
  8
L1_100
  6
CONTINUOUS
 62
         7
100
AcDbVertex
100
AcDb2dVertex
 10
1448.1791861657
 20
154.5602066816
 30
0.0
 70
         1
  0
VERTEX
  5
26D
100
AcDbEntity
  8
L1_100
  6
CONTINUOUS
 62
         7
100
AcDbVertex
100
AcDb2dVertex
 10
1448.4107209224
 20
154.487751681
 30
0.0
 70
         1
  0
VERTEX
  5
26F
100
AcDbEntity
  8
L1_100
  6
CONTINUOUS
 62
         7
100
AcDbVertex
100
AcDb2dVertex
 10
1448.6419053293
 20
154.4375369436
 30
0.0
 70
         1
  0
VERTEX
  5
271
100
AcDbEntity
  8
L1_100
  6
CONTINUOUS
 62
         7
100
AcDbVertex
100
AcDb2dVertex
 10
1448.945841288
 20
154.4027954269
 30
0.0
 70
         1
  0
VERTEX
  5
273
100
AcDbEntity
  8
L1_100
  6
CONTINUOUS
 62
         7
100
AcDbVertex
100
AcDb2dVertex
 10
1449.2360368247
 20
154.4014766642
 30
0.0
 70
         1
  0
VERTEX
  5
275
100
AcDbEntity
  8
L1_100
  6
CONTINUOUS
 62
         7
100
AcDbVertex
100
AcDb2dVertex
 10
1449.5075434677
 20
154.4283355571
 30
0.0
 70
         1
  0
VERTEX
  5
277
100
AcDbEntity
  8
L1_100
  6
CONTINUOUS
 62
         7
100
AcDbVertex
100
AcDb2dVertex
 10
1449.757288572
 20
154.4778611062
 30
0.0
 70
         1
  0
VERTEX
  5
279
100
AcDbEntity
  8
L1_100
  6
CONTINUOUS
 62
         7
100
AcDbVertex
100
AcDb2dVertex
 10
1449.9838228788
 20
154.5447484711
 30
0.0
 70
         1
  0
VERTEX
  5
27B
100
AcDbEntity
  8
L1_100
  6
CONTINUOUS
 62
         7
100
AcDbVertex
100
AcDb2dVertex
 10
1450.2520622823
 20
154.6539093561
 30
0.0
 70
         1
  0
VERTEX
  5
27D
100
AcDbEntity
  8
L1_100
  6
CONTINUOUS
 62
         7
100
AcDbVertex
100
AcDb2dVertex
 10
1450.4801093124
 20
154.7761975866
 30
0.0
 70
         1
  0
VERTEX
  5
27F
100
AcDbEntity
  8
L1_100
  6
CONTINUOUS
 62
         7
100
AcDbVertex
100
AcDb2dVertex
 10
1450.671769291
 20
154.9041854723
 30
0.0
 70
         1
  0
VERTEX
  5
281
100
AcDbEntity
  8
L1_100
  6
CONTINUOUS
 62
         7
100
AcDbVertex
100
AcDb2dVertex
 10
1450.8810206927
 20
155.0770386493
 30
0.0
 70
         1
  0
VERTEX
  5
283
100
AcDbEntity
  8
L1_100
  6
CONTINUOUS
 62
         7
100
AcDbVertex
100
AcDb2dVertex
 10
1451.043254588
 20
155.2424449949
 30
0.0
 70
         1
  0
VERTEX
  5
285
100
AcDbEntity
  8
L1_100
  6
CONTINUOUS
 62
         7
100
AcDbVertex
100
AcDb2dVertex
 10
1451.2059611806
 20
155.4477972262
 30
0.0
 70
         1
  0
VERTEX
  5
287
100
AcDbEntity
  8
L1_100
  6
CONTINUOUS
 62
         7
100
AcDbVertex
100
AcDb2dVertex
 10
1451.3202075225
 20
155.627746598
 30
0.0
 70
         1
  0
VERTEX
  5
289
100
AcDbEntity
  8
L1_100
  6
CONTINUOUS
 62
         7
100
AcDbVertex
100
AcDb2dVertex
 10
1451.423817134
 20
155.8338656313
 30
0.0
 70
         1
  0
VERTEX
  5
28B
100
AcDbEntity
  8
L1_100
  6
CONTINUOUS
 62
         7
100
AcDbVertex
100
AcDb2dVertex
 10
1451.5062243239
 20
156.053566318
 30
0.0
 70
         1
  0
VERTEX
  5
28D
100
AcDbEntity
  8
L1_100
  6
CONTINUOUS
 62
         7
100
AcDbVertex
100
AcDb2dVertex
 10
1451.5612780034
 20
156.2669966628
 30
0.0
 70
         1
  0
VERTEX
  5
28F
100
AcDbEntity
  8
L1_100
  6
CONTINUOUS
 62
         7
100
AcDbVertex
100
AcDb2dVertex
 10
1451.5902378724
 20
156.4508644441
 30
0.0
 70
         1
  0
VERTEX
  5
291
100
AcDbEntity
  8
L1_100
  6
CONTINUOUS
 62
         7
100
AcDbVertex
100
AcDb2dVertex
 10
1451.6033403763
 20
156.6846417294
 30
0.0
 70
         1
  0
SEQEND
  5
293
100
AcDbEntity
  8
L1_100
  6
CONTINUOUS
 62
         7
  0
POLYLINE
  5
295
100
AcDbEntity
  8
L1_100
  6
CONTINUOUS
 62
         7
100
AcDb2dPolyline
 66
         1
 10
0.0
 20
0.0
 30
0.0
 70
         2
  0
VERTEX
  5
297
100
AcDbEntity
  8
L1_100
  6
CONTINUOUS
 62
         7
100
AcDbVertex
100
AcDb2dVertex
 10
1451.6033403763
 20
156.6846417294
 30
0.0
 70
         1
  0
VERTEX
  5
299
100
AcDbEntity
  8
L1_100
  6
CONTINUOUS
 62
         7
100
AcDbVertex
100
AcDb2dVertex
 10
1451.5630418845
 20
157.0501166435
 30
0.0
 70
         1
  0
VERTEX
  5
29B
100
AcDbEntity
  8
L1_100
  6
CONTINUOUS
 62
         7
100
AcDbVertex
100
AcDb2dVertex
 10
1451.5096174491
 20
157.2389921282
 30
0.0
 70
         1
  0
VERTEX
  5
29D
100
AcDbEntity
  8
L1_100
  6
CONTINUOUS
 62
         7
100
AcDbVertex
100
AcDb2dVertex
 10
1451.4319425345
 20
157.4283434624
 30
0.0
 70
         1
  0
VERTEX
  5
29F
100
AcDbEntity
  8
L1_100
  6
CONTINUOUS
 62
         7
100
AcDbVertex
100
AcDb2dVertex
 10
1451.3292840948
 20
157.61499858
 30
0.0
 70
         1
  0
VERTEX
  5
2A1
100
AcDbEntity
  8
L1_100
  6
CONTINUOUS
 62
         7
100
AcDbVertex
100
AcDb2dVertex
 10
1451.2017331577
 20
157.7955781234
 30
0.0
 70
         1
  0
VERTEX
  5
2A3
100
AcDbEntity
  8
L1_100
  6
CONTINUOUS
 62
         7
100
AcDbVertex
100
AcDb2dVertex
 10
1451.0502870361
 20
157.9666767149
 30
0.0
 70
         1
  0
VERTEX
  5
2A5
100
AcDbEntity
  8
L1_100
  6
CONTINUOUS
 62
         7
100
AcDbVertex
100
AcDb2dVertex
 10
1450.8768584886
 20
158.1250664859
 30
0.0
 70
         1
  0
VERTEX
  5
2A7
100
AcDbEntity
  8
L1_100
  6
CONTINUOUS
 62
         7
100
AcDbVertex
100
AcDb2dVertex
 10
1450.6842028761
 20
158.2678995086
 30
0.0
 70
         1
  0
VERTEX
  5
2A9
100
AcDbEntity
  8
L1_100
  6
CONTINUOUS
 62
         7
100
AcDbVertex
100
AcDb2dVertex
 10
1450.4757671974
 20
158.3928836884
 30
0.0
 70
         1
  0
VERTEX
  5
2AB
100
AcDbEntity
  8
L1_100
  6
CONTINUOUS
 62
         7
100
AcDbVertex
100
AcDb2dVertex
 10
1450.2554779413
 20
158.4984098136
 30
0.0
 70
         1
  0
VERTEX
  5
2AD
100
AcDbEntity
  8
L1_100
  6
CONTINUOUS
 62
         7
100
AcDbVertex
100
AcDb2dVertex
 10
1450.027494588
 20
158.5836153085
 30
0.0
 70
         1
  0
VERTEX
  5
2AF
100
AcDbEntity
  8
L1_100
  6
CONTINUOUS
 62
         7
100
AcDbVertex
100
AcDb2dVertex
 10
1449.7959598313
 20
158.6483808246
 30
0.0
 70
         1
  0
VERTEX
  5
2B1
100
AcDbEntity
  8
L1_100
  6
CONTINUOUS
 62
         7
100
AcDbVertex
100
AcDb2dVertex
 10
1449.4861654117
 20
158.7042768967
 30
0.0
 70
         1
  0
VERTEX
  5
2B3
100
AcDbEntity
  8
L1_100
  6
CONTINUOUS
 62
         7
100
AcDbVertex
100
AcDb2dVertex
 10
1449.1851607116
 20
158.7272858007
 30
0.0
 70
         1
  0
VERTEX
  5
2B5
100
AcDbEntity
  8
L1_100
  6
CONTINUOUS
 62
         7
100
AcDbVertex
100
AcDb2dVertex
 10
1448.8993469237
 20
158.7215655445
 30
0.0
 70
         1
  0
VERTEX
  5
2B7
100
AcDbEntity
  8
L1_100
  6
CONTINUOUS
 62
         7
100
AcDbVertex
100
AcDb2dVertex
 10
1448.6331778485
 20
158.6919133619
 30
0.0
 70
         1
  0
VERTEX
  5
2B9
100
AcDbEntity
  8
L1_100
  6
CONTINUOUS
 62
         7
100
AcDbVertex
100
AcDb2dVertex
 10
1448.3892822148
 20
158.643242533
 30
0.0
 70
         1
  0
VERTEX
  5
2BB
100
AcDbEntity
  8
L1_100
  6
CONTINUOUS
 62
         7
100
AcDbVertex
100
AcDb2dVertex
 10
1448.0977634371
 20
158.5557630134
 30
0.0
 70
         1
  0
VERTEX
  5
2BD
100
AcDbEntity
  8
L1_100
  6
CONTINUOUS
 62
         7
100
AcDbVertex
100
AcDb2dVertex
 10
1447.8478835235
 20
158.4519885142
 30
0.0
 70
         1
  0
VERTEX
  5
2BF
100
AcDbEntity
  8
L1_100
  6
CONTINUOUS
 62
         7
100
AcDbVertex
100
AcDb2dVertex
 10
1447.6366383153
 20
158.3396988208
 30
0.0
 70
         1
  0
VERTEX
  5
2C1
100
AcDbEntity
  8
L1_100
  6
CONTINUOUS
 62
         7
100
AcDbVertex
100
AcDb2dVertex
 10
1447.4598006582
 20
158.224656101
 30
0.0
 70
         1
  0
VERTEX
  5
2C3
100
AcDbEntity
  8
L1_100
  6
CONTINUOUS
 62
         7
100
AcDbVertex
100
AcDb2dVertex
 10
1447.2673034111
 20
158.0717291896
 30
0.0
 70
         1
  0
VERTEX
  5
2C5
100
AcDbEntity
  8
L1_100
  6
CONTINUOUS
 62
         7
100
AcDbVertex
100
AcDb2dVertex
 10
1447.1183449569
 20
157.9270718018
 30
0.0
 70
         1
  0
VERTEX
  5
2C7
100
AcDbEntity
  8
L1_100
  6
CONTINUOUS
 62
         7
100
AcDbVertex
100
AcDb2dVertex
 10
1446.9690680885
 20
157.7489198039
 30
0.0
 70
         1
  0
VERTEX
  5
2C9
100
AcDbEntity
  8
L1_100
  6
CONTINUOUS
 62
         7
100
AcDbVertex
100
AcDb2dVertex
 10
1446.8642268375
 20
157.5936330463
 30
0.0
 70
         1
  0
VERTEX
  5
2CB
100
AcDbEntity
  8
L1_100
  6
CONTINUOUS
 62
         7
100
AcDbVertex
100
AcDb2dVertex
 10
1446.7690395488
 20
157.4163069521
 30
0.0
 70
         1
  0
VERTEX
  5
2CD
100
AcDbEntity
  8
L1_100
  6
CONTINUOUS
 62
         7
100
AcDbVertex
100
AcDb2dVertex
 10
1446.6931740241
 20
157.2275832157
 30
0.0
 70
         1
  0
VERTEX
  5
2CF
100
AcDbEntity
  8
L1_100
  6
CONTINUOUS
 62
         7
100
AcDbVertex
100
AcDb2dVertex
 10
1446.6423442801
 20
157.0442452113
 30
0.0
 70
         1
  0
VERTEX
  5
2D1
100
AcDbEntity
  8
L1_100
  6
CONTINUOUS
 62
         7
100
AcDbVertex
100
AcDb2dVertex
 10
1446.6101574301
 20
156.8354664421
 30
0.0
 70
         1
  0
VERTEX
  5
2D3
100
AcDbEntity
  8
L1_100
  6
CONTINUOUS
 62
         7
100
AcDbVertex
100
AcDb2dVertex
 10
1446.6033403763
 20
156.6846417294
 30
0.0
 70
         1
  0
SEQEND
  5
2D5
100
AcDbEntity
  8
L1_100
  6
CONTINUOUS
 62
         7
  0
LINE
  5
2D6
100
AcDbEntity
  8
L1_100
  6
CENTER
 62
         1
100
AcDbLine
 10
1451.6033403763
 20
143.6846417294
 30
0.0
 11
1446.6033403763
 21
143.6846417294
 31
0.0
  0
LINE
  5
2D7
100
AcDbEntity
  8
L1_100
  6
CENTER
 62
         1
100
AcDbLine
 10
1451.6033403763
 20
156.6846417294
 30
0.0
 11
1446.6033403763
 21
156.6846417294
 31
0.0
  0
LINE
  5
2D8
100
AcDbEntity
  8
L1_100
  6
DASHED
 62
         2
100
AcDbLine
 10
1630.6765502784
 20
157.3398648022
 30
0.0
 11
1633.0815302734
 21
158.7283806497
 31
0.0
  0
LINE
  5
2D9
100
AcDbEntity
  8
L1_100
  6
DASHED
 62
         2
100
AcDbLine
 10
1633.1765502781
 20
153.0097377837
 30
0.0
 11
1635.5815302732
 21
154.3982536313
 31
0.0
  0
LINE
  5
2DA
100
AcDbEntity
  8
L1_100
  6
DASHED
 62
         2
100
AcDbLine
 10
1632.4104090543
 20
152.8202853598
 30
0.0
 11
1632.7385502782
 21
153.0097377837
 31
0.0
  0
LINE
  5
2DB
100
AcDbEntity
  8
L1_100
  6
DASHED
 62
         2
100
AcDbLine
 10
1630.1294090545
 20
156.7710932514
 30
0.0
 11
1630.4575502784
 21
156.9605456754
 31
0.0
  0
LINE
  5
2DC
100
AcDbEntity
  8
L1_100
  6
DASHED
 62
         2
100
AcDbLine
 10
1632.7385502782
 20
153.0097377837
 30
0.0
 11
1630.4575502784
 21
156.9605456754
 31
0.0
  0
LINE
  5
2DD
100
AcDbEntity
  8
L1_100
  6
DASHED
 62
         2
100
AcDbLine
 10
1633.1765502781
 20
153.0097377837
 30
0.0
 11
1630.6765502784
 21
157.3398648022
 31
0.0
  0
LINE
  5
2DE
100
AcDbEntity
  8
L1_100
  6
DASHED
 62
         2
100
AcDbLine
 10
1632.7385502782
 20
153.0097377837
 30
0.0
 11
1633.1765502781
 21
153.0097377837
 31
0.0
  0
LINE
  5
2DF
100
AcDbEntity
  8
L1_100
  6
DASHED
 62
         2
100
AcDbLine
 10
1630.4575502784
 20
156.9605456754
 30
0.0
 11
1630.6765502784
 21
157.3398648022
 31
0.0
  0
LINE
  5
2E0
100
AcDbEntity
  8
L1_100
  6
DASHED
 62
         2
100
AcDbLine
 10
1633.1765502781
 20
147.3595456751
 30
0.0
 11
1635.5815302732
 21
145.9710298275
 31
0.0
  0
LINE
  5
2E1
100
AcDbEntity
  8
L1_100
  6
DASHED
 62
         2
100
AcDbLine
 10
1630.6765502784
 20
143.0294186566
 30
0.0
 11
1633.0815302734
 21
141.640902809
 31
0.0
  0
LINE
  5
2E2
100
AcDbEntity
  8
L1_100
  6
DASHED
 62
         2
100
AcDbLine
 10
1630.1294090545
 20
143.5981902073
 30
0.0
 11
1630.4575502784
 21
143.4087377834
 31
0.0
  0
LINE
  5
2E3
100
AcDbEntity
  8
L1_100
  6
DASHED
 62
         2
100
AcDbLine
 10
1632.4104090543
 20
147.548998099
 30
0.0
 11
1632.7385502782
 21
147.359545675
 31
0.0
  0
LINE
  5
2E4
100
AcDbEntity
  8
L1_100
  6
DASHED
 62
         2
100
AcDbLine
 10
1630.4575502784
 20
143.4087377834
 30
0.0
 11
1632.7385502782
 21
147.359545675
 31
0.0
  0
LINE
  5
2E5
100
AcDbEntity
  8
L1_100
  6
DASHED
 62
         2
100
AcDbLine
 10
1630.6765502784
 20
143.0294186566
 30
0.0
 11
1633.1765502781
 21
147.3595456751
 31
0.0
  0
LINE
  5
2E6
100
AcDbEntity
  8
L1_100
  6
DASHED
 62
         2
100
AcDbLine
 10
1630.4575502784
 20
143.4087377834
 30
0.0
 11
1630.6765502784
 21
143.0294186566
 31
0.0
  0
LINE
  5
2E7
100
AcDbEntity
  8
L1_100
  6
DASHED
 62
         2
100
AcDbLine
 10
1632.7385502782
 20
147.359545675
 30
0.0
 11
1633.1765502781
 21
147.3595456751
 31
0.0
  0
LINE
  5
2E8
100
AcDbEntity
  8
L1_100
  6
DASHED
 62
         2
100
AcDbLine
 10
1625.783340376
 20
140.2043226022
 30
0.0
 11
1625.783340376
 21
137.4272909072
 31
0.0
  0
LINE
  5
2E9
100
AcDbEntity
  8
L1_100
  6
DASHED
 62
         2
100
AcDbLine
 10
1620.7833403765
 20
140.2043226022
 30
0.0
 11
1620.7833403765
 21
137.4272909072
 31
0.0
  0
LINE
  5
2EA
100
AcDbEntity
  8
L1_100
  6
DASHED
 62
         2
100
AcDbLine
 10
1621.0023403765
 20
140.9625465769
 30
0.0
 11
1621.0023403765
 21
140.583641729
 31
0.0
  0
LINE
  5
2EB
100
AcDbEntity
  8
L1_100
  6
DASHED
 62
         2
100
AcDbLine
 10
1625.564340376
 20
140.9625465769
 30
0.0
 11
1625.564340376
 21
140.583641729
 31
0.0
  0
LINE
  5
2EC
100
AcDbEntity
  8
L1_100
  6
DASHED
 62
         2
100
AcDbLine
 10
1621.0023403765
 20
140.583641729
 30
0.0
 11
1625.564340376
 21
140.583641729
 31
0.0
  0
LINE
  5
2ED
100
AcDbEntity
  8
L1_100
  6
DASHED
 62
         2
100
AcDbLine
 10
1620.7833403765
 20
140.2043226022
 30
0.0
 11
1625.783340376
 21
140.2043226022
 31
0.0
  0
LINE
  5
2EE
100
AcDbEntity
  8
L1_100
  6
DASHED
 62
         2
100
AcDbLine
 10
1621.0023403765
 20
140.583641729
 30
0.0
 11
1620.7833403765
 21
140.2043226022
 31
0.0
  0
LINE
  5
2EF
100
AcDbEntity
  8
L1_100
  6
DASHED
 62
         2
100
AcDbLine
 10
1625.564340376
 20
140.583641729
 30
0.0
 11
1625.783340376
 21
140.2043226022
 31
0.0
  0
LINE
  5
2F0
100
AcDbEntity
  8
L1_100
  6
DASHED
 62
         2
100
AcDbLine
 10
1615.8901304741
 20
143.0294186566
 30
0.0
 11
1613.4851504791
 21
141.640902809
 31
0.0
  0
LINE
  5
2F1
100
AcDbEntity
  8
L1_100
  6
DASHED
 62
         2
100
AcDbLine
 10
1613.3901304744
 20
147.3595456751
 30
0.0
 11
1610.9851504793
 21
145.9710298275
 31
0.0
  0
LINE
  5
2F2
100
AcDbEntity
  8
L1_100
  6
DASHED
 62
         2
100
AcDbLine
 10
1614.1562716982
 20
147.548998099
 30
0.0
 11
1613.8281304743
 21
147.3595456751
 31
0.0
  0
LINE
  5
2F3
100
AcDbEntity
  8
L1_100
  6
DASHED
 62
         2
100
AcDbLine
 10
1616.437271698
 20
143.5981902073
 30
0.0
 11
1616.1091304741
 21
143.4087377834
 31
0.0
  0
LINE
  5
2F4
100
AcDbEntity
  8
L1_100
  6
DASHED
 62
         2
100
AcDbLine
 10
1613.8281304743
 20
147.3595456751
 30
0.0
 11
1616.1091304741
 21
143.4087377834
 31
0.0
  0
LINE
  5
2F5
100
AcDbEntity
  8
L1_100
  6
DASHED
 62
         2
100
AcDbLine
 10
1613.3901304744
 20
147.3595456751
 30
0.0
 11
1615.8901304741
 21
143.0294186566
 31
0.0
  0
LINE
  5
2F6
100
AcDbEntity
  8
L1_100
  6
DASHED
 62
         2
100
AcDbLine
 10
1613.8281304743
 20
147.3595456751
 30
0.0
 11
1613.3901304744
 21
147.3595456751
 31
0.0
  0
LINE
  5
2F7
100
AcDbEntity
  8
L1_100
  6
DASHED
 62
         2
100
AcDbLine
 10
1616.1091304741
 20
143.4087377834
 30
0.0
 11
1615.8901304741
 21
143.0294186566
 31
0.0
  0
LINE
  5
2F8
100
AcDbEntity
  8
L1_100
  6
DASHED
 62
         2
100
AcDbLine
 10
1613.3901304744
 20
153.0097377837
 30
0.0
 11
1610.9851504793
 21
154.3982536313
 31
0.0
  0
LINE
  5
2F9
100
AcDbEntity
  8
L1_100
  6
DASHED
 62
         2
100
AcDbLine
 10
1615.8901304741
 20
157.3398648022
 30
0.0
 11
1613.4851504791
 21
158.7283806497
 31
0.0
  0
LINE
  5
2FA
100
AcDbEntity
  8
L1_100
  6
DASHED
 62
         2
100
AcDbLine
 10
1616.437271698
 20
156.7710932515
 30
0.0
 11
1616.1091304741
 21
156.9605456754
 31
0.0
  0
LINE
  5
2FB
100
AcDbEntity
  8
L1_100
  6
DASHED
 62
         2
100
AcDbLine
 10
1614.1562716982
 20
152.8202853598
 30
0.0
 11
1613.8281304743
 21
153.0097377837
 31
0.0
  0
LINE
  5
2FC
100
AcDbEntity
  8
L1_100
  6
DASHED
 62
         2
100
AcDbLine
 10
1616.1091304741
 20
156.9605456754
 30
0.0
 11
1613.8281304743
 21
153.0097377837
 31
0.0
  0
LINE
  5
2FD
100
AcDbEntity
  8
L1_100
  6
DASHED
 62
         2
100
AcDbLine
 10
1615.8901304741
 20
157.3398648022
 30
0.0
 11
1613.3901304744
 21
153.0097377837
 31
0.0
  0
LINE
  5
2FE
100
AcDbEntity
  8
L1_100
  6
DASHED
 62
         2
100
AcDbLine
 10
1616.1091304741
 20
156.9605456754
 30
0.0
 11
1615.8901304741
 21
157.3398648022
 31
0.0
  0
LINE
  5
2FF
100
AcDbEntity
  8
L1_100
  6
DASHED
 62
         2
100
AcDbLine
 10
1613.8281304743
 20
153.0097377837
 30
0.0
 11
1613.3901304744
 21
153.0097377837
 31
0.0
  0
LINE
  5
300
100
AcDbEntity
  8
L1_100
  6
DASHED
 62
         2
100
AcDbLine
 10
1625.564340376
 20
159.7856417297
 30
0.0
 11
1621.0023403765
 21
159.7856417297
 31
0.0
  0
LINE
  5
301
100
AcDbEntity
  8
L1_100
  6
DASHED
 62
         2
100
AcDbLine
 10
1625.783340376
 20
160.1649608565
 30
0.0
 11
1620.7833403765
 21
160.1649608565
 31
0.0
  0
LINE
  5
302
100
AcDbEntity
  8
L1_100
  6
DASHED
 62
         2
100
AcDbLine
 10
1621.0023403765
 20
159.7856417297
 30
0.0
 11
1620.7833403765
 21
160.1649608565
 31
0.0
  0
LINE
  5
303
100
AcDbEntity
  8
L1_100
  6
DASHED
 62
         2
100
AcDbLine
 10
1621.0023403765
 20
159.4067368818
 30
0.0
 11
1621.0023403765
 21
159.7856417297
 31
0.0
  0
LINE
  5
304
100
AcDbEntity
  8
L1_100
  6
DASHED
 62
         2
100
AcDbLine
 10
1620.7833403765
 20
160.1649608565
 30
0.0
 11
1620.7833403765
 21
162.9419925516
 31
0.0
  0
LINE
  5
305
100
AcDbEntity
  8
L1_100
  6
DASHED
 62
         2
100
AcDbLine
 10
1625.564340376
 20
159.7856417297
 30
0.0
 11
1625.783340376
 21
160.1649608565
 31
0.0
  0
LINE
  5
306
100
AcDbEntity
  8
L1_100
  6
DASHED
 62
         2
100
AcDbLine
 10
1625.564340376
 20
159.4067368818
 30
0.0
 11
1625.564340376
 21
159.7856417297
 31
0.0
  0
LINE
  5
307
100
AcDbEntity
  8
L1_100
  6
DASHED
 62
         2
100
AcDbLine
 10
1625.783340376
 20
160.1649608565
 30
0.0
 11
1625.783340376
 21
162.9419925516
 31
0.0
  0
LINE
  5
308
100
AcDbEntity
  8
L1_100
  6
CENTER
 62
         1
100
AcDbLine
 10
1637.5727595387
 20
158.4346417294
 30
0.0
 11
1608.9939212138
 21
141.9346417294
 31
0.0
  0
LINE
  5
309
100
AcDbEntity
  8
L1_100
  6
CENTER
 62
         1
100
AcDbLine
 10
1637.5727595387
 20
141.9346417294
 30
0.0
 11
1608.9939212138
 21
158.4346417294
 31
0.0
  0
LINE
  5
30A
100
AcDbEntity
  8
L1_100
  6
CONTINUOUS
 62
         7
100
AcDbLine
 10
1615.3657965652
 20
145.1096417294
 30
0.0
 11
1611.390590484
 21
145.1096417294
 31
0.0
  0
LINE
  5
30B
100
AcDbEntity
  8
L1_100
  6
CONTINUOUS
 62
         7
100
AcDbLine
 10
1615.3657965652
 20
155.2596417294
 30
0.0
 11
1611.390590484
 21
155.2596417294
 31
0.0
  0
CIRCLE
  5
30C
100
AcDbEntity
  8
L1_100
  6
CONTINUOUS
 62
         7
100
AcDbCircle
 10
1623.2833403763
 20
150.1846417294
 30
0.0
 40
9.5
  0
LINE
  5
30D
100
AcDbEntity
  8
L1_100
  6
CONTINUOUS
 62
         7
100
AcDbLine
 10
1635.1760902685
 20
145.1096417294
 30
0.0
 11
1631.2008841873
 21
145.1096417294
 31
0.0
  0
LINE
  5
30E
100
AcDbEntity
  8
L1_100
  6
CONTINUOUS
 62
         7
100
AcDbLine
 10
1635.1760902685
 20
155.2596417294
 30
0.0
 11
1631.2008841873
 21
155.2596417294
 31
0.0
  0
CIRCLE
  5
30F
100
AcDbEntity
  8
L1_100
  6
CONTINUOUS
 62
         7
100
AcDbCircle
 10
1623.2833403763
 20
150.1846417294
 30
0.0
 40
13.0
  0
CIRCLE
  5
310
100
AcDbEntity
  8
L1_100
  6
CONTINUOUS
 62
         7
100
AcDbCircle
 10
1623.2833403763
 20
150.1846417294
 30
0.0
 40
16.5
  0
CIRCLE
  5
311
100
AcDbEntity
  8
L1_100
  6
CONTINUOUS
 62
         7
100
AcDbCircle
 10
1623.2833403763
 20
150.1846417294
 30
0.0
 40
13.5
  0
LINE
  5
312
100
AcDbEntity
  8
L1_100
  6
CONTINUOUS
 62
         4
100
AcDbLine
 10
1433.6033403763
 20
133.6846417294
 30
0.0
 11
1433.6033403763
 21
166.6846417294
 31
0.0
  0
LINE
  5
313
100
AcDbEntity
  8
L1_100
  6
CONTINUOUS
 62
         4
100
AcDbLine
 10
1434.6033403763
 20
136.6846417294
 30
0.0
 11
1434.6033403763
 21
163.6846417294
 31
0.0
  0
LINE
  5
314
100
AcDbEntity
  8
L1_100
  6
CONTINUOUS
 62
         4
100
AcDbLine
 10
1442.5033403763
 20
137.3846417294
 30
0.0
 11
1442.5033403763
 21
162.9846417294
 31
0.0
  0
LINE
  5
315
100
AcDbEntity
  8
L1_100
  6
CONTINUOUS
 62
         4
100
AcDbLine
 10
1441.9033403763
 20
136.6846417294
 30
0.0
 11
1441.9033403763
 21
163.6846417294
 31
0.0
  0
LINE
  5
316
100
AcDbEntity
  8
L1_100
  6
CONTINUOUS
 62
         4
100
AcDbLine
 10
1462.2033403763
 20
137.1846417294
 30
0.0
 11
1462.2033403763
 21
163.1846417294
 31
0.0
  0
LINE
  5
317
100
AcDbEntity
  8
L1_100
  6
CONTINUOUS
 62
         4
100
AcDbLine
 10
1460.6533403763
 20
137.1846417294
 30
0.0
 11
1460.6533403763
 21
163.1846417294
 31
0.0
  0
LINE
  5
318
100
AcDbEntity
  8
L1_100
  6
CONTINUOUS
 62
         4
100
AcDbLine
 10
1466.6033403763
 20
137.1846417294
 30
0.0
 11
1466.6033403763
 21
144.9346417294
 31
0.0
  0
LINE
  5
319
100
AcDbEntity
  8
L1_100
  6
CONTINUOUS
 62
         4
100
AcDbLine
 10
1466.6033403763
 20
155.4346417294
 30
0.0
 11
1466.6033403763
 21
163.1846417294
 31
0.0
  0
LINE
  5
31A
100
AcDbEntity
  8
L1_100
  6
CONTINUOUS
 62
         7
100
AcDbLine
 10
1443.3033403763
 20
137.1846417294
 30
0.0
 11
1443.3033403763
 21
163.1846417294
 31
0.0
  0
LINE
  5
31B
100
AcDbEntity
  8
L1_100
  6
CONTINUOUS
 62
         4
100
AcDbLine
 10
1443.1033403763
 20
137.3846417294
 30
0.0
 11
1443.1033403763
 21
162.9846417294
 31
0.0
  0
LINE
  5
31C
100
AcDbEntity
  8
L1_100
  6
CONTINUOUS
 62
         7
100
AcDbLine
 10
1462.1033403763
 20
-25.8433347407
 30
0.0
 11
1462.2033403763
 21
-25.9433347407
 31
0.0
  0
LINE
  5
31D
100
AcDbEntity
  8
L1_100
  6
CONTINUOUS
 62
         7
100
AcDbLine
 10
1460.7533403763
 20
-25.8433347407
 30
0.0
 11
1460.6533403763
 21
-25.9433347407
 31
0.0
  0
LINE
  5
31E
100
AcDbEntity
  8
L1_100
  6
CONTINUOUS
 62
         7
100
AcDbLine
 10
1462.1033403763
 20
-0.0433347407
 30
0.0
 11
1462.2033403763
 21
0.0566652593
 31
0.0
  0
LINE
  5
31F
100
AcDbEntity
  8
L1_100
  6
CONTINUOUS
 62
         7
100
AcDbLine
 10
1460.7533403763
 20
-0.0433347407
 30
0.0
 11
1460.6533403763
 21
0.0566652593
 31
0.0
  0
LINE
  5
320
100
AcDbEntity
  8
L1_100
  6
CONTINUOUS
 62
         7
100
AcDbLine
 10
1462.1033403763
 20
137.2846417294
 30
0.0
 11
1462.2033403763
 21
137.1846417294
 31
0.0
  0
LINE
  5
321
100
AcDbEntity
  8
L1_100
  6
CONTINUOUS
 62
         7
100
AcDbLine
 10
1460.7533403763
 20
137.2846417294
 30
0.0
 11
1460.6533403763
 21
137.1846417294
 31
0.0
  0
LINE
  5
322
100
AcDbEntity
  8
L1_100
  6
CONTINUOUS
 62
         7
100
AcDbLine
 10
1462.1033403763
 20
163.0846417294
 30
0.0
 11
1462.2033403763
 21
163.1846417294
 31
0.0
  0
LINE
  5
323
100
AcDbEntity
  8
L1_100
  6
CONTINUOUS
 62
         7
100
AcDbLine
 10
1460.6533403763
 20
163.1846417294
 30
0.0
 11
1460.7533403763
 21
163.0846417294
 31
0.0
  0
ARC
  5
324
100
AcDbEntity
  8
L1_100
  6
CONTINUOUS
 62
         7
100
AcDbCircle
 10
1442.5033403763
 20
0.2566652593
 30
0.0
 40
0.4
100
AcDbArc
 50
180.0
 51
270.0
  0
ARC
  5
325
100
AcDbEntity
  8
L1_100
  6
CONTINUOUS
 62
         7
100
AcDbCircle
 10
1442.5033403763
 20
-26.1433347407
 30
0.0
 40
0.4
100
AcDbArc
 50
90.0
 51
180.0
  0
LINE
  5
326
100
AcDbEntity
  8
L1_100
  6
CONTINUOUS
 62
         7
100
AcDbLine
 10
1443.1033403763
 20
-25.7433347407
 30
0.0
 11
1443.3033403763
 21
-25.9433347407
 31
0.0
  0
LINE
  5
327
100
AcDbEntity
  8
L1_100
  6
CONTINUOUS
 62
         7
100
AcDbLine
 10
1443.1033403763
 20
-25.7433347407
 30
0.0
 11
1442.5033403763
 21
-25.7433347407
 31
0.0
  0
LINE
  5
328
100
AcDbEntity
  8
L1_100
  6
CONTINUOUS
 62
         7
100
AcDbLine
 10
1443.1033403763
 20
-0.1433347407
 30
0.0
 11
1443.3033403763
 21
0.0566652593
 31
0.0
  0
ARC
  5
329
100
AcDbEntity
  8
L1_100
  6
CONTINUOUS
 62
         7
100
AcDbCircle
 10
1441.9033403763
 20
0.3566652593
 30
0.0
 40
0.2
100
AcDbArc
 50
0.0
 51
90.0000000001
  0
LINE
  5
32A
100
AcDbEntity
  8
L1_100
  6
CONTINUOUS
 62
         7
100
AcDbLine
 10
1442.1033403763
 20
0.2566652593
 30
0.0
 11
1442.1033403763
 21
0.3566652593
 31
0.0
  0
ARC
  5
32B
100
AcDbEntity
  8
L1_100
  6
CONTINUOUS
 62
         7
100
AcDbCircle
 10
1441.9033403763
 20
-26.2433347407
 30
0.0
 40
0.2
100
AcDbArc
 50
269.9999999999
 51
360.0
  0
LINE
  5
32C
100
AcDbEntity
  8
L1_100
  6
CONTINUOUS
 62
         7
100
AcDbLine
 10
1442.1033403763
 20
-26.2433347407
 30
0.0
 11
1442.1033403763
 21
-26.1433347407
 31
0.0
  0
ARC
  5
32D
100
AcDbEntity
  8
L1_100
  6
CONTINUOUS
 62
         7
100
AcDbCircle
 10
1433.6033403763
 20
-28.9433347407
 30
0.0
 40
0.5
100
AcDbArc
 50
270.0
 51
360.0
  0
ARC
  5
32E
100
AcDbEntity
  8
L1_100
  6
CONTINUOUS
 62
         7
100
AcDbCircle
 10
1433.6033403763
 20
3.0566652593
 30
0.0
 40
0.5
100
AcDbArc
 50
0.0
 51
90.0
  0
LINE
  5
32F
100
AcDbEntity
  8
L1_100
  6
CONTINUOUS
 62
         7
100
AcDbLine
 10
1451.603340376
 20
-22.9226538678
 30
0.0
 11
1451.603340376
 21
-25.8433347407
 31
0.0
  0
LINE
  5
330
100
AcDbEntity
  8
L1_100
  6
CONTINUOUS
 62
         7
100
AcDbLine
 10
1451.603340376
 20
-25.8433347407
 30
0.0
 11
1451.703340376
 21
-25.9433347407
 31
0.0
  0
LINE
  5
331
100
AcDbEntity
  8
L1_100
  6
CONTINUOUS
 62
         7
100
AcDbLine
 10
1451.384340376
 20
-22.443334741
 30
0.0
 11
1451.384340376
 21
-22.543334741
 31
0.0
  0
LINE
  5
332
100
AcDbEntity
  8
L1_100
  6
CONTINUOUS
 62
         7
100
AcDbLine
 10
1451.384340376
 20
-22.543334741
 30
0.0
 11
1451.603340376
 21
-22.9226538678
 31
0.0
  0
LINE
  5
333
100
AcDbEntity
  8
L1_100
  6
CONTINUOUS
 62
         7
100
AcDbLine
 10
1446.6033403765
 20
-22.9226538678
 30
0.0
 11
1446.6033403765
 21
-25.8433347407
 31
0.0
  0
LINE
  5
334
100
AcDbEntity
  8
L1_100
  6
CONTINUOUS
 62
         7
100
AcDbLine
 10
1446.5033403765
 20
-25.9433347407
 30
0.0
 11
1446.6033403765
 21
-25.8433347407
 31
0.0
  0
LINE
  5
335
100
AcDbEntity
  8
L1_100
  6
CONTINUOUS
 62
         7
100
AcDbLine
 10
1446.8223403765
 20
-22.443334741
 30
0.0
 11
1446.8223403765
 21
-22.543334741
 31
0.0
  0
LINE
  5
336
100
AcDbEntity
  8
L1_100
  6
CONTINUOUS
 62
         7
100
AcDbLine
 10
1446.8223403765
 20
-22.543334741
 30
0.0
 11
1446.6033403765
 21
-22.9226538678
 31
0.0
  0
LINE
  5
337
100
AcDbEntity
  8
L1_100
  6
CONTINUOUS
 62
         7
100
AcDbLine
 10
1451.603340376
 20
-2.9640156135
 30
0.0
 11
1451.603340376
 21
-0.0433347407
 31
0.0
  0
LINE
  5
338
100
AcDbEntity
  8
L1_100
  6
CONTINUOUS
 62
         7
100
AcDbLine
 10
1451.603340376
 20
-0.0433347407
 30
0.0
 11
1451.703340376
 21
0.0566652593
 31
0.0
  0
LINE
  5
339
100
AcDbEntity
  8
L1_100
  6
CONTINUOUS
 62
         7
100
AcDbLine
 10
1451.384340376
 20
-3.4433347403
 30
0.0
 11
1451.384340376
 21
-3.3433347403
 31
0.0
  0
LINE
  5
33A
100
AcDbEntity
  8
L1_100
  6
CONTINUOUS
 62
         7
100
AcDbLine
 10
1451.384340376
 20
-3.3433347403
 30
0.0
 11
1451.603340376
 21
-2.9640156135
 31
0.0
  0
LINE
  5
33B
100
AcDbEntity
  8
L1_100
  6
CONTINUOUS
 62
         7
100
AcDbLine
 10
1446.6033403765
 20
-2.9640156135
 30
0.0
 11
1446.6033403765
 21
-0.0433347407
 31
0.0
  0
LINE
  5
33C
100
AcDbEntity
  8
L1_100
  6
CONTINUOUS
 62
         7
100
AcDbLine
 10
1446.5033403765
 20
0.0566652593
 30
0.0
 11
1446.6033403765
 21
-0.0433347407
 31
0.0
  0
LINE
  5
33D
100
AcDbEntity
  8
L1_100
  6
CONTINUOUS
 62
         7
100
AcDbLine
 10
1446.8223403765
 20
-3.4433347403
 30
0.0
 11
1446.8223403765
 21
-3.3433347403
 31
0.0
  0
LINE
  5
33E
100
AcDbEntity
  8
L1_100
  6
CONTINUOUS
 62
         7
100
AcDbLine
 10
1446.8223403765
 20
-3.3433347403
 30
0.0
 11
1446.6033403765
 21
-2.9640156135
 31
0.0
  0
LINE
  5
33F
100
AcDbEntity
  8
L1_100
  6
CONTINUOUS
 62
         7
100
AcDbLine
 10
1443.1033403763
 20
-0.1433347407
 30
0.0
 11
1442.5033403763
 21
-0.1433347407
 31
0.0
  0
LINE
  5
340
100
AcDbEntity
  8
L1_100
  6
CENTER
 62
         1
100
AcDbLine
 10
1413.5412873333
 20
-12.9433347407
 30
0.0
 11
1468.2674593923
 21
-12.9433347407
 31
0.0
  0
ARC
  5
341
100
AcDbEntity
  8
L1_100
  6
CONTINUOUS
 62
         7
100
AcDbCircle
 10
1465.1033403763
 20
-24.4433347407
 30
0.0
 40
2.0
100
AcDbArc
 50
0.0
 51
90.0
  0
ARC
  5
342
100
AcDbEntity
  8
L1_100
  6
CONTINUOUS
 62
         7
100
AcDbCircle
 10
1465.1033403763
 20
-1.4433347407
 30
0.0
 40
2.0
100
AcDbArc
 50
270.0
 51
360.0
  0
LINE
  5
343
100
AcDbEntity
  8
L1_100
  6
CONTINUOUS
 62
         7
100
AcDbLine
 10
1460.6533403763
 20
0.0566652593
 30
0.0
 11
1443.3033403763
 21
0.0566652593
 31
0.0
  0
LINE
  5
344
100
AcDbEntity
  8
L1_100
  6
CONTINUOUS
 62
         7
100
AcDbLine
 10
1465.1033403763
 20
-22.4433347407
 30
0.0
 11
1445.1033403763
 21
-22.4433347407
 31
0.0
  0
ARC
  5
345
100
AcDbEntity
  8
L1_100
  6
CONTINUOUS
 62
         7
100
AcDbCircle
 10
1434.6033403763
 20
-26.9433347407
 30
0.0
 40
0.5
100
AcDbArc
 50
90.0
 51
180.0
  0
ARC
  5
346
100
AcDbEntity
  8
L1_100
  6
CONTINUOUS
 62
         7
100
AcDbCircle
 10
1434.6033403763
 20
1.0566652593
 30
0.0
 40
0.5
100
AcDbArc
 50
180.0
 51
270.0
  0
LINE
  5
347
100
AcDbEntity
  8
L1_100
  6
CONTINUOUS
 62
         7
100
AcDbLine
 10
1440.1033403763
 20
-22.4433347407
 30
0.0
 11
1434.618512819
 21
-12.9433347407
 31
0.0
  0
LINE
  5
348
100
AcDbEntity
  8
L1_100
  6
CONTINUOUS
 62
         7
100
AcDbLine
 10
1440.1033403763
 20
-3.4433347407
 30
0.0
 11
1434.618512819
 21
-12.9433347407
 31
0.0
  0
LINE
  5
349
100
AcDbEntity
  8
L1_100
  6
CONTINUOUS
 62
         7
100
AcDbLine
 10
1445.1033403763
 20
-22.9433347407
 30
0.0
 11
1440.1033403763
 21
-22.9433347407
 31
0.0
  0
LINE
  5
34A
100
AcDbEntity
  8
L1_100
  6
CONTINUOUS
 62
         7
100
AcDbLine
 10
1445.1033403763
 20
-2.9433347407
 30
0.0
 11
1440.1033403763
 21
-2.9433347407
 31
0.0
  0
LINE
  5
34B
100
AcDbEntity
  8
L1_100
  6
CONTINUOUS
 62
         7
100
AcDbLine
 10
1440.1033403763
 20
-22.9433347407
 30
0.0
 11
1440.1033403763
 21
-2.9433347407
 31
0.0
  0
LINE
  5
34C
100
AcDbEntity
  8
L1_100
  6
CONTINUOUS
 62
         7
100
AcDbLine
 10
1445.1033403763
 20
-22.9433347407
 30
0.0
 11
1445.1033403763
 21
-2.9433347407
 31
0.0
  0
LINE
  5
34D
100
AcDbEntity
  8
L1_100
  6
CONTINUOUS
 62
         7
100
AcDbLine
 10
1465.1033403763
 20
-3.4433347407
 30
0.0
 11
1445.1033403763
 21
-3.4433347407
 31
0.0
  0
LINE
  5
34E
100
AcDbEntity
  8
L1_100
  6
CONTINUOUS
 62
         7
100
AcDbLine
 10
1434.1033403763
 20
1.0566652593
 30
0.0
 11
1434.1033403763
 21
3.0566652593
 31
0.0
  0
LINE
  5
34F
100
AcDbEntity
  8
L1_100
  6
CONTINUOUS
 62
         7
100
AcDbLine
 10
1434.1033403763
 20
-28.9433347407
 30
0.0
 11
1434.1033403763
 21
-26.9433347407
 31
0.0
  0
LINE
  5
350
100
AcDbEntity
  8
L1_100
  6
CONTINUOUS
 62
         7
100
AcDbLine
 10
1441.9033403763
 20
-26.4433347407
 30
0.0
 11
1434.6033403763
 21
-26.4433347407
 31
0.0
  0
LINE
  5
351
100
AcDbEntity
  8
L1_100
  6
CONTINUOUS
 62
         7
100
AcDbLine
 10
1441.9033403763
 20
0.5566652593
 30
0.0
 11
1434.6033403763
 21
0.5566652593
 31
0.0
  0
LINE
  5
352
100
AcDbEntity
  8
L1_100
  6
CONTINUOUS
 62
         7
100
AcDbLine
 10
1433.6033403763
 20
-29.4433347407
 30
0.0
 11
1420.1033403763
 21
-29.4433347407
 31
0.0
  0
LINE
  5
353
100
AcDbEntity
  8
L1_100
  6
CONTINUOUS
 62
         7
100
AcDbLine
 10
1433.6033403763
 20
3.5566652593
 30
0.0
 11
1420.1033403763
 21
3.5566652593
 31
0.0
  0
LINE
  5
354
100
AcDbEntity
  8
L1_100
  6
CONTINUOUS
 62
         7
100
AcDbLine
 10
1460.6533403763
 20
-25.9433347407
 30
0.0
 11
1443.3033403763
 21
-25.9433347407
 31
0.0
  0
LINE
  5
355
100
AcDbEntity
  8
L1_100
  6
CENTER
 62
         1
100
AcDbLine
 10
1449.1033403763
 20
-26.996032237
 30
0.0
 11
1449.1033403763
 21
0.3383656979
 31
0.0
  0
LINE
  5
356
100
AcDbEntity
  8
L1_100
  6
CONTINUOUS
 62
         7
100
AcDbLine
 10
1466.6033403763
 20
-18.1933347407
 30
0.0
 11
1463.1033403763
 21
-18.1933347407
 31
0.0
  0
LINE
  5
357
100
AcDbEntity
  8
L1_100
  6
CONTINUOUS
 62
         7
100
AcDbLine
 10
1466.6033403763
 20
-7.6933347407
 30
0.0
 11
1463.1033403763
 21
-7.6933347407
 31
0.0
  0
LINE
  5
358
100
AcDbEntity
  8
L1_100
  6
CONTINUOUS
 62
         7
100
AcDbLine
 10
1462.1033403763
 20
-17.1933347407
 30
0.0
 11
1462.1033403763
 21
-8.6933347407
 31
0.0
  0
LINE
  5
359
100
AcDbEntity
  8
L1_100
  6
CONTINUOUS
 62
         7
100
AcDbLine
 10
1467.1033403763
 20
-25.4433347407
 30
0.0
 11
1466.6033403763
 21
-25.9433347407
 31
0.0
  0
LINE
  5
35A
100
AcDbEntity
  8
L1_100
  6
CONTINUOUS
 62
         7
100
AcDbLine
 10
1466.6033403763
 20
0.0566652593
 30
0.0
 11
1467.1033403763
 21
-0.4433347407
 31
0.0
  0
LINE
  5
35B
100
AcDbEntity
  8
L1_100
  6
CONTINUOUS
 62
         7
100
AcDbLine
 10
1467.1033403763
 20
-7.1933347407
 30
0.0
 11
1467.1033403763
 21
-0.4433347407
 31
0.0
  0
LINE
  5
35C
100
AcDbEntity
  8
L1_100
  6
CONTINUOUS
 62
         7
100
AcDbLine
 10
1462.1033403763
 20
-25.8433347407
 30
0.0
 11
1462.1033403763
 21
-25.3933347407
 31
0.0
  0
LINE
  5
35D
100
AcDbEntity
  8
L1_100
  6
CONTINUOUS
 62
         7
100
AcDbLine
 10
1460.7533403763
 20
-25.8433347407
 30
0.0
 11
1460.7533403763
 21
-25.3933347407
 31
0.0
  0
LINE
  5
35E
100
AcDbEntity
  8
L1_100
  6
CONTINUOUS
 62
         7
100
AcDbLine
 10
1462.1033403763
 20
-25.3933347407
 30
0.0
 11
1460.7533403763
 21
-25.3933347407
 31
0.0
  0
LINE
  5
35F
100
AcDbEntity
  8
L1_100
  6
CONTINUOUS
 62
         7
100
AcDbLine
 10
1462.1033403763
 20
-0.4933347407
 30
0.0
 11
1460.7533403763
 21
-0.4933347407
 31
0.0
  0
LINE
  5
360
100
AcDbEntity
  8
L1_100
  6
CONTINUOUS
 62
         7
100
AcDbLine
 10
1467.1033403763
 20
-25.4433347407
 30
0.0
 11
1467.1033403763
 21
-18.6933347407
 31
0.0
  0
LINE
  5
361
100
AcDbEntity
  8
L1_100
  6
CONTINUOUS
 62
         7
100
AcDbLine
 10
1466.6033403763
 20
-25.9433347407
 30
0.0
 11
1462.2033403763
 21
-25.9433347407
 31
0.0
  0
LINE
  5
362
100
AcDbEntity
  8
L1_100
  6
CONTINUOUS
 62
         7
100
AcDbLine
 10
1466.6033403763
 20
0.0566652593
 30
0.0
 11
1462.2033403763
 21
0.0566652593
 31
0.0
  0
LINE
  5
363
100
AcDbEntity
  8
L1_100
  6
CONTINUOUS
 62
         7
100
AcDbLine
 10
1467.1033403763
 20
-7.1933347407
 30
0.0
 11
1466.6033403763
 21
-7.6933347407
 31
0.0
  0
LINE
  5
364
100
AcDbEntity
  8
L1_100
  6
CONTINUOUS
 62
         7
100
AcDbLine
 10
1466.6033403763
 20
-18.1933347407
 30
0.0
 11
1467.1033403763
 21
-18.6933347407
 31
0.0
  0
LINE
  5
365
100
AcDbEntity
  8
L1_100
  6
CONTINUOUS
 62
         7
100
AcDbLine
 10
1460.7533403763
 20
-0.4933347407
 30
0.0
 11
1460.7533403763
 21
-0.0433347407
 31
0.0
  0
LINE
  5
366
100
AcDbEntity
  8
L1_100
  6
CONTINUOUS
 62
         7
100
AcDbLine
 10
1462.1033403763
 20
-0.4933347407
 30
0.0
 11
1462.1033403763
 21
-0.0433347407
 31
0.0
  0
LINE
  5
367
100
AcDbEntity
  8
L1_100
  6
CONTINUOUS
 62
         4
100
AcDbLine
 10
1465.1033403763
 20
-22.4433347407
 30
0.0
 11
1465.1033403763
 21
-18.1933347407
 31
0.0
  0
LINE
  5
368
100
AcDbEntity
  8
L1_100
  6
CONTINUOUS
 62
         4
100
AcDbLine
 10
1465.1033403763
 20
-7.6933347407
 30
0.0
 11
1465.1033403763
 21
-3.4433347407
 31
0.0
  0
ARC
  5
369
100
AcDbEntity
  8
L1_100
  6
CONTINUOUS
 62
         7
100
AcDbCircle
 10
1442.5033403763
 20
163.3846417294
 30
0.0
 40
0.4
100
AcDbArc
 50
180.0
 51
270.0
  0
ARC
  5
36A
100
AcDbEntity
  8
L1_100
  6
CONTINUOUS
 62
         7
100
AcDbCircle
 10
1442.5033403763
 20
136.9846417294
 30
0.0
 40
0.4
100
AcDbArc
 50
90.0
 51
180.0
  0
LINE
  5
36B
100
AcDbEntity
  8
L1_100
  6
CONTINUOUS
 62
         7
100
AcDbLine
 10
1443.1033403763
 20
137.3846417294
 30
0.0
 11
1443.3033403763
 21
137.1846417294
 31
0.0
  0
LINE
  5
36C
100
AcDbEntity
  8
L1_100
  6
CONTINUOUS
 62
         7
100
AcDbLine
 10
1443.1033403763
 20
137.3846417294
 30
0.0
 11
1442.5033403763
 21
137.3846417294
 31
0.0
  0
LINE
  5
36D
100
AcDbEntity
  8
L1_100
  6
CONTINUOUS
 62
         7
100
AcDbLine
 10
1443.1033403763
 20
162.9846417294
 30
0.0
 11
1443.3033403763
 21
163.1846417294
 31
0.0
  0
ARC
  5
36E
100
AcDbEntity
  8
L1_100
  6
CONTINUOUS
 62
         7
100
AcDbCircle
 10
1441.9033403763
 20
163.4846417294
 30
0.0
 40
0.2
100
AcDbArc
 50
0.0
 51
90.0000000001
  0
LINE
  5
36F
100
AcDbEntity
  8
L1_100
  6
CONTINUOUS
 62
         7
100
AcDbLine
 10
1442.1033403763
 20
136.8846417294
 30
0.0
 11
1442.1033403763
 21
163.4846417294
 31
0.0
  0
ARC
  5
370
100
AcDbEntity
  8
L1_100
  6
CONTINUOUS
 62
         7
100
AcDbCircle
 10
1441.9033403763
 20
136.8846417294
 30
0.0
 40
0.2
100
AcDbArc
 50
269.9999999999
 51
360.0
  0
ARC
  5
371
100
AcDbEntity
  8
L1_100
  6
CONTINUOUS
 62
         7
100
AcDbCircle
 10
1433.6033403763
 20
134.1846417294
 30
0.0
 40
0.5
100
AcDbArc
 50
270.0
 51
360.0
  0
ARC
  5
372
100
AcDbEntity
  8
L1_100
  6
CONTINUOUS
 62
         7
100
AcDbCircle
 10
1433.6033403763
 20
166.1846417294
 30
0.0
 40
0.5
100
AcDbArc
 50
0.0
 51
90.0
  0
LINE
  5
373
100
AcDbEntity
  8
L1_100
  6
CONTINUOUS
 62
         7
100
AcDbLine
 10
1443.1033403763
 20
162.9846417294
 30
0.0
 11
1442.5033403763
 21
162.9846417294
 31
0.0
  0
LINE
  5
374
100
AcDbEntity
  8
L1_100
  6
CENTER
 62
         1
100
AcDbLine
 10
1412.2033403763
 20
150.1846417294
 30
0.0
 11
1468.2674593923
 21
150.1846417294
 31
0.0
  0
LINE
  5
375
100
AcDbEntity
  8
L1_100
  6
CONTINUOUS
 62
         7
100
AcDbLine
 10
1460.6533403763
 20
163.1846417294
 30
0.0
 11
1443.3033403763
 21
163.1846417294
 31
0.0
  0
ARC
  5
376
100
AcDbEntity
  8
L1_100
  6
CONTINUOUS
 62
         7
100
AcDbCircle
 10
1434.6033403763
 20
136.1846417294
 30
0.0
 40
0.5
100
AcDbArc
 50
90.0
 51
180.0
  0
ARC
  5
377
100
AcDbEntity
  8
L1_100
  6
CONTINUOUS
 62
         7
100
AcDbCircle
 10
1434.6033403763
 20
164.1846417294
 30
0.0
 40
0.5
100
AcDbArc
 50
180.0
 51
270.0
  0
LINE
  5
378
100
AcDbEntity
  8
L1_100
  6
CONTINUOUS
 62
         7
100
AcDbLine
 10
1434.1033403763
 20
134.1846417294
 30
0.0
 11
1434.1033403763
 21
166.1846417294
 31
0.0
  0
LINE
  5
379
100
AcDbEntity
  8
L1_100
  6
CONTINUOUS
 62
         7
100
AcDbLine
 10
1441.9033403763
 20
136.6846417294
 30
0.0
 11
1434.6033403763
 21
136.6846417294
 31
0.0
  0
LINE
  5
37A
100
AcDbEntity
  8
L1_100
  6
CONTINUOUS
 62
         7
100
AcDbLine
 10
1441.9033403763
 20
163.6846417294
 30
0.0
 11
1434.6033403763
 21
163.6846417294
 31
0.0
  0
LINE
  5
37B
100
AcDbEntity
  8
L1_100
  6
CONTINUOUS
 62
         7
100
AcDbLine
 10
1433.6033403763
 20
133.6846417294
 30
0.0
 11
1420.1033403763
 21
133.6846417294
 31
0.0
  0
LINE
  5
37C
100
AcDbEntity
  8
L1_100
  6
CONTINUOUS
 62
         7
100
AcDbLine
 10
1433.6033403763
 20
166.6846417294
 30
0.0
 11
1420.1033403763
 21
166.6846417294
 31
0.0
  0
LINE
  5
37D
100
AcDbEntity
  8
L1_100
  6
CONTINUOUS
 62
         7
100
AcDbLine
 10
1460.6533403763
 20
137.1846417294
 30
0.0
 11
1443.3033403763
 21
137.1846417294
 31
0.0
  0
LINE
  5
37E
100
AcDbEntity
  8
L1_100
  6
CENTER
 62
         1
100
AcDbLine
 10
1449.1033403763
 20
137.1846417294
 30
0.0
 11
1449.1033403763
 21
163.4663421679
 31
0.0
  0
ARC
  5
37F
100
AcDbEntity
  8
L1_100
  6
CONTINUOUS
 62
         7
100
AcDbCircle
 10
1463.3033403763
 20
145.4346417294
 30
0.0
 40
0.5
100
AcDbArc
 50
180.0
 51
270.0
  0
LINE
  5
380
100
AcDbEntity
  8
L1_100
  6
CONTINUOUS
 62
         7
100
AcDbLine
 10
1466.6033403763
 20
144.9346417294
 30
0.0
 11
1463.3033403763
 21
144.9346417294
 31
0.0
  0
LINE
  5
381
100
AcDbEntity
  8
L1_100
  6
CONTINUOUS
 62
         7
100
AcDbLine
 10
1466.6033403763
 20
155.4346417294
 30
0.0
 11
1463.3033403763
 21
155.4346417294
 31
0.0
  0
ARC
  5
382
100
AcDbEntity
  8
L1_100
  6
CONTINUOUS
 62
         7
100
AcDbCircle
 10
1463.3033403763
 20
154.9346417294
 30
0.0
 40
0.5
100
AcDbArc
 50
90.0
 51
180.0
  0
LINE
  5
383
100
AcDbEntity
  8
L1_100
  6
CONTINUOUS
 62
         7
100
AcDbLine
 10
1462.8033403763
 20
145.4346417294
 30
0.0
 11
1462.8033403763
 21
154.9346417294
 31
0.0
  0
LINE
  5
384
100
AcDbEntity
  8
L1_100
  6
CONTINUOUS
 62
         7
100
AcDbLine
 10
1467.1033403763
 20
137.6846417294
 30
0.0
 11
1466.6033403763
 21
137.1846417294
 31
0.0
  0
LINE
  5
385
100
AcDbEntity
  8
L1_100
  6
CONTINUOUS
 62
         7
100
AcDbLine
 10
1466.6033403763
 20
163.1846417294
 30
0.0
 11
1467.1033403763
 21
162.6846417294
 31
0.0
  0
LINE
  5
386
100
AcDbEntity
  8
L1_100
  6
CONTINUOUS
 62
         7
100
AcDbLine
 10
1467.1033403763
 20
155.9346417294
 30
0.0
 11
1467.1033403763
 21
162.6846417294
 31
0.0
  0
LINE
  5
387
100
AcDbEntity
  8
L1_100
  6
CONTINUOUS
 62
         7
100
AcDbLine
 10
1462.1033403763
 20
137.7346417294
 30
0.0
 11
1460.7533403763
 21
137.7346417294
 31
0.0
  0
LINE
  5
388
100
AcDbEntity
  8
L1_100
  6
CONTINUOUS
 62
         7
100
AcDbLine
 10
1462.1033403763
 20
162.6346417294
 30
0.0
 11
1460.7533403763
 21
162.6346417294
 31
0.0
  0
LINE
  5
389
100
AcDbEntity
  8
L1_100
  6
CONTINUOUS
 62
         7
100
AcDbLine
 10
1467.1033403763
 20
137.6846417294
 30
0.0
 11
1467.1033403763
 21
144.4346417294
 31
0.0
  0
LINE
  5
38A
100
AcDbEntity
  8
L1_100
  6
CONTINUOUS
 62
         7
100
AcDbLine
 10
1466.6033403763
 20
137.1846417294
 30
0.0
 11
1462.2033403763
 21
137.1846417294
 31
0.0
  0
LINE
  5
38B
100
AcDbEntity
  8
L1_100
  6
CONTINUOUS
 62
         7
100
AcDbLine
 10
1466.6033403763
 20
163.1846417294
 30
0.0
 11
1462.2033403763
 21
163.1846417294
 31
0.0
  0
LINE
  5
38C
100
AcDbEntity
  8
L1_100
  6
CONTINUOUS
 62
         7
100
AcDbLine
 10
1467.1033403763
 20
155.9346417294
 30
0.0
 11
1466.6033403763
 21
155.4346417294
 31
0.0
  0
LINE
  5
38D
100
AcDbEntity
  8
L1_100
  6
CONTINUOUS
 62
         7
100
AcDbLine
 10
1466.6033403763
 20
144.9346417294
 30
0.0
 11
1467.1033403763
 21
144.4346417294
 31
0.0
  0
LINE
  5
38E
100
AcDbEntity
  8
L1_100
  6
CONTINUOUS
 62
         7
100
AcDbLine
 10
1460.7533403763
 20
137.2846417294
 30
0.0
 11
1460.7533403763
 21
163.0846417294
 31
0.0
  0
LINE
  5
38F
100
AcDbEntity
  8
L1_100
  6
CONTINUOUS
 62
         7
100
AcDbLine
 10
1462.1033403763
 20
137.2846417294
 30
0.0
 11
1462.1033403763
 21
163.0846417294
 31
0.0
  0
LINE
  5
390
100
AcDbEntity
  8
_Y__________
  6
CONTINUOUS
 62
         7
100
AcDbLine
 10
1367.7033403763
 20
-19.9933347407
 30
0.0
 11
1371.773659774
 21
-12.9433347407
 31
0.0
  0
LINE
  5
391
100
AcDbEntity
  8
_Y__________
  6
CONTINUOUS
 62
         7
100
AcDbLine
 10
1367.7033403763
 20
-5.8933347407
 30
0.0
 11
1371.773659774
 21
-12.9433347407
 31
0.0
  0
LINE
  5
392
100
AcDbEntity
  8
_Y__________
  6
CONTINUOUS
 62
         7
100
AcDbLine
 10
1367.7033403763
 20
-5.8933347407
 30
0.0
 11
1367.7033403763
 21
-19.9933347407
 31
0.0
  0
LINE
  5
393
100
AcDbEntity
  8
_Y__________
  6
CONTINUOUS
 62
         7
100
AcDbLine
 10
1367.7033403763
 20
-19.9933347407
 30
0.0
 11
1335.7033403763
 21
-19.9933347407
 31
0.0
  0
LINE
  5
394
100
AcDbEntity
  8
_Y__________
  6
CONTINUOUS
 62
         7
100
AcDbLine
 10
1367.7033403763
 20
-5.8933347407
 30
0.0
 11
1335.7033403763
 21
-5.8933347407
 31
0.0
  0
ARC
  5
395
100
AcDbEntity
  8
_Y__________
  6
CONTINUOUS
 62
         7
100
AcDbCircle
 10
1395.1033403763
 20
180.6846417294
 30
0.0
 40
1.0
100
AcDbArc
 50
90.0
 51
180.0
  0
ARC
  5
396
100
AcDbEntity
  8
_Y__________
  6
CONTINUOUS
 62
         7
100
AcDbCircle
 10
1418.1033403763
 20
180.6846417294
 30
0.0
 40
1.0
100
AcDbArc
 50
0.0
 51
90.0
  0
LINE
  5
397
100
AcDbEntity
  8
_Y__________
  6
CONTINUOUS
 62
         7
100
AcDbLine
 10
1417.1033403763
 20
181.6846417294
 30
0.0
 11
1418.1033403763
 21
181.6846417294
 31
0.0
  0
LINE
  5
398
100
AcDbEntity
  8
_Y__________
  6
CONTINUOUS
 62
         7
100
AcDbLine
 10
1419.1033403763
 20
120.6846417294
 30
0.0
 11
1419.1033403763
 21
119.6846417294
 31
0.0
  0
LINE
  5
399
100
AcDbEntity
  8
_Y__________
  6
CONTINUOUS
 62
         7
100
AcDbLine
 10
1395.1033403763
 20
181.6846417294
 30
0.0
 11
1396.1033403763
 21
181.6846417294
 31
0.0
  0
LINE
  5
39A
100
AcDbEntity
  8
_Y__________
  6
CONTINUOUS
 62
         7
100
AcDbLine
 10
1394.1033403763
 20
120.6846417294
 30
0.0
 11
1394.1033403763
 21
119.6846417294
 31
0.0
  0
ARC
  5
39B
100
AcDbEntity
  8
_Y__________
  6
CONTINUOUS
 62
         7
100
AcDbCircle
 10
1395.1033403763
 20
119.6846417294
 30
0.0
 40
1.0
100
AcDbArc
 50
180.0
 51
270.0
  0
LINE
  5
39C
100
AcDbEntity
  8
_Y__________
  6
CONTINUOUS
 62
         7
100
AcDbLine
 10
1395.1033403763
 20
118.6846417294
 30
0.0
 11
1396.1033403763
 21
118.6846417294
 31
0.0
  0
LINE
  5
39D
100
AcDbEntity
  8
_Y__________
  6
CONTINUOUS
 62
         7
100
AcDbLine
 10
1417.1033403763
 20
118.6846417294
 30
0.0
 11
1418.1033403763
 21
118.6846417294
 31
0.0
  0
ARC
  5
39E
100
AcDbEntity
  8
_Y__________
  6
CONTINUOUS
 62
         7
100
AcDbCircle
 10
1418.1033403763
 20
119.6846417294
 30
0.0
 40
1.0
100
AcDbArc
 50
270.0
 51
360.0
  0
LINE
  5
39F
100
AcDbEntity
  8
_Y__________
  6
CONTINUOUS
 62
         7
100
AcDbLine
 10
1419.1033403763
 20
179.6846417294
 30
0.0
 11
1419.1033403763
 21
180.6846417294
 31
0.0
  0
LINE
  5
3A0
100
AcDbEntity
  8
_Y__________
  6
CONTINUOUS
 62
         7
100
AcDbLine
 10
1394.1033403763
 20
179.6846417294
 30
0.0
 11
1394.1033403763
 21
180.6846417294
 31
0.0
  0
LINE
  5
3A1
100
AcDbEntity
  8
_Y__________
  6
CONTINUOUS
 62
         7
100
AcDbLine
 10
1394.1033403763
 20
16.5566652593
 30
0.0
 11
1394.1033403763
 21
17.5566652593
 31
0.0
  0
LINE
  5
3A2
100
AcDbEntity
  8
_Y__________
  6
CONTINUOUS
 62
         7
100
AcDbLine
 10
1419.1033403763
 20
4.5566652593
 30
0.0
 11
1419.1033403763
 21
17.5566652593
 31
0.0
  0
ARC
  5
3A3
100
AcDbEntity
  8
_Y__________
  6
CONTINUOUS
 62
         7
100
AcDbCircle
 10
1418.1033403763
 20
-43.4433347407
 30
0.0
 40
1.0
100
AcDbArc
 50
270.0
 51
360.0
  0
LINE
  5
3A4
100
AcDbEntity
  8
_Y__________
  6
CONTINUOUS
 62
         7
100
AcDbLine
 10
1417.1033403763
 20
-44.4433347407
 30
0.0
 11
1418.1033403763
 21
-44.4433347407
 31
0.0
  0
LINE
  5
3A5
100
AcDbEntity
  8
_Y__________
  6
CONTINUOUS
 62
         7
100
AcDbLine
 10
1395.1033403763
 20
-44.4433347407
 30
0.0
 11
1396.1033403763
 21
-44.4433347407
 31
0.0
  0
ARC
  5
3A6
100
AcDbEntity
  8
_Y__________
  6
CONTINUOUS
 62
         7
100
AcDbCircle
 10
1395.1033403763
 20
-43.4433347407
 30
0.0
 40
1.0
100
AcDbArc
 50
180.0
 51
270.0
  0
LINE
  5
3A7
100
AcDbEntity
  8
_Y__________
  6
CONTINUOUS
 62
         7
100
AcDbLine
 10
1394.1033403763
 20
-42.4433347407
 30
0.0
 11
1394.1033403763
 21
-43.4433347407
 31
0.0
  0
LINE
  5
3A8
100
AcDbEntity
  8
_Y__________
  6
CONTINUOUS
 62
         7
100
AcDbLine
 10
1395.1033403763
 20
18.5566652593
 30
0.0
 11
1396.1033403763
 21
18.5566652593
 31
0.0
  0
LINE
  5
3A9
100
AcDbEntity
  8
_Y__________
  6
CONTINUOUS
 62
         7
100
AcDbLine
 10
1419.1033403763
 20
-30.4433347407
 30
0.0
 11
1419.1033403763
 21
-43.4433347407
 31
0.0
  0
LINE
  5
3AA
100
AcDbEntity
  8
_Y__________
  6
CONTINUOUS
 62
         7
100
AcDbLine
 10
1417.1033403763
 20
18.5566652593
 30
0.0
 11
1418.1033403763
 21
18.5566652593
 31
0.0
  0
ARC
  5
3AB
100
AcDbEntity
  8
_Y__________
  6
CONTINUOUS
 62
         7
100
AcDbCircle
 10
1418.1033403763
 20
17.5566652593
 30
0.0
 40
1.0
100
AcDbArc
 50
0.0
 51
90.0
  0
ARC
  5
3AC
100
AcDbEntity
  8
_Y__________
  6
CONTINUOUS
 62
         7
100
AcDbCircle
 10
1395.1033403763
 20
17.5566652593
 30
0.0
 40
1.0
100
AcDbArc
 50
90.0
 51
180.0
  0
LINE
  5
3AD
100
AcDbEntity
  8
_Y__________
  6
DASHED
 62
         2
100
AcDbLine
 10
1593.3293176535
 20
142.1346417294
 30
0.0
 11
1599.8833403763
 21
142.1346417294
 31
0.0
  0
LINE
  5
3AE
100
AcDbEntity
  8
_Y__________
  6
DASHED
 62
         2
100
AcDbLine
 10
1593.3293176535
 20
158.2346417294
 30
0.0
 11
1599.8833403763
 21
158.2346417294
 31
0.0
  0
LINE
  5
3AF
100
AcDbEntity
  8
_Y__________
  6
DASHED
 62
         2
100
AcDbLine
 10
1600.6833403763
 20
157.4346417294
 30
0.0
 11
1600.6833403763
 21
142.9346417294
 31
0.0
  0
LINE
  5
3B0
100
AcDbEntity
  8
_Y__________
  6
DASHED
 62
         2
100
AcDbLine
 10
1593.3293176535
 20
158.2346417294
 30
0.0
 11
1592.9360087767
 21
158.6279506061
 31
0.0
  0
LINE
  5
3B1
100
AcDbEntity
  8
_Y__________
  6
DASHED
 62
         2
100
AcDbLine
 10
1593.3293176535
 20
142.1346417294
 30
0.0
 11
1592.9360087767
 21
141.7413328526
 31
0.0
  0
LINE
  5
3B2
100
AcDbEntity
  8
_Y__________
  6
DASHED
 62
         2
100
AcDbLine
 10
1600.6833403763
 20
142.9346417294
 30
0.0
 11
1599.8833403763
 21
142.1346417294
 31
0.0
  0
LINE
  5
3B3
100
AcDbEntity
  8
_Y__________
  6
DASHED
 62
         2
100
AcDbLine
 10
1600.6833403763
 20
157.4346417294
 30
0.0
 11
1599.8833403763
 21
158.2346417294
 31
0.0
  0
LINE
  5
3B4
100
AcDbEntity
  8
_Y__________
  6
DASHED
 62
         2
100
AcDbLine
 10
1645.8833403763
 20
157.4346417294
 30
0.0
 11
1645.8833403763
 21
142.9346417294
 31
0.0
  0
LINE
  5
3B5
100
AcDbEntity
  8
_Y__________
  6
DASHED
 62
         2
100
AcDbLine
 10
1653.237363099
 20
158.2346417294
 30
0.0
 11
1646.6833403763
 21
158.2346417294
 31
0.0
  0
LINE
  5
3B6
100
AcDbEntity
  8
_Y__________
  6
DASHED
 62
         2
100
AcDbLine
 10
1653.237363099
 20
142.1346417294
 30
0.0
 11
1646.6833403763
 21
142.1346417294
 31
0.0
  0
LINE
  5
3B7
100
AcDbEntity
  8
_Y__________
  6
DASHED
 62
         2
100
AcDbLine
 10
1653.237363099
 20
158.2346417294
 30
0.0
 11
1653.6306719758
 21
158.6279506061
 31
0.0
  0
LINE
  5
3B8
100
AcDbEntity
  8
_Y__________
  6
DASHED
 62
         2
100
AcDbLine
 10
1653.237363099
 20
142.1346417294
 30
0.0
 11
1653.6306719758
 21
141.7413328526
 31
0.0
  0
LINE
  5
3B9
100
AcDbEntity
  8
_Y__________
  6
DASHED
 62
         2
100
AcDbLine
 10
1646.6833403763
 20
158.2346417294
 30
0.0
 11
1645.8833403763
 21
157.4346417294
 31
0.0
  0
LINE
  5
3BA
100
AcDbEntity
  8
_Y__________
  6
DASHED
 62
         2
100
AcDbLine
 10
1645.8833403763
 20
142.9346417294
 30
0.0
 11
1646.6833403763
 21
142.1346417294
 31
0.0
  0
ARC
  5
3BB
100
AcDbEntity
  8
_Y__________
  6
DASHED
 62
         2
100
AcDbCircle
 10
1623.2833403763
 20
150.1846417294
 30
0.0
 40
26.5
100
AcDbArc
 50
197.6843950499
 51
342.3156049501
  0
ARC
  5
3BC
100
AcDbEntity
  8
_Y__________
  6
DASHED
 62
         2
100
AcDbCircle
 10
1623.2833403763
 20
150.1846417294
 30
0.0
 40
26.5
100
AcDbArc
 50
17.6843950499
 51
162.3156049501
  0
LINE
  5
3BD
100
AcDbEntity
  8
_Y__________
  6
CONTINUOUS
 62
         7
100
AcDbLine
 10
1413.7033403763
 20
143.7674772465
 30
0.0
 11
1413.7033403763
 21
118.6846417294
 31
0.0
  0
LINE
  5
3BE
100
AcDbEntity
  8
_Y__________
  6
CONTINUOUS
 62
         7
100
AcDbLine
 10
1411.2033403763
 20
142.7765380584
 30
0.0
 11
1411.2033403763
 21
123.0150147105
 31
0.0
  0
LINE
  5
3BF
100
AcDbEntity
  8
_Y__________
  6
CONTINUOUS
 62
         7
100
AcDbLine
 10
1406.2033403763
 20
142.1346417294
 30
0.0
 11
1406.2033403763
 21
123.0150147105
 31
0.0
  0
LINE
  5
3C0
100
AcDbEntity
  8
_Y__________
  6
CONTINUOUS
 62
         7
100
AcDbLine
 10
1403.7033403763
 20
141.6346417294
 30
0.0
 11
1403.7033403763
 21
118.6846417294
 31
0.0
  0
LINE
  5
3C1
100
AcDbEntity
  8
_Y__________
  6
CONTINUOUS
 62
         4
100
AcDbLine
 10
1394.1033403763
 20
141.6346417294
 30
0.0
 11
1403.7033403763
 21
141.6346417294
 31
0.0
  0
LINE
  5
3C2
100
AcDbEntity
  8
_Y__________
  6
CONTINUOUS
 62
         7
100
AcDbLine
 10
1394.1033403763
 20
142.1346417294
 30
0.0
 11
1408.0533403763
 21
142.1346417294
 31
0.0
  0
LINE
  5
3C3
100
AcDbEntity
  8
_Y__________
  6
CONTINUOUS
 62
         7
100
AcDbLine
 10
1394.1033403763
 20
158.2346417294
 30
0.0
 11
1408.0533403763
 21
158.2346417294
 31
0.0
  0
ARC
  5
3C4
100
AcDbEntity
  8
_Y__________
  6
CONTINUOUS
 62
         7
100
AcDbCircle
 10
1408.0533403763
 20
150.1846417294
 30
0.0
 40
8.05
100
AcDbArc
 50
270.0
 51
450.0
  0
ARC
  5
3C5
100
AcDbEntity
  8
_Y__________
  6
CONTINUOUS
 62
         4
100
AcDbCircle
 10
1408.0533403763
 20
150.1846417294
 30
0.0
 40
8.55
100
AcDbArc
 50
311.3623424579
 51
408.6376575421
  0
LINE
  5
3C6
100
AcDbEntity
  8
_Y__________
  6
CONTINUOUS
 62
         4
100
AcDbLine
 10
1411.2033403763
 20
157.5927454004
 30
0.0
 11
1413.7033403763
 21
156.6018062122
 31
0.0
  0
LINE
  5
3C7
100
AcDbEntity
  8
_Y__________
  6
CONTINUOUS
 62
         4
100
AcDbLine
 10
1411.2033403763
 20
142.7765380584
 30
0.0
 11
1413.7033403763
 21
143.7674772465
 31
0.0
  0
LINE
  5
3C8
100
AcDbEntity
  8
_Y__________
  6
CONTINUOUS
 62
         4
100
AcDbLine
 10
1403.7033403763
 20
141.6346417294
 30
0.0
 11
1406.2033403763
 21
142.1346417294
 31
0.0
  0
LINE
  5
3C9
100
AcDbEntity
  8
_Y__________
  6
CONTINUOUS
 62
         4
100
AcDbLine
 10
1403.7033403763
 20
158.7346417294
 30
0.0
 11
1406.2033403763
 21
158.2346417294
 31
0.0
  0
LINE
  5
3CA
100
AcDbEntity
  8
_Y__________
  6
CONTINUOUS
 62
         7
100
AcDbLine
 10
1413.7033403763
 20
181.6846417294
 30
0.0
 11
1413.7033403763
 21
156.6018062122
 31
0.0
  0
LINE
  5
3CB
100
AcDbEntity
  8
_Y__________
  6
CONTINUOUS
 62
         7
100
AcDbLine
 10
1411.2033403763
 20
177.3542687483
 30
0.0
 11
1411.2033403763
 21
157.5927454004
 31
0.0
  0
LINE
  5
3CC
100
AcDbEntity
  8
_Y__________
  6
CONTINUOUS
 62
         7
100
AcDbLine
 10
1406.2033403763
 20
177.3542687483
 30
0.0
 11
1406.2033403763
 21
158.2346417294
 31
0.0
  0
LINE
  5
3CD
100
AcDbEntity
  8
_Y__________
  6
CONTINUOUS
 62
         7
100
AcDbLine
 10
1403.7033403763
 20
181.6846417294
 30
0.0
 11
1403.7033403763
 21
158.7346417294
 31
0.0
  0
LINE
  5
3CE
100
AcDbEntity
  8
_Y__________
  6
CONTINUOUS
 62
         4
100
AcDbLine
 10
1394.1033403763
 20
158.7346417294
 30
0.0
 11
1403.7033403763
 21
158.7346417294
 31
0.0
  0
ARC
  5
3CF
100
AcDbEntity
  8
_Y__________
  6
DASHED
 62
         2
100
AcDbCircle
 10
1214.9233403763
 20
150.1846417294
 30
0.0
 40
26.5
100
AcDbArc
 50
197.6843950499
 51
342.3156049501
  0
ARC
  5
3D0
100
AcDbEntity
  8
_Y__________
  6
DASHED
 62
         2
100
AcDbCircle
 10
1214.9233403763
 20
150.1846417294
 30
0.0
 40
26.5
100
AcDbArc
 50
17.6843950499
 51
162.3156049501
  0
LINE
  5
3D1
100
AcDbEntity
  8
_Y__________
  6
CONTINUOUS
 62
         7
100
AcDbLine
 10
1237.5233403763
 20
157.4346417294
 30
0.0
 11
1237.5233403763
 21
142.9346417294
 31
0.0
  0
LINE
  5
3D2
100
AcDbEntity
  8
_Y__________
  6
CONTINUOUS
 62
         7
100
AcDbLine
 10
1244.877363099
 20
158.2346417294
 30
0.0
 11
1238.3233403763
 21
158.2346417294
 31
0.0
  0
LINE
  5
3D3
100
AcDbEntity
  8
_Y__________
  6
CONTINUOUS
 62
         7
100
AcDbLine
 10
1244.877363099
 20
142.1346417294
 30
0.0
 11
1238.3233403763
 21
142.1346417294
 31
0.0
  0
LINE
  5
3D4
100
AcDbEntity
  8
_Y__________
  6
CONTINUOUS
 62
         7
100
AcDbLine
 10
1244.877363099
 20
158.2346417294
 30
0.0
 11
1245.2706719758
 21
158.6279506061
 31
0.0
  0
LINE
  5
3D5
100
AcDbEntity
  8
_Y__________
  6
CONTINUOUS
 62
         7
100
AcDbLine
 10
1244.877363099
 20
142.1346417294
 30
0.0
 11
1245.2706719758
 21
141.7413328526
 31
0.0
  0
LINE
  5
3D6
100
AcDbEntity
  8
_Y__________
  6
CONTINUOUS
 62
         7
100
AcDbLine
 10
1237.5233403763
 20
142.9346417294
 30
0.0
 11
1238.3233403763
 21
142.1346417294
 31
0.0
  0
LINE
  5
3D7
100
AcDbEntity
  8
_Y__________
  6
CONTINUOUS
 62
         7
100
AcDbLine
 10
1237.5233403763
 20
157.4346417294
 30
0.0
 11
1238.3233403763
 21
158.2346417294
 31
0.0
  0
LINE
  5
3D8
100
AcDbEntity
  8
_Y__________
  6
CONTINUOUS
 62
         7
100
AcDbLine
 10
1184.9693176535
 20
142.1346417294
 30
0.0
 11
1191.5233403763
 21
142.1346417294
 31
0.0
  0
LINE
  5
3D9
100
AcDbEntity
  8
_Y__________
  6
CONTINUOUS
 62
         7
100
AcDbLine
 10
1184.9693176535
 20
158.2346417294
 30
0.0
 11
1191.5233403763
 21
158.2346417294
 31
0.0
  0
LINE
  5
3DA
100
AcDbEntity
  8
_Y__________
  6
CONTINUOUS
 62
         7
100
AcDbLine
 10
1192.3233403763
 20
157.4346417294
 30
0.0
 11
1192.3233403763
 21
142.9346417294
 31
0.0
  0
LINE
  5
3DB
100
AcDbEntity
  8
_Y__________
  6
CONTINUOUS
 62
         7
100
AcDbLine
 10
1184.9693176535
 20
158.2346417294
 30
0.0
 11
1184.5760087767
 21
158.6279506061
 31
0.0
  0
LINE
  5
3DC
100
AcDbEntity
  8
_Y__________
  6
CONTINUOUS
 62
         7
100
AcDbLine
 10
1184.9693176535
 20
142.1346417294
 30
0.0
 11
1184.5760087767
 21
141.7413328526
 31
0.0
  0
LINE
  5
3DD
100
AcDbEntity
  8
_Y__________
  6
CONTINUOUS
 62
         7
100
AcDbLine
 10
1191.5233403763
 20
158.2346417294
 30
0.0
 11
1192.3233403763
 21
157.4346417294
 31
0.0
  0
LINE
  5
3DE
100
AcDbEntity
  8
_Y__________
  6
CONTINUOUS
 62
         7
100
AcDbLine
 10
1192.3233403763
 20
142.9346417294
 30
0.0
 11
1191.5233403763
 21
142.1346417294
 31
0.0
  0
LINE
  5
3DF
100
AcDbEntity
  8
_Y__________
  6
CONTINUOUS
 62
         7
100
AcDbLine
 10
1406.2033403763
 20
123.6846417294
 30
0.0
 11
1411.2033403763
 21
123.6846417294
 31
0.0
  0
LINE
  5
3E0
100
AcDbEntity
  8
_Y__________
  6
CONTINUOUS
 62
         7
100
AcDbLine
 10
1406.2033403763
 20
176.6846417294
 30
0.0
 11
1411.2033403763
 21
176.6846417294
 31
0.0
  0
LINE
  5
3E1
100
AcDbEntity
  8
_Y__________
  6
CENTER
 62
         1
100
AcDbLine
 10
1380.541891064
 20
150.1846417294
 30
0.0
 11
1419.1033403763
 21
150.1846417294
 31
0.0
  0
LINE
  5
3E2
100
AcDbEntity
  8
_Y__________
  6
CENTER
 62
         1
100
AcDbLine
 10
1321.1945221388
 20
150.1846417294
 30
0.0
 11
1367.7664645449
 21
150.1846417294
 31
0.0
  0
LINE
  5
3E3
100
AcDbEntity
  8
_Y__________
  6
CONTINUOUS
 62
         7
100
AcDbLine
 10
1406.2033403763
 20
177.3542687483
 30
0.0
 11
1403.7031983699
 21
181.6846417294
 31
0.0
  0
LINE
  5
3E4
100
AcDbEntity
  8
_Y__________
  6
CONTINUOUS
 62
         7
100
AcDbLine
 10
1411.2033403763
 20
177.3542687483
 30
0.0
 11
1413.7034823826
 21
181.6846417294
 31
0.0
  0
LINE
  5
3E5
100
AcDbEntity
  8
_Y__________
  6
CONTINUOUS
 62
         7
100
AcDbLine
 10
1413.7034823826
 20
181.6846417294
 30
0.0
 11
1418.1033403763
 21
181.6846417294
 31
0.0
  0
LINE
  5
3E6
100
AcDbEntity
  8
_Y__________
  6
CONTINUOUS
 62
         7
100
AcDbLine
 10
1395.1033403763
 20
181.6846417294
 30
0.0
 11
1403.7031983699
 21
181.6846417294
 31
0.0
  0
LINE
  5
3E7
100
AcDbEntity
  8
_Y__________
  6
CONTINUOUS
 62
         7
100
AcDbLine
 10
1413.7034823826
 20
118.6846417294
 30
0.0
 11
1418.1033403763
 21
118.6846417294
 31
0.0
  0
LINE
  5
3E8
100
AcDbEntity
  8
_Y__________
  6
CONTINUOUS
 62
         7
100
AcDbLine
 10
1406.2033403763
 20
123.0150147105
 30
0.0
 11
1403.7031983699
 21
118.6846417294
 31
0.0
  0
LINE
  5
3E9
100
AcDbEntity
  8
_Y__________
  6
CONTINUOUS
 62
         7
100
AcDbLine
 10
1411.2033403763
 20
123.0150147105
 30
0.0
 11
1413.7034823826
 21
118.6846417294
 31
0.0
  0
LINE
  5
3EA
100
AcDbEntity
  8
_Y__________
  6
CONTINUOUS
 62
         7
100
AcDbLine
 10
1392.6033403763
 20
172.4825579953
 30
0.0
 11
1393.3497505378
 21
172.2825579953
 31
0.0
  0
LINE
  5
3EB
100
AcDbEntity
  8
_Y__________
  6
CONTINUOUS
 62
         7
100
AcDbLine
 10
1393.3497505378
 20
172.2825579953
 30
0.0
 11
1393.7033403763
 21
172.2825579953
 31
0.0
  0
ARC
  5
3EC
100
AcDbEntity
  8
_Y__________
  6
CONTINUOUS
 62
         7
100
AcDbCircle
 10
1393.7033403763
 20
172.6825579953
 30
0.0
 40
0.4
100
AcDbArc
 50
270.0
 51
360.0
  0
LINE
  5
3ED
100
AcDbEntity
  8
_Y__________
  6
CONTINUOUS
 62
         7
100
AcDbLine
 10
1392.6033403763
 20
127.8867254635
 30
0.0
 11
1393.3497505378
 21
128.0867254635
 31
0.0
  0
ARC
  5
3EE
100
AcDbEntity
  8
_Y__________
  6
CONTINUOUS
 62
         7
100
AcDbCircle
 10
1393.7033403763
 20
127.6867254635
 30
0.0
 40
0.4
100
AcDbArc
 50
0.0
 51
90.0
  0
LINE
  5
3EF
100
AcDbEntity
  8
_Y__________
  6
CONTINUOUS
 62
         7
100
AcDbLine
 10
1393.3497505378
 20
128.0867254635
 30
0.0
 11
1393.7033403763
 21
128.0867254635
 31
0.0
  0
LINE
  5
3F0
100
AcDbEntity
  8
_Y__________
  6
CONTINUOUS
 62
         7
100
AcDbLine
 10
1392.6033403763
 20
172.4825579953
 30
0.0
 11
1392.6033403763
 21
127.8867254635
 31
0.0
  0
LINE
  5
3F1
100
AcDbEntity
  8
_Y__________
  6
CENTER
 62
         1
100
AcDbLine
 10
1392.1033403763
 20
172.4096417294
 30
0.0
 11
1392.1033403763
 21
127.9596417294
 31
0.0
  0
LINE
  5
3F2
100
AcDbEntity
  8
_Y__________
  6
CONTINUOUS
 62
         7
100
AcDbLine
 10
1395.1033403763
 20
118.6846417294
 30
0.0
 11
1403.7031983699
 21
118.6846417294
 31
0.0
  0
LINE
  5
3F3
100
AcDbEntity
  8
_Y__________
  6
CONTINUOUS
 62
         7
100
AcDbLine
 10
1326.7033403763
 20
162.0074490628
 30
0.0
 11
1326.7033403763
 21
138.361834396
 31
0.0
  0
ARC
  5
3F4
100
AcDbEntity
  8
_Y__________
  6
CONTINUOUS
 62
         7
100
AcDbCircle
 10
1327.7033403763
 20
138.361834396
 30
0.0
 40
1.0
100
AcDbArc
 50
180.0
 51
261.7029
  0
ARC
  5
3F5
100
AcDbEntity
  8
_Y__________
  6
CONTINUOUS
 62
         7
100
AcDbCircle
 10
1327.7033403763
 20
162.0074490628
 30
0.0
 40
1.0
100
AcDbArc
 50
98.2971
 51
180.0
  0
LINE
  5
3F6
100
AcDbEntity
  8
_Y__________
  6
CONTINUOUS
 62
         7
100
AcDbLine
 10
1327.5590342598
 20
137.3723013017
 30
0.0
 11
1392.6033403763
 21
127.8867254635
 31
0.0
  0
LINE
  5
3F7
100
AcDbEntity
  8
_Y__________
  6
CONTINUOUS
 62
         7
100
AcDbLine
 10
1327.5590342598
 20
162.9969821571
 30
0.0
 11
1392.6033403763
 21
172.4825579953
 31
0.0
  0
LINE
  5
3F8
100
AcDbEntity
  8
_Y__________
  6
CONTINUOUS
 62
         7
100
AcDbLine
 10
1394.1033403763
 20
180.6846417294
 30
0.0
 11
1394.1033403763
 21
119.6846417294
 31
0.0
  0
LINE
  5
3F9
100
AcDbEntity
  8
_Y__________
  6
CONTINUOUS
 62
         7
100
AcDbLine
 10
1419.1033403763
 20
180.6846417294
 30
0.0
 11
1419.1033403763
 21
119.6846417294
 31
0.0
  0
LINE
  5
3FA
100
AcDbEntity
  8
_Y__________
  6
CENTER
 62
         1
100
AcDbLine
 10
1408.7033403763
 20
181.6846417294
 30
0.0
 11
1408.7033403763
 21
118.6846417294
 31
0.0
  0
LINE
  5
3FB
100
AcDbEntity
  8
_Y__________
  6
CENTER
 62
         1
100
AcDbLine
 10
1323.7864097888
 20
-12.9433347407
 30
0.0
 11
1419.1033403763
 21
-12.9433347407
 31
0.0
  0
LINE
  5
3FC
100
AcDbEntity
  8
_Y__________
  6
CONTINUOUS
 62
         5
100
AcDbLine
 10
1335.7033403763
 20
-4.9433347407
 30
0.0
 11
1357.7033403763
 21
-4.9433347407
 31
0.0
  0
LINE
  5
3FD
100
AcDbEntity
  8
_Y__________
  6
CONTINUOUS
 62
         5
100
AcDbLine
 10
1335.7033403763
 20
-20.9433347407
 30
0.0
 11
1357.7033403763
 21
-20.9433347407
 31
0.0
  0
ARC
  5
3FE
100
AcDbEntity
  8
_Y__________
  6
CONTINUOUS
 62
         7
100
AcDbCircle
 10
1328.2033403763
 20
-22.9433347407
 30
0.0
 40
1.5
100
AcDbArc
 50
90.0
 51
180.0
  0
ARC
  5
3FF
100
AcDbEntity
  8
_Y__________
  6
CONTINUOUS
 62
         7
100
AcDbCircle
 10
1334.5287420363
 20
-21.0433347407
 30
0.0
 40
0.6
100
AcDbArc
 50
255.0
 51
270.0
  0
LINE
  5
400
100
AcDbEntity
  8
_Y__________
  6
CONTINUOUS
 62
         7
100
AcDbLine
 10
1333.7033403763
 20
-21.4433347407
 30
0.0
 11
1334.3734506093
 21
-21.6228902364
 31
0.0
  0
LINE
  5
401
100
AcDbEntity
  8
_Y__________
  6
CONTINUOUS
 62
         7
100
AcDbLine
 10
1328.2033403763
 20
-21.4433347407
 30
0.0
 11
1333.7033403763
 21
-21.4433347407
 31
0.0
  0
LINE
  5
402
100
AcDbEntity
  8
_Y__________
  6
CONTINUOUS
 62
         7
100
AcDbLine
 10
1334.5287420363
 20
-21.6433347407
 30
0.0
 11
1335.1033403763
 21
-21.6433347407
 31
0.0
  0
ARC
  5
403
100
AcDbEntity
  8
_Y__________
  6
CONTINUOUS
 62
         7
100
AcDbCircle
 10
1335.1033403763
 20
-21.0433347407
 30
0.0
 40
0.6
100
AcDbArc
 50
270.0
 51
360.0
  0
LINE
  5
404
100
AcDbEntity
  8
_Y__________
  6
CONTINUOUS
 62
         7
100
AcDbLine
 10
1333.7033403763
 20
-4.4433347407
 30
0.0
 11
1333.7033403763
 21
-21.4433347407
 31
0.0
  0
LINE
  5
405
100
AcDbEntity
  8
_Y__________
  6
CONTINUOUS
 62
         7
100
AcDbLine
 10
1328.4353911838
 20
-4.4433347407
 30
0.0
 11
1328.4353911838
 21
-21.4433347407
 31
0.0
  0
ARC
  5
406
100
AcDbEntity
  8
_Y__________
  6
CONTINUOUS
 62
         7
100
AcDbCircle
 10
1328.2033403763
 20
-2.9433347407
 30
0.0
 40
1.5
100
AcDbArc
 50
180.0
 51
270.0
  0
LINE
  5
407
100
AcDbEntity
  8
_Y__________
  6
CONTINUOUS
 62
         7
100
AcDbLine
 10
1328.2033403763
 20
-4.4433347407
 30
0.0
 11
1333.7033403763
 21
-4.4433347407
 31
0.0
  0
LINE
  5
408
100
AcDbEntity
  8
_Y__________
  6
CONTINUOUS
 62
         7
100
AcDbLine
 10
1333.7033403763
 20
-4.4433347407
 30
0.0
 11
1334.3734506093
 21
-4.2637792449
 31
0.0
  0
ARC
  5
409
100
AcDbEntity
  8
_Y__________
  6
CONTINUOUS
 62
         7
100
AcDbCircle
 10
1334.5287420363
 20
-4.8433347407
 30
0.0
 40
0.6
100
AcDbArc
 50
90.0
 51
105.0
  0
LINE
  5
40A
100
AcDbEntity
  8
_Y__________
  6
CONTINUOUS
 62
         7
100
AcDbLine
 10
1334.5287420363
 20
-4.2433347407
 30
0.0
 11
1335.1033403763
 21
-4.2433347407
 31
0.0
  0
ARC
  5
40B
100
AcDbEntity
  8
_Y__________
  6
CONTINUOUS
 62
         7
100
AcDbCircle
 10
1335.1033403763
 20
-4.8433347407
 30
0.0
 40
0.6
100
AcDbArc
 50
360.0
 51
450.0
  0
LINE
  5
40C
100
AcDbEntity
  8
_Y__________
  6
CONTINUOUS
 62
         7
100
AcDbLine
 10
1335.7033403763
 20
-4.8433347407
 30
0.0
 11
1335.7033403763
 21
-21.0433347407
 31
0.0
  0
LINE
  5
40D
100
AcDbEntity
  8
_Y__________
  6
CONTINUOUS
 62
         7
100
AcDbLine
 10
1335.7033403763
 20
-19.9933347407
 30
0.0
 11
1357.7033403763
 21
-19.9933347407
 31
0.0
  0
LINE
  5
40E
100
AcDbEntity
  8
_Y__________
  6
CONTINUOUS
 62
         7
100
AcDbLine
 10
1335.7033403763
 20
-5.8933347407
 30
0.0
 11
1357.7033403763
 21
-5.8933347407
 31
0.0
  0
LINE
  5
40F
100
AcDbEntity
  8
_Y__________
  6
CONTINUOUS
 62
         7
100
AcDbLine
 10
1413.7034823826
 20
-44.4433347407
 30
0.0
 11
1418.1033403763
 21
-44.4433347407
 31
0.0
  0
LINE
  5
410
100
AcDbEntity
  8
_Y__________
  6
CONTINUOUS
 62
         7
100
AcDbLine
 10
1411.2033403763
 20
-40.1129617596
 30
0.0
 11
1413.7034823826
 21
-44.4433347407
 31
0.0
  0
LINE
  5
411
100
AcDbEntity
  8
_Y__________
  6
CONTINUOUS
 62
         7
100
AcDbLine
 10
1411.2033403763
 20
-39.4433347407
 30
0.0
 11
1411.2033403763
 21
-40.1129617596
 31
0.0
  0
LINE
  5
412
100
AcDbEntity
  8
_Y__________
  6
CONTINUOUS
 62
         7
100
AcDbLine
 10
1406.2033403763
 20
-39.4433347407
 30
0.0
 11
1411.2033403763
 21
-39.4433347407
 31
0.0
  0
LINE
  5
413
100
AcDbEntity
  8
_Y__________
  6
CONTINUOUS
 62
         7
100
AcDbLine
 10
1406.2033403763
 20
-39.4433347407
 30
0.0
 11
1406.2033403763
 21
-40.1129617596
 31
0.0
  0
LINE
  5
414
100
AcDbEntity
  8
_Y__________
  6
CONTINUOUS
 62
         7
100
AcDbLine
 10
1406.2033403763
 20
-40.1129617596
 30
0.0
 11
1403.7031983699
 21
-44.4433347407
 31
0.0
  0
LINE
  5
415
100
AcDbEntity
  8
_Y__________
  6
CONTINUOUS
 62
         7
100
AcDbLine
 10
1395.1033403763
 20
-44.4433347407
 30
0.0
 11
1403.7031983699
 21
-44.4433347407
 31
0.0
  0
LINE
  5
416
100
AcDbEntity
  8
_Y__________
  6
CONTINUOUS
 62
         7
100
AcDbLine
 10
1394.1033403763
 20
-35.4412510066
 30
0.0
 11
1394.1033403763
 21
-43.4433347407
 31
0.0
  0
ARC
  5
417
100
AcDbEntity
  8
_Y__________
  6
CONTINUOUS
 62
         7
100
AcDbCircle
 10
1393.7033403763
 20
-35.4412510066
 30
0.0
 40
0.4
100
AcDbArc
 50
0.0
 51
90.0
  0
LINE
  5
418
100
AcDbEntity
  8
_Y__________
  6
CONTINUOUS
 62
         7
100
AcDbLine
 10
1393.3497505378
 20
-35.0412510066
 30
0.0
 11
1393.7033403763
 21
-35.0412510066
 31
0.0
  0
LINE
  5
419
100
AcDbEntity
  8
_Y__________
  6
CONTINUOUS
 62
         7
100
AcDbLine
 10
1392.6033403763
 20
-35.2412510066
 30
0.0
 11
1393.3497505378
 21
-35.0412510066
 31
0.0
  0
LINE
  5
41A
100
AcDbEntity
  8
_Y__________
  6
CONTINUOUS
 62
         7
100
AcDbLine
 10
1327.5590342598
 20
-25.7556751684
 30
0.0
 11
1392.6033403763
 21
-35.2412510066
 31
0.0
  0
ARC
  5
41B
100
AcDbEntity
  8
_Y__________
  6
CONTINUOUS
 62
         7
100
AcDbCircle
 10
1327.7033403763
 20
-24.7661420741
 30
0.0
 40
1.0
100
AcDbArc
 50
180.0
 51
261.7029
  0
LINE
  5
41C
100
AcDbEntity
  8
_Y__________
  6
CONTINUOUS
 62
         7
100
AcDbLine
 10
1326.7033403763
 20
-1.1205274073
 30
0.0
 11
1326.7033403763
 21
-24.7661420741
 31
0.0
  0
ARC
  5
41D
100
AcDbEntity
  8
_Y__________
  6
CONTINUOUS
 62
         7
100
AcDbCircle
 10
1327.7033403763
 20
-1.1205274073
 30
0.0
 40
1.0
100
AcDbArc
 50
98.2971
 51
180.0
  0
LINE
  5
41E
100
AcDbEntity
  8
_Y__________
  6
CONTINUOUS
 62
         7
100
AcDbLine
 10
1327.5590342598
 20
-0.1309943129
 30
0.0
 11
1392.6033403763
 21
9.3545815252
 31
0.0
  0
LINE
  5
41F
100
AcDbEntity
  8
_Y__________
  6
CONTINUOUS
 62
         7
100
AcDbLine
 10
1392.6033403763
 20
9.3545815252
 30
0.0
 11
1393.3497505378
 21
9.1545815252
 31
0.0
  0
LINE
  5
420
100
AcDbEntity
  8
_Y__________
  6
CONTINUOUS
 62
         7
100
AcDbLine
 10
1393.3497505378
 20
9.1545815252
 30
0.0
 11
1393.7033403763
 21
9.1545815252
 31
0.0
  0
ARC
  5
421
100
AcDbEntity
  8
_Y__________
  6
CONTINUOUS
 62
         7
100
AcDbCircle
 10
1393.7033403763
 20
9.5545815252
 30
0.0
 40
0.4
100
AcDbArc
 50
270.0
 51
360.0
  0
LINE
  5
422
100
AcDbEntity
  8
_Y__________
  6
CONTINUOUS
 62
         7
100
AcDbLine
 10
1394.1033403763
 20
17.5566652593
 30
0.0
 11
1394.1033403763
 21
9.5545815252
 31
0.0
  0
LINE
  5
423
100
AcDbEntity
  8
_Y__________
  6
CONTINUOUS
 62
         7
100
AcDbLine
 10
1395.1033403763
 20
18.5566652593
 30
0.0
 11
1403.7031983699
 21
18.5566652593
 31
0.0
  0
LINE
  5
424
100
AcDbEntity
  8
_Y__________
  6
CONTINUOUS
 62
         7
100
AcDbLine
 10
1406.2033403763
 20
14.2262922782
 30
0.0
 11
1403.7031983699
 21
18.5566652593
 31
0.0
  0
LINE
  5
425
100
AcDbEntity
  8
_Y__________
  6
CONTINUOUS
 62
         7
100
AcDbLine
 10
1406.2033403763
 20
14.2262922782
 30
0.0
 11
1406.2033403763
 21
13.5566652593
 31
0.0
  0
LINE
  5
426
100
AcDbEntity
  8
_Y__________
  6
CONTINUOUS
 62
         7
100
AcDbLine
 10
1406.2033403763
 20
13.5566652593
 30
0.0
 11
1411.2033403763
 21
13.5566652593
 31
0.0
  0
LINE
  5
427
100
AcDbEntity
  8
_Y__________
  6
CONTINUOUS
 62
         7
100
AcDbLine
 10
1411.2033403763
 20
14.2262922782
 30
0.0
 11
1411.2033403763
 21
13.5566652593
 31
0.0
  0
LINE
  5
428
100
AcDbEntity
  8
_Y__________
  6
CONTINUOUS
 62
         7
100
AcDbLine
 10
1411.2033403763
 20
14.2262922782
 30
0.0
 11
1413.7034823826
 21
18.5566652593
 31
0.0
  0
LINE
  5
429
100
AcDbEntity
  8
_Y__________
  6
CONTINUOUS
 62
         7
100
AcDbLine
 10
1413.7034823826
 20
18.5566652593
 30
0.0
 11
1418.1033403763
 21
18.5566652593
 31
0.0
  0
LINE
  5
42A
100
AcDbEntity
  8
_Y__________
  6
CONTINUOUS
 62
         7
100
AcDbLine
 10
1357.7033403763
 20
-4.9433347407
 30
0.0
 11
1357.7033403763
 21
-20.9433347407
 31
0.0
  0
LINE
  5
42B
100
AcDbEntity
  8
_Y__________
  6
CENTER
 62
         1
100
AcDbLine
 10
1180.4233403763
 20
150.1846417294
 30
0.0
 11
1249.4233403763
 21
150.1846417294
 31
0.0
  0
CIRCLE
  5
42C
100
AcDbEntity
  8
_Y__________
  6
CONTINUOUS
 62
         7
100
AcDbCircle
 10
1214.9233403763
 20
150.1846417294
 30
0.0
 40
31.5
  0
LINE
  5
42D
100
AcDbEntity
  8
_Y__________
  6
CENTER
 62
         1
100
AcDbLine
 10
1214.9233403763
 20
184.6846417294
 30
0.0
 11
1214.9233403763
 21
115.6846417294
 31
0.0
  0
CIRCLE
  5
42E
100
AcDbEntity
  8
_Y__________
  6
CONTINUOUS
 62
         7
100
AcDbCircle
 10
1214.9233403763
 20
150.1846417294
 30
0.0
 40
12.6875524223
  0
CIRCLE
  5
42F
100
AcDbEntity
  8
_Y__________
  6
CONTINUOUS
 62
         7
100
AcDbCircle
 10
1214.9233403763
 20
150.1846417294
 30
0.0
 40
22.2979162659
  0
CIRCLE
  5
430
100
AcDbEntity
  8
_Y__________
  6
CONTINUOUS
 62
         7
100
AcDbCircle
 10
1214.9233403763
 20
150.1846417294
 30
0.0
 40
7.0
  0
CIRCLE
  5
431
100
AcDbEntity
  8
_Y__________
  6
CONTINUOUS
 62
         7
100
AcDbCircle
 10
1214.9233403763
 20
150.1846417294
 30
0.0
 40
8.5
  0
ARC
  5
432
100
AcDbEntity
  8
_Y__________
  6
CONTINUOUS
 62
         4
100
AcDbCircle
 10
1214.9233403763
 20
150.1846417294
 30
0.0
 40
8.0
100
AcDbArc
 50
265.563559301
 51
540.0
  0
LINE
  5
433
100
AcDbEntity
  8
_Y__________
  6
CENTER
 62
         1
100
AcDbLine
 10
1588.7833403763
 20
150.1846417294
 30
0.0
 11
1657.7833403763
 21
150.1846417294
 31
0.0
  0
CIRCLE
  5
434
100
AcDbEntity
  8
_Y__________
  6
CONTINUOUS
 62
         7
100
AcDbCircle
 10
1623.2833403763
 20
150.1846417294
 30
0.0
 40
31.5
  0
LINE
  5
435
100
AcDbEntity
  8
_Y__________
  6
CENTER
 62
         1
100
AcDbLine
 10
1623.2833403763
 20
184.6846417294
 30
0.0
 11
1623.2833403763
 21
111.6775086338
 31
0.0
  0
INSERT
  5
477
100
AcDbEntity
  8
0
  6
CONTINUOUS
100
AcDbBlockReference
  2
*X5
 10
0.0
 20
0.0
 30
0.0
  0
ARC
  5
478
100
AcDbEntity
  8
L1_100
  6
CONTINUOUS
 62
         7
100
AcDbCircle
 10
1463.1033403763
 20
-17.1933347407
 30
0.0
 40
1.0
100
AcDbArc
 50
180.0
 51
270.0
  0
ARC
  5
479
100
AcDbEntity
  8
L1_100
  6
CONTINUOUS
 62
         7
100
AcDbCircle
 10
1463.1033403763
 20
-8.6933347407
 30
0.0
 40
1.0
100
AcDbArc
 50
90.0
 51
180.0
  0
DIMENSION
  5
47C
100
AcDbEntity
  8
L1_100
  6
CONTINUOUS
 62
         4
100
AcDbDimension
  2
*D6
 10
1449.1033403763
 20
19.348752621
 30
0.0
 11
1447.340362077
 21
22.480752621
 31
0.0
  3
DIMSTYLE3
100
AcDbAlignedDimension
 13
1449.1033403763
 23
0.3383656979
 33
0.0
 14
1467.1033403763
 24
-0.4433347407
 34
0.0
100
AcDbRotatedDimension
  0
DIMENSION
  5
48A
100
AcDbEntity
  8
L1_100
  6
CONTINUOUS
 62
         4
100
AcDbDimension
  2
*D7
 10
1467.1033403763
 20
6.2502106776
 30
0.0
 11
1474.2452403842
 21
9.3822106776
 31
0.0
  3
DIMSTYLE3
100
AcDbAlignedDimension
 13
1467.1033403763
 23
-0.4433347407
 33
0.0
 14
1462.1033403763
 24
-8.1933347407
 34
0.0
100
AcDbRotatedDimension
  0
DIMENSION
  5
49A
100
AcDbEntity
  8
L1_100
  6
CONTINUOUS
 62
         4
100
AcDbDimension
  2
*D8
 10
1505.0346446204
 20
-3.4433347407
 30
0.0
 11
1501.9026446204
 21
-21.107148578
 31
0.0
  3
DIMSTYLE3
100
AcDbAlignedDimension
 13
1465.1033403763
 23
-3.4433347407
 33
0.0
 14
1465.1033403763
 24
-22.4433347407
 34
0.0
 50
90.0
100
AcDbRotatedDimension
  0
DIMENSION
  5
4A8
100
AcDbEntity
  8
L1_100
  6
CONTINUOUS
 62
         4
100
AcDbDimension
  2
*D9
 10
1467.1033403763
 20
-41.3133137124
 30
0.0
 11
1450.6783403763
 21
-38.1813137124
 31
0.0
  3
DIMSTYLE3
100
AcDbAlignedDimension
 13
1467.1033403763
 23
-18.6933347407
 33
0.0
 14
1440.1033403763
 24
-22.9433347407
 34
0.0
100
AcDbRotatedDimension
  0
DIMENSION
  5
4B6
100
AcDbEntity
  8
L1_100
  6
CONTINUOUS
 62
         4
100
AcDbDimension
  2
*D10
 10
1467.1033403763
 20
192.8361658586
 30
0.0
 11
1447.6783403763
 21
195.9681658586
 31
0.0
  3
DIMSTYLE3
100
AcDbAlignedDimension
 13
1467.1033403763
 23
162.6846417294
 33
0.0
 14
1434.1033403763
 24
166.1846417294
 34
0.0
100
AcDbRotatedDimension
  0
DIMENSION
  5
4C4
100
AcDbEntity
  8
L1_100
  6
CONTINUOUS
 62
         4
100
AcDbDimension
  2
*D11
 10
1467.1033403763
 20
184.6027123938
 30
0.0
 11
1447.5980735329
 21
187.7347123938
 31
0.0
  3
DIMSTYLE3
100
AcDbAlignedDimension
 13
1467.1033403763
 23
162.6846417294
 33
0.0
 14
1442.1033403763
 24
163.3846417294
 34
0.0
100
AcDbRotatedDimension
  0
DIMENSION
  5
4D2
100
AcDbEntity
  8
L1_100
  6
CONTINUOUS
 62
         4
100
AcDbDimension
  2
*D12
 10
1438.9610134735
 20
163.6846417294
 30
0.0
 11
1435.8290134735
 21
112.5840629848
 31
0.0
  3
DIMSTYLE3
100
AcDbAlignedDimension
 13
1441.1033403763
 23
163.6846417294
 33
0.0
 14
1441.1033403763
 24
136.6846417294
 34
0.0
 50
90.0
100
AcDbRotatedDimension
  0
TEXT
  5
4E2
100
AcDbEntity
  8
L1_100
  6
CONTINUOUS
 62
         2
100
AcDbText
 10
1607.8551181589
 20
218.0204784082
 30
0.0
 40
4.5
  1
532278
 41
0.98
  7
BOX
100
AcDbText
  0
ENDSEC
  0
SECTION
  2
OBJECTS
  0
DICTIONARY
  5
19
100
AcDbDictionary
  3
ACAD_GROUP
350
1A
  3
ACAD_MLINESTYLE
350
1B
  0
DICTIONARY
  5
1A
102
{ACAD_REACTORS
330
19
102
}
100
AcDbDictionary
  0
DICTIONARY
  5
1B
102
{ACAD_REACTORS
330
19
102
}
100
AcDbDictionary
  3
STANDARD
350
1C
  0
MLINESTYLE
  5
1C
102
{ACAD_REACTORS
330
1B
102
}
100
AcDbMlineStyle
  2
STANDARD
 70
         0
  3

 62
         0
 51
90.0
 52
90.0
 71
         2
 49
0.5
 62
       256
  6
BYLAYER
 49
-0.5
 62
       256
  6
BYLAYER
  0
ENDSEC
  0
EOF
