  0
SECTION
  2
HEADER
  9
$ACADVER
  1
AC1014
  9
$ACADMAINTVER
 70
         0
  9
$DWGCODEPAGE
  3
BIG5
  9
$INSBASE
 10
0.0
 20
0.0
 30
0.0
  9
$EXTMIN
 10
1135.3010735295
 20
-65.4510463623
 30
0.0
  9
$EXTMAX
 10
1741.3923408521
 20
240.1213713484
 30
0.0
  9
$LIMMIN
 10
0.0
 20
0.0
  9
$LIMMAX
 10
0.0
 20
0.0
  9
$ORTHOMODE
 70
         0
  9
$REGENMODE
 70
         1
  9
$FILLMODE
 70
         1
  9
$QTEXTMODE
 70
         0
  9
$MIRRTEXT
 70
         1
  9
$DRAGMODE
 70
         2
  9
$LTSCALE
 40
1.0
  9
$OSMODE
 70
         0
  9
$ATTMODE
 70
         1
  9
$TEXTSIZE
 40
2.7
  9
$TRACEWID
 40
0.05
  9
$TEXTSTYLE
  7
STANDARD
  9
$CLAYER
  8
0
  9
$CELTYPE
  6
CONTINUOUS
  9
$CECOLOR
 62
        16
  9
$CELTSCALE
 40
1.0
  9
$DELOBJ
 70
         1
  9
$DISPSILH
 70
         0
  9
$DIMSCALE
 40
1.0
  9
$DIMASZ
 40
0.18
  9
$DIMEXO
 40
0.0625
  9
$DIMDLI
 40
0.38
  9
$DIMRND
 40
0.0
  9
$DIMDLE
 40
0.0
  9
$DIMEXE
 40
0.25
  9
$DIMTP
 40
0.01
  9
$DIMTM
 40
-0.01
  9
$DIMTXT
 40
2.7
  9
$DIMCEN
 40
0.09
  9
$DIMTSZ
 40
0.0
  9
$DIMTOL
 70
         0
  9
$DIMLIM
 70
         0
  9
$DIMTIH
 70
         1
  9
$DIMTOH
 70
         1
  9
$DIMSE1
 70
         0
  9
$DIMSE2
 70
         0
  9
$DIMTAD
 70
         0
  9
$DIMZIN
 70
         0
  9
$DIMBLK
  1

  9
$DIMASO
 70
         1
  9
$DIMSHO
 70
         1
  9
$DIMPOST
  1

  9
$DIMAPOST
  1

  9
$DIMALT
 70
         0
  9
$DIMALTD
 70
         2
  9
$DIMALTF
 40
25.4
  9
$DIMLFAC
 40
1.0
  9
$DIMTOFL
 70
         0
  9
$DIMTVP
 40
0.0
  9
$DIMTIX
 70
         0
  9
$DIMSOXD
 70
         0
  9
$DIMSAH
 70
         0
  9
$DIMBLK1
  1

  9
$DIMBLK2
  1

  9
$DIMSTYLE
  2
STANDARD
  9
$DIMCLRD
 70
         0
  9
$DIMCLRE
 70
         0
  9
$DIMCLRT
 70
        16
  9
$DIMTFAC
 40
0.7
  9
$DIMGAP
 40
0.09
  9
$DIMJUST
 70
         0
  9
$DIMSD1
 70
         0
  9
$DIMSD2
 70
         0
  9
$DIMTOLJ
 70
         1
  9
$DIMTZIN
 70
         0
  9
$DIMALTZ
 70
         0
  9
$DIMALTTZ
 70
         0
  9
$DIMFIT
 70
         3
  9
$DIMUPT
 70
         0
  9
$DIMUNIT
 70
         2
  9
$DIMDEC
 70
         4
  9
$DIMTDEC
 70
         4
  9
$DIMALTU
 70
         2
  9
$DIMALTTD
 70
         2
  9
$DIMTXSTY
  7
STANDARD
  9
$DIMAUNIT
 70
         0
  9
$LUNITS
 70
         2
  9
$LUPREC
 70
        10
  9
$SKETCHINC
 40
0.1
  9
$FILLETRAD
 40
0.0
  9
$AUNITS
 70
         0
  9
$AUPREC
 70
         0
  9
$MENU
  1
acad
  9
$ELEVATION
 40
0.0
  9
$PELEVATION
 40
0.0
  9
$THICKNESS
 40
0.0
  9
$LIMCHECK
 70
         0
  9
$BLIPMODE
 70
         1
  9
$CHAMFERA
 40
0.0
  9
$CHAMFERB
 40
0.0
  9
$CHAMFERC
 40
0.0
  9
$CHAMFERD
 40
0.0
  9
$SKPOLY
 70
         0
  9
$TDCREATE
 40
0.000000000
  9
$TDUPDATE
 40
0.000000000
  9
$TDINDWG
 40
0.0000000000
  9
$TDUSRTIMER
 40
0.0000000000
  9
$USRTIMER
 70
         1
  9
$ANGBASE
 50
0.0
  9
$ANGDIR
 70
         0
  9
$PDMODE
 70
         2
  9
$PDSIZE
 40
0.0
  9
$PLINEWID
 40
0.0
  9
$COORDS
 70
         1
  9
$SPLFRAME
 70
         0
  9
$SPLINETYPE
 70
         6
  9
$SPLINESEGS
 70
         8
  9
$ATTDIA
 70
         0
  9
$ATTREQ
 70
         1
  9
$HANDLING
 70
         1
  9
$HANDSEED
  5
59A
  9
$SURFTAB1
 70
         6
  9
$SURFTAB2
 70
         6
  9
$SURFTYPE
 70
         6
  9
$SURFU
 70
         6
  9
$SURFV
 70
         6
  9
$UCSNAME
  2

  9
$UCSORG
 10
0.0
 20
0.0
 30
0.0
  9
$UCSXDIR
 10
1.0
 20
0.0
 30
0.0
  9
$UCSYDIR
 10
0.0
 20
1.0
 30
0.0
  9
$PUCSNAME
  2

  9
$PUCSORG
 10
0.0
 20
0.0
 30
0.0
  9
$PUCSXDIR
 10
1.0
 20
0.0
 30
0.0
  9
$PUCSYDIR
 10
0.0
 20
1.0
 30
0.0
  9
$USERI1
 70
         0
  9
$USERI2
 70
         0
  9
$USERI3
 70
         0
  9
$USERI4
 70
         0
  9
$USERI5
 70
         0
  9
$USERR1
 40
0.0
  9
$USERR2
 40
0.0
  9
$USERR3
 40
0.0
  9
$USERR4
 40
0.0
  9
$USERR5
 40
0.0
  9
$WORLDVIEW
 70
         1
  9
$SHADEDGE
 70
         3
  9
$SHADEDIF
 70
        70
  9
$TILEMODE
 70
         1
  9
$MAXACTVP
 70
        16
  9
$PINSBASE
 10
0.0
 20
0.0
 30
0.0
  9
$PLIMCHECK
 70
         0
  9
$PEXTMIN
 10
1.0000000000E+20
 20
1.0000000000E+20
 30
1.0000000000E+20
  9
$PEXTMAX
 10
-1.0000000000E+20
 20
-1.0000000000E+20
 30
-1.0000000000E+20
  9
$PLIMMIN
 10
0.0
 20
0.0
  9
$PLIMMAX
 10
12.0
 20
9.0
  9
$UNITMODE
 70
         0
  9
$VISRETAIN
 70
         0
  9
$PLINEGEN
 70
         1
  9
$PSLTSCALE
 70
         0
  9
$TREEDEPTH
 70
      3020
  9
$PICKSTYLE
 70
         1
  9
$CMLSTYLE
  2
STANDARD
  9
$CMLJUST
 70
         0
  9
$CMLSCALE
 40
1.0
  9
$PROXYGRAPHICS
 70
         0
  9
$MEASUREMENT
 70
         0
  0
ENDSEC
  0
SECTION
  2
CLASSES
  0
CLASS
  1
LWPOLYLINE
  2
AcDbPolyline
  3
"AutoCAD"
 90
        0
280
         0
281
         1
  0
CLASS
  1
IMAGE
  2
AcDbRasterImage
  3
ISM
 90
      127
280
         0
281
         1
  0
CLASS
  1
OLE2FRAME
  2
AcDbOle2Frame
  3
""
 90
        0
280
         0
281
         1
  0
CLASS
  1
HATCH
  2
AcDbHatch
  3
"ACAD_SEDONA"
 90
        0
280
         0
281
         1
  0
CLASS
  1
DICTIONARYVAR
  2
AcDbDictionaryVar
  3
"AutoCAD"
 90
        0
280
         0
281
         0
  0
CLASS
  1
RASTERVARIABLES
  2
AcDbRasterVariables
  3
ISM
 90
        0
280
         0
281
         0
  0
CLASS
  1
IMAGEDEF
  2
AcDbRasterImageDef
  3
ISM
 90
        0
280
         0
281
         0
  0
CLASS
  1
IMAGEDEF_REACTOR
  2
AcDbRasterImageDefReactor
  3
ISM
 90
        1
280
         0
281
         0
  0
CLASS
  1
IDBUFFER
  2
AcDbIdBuffer
  3
"Acad"
 90
        0
280
         0
281
         0
  0
CLASS
  1
SPATIAL_FILTER
  2
AcDbSpatialFilter
  3
"Acad"
 90
        0
280
         0
281
         0
  0
CLASS
  1
XRECORD
  2
AcDbXrecord
  3
"<Built In>"
 90
        0
280
         0
281
         0
  0
CLASS
  1
SORTENTSTABLE
  2
AcDbSortentsTable
  3
"AutoCAD"
 90
        0
280
         0
281
         0
  0
CLASS
  1
LAYER_INDEX
  2
AcDbLayerIndex
  3
"Acad"
 90
        0
280
         0
281
         0
  0
CLASS
  1
SPATIAL_INDEX
  2
AcDbSpatialIndex
  3
"Acad"
 90
        0
280
         0
281
         0
  0
CLASS
  1
OBJECT_PTR
  2
CAseDLPNTableRecord
  3
"ASE-LPNTableRecord"
 90
        1
280
         0
281
         0
  0
CLASS
  1
LAYOUT
  2
AcDbLayout
  3
"AutoCAD 2000"
 90
        1
280
         0
281
         0
  0
CLASS
  1
PLOTSETTINGS
  2
AcDbPlotSettings
  3
"AutoCAD 2000"
 90
        1
280
         0
281
         0
  0
CLASS
  1
ACDBDICTIONARYWDFLT
  2
AcDbDictionaryWithDefault
  3
"AutoCAD 2000"
 90
        1
280
         0
281
         0
  0
CLASS
  1
ACDBPLACEHOLDER
  2
AcDbPlaceHolder
  3
"AutoCAD 2000"
 90
        1
280
         0
281
         0
  0
CLASS
  1
VBA_PROJECT
  2
AcDbVbaProject
  3
"acadvba"
 90
        1
280
         0
281
         0
  0
CLASS
  1
WIPEOUT
  2
AcDbWipeout
  3
WipeOut|AutoCAD Express Tool|expresstools@autodesk.com
 90
      127
280
         0
281
         1
  0
CLASS
  1
WIPEOUTVARIABLES
  2
AcDbWipeoutVariables
  3
WipeOut|AutoCAD Express Tool|expresstools@autodesk.com
 90
        0
280
         0
281
         0
  0
CLASS
  1
RTEXT
  2
RText
  3
RText|AutoCAD Express Tool|expresstools@autodesk.com
 90
        0
280
         0
281
         1
  0
CLASS
  1
ARCALIGNEDTEXT
  2
AcDbArcAlignedText
  3
ATEXT|AutoCAD Express Tool|expresstools@autodesk.com
 90
        0
280
         0
281
         1
  0
ENDSEC
  0
SECTION
  2
TABLES
  0
TABLE
  2
VPORT
  5
7
100
AcDbSymbolTable
 70
         1
  0
VPORT
  5
15
100
AcDbSymbolTableRecord
100
AcDbViewportTableRecord
  2
*ACTIVE
 70
         0
 10
0.0
 20
0.0
 11
1.0
 21
1.0
 12
1438.3467071908
 22
87.3351624931
 13
0.0
 23
0.0
 14
1.0
 24
1.0
 15
0.0
 25
0.0
 16
0.0
 26
0.0
 36
1.0
 17
0.0
 27
0.0
 37
0.0
 40
305.5724177107
 41
1.9834619625
 42
50.0
 43
0.0
 44
0.0
 50
0.0
 51
0.0
 71
         0
 72
       100
 73
         1
 74
         1
 75
         0
 76
         0
 77
         0
 78
         0
  0
ENDTAB
  0
TABLE
  2
LTYPE
  5
4
100
AcDbSymbolTable
 70
         6
  0
LTYPE
  5
11
100
AcDbSymbolTableRecord
100
AcDbLinetypeTableRecord
  2
BYBLOCK
 70
        64
  3

 72
        65
 73
         0
 40
0.0
  0
LTYPE
  5
12
100
AcDbSymbolTableRecord
100
AcDbLinetypeTableRecord
  2
BYLAYER
 70
        64
  3

 72
        65
 73
         0
 40
0.0
  0
LTYPE
  5
13
100
AcDbSymbolTableRecord
100
AcDbLinetypeTableRecord
  2
CONTINUOUS
 70
        64
  3
Solid line
 72
        65
 73
         0
 40
0.0
  0
LTYPE
  5
1D
100
AcDbSymbolTableRecord
100
AcDbLinetypeTableRecord
  2
DASHED
 70
        64
  3
_ _ _ _ _ _ _ _ _ _ _ _ _ _ _ _
 72
        65
 73
         2
 40
0.2
 49
0.1
 74
         0
 49
-0.1
 74
         0
  0
LTYPE
  5
1E
100
AcDbSymbolTableRecord
100
AcDbLinetypeTableRecord
  2
CENTER
 70
        64
  3
___ _ ___ _ ___ _ ___ _ ___ _ ___ _ ___ _ ___ _
 72
        65
 73
         4
 40
0.95
 49
0.625
 74
         0
 49
-0.125
 74
         0
 49
0.075
 74
         0
 49
-0.125
 74
         0
  0
LTYPE
  5
1F
100
AcDbSymbolTableRecord
100
AcDbLinetypeTableRecord
  2
PHANTOM
 70
        64
  3
______  __  __  ______  __  __  ______  __  __  
 72
        65
 73
         6
 40
1.025
 49
0.625
 74
         0
 49
-0.125
 74
         0
 49
0.075
 74
         0
 49
-0.125
 74
         0
 49
0.075
 74
         0
 49
-0.125
 74
         0
  0
ENDTAB
  0
TABLE
  2
LAYER
  5
2
100
AcDbSymbolTable
 70
         5
  0
LAYER
  5
14
100
AcDbSymbolTableRecord
100
AcDbLayerTableRecord
  2
0
 70
         0
 62
         7
  6
CONTINUOUS
  0
LAYER
  5
21
100
AcDbSymbolTableRecord
100
AcDbLayerTableRecord
  2
_____U
 70
         1
 62
         7
  6
CONTINUOUS
  0
LAYER
  5
22
100
AcDbSymbolTableRecord
100
AcDbLayerTableRecord
  2
_Y__________
 70
         0
 62
         7
  6
CONTINUOUS
  0
LAYER
  5
23
100
AcDbSymbolTableRecord
100
AcDbLayerTableRecord
  2
L1_95
 70
         0
 62
         7
  6
CONTINUOUS
  0
LAYER
  5
73
100
AcDbSymbolTableRecord
100
AcDbLayerTableRecord
  2
DEFPOINTS
 70
         0
 62
        -7
  6
CONTINUOUS
  0
ENDTAB
  0
TABLE
  2
STYLE
  5
3
100
AcDbSymbolTable
 70
        20
  0
STYLE
  5
17
100
AcDbSymbolTableRecord
100
AcDbTextStyleTableRecord
  2
STANDARD
 70
         0
 40
0.0
 41
1.0
 50
0.0
 71
         0
 42
0.0
  3
txt
  4

  0
STYLE
  5
7C
100
AcDbSymbolTableRecord
100
AcDbTextStyleTableRecord
  2
BOX
 70
         0
 40
1.0
 41
1.0
 50
0.0
 71
         0
 42
0.2
  3
txt.shx
  4

  0
STYLE
  5
8A
100
AcDbSymbolTableRecord
100
AcDbTextStyleTableRecord
  2
BOX
 70
         0
 40
1.0
 41
1.0
 50
0.0
 71
         0
 42
0.2
  3
txt.shx
  4

  0
STYLE
  5
98
100
AcDbSymbolTableRecord
100
AcDbTextStyleTableRecord
  2
BOX
 70
         0
 40
1.0
 41
1.0
 50
0.0
 71
         0
 42
0.2
  3
txt.shx
  4

  0
STYLE
  5
14C
100
AcDbSymbolTableRecord
100
AcDbTextStyleTableRecord
  2
BOX
 70
         0
 40
1.0
 41
1.0
 50
0.0
 71
         0
 42
0.2
  3
txt.shx
  4

  0
STYLE
  5
15C
100
AcDbSymbolTableRecord
100
AcDbTextStyleTableRecord
  2
BOX
 70
         0
 40
1.0
 41
1.0
 50
0.0
 71
         0
 42
0.2
  3
txt.shx
  4

  0
STYLE
  5
16A
100
AcDbSymbolTableRecord
100
AcDbTextStyleTableRecord
  2
BOX
 70
         0
 40
1.0
 41
1.0
 50
0.0
 71
         0
 42
0.2
  3
txt.shx
  4

  0
STYLE
  5
178
100
AcDbSymbolTableRecord
100
AcDbTextStyleTableRecord
  2
BOX
 70
         0
 40
1.0
 41
1.0
 50
0.0
 71
         0
 42
0.2
  3
txt.shx
  4

  0
STYLE
  5
186
100
AcDbSymbolTableRecord
100
AcDbTextStyleTableRecord
  2
BOX
 70
         0
 40
1.0
 41
1.0
 50
0.0
 71
         0
 42
0.2
  3
txt.shx
  4

  0
STYLE
  5
194
100
AcDbSymbolTableRecord
100
AcDbTextStyleTableRecord
  2
BOX
 70
         0
 40
1.0
 41
1.0
 50
0.0
 71
         0
 42
0.2
  3
txt.shx
  4

  0
STYLE
  5
326
100
AcDbSymbolTableRecord
100
AcDbTextStyleTableRecord
  2
BOX
 70
         0
 40
1.0
 41
1.0
 50
0.0
 71
         0
 42
0.2
  3
txt.shx
  4

  0
STYLE
  5
336
100
AcDbSymbolTableRecord
100
AcDbTextStyleTableRecord
  2
BOX
 70
         0
 40
1.0
 41
1.0
 50
0.0
 71
         0
 42
0.2
  3
txt.shx
  4

  0
STYLE
  5
344
100
AcDbSymbolTableRecord
100
AcDbTextStyleTableRecord
  2
BOX
 70
         0
 40
1.0
 41
1.0
 50
0.0
 71
         0
 42
0.2
  3
txt.shx
  4

  0
STYLE
  5
354
100
AcDbSymbolTableRecord
100
AcDbTextStyleTableRecord
  2
BOX
 70
         0
 40
1.0
 41
1.0
 50
0.0
 71
         0
 42
0.2
  3
txt.shx
  4

  0
STYLE
  5
379
100
AcDbSymbolTableRecord
100
AcDbTextStyleTableRecord
  2
BOX
 70
         0
 40
1.0
 41
1.0
 50
0.0
 71
         0
 42
0.2
  3
txt.shx
  4

  0
STYLE
  5
3DA
100
AcDbSymbolTableRecord
100
AcDbTextStyleTableRecord
  2
BOX
 70
         0
 40
1.0
 41
1.0
 50
0.0
 71
         0
 42
0.2
  3
txt.shx
  4

  0
STYLE
  5
3F9
100
AcDbSymbolTableRecord
100
AcDbTextStyleTableRecord
  2
BOX
 70
         0
 40
1.0
 41
1.0
 50
0.0
 71
         0
 42
0.2
  3
txt.shx
  4

  0
STYLE
  5
407
100
AcDbSymbolTableRecord
100
AcDbTextStyleTableRecord
  2
BOX
 70
         0
 40
1.0
 41
1.0
 50
0.0
 71
         0
 42
0.2
  3
txt.shx
  4

  0
STYLE
  5
415
100
AcDbSymbolTableRecord
100
AcDbTextStyleTableRecord
  2
BOX
 70
         0
 40
1.0
 41
1.0
 50
0.0
 71
         0
 42
0.2
  3
txt.shx
  4

  0
STYLE
  5
598
100
AcDbSymbolTableRecord
100
AcDbTextStyleTableRecord
  2
BOX
 70
         0
 40
1.0
 41
1.0
 50
0.0
 71
         0
 42
0.2
  3
txt.shx
  4

  0
ENDTAB
  0
TABLE
  2
VIEW
  5
5
100
AcDbSymbolTable
 70
         0
  0
ENDTAB
  0
TABLE
  2
UCS
  5
6
100
AcDbSymbolTable
 70
         1
  0
UCS
  5
20
100
AcDbSymbolTableRecord
100
AcDbUCSTableRecord
  2
CK_VIEW_1
 70
         0
 10
0.0
 20
0.0
 30
1.0
 11
1.0
 21
0.0
 31
0.0
 12
0.0
 22
1.0
 32
0.0
  0
ENDTAB
  0
TABLE
  2
APPID
  5
8
100
AcDbSymbolTable
 70
         1
  0
APPID
  5
16
100
AcDbSymbolTableRecord
100
AcDbRegAppTableRecord
  2
ACAD
 70
         0
  0
ENDTAB
  0
TABLE
  2
DIMSTYLE
  5
9
100
AcDbSymbolTable
 70
         3
  0
DIMSTYLE
105
18
100
AcDbSymbolTableRecord
100
AcDbDimStyleTableRecord
  2
STANDARD
 70
         0
  3

  4

  5

  6

  7

 40
1.0
 41
0.18
 42
0.0625
 43
0.38
 44
0.18
 45
0.0
 46
0.0
 47
0.0
 48
0.0
 71
         0
 72
         0
 73
         1
 74
         1
 75
         0
 76
         0
 77
         0
 78
         0
140
0.18
141
0.09
142
0.0
143
25.4
144
1.0
145
0.0
146
1.0
147
0.09
170
         0
171
         2
172
         0
173
         0
174
         0
175
         0
176
         0
177
         0
178
         0
270
         2
271
         4
272
         4
273
         2
274
         2
275
         0
280
         0
281
         0
282
         0
283
         1
284
         0
285
         0
286
         0
287
         0
288
         0
340
17
  0
DIMSTYLE
105
6F
100
AcDbSymbolTableRecord
100
AcDbDimStyleTableRecord
  2
DIMSTYLE1
 70
         0
  3

  4

  5

  6

  7

 40
1.0
 41
2.7
 42
0.0625
 43
0.38
 44
2.7
 45
0.0
 46
0.0
 47
0.0
 48
0.0
 71
         0
 72
         0
 73
         1
 74
         1
 75
         0
 76
         0
 77
         0
 78
         0
140
2.7
141
0.09
142
0.0
143
25.4
144
1.0
145
0.0
146
1.0
147
0.09
170
         0
171
         2
172
         0
173
         0
174
         0
175
         0
176
         0
177
         0
178
         0
270
         2
271
         4
272
         4
273
         2
274
         2
275
         0
280
         0
281
         0
282
         0
283
         1
284
         0
285
         0
286
         0
287
         0
288
         0
340
17
  0
DIMSTYLE
105
3EE
100
AcDbSymbolTableRecord
100
AcDbDimStyleTableRecord
  2
DIMSTYLE2
 70
         0
  3

  4

  5

  6

  7

 40
1.0
 41
2.6666666664
 42
0.0625
 43
0.38
 44
2.6666666664
 45
0.0
 46
0.0
 47
0.0
 48
0.0
 71
         0
 72
         0
 73
         1
 74
         1
 75
         0
 76
         0
 77
         0
 78
         0
140
2.6666666664
141
0.09
142
0.0
143
25.4
144
1.0
145
0.0
146
1.0
147
0.09
170
         0
171
         2
172
         0
173
         0
174
         0
175
         0
176
         0
177
         0
178
         0
270
         2
271
         4
272
         4
273
         2
274
         2
275
         0
280
         0
281
         0
282
         0
283
         1
284
         0
285
         0
286
         0
287
         0
288
         0
340
17
  0
ENDTAB
  0
TABLE
  2
BLOCK_RECORD
  5
1
100
AcDbSymbolTable
 70
        19
  0
BLOCK_RECORD
  5
A
100
AcDbSymbolTableRecord
100
AcDbBlockTableRecord
  2
*MODEL_SPACE
  0
BLOCK_RECORD
  5
B
100
AcDbSymbolTableRecord
100
AcDbBlockTableRecord
  2
*PAPER_SPACE
  0
BLOCK_RECORD
  5
26
100
AcDbSymbolTableRecord
100
AcDbBlockTableRecord
  2
*X0
  0
BLOCK_RECORD
  5
70
100
AcDbSymbolTableRecord
100
AcDbBlockTableRecord
  2
*D1
  0
BLOCK_RECORD
  5
7F
100
AcDbSymbolTableRecord
100
AcDbBlockTableRecord
  2
*D2
  0
BLOCK_RECORD
  5
8D
100
AcDbSymbolTableRecord
100
AcDbBlockTableRecord
  2
*D3
  0
BLOCK_RECORD
  5
141
100
AcDbSymbolTableRecord
100
AcDbBlockTableRecord
  2
*D4
  0
BLOCK_RECORD
  5
14F
100
AcDbSymbolTableRecord
100
AcDbBlockTableRecord
  2
*D5
  0
BLOCK_RECORD
  5
15F
100
AcDbSymbolTableRecord
100
AcDbBlockTableRecord
  2
*D6
  0
BLOCK_RECORD
  5
16D
100
AcDbSymbolTableRecord
100
AcDbBlockTableRecord
  2
*D7
  0
BLOCK_RECORD
  5
17B
100
AcDbSymbolTableRecord
100
AcDbBlockTableRecord
  2
*D8
  0
BLOCK_RECORD
  5
189
100
AcDbSymbolTableRecord
100
AcDbBlockTableRecord
  2
*D9
  0
BLOCK_RECORD
  5
31A
100
AcDbSymbolTableRecord
100
AcDbBlockTableRecord
  2
*D10
  0
BLOCK_RECORD
  5
329
100
AcDbSymbolTableRecord
100
AcDbBlockTableRecord
  2
*D11
  0
BLOCK_RECORD
  5
339
100
AcDbSymbolTableRecord
100
AcDbBlockTableRecord
  2
*D12
  0
BLOCK_RECORD
  5
349
100
AcDbSymbolTableRecord
100
AcDbBlockTableRecord
  2
*D13
  0
BLOCK_RECORD
  5
36E
100
AcDbSymbolTableRecord
100
AcDbBlockTableRecord
  2
*D14
  0
BLOCK_RECORD
  5
3D1
100
AcDbSymbolTableRecord
100
AcDbBlockTableRecord
  2
*D15
  0
BLOCK_RECORD
  5
3EF
100
AcDbSymbolTableRecord
100
AcDbBlockTableRecord
  2
*D16
  0
BLOCK_RECORD
  5
3FC
100
AcDbSymbolTableRecord
100
AcDbBlockTableRecord
  2
*D17
  0
BLOCK_RECORD
  5
40A
100
AcDbSymbolTableRecord
100
AcDbBlockTableRecord
  2
*D18
  0
ENDTAB
  0
ENDSEC
  0
SECTION
  2
BLOCKS
  0
BLOCK
  5
D
100
AcDbEntity
  8
0
100
AcDbBlockBegin
  2
*MODEL_SPACE
 70
         0
 10
0.0
 20
0.0
 30
0.0
  3
*MODEL_SPACE
  1

  0
ENDBLK
  5
E
100
AcDbEntity
  8
0
100
AcDbBlockEnd
  0
BLOCK
  5
F
100
AcDbEntity
 67
         1
  8
0
100
AcDbBlockBegin
  2
*PAPER_SPACE
 70
         0
 10
0.0
 20
0.0
 30
0.0
  3
*PAPER_SPACE
  1

  0
ENDBLK
  5
10
100
AcDbEntity
 67
         1
  8
0
100
AcDbBlockEnd
  0
BLOCK
  5
27
100
AcDbEntity
  8
0
100
AcDbBlockBegin
  2
*X0
 70
        65
 10
0.0
 20
0.0
 30
0.0
  3
*X0
  1

  0
LINE
  5
28
100
AcDbEntity
  8
L1_95
  6
CONTINUOUS
 62
         4
100
AcDbLine
 10
1484.2988317456
 20
-32.9433347407
 30
0.0
 11
1487.0830433278
 21
-30.1591231585
 31
0.0
  0
LINE
  5
29
100
AcDbEntity
  8
L1_95
  6
CONTINUOUS
 62
         4
100
AcDbLine
 10
1480.6033403763
 20
-32.3961854229
 30
0.0
 11
1484.5561910585
 21
-28.4433347407
 31
0.0
  0
LINE
  5
2A
100
AcDbEntity
  8
L1_95
  6
CONTINUOUS
 62
         4
100
AcDbLine
 10
1475.8135503714
 20
-32.9433347407
 30
0.0
 11
1480.3135503714
 21
-28.4433347407
 31
0.0
  0
LINE
  5
2B
100
AcDbEntity
  8
L1_95
  6
CONTINUOUS
 62
         4
100
AcDbLine
 10
1471.5709096843
 20
-32.9433347407
 30
0.0
 11
1476.0709096843
 21
-28.4433347407
 31
0.0
  0
LINE
  5
2C
100
AcDbEntity
  8
L1_95
  6
CONTINUOUS
 62
         4
100
AcDbLine
 10
1467.3282689972
 20
-32.9433347407
 30
0.0
 11
1471.8282689972
 21
-28.4433347407
 31
0.0
  0
LINE
  5
2D
100
AcDbEntity
  8
L1_95
  6
CONTINUOUS
 62
         4
100
AcDbLine
 10
1463.0856283101
 20
-32.9433347407
 30
0.0
 11
1467.5856283101
 21
-28.4433347407
 31
0.0
  0
LINE
  5
2E
100
AcDbEntity
  8
L1_95
  6
CONTINUOUS
 62
         4
100
AcDbLine
 10
1461.1533403759
 20
-30.6329819877
 30
0.0
 11
1463.3429876229
 21
-28.4433347407
 31
0.0
  0
LINE
  5
2F
100
AcDbEntity
  8
L1_95
  6
CONTINUOUS
 62
         4
100
AcDbLine
 10
1450.3577062487
 20
-32.9433347407
 30
0.0
 11
1454.8283403766
 21
-28.4727006128
 31
0.0
  0
LINE
  5
30
100
AcDbEntity
  8
L1_95
  6
CONTINUOUS
 62
         4
100
AcDbLine
 10
1486.1590156762
 20
2.8579746868
 30
0.0
 11
1486.8020309487
 21
3.5009899594
 31
0.0
  0
LINE
  5
31
100
AcDbEntity
  8
L1_95
  6
CONTINUOUS
 62
         4
100
AcDbLine
 10
1445.6150655616
 20
-33.4433347407
 30
0.0
 11
1450.1150655616
 21
-28.9433347407
 31
0.0
  0
LINE
  5
32
100
AcDbEntity
  8
L1_95
  6
CONTINUOUS
 62
         4
100
AcDbLine
 10
1481.6150655616
 20
2.5566652593
 30
0.0
 11
1486.1150655616
 21
7.0566652593
 31
0.0
  0
LINE
  5
33
100
AcDbEntity
  8
L1_95
  6
CONTINUOUS
 62
         4
100
AcDbLine
 10
1438.8724248745
 20
-35.9433347407
 30
0.0
 11
1440.1033403763
 21
-34.7124192389
 31
0.0
  0
LINE
  5
34
100
AcDbEntity
  8
L1_95
  6
CONTINUOUS
 62
         4
100
AcDbLine
 10
1441.3724248745
 20
-33.4433347407
 30
0.0
 11
1446.1033403763
 21
-28.7124192389
 31
0.0
  0
LINE
  5
35
100
AcDbEntity
  8
L1_95
  6
CONTINUOUS
 62
         4
100
AcDbLine
 10
1477.3724248745
 20
2.5566652593
 30
0.0
 11
1481.8724248745
 21
7.0566652593
 31
0.0
  0
LINE
  5
36
100
AcDbEntity
  8
L1_95
  6
CONTINUOUS
 62
         4
100
AcDbLine
 10
1434.6297841873
 20
-35.9433347407
 30
0.0
 11
1444.6489178677
 21
-25.9242010603
 31
0.0
  0
LINE
  5
37
100
AcDbEntity
  8
L1_95
  6
CONTINUOUS
 62
         4
100
AcDbLine
 10
1473.1297841873
 20
2.5566652593
 30
0.0
 11
1477.6297841873
 21
7.0566652593
 31
0.0
  0
LINE
  5
38
100
AcDbEntity
  8
L1_95
  6
CONTINUOUS
 62
         4
100
AcDbLine
 10
1430.3871435002
 20
-35.9433347407
 30
0.0
 11
1443.0960035971
 21
-23.2344746438
 31
0.0
  0
LINE
  5
39
100
AcDbEntity
  8
L1_95
  6
CONTINUOUS
 62
         4
100
AcDbLine
 10
1468.8871435002
 20
2.5566652593
 30
0.0
 11
1473.3871435002
 21
7.0566652593
 31
0.0
  0
LINE
  5
3A
100
AcDbEntity
  8
L1_95
  6
CONTINUOUS
 62
         4
100
AcDbLine
 10
1417.6445028131
 20
-44.4433347407
 30
0.0
 11
1419.1033403763
 21
-42.9844971775
 31
0.0
  0
LINE
  5
3B
100
AcDbEntity
  8
L1_95
  6
CONTINUOUS
 62
         4
100
AcDbLine
 10
1426.1445028131
 20
-35.9433347407
 30
0.0
 11
1441.5430893265
 21
-20.5447482273
 31
0.0
  0
LINE
  5
3C
100
AcDbEntity
  8
L1_95
  6
CONTINUOUS
 62
         4
100
AcDbLine
 10
1464.6445028131
 20
2.5566652593
 30
0.0
 11
1469.1445028131
 21
7.0566652593
 31
0.0
  0
LINE
  5
3D
100
AcDbEntity
  8
L1_95
  6
CONTINUOUS
 62
         4
100
AcDbLine
 10
1413.5930817064
 20
-44.2521151603
 30
0.0
 11
1419.1106119361
 21
-38.7345849306
 31
0.0
  0
LINE
  5
3E
100
AcDbEntity
  8
L1_95
  6
CONTINUOUS
 62
         4
100
AcDbLine
 10
1421.8945905662
 20
-35.9506063005
 30
0.0
 11
1439.9901750559
 21
-17.8550218108
 31
0.0
  0
LINE
  5
3F
100
AcDbEntity
  8
L1_95
  6
CONTINUOUS
 62
         4
100
AcDbLine
 10
1461.1533403759
 20
3.3081435093
 30
0.0
 11
1464.901862126
 21
7.0566652593
 31
0.0
  0
LINE
  5
40
100
AcDbEntity
  8
L1_95
  6
CONTINUOUS
 62
         4
100
AcDbLine
 10
1412.0401674357
 20
-41.5623887438
 30
0.0
 11
1438.4372607853
 21
-15.1652953942
 31
0.0
  0
LINE
  5
41
100
AcDbEntity
  8
L1_95
  6
CONTINUOUS
 62
         4
100
AcDbLine
 10
1409.9165807517
 20
-39.4433347407
 30
0.0
 11
1438.162306345
 21
-11.1976091474
 31
0.0
  0
LINE
  5
42
100
AcDbEntity
  8
L1_95
  6
CONTINUOUS
 62
         4
100
AcDbLine
 10
1451.9165807517
 20
2.5566652593
 30
0.0
 11
1454.6533403766
 21
5.2934248842
 31
0.0
  0
LINE
  5
43
100
AcDbEntity
  8
L1_95
  6
CONTINUOUS
 62
         4
100
AcDbLine
 10
1400.6739400646
 20
-44.4433347407
 30
0.0
 11
1443.9578613028
 21
-1.1594135025
 31
0.0
  0
LINE
  5
44
100
AcDbEntity
  8
L1_95
  6
CONTINUOUS
 62
         4
100
AcDbLine
 10
1448.1739400646
 20
3.0566652593
 30
0.0
 11
1452.1739400646
 21
7.0566652593
 31
0.0
  0
LINE
  5
45
100
AcDbEntity
  8
L1_95
  6
CONTINUOUS
 62
         4
100
AcDbLine
 10
1396.4312993775
 20
-44.4433347407
 30
0.0
 11
1448.328263242
 21
7.4536291239
 31
0.0
  0
LINE
  5
46
100
AcDbEntity
  8
L1_95
  6
CONTINUOUS
 62
         4
100
AcDbLine
 10
1394.1033403763
 20
-42.5286530548
 30
0.0
 11
1444.1886586904
 21
7.5566652593
 31
0.0
  0
LINE
  5
47
100
AcDbEntity
  8
L1_95
  6
CONTINUOUS
 62
         4
100
AcDbLine
 10
1394.1033403763
 20
-38.2860123677
 30
0.0
 11
1440.1799874177
 21
7.7906346737
 31
0.0
  0
LINE
  5
48
100
AcDbEntity
  8
L1_95
  6
CONTINUOUS
 62
         4
100
AcDbLine
 10
1393.0160448919
 20
-35.1306671649
 30
0.0
 11
1438.2033773161
 21
10.0566652593
 31
0.0
  0
LINE
  5
49
100
AcDbEntity
  8
L1_95
  6
CONTINUOUS
 62
         4
100
AcDbLine
 10
1389.1643386863
 20
-34.7397326834
 30
0.0
 11
1433.960736629
 21
10.0566652593
 31
0.0
  0
LINE
  5
4A
100
AcDbEntity
  8
L1_95
  6
CONTINUOUS
 62
         4
100
AcDbLine
 10
1385.4616678601
 20
-34.1997628225
 30
0.0
 11
1429.7180959419
 21
10.0566652593
 31
0.0
  0
LINE
  5
4B
100
AcDbEntity
  8
L1_95
  6
CONTINUOUS
 62
         4
100
AcDbLine
 10
1381.7589970339
 20
-33.6597929616
 30
0.0
 11
1425.4754552548
 21
10.0566652593
 31
0.0
  0
LINE
  5
4C
100
AcDbEntity
  8
L1_95
  6
CONTINUOUS
 62
         4
100
AcDbLine
 10
1378.0563262077
 20
-33.1198231007
 30
0.0
 11
1421.3333200174
 21
10.1571707091
 31
0.0
  0
LINE
  5
4D
100
AcDbEntity
  8
L1_95
  6
CONTINUOUS
 62
         4
100
AcDbLine
 10
1374.3536553814
 20
-32.5798532398
 30
0.0
 11
1419.2072920321
 21
12.2737834109
 31
0.0
  0
LINE
  5
4E
100
AcDbEntity
  8
L1_95
  6
CONTINUOUS
 62
         4
100
AcDbLine
 10
1370.6509845552
 20
-32.0398833789
 30
0.0
 11
1419.1033403763
 21
16.4124724422
 31
0.0
  0
LINE
  5
4F
100
AcDbEntity
  8
L1_95
  6
CONTINUOUS
 62
         4
100
AcDbLine
 10
1366.948313729
 20
-31.499913518
 30
0.0
 11
1417.0048925063
 21
18.5566652593
 31
0.0
  0
LINE
  5
50
100
AcDbEntity
  8
L1_95
  6
CONTINUOUS
 62
         4
100
AcDbLine
 10
1363.2456429028
 20
-30.9599436571
 30
0.0
 11
1407.7622518192
 21
13.5566652593
 31
0.0
  0
LINE
  5
51
100
AcDbEntity
  8
L1_95
  6
CONTINUOUS
 62
         4
100
AcDbLine
 10
1359.5429720766
 20
-30.4199737962
 30
0.0
 11
1405.466127796
 21
15.5031819232
 31
0.0
  0
LINE
  5
52
100
AcDbEntity
  8
L1_95
  6
CONTINUOUS
 62
         4
100
AcDbLine
 10
1355.8403012503
 20
-29.8800039353
 30
0.0
 11
1365.7269704449
 21
-19.9933347407
 31
0.0
  0
LINE
  5
53
100
AcDbEntity
  8
L1_95
  6
CONTINUOUS
 62
         4
100
AcDbLine
 10
1370.4031119097
 20
-15.3171932759
 30
0.0
 11
1403.9132135254
 21
18.1929083397
 31
0.0
  0
LINE
  5
54
100
AcDbEntity
  8
L1_95
  6
CONTINUOUS
 62
         4
100
AcDbLine
 10
1352.1376304241
 20
-29.3400340744
 30
0.0
 11
1361.4843297578
 21
-19.9933347407
 31
0.0
  0
LINE
  5
55
100
AcDbEntity
  8
L1_95
  6
CONTINUOUS
 62
         4
100
AcDbLine
 10
1370.5879826969
 20
-10.8896818016
 30
0.0
 11
1390.5298660069
 21
9.0522015084
 31
0.0
  0
LINE
  5
56
100
AcDbEntity
  8
L1_95
  6
CONTINUOUS
 62
         4
100
AcDbLine
 10
1394.1033403763
 20
12.6256758777
 30
0.0
 11
1400.0343297578
 21
18.5566652593
 31
0.0
  0
LINE
  5
57
100
AcDbEntity
  8
L1_95
  6
CONTINUOUS
 62
         4
100
AcDbLine
 10
1348.4349595979
 20
-28.8000642135
 30
0.0
 11
1357.2416890707
 21
-19.9933347407
 31
0.0
  0
LINE
  5
58
100
AcDbEntity
  8
L1_95
  6
CONTINUOUS
 62
         4
100
AcDbLine
 10
1369.0350684262
 20
-8.1999553851
 30
0.0
 11
1385.5628766928
 21
8.3278528814
 31
0.0
  0
LINE
  5
59
100
AcDbEntity
  8
L1_95
  6
CONTINUOUS
 62
         4
100
AcDbLine
 10
1394.1033403763
 20
16.8683165649
 30
0.0
 11
1395.7916890707
 21
18.5566652593
 31
0.0
  0
LINE
  5
5A
100
AcDbEntity
  8
L1_95
  6
CONTINUOUS
 62
         4
100
AcDbLine
 10
1344.7322887717
 20
-28.2600943526
 30
0.0
 11
1352.9990483836
 21
-19.9933347407
 31
0.0
  0
LINE
  5
5B
100
AcDbEntity
  8
L1_95
  6
CONTINUOUS
 62
         4
100
AcDbLine
 10
1367.0990483836
 20
-5.8933347407
 30
0.0
 11
1380.5958873787
 21
7.6035042545
 31
0.0
  0
LINE
  5
5C
100
AcDbEntity
  8
L1_95
  6
CONTINUOUS
 62
         4
100
AcDbLine
 10
1341.0296179454
 20
-27.7201244917
 30
0.0
 11
1348.7564076965
 21
-19.9933347407
 31
0.0
  0
LINE
  5
5D
100
AcDbEntity
  8
L1_95
  6
CONTINUOUS
 62
         4
100
AcDbLine
 10
1362.8564076965
 20
-5.8933347407
 30
0.0
 11
1375.6288980647
 21
6.8791556275
 31
0.0
  0
LINE
  5
5E
100
AcDbEntity
  8
L1_95
  6
CONTINUOUS
 62
         4
100
AcDbLine
 10
1337.3269471192
 20
-27.1801546308
 30
0.0
 11
1344.5137670094
 21
-19.9933347407
 31
0.0
  0
LINE
  5
5F
100
AcDbEntity
  8
L1_95
  6
CONTINUOUS
 62
         4
100
AcDbLine
 10
1358.6137670094
 20
-5.8933347407
 30
0.0
 11
1370.6619087506
 21
6.1548070006
 31
0.0
  0
LINE
  5
60
100
AcDbEntity
  8
L1_95
  6
CONTINUOUS
 62
         4
100
AcDbLine
 10
1333.624276293
 20
-26.6401847699
 30
0.0
 11
1340.2711263222
 21
-19.9933347407
 31
0.0
  0
LINE
  5
61
100
AcDbEntity
  8
L1_95
  6
CONTINUOUS
 62
         4
100
AcDbLine
 10
1354.3711263222
 20
-5.8933347407
 30
0.0
 11
1365.6949194366
 21
5.4304583737
 31
0.0
  0
LINE
  5
62
100
AcDbEntity
  8
L1_95
  6
CONTINUOUS
 62
         4
100
AcDbLine
 10
1329.9216054668
 20
-26.100214909
 30
0.0
 11
1334.3938463082
 21
-21.6279740676
 31
0.0
  0
LINE
  5
63
100
AcDbEntity
  8
L1_95
  6
CONTINUOUS
 62
         4
100
AcDbLine
 10
1335.7033403763
 20
-20.3184799995
 30
0.0
 11
1336.0284856351
 21
-19.9933347407
 31
0.0
  0
LINE
  5
64
100
AcDbEntity
  8
L1_95
  6
CONTINUOUS
 62
         4
100
AcDbLine
 10
1350.1284856351
 20
-5.8933347407
 30
0.0
 11
1360.7279301225
 21
4.7061097467
 31
0.0
  0
LINE
  5
65
100
AcDbEntity
  8
L1_95
  6
CONTINUOUS
 62
         4
100
AcDbLine
 10
1326.7410419106
 20
-25.0381377781
 30
0.0
 11
1330.335844948
 21
-21.4433347407
 31
0.0
  0
LINE
  5
66
100
AcDbEntity
  8
L1_95
  6
CONTINUOUS
 62
         4
100
AcDbLine
 10
1345.885844948
 20
-5.8933347407
 30
0.0
 11
1355.7609408084
 21
3.9817611198
 31
0.0
  0
LINE
  5
67
100
AcDbEntity
  8
L1_95
  6
CONTINUOUS
 62
         4
100
AcDbLine
 10
1341.6432042609
 20
-5.8933347407
 30
0.0
 11
1350.7939514944
 21
3.2574124928
 31
0.0
  0
LINE
  5
68
100
AcDbEntity
  8
L1_95
  6
CONTINUOUS
 62
         4
100
AcDbLine
 10
1337.4005635738
 20
-5.8933347407
 30
0.0
 11
1345.8269621803
 21
2.5330638659
 31
0.0
  0
LINE
  5
69
100
AcDbEntity
  8
L1_95
  6
CONTINUOUS
 62
         4
100
AcDbLine
 10
1334.8079228866
 20
-4.2433347407
 30
0.0
 11
1340.8599728663
 21
1.8087152389
 31
0.0
  0
LINE
  5
6A
100
AcDbEntity
  8
L1_95
  6
CONTINUOUS
 62
         4
100
AcDbLine
 10
1330.3652821995
 20
-4.4433347407
 30
0.0
 11
1335.8929835522
 21
1.084366612
 31
0.0
  0
LINE
  5
6B
100
AcDbEntity
  8
L1_95
  6
CONTINUOUS
 62
         4
100
AcDbLine
 10
1326.8928452648
 20
-3.6731309882
 30
0.0
 11
1330.9259942381
 21
0.3600179851
 31
0.0
  0
ENDBLK
  5
6C
100
AcDbEntity
  8
0
  6
CONTINUOUS
100
AcDbBlockEnd
  0
BLOCK
  5
71
100
AcDbEntity
  8
0
100
AcDbBlockBegin
  2
*D1
 70
        65
 10
0.0
 20
0.0
 30
0.0
  3
*D1
  1

  0
POINT
  5
74
100
AcDbEntity
  8
DEFPOINTS
  6
CONTINUOUS
 62
         0
100
AcDbPoint
 10
1457.9033403763
 20
20.0900645333
 30
0.0
  0
POINT
  5
75
100
AcDbEntity
  8
DEFPOINTS
  6
CONTINUOUS
 62
         0
100
AcDbPoint
 10
1457.9033403763
 20
10.5522646056
 30
0.0
  0
POINT
  5
76
100
AcDbEntity
  8
DEFPOINTS
  6
CONTINUOUS
 62
         0
100
AcDbPoint
 10
1487.1033403763
 20
6.5566652593
 30
0.0
  0
LINE
  5
77
100
AcDbEntity
  8
L1_95
  6
CONTINUOUS
 62
         4
100
AcDbLine
 10
1457.9033403763
 20
11.9022646056
 30
0.0
 11
1457.9033403763
 21
20.7650645333
 31
0.0
  0
LINE
  5
78
100
AcDbEntity
  8
L1_95
  6
CONTINUOUS
 62
         4
100
AcDbLine
 10
1487.1033403763
 20
7.9066652593
 30
0.0
 11
1487.1033403763
 21
20.7650645333
 31
0.0
  0
LINE
  5
79
100
AcDbEntity
  8
L1_95
  6
CONTINUOUS
 62
         4
100
AcDbLine
 10
1457.9033403763
 20
20.0900645333
 30
0.0
 11
1487.1033403763
 21
20.0900645333
 31
0.0
  0
SOLID
  5
7A
100
AcDbEntity
  8
L1_95
  6
CONTINUOUS
 62
         4
100
AcDbTrace
 10
1457.9033403763
 20
20.0900645333
 30
0.0
 11
1460.6033403763
 21
20.4950645333
 31
0.0
 12
1460.6033403763
 22
19.6850645333
 32
0.0
 13
1457.9033403763
 23
20.0900645333
 33
0.0
  0
SOLID
  5
7B
100
AcDbEntity
  8
L1_95
  6
CONTINUOUS
 62
         4
100
AcDbTrace
 10
1487.1033403763
 20
20.0900645333
 30
0.0
 11
1484.4033403763
 21
19.6850645333
 31
0.0
 12
1484.4033403763
 22
20.4950645333
 32
0.0
 13
1487.1033403763
 23
20.0900645333
 33
0.0
  0
TEXT
  5
7D
100
AcDbEntity
  8
L1_95
  6
CONTINUOUS
 62
         4
100
AcDbText
 10
1460.0155397452
 20
22.1150645333
 30
0.0
 40
2.7
  1
29.2
  7
BOX
100
AcDbText
  0
ENDBLK
  5
7E
100
AcDbEntity
  8
0
  6
CONTINUOUS
100
AcDbBlockEnd
  0
BLOCK
  5
80
100
AcDbEntity
  8
0
100
AcDbBlockBegin
  2
*D2
 70
        65
 10
0.0
 20
0.0
 30
0.0
  3
*D2
  1

  0
POINT
  5
82
100
AcDbEntity
  8
DEFPOINTS
  6
CONTINUOUS
 62
         0
100
AcDbPoint
 10
1326.7033403763
 20
221.506715998
 30
0.0
  0
POINT
  5
83
100
AcDbEntity
  8
DEFPOINTS
  6
CONTINUOUS
 62
         0
100
AcDbPoint
 10
1326.7033403763
 20
162.0074490628
 30
0.0
  0
POINT
  5
84
100
AcDbEntity
  8
DEFPOINTS
  6
CONTINUOUS
 62
         0
100
AcDbPoint
 10
1487.1033403763
 20
169.6846417294
 30
0.0
  0
LINE
  5
85
100
AcDbEntity
  8
L1_95
  6
CONTINUOUS
 62
         4
100
AcDbLine
 10
1326.7033403763
 20
163.3574490628
 30
0.0
 11
1326.7033403763
 21
222.181715998
 31
0.0
  0
LINE
  5
86
100
AcDbEntity
  8
L1_95
  6
CONTINUOUS
 62
         4
100
AcDbLine
 10
1487.1033403763
 20
171.0346417294
 30
0.0
 11
1487.1033403763
 21
222.181715998
 31
0.0
  0
LINE
  5
87
100
AcDbEntity
  8
L1_95
  6
CONTINUOUS
 62
         4
100
AcDbLine
 10
1326.7033403763
 20
221.506715998
 30
0.0
 11
1487.1033403763
 21
221.506715998
 31
0.0
  0
SOLID
  5
88
100
AcDbEntity
  8
L1_95
  6
CONTINUOUS
 62
         4
100
AcDbTrace
 10
1326.7033403763
 20
221.506715998
 30
0.0
 11
1329.4033403763
 21
221.911715998
 31
0.0
 12
1329.4033403763
 22
221.101715998
 32
0.0
 13
1326.7033403763
 23
221.506715998
 33
0.0
  0
SOLID
  5
89
100
AcDbEntity
  8
L1_95
  6
CONTINUOUS
 62
         4
100
AcDbTrace
 10
1487.1033403763
 20
221.506715998
 30
0.0
 11
1484.4033403763
 21
221.101715998
 31
0.0
 12
1484.4033403763
 22
221.911715998
 32
0.0
 13
1487.1033403763
 23
221.506715998
 33
0.0
  0
TEXT
  5
8B
100
AcDbEntity
  8
L1_95
  6
CONTINUOUS
 62
         4
100
AcDbText
 10
1400.2400327939
 20
223.531715998
 30
0.0
 40
2.7
  1
160.4
  7
BOX
100
AcDbText
  0
ENDBLK
  5
8C
100
AcDbEntity
  8
0
  6
CONTINUOUS
100
AcDbBlockEnd
  0
BLOCK
  5
8E
100
AcDbEntity
  8
0
100
AcDbBlockBegin
  2
*D3
 70
        65
 10
0.0
 20
0.0
 30
0.0
  3
*D3
  1

  0
POINT
  5
90
100
AcDbEntity
  8
DEFPOINTS
  6
CONTINUOUS
 62
         0
100
AcDbPoint
 10
1392.1033403763
 20
214.2496490984
 30
0.0
  0
POINT
  5
91
100
AcDbEntity
  8
DEFPOINTS
  6
CONTINUOUS
 62
         0
100
AcDbPoint
 10
1392.1033403763
 20
172.4096417294
 30
0.0
  0
POINT
  5
92
100
AcDbEntity
  8
DEFPOINTS
  6
CONTINUOUS
 62
         0
100
AcDbPoint
 10
1487.1033403763
 20
169.6846417294
 30
0.0
  0
LINE
  5
93
100
AcDbEntity
  8
L1_95
  6
CONTINUOUS
 62
         4
100
AcDbLine
 10
1392.1033403763
 20
173.7596417294
 30
0.0
 11
1392.1033403763
 21
214.9246490984
 31
0.0
  0
LINE
  5
94
100
AcDbEntity
  8
L1_95
  6
CONTINUOUS
 62
         4
100
AcDbLine
 10
1487.1033403763
 20
171.0346417294
 30
0.0
 11
1487.1033403763
 21
214.9246490984
 31
0.0
  0
LINE
  5
95
100
AcDbEntity
  8
L1_95
  6
CONTINUOUS
 62
         4
100
AcDbLine
 10
1392.1033403763
 20
214.2496490984
 30
0.0
 11
1487.1033403763
 21
214.2496490984
 31
0.0
  0
SOLID
  5
96
100
AcDbEntity
  8
L1_95
  6
CONTINUOUS
 62
         4
100
AcDbTrace
 10
1392.1033403763
 20
214.2496490984
 30
0.0
 11
1394.8033403763
 21
214.6546490984
 31
0.0
 12
1394.8033403763
 22
213.8446490984
 32
0.0
 13
1392.1033403763
 23
214.2496490984
 33
0.0
  0
SOLID
  5
97
100
AcDbEntity
  8
L1_95
  6
CONTINUOUS
 62
         4
100
AcDbTrace
 10
1487.1033403763
 20
214.2496490984
 30
0.0
 11
1484.4033403763
 21
213.8446490984
 31
0.0
 12
1484.4033403763
 22
214.6546490984
 32
0.0
 13
1487.1033403763
 23
214.2496490984
 33
0.0
  0
TEXT
  5
99
100
AcDbEntity
  8
L1_95
  6
CONTINUOUS
 62
         4
100
AcDbText
 10
1436.704931612
 20
216.2746490984
 30
0.0
 40
2.7
  1
95
  7
BOX
100
AcDbText
  0
ENDBLK
  5
9A
100
AcDbEntity
  8
0
  6
CONTINUOUS
100
AcDbBlockEnd
  0
BLOCK
  5
142
100
AcDbEntity
  8
0
100
AcDbBlockBegin
  2
*D4
 70
        65
 10
0.0
 20
0.0
 30
0.0
  3
*D4
  1

  0
POINT
  5
144
100
AcDbEntity
  8
DEFPOINTS
  6
CONTINUOUS
 62
         0
100
AcDbPoint
 10
1522.2664748422
 20
2.5566652593
 30
0.0
  0
POINT
  5
145
100
AcDbEntity
  8
DEFPOINTS
  6
CONTINUOUS
 62
         0
100
AcDbPoint
 10
1485.1033403763
 20
2.5566652593
 30
0.0
  0
POINT
  5
146
100
AcDbEntity
  8
DEFPOINTS
  6
CONTINUOUS
 62
         0
100
AcDbPoint
 10
1485.1033403763
 20
-28.4433347407
 30
0.0
  0
LINE
  5
147
100
AcDbEntity
  8
L1_95
  6
CONTINUOUS
 62
         4
100
AcDbLine
 10
1486.4533403763
 20
2.5566652593
 30
0.0
 11
1522.9414748422
 21
2.5566652593
 31
0.0
  0
LINE
  5
148
100
AcDbEntity
  8
L1_95
  6
CONTINUOUS
 62
         4
100
AcDbLine
 10
1486.4533403763
 20
-28.4433347407
 30
0.0
 11
1522.9414748422
 21
-28.4433347407
 31
0.0
  0
LINE
  5
149
100
AcDbEntity
  8
L1_95
  6
CONTINUOUS
 62
         4
100
AcDbLine
 10
1522.2664748422
 20
2.5566652593
 30
0.0
 11
1522.2664748422
 21
-28.4433347407
 31
0.0
  0
SOLID
  5
14A
100
AcDbEntity
  8
L1_95
  6
CONTINUOUS
 62
         4
100
AcDbTrace
 10
1522.2664748422
 20
2.5566652593
 30
0.0
 11
1522.6714748422
 21
-0.1433347407
 31
0.0
 12
1521.8614748422
 22
-0.1433347407
 32
0.0
 13
1522.2664748422
 23
2.5566652593
 33
0.0
  0
SOLID
  5
14B
100
AcDbEntity
  8
L1_95
  6
CONTINUOUS
 62
         4
100
AcDbTrace
 10
1522.2664748422
 20
-28.4433347407
 30
0.0
 11
1521.8614748422
 21
-25.7433347407
 31
0.0
 12
1522.6714748422
 22
-25.7433347407
 32
0.0
 13
1522.2664748422
 23
-28.4433347407
 33
0.0
  0
TEXT
  5
14D
100
AcDbEntity
  8
L1_95
  6
CONTINUOUS
 62
         4
100
AcDbText
 10
1519.1344748422
 20
-21.8912821954
 30
0.0
 40
2.7
  1
崷31
 50
90.0
  7
BOX
100
AcDbText
  0
ENDBLK
  5
14E
100
AcDbEntity
  8
0
  6
CONTINUOUS
100
AcDbBlockEnd
  0
BLOCK
  5
150
100
AcDbEntity
  8
0
100
AcDbBlockBegin
  2
*D5
 70
        65
 10
0.0
 20
0.0
 30
0.0
  3
*D5
  1

  0
POINT
  5
152
100
AcDbEntity
  8
DEFPOINTS
  6
CONTINUOUS
 62
         0
100
AcDbPoint
 10
1487.1033403763
 20
-7.3994715241
 30
0.0
  0
POINT
  5
153
100
AcDbEntity
  8
DEFPOINTS
  6
CONTINUOUS
 62
         0
100
AcDbPoint
 10
1487.1033403763
 20
-4.1933347407
 30
0.0
  0
POINT
  5
154
100
AcDbEntity
  8
DEFPOINTS
  6
CONTINUOUS
 62
         0
100
AcDbPoint
 10
1480.3033403763
 20
-5.1933347407
 30
0.0
  0
LINE
  5
155
100
AcDbEntity
  8
L1_95
  6
CONTINUOUS
 62
         4
100
AcDbLine
 10
1487.1033403763
 20
-2.8433347407
 30
0.0
 11
1487.1033403763
 21
-6.7244715241
 31
0.0
  0
LINE
  5
156
100
AcDbEntity
  8
L1_95
  6
CONTINUOUS
 62
         4
100
AcDbLine
 10
1480.3033403763
 20
-3.8433347407
 30
0.0
 11
1480.3033403763
 21
-6.7244715241
 31
0.0
  0
LINE
  5
157
100
AcDbEntity
  8
L1_95
  6
CONTINUOUS
 62
         4
100
AcDbLine
 10
1487.1033403763
 20
-7.3994715241
 30
0.0
 11
1506.3859261987
 21
-7.3994715241
 31
0.0
  0
SOLID
  5
158
100
AcDbEntity
  8
L1_95
  6
CONTINUOUS
 62
         4
100
AcDbTrace
 10
1487.1033403763
 20
-7.3994715241
 30
0.0
 11
1489.8033403763
 21
-6.9944715241
 31
0.0
 12
1489.8033403763
 22
-7.8044715241
 32
0.0
 13
1487.1033403763
 23
-7.3994715241
 33
0.0
  0
LINE
  5
159
100
AcDbEntity
  8
L1_95
  6
CONTINUOUS
 62
         4
100
AcDbLine
 10
1480.3033403763
 20
-7.3994715241
 30
0.0
 11
1474.9033403763
 21
-7.3994715241
 31
0.0
  0
SOLID
  5
15A
100
AcDbEntity
  8
L1_95
  6
CONTINUOUS
 62
         4
100
AcDbTrace
 10
1480.3033403763
 20
-7.3994715241
 30
0.0
 11
1477.6033403763
 21
-7.8044715241
 31
0.0
 12
1477.6033403763
 22
-6.9944715241
 32
0.0
 13
1480.3033403763
 23
-7.3994715241
 33
0.0
  0
LINE
  5
15B
100
AcDbEntity
  8
L1_95
  6
CONTINUOUS
 62
         4
100
AcDbLine
 10
1487.1033403763
 20
-7.3994715241
 30
0.0
 11
1480.3033403763
 21
-7.3994715241
 31
0.0
  0
TEXT
  5
15D
100
AcDbEntity
  8
L1_95
  6
CONTINUOUS
 62
         4
100
AcDbText
 10
1496.0359261987
 20
-4.2674715241
 30
0.0
 40
2.7
  1
6.8
  7
BOX
100
AcDbText
  0
ENDBLK
  5
15E
100
AcDbEntity
  8
0
  6
CONTINUOUS
100
AcDbBlockEnd
  0
BLOCK
  5
160
100
AcDbEntity
  8
0
100
AcDbBlockBegin
  2
*D6
 70
        65
 10
0.0
 20
0.0
 30
0.0
  3
*D6
  1

  0
POINT
  5
162
100
AcDbEntity
  8
DEFPOINTS
  6
CONTINUOUS
 62
         0
100
AcDbPoint
 10
1538.9993729239
 20
173.1846417294
 30
0.0
  0
POINT
  5
163
100
AcDbEntity
  8
DEFPOINTS
  6
CONTINUOUS
 62
         0
100
AcDbPoint
 10
1439.6033403763
 20
173.1846417294
 30
0.0
  0
POINT
  5
164
100
AcDbEntity
  8
DEFPOINTS
  6
CONTINUOUS
 62
         0
100
AcDbPoint
 10
1439.6033403763
 20
127.1846417294
 30
0.0
  0
LINE
  5
165
100
AcDbEntity
  8
L1_95
  6
CONTINUOUS
 62
         4
100
AcDbLine
 10
1440.9533403763
 20
173.1846417294
 30
0.0
 11
1539.6743729239
 21
173.1846417294
 31
0.0
  0
LINE
  5
166
100
AcDbEntity
  8
L1_95
  6
CONTINUOUS
 62
         4
100
AcDbLine
 10
1440.9533403763
 20
127.1846417294
 30
0.0
 11
1539.6743729239
 21
127.1846417294
 31
0.0
  0
LINE
  5
167
100
AcDbEntity
  8
L1_95
  6
CONTINUOUS
 62
         4
100
AcDbLine
 10
1538.9993729239
 20
173.1846417294
 30
0.0
 11
1538.9993729239
 21
127.1846417294
 31
0.0
  0
SOLID
  5
168
100
AcDbEntity
  8
L1_95
  6
CONTINUOUS
 62
         4
100
AcDbTrace
 10
1538.9993729239
 20
173.1846417294
 30
0.0
 11
1539.4043729239
 21
170.4846417294
 31
0.0
 12
1538.5943729239
 22
170.4846417294
 32
0.0
 13
1538.9993729239
 23
173.1846417294
 33
0.0
  0
SOLID
  5
169
100
AcDbEntity
  8
L1_95
  6
CONTINUOUS
 62
         4
100
AcDbTrace
 10
1538.9993729239
 20
127.1846417294
 30
0.0
 11
1538.5943729239
 21
129.8846417294
 31
0.0
 12
1539.4043729239
 22
129.8846417294
 32
0.0
 13
1538.9993729239
 23
127.1846417294
 33
0.0
  0
TEXT
  5
16B
100
AcDbEntity
  8
L1_95
  6
CONTINUOUS
 62
         4
100
AcDbText
 10
1535.8673729239
 20
139.8692487338
 30
0.0
 40
2.7
  1
崷46
 50
90.0
  7
BOX
100
AcDbText
  0
ENDBLK
  5
16C
100
AcDbEntity
  8
0
  6
CONTINUOUS
100
AcDbBlockEnd
  0
BLOCK
  5
16E
100
AcDbEntity
  8
0
100
AcDbBlockBegin
  2
*D7
 70
        65
 10
0.0
 20
0.0
 30
0.0
  3
*D7
  1

  0
POINT
  5
170
100
AcDbEntity
  8
DEFPOINTS
  6
CONTINUOUS
 62
         0
100
AcDbPoint
 10
1529.12672698
 20
170.6846417294
 30
0.0
  0
POINT
  5
171
100
AcDbEntity
  8
DEFPOINTS
  6
CONTINUOUS
 62
         0
100
AcDbPoint
 10
1447.8533403763
 20
170.6846417294
 30
0.0
  0
POINT
  5
172
100
AcDbEntity
  8
DEFPOINTS
  6
CONTINUOUS
 62
         0
100
AcDbPoint
 10
1447.8533403763
 20
129.6846417294
 30
0.0
  0
LINE
  5
173
100
AcDbEntity
  8
L1_95
  6
CONTINUOUS
 62
         4
100
AcDbLine
 10
1449.2033403763
 20
170.6846417294
 30
0.0
 11
1529.80172698
 21
170.6846417294
 31
0.0
  0
LINE
  5
174
100
AcDbEntity
  8
L1_95
  6
CONTINUOUS
 62
         4
100
AcDbLine
 10
1449.2033403763
 20
129.6846417294
 30
0.0
 11
1529.80172698
 21
129.6846417294
 31
0.0
  0
LINE
  5
175
100
AcDbEntity
  8
L1_95
  6
CONTINUOUS
 62
         4
100
AcDbLine
 10
1529.12672698
 20
170.6846417294
 30
0.0
 11
1529.12672698
 21
129.6846417294
 31
0.0
  0
SOLID
  5
176
100
AcDbEntity
  8
L1_95
  6
CONTINUOUS
 62
         4
100
AcDbTrace
 10
1529.12672698
 20
170.6846417294
 30
0.0
 11
1529.53172698
 21
167.9846417294
 31
0.0
 12
1528.72172698
 22
167.9846417294
 32
0.0
 13
1529.12672698
 23
170.6846417294
 33
0.0
  0
SOLID
  5
177
100
AcDbEntity
  8
L1_95
  6
CONTINUOUS
 62
         4
100
AcDbTrace
 10
1529.12672698
 20
129.6846417294
 30
0.0
 11
1528.72172698
 21
132.3846417294
 31
0.0
 12
1529.53172698
 22
132.3846417294
 32
0.0
 13
1529.12672698
 23
129.6846417294
 33
0.0
  0
TEXT
  5
179
100
AcDbEntity
  8
L1_95
  6
CONTINUOUS
 62
         4
100
AcDbText
 10
1525.99472698
 20
140.6096971796
 30
0.0
 40
2.7
  1
崷41
 50
90.0
  7
BOX
100
AcDbText
  0
ENDBLK
  5
17A
100
AcDbEntity
  8
0
  6
CONTINUOUS
100
AcDbBlockEnd
  0
BLOCK
  5
17C
100
AcDbEntity
  8
0
100
AcDbBlockBegin
  2
*D8
 70
        65
 10
0.0
 20
0.0
 30
0.0
  3
*D8
  1

  0
POINT
  5
17E
100
AcDbEntity
  8
DEFPOINTS
  6
CONTINUOUS
 62
         0
100
AcDbPoint
 10
1519.4515339551
 20
170.1846417294
 30
0.0
  0
POINT
  5
17F
100
AcDbEntity
  8
DEFPOINTS
  6
CONTINUOUS
 62
         0
100
AcDbPoint
 10
1486.6033403763
 20
170.1846417294
 30
0.0
  0
POINT
  5
180
100
AcDbEntity
  8
DEFPOINTS
  6
CONTINUOUS
 62
         0
100
AcDbPoint
 10
1486.6033403763
 20
130.1846417294
 30
0.0
  0
LINE
  5
181
100
AcDbEntity
  8
L1_95
  6
CONTINUOUS
 62
         4
100
AcDbLine
 10
1487.9533403763
 20
170.1846417294
 30
0.0
 11
1520.1265339551
 21
170.1846417294
 31
0.0
  0
LINE
  5
182
100
AcDbEntity
  8
L1_95
  6
CONTINUOUS
 62
         4
100
AcDbLine
 10
1487.9533403763
 20
130.1846417294
 30
0.0
 11
1520.1265339551
 21
130.1846417294
 31
0.0
  0
LINE
  5
183
100
AcDbEntity
  8
L1_95
  6
CONTINUOUS
 62
         4
100
AcDbLine
 10
1519.4515339551
 20
170.1846417294
 30
0.0
 11
1519.4515339551
 21
130.1846417294
 31
0.0
  0
SOLID
  5
184
100
AcDbEntity
  8
L1_95
  6
CONTINUOUS
 62
         4
100
AcDbTrace
 10
1519.4515339551
 20
170.1846417294
 30
0.0
 11
1519.8565339551
 21
167.4846417294
 31
0.0
 12
1519.0465339551
 22
167.4846417294
 32
0.0
 13
1519.4515339551
 23
170.1846417294
 33
0.0
  0
SOLID
  5
185
100
AcDbEntity
  8
L1_95
  6
CONTINUOUS
 62
         4
100
AcDbTrace
 10
1519.4515339551
 20
130.1846417294
 30
0.0
 11
1519.0465339551
 21
132.8846417294
 31
0.0
 12
1519.8565339551
 22
132.8846417294
 32
0.0
 13
1519.4515339551
 23
130.1846417294
 33
0.0
  0
TEXT
  5
187
100
AcDbEntity
  8
L1_95
  6
CONTINUOUS
 62
         4
100
AcDbText
 10
1516.3195339551
 20
140.5790245109
 30
0.0
 40
2.7
  1
崷40
 50
90.0
  7
BOX
100
AcDbText
  0
ENDBLK
  5
188
100
AcDbEntity
  8
0
  6
CONTINUOUS
100
AcDbBlockEnd
  0
BLOCK
  5
18A
100
AcDbEntity
  8
0
100
AcDbBlockBegin
  2
*D9
 70
        65
 10
0.0
 20
0.0
 30
0.0
  3
*D9
  1

  0
POINT
  5
18C
100
AcDbEntity
  8
DEFPOINTS
  6
CONTINUOUS
 62
         0
100
AcDbPoint
 10
1510.1712467678
 20
169.1846417294
 30
0.0
  0
POINT
  5
18D
100
AcDbEntity
  8
DEFPOINTS
  6
CONTINUOUS
 62
         0
100
AcDbPoint
 10
1480.6033403763
 20
169.1846417294
 30
0.0
  0
POINT
  5
18E
100
AcDbEntity
  8
DEFPOINTS
  6
CONTINUOUS
 62
         0
100
AcDbPoint
 10
1480.6033403763
 20
131.1846417294
 30
0.0
  0
LINE
  5
18F
100
AcDbEntity
  8
L1_95
  6
CONTINUOUS
 62
         4
100
AcDbLine
 10
1481.9533403763
 20
169.1846417294
 30
0.0
 11
1510.8462467678
 21
169.1846417294
 31
0.0
  0
LINE
  5
190
100
AcDbEntity
  8
L1_95
  6
CONTINUOUS
 62
         4
100
AcDbLine
 10
1481.9533403763
 20
131.1846417294
 30
0.0
 11
1510.8462467678
 21
131.1846417294
 31
0.0
  0
LINE
  5
191
100
AcDbEntity
  8
L1_95
  6
CONTINUOUS
 62
         4
100
AcDbLine
 10
1510.1712467678
 20
169.1846417294
 30
0.0
 11
1510.1712467678
 21
131.1846417294
 31
0.0
  0
SOLID
  5
192
100
AcDbEntity
  8
L1_95
  6
CONTINUOUS
 62
         4
100
AcDbTrace
 10
1510.1712467678
 20
169.1846417294
 30
0.0
 11
1510.5762467678
 21
166.4846417294
 31
0.0
 12
1509.7662467678
 22
166.4846417294
 32
0.0
 13
1510.1712467678
 23
169.1846417294
 33
0.0
  0
SOLID
  5
193
100
AcDbEntity
  8
L1_95
  6
CONTINUOUS
 62
         4
100
AcDbTrace
 10
1510.1712467678
 20
131.1846417294
 30
0.0
 11
1509.7662467678
 21
133.8846417294
 31
0.0
 12
1510.5762467678
 22
133.8846417294
 32
0.0
 13
1510.1712467678
 23
131.1846417294
 33
0.0
  0
TEXT
  5
195
100
AcDbEntity
  8
L1_95
  6
CONTINUOUS
 62
         4
100
AcDbText
 10
1507.0392467678
 20
140.0349214025
 30
0.0
 40
2.7
  1
崷38
 50
90.0
  7
BOX
100
AcDbText
  0
ENDBLK
  5
196
100
AcDbEntity
  8
0
  6
CONTINUOUS
100
AcDbBlockEnd
  0
BLOCK
  5
31B
100
AcDbEntity
  8
0
100
AcDbBlockBegin
  2
*D10
 70
        65
 10
0.0
 20
0.0
 30
0.0
  3
*D10
  1

  0
POINT
  5
31D
100
AcDbEntity
  8
DEFPOINTS
  6
CONTINUOUS
 62
         0
100
AcDbPoint
 10
1487.1033403763
 20
188.5843287438
 30
0.0
  0
POINT
  5
31E
100
AcDbEntity
  8
DEFPOINTS
  6
CONTINUOUS
 62
         0
100
AcDbPoint
 10
1487.1033403763
 20
169.6846417294
 30
0.0
  0
POINT
  5
31F
100
AcDbEntity
  8
DEFPOINTS
  6
CONTINUOUS
 62
         0
100
AcDbPoint
 10
1478.6533403763
 20
169.1846417294
 30
0.0
  0
LINE
  5
320
100
AcDbEntity
  8
L1_95
  6
CONTINUOUS
 62
         4
100
AcDbLine
 10
1487.1033403763
 20
171.0346417294
 30
0.0
 11
1487.1033403763
 21
189.2593287438
 31
0.0
  0
LINE
  5
321
100
AcDbEntity
  8
L1_95
  6
CONTINUOUS
 62
         4
100
AcDbLine
 10
1478.6533403763
 20
170.5346417294
 30
0.0
 11
1478.6533403763
 21
189.2593287438
 31
0.0
  0
LINE
  5
322
100
AcDbEntity
  8
L1_95
  6
CONTINUOUS
 62
         4
100
AcDbLine
 10
1487.1033403763
 20
188.5843287438
 30
0.0
 11
1478.6533403763
 21
188.5843287438
 31
0.0
  0
SOLID
  5
323
100
AcDbEntity
  8
L1_95
  6
CONTINUOUS
 62
         4
100
AcDbTrace
 10
1487.1033403763
 20
188.5843287438
 30
0.0
 11
1484.4033403763
 21
188.1793287438
 31
0.0
 12
1484.4033403763
 22
188.9893287438
 32
0.0
 13
1487.1033403763
 23
188.5843287438
 33
0.0
  0
LINE
  5
324
100
AcDbEntity
  8
L1_95
  6
CONTINUOUS
 62
         4
100
AcDbLine
 10
1487.1033403763
 20
188.5843287438
 30
0.0
 11
1502.7873874486
 21
188.5843287438
 31
0.0
  0
SOLID
  5
325
100
AcDbEntity
  8
L1_95
  6
CONTINUOUS
 62
         4
100
AcDbTrace
 10
1478.6533403763
 20
188.5843287438
 30
0.0
 11
1481.3533403763
 21
188.9893287438
 31
0.0
 12
1481.3533403763
 22
188.1793287438
 32
0.0
 13
1478.6533403763
 23
188.5843287438
 33
0.0
  0
TEXT
  5
327
100
AcDbEntity
  8
L1_95
  6
CONTINUOUS
 62
         4
100
AcDbText
 10
1489.7373874486
 20
191.7163287438
 30
0.0
 40
2.7
  1
8.45
  7
BOX
100
AcDbText
  0
ENDBLK
  5
328
100
AcDbEntity
  8
0
  6
CONTINUOUS
100
AcDbBlockEnd
  0
BLOCK
  5
32A
100
AcDbEntity
  8
0
100
AcDbBlockBegin
  2
*D11
 70
        65
 10
0.0
 20
0.0
 30
0.0
  3
*D11
  1

  0
POINT
  5
32C
100
AcDbEntity
  8
DEFPOINTS
  6
CONTINUOUS
 62
         0
100
AcDbPoint
 10
1478.6533403763
 20
178.4560774431
 30
0.0
  0
POINT
  5
32D
100
AcDbEntity
  8
DEFPOINTS
  6
CONTINUOUS
 62
         0
100
AcDbPoint
 10
1478.6533403763
 20
169.1846417294
 30
0.0
  0
POINT
  5
32E
100
AcDbEntity
  8
DEFPOINTS
  6
CONTINUOUS
 62
         0
100
AcDbPoint
 10
1480.6033403763
 20
169.1846417294
 30
0.0
  0
LINE
  5
32F
100
AcDbEntity
  8
L1_95
  6
CONTINUOUS
 62
         4
100
AcDbLine
 10
1478.6533403763
 20
170.5346417294
 30
0.0
 11
1478.6533403763
 21
179.1310774431
 31
0.0
  0
LINE
  5
330
100
AcDbEntity
  8
L1_95
  6
CONTINUOUS
 62
         4
100
AcDbLine
 10
1480.6033403763
 20
170.5346417294
 30
0.0
 11
1480.6033403763
 21
179.1310774431
 31
0.0
  0
LINE
  5
331
100
AcDbEntity
  8
L1_95
  6
CONTINUOUS
 62
         4
100
AcDbLine
 10
1478.6533403763
 20
178.4560774431
 30
0.0
 11
1473.2533403763
 21
178.4560774431
 31
0.0
  0
SOLID
  5
332
100
AcDbEntity
  8
L1_95
  6
CONTINUOUS
 62
         4
100
AcDbTrace
 10
1478.6533403763
 20
178.4560774431
 30
0.0
 11
1475.9533403763
 21
178.0510774431
 31
0.0
 12
1475.9533403763
 22
178.8610774431
 32
0.0
 13
1478.6533403763
 23
178.4560774431
 33
0.0
  0
LINE
  5
333
100
AcDbEntity
  8
L1_95
  6
CONTINUOUS
 62
         4
100
AcDbLine
 10
1480.6033403763
 20
178.4560774431
 30
0.0
 11
1501.2233762299
 21
178.4560774431
 31
0.0
  0
SOLID
  5
334
100
AcDbEntity
  8
L1_95
  6
CONTINUOUS
 62
         4
100
AcDbTrace
 10
1480.6033403763
 20
178.4560774431
 30
0.0
 11
1483.3033403763
 21
178.8610774431
 31
0.0
 12
1483.3033403763
 22
178.0510774431
 32
0.0
 13
1480.6033403763
 23
178.4560774431
 33
0.0
  0
LINE
  5
335
100
AcDbEntity
  8
L1_95
  6
CONTINUOUS
 62
         4
100
AcDbLine
 10
1478.6533403763
 20
178.4560774431
 30
0.0
 11
1480.6033403763
 21
178.4560774431
 31
0.0
  0
TEXT
  5
337
100
AcDbEntity
  8
L1_95
  6
CONTINUOUS
 62
         4
100
AcDbText
 10
1488.1733762299
 20
182.6410774431
 30
0.0
 40
2.7
  1
1.95
  7
BOX
100
AcDbText
  0
ENDBLK
  5
338
100
AcDbEntity
  8
0
  6
CONTINUOUS
100
AcDbBlockEnd
  0
BLOCK
  5
33A
100
AcDbEntity
  8
0
100
AcDbBlockBegin
  2
*D12
 70
        65
 10
0.0
 20
0.0
 30
0.0
  3
*D12
  1

  0
POINT
  5
33C
100
AcDbEntity
  8
DEFPOINTS
  6
CONTINUOUS
 62
         0
100
AcDbPoint
 10
1487.1033403763
 20
204.1922665889
 30
0.0
  0
POINT
  5
33D
100
AcDbEntity
  8
DEFPOINTS
  6
CONTINUOUS
 62
         0
100
AcDbPoint
 10
1487.1033403763
 20
169.6846417294
 30
0.0
  0
POINT
  5
33E
100
AcDbEntity
  8
DEFPOINTS
  6
CONTINUOUS
 62
         0
100
AcDbPoint
 10
1440.1033403763
 20
172.6846417294
 30
0.0
  0
LINE
  5
33F
100
AcDbEntity
  8
L1_95
  6
CONTINUOUS
 62
         4
100
AcDbLine
 10
1487.1033403763
 20
171.0346417294
 30
0.0
 11
1487.1033403763
 21
204.8672665889
 31
0.0
  0
LINE
  5
340
100
AcDbEntity
  8
L1_95
  6
CONTINUOUS
 62
         4
100
AcDbLine
 10
1440.1033403763
 20
174.0346417294
 30
0.0
 11
1440.1033403763
 21
204.8672665889
 31
0.0
  0
LINE
  5
341
100
AcDbEntity
  8
L1_95
  6
CONTINUOUS
 62
         4
100
AcDbLine
 10
1487.1033403763
 20
204.1922665889
 30
0.0
 11
1440.1033403763
 21
204.1922665889
 31
0.0
  0
SOLID
  5
342
100
AcDbEntity
  8
L1_95
  6
CONTINUOUS
 62
         4
100
AcDbTrace
 10
1487.1033403763
 20
204.1922665889
 30
0.0
 11
1484.4033403763
 21
203.7872665889
 31
0.0
 12
1484.4033403763
 22
204.5972665889
 32
0.0
 13
1487.1033403763
 23
204.1922665889
 33
0.0
  0
SOLID
  5
343
100
AcDbEntity
  8
L1_95
  6
CONTINUOUS
 62
         4
100
AcDbTrace
 10
1440.1033403763
 20
204.1922665889
 30
0.0
 11
1442.8033403763
 21
204.5972665889
 31
0.0
 12
1442.8033403763
 22
203.7872665889
 32
0.0
 13
1440.1033403763
 23
204.1922665889
 33
0.0
  0
TEXT
  5
345
100
AcDbEntity
  8
L1_95
  6
CONTINUOUS
 62
         4
100
AcDbText
 10
1458.3584702205
 20
207.3242665889
 30
0.0
 40
2.7
  1
47
  7
BOX
100
AcDbText
  0
ENDBLK
  5
346
100
AcDbEntity
  8
0
  6
CONTINUOUS
100
AcDbBlockEnd
  0
BLOCK
  5
34A
100
AcDbEntity
  8
0
100
AcDbBlockBegin
  2
*D13
 70
        65
 10
0.0
 20
0.0
 30
0.0
  3
*D13
  1

  0
POINT
  5
34C
100
AcDbEntity
  8
DEFPOINTS
  6
CONTINUOUS
 62
         0
100
AcDbPoint
 10
1487.1033403763
 20
196.2094929993
 30
0.0
  0
POINT
  5
34D
100
AcDbEntity
  8
DEFPOINTS
  6
CONTINUOUS
 62
         0
100
AcDbPoint
 10
1487.1033403763
 20
169.6846417294
 30
0.0
  0
POINT
  5
34E
100
AcDbEntity
  8
DEFPOINTS
  6
CONTINUOUS
 62
         0
100
AcDbPoint
 10
1448.3533403763
 20
170.4846417294
 30
0.0
  0
LINE
  5
34F
100
AcDbEntity
  8
L1_95
  6
CONTINUOUS
 62
         4
100
AcDbLine
 10
1487.1033403763
 20
171.0346417294
 30
0.0
 11
1487.1033403763
 21
196.8844929993
 31
0.0
  0
LINE
  5
350
100
AcDbEntity
  8
L1_95
  6
CONTINUOUS
 62
         4
100
AcDbLine
 10
1448.3533403763
 20
171.8346417294
 30
0.0
 11
1448.3533403763
 21
196.8844929993
 31
0.0
  0
LINE
  5
351
100
AcDbEntity
  8
L1_95
  6
CONTINUOUS
 62
         4
100
AcDbLine
 10
1487.1033403763
 20
196.2094929993
 30
0.0
 11
1448.3533403763
 21
196.2094929993
 31
0.0
  0
SOLID
  5
352
100
AcDbEntity
  8
L1_95
  6
CONTINUOUS
 62
         4
100
AcDbTrace
 10
1487.1033403763
 20
196.2094929993
 30
0.0
 11
1484.4033403763
 21
195.8044929993
 31
0.0
 12
1484.4033403763
 22
196.6144929993
 32
0.0
 13
1487.1033403763
 23
196.2094929993
 33
0.0
  0
SOLID
  5
353
100
AcDbEntity
  8
L1_95
  6
CONTINUOUS
 62
         4
100
AcDbTrace
 10
1448.3533403763
 20
196.2094929993
 30
0.0
 11
1451.0533403763
 21
196.6144929993
 31
0.0
 12
1451.0533403763
 22
195.8044929993
 32
0.0
 13
1448.3533403763
 23
196.2094929993
 33
0.0
  0
TEXT
  5
355
100
AcDbEntity
  8
L1_95
  6
CONTINUOUS
 62
         4
100
AcDbText
 10
1456.7274925204
 20
199.3414929993
 30
0.0
 40
2.7
  1
38.75
  7
BOX
100
AcDbText
  0
ENDBLK
  5
356
100
AcDbEntity
  8
0
  6
CONTINUOUS
100
AcDbBlockEnd
  0
BLOCK
  5
36F
100
AcDbEntity
  8
0
100
AcDbBlockBegin
  2
*D14
 70
        65
 10
0.0
 20
0.0
 30
0.0
  3
*D14
  1

  0
POINT
  5
371
100
AcDbEntity
  8
DEFPOINTS
  6
CONTINUOUS
 62
         0
100
AcDbPoint
 10
1487.1033403763
 20
-50.8863910118
 30
0.0
  0
POINT
  5
372
100
AcDbEntity
  8
DEFPOINTS
  6
CONTINUOUS
 62
         0
100
AcDbPoint
 10
1487.1033403763
 20
-21.6933347407
 30
0.0
  0
POINT
  5
373
100
AcDbEntity
  8
DEFPOINTS
  6
CONTINUOUS
 62
         0
100
AcDbPoint
 10
1446.1033403763
 20
-28.9433347407
 30
0.0
  0
LINE
  5
374
100
AcDbEntity
  8
L1_95
  6
CONTINUOUS
 62
         4
100
AcDbLine
 10
1487.1033403763
 20
-23.0433347407
 30
0.0
 11
1487.1033403763
 21
-51.5613910118
 31
0.0
  0
LINE
  5
375
100
AcDbEntity
  8
L1_95
  6
CONTINUOUS
 62
         4
100
AcDbLine
 10
1446.1033403763
 20
-30.2933347407
 30
0.0
 11
1446.1033403763
 21
-51.5613910118
 31
0.0
  0
LINE
  5
376
100
AcDbEntity
  8
L1_95
  6
CONTINUOUS
 62
         4
100
AcDbLine
 10
1487.1033403763
 20
-50.8863910118
 30
0.0
 11
1446.1033403763
 21
-50.8863910118
 31
0.0
  0
SOLID
  5
377
100
AcDbEntity
  8
L1_95
  6
CONTINUOUS
 62
         4
100
AcDbTrace
 10
1487.1033403763
 20
-50.8863910118
 30
0.0
 11
1484.4033403763
 21
-51.2913910118
 31
0.0
 12
1484.4033403763
 22
-50.4813910118
 32
0.0
 13
1487.1033403763
 23
-50.8863910118
 33
0.0
  0
SOLID
  5
378
100
AcDbEntity
  8
L1_95
  6
CONTINUOUS
 62
         4
100
AcDbTrace
 10
1446.1033403763
 20
-50.8863910118
 30
0.0
 11
1448.8033403763
 21
-50.4813910118
 31
0.0
 12
1448.8033403763
 22
-51.2913910118
 32
0.0
 13
1446.1033403763
 23
-50.8863910118
 33
0.0
  0
TEXT
  5
37A
100
AcDbEntity
  8
L1_95
  6
CONTINUOUS
 62
         4
100
AcDbText
 10
1463.6783403763
 20
-47.7543910118
 30
0.0
 40
2.7
  1
41
  7
BOX
100
AcDbText
  0
ENDBLK
  5
37B
100
AcDbEntity
  8
0
  6
CONTINUOUS
100
AcDbBlockEnd
  0
BLOCK
  5
3D2
100
AcDbEntity
  8
0
100
AcDbBlockBegin
  2
*D15
 70
        65
 10
0.0
 20
0.0
 30
0.0
  3
*D15
  1

  0
POINT
  5
3D4
100
AcDbEntity
  8
DEFPOINTS
  6
CONTINUOUS
 62
         0
100
AcDbPoint
 10
1687.5554533999
 20
12.3535969983
 30
0.0
  0
POINT
  5
3D5
100
AcDbEntity
  8
DEFPOINTS
  6
CONTINUOUS
 62
         0
100
AcDbPoint
 10
1657.1893719352
 20
-8.4335002869
 30
0.0
  0
LINE
  5
3D6
100
AcDbEntity
  8
L1_95
  6
CONTINUOUS
 62
         4
100
AcDbLine
 10
1657.1893719352
 20
-8.4335002869
 30
0.0
 11
1672.3724126675
 21
1.9600483557
 31
0.0
  0
SOLID
  5
3D7
100
AcDbEntity
  8
L1_95
  6
CONTINUOUS
 62
         4
100
AcDbTrace
 10
1657.1893719352
 20
-8.4335002869
 30
0.0
 11
1659.1885749011
 21
-6.5741421984
 31
0.0
 12
1659.646123354
 22
-7.2425353561
 32
0.0
 13
1657.1893719352
 23
-8.4335002869
 33
0.0
  0
LINE
  5
3D8
100
AcDbEntity
  8
L1_95
  6
CONTINUOUS
 62
         4
100
AcDbLine
 10
1687.5554533999
 20
12.3535969983
 30
0.0
 11
1672.3724126675
 21
1.9600483557
 31
0.0
  0
SOLID
  5
3D9
100
AcDbEntity
  8
L1_95
  6
CONTINUOUS
 62
         4
100
AcDbTrace
 10
1687.5554533999
 20
12.3535969983
 30
0.0
 11
1685.5562504339
 21
10.4942389099
 31
0.0
 12
1685.0987019811
 22
11.1626320676
 32
0.0
 13
1687.5554533999
 23
12.3535969983
 33
0.0
  0
TEXT
  5
3DB
100
AcDbEntity
  8
L1_95
  6
CONTINUOUS
 62
         4
100
AcDbText
 10
1675.2260640842
 20
5.4377516372
 30
0.0
 40
2.7
  1
崷37
 50
34.3935860674
  7
BOX
100
AcDbText
  0
ENDBLK
  5
3DC
100
AcDbEntity
  8
0
  6
CONTINUOUS
100
AcDbBlockEnd
  0
BLOCK
  5
3F0
100
AcDbEntity
  8
0
100
AcDbBlockBegin
  2
*D16
 70
        65
 10
0.0
 20
0.0
 30
0.0
  3
*D16
  1

  0
POINT
  5
3F2
100
AcDbEntity
  8
DEFPOINTS
  6
CONTINUOUS
 62
         0
100
AcDbPoint
 10
1647.4618500017
 20
68.3692383918
 30
0.0
  0
POINT
  5
3F3
100
AcDbEntity
  8
DEFPOINTS
  6
CONTINUOUS
 62
         0
100
AcDbPoint
 10
1653.2857435967
 20
70.9000017917
 30
0.0
  0
LINE
  5
3F4
100
AcDbEntity
  8
L1_95
  6
CONTINUOUS
 62
         4
100
AcDbLine
 10
1653.2857435967
 20
70.9000017917
 30
0.0
 11
1674.2542157422
 21
80.0118169358
 31
0.0
  0
SOLID
  5
3F5
100
AcDbEntity
  8
L1_95
  6
CONTINUOUS
 62
         4
100
AcDbTrace
 10
1653.2857435967
 20
70.9000017917
 30
0.0
 11
1655.5720550235
 21
72.3296490102
 31
0.0
 12
1655.8908913573
 22
71.5959301321
 32
0.0
 13
1653.2857435967
 23
70.9000017917
 33
0.0
  0
LINE
  5
3F6
100
AcDbEntity
  8
L1_95
  6
CONTINUOUS
 62
         4
100
AcDbLine
 10
1647.4618500017
 20
68.3692383918
 30
0.0
 11
1642.5703908143
 21
66.2436628329
 31
0.0
  0
SOLID
  5
3F7
100
AcDbEntity
  8
L1_95
  6
CONTINUOUS
 62
         4
100
AcDbTrace
 10
1647.4618500017
 20
68.3692383918
 30
0.0
 11
1645.1755385749
 21
66.9395911733
 31
0.0
 12
1644.8567022411
 22
67.6733100514
 32
0.0
 13
1647.4618500017
 23
68.3692383918
 33
0.0
  0
LINE
  5
3F8
100
AcDbEntity
  8
L1_95
  6
CONTINUOUS
 62
         4
100
AcDbLine
 10
1647.4618500017
 20
68.3692383918
 30
0.0
 11
1653.2857435967
 21
70.9000017917
 31
0.0
  0
TEXT
  5
3FA
100
AcDbEntity
  8
L1_95
  6
CONTINUOUS
 62
         4
100
AcDbText
 10
1658.0754372034
 20
74.4182453128
 30
0.0
 40
2.6666666664
  1
崷6.35
 50
23.487276937
  7
BOX
100
AcDbText
  0
ENDBLK
  5
3FB
100
AcDbEntity
  8
0
  6
CONTINUOUS
100
AcDbBlockEnd
  0
BLOCK
  5
3FD
100
AcDbEntity
  8
0
100
AcDbBlockBegin
  2
*D17
 70
        65
 10
0.0
 20
0.0
 30
0.0
  3
*D17
  1

  0
POINT
  5
3FF
100
AcDbEntity
  8
DEFPOINTS
  6
CONTINUOUS
 62
         0
100
AcDbPoint
 10
1512.1992337219
 20
93.8727564958
 30
0.0
  0
POINT
  5
400
100
AcDbEntity
  8
DEFPOINTS
  6
CONTINUOUS
 62
         0
100
AcDbPoint
 10
1536.5310510641
 20
93.8727564958
 30
0.0
  0
POINT
  5
401
100
AcDbEntity
  8
DEFPOINTS
  6
CONTINUOUS
 62
         0
100
AcDbPoint
 10
1536.5310510641
 20
34.8727564958
 30
0.0
  0
LINE
  5
402
100
AcDbEntity
  8
L1_95
  6
CONTINUOUS
 62
         4
100
AcDbLine
 10
1535.1810510641
 20
93.8727564958
 30
0.0
 11
1511.5242337219
 21
93.8727564958
 31
0.0
  0
LINE
  5
403
100
AcDbEntity
  8
L1_95
  6
CONTINUOUS
 62
         4
100
AcDbLine
 10
1535.1810510641
 20
34.8727564958
 30
0.0
 11
1511.5242337219
 21
34.8727564958
 31
0.0
  0
LINE
  5
404
100
AcDbEntity
  8
L1_95
  6
CONTINUOUS
 62
         4
100
AcDbLine
 10
1512.1992337219
 20
93.8727564958
 30
0.0
 11
1512.1992337219
 21
34.8727564958
 31
0.0
  0
SOLID
  5
405
100
AcDbEntity
  8
L1_95
  6
CONTINUOUS
 62
         4
100
AcDbTrace
 10
1512.1992337219
 20
93.8727564958
 30
0.0
 11
1512.6042337219
 21
91.1727564958
 31
0.0
 12
1511.7942337219
 22
91.1727564958
 32
0.0
 13
1512.1992337219
 23
93.8727564958
 33
0.0
  0
SOLID
  5
406
100
AcDbEntity
  8
L1_95
  6
CONTINUOUS
 62
         4
100
AcDbTrace
 10
1512.1992337219
 20
34.8727564958
 30
0.0
 11
1511.7942337219
 21
37.5727564958
 31
0.0
 12
1512.6042337219
 22
37.5727564958
 32
0.0
 13
1512.1992337219
 23
34.8727564958
 33
0.0
  0
TEXT
  5
408
100
AcDbEntity
  8
L1_95
  6
CONTINUOUS
 62
         4
100
AcDbText
 10
1510.1742337219
 20
55.7239648913
 30
0.0
 40
2.7
  1
崷59
 50
90.0
  7
BOX
100
AcDbText
  0
ENDBLK
  5
409
100
AcDbEntity
  8
0
  6
CONTINUOUS
100
AcDbBlockEnd
  0
BLOCK
  5
40B
100
AcDbEntity
  8
0
100
AcDbBlockBegin
  2
*D18
 70
        65
 10
0.0
 20
0.0
 30
0.0
  3
*D18
  1

  0
POINT
  5
40D
100
AcDbEntity
  8
DEFPOINTS
  6
CONTINUOUS
 62
         0
100
AcDbPoint
 10
1581.0310510641
 20
100.2415188883
 30
0.0
  0
POINT
  5
40E
100
AcDbEntity
  8
DEFPOINTS
  6
CONTINUOUS
 62
         0
100
AcDbPoint
 10
1581.0310510641
 20
92.3727564958
 30
0.0
  0
POINT
  5
40F
100
AcDbEntity
  8
DEFPOINTS
  6
CONTINUOUS
 62
         0
100
AcDbPoint
 10
1521.0310510641
 20
92.3727564958
 30
0.0
  0
LINE
  5
410
100
AcDbEntity
  8
L1_95
  6
CONTINUOUS
 62
         4
100
AcDbLine
 10
1581.0310510641
 20
93.7227564958
 30
0.0
 11
1581.0310510641
 21
100.9165188883
 31
0.0
  0
LINE
  5
411
100
AcDbEntity
  8
L1_95
  6
CONTINUOUS
 62
         4
100
AcDbLine
 10
1521.0310510641
 20
93.7227564958
 30
0.0
 11
1521.0310510641
 21
100.9165188883
 31
0.0
  0
LINE
  5
412
100
AcDbEntity
  8
L1_95
  6
CONTINUOUS
 62
         4
100
AcDbLine
 10
1581.0310510641
 20
100.2415188883
 30
0.0
 11
1521.0310510641
 21
100.2415188883
 31
0.0
  0
SOLID
  5
413
100
AcDbEntity
  8
L1_95
  6
CONTINUOUS
 62
         4
100
AcDbTrace
 10
1581.0310510641
 20
100.2415188883
 30
0.0
 11
1578.3310510641
 21
99.8365188883
 31
0.0
 12
1578.3310510641
 22
100.6465188883
 32
0.0
 13
1581.0310510641
 23
100.2415188883
 33
0.0
  0
SOLID
  5
414
100
AcDbEntity
  8
L1_95
  6
CONTINUOUS
 62
         4
100
AcDbTrace
 10
1521.0310510641
 20
100.2415188883
 30
0.0
 11
1523.7310510641
 21
100.6465188883
 31
0.0
 12
1523.7310510641
 22
99.8365188883
 32
0.0
 13
1521.0310510641
 23
100.2415188883
 33
0.0
  0
TEXT
  5
416
100
AcDbEntity
  8
L1_95
  6
CONTINUOUS
 62
         4
100
AcDbText
 10
1547.5803839628
 20
102.2665188883
 30
0.0
 40
2.7
  1
60
  7
BOX
100
AcDbText
  0
ENDBLK
  5
417
100
AcDbEntity
  8
0
  6
CONTINUOUS
100
AcDbBlockEnd
  0
ENDSEC
  0
SECTION
  2
ENTITIES
  0
ARC
  5
24
100
AcDbEntity
  8
L1_95
  6
CONTINUOUS
 62
         7
100
AcDbCircle
 10
1481.8033403763
 20
-19.6933347407
 30
0.0
 40
1.5
100
AcDbArc
 50
180.0
 51
270.0
  0
ARC
  5
25
100
AcDbEntity
  8
L1_95
  6
CONTINUOUS
 62
         7
100
AcDbCircle
 10
1481.8033403763
 20
-6.1933347407
 30
0.0
 40
1.5
100
AcDbArc
 50
90.0
 51
180.0
  0
INSERT
  5
6E
100
AcDbEntity
  8
0
  6
CONTINUOUS
100
AcDbBlockReference
  2
*X0
 10
0.0
 20
0.0
 30
0.0
  0
DIMENSION
  5
72
100
AcDbEntity
  8
L1_95
  6
CONTINUOUS
 62
         4
100
AcDbDimension
  2
*D1
 10
1457.9033403763
 20
20.0900645333
 30
0.0
 11
1460.0155397452
 21
22.1150645333
 31
0.0
  3
DIMSTYLE1
100
AcDbAlignedDimension
 13
1457.9033403763
 23
10.5522646056
 33
0.0
 14
1487.1033403763
 24
6.5566652593
 34
0.0
100
AcDbRotatedDimension
  0
DIMENSION
  5
81
100
AcDbEntity
  8
L1_95
  6
CONTINUOUS
 62
         4
100
AcDbDimension
  2
*D2
 10
1326.7033403763
 20
221.506715998
 30
0.0
 11
1400.2400327939
 21
223.531715998
 31
0.0
  3
DIMSTYLE1
100
AcDbAlignedDimension
 13
1326.7033403763
 23
162.0074490628
 33
0.0
 14
1487.1033403763
 24
169.6846417294
 34
0.0
100
AcDbRotatedDimension
  0
DIMENSION
  5
8F
100
AcDbEntity
  8
L1_95
  6
CONTINUOUS
 62
         4
100
AcDbDimension
  2
*D3
 10
1392.1033403763
 20
214.2496490984
 30
0.0
 11
1436.704931612
 21
216.2746490984
 31
0.0
  3
DIMSTYLE1
100
AcDbAlignedDimension
 13
1392.1033403763
 23
172.4096417294
 33
0.0
 14
1487.1033403763
 24
169.6846417294
 34
0.0
100
AcDbRotatedDimension
  0
LINE
  5
9B
100
AcDbEntity
  8
_Y__________
  6
CONTINUOUS
 62
         7
100
AcDbLine
 10
1367.7033403763
 20
-19.9933347407
 30
0.0
 11
1371.773659774
 21
-12.9433347407
 31
0.0
  0
LINE
  5
9C
100
AcDbEntity
  8
_Y__________
  6
CONTINUOUS
 62
         7
100
AcDbLine
 10
1367.7033403763
 20
-5.8933347407
 30
0.0
 11
1371.773659774
 21
-12.9433347407
 31
0.0
  0
LINE
  5
9D
100
AcDbEntity
  8
_Y__________
  6
CONTINUOUS
 62
         7
100
AcDbLine
 10
1367.7033403763
 20
-5.8933347407
 30
0.0
 11
1367.7033403763
 21
-19.9933347407
 31
0.0
  0
LINE
  5
9E
100
AcDbEntity
  8
_Y__________
  6
CONTINUOUS
 62
         7
100
AcDbLine
 10
1367.7033403763
 20
-19.9933347407
 30
0.0
 11
1335.7033403763
 21
-19.9933347407
 31
0.0
  0
LINE
  5
9F
100
AcDbEntity
  8
_Y__________
  6
CONTINUOUS
 62
         7
100
AcDbLine
 10
1367.7033403763
 20
-5.8933347407
 30
0.0
 11
1335.7033403763
 21
-5.8933347407
 31
0.0
  0
ARC
  5
A0
100
AcDbEntity
  8
_Y__________
  6
CONTINUOUS
 62
         7
100
AcDbCircle
 10
1395.1033403763
 20
180.6846417294
 30
0.0
 40
1.0
100
AcDbArc
 50
90.0
 51
180.0
  0
ARC
  5
A1
100
AcDbEntity
  8
_Y__________
  6
CONTINUOUS
 62
         7
100
AcDbCircle
 10
1418.1033403763
 20
180.6846417294
 30
0.0
 40
1.0
100
AcDbArc
 50
0.0
 51
90.0
  0
LINE
  5
A2
100
AcDbEntity
  8
_Y__________
  6
CONTINUOUS
 62
         7
100
AcDbLine
 10
1417.1033403763
 20
181.6846417294
 30
0.0
 11
1418.1033403763
 21
181.6846417294
 31
0.0
  0
LINE
  5
A3
100
AcDbEntity
  8
_Y__________
  6
CONTINUOUS
 62
         7
100
AcDbLine
 10
1419.1033403763
 20
120.6846417294
 30
0.0
 11
1419.1033403763
 21
119.6846417294
 31
0.0
  0
LINE
  5
A4
100
AcDbEntity
  8
_Y__________
  6
CONTINUOUS
 62
         7
100
AcDbLine
 10
1395.1033403763
 20
181.6846417294
 30
0.0
 11
1396.1033403763
 21
181.6846417294
 31
0.0
  0
LINE
  5
A5
100
AcDbEntity
  8
_Y__________
  6
CONTINUOUS
 62
         7
100
AcDbLine
 10
1394.1033403763
 20
120.6846417294
 30
0.0
 11
1394.1033403763
 21
119.6846417294
 31
0.0
  0
ARC
  5
A6
100
AcDbEntity
  8
_Y__________
  6
CONTINUOUS
 62
         7
100
AcDbCircle
 10
1395.1033403763
 20
119.6846417294
 30
0.0
 40
1.0
100
AcDbArc
 50
180.0
 51
270.0
  0
LINE
  5
A7
100
AcDbEntity
  8
_Y__________
  6
CONTINUOUS
 62
         7
100
AcDbLine
 10
1395.1033403763
 20
118.6846417294
 30
0.0
 11
1396.1033403763
 21
118.6846417294
 31
0.0
  0
LINE
  5
A8
100
AcDbEntity
  8
_Y__________
  6
CONTINUOUS
 62
         7
100
AcDbLine
 10
1417.1033403763
 20
118.6846417294
 30
0.0
 11
1418.1033403763
 21
118.6846417294
 31
0.0
  0
ARC
  5
A9
100
AcDbEntity
  8
_Y__________
  6
CONTINUOUS
 62
         7
100
AcDbCircle
 10
1418.1033403763
 20
119.6846417294
 30
0.0
 40
1.0
100
AcDbArc
 50
270.0
 51
360.0
  0
LINE
  5
AA
100
AcDbEntity
  8
_Y__________
  6
CONTINUOUS
 62
         7
100
AcDbLine
 10
1419.1033403763
 20
179.6846417294
 30
0.0
 11
1419.1033403763
 21
180.6846417294
 31
0.0
  0
LINE
  5
AB
100
AcDbEntity
  8
_Y__________
  6
CONTINUOUS
 62
         7
100
AcDbLine
 10
1394.1033403763
 20
179.6846417294
 30
0.0
 11
1394.1033403763
 21
180.6846417294
 31
0.0
  0
LINE
  5
AC
100
AcDbEntity
  8
_Y__________
  6
CONTINUOUS
 62
         7
100
AcDbLine
 10
1394.1033403763
 20
16.5566652593
 30
0.0
 11
1394.1033403763
 21
17.5566652593
 31
0.0
  0
LINE
  5
AD
100
AcDbEntity
  8
_Y__________
  6
CONTINUOUS
 62
         7
100
AcDbLine
 10
1419.1033403763
 20
16.5566652593
 30
0.0
 11
1419.1033403763
 21
17.5566652593
 31
0.0
  0
ARC
  5
AE
100
AcDbEntity
  8
_Y__________
  6
CONTINUOUS
 62
         7
100
AcDbCircle
 10
1418.1033403763
 20
-43.4433347407
 30
0.0
 40
1.0
100
AcDbArc
 50
270.0
 51
360.0
  0
LINE
  5
AF
100
AcDbEntity
  8
_Y__________
  6
CONTINUOUS
 62
         7
100
AcDbLine
 10
1417.1033403763
 20
-44.4433347407
 30
0.0
 11
1418.1033403763
 21
-44.4433347407
 31
0.0
  0
LINE
  5
B0
100
AcDbEntity
  8
_Y__________
  6
CONTINUOUS
 62
         7
100
AcDbLine
 10
1395.1033403763
 20
-44.4433347407
 30
0.0
 11
1396.1033403763
 21
-44.4433347407
 31
0.0
  0
ARC
  5
B1
100
AcDbEntity
  8
_Y__________
  6
CONTINUOUS
 62
         7
100
AcDbCircle
 10
1395.1033403763
 20
-43.4433347407
 30
0.0
 40
1.0
100
AcDbArc
 50
180.0
 51
270.0
  0
LINE
  5
B2
100
AcDbEntity
  8
_Y__________
  6
CONTINUOUS
 62
         7
100
AcDbLine
 10
1394.1033403763
 20
-42.4433347407
 30
0.0
 11
1394.1033403763
 21
-43.4433347407
 31
0.0
  0
LINE
  5
B3
100
AcDbEntity
  8
_Y__________
  6
CONTINUOUS
 62
         7
100
AcDbLine
 10
1395.1033403763
 20
18.5566652593
 30
0.0
 11
1396.1033403763
 21
18.5566652593
 31
0.0
  0
LINE
  5
B4
100
AcDbEntity
  8
_Y__________
  6
CONTINUOUS
 62
         7
100
AcDbLine
 10
1419.1033403763
 20
-42.4433347407
 30
0.0
 11
1419.1033403763
 21
-43.4433347407
 31
0.0
  0
LINE
  5
B5
100
AcDbEntity
  8
_Y__________
  6
CONTINUOUS
 62
         7
100
AcDbLine
 10
1417.1033403763
 20
18.5566652593
 30
0.0
 11
1418.1033403763
 21
18.5566652593
 31
0.0
  0
ARC
  5
B6
100
AcDbEntity
  8
_Y__________
  6
CONTINUOUS
 62
         7
100
AcDbCircle
 10
1418.1033403763
 20
17.5566652593
 30
0.0
 40
1.0
100
AcDbArc
 50
0.0
 51
90.0
  0
ARC
  5
B7
100
AcDbEntity
  8
_Y__________
  6
CONTINUOUS
 62
         7
100
AcDbCircle
 10
1395.1033403763
 20
17.5566652593
 30
0.0
 40
1.0
100
AcDbArc
 50
90.0
 51
180.0
  0
LINE
  5
B8
100
AcDbEntity
  8
_Y__________
  6
DASHED
 62
         2
100
AcDbLine
 10
1593.3293176535
 20
142.1346417294
 30
0.0
 11
1599.8833403763
 21
142.1346417294
 31
0.0
  0
LINE
  5
B9
100
AcDbEntity
  8
_Y__________
  6
DASHED
 62
         2
100
AcDbLine
 10
1593.3293176535
 20
158.2346417294
 30
0.0
 11
1599.8833403763
 21
158.2346417294
 31
0.0
  0
LINE
  5
BA
100
AcDbEntity
  8
_Y__________
  6
DASHED
 62
         2
100
AcDbLine
 10
1600.6833403763
 20
157.4346417294
 30
0.0
 11
1600.6833403763
 21
142.9346417294
 31
0.0
  0
LINE
  5
BB
100
AcDbEntity
  8
_Y__________
  6
DASHED
 62
         2
100
AcDbLine
 10
1593.3293176535
 20
158.2346417294
 30
0.0
 11
1592.9360087767
 21
158.6279506061
 31
0.0
  0
LINE
  5
BC
100
AcDbEntity
  8
_Y__________
  6
DASHED
 62
         2
100
AcDbLine
 10
1593.3293176535
 20
142.1346417294
 30
0.0
 11
1592.9360087767
 21
141.7413328526
 31
0.0
  0
LINE
  5
BD
100
AcDbEntity
  8
_Y__________
  6
DASHED
 62
         2
100
AcDbLine
 10
1600.6833403763
 20
142.9346417294
 30
0.0
 11
1599.8833403763
 21
142.1346417294
 31
0.0
  0
LINE
  5
BE
100
AcDbEntity
  8
_Y__________
  6
DASHED
 62
         2
100
AcDbLine
 10
1600.6833403763
 20
157.4346417294
 30
0.0
 11
1599.8833403763
 21
158.2346417294
 31
0.0
  0
LINE
  5
BF
100
AcDbEntity
  8
_Y__________
  6
DASHED
 62
         2
100
AcDbLine
 10
1645.8833403763
 20
157.4346417294
 30
0.0
 11
1645.8833403763
 21
142.9346417294
 31
0.0
  0
LINE
  5
C0
100
AcDbEntity
  8
_Y__________
  6
DASHED
 62
         2
100
AcDbLine
 10
1653.237363099
 20
158.2346417294
 30
0.0
 11
1646.6833403763
 21
158.2346417294
 31
0.0
  0
LINE
  5
C1
100
AcDbEntity
  8
_Y__________
  6
DASHED
 62
         2
100
AcDbLine
 10
1653.237363099
 20
142.1346417294
 30
0.0
 11
1646.6833403763
 21
142.1346417294
 31
0.0
  0
LINE
  5
C2
100
AcDbEntity
  8
_Y__________
  6
DASHED
 62
         2
100
AcDbLine
 10
1653.237363099
 20
158.2346417294
 30
0.0
 11
1653.6306719758
 21
158.6279506061
 31
0.0
  0
LINE
  5
C3
100
AcDbEntity
  8
_Y__________
  6
DASHED
 62
         2
100
AcDbLine
 10
1653.237363099
 20
142.1346417294
 30
0.0
 11
1653.6306719758
 21
141.7413328526
 31
0.0
  0
LINE
  5
C4
100
AcDbEntity
  8
_Y__________
  6
DASHED
 62
         2
100
AcDbLine
 10
1646.6833403763
 20
158.2346417294
 30
0.0
 11
1645.8833403763
 21
157.4346417294
 31
0.0
  0
LINE
  5
C5
100
AcDbEntity
  8
_Y__________
  6
DASHED
 62
         2
100
AcDbLine
 10
1645.8833403763
 20
142.9346417294
 30
0.0
 11
1646.6833403763
 21
142.1346417294
 31
0.0
  0
ARC
  5
C6
100
AcDbEntity
  8
_Y__________
  6
DASHED
 62
         2
100
AcDbCircle
 10
1623.2833403763
 20
150.1846417294
 30
0.0
 40
26.5
100
AcDbArc
 50
197.6843950499
 51
342.3156049501
  0
ARC
  5
C7
100
AcDbEntity
  8
_Y__________
  6
DASHED
 62
         2
100
AcDbCircle
 10
1623.2833403763
 20
150.1846417294
 30
0.0
 40
26.5
100
AcDbArc
 50
17.6843950499
 51
162.3156049501
  0
LINE
  5
C8
100
AcDbEntity
  8
_Y__________
  6
CONTINUOUS
 62
         7
100
AcDbLine
 10
1413.7033403763
 20
143.7674772465
 30
0.0
 11
1413.7033403763
 21
118.6846417294
 31
0.0
  0
LINE
  5
C9
100
AcDbEntity
  8
_Y__________
  6
CONTINUOUS
 62
         7
100
AcDbLine
 10
1411.2033403763
 20
142.7765380584
 30
0.0
 11
1411.2033403763
 21
123.0150147105
 31
0.0
  0
LINE
  5
CA
100
AcDbEntity
  8
_Y__________
  6
CONTINUOUS
 62
         7
100
AcDbLine
 10
1406.2033403763
 20
142.1346417294
 30
0.0
 11
1406.2033403763
 21
123.0150147105
 31
0.0
  0
LINE
  5
CB
100
AcDbEntity
  8
_Y__________
  6
CONTINUOUS
 62
         7
100
AcDbLine
 10
1403.7033403763
 20
141.6346417294
 30
0.0
 11
1403.7033403763
 21
118.6846417294
 31
0.0
  0
LINE
  5
CC
100
AcDbEntity
  8
_Y__________
  6
CONTINUOUS
 62
         4
100
AcDbLine
 10
1394.1033403763
 20
141.6346417294
 30
0.0
 11
1403.7033403763
 21
141.6346417294
 31
0.0
  0
LINE
  5
CD
100
AcDbEntity
  8
_Y__________
  6
CONTINUOUS
 62
         7
100
AcDbLine
 10
1394.1033403763
 20
142.1346417294
 30
0.0
 11
1408.0533403763
 21
142.1346417294
 31
0.0
  0
LINE
  5
CE
100
AcDbEntity
  8
_Y__________
  6
CONTINUOUS
 62
         7
100
AcDbLine
 10
1394.1033403763
 20
158.2346417294
 30
0.0
 11
1408.0533403763
 21
158.2346417294
 31
0.0
  0
ARC
  5
CF
100
AcDbEntity
  8
_Y__________
  6
CONTINUOUS
 62
         7
100
AcDbCircle
 10
1408.0533403763
 20
150.1846417294
 30
0.0
 40
8.05
100
AcDbArc
 50
270.0
 51
450.0
  0
ARC
  5
D0
100
AcDbEntity
  8
_Y__________
  6
CONTINUOUS
 62
         4
100
AcDbCircle
 10
1408.0533403763
 20
150.1846417294
 30
0.0
 40
8.55
100
AcDbArc
 50
311.3623424579
 51
408.6376575421
  0
LINE
  5
D1
100
AcDbEntity
  8
_Y__________
  6
CONTINUOUS
 62
         4
100
AcDbLine
 10
1411.2033403763
 20
157.5927454004
 30
0.0
 11
1413.7033403763
 21
156.6018062122
 31
0.0
  0
LINE
  5
D2
100
AcDbEntity
  8
_Y__________
  6
CONTINUOUS
 62
         4
100
AcDbLine
 10
1411.2033403763
 20
142.7765380584
 30
0.0
 11
1413.7033403763
 21
143.7674772465
 31
0.0
  0
LINE
  5
D3
100
AcDbEntity
  8
_Y__________
  6
CONTINUOUS
 62
         4
100
AcDbLine
 10
1403.7033403763
 20
141.6346417294
 30
0.0
 11
1406.2033403763
 21
142.1346417294
 31
0.0
  0
LINE
  5
D4
100
AcDbEntity
  8
_Y__________
  6
CONTINUOUS
 62
         4
100
AcDbLine
 10
1403.7033403763
 20
158.7346417294
 30
0.0
 11
1406.2033403763
 21
158.2346417294
 31
0.0
  0
LINE
  5
D5
100
AcDbEntity
  8
_Y__________
  6
CONTINUOUS
 62
         7
100
AcDbLine
 10
1413.7033403763
 20
181.6846417294
 30
0.0
 11
1413.7033403763
 21
156.6018062122
 31
0.0
  0
LINE
  5
D6
100
AcDbEntity
  8
_Y__________
  6
CONTINUOUS
 62
         7
100
AcDbLine
 10
1411.2033403763
 20
177.3542687483
 30
0.0
 11
1411.2033403763
 21
157.5927454004
 31
0.0
  0
LINE
  5
D7
100
AcDbEntity
  8
_Y__________
  6
CONTINUOUS
 62
         7
100
AcDbLine
 10
1406.2033403763
 20
177.3542687483
 30
0.0
 11
1406.2033403763
 21
158.2346417294
 31
0.0
  0
LINE
  5
D8
100
AcDbEntity
  8
_Y__________
  6
CONTINUOUS
 62
         7
100
AcDbLine
 10
1403.7033403763
 20
181.6846417294
 30
0.0
 11
1403.7033403763
 21
158.7346417294
 31
0.0
  0
LINE
  5
D9
100
AcDbEntity
  8
_Y__________
  6
CONTINUOUS
 62
         4
100
AcDbLine
 10
1394.1033403763
 20
158.7346417294
 30
0.0
 11
1403.7033403763
 21
158.7346417294
 31
0.0
  0
ARC
  5
DA
100
AcDbEntity
  8
_Y__________
  6
DASHED
 62
         2
100
AcDbCircle
 10
1214.9233403763
 20
150.1846417294
 30
0.0
 40
26.5
100
AcDbArc
 50
197.6843950499
 51
342.3156049501
  0
ARC
  5
DB
100
AcDbEntity
  8
_Y__________
  6
DASHED
 62
         2
100
AcDbCircle
 10
1214.9233403763
 20
150.1846417294
 30
0.0
 40
26.5
100
AcDbArc
 50
17.6843950499
 51
162.3156049501
  0
LINE
  5
DC
100
AcDbEntity
  8
_Y__________
  6
CONTINUOUS
 62
         7
100
AcDbLine
 10
1237.5233403763
 20
157.4346417294
 30
0.0
 11
1237.5233403763
 21
142.9346417294
 31
0.0
  0
LINE
  5
DD
100
AcDbEntity
  8
_Y__________
  6
CONTINUOUS
 62
         7
100
AcDbLine
 10
1244.877363099
 20
158.2346417294
 30
0.0
 11
1238.3233403763
 21
158.2346417294
 31
0.0
  0
LINE
  5
DE
100
AcDbEntity
  8
_Y__________
  6
CONTINUOUS
 62
         7
100
AcDbLine
 10
1244.877363099
 20
142.1346417294
 30
0.0
 11
1238.3233403763
 21
142.1346417294
 31
0.0
  0
LINE
  5
DF
100
AcDbEntity
  8
_Y__________
  6
CONTINUOUS
 62
         7
100
AcDbLine
 10
1244.877363099
 20
158.2346417294
 30
0.0
 11
1245.2706719758
 21
158.6279506061
 31
0.0
  0
LINE
  5
E0
100
AcDbEntity
  8
_Y__________
  6
CONTINUOUS
 62
         7
100
AcDbLine
 10
1244.877363099
 20
142.1346417294
 30
0.0
 11
1245.2706719758
 21
141.7413328526
 31
0.0
  0
LINE
  5
E1
100
AcDbEntity
  8
_Y__________
  6
CONTINUOUS
 62
         7
100
AcDbLine
 10
1237.5233403763
 20
142.9346417294
 30
0.0
 11
1238.3233403763
 21
142.1346417294
 31
0.0
  0
LINE
  5
E2
100
AcDbEntity
  8
_Y__________
  6
CONTINUOUS
 62
         7
100
AcDbLine
 10
1237.5233403763
 20
157.4346417294
 30
0.0
 11
1238.3233403763
 21
158.2346417294
 31
0.0
  0
LINE
  5
E3
100
AcDbEntity
  8
_Y__________
  6
CONTINUOUS
 62
         7
100
AcDbLine
 10
1184.9693176535
 20
142.1346417294
 30
0.0
 11
1191.5233403763
 21
142.1346417294
 31
0.0
  0
LINE
  5
E4
100
AcDbEntity
  8
_Y__________
  6
CONTINUOUS
 62
         7
100
AcDbLine
 10
1184.9693176535
 20
158.2346417294
 30
0.0
 11
1191.5233403763
 21
158.2346417294
 31
0.0
  0
LINE
  5
E5
100
AcDbEntity
  8
_Y__________
  6
CONTINUOUS
 62
         7
100
AcDbLine
 10
1192.3233403763
 20
157.4346417294
 30
0.0
 11
1192.3233403763
 21
142.9346417294
 31
0.0
  0
LINE
  5
E6
100
AcDbEntity
  8
_Y__________
  6
CONTINUOUS
 62
         7
100
AcDbLine
 10
1184.9693176535
 20
158.2346417294
 30
0.0
 11
1184.5760087767
 21
158.6279506061
 31
0.0
  0
LINE
  5
E7
100
AcDbEntity
  8
_Y__________
  6
CONTINUOUS
 62
         7
100
AcDbLine
 10
1184.9693176535
 20
142.1346417294
 30
0.0
 11
1184.5760087767
 21
141.7413328526
 31
0.0
  0
LINE
  5
E8
100
AcDbEntity
  8
_Y__________
  6
CONTINUOUS
 62
         7
100
AcDbLine
 10
1191.5233403763
 20
158.2346417294
 30
0.0
 11
1192.3233403763
 21
157.4346417294
 31
0.0
  0
LINE
  5
E9
100
AcDbEntity
  8
_Y__________
  6
CONTINUOUS
 62
         7
100
AcDbLine
 10
1192.3233403763
 20
142.9346417294
 30
0.0
 11
1191.5233403763
 21
142.1346417294
 31
0.0
  0
LINE
  5
EA
100
AcDbEntity
  8
_Y__________
  6
CONTINUOUS
 62
         7
100
AcDbLine
 10
1406.2033403763
 20
123.6846417294
 30
0.0
 11
1411.2033403763
 21
123.6846417294
 31
0.0
  0
LINE
  5
EB
100
AcDbEntity
  8
_Y__________
  6
CONTINUOUS
 62
         7
100
AcDbLine
 10
1406.2033403763
 20
176.6846417294
 30
0.0
 11
1411.2033403763
 21
176.6846417294
 31
0.0
  0
LINE
  5
EC
100
AcDbEntity
  8
_Y__________
  6
CENTER
 62
         1
100
AcDbLine
 10
1380.541891064
 20
150.1846417294
 30
0.0
 11
1419.1033403763
 21
150.1846417294
 31
0.0
  0
LINE
  5
ED
100
AcDbEntity
  8
_Y__________
  6
CENTER
 62
         1
100
AcDbLine
 10
1321.1945221388
 20
150.1846417294
 30
0.0
 11
1367.7664645448
 21
150.1846417294
 31
0.0
  0
LINE
  5
EE
100
AcDbEntity
  8
_Y__________
  6
CONTINUOUS
 62
         7
100
AcDbLine
 10
1406.2033403763
 20
177.3542687483
 30
0.0
 11
1403.7031983699
 21
181.6846417294
 31
0.0
  0
LINE
  5
EF
100
AcDbEntity
  8
_Y__________
  6
CONTINUOUS
 62
         7
100
AcDbLine
 10
1411.2033403763
 20
177.3542687483
 30
0.0
 11
1413.7034823826
 21
181.6846417294
 31
0.0
  0
LINE
  5
F0
100
AcDbEntity
  8
_Y__________
  6
CONTINUOUS
 62
         7
100
AcDbLine
 10
1413.7034823826
 20
181.6846417294
 30
0.0
 11
1418.1033403763
 21
181.6846417294
 31
0.0
  0
LINE
  5
F1
100
AcDbEntity
  8
_Y__________
  6
CONTINUOUS
 62
         7
100
AcDbLine
 10
1395.1033403763
 20
181.6846417294
 30
0.0
 11
1403.7031983699
 21
181.6846417294
 31
0.0
  0
LINE
  5
F2
100
AcDbEntity
  8
_Y__________
  6
CONTINUOUS
 62
         7
100
AcDbLine
 10
1413.7034823826
 20
118.6846417294
 30
0.0
 11
1418.1033403763
 21
118.6846417294
 31
0.0
  0
LINE
  5
F3
100
AcDbEntity
  8
_Y__________
  6
CONTINUOUS
 62
         7
100
AcDbLine
 10
1406.2033403763
 20
123.0150147105
 30
0.0
 11
1403.7031983699
 21
118.6846417294
 31
0.0
  0
LINE
  5
F4
100
AcDbEntity
  8
_Y__________
  6
CONTINUOUS
 62
         7
100
AcDbLine
 10
1411.2033403763
 20
123.0150147105
 30
0.0
 11
1413.7034823826
 21
118.6846417294
 31
0.0
  0
LINE
  5
F5
100
AcDbEntity
  8
_Y__________
  6
CONTINUOUS
 62
         7
100
AcDbLine
 10
1392.6033403763
 20
172.4825579953
 30
0.0
 11
1393.3497505378
 21
172.2825579953
 31
0.0
  0
LINE
  5
F6
100
AcDbEntity
  8
_Y__________
  6
CONTINUOUS
 62
         7
100
AcDbLine
 10
1393.3497505378
 20
172.2825579953
 30
0.0
 11
1393.7033403763
 21
172.2825579953
 31
0.0
  0
ARC
  5
F7
100
AcDbEntity
  8
_Y__________
  6
CONTINUOUS
 62
         7
100
AcDbCircle
 10
1393.7033403763
 20
172.6825579953
 30
0.0
 40
0.4
100
AcDbArc
 50
270.0
 51
360.0
  0
LINE
  5
F8
100
AcDbEntity
  8
_Y__________
  6
CONTINUOUS
 62
         7
100
AcDbLine
 10
1392.6033403763
 20
127.8867254635
 30
0.0
 11
1393.3497505378
 21
128.0867254635
 31
0.0
  0
ARC
  5
F9
100
AcDbEntity
  8
_Y__________
  6
CONTINUOUS
 62
         7
100
AcDbCircle
 10
1393.7033403763
 20
127.6867254635
 30
0.0
 40
0.4
100
AcDbArc
 50
0.0
 51
90.0
  0
LINE
  5
FA
100
AcDbEntity
  8
_Y__________
  6
CONTINUOUS
 62
         7
100
AcDbLine
 10
1393.3497505378
 20
128.0867254635
 30
0.0
 11
1393.7033403763
 21
128.0867254635
 31
0.0
  0
LINE
  5
FB
100
AcDbEntity
  8
_Y__________
  6
CONTINUOUS
 62
         7
100
AcDbLine
 10
1392.6033403763
 20
172.4825579953
 30
0.0
 11
1392.6033403763
 21
127.8867254635
 31
0.0
  0
LINE
  5
FC
100
AcDbEntity
  8
_Y__________
  6
CENTER
 62
         1
100
AcDbLine
 10
1392.1033403763
 20
172.4096417294
 30
0.0
 11
1392.1033403763
 21
127.9596417294
 31
0.0
  0
LINE
  5
FD
100
AcDbEntity
  8
_Y__________
  6
CONTINUOUS
 62
         7
100
AcDbLine
 10
1395.1033403763
 20
118.6846417294
 30
0.0
 11
1403.7031983699
 21
118.6846417294
 31
0.0
  0
LINE
  5
FE
100
AcDbEntity
  8
_Y__________
  6
CONTINUOUS
 62
         7
100
AcDbLine
 10
1326.7033403763
 20
162.0074490628
 30
0.0
 11
1326.7033403763
 21
138.361834396
 31
0.0
  0
ARC
  5
FF
100
AcDbEntity
  8
_Y__________
  6
CONTINUOUS
 62
         7
100
AcDbCircle
 10
1327.7033403763
 20
138.361834396
 30
0.0
 40
1.0
100
AcDbArc
 50
180.0
 51
261.7029
  0
ARC
  5
100
100
AcDbEntity
  8
_Y__________
  6
CONTINUOUS
 62
         7
100
AcDbCircle
 10
1327.7033403763
 20
162.0074490628
 30
0.0
 40
1.0
100
AcDbArc
 50
98.2971
 51
180.0
  0
LINE
  5
101
100
AcDbEntity
  8
_Y__________
  6
CONTINUOUS
 62
         7
100
AcDbLine
 10
1327.5590342598
 20
137.3723013017
 30
0.0
 11
1392.6033403763
 21
127.8867254635
 31
0.0
  0
LINE
  5
102
100
AcDbEntity
  8
_Y__________
  6
CONTINUOUS
 62
         7
100
AcDbLine
 10
1327.5590342598
 20
162.9969821571
 30
0.0
 11
1392.6033403763
 21
172.4825579953
 31
0.0
  0
LINE
  5
103
100
AcDbEntity
  8
_Y__________
  6
CONTINUOUS
 62
         7
100
AcDbLine
 10
1394.1033403763
 20
180.6846417294
 30
0.0
 11
1394.1033403763
 21
119.6846417294
 31
0.0
  0
LINE
  5
104
100
AcDbEntity
  8
_Y__________
  6
CONTINUOUS
 62
         7
100
AcDbLine
 10
1419.1033403763
 20
180.6846417294
 30
0.0
 11
1419.1033403763
 21
119.6846417294
 31
0.0
  0
LINE
  5
105
100
AcDbEntity
  8
_Y__________
  6
CENTER
 62
         1
100
AcDbLine
 10
1408.7033403763
 20
181.6846417294
 30
0.0
 11
1408.7033403763
 21
118.6846417294
 31
0.0
  0
LINE
  5
106
100
AcDbEntity
  8
_Y__________
  6
CENTER
 62
         1
100
AcDbLine
 10
1323.7864097888
 20
-12.9433347407
 30
0.0
 11
1419.1033403763
 21
-12.9433347407
 31
0.0
  0
LINE
  5
107
100
AcDbEntity
  8
_Y__________
  6
CONTINUOUS
 62
         5
100
AcDbLine
 10
1335.7033403763
 20
-4.9433347407
 30
0.0
 11
1357.7033403763
 21
-4.9433347407
 31
0.0
  0
LINE
  5
108
100
AcDbEntity
  8
_Y__________
  6
CONTINUOUS
 62
         5
100
AcDbLine
 10
1335.7033403763
 20
-20.9433347407
 30
0.0
 11
1357.7033403763
 21
-20.9433347407
 31
0.0
  0
ARC
  5
109
100
AcDbEntity
  8
_Y__________
  6
CONTINUOUS
 62
         7
100
AcDbCircle
 10
1328.2033403763
 20
-22.9433347407
 30
0.0
 40
1.5
100
AcDbArc
 50
90.0
 51
180.0
  0
ARC
  5
10A
100
AcDbEntity
  8
_Y__________
  6
CONTINUOUS
 62
         7
100
AcDbCircle
 10
1334.5287420363
 20
-21.0433347407
 30
0.0
 40
0.6
100
AcDbArc
 50
255.0
 51
270.0
  0
LINE
  5
10B
100
AcDbEntity
  8
_Y__________
  6
CONTINUOUS
 62
         7
100
AcDbLine
 10
1333.7033403763
 20
-21.4433347407
 30
0.0
 11
1334.3734506093
 21
-21.6228902364
 31
0.0
  0
LINE
  5
10C
100
AcDbEntity
  8
_Y__________
  6
CONTINUOUS
 62
         7
100
AcDbLine
 10
1328.2033403763
 20
-21.4433347407
 30
0.0
 11
1333.7033403763
 21
-21.4433347407
 31
0.0
  0
LINE
  5
10D
100
AcDbEntity
  8
_Y__________
  6
CONTINUOUS
 62
         7
100
AcDbLine
 10
1334.5287420363
 20
-21.6433347407
 30
0.0
 11
1335.1033403763
 21
-21.6433347407
 31
0.0
  0
ARC
  5
10E
100
AcDbEntity
  8
_Y__________
  6
CONTINUOUS
 62
         7
100
AcDbCircle
 10
1335.1033403763
 20
-21.0433347407
 30
0.0
 40
0.6
100
AcDbArc
 50
270.0
 51
360.0
  0
LINE
  5
10F
100
AcDbEntity
  8
_Y__________
  6
CONTINUOUS
 62
         7
100
AcDbLine
 10
1333.7033403763
 20
-4.4433347407
 30
0.0
 11
1333.7033403763
 21
-21.4433347407
 31
0.0
  0
LINE
  5
110
100
AcDbEntity
  8
_Y__________
  6
CONTINUOUS
 62
         7
100
AcDbLine
 10
1328.4353911838
 20
-4.4433347407
 30
0.0
 11
1328.4353911838
 21
-21.4433347407
 31
0.0
  0
ARC
  5
111
100
AcDbEntity
  8
_Y__________
  6
CONTINUOUS
 62
         7
100
AcDbCircle
 10
1328.2033403763
 20
-2.9433347407
 30
0.0
 40
1.5
100
AcDbArc
 50
180.0
 51
270.0
  0
LINE
  5
112
100
AcDbEntity
  8
_Y__________
  6
CONTINUOUS
 62
         7
100
AcDbLine
 10
1328.2033403763
 20
-4.4433347407
 30
0.0
 11
1333.7033403763
 21
-4.4433347407
 31
0.0
  0
LINE
  5
113
100
AcDbEntity
  8
_Y__________
  6
CONTINUOUS
 62
         7
100
AcDbLine
 10
1333.7033403763
 20
-4.4433347407
 30
0.0
 11
1334.3734506093
 21
-4.2637792449
 31
0.0
  0
ARC
  5
114
100
AcDbEntity
  8
_Y__________
  6
CONTINUOUS
 62
         7
100
AcDbCircle
 10
1334.5287420363
 20
-4.8433347407
 30
0.0
 40
0.6
100
AcDbArc
 50
90.0
 51
105.0
  0
LINE
  5
115
100
AcDbEntity
  8
_Y__________
  6
CONTINUOUS
 62
         7
100
AcDbLine
 10
1334.5287420363
 20
-4.2433347407
 30
0.0
 11
1335.1033403763
 21
-4.2433347407
 31
0.0
  0
ARC
  5
116
100
AcDbEntity
  8
_Y__________
  6
CONTINUOUS
 62
         7
100
AcDbCircle
 10
1335.1033403763
 20
-4.8433347407
 30
0.0
 40
0.6
100
AcDbArc
 50
360.0
 51
450.0
  0
LINE
  5
117
100
AcDbEntity
  8
_Y__________
  6
CONTINUOUS
 62
         7
100
AcDbLine
 10
1335.7033403763
 20
-4.8433347407
 30
0.0
 11
1335.7033403763
 21
-21.0433347407
 31
0.0
  0
LINE
  5
118
100
AcDbEntity
  8
_Y__________
  6
CONTINUOUS
 62
         7
100
AcDbLine
 10
1335.7033403763
 20
-19.9933347407
 30
0.0
 11
1357.7033403763
 21
-19.9933347407
 31
0.0
  0
LINE
  5
119
100
AcDbEntity
  8
_Y__________
  6
CONTINUOUS
 62
         7
100
AcDbLine
 10
1335.7033403763
 20
-5.8933347407
 30
0.0
 11
1357.7033403763
 21
-5.8933347407
 31
0.0
  0
LINE
  5
11A
100
AcDbEntity
  8
_Y__________
  6
CONTINUOUS
 62
         7
100
AcDbLine
 10
1413.7034823826
 20
-44.4433347407
 30
0.0
 11
1418.1033403763
 21
-44.4433347407
 31
0.0
  0
LINE
  5
11B
100
AcDbEntity
  8
_Y__________
  6
CONTINUOUS
 62
         7
100
AcDbLine
 10
1411.2033403763
 20
-40.1129617596
 30
0.0
 11
1413.7034823826
 21
-44.4433347407
 31
0.0
  0
LINE
  5
11C
100
AcDbEntity
  8
_Y__________
  6
CONTINUOUS
 62
         7
100
AcDbLine
 10
1411.2033403763
 20
-39.4433347407
 30
0.0
 11
1411.2033403763
 21
-40.1129617596
 31
0.0
  0
LINE
  5
11D
100
AcDbEntity
  8
_Y__________
  6
CONTINUOUS
 62
         7
100
AcDbLine
 10
1406.2033403763
 20
-39.4433347407
 30
0.0
 11
1411.2033403763
 21
-39.4433347407
 31
0.0
  0
LINE
  5
11E
100
AcDbEntity
  8
_Y__________
  6
CONTINUOUS
 62
         7
100
AcDbLine
 10
1406.2033403763
 20
-39.4433347407
 30
0.0
 11
1406.2033403763
 21
-40.1129617596
 31
0.0
  0
LINE
  5
11F
100
AcDbEntity
  8
_Y__________
  6
CONTINUOUS
 62
         7
100
AcDbLine
 10
1406.2033403763
 20
-40.1129617596
 30
0.0
 11
1403.7031983699
 21
-44.4433347407
 31
0.0
  0
LINE
  5
120
100
AcDbEntity
  8
_Y__________
  6
CONTINUOUS
 62
         7
100
AcDbLine
 10
1395.1033403763
 20
-44.4433347407
 30
0.0
 11
1403.7031983699
 21
-44.4433347407
 31
0.0
  0
LINE
  5
121
100
AcDbEntity
  8
_Y__________
  6
CONTINUOUS
 62
         7
100
AcDbLine
 10
1394.1033403763
 20
-35.4412510066
 30
0.0
 11
1394.1033403763
 21
-43.4433347407
 31
0.0
  0
ARC
  5
122
100
AcDbEntity
  8
_Y__________
  6
CONTINUOUS
 62
         7
100
AcDbCircle
 10
1393.7033403763
 20
-35.4412510066
 30
0.0
 40
0.4
100
AcDbArc
 50
0.0
 51
90.0
  0
LINE
  5
123
100
AcDbEntity
  8
_Y__________
  6
CONTINUOUS
 62
         7
100
AcDbLine
 10
1393.3497505378
 20
-35.0412510066
 30
0.0
 11
1393.7033403763
 21
-35.0412510066
 31
0.0
  0
LINE
  5
124
100
AcDbEntity
  8
_Y__________
  6
CONTINUOUS
 62
         7
100
AcDbLine
 10
1392.6033403763
 20
-35.2412510066
 30
0.0
 11
1393.3497505378
 21
-35.0412510066
 31
0.0
  0
LINE
  5
125
100
AcDbEntity
  8
_Y__________
  6
CONTINUOUS
 62
         7
100
AcDbLine
 10
1327.5590342598
 20
-25.7556751684
 30
0.0
 11
1392.6033403763
 21
-35.2412510066
 31
0.0
  0
ARC
  5
126
100
AcDbEntity
  8
_Y__________
  6
CONTINUOUS
 62
         7
100
AcDbCircle
 10
1327.7033403763
 20
-24.7661420741
 30
0.0
 40
1.0
100
AcDbArc
 50
180.0
 51
261.7029
  0
LINE
  5
127
100
AcDbEntity
  8
_Y__________
  6
CONTINUOUS
 62
         7
100
AcDbLine
 10
1326.7033403763
 20
-1.1205274073
 30
0.0
 11
1326.7033403763
 21
-24.7661420741
 31
0.0
  0
ARC
  5
128
100
AcDbEntity
  8
_Y__________
  6
CONTINUOUS
 62
         7
100
AcDbCircle
 10
1327.7033403763
 20
-1.1205274073
 30
0.0
 40
1.0
100
AcDbArc
 50
98.2971
 51
180.0
  0
LINE
  5
129
100
AcDbEntity
  8
_Y__________
  6
CONTINUOUS
 62
         7
100
AcDbLine
 10
1327.5590342598
 20
-0.1309943129
 30
0.0
 11
1392.6033403763
 21
9.3545815252
 31
0.0
  0
LINE
  5
12A
100
AcDbEntity
  8
_Y__________
  6
CONTINUOUS
 62
         7
100
AcDbLine
 10
1392.6033403763
 20
9.3545815252
 30
0.0
 11
1393.3497505378
 21
9.1545815252
 31
0.0
  0
LINE
  5
12B
100
AcDbEntity
  8
_Y__________
  6
CONTINUOUS
 62
         7
100
AcDbLine
 10
1393.3497505378
 20
9.1545815252
 30
0.0
 11
1393.7033403763
 21
9.1545815252
 31
0.0
  0
ARC
  5
12C
100
AcDbEntity
  8
_Y__________
  6
CONTINUOUS
 62
         7
100
AcDbCircle
 10
1393.7033403763
 20
9.5545815252
 30
0.0
 40
0.4
100
AcDbArc
 50
270.0
 51
360.0
  0
LINE
  5
12D
100
AcDbEntity
  8
_Y__________
  6
CONTINUOUS
 62
         7
100
AcDbLine
 10
1394.1033403763
 20
17.5566652593
 30
0.0
 11
1394.1033403763
 21
9.5545815252
 31
0.0
  0
LINE
  5
12E
100
AcDbEntity
  8
_Y__________
  6
CONTINUOUS
 62
         7
100
AcDbLine
 10
1395.1033403763
 20
18.5566652593
 30
0.0
 11
1403.7031983699
 21
18.5566652593
 31
0.0
  0
LINE
  5
12F
100
AcDbEntity
  8
_Y__________
  6
CONTINUOUS
 62
         7
100
AcDbLine
 10
1406.2033403763
 20
14.2262922782
 30
0.0
 11
1403.7031983699
 21
18.5566652593
 31
0.0
  0
LINE
  5
130
100
AcDbEntity
  8
_Y__________
  6
CONTINUOUS
 62
         7
100
AcDbLine
 10
1406.2033403763
 20
14.2262922782
 30
0.0
 11
1406.2033403763
 21
13.5566652593
 31
0.0
  0
LINE
  5
131
100
AcDbEntity
  8
_Y__________
  6
CONTINUOUS
 62
         7
100
AcDbLine
 10
1406.2033403763
 20
13.5566652593
 30
0.0
 11
1411.2033403763
 21
13.5566652593
 31
0.0
  0
LINE
  5
132
100
AcDbEntity
  8
_Y__________
  6
CONTINUOUS
 62
         7
100
AcDbLine
 10
1411.2033403763
 20
14.2262922782
 30
0.0
 11
1411.2033403763
 21
13.5566652593
 31
0.0
  0
LINE
  5
133
100
AcDbEntity
  8
_Y__________
  6
CONTINUOUS
 62
         7
100
AcDbLine
 10
1411.2033403763
 20
14.2262922782
 30
0.0
 11
1413.7034823826
 21
18.5566652593
 31
0.0
  0
LINE
  5
134
100
AcDbEntity
  8
_Y__________
  6
CONTINUOUS
 62
         7
100
AcDbLine
 10
1413.7034823826
 20
18.5566652593
 30
0.0
 11
1418.1033403763
 21
18.5566652593
 31
0.0
  0
LINE
  5
135
100
AcDbEntity
  8
_Y__________
  6
CONTINUOUS
 62
         7
100
AcDbLine
 10
1357.7033403763
 20
-4.9433347407
 30
0.0
 11
1357.7033403763
 21
-20.9433347407
 31
0.0
  0
LINE
  5
136
100
AcDbEntity
  8
_Y__________
  6
CENTER
 62
         1
100
AcDbLine
 10
1180.4233403763
 20
150.1846417294
 30
0.0
 11
1249.4233403763
 21
150.1846417294
 31
0.0
  0
CIRCLE
  5
137
100
AcDbEntity
  8
_Y__________
  6
CONTINUOUS
 62
         7
100
AcDbCircle
 10
1214.9233403763
 20
150.1846417294
 30
0.0
 40
31.5
  0
LINE
  5
138
100
AcDbEntity
  8
_Y__________
  6
CENTER
 62
         1
100
AcDbLine
 10
1214.9233403763
 20
184.6846417294
 30
0.0
 11
1214.9233403763
 21
115.6846417294
 31
0.0
  0
CIRCLE
  5
139
100
AcDbEntity
  8
_Y__________
  6
CONTINUOUS
 62
         7
100
AcDbCircle
 10
1214.9233403763
 20
150.1846417294
 30
0.0
 40
12.6875524223
  0
CIRCLE
  5
13A
100
AcDbEntity
  8
_Y__________
  6
CONTINUOUS
 62
         7
100
AcDbCircle
 10
1214.9233403763
 20
150.1846417294
 30
0.0
 40
22.2979162659
  0
CIRCLE
  5
13B
100
AcDbEntity
  8
_Y__________
  6
CONTINUOUS
 62
         7
100
AcDbCircle
 10
1214.9233403763
 20
150.1846417294
 30
0.0
 40
7.0
  0
CIRCLE
  5
13C
100
AcDbEntity
  8
_Y__________
  6
CONTINUOUS
 62
         7
100
AcDbCircle
 10
1214.9233403763
 20
150.1846417294
 30
0.0
 40
8.5
  0
ARC
  5
13D
100
AcDbEntity
  8
_Y__________
  6
CONTINUOUS
 62
         4
100
AcDbCircle
 10
1214.9233403763
 20
150.1846417294
 30
0.0
 40
8.0
100
AcDbArc
 50
265.563559301
 51
540.0
  0
LINE
  5
13E
100
AcDbEntity
  8
_Y__________
  6
CENTER
 62
         1
100
AcDbLine
 10
1588.7833403763
 20
150.1846417294
 30
0.0
 11
1657.7833403763
 21
150.1846417294
 31
0.0
  0
CIRCLE
  5
13F
100
AcDbEntity
  8
_Y__________
  6
CONTINUOUS
 62
         7
100
AcDbCircle
 10
1623.2833403763
 20
150.1846417294
 30
0.0
 40
31.5
  0
LINE
  5
140
100
AcDbEntity
  8
_Y__________
  6
CENTER
 62
         1
100
AcDbLine
 10
1623.2833403763
 20
184.6846417294
 30
0.0
 11
1623.2833403763
 21
111.6775086338
 31
0.0
  0
DIMENSION
  5
143
100
AcDbEntity
  8
L1_95
  6
CONTINUOUS
 62
         4
100
AcDbDimension
  2
*D4
 10
1522.2664748422
 20
2.5566652593
 30
0.0
 11
1519.1344748422
 21
-21.8912821954
 31
0.0
  3
DIMSTYLE1
100
AcDbAlignedDimension
 13
1485.1033403763
 23
2.5566652593
 33
0.0
 14
1485.1033403763
 24
-28.4433347407
 34
0.0
 50
90.0
100
AcDbRotatedDimension
  0
DIMENSION
  5
151
100
AcDbEntity
  8
L1_95
  6
CONTINUOUS
 62
         4
100
AcDbDimension
  2
*D5
 10
1487.1033403763
 20
-7.3994715241
 30
0.0
 11
1496.0359261987
 21
-4.2674715241
 31
0.0
  3
DIMSTYLE1
100
AcDbAlignedDimension
 13
1487.1033403763
 23
-4.1933347407
 33
0.0
 14
1480.3033403763
 24
-5.1933347407
 34
0.0
100
AcDbRotatedDimension
  0
DIMENSION
  5
161
100
AcDbEntity
  8
L1_95
  6
CONTINUOUS
 62
         4
100
AcDbDimension
  2
*D6
 10
1538.9993729239
 20
173.1846417294
 30
0.0
 11
1535.8673729239
 21
139.8692487338
 31
0.0
  3
DIMSTYLE1
100
AcDbAlignedDimension
 13
1439.6033403763
 23
173.1846417294
 33
0.0
 14
1439.6033403763
 24
127.1846417294
 34
0.0
 50
90.0
100
AcDbRotatedDimension
  0
DIMENSION
  5
16F
100
AcDbEntity
  8
L1_95
  6
CONTINUOUS
 62
         4
100
AcDbDimension
  2
*D7
 10
1529.12672698
 20
170.6846417294
 30
0.0
 11
1525.99472698
 21
140.6096971796
 31
0.0
  3
DIMSTYLE1
100
AcDbAlignedDimension
 13
1447.8533403763
 23
170.6846417294
 33
0.0
 14
1447.8533403763
 24
129.6846417294
 34
0.0
 50
90.0
100
AcDbRotatedDimension
  0
DIMENSION
  5
17D
100
AcDbEntity
  8
L1_95
  6
CONTINUOUS
 62
         4
100
AcDbDimension
  2
*D8
 10
1519.4515339551
 20
170.1846417294
 30
0.0
 11
1516.3195339551
 21
140.5790245109
 31
0.0
  3
DIMSTYLE1
100
AcDbAlignedDimension
 13
1486.6033403763
 23
170.1846417294
 33
0.0
 14
1486.6033403763
 24
130.1846417294
 34
0.0
 50
90.0
100
AcDbRotatedDimension
  0
DIMENSION
  5
18B
100
AcDbEntity
  8
L1_95
  6
CONTINUOUS
 62
         4
100
AcDbDimension
  2
*D9
 10
1510.1712467678
 20
169.1846417294
 30
0.0
 11
1507.0392467678
 21
140.0349214025
 31
0.0
  3
DIMSTYLE1
100
AcDbAlignedDimension
 13
1480.6033403763
 23
169.1846417294
 33
0.0
 14
1480.6033403763
 24
131.1846417294
 34
0.0
 50
90.0
100
AcDbRotatedDimension
  0
LINE
  5
197
100
AcDbEntity
  8
L1_95
  6
CENTER
 62
         1
100
AcDbLine
 10
1461.1533403763
 20
140.1846417294
 30
0.0
 11
1454.6533403763
 21
140.1846417294
 31
0.0
  0
POLYLINE
  5
199
100
AcDbEntity
  8
L1_95
  6
CONTINUOUS
 62
         7
100
AcDb2dPolyline
 66
         1
 10
0.0
 20
0.0
 30
0.0
 70
         2
  0
VERTEX
  5
19B
100
AcDbEntity
  8
L1_95
  6
CONTINUOUS
 62
         7
100
AcDbVertex
100
AcDb2dVertex
 10
1461.1533403763
 20
140.184644428
 30
0.0
 70
         1
  0
VERTEX
  5
19D
100
AcDbEntity
  8
L1_95
  6
CONTINUOUS
 62
         7
100
AcDbVertex
100
AcDb2dVertex
 10
1461.1009517616
 20
140.7117355357
 30
0.0
 70
         1
  0
VERTEX
  5
19F
100
AcDbEntity
  8
L1_95
  6
CONTINUOUS
 62
         7
100
AcDbVertex
100
AcDb2dVertex
 10
1461.052073759
 20
140.9146876663
 30
0.0
 70
         1
  0
VERTEX
  5
1A1
100
AcDbEntity
  8
L1_95
  6
CONTINUOUS
 62
         7
100
AcDbVertex
100
AcDb2dVertex
 10
1460.9858558583
 20
141.1186387552
 30
0.0
 70
         1
  0
VERTEX
  5
1A3
100
AcDbEntity
  8
L1_95
  6
CONTINUOUS
 62
         7
100
AcDbVertex
100
AcDb2dVertex
 10
1460.9017466881
 20
141.3217571034
 30
0.0
 70
         1
  0
VERTEX
  5
1A5
100
AcDbEntity
  8
L1_95
  6
CONTINUOUS
 62
         7
100
AcDbVertex
100
AcDb2dVertex
 10
1460.7995020355
 20
141.5220822096
 30
0.0
 70
         1
  0
VERTEX
  5
1A7
100
AcDbEntity
  8
L1_95
  6
CONTINUOUS
 62
         7
100
AcDbVertex
100
AcDb2dVertex
 10
1460.6792213218
 20
141.7175776734
 30
0.0
 70
         1
  0
VERTEX
  5
1A9
100
AcDbEntity
  8
L1_95
  6
CONTINUOUS
 62
         7
100
AcDbVertex
100
AcDb2dVertex
 10
1460.5413706004
 20
141.9061932783
 30
0.0
 70
         1
  0
VERTEX
  5
1AB
100
AcDbEntity
  8
L1_95
  6
CONTINUOUS
 62
         7
100
AcDbVertex
100
AcDb2dVertex
 10
1460.3867890044
 20
142.0859328709
 30
0.0
 70
         1
  0
VERTEX
  5
1AD
100
AcDbEntity
  8
L1_95
  6
CONTINUOUS
 62
         7
100
AcDbVertex
100
AcDb2dVertex
 10
1460.2166767959
 20
142.2549237375
 30
0.0
 70
         1
  0
VERTEX
  5
1AF
100
AcDbEntity
  8
L1_95
  6
CONTINUOUS
 62
         7
100
AcDbVertex
100
AcDb2dVertex
 10
1460.0325647412
 20
142.4114826806
 30
0.0
 70
         1
  0
VERTEX
  5
1B1
100
AcDbEntity
  8
L1_95
  6
CONTINUOUS
 62
         7
100
AcDbVertex
100
AcDb2dVertex
 10
1459.7669785949
 20
142.5993980841
 30
0.0
 70
         1
  0
VERTEX
  5
1B3
100
AcDbEntity
  8
L1_95
  6
CONTINUOUS
 62
         7
100
AcDbVertex
100
AcDb2dVertex
 10
1459.484474105
 20
142.75980831
 30
0.0
 70
         1
  0
VERTEX
  5
1B5
100
AcDbEntity
  8
L1_95
  6
CONTINUOUS
 62
         7
100
AcDbVertex
100
AcDb2dVertex
 10
1459.190405543
 20
142.8911569816
 30
0.0
 70
         1
  0
VERTEX
  5
1B7
100
AcDbEntity
  8
L1_95
  6
CONTINUOUS
 62
         7
100
AcDbVertex
100
AcDb2dVertex
 10
1458.8901965493
 20
142.9929706186
 30
0.0
 70
         1
  0
VERTEX
  5
1B9
100
AcDbEntity
  8
L1_95
  6
CONTINUOUS
 62
         7
100
AcDbVertex
100
AcDb2dVertex
 10
1458.5890358047
 20
143.0657897687
 30
0.0
 70
         1
  0
VERTEX
  5
1BB
100
AcDbEntity
  8
L1_95
  6
CONTINUOUS
 62
         7
100
AcDbVertex
100
AcDb2dVertex
 10
1458.2916272207
 20
143.1110273044
 30
0.0
 70
         1
  0
VERTEX
  5
1BD
100
AcDbEntity
  8
L1_95
  6
CONTINUOUS
 62
         7
100
AcDbVertex
100
AcDb2dVertex
 10
1458.0020133548
 20
143.1307800626
 30
0.0
 70
         1
  0
VERTEX
  5
1BF
100
AcDbEntity
  8
L1_95
  6
CONTINUOUS
 62
         7
100
AcDbVertex
100
AcDb2dVertex
 10
1457.7234772247
 20
143.1276216069
 30
0.0
 70
         1
  0
VERTEX
  5
1C1
100
AcDbEntity
  8
L1_95
  6
CONTINUOUS
 62
         7
100
AcDbVertex
100
AcDb2dVertex
 10
1457.3710561056
 20
143.0923385838
 30
0.0
 70
         1
  0
VERTEX
  5
1C3
100
AcDbEntity
  8
L1_95
  6
CONTINUOUS
 62
         7
100
AcDbVertex
100
AcDb2dVertex
 10
1457.0469823171
 20
143.027976723
 30
0.0
 70
         1
  0
VERTEX
  5
1C5
100
AcDbEntity
  8
L1_95
  6
CONTINUOUS
 62
         7
100
AcDbVertex
100
AcDb2dVertex
 10
1456.7531018019
 20
142.9413646542
 30
0.0
 70
         1
  0
VERTEX
  5
1C7
100
AcDbEntity
  8
L1_95
  6
CONTINUOUS
 62
         7
100
AcDbVertex
100
AcDb2dVertex
 10
1456.4896037841
 20
142.8386637751
 30
0.0
 70
         1
  0
VERTEX
  5
1C9
100
AcDbEntity
  8
L1_95
  6
CONTINUOUS
 62
         7
100
AcDbVertex
100
AcDb2dVertex
 10
1456.2554803818
 20
142.7251665666
 30
0.0
 70
         1
  0
VERTEX
  5
1CB
100
AcDbEntity
  8
L1_95
  6
CONTINUOUS
 62
         7
100
AcDbVertex
100
AcDb2dVertex
 10
1455.9833776352
 20
142.5628267514
 30
0.0
 70
         1
  0
VERTEX
  5
1CD
100
AcDbEntity
  8
L1_95
  6
CONTINUOUS
 62
         7
100
AcDbVertex
100
AcDb2dVertex
 10
1455.7556920046
 20
142.3968825304
 30
0.0
 70
         1
  0
VERTEX
  5
1CF
100
AcDbEntity
  8
L1_95
  6
CONTINUOUS
 62
         7
100
AcDbVertex
100
AcDb2dVertex
 10
1455.5664189089
 20
142.2330210313
 30
0.0
 70
         1
  0
VERTEX
  5
1D1
100
AcDbEntity
  8
L1_95
  6
CONTINUOUS
 62
         7
100
AcDbVertex
100
AcDb2dVertex
 10
1455.3614069881
 20
142.0212598575
 30
0.0
 70
         1
  0
VERTEX
  5
1D3
100
AcDbEntity
  8
L1_95
  6
CONTINUOUS
 62
         7
100
AcDbVertex
100
AcDb2dVertex
 10
1455.2032209493
 20
141.8251070694
 30
0.0
 70
         1
  0
VERTEX
  5
1D5
100
AcDbEntity
  8
L1_95
  6
CONTINUOUS
 62
         7
100
AcDbVertex
100
AcDb2dVertex
 10
1455.0447969758
 20
141.5870700421
 30
0.0
 70
         1
  0
VERTEX
  5
1D7
100
AcDbEntity
  8
L1_95
  6
CONTINUOUS
 62
         7
100
AcDbVertex
100
AcDb2dVertex
 10
1454.9333811288
 20
141.3815873414
 30
0.0
 70
         1
  0
VERTEX
  5
1D9
100
AcDbEntity
  8
L1_95
  6
CONTINUOUS
 62
         7
100
AcDbVertex
100
AcDb2dVertex
 10
1454.8319140542
 20
141.1482184326
 30
0.0
 70
         1
  0
VERTEX
  5
1DB
100
AcDbEntity
  8
L1_95
  6
CONTINUOUS
 62
         7
100
AcDbVertex
100
AcDb2dVertex
 10
1454.7506369257
 20
140.9004561482
 30
0.0
 70
         1
  0
VERTEX
  5
1DD
100
AcDbEntity
  8
L1_95
  6
CONTINUOUS
 62
         7
100
AcDbVertex
100
AcDb2dVertex
 10
1454.6958181229
 20
140.6596309131
 30
0.0
 70
         1
  0
VERTEX
  5
1DF
100
AcDbEntity
  8
L1_95
  6
CONTINUOUS
 62
         7
100
AcDbVertex
100
AcDb2dVertex
 10
1454.6666736864
 20
140.4513581855
 30
0.0
 70
         1
  0
VERTEX
  5
1E1
100
AcDbEntity
  8
L1_95
  6
CONTINUOUS
 62
         7
100
AcDbVertex
100
AcDb2dVertex
 10
1454.6533403763
 20
140.1846417294
 30
0.0
 70
         1
  0
SEQEND
  5
1E3
100
AcDbEntity
  8
L1_95
  6
CONTINUOUS
 62
         7
  0
POLYLINE
  5
1E5
100
AcDbEntity
  8
L1_95
  6
CONTINUOUS
 62
         7
100
AcDb2dPolyline
 66
         1
 10
0.0
 20
0.0
 30
0.0
 70
         2
  0
VERTEX
  5
1E7
100
AcDbEntity
  8
L1_95
  6
CONTINUOUS
 62
         7
100
AcDbVertex
100
AcDb2dVertex
 10
1454.6533403763
 20
140.1846417188
 30
0.0
 70
         1
  0
VERTEX
  5
1E9
100
AcDbEntity
  8
L1_95
  6
CONTINUOUS
 62
         7
100
AcDbVertex
100
AcDb2dVertex
 10
1454.705728418
 20
139.7050881061
 30
0.0
 70
         1
  0
VERTEX
  5
1EB
100
AcDbEntity
  8
L1_95
  6
CONTINUOUS
 62
         7
100
AcDbVertex
100
AcDb2dVertex
 10
1454.7546061803
 20
139.5204398641
 30
0.0
 70
         1
  0
VERTEX
  5
1ED
100
AcDbEntity
  8
L1_95
  6
CONTINUOUS
 62
         7
100
AcDbVertex
100
AcDb2dVertex
 10
1454.8208238308
 20
139.3348827351
 30
0.0
 70
         1
  0
VERTEX
  5
1EF
100
AcDbEntity
  8
L1_95
  6
CONTINUOUS
 62
         7
100
AcDbVertex
100
AcDb2dVertex
 10
1454.9049327452
 20
139.1500832191
 30
0.0
 70
         1
  0
VERTEX
  5
1F1
100
AcDbEntity
  8
L1_95
  6
CONTINUOUS
 62
         7
100
AcDbVertex
100
AcDb2dVertex
 10
1455.0071771409
 20
138.9678250021
 30
0.0
 70
         1
  0
VERTEX
  5
1F3
100
AcDbEntity
  8
L1_95
  6
CONTINUOUS
 62
         7
100
AcDbVertex
100
AcDb2dVertex
 10
1455.1274576015
 20
138.7899608247
 30
0.0
 70
         1
  0
VERTEX
  5
1F5
100
AcDbEntity
  8
L1_95
  6
CONTINUOUS
 62
         7
100
AcDbVertex
100
AcDb2dVertex
 10
1455.2653080792
 20
138.6183559988
 30
0.0
 70
         1
  0
VERTEX
  5
1F7
100
AcDbEntity
  8
L1_95
  6
CONTINUOUS
 62
         7
100
AcDbVertex
100
AcDb2dVertex
 10
1455.419889446
 20
138.4548266495
 30
0.0
 70
         1
  0
VERTEX
  5
1F9
100
AcDbEntity
  8
L1_95
  6
CONTINUOUS
 62
         7
100
AcDbVertex
100
AcDb2dVertex
 10
1455.5900014447
 20
138.3010765962
 30
0.0
 70
         1
  0
VERTEX
  5
1FB
100
AcDbEntity
  8
L1_95
  6
CONTINUOUS
 62
         7
100
AcDbVertex
100
AcDb2dVertex
 10
1455.7741133134
 20
138.1586372346
 30
0.0
 70
         1
  0
VERTEX
  5
1FD
100
AcDbEntity
  8
L1_95
  6
CONTINUOUS
 62
         7
100
AcDbVertex
100
AcDb2dVertex
 10
1456.0396992539
 20
137.9876693086
 30
0.0
 70
         1
  0
VERTEX
  5
1FF
100
AcDbEntity
  8
L1_95
  6
CONTINUOUS
 62
         7
100
AcDbVertex
100
AcDb2dVertex
 10
1456.3222035929
 20
137.8417259006
 30
0.0
 70
         1
  0
VERTEX
  5
201
100
AcDbEntity
  8
L1_95
  6
CONTINUOUS
 62
         7
100
AcDbVertex
100
AcDb2dVertex
 10
1456.6162720616
 20
137.7222230312
 30
0.0
 70
         1
  0
VERTEX
  5
203
100
AcDbEntity
  8
L1_95
  6
CONTINUOUS
 62
         7
100
AcDbVertex
100
AcDb2dVertex
 10
1456.9164810184
 20
137.6295914886
 30
0.0
 70
         1
  0
VERTEX
  5
205
100
AcDbEntity
  8
L1_95
  6
CONTINUOUS
 62
         7
100
AcDbVertex
100
AcDb2dVertex
 10
1457.2176417789
 20
137.5633394853
 30
0.0
 70
         1
  0
VERTEX
  5
207
100
AcDbEntity
  8
L1_95
  6
CONTINUOUS
 62
         7
100
AcDbVertex
100
AcDb2dVertex
 10
1457.5150504252
 20
137.5221815805
 30
0.0
 70
         1
  0
VERTEX
  5
209
100
AcDbEntity
  8
L1_95
  6
CONTINUOUS
 62
         7
100
AcDbVertex
100
AcDb2dVertex
 10
1457.8046643921
 20
137.5042100527
 30
0.0
 70
         1
  0
VERTEX
  5
20B
100
AcDbEntity
  8
L1_95
  6
CONTINUOUS
 62
         7
100
AcDbVertex
100
AcDb2dVertex
 10
1458.1757573773
 20
137.5124108965
 30
0.0
 70
         1
  0
VERTEX
  5
20D
100
AcDbEntity
  8
L1_95
  6
CONTINUOUS
 62
         7
100
AcDbVertex
100
AcDb2dVertex
 10
1458.5212211121
 20
137.55188357
 30
0.0
 70
         1
  0
VERTEX
  5
20F
100
AcDbEntity
  8
L1_95
  6
CONTINUOUS
 62
         7
100
AcDbVertex
100
AcDb2dVertex
 10
1458.8376826551
 20
137.6161839398
 30
0.0
 70
         1
  0
VERTEX
  5
211
100
AcDbEntity
  8
L1_95
  6
CONTINUOUS
 62
         7
100
AcDbVertex
100
AcDb2dVertex
 10
1459.1237636896
 20
137.6992279271
 30
0.0
 70
         1
  0
VERTEX
  5
213
100
AcDbEntity
  8
L1_95
  6
CONTINUOUS
 62
         7
100
AcDbVertex
100
AcDb2dVertex
 10
1459.3796234139
 20
137.7956003552
 30
0.0
 70
         1
  0
VERTEX
  5
215
100
AcDbEntity
  8
L1_95
  6
CONTINUOUS
 62
         7
100
AcDbVertex
100
AcDb2dVertex
 10
1459.6787306755
 20
137.9384589664
 30
0.0
 70
         1
  0
VERTEX
  5
217
100
AcDbEntity
  8
L1_95
  6
CONTINUOUS
 62
         7
100
AcDbVertex
100
AcDb2dVertex
 10
1459.9302411841
 20
138.0883971465
 30
0.0
 70
         1
  0
VERTEX
  5
219
100
AcDbEntity
  8
L1_95
  6
CONTINUOUS
 62
         7
100
AcDbVertex
100
AcDb2dVertex
 10
1460.1400094873
 20
138.2390501686
 30
0.0
 70
         1
  0
VERTEX
  5
21B
100
AcDbEntity
  8
L1_95
  6
CONTINUOUS
 62
         7
100
AcDbVertex
100
AcDb2dVertex
 10
1460.3677418698
 20
138.4363763869
 30
0.0
 70
         1
  0
VERTEX
  5
21D
100
AcDbEntity
  8
L1_95
  6
CONTINUOUS
 62
         7
100
AcDbVertex
100
AcDb2dVertex
 10
1460.5436793738
 20
138.6210045038
 30
0.0
 70
         1
  0
VERTEX
  5
21F
100
AcDbEntity
  8
L1_95
  6
CONTINUOUS
 62
         7
100
AcDbVertex
100
AcDb2dVertex
 10
1460.6792994131
 20
138.7900641723
 30
0.0
 70
         1
  0
VERTEX
  5
221
100
AcDbEntity
  8
L1_95
  6
CONTINUOUS
 62
         7
100
AcDbVertex
100
AcDb2dVertex
 10
1460.8151759
 20
138.9935623912
 30
0.0
 70
         1
  0
VERTEX
  5
223
100
AcDbEntity
  8
L1_95
  6
CONTINUOUS
 62
         7
100
AcDbVertex
100
AcDb2dVertex
 10
1460.938545885
 20
139.2259191427
 30
0.0
 70
         1
  0
VERTEX
  5
225
100
AcDbEntity
  8
L1_95
  6
CONTINUOUS
 62
         7
100
AcDbVertex
100
AcDb2dVertex
 10
1461.0156304001
 20
139.4122971885
 30
0.0
 70
         1
  0
VERTEX
  5
227
100
AcDbEntity
  8
L1_95
  6
CONTINUOUS
 62
         7
100
AcDbVertex
100
AcDb2dVertex
 10
1461.0778164678
 20
139.6098867592
 30
0.0
 70
         1
  0
VERTEX
  5
229
100
AcDbEntity
  8
L1_95
  6
CONTINUOUS
 62
         7
100
AcDbVertex
100
AcDb2dVertex
 10
1461.1201330533
 20
139.802272399
 30
0.0
 70
         1
  0
VERTEX
  5
22B
100
AcDbEntity
  8
L1_95
  6
CONTINUOUS
 62
         7
100
AcDbVertex
100
AcDb2dVertex
 10
1461.1474424955
 20
140.0231578402
 30
0.0
 70
         1
  0
VERTEX
  5
22D
100
AcDbEntity
  8
L1_95
  6
CONTINUOUS
 62
         7
100
AcDbVertex
100
AcDb2dVertex
 10
1461.1533403763
 20
140.1846417294
 30
0.0
 70
         1
  0
SEQEND
  5
22F
100
AcDbEntity
  8
L1_95
  6
CONTINUOUS
 62
         7
  0
LINE
  5
230
100
AcDbEntity
  8
L1_95
  6
CENTER
 62
         1
100
AcDbLine
 10
1461.1533403763
 20
160.1846417294
 30
0.0
 11
1454.6533403763
 21
160.1846417294
 31
0.0
  0
POLYLINE
  5
232
100
AcDbEntity
  8
L1_95
  6
CONTINUOUS
 62
         7
100
AcDb2dPolyline
 66
         1
 10
0.0
 20
0.0
 30
0.0
 70
         2
  0
VERTEX
  5
234
100
AcDbEntity
  8
L1_95
  6
CONTINUOUS
 62
         7
100
AcDbVertex
100
AcDb2dVertex
 10
1454.6533403763
 20
160.1846417294
 30
0.0
 70
         1
  0
VERTEX
  5
236
100
AcDbEntity
  8
L1_95
  6
CONTINUOUS
 62
         7
100
AcDbVertex
100
AcDb2dVertex
 10
1454.7057283636
 20
159.6575510529
 30
0.0
 70
         1
  0
VERTEX
  5
238
100
AcDbEntity
  8
L1_95
  6
CONTINUOUS
 62
         7
100
AcDbVertex
100
AcDb2dVertex
 10
1454.754606074
 20
159.4545990546
 30
0.0
 70
         1
  0
VERTEX
  5
23A
100
AcDbEntity
  8
L1_95
  6
CONTINUOUS
 62
         7
100
AcDbVertex
100
AcDb2dVertex
 10
1454.8208236525
 20
159.2506480742
 30
0.0
 70
         1
  0
VERTEX
  5
23C
100
AcDbEntity
  8
L1_95
  6
CONTINUOUS
 62
         7
100
AcDbVertex
100
AcDb2dVertex
 10
1454.9049324736
 20
159.0475298056
 30
0.0
 70
         1
  0
VERTEX
  5
23E
100
AcDbEntity
  8
L1_95
  6
CONTINUOUS
 62
         7
100
AcDbVertex
100
AcDb2dVertex
 10
1455.0071767542
 20
158.8472047451
 30
0.0
 70
         1
  0
VERTEX
  5
240
100
AcDbEntity
  8
L1_95
  6
CONTINUOUS
 62
         7
100
AcDbVertex
100
AcDb2dVertex
 10
1455.1274570783
 20
158.651709289
 30
0.0
 70
         1
  0
VERTEX
  5
242
100
AcDbEntity
  8
L1_95
  6
CONTINUOUS
 62
         7
100
AcDbVertex
100
AcDb2dVertex
 10
1455.2653073991
 20
158.4630936503
 30
0.0
 70
         1
  0
VERTEX
  5
244
100
AcDbEntity
  8
L1_95
  6
CONTINUOUS
 62
         7
100
AcDbVertex
100
AcDb2dVertex
 10
1455.4198885907
 20
158.2833539801
 30
0.0
 70
         1
  0
VERTEX
  5
246
100
AcDbEntity
  8
L1_95
  6
CONTINUOUS
 62
         7
100
AcDbVertex
100
AcDb2dVertex
 10
1455.5900003987
 20
158.1143629913
 30
0.0
 70
         1
  0
VERTEX
  5
248
100
AcDbEntity
  8
L1_95
  6
CONTINUOUS
 62
         7
100
AcDbVertex
100
AcDb2dVertex
 10
1455.7741120649
 20
157.9578038818
 30
0.0
 70
         1
  0
VERTEX
  5
24A
100
AcDbEntity
  8
L1_95
  6
CONTINUOUS
 62
         7
100
AcDbVertex
100
AcDb2dVertex
 10
1456.0396977228
 20
157.7698881899
 30
0.0
 70
         1
  0
VERTEX
  5
24C
100
AcDbEntity
  8
L1_95
  6
CONTINUOUS
 62
         7
100
AcDbVertex
100
AcDb2dVertex
 10
1456.3222017766
 20
157.6094776086
 30
0.0
 70
         1
  0
VERTEX
  5
24E
100
AcDbEntity
  8
L1_95
  6
CONTINUOUS
 62
         7
100
AcDbVertex
100
AcDb2dVertex
 10
1456.6162699684
 20
157.4781285272
 30
0.0
 70
         1
  0
VERTEX
  5
250
100
AcDbEntity
  8
L1_95
  6
CONTINUOUS
 62
         7
100
AcDbVertex
100
AcDb2dVertex
 10
1456.9164786669
 20
157.3763144403
 30
0.0
 70
         1
  0
VERTEX
  5
252
100
AcDbEntity
  8
L1_95
  6
CONTINUOUS
 62
         7
100
AcDbVertex
100
AcDb2dVertex
 10
1457.2176391962
 20
157.303494816
 30
0.0
 70
         1
  0
VERTEX
  5
254
100
AcDbEntity
  8
L1_95
  6
CONTINUOUS
 62
         7
100
AcDbVertex
100
AcDb2dVertex
 10
1457.5150476445
 20
157.2582567969
 30
0.0
 70
         1
  0
VERTEX
  5
256
100
AcDbEntity
  8
L1_95
  6
CONTINUOUS
 62
         7
100
AcDbVertex
100
AcDb2dVertex
 10
1457.8046614507
 20
157.23850356
 30
0.0
 70
         1
  0
VERTEX
  5
258
100
AcDbEntity
  8
L1_95
  6
CONTINUOUS
 62
         7
100
AcDbVertex
100
AcDb2dVertex
 10
1458.0831975905
 20
157.2416615535
 30
0.0
 70
         1
  0
VERTEX
  5
25A
100
AcDbEntity
  8
L1_95
  6
CONTINUOUS
 62
         7
100
AcDbVertex
100
AcDb2dVertex
 10
1458.4356188158
 20
157.276943997
 30
0.0
 70
         1
  0
VERTEX
  5
25C
100
AcDbEntity
  8
L1_95
  6
CONTINUOUS
 62
         7
100
AcDbVertex
100
AcDb2dVertex
 10
1458.7596927961
 20
157.3413053388
 30
0.0
 70
         1
  0
VERTEX
  5
25E
100
AcDbEntity
  8
L1_95
  6
CONTINUOUS
 62
         7
100
AcDbVertex
100
AcDb2dVertex
 10
1459.0535735649
 20
157.4279169562
 30
0.0
 70
         1
  0
VERTEX
  5
260
100
AcDbEntity
  8
L1_95
  6
CONTINUOUS
 62
         7
100
AcDbVertex
100
AcDb2dVertex
 10
1459.3170718766
 20
157.5306174528
 30
0.0
 70
         1
  0
VERTEX
  5
262
100
AcDbEntity
  8
L1_95
  6
CONTINUOUS
 62
         7
100
AcDbVertex
100
AcDb2dVertex
 10
1459.5511955955
 20
157.6441143446
 30
0.0
 70
         1
  0
VERTEX
  5
264
100
AcDbEntity
  8
L1_95
  6
CONTINUOUS
 62
         7
100
AcDbVertex
100
AcDb2dVertex
 10
1459.8232987794
 20
157.8064538269
 30
0.0
 70
         1
  0
VERTEX
  5
266
100
AcDbEntity
  8
L1_95
  6
CONTINUOUS
 62
         7
100
AcDbVertex
100
AcDb2dVertex
 10
1460.0509848384
 20
157.9723978067
 30
0.0
 70
         1
  0
VERTEX
  5
268
100
AcDbEntity
  8
L1_95
  6
CONTINUOUS
 62
         7
100
AcDbVertex
100
AcDb2dVertex
 10
1460.2402583387
 20
158.1362591385
 30
0.0
 70
         1
  0
VERTEX
  5
26A
100
AcDbEntity
  8
L1_95
  6
CONTINUOUS
 62
         7
100
AcDbVertex
100
AcDb2dVertex
 10
1460.4452707551
 20
158.3480201755
 30
0.0
 70
         1
  0
VERTEX
  5
26C
100
AcDbEntity
  8
L1_95
  6
CONTINUOUS
 62
         7
100
AcDbVertex
100
AcDb2dVertex
 10
1460.6034572254
 20
158.5441728996
 30
0.0
 70
         1
  0
VERTEX
  5
26E
100
AcDbEntity
  8
L1_95
  6
CONTINUOUS
 62
         7
100
AcDbVertex
100
AcDb2dVertex
 10
1460.7618816873
 20
158.7822099138
 30
0.0
 70
         1
  0
VERTEX
  5
270
100
AcDbEntity
  8
L1_95
  6
CONTINUOUS
 62
         7
100
AcDbVertex
100
AcDb2dVertex
 10
1460.8732979247
 20
158.9876926499
 30
0.0
 70
         1
  0
VERTEX
  5
272
100
AcDbEntity
  8
L1_95
  6
CONTINUOUS
 62
         7
100
AcDbVertex
100
AcDb2dVertex
 10
1460.9747654076
 20
159.2210616422
 30
0.0
 70
         1
  0
VERTEX
  5
274
100
AcDbEntity
  8
L1_95
  6
CONTINUOUS
 62
         7
100
AcDbVertex
100
AcDb2dVertex
 10
1461.0560429287
 20
159.468824057
 30
0.0
 70
         1
  0
VERTEX
  5
276
100
AcDbEntity
  8
L1_95
  6
CONTINUOUS
 62
         7
100
AcDbVertex
100
AcDb2dVertex
 10
1461.1108620728
 20
159.7096494532
 30
0.0
 70
         1
  0
VERTEX
  5
278
100
AcDbEntity
  8
L1_95
  6
CONTINUOUS
 62
         7
100
AcDbVertex
100
AcDb2dVertex
 10
1461.1400067724
 20
159.9179223426
 30
0.0
 70
         1
  0
VERTEX
  5
27A
100
AcDbEntity
  8
L1_95
  6
CONTINUOUS
 62
         7
100
AcDbVertex
100
AcDb2dVertex
 10
1461.1533403763
 20
160.1846390308
 30
0.0
 70
         1
  0
SEQEND
  5
27C
100
AcDbEntity
  8
L1_95
  6
CONTINUOUS
 62
         7
  0
POLYLINE
  5
27E
100
AcDbEntity
  8
L1_95
  6
CONTINUOUS
 62
         7
100
AcDb2dPolyline
 66
         1
 10
0.0
 20
0.0
 30
0.0
 70
         2
  0
VERTEX
  5
280
100
AcDbEntity
  8
L1_95
  6
CONTINUOUS
 62
         7
100
AcDbVertex
100
AcDb2dVertex
 10
1461.1533403763
 20
160.1846417294
 30
0.0
 70
         1
  0
VERTEX
  5
282
100
AcDbEntity
  8
L1_95
  6
CONTINUOUS
 62
         7
100
AcDbVertex
100
AcDb2dVertex
 10
1461.1009523373
 20
160.6641953404
 30
0.0
 70
         1
  0
VERTEX
  5
284
100
AcDbEntity
  8
L1_95
  6
CONTINUOUS
 62
         7
100
AcDbVertex
100
AcDb2dVertex
 10
1461.0520745762
 20
160.8488435819
 30
0.0
 70
         1
  0
VERTEX
  5
286
100
AcDbEntity
  8
L1_95
  6
CONTINUOUS
 62
         7
100
AcDbVertex
100
AcDb2dVertex
 10
1460.985856927
 20
161.0344007104
 30
0.0
 70
         1
  0
VERTEX
  5
288
100
AcDbEntity
  8
L1_95
  6
CONTINUOUS
 62
         7
100
AcDbVertex
100
AcDb2dVertex
 10
1460.9017480142
 20
161.2192002261
 30
0.0
 70
         1
  0
VERTEX
  5
28A
100
AcDbEntity
  8
L1_95
  6
CONTINUOUS
 62
         7
100
AcDbVertex
100
AcDb2dVertex
 10
1460.7995036201
 20
161.401458443
 30
0.0
 70
         1
  0
VERTEX
  5
28C
100
AcDbEntity
  8
L1_95
  6
CONTINUOUS
 62
         7
100
AcDbVertex
100
AcDb2dVertex
 10
1460.6792231611
 20
161.5793226203
 30
0.0
 70
         1
  0
VERTEX
  5
28E
100
AcDbEntity
  8
L1_95
  6
CONTINUOUS
 62
         7
100
AcDbVertex
100
AcDb2dVertex
 10
1460.5413726852
 20
161.7509274464
 30
0.0
 70
         1
  0
VERTEX
  5
290
100
AcDbEntity
  8
L1_95
  6
CONTINUOUS
 62
         7
100
AcDbVertex
100
AcDb2dVertex
 10
1460.3867913201
 20
161.9144567959
 30
0.0
 70
         1
  0
VERTEX
  5
292
100
AcDbEntity
  8
L1_95
  6
CONTINUOUS
 62
         7
100
AcDbVertex
100
AcDb2dVertex
 10
1460.2166793231
 20
162.0682068498
 30
0.0
 70
         1
  0
VERTEX
  5
294
100
AcDbEntity
  8
L1_95
  6
CONTINUOUS
 62
         7
100
AcDbVertex
100
AcDb2dVertex
 10
1460.0325674562
 20
162.210646212
 30
0.0
 70
         1
  0
VERTEX
  5
296
100
AcDbEntity
  8
L1_95
  6
CONTINUOUS
 62
         7
100
AcDbVertex
100
AcDb2dVertex
 10
1459.7669815178
 20
162.3816141391
 30
0.0
 70
         1
  0
VERTEX
  5
298
100
AcDbEntity
  8
L1_95
  6
CONTINUOUS
 62
         7
100
AcDbVertex
100
AcDb2dVertex
 10
1459.4844771806
 20
162.5275575485
 30
0.0
 70
         1
  0
VERTEX
  5
29A
100
AcDbEntity
  8
L1_95
  6
CONTINUOUS
 62
         7
100
AcDbVertex
100
AcDb2dVertex
 10
1459.1904087135
 20
162.6470604195
 30
0.0
 70
         1
  0
VERTEX
  5
29C
100
AcDbEntity
  8
L1_95
  6
CONTINUOUS
 62
         7
100
AcDbVertex
100
AcDb2dVertex
 10
1458.890199758
 20
162.7396919639
 30
0.0
 70
         1
  0
VERTEX
  5
29E
100
AcDbEntity
  8
L1_95
  6
CONTINUOUS
 62
         7
100
AcDbVertex
100
AcDb2dVertex
 10
1458.5890389984
 20
162.805943969
 30
0.0
 70
         1
  0
VERTEX
  5
2A0
100
AcDbEntity
  8
L1_95
  6
CONTINUOUS
 62
         7
100
AcDbVertex
100
AcDb2dVertex
 10
1458.2916303527
 20
162.8471018757
 30
0.0
 70
         1
  0
VERTEX
  5
2A2
100
AcDbEntity
  8
L1_95
  6
CONTINUOUS
 62
         7
100
AcDbVertex
100
AcDb2dVertex
 10
1458.0020163861
 20
162.8650734054
 30
0.0
 70
         1
  0
VERTEX
  5
2A4
100
AcDbEntity
  8
L1_95
  6
CONTINUOUS
 62
         7
100
AcDbVertex
100
AcDb2dVertex
 10
1457.6309234007
 20
162.8568725641
 30
0.0
 70
         1
  0
VERTEX
  5
2A6
100
AcDbEntity
  8
L1_95
  6
CONTINUOUS
 62
         7
100
AcDbVertex
100
AcDb2dVertex
 10
1457.2854596654
 20
162.8173998927
 30
0.0
 70
         1
  0
VERTEX
  5
2A8
100
AcDbEntity
  8
L1_95
  6
CONTINUOUS
 62
         7
100
AcDbVertex
100
AcDb2dVertex
 10
1456.9689981215
 20
162.7530995249
 30
0.0
 70
         1
  0
VERTEX
  5
2AA
100
AcDbEntity
  8
L1_95
  6
CONTINUOUS
 62
         7
100
AcDbVertex
100
AcDb2dVertex
 10
1456.6829170858
 20
162.6700555393
 30
0.0
 70
         1
  0
VERTEX
  5
2AC
100
AcDbEntity
  8
L1_95
  6
CONTINUOUS
 62
         7
100
AcDbVertex
100
AcDb2dVertex
 10
1456.4270573602
 20
162.5736831127
 30
0.0
 70
         1
  0
VERTEX
  5
2AE
100
AcDbEntity
  8
L1_95
  6
CONTINUOUS
 62
         7
100
AcDbVertex
100
AcDb2dVertex
 10
1456.1279500967
 20
162.430824503
 30
0.0
 70
         1
  0
VERTEX
  5
2B0
100
AcDbEntity
  8
L1_95
  6
CONTINUOUS
 62
         7
100
AcDbVertex
100
AcDb2dVertex
 10
1455.8764395862
 20
162.2808863241
 30
0.0
 70
         1
  0
VERTEX
  5
2B2
100
AcDbEntity
  8
L1_95
  6
CONTINUOUS
 62
         7
100
AcDbVertex
100
AcDb2dVertex
 10
1455.6666712813
 20
162.1302333028
 30
0.0
 70
         1
  0
VERTEX
  5
2B4
100
AcDbEntity
  8
L1_95
  6
CONTINUOUS
 62
         7
100
AcDbVertex
100
AcDb2dVertex
 10
1455.4389388965
 20
161.9329070851
 30
0.0
 70
         1
  0
VERTEX
  5
2B6
100
AcDbEntity
  8
L1_95
  6
CONTINUOUS
 62
         7
100
AcDbVertex
100
AcDb2dVertex
 10
1455.2630013905
 20
161.7482789686
 30
0.0
 70
         1
  0
VERTEX
  5
2B8
100
AcDbEntity
  8
L1_95
  6
CONTINUOUS
 62
         7
100
AcDbVertex
100
AcDb2dVertex
 10
1455.1273813496
 20
161.5792193002
 30
0.0
 70
         1
  0
VERTEX
  5
2BA
100
AcDbEntity
  8
L1_95
  6
CONTINUOUS
 62
         7
100
AcDbVertex
100
AcDb2dVertex
 10
1454.9915048608
 20
161.3757210813
 30
0.0
 70
         1
  0
VERTEX
  5
2BC
100
AcDbEntity
  8
L1_95
  6
CONTINUOUS
 62
         7
100
AcDbVertex
100
AcDb2dVertex
 10
1454.8681348737
 20
161.1433643295
 30
0.0
 70
         1
  0
VERTEX
  5
2BE
100
AcDbEntity
  8
L1_95
  6
CONTINUOUS
 62
         7
100
AcDbVertex
100
AcDb2dVertex
 10
1454.7910503572
 20
160.9569862833
 30
0.0
 70
         1
  0
VERTEX
  5
2C0
100
AcDbEntity
  8
L1_95
  6
CONTINUOUS
 62
         7
100
AcDbVertex
100
AcDb2dVertex
 10
1454.728864288
 20
160.7593967121
 30
0.0
 70
         1
  0
VERTEX
  5
2C2
100
AcDbEntity
  8
L1_95
  6
CONTINUOUS
 62
         7
100
AcDbVertex
100
AcDb2dVertex
 10
1454.6865477013
 20
160.5670110718
 30
0.0
 70
         1
  0
VERTEX
  5
2C4
100
AcDbEntity
  8
L1_95
  6
CONTINUOUS
 62
         7
100
AcDbVertex
100
AcDb2dVertex
 10
1454.6592382579
 20
160.3461256298
 30
0.0
 70
         1
  0
VERTEX
  5
2C6
100
AcDbEntity
  8
L1_95
  6
CONTINUOUS
 62
         7
100
AcDbVertex
100
AcDb2dVertex
 10
1454.6533403763
 20
160.18464174
 30
0.0
 70
         1
  0
SEQEND
  5
2C8
100
AcDbEntity
  8
L1_95
  6
CONTINUOUS
 62
         7
  0
LINE
  5
2C9
100
AcDbEntity
  8
L1_95
  6
CENTER
 62
         1
100
AcDbLine
 10
1457.9033403763
 20
130.1846417294
 30
0.0
 11
1457.9033403763
 21
170.1846417294
 31
0.0
  0
LINE
  5
2CA
100
AcDbEntity
  8
L1_95
  6
CONTINUOUS
 62
         7
100
AcDbLine
 10
1636.4053638483
 20
142.1096417294
 30
0.0
 11
1641.5024923873
 21
142.1096417294
 31
0.0
  0
LINE
  5
2CB
100
AcDbEntity
  8
L1_95
  6
CONTINUOUS
 62
         7
100
AcDbLine
 10
1636.4053638483
 20
158.2596417294
 30
0.0
 11
1641.5024923873
 21
158.2596417294
 31
0.0
  0
LINE
  5
2CC
100
AcDbEntity
  8
L1_95
  6
CONTINUOUS
 62
         7
100
AcDbLine
 10
1610.1613169042
 20
142.1096417294
 30
0.0
 11
1605.0641883652
 21
142.1096417294
 31
0.0
  0
LINE
  5
2CD
100
AcDbEntity
  8
L1_95
  6
CONTINUOUS
 62
         7
100
AcDbLine
 10
1610.1613169042
 20
158.2596417294
 30
0.0
 11
1605.0641883652
 21
158.2596417294
 31
0.0
  0
LINE
  5
2CE
100
AcDbEntity
  8
L1_95
  6
DASHED
 62
         2
100
AcDbLine
 10
1638.6808366755
 20
155.3216136132
 30
0.0
 11
1635.4308366758
 21
160.9507787373
 31
0.0
  0
LINE
  5
2CF
100
AcDbEntity
  8
L1_95
  6
DASHED
 62
         2
100
AcDbLine
 10
1638.3308366755
 20
155.3216136132
 30
0.0
 11
1635.2558366758
 21
160.647669846
 31
0.0
  0
LINE
  5
2D0
100
AcDbEntity
  8
L1_95
  6
DASHED
 62
         2
100
AcDbLine
 10
1638.6808366755
 20
155.3216136132
 30
0.0
 11
1641.9986336738
 21
157.2371446033
 31
0.0
  0
LINE
  5
2D1
100
AcDbEntity
  8
L1_95
  6
DASHED
 62
         2
100
AcDbLine
 10
1637.9774273671
 20
155.1175726539
 30
0.0
 11
1638.3308366755
 21
155.3216136132
 31
0.0
  0
LINE
  5
2D2
100
AcDbEntity
  8
L1_95
  6
DASHED
 62
         2
100
AcDbLine
 10
1638.6808366755
 20
155.3216136132
 30
0.0
 11
1638.3308366755
 21
155.3216136132
 31
0.0
  0
LINE
  5
2D3
100
AcDbEntity
  8
L1_95
  6
DASHED
 62
         2
100
AcDbLine
 10
1634.9024273674
 20
160.4436288866
 30
0.0
 11
1635.2558366758
 21
160.647669846
 31
0.0
  0
LINE
  5
2D4
100
AcDbEntity
  8
L1_95
  6
DASHED
 62
         2
100
AcDbLine
 10
1635.4308366758
 20
160.9507787373
 30
0.0
 11
1635.2558366758
 21
160.647669846
 31
0.0
  0
LINE
  5
2D5
100
AcDbEntity
  8
L1_95
  6
DASHED
 62
         2
100
AcDbLine
 10
1635.4308366758
 20
160.9507787373
 30
0.0
 11
1638.7486336741
 21
162.8663097274
 31
0.0
  0
LINE
  5
2D6
100
AcDbEntity
  8
L1_95
  6
DASHED
 62
         2
100
AcDbLine
 10
1635.4308366758
 20
139.4185047215
 30
0.0
 11
1638.6808366755
 21
145.0476698455
 31
0.0
  0
LINE
  5
2D7
100
AcDbEntity
  8
L1_95
  6
DASHED
 62
         2
100
AcDbLine
 10
1635.2558366758
 20
139.7216136128
 30
0.0
 11
1638.3308366755
 21
145.0476698455
 31
0.0
  0
LINE
  5
2D8
100
AcDbEntity
  8
L1_95
  6
DASHED
 62
         2
100
AcDbLine
 10
1635.4308366758
 20
139.4185047215
 30
0.0
 11
1638.7486336741
 21
137.5029737314
 31
0.0
  0
LINE
  5
2D9
100
AcDbEntity
  8
L1_95
  6
DASHED
 62
         2
100
AcDbLine
 10
1634.9024273674
 20
139.9256545722
 30
0.0
 11
1635.2558366758
 21
139.7216136128
 31
0.0
  0
LINE
  5
2DA
100
AcDbEntity
  8
L1_95
  6
DASHED
 62
         2
100
AcDbLine
 10
1635.4308366758
 20
139.4185047215
 30
0.0
 11
1635.2558366758
 21
139.7216136128
 31
0.0
  0
LINE
  5
2DB
100
AcDbEntity
  8
L1_95
  6
DASHED
 62
         2
100
AcDbLine
 10
1637.9774273671
 20
145.2517108049
 30
0.0
 11
1638.3308366755
 21
145.0476698455
 31
0.0
  0
LINE
  5
2DC
100
AcDbEntity
  8
L1_95
  6
DASHED
 62
         2
100
AcDbLine
 10
1638.6808366755
 20
145.0476698455
 30
0.0
 11
1638.3308366755
 21
145.0476698455
 31
0.0
  0
LINE
  5
2DD
100
AcDbEntity
  8
L1_95
  6
DASHED
 62
         2
100
AcDbLine
 10
1638.6808366755
 20
145.0476698455
 30
0.0
 11
1641.9986336738
 21
143.1321388554
 31
0.0
  0
LINE
  5
2DE
100
AcDbEntity
  8
L1_95
  6
DASHED
 62
         2
100
AcDbLine
 10
1620.0333403766
 20
134.2815328377
 30
0.0
 11
1626.5333403759
 21
134.2815328377
 31
0.0
  0
LINE
  5
2DF
100
AcDbEntity
  8
L1_95
  6
DASHED
 62
         2
100
AcDbLine
 10
1620.2083403766
 20
134.5846417289
 30
0.0
 11
1626.3583403759
 21
134.5846417289
 31
0.0
  0
LINE
  5
2E0
100
AcDbEntity
  8
L1_95
  6
DASHED
 62
         2
100
AcDbLine
 10
1620.0333403766
 20
134.2815328377
 30
0.0
 11
1620.0333403766
 21
130.4504708575
 31
0.0
  0
LINE
  5
2E1
100
AcDbEntity
  8
L1_95
  6
DASHED
 62
         2
100
AcDbLine
 10
1620.2083403766
 20
134.9927236477
 30
0.0
 11
1620.2083403766
 21
134.5846417289
 31
0.0
  0
LINE
  5
2E2
100
AcDbEntity
  8
L1_95
  6
DASHED
 62
         2
100
AcDbLine
 10
1620.0333403766
 20
134.2815328377
 30
0.0
 11
1620.2083403766
 21
134.5846417289
 31
0.0
  0
LINE
  5
2E3
100
AcDbEntity
  8
L1_95
  6
DASHED
 62
         2
100
AcDbLine
 10
1626.3583403759
 20
134.9927236477
 30
0.0
 11
1626.3583403759
 21
134.5846417289
 31
0.0
  0
LINE
  5
2E4
100
AcDbEntity
  8
L1_95
  6
DASHED
 62
         2
100
AcDbLine
 10
1626.5333403759
 20
134.2815328377
 30
0.0
 11
1626.3583403759
 21
134.5846417289
 31
0.0
  0
LINE
  5
2E5
100
AcDbEntity
  8
L1_95
  6
DASHED
 62
         2
100
AcDbLine
 10
1626.5333403759
 20
134.2815328377
 30
0.0
 11
1626.5333403759
 21
130.4504708575
 31
0.0
  0
LINE
  5
2E6
100
AcDbEntity
  8
L1_95
  6
DASHED
 62
         2
100
AcDbLine
 10
1607.885844077
 20
145.0476698455
 30
0.0
 11
1611.1358440767
 21
139.4185047215
 31
0.0
  0
LINE
  5
2E7
100
AcDbEntity
  8
L1_95
  6
DASHED
 62
         2
100
AcDbLine
 10
1608.235844077
 20
145.0476698455
 30
0.0
 11
1611.3108440767
 21
139.7216136128
 31
0.0
  0
LINE
  5
2E8
100
AcDbEntity
  8
L1_95
  6
DASHED
 62
         2
100
AcDbLine
 10
1607.885844077
 20
145.0476698455
 30
0.0
 11
1604.5680470787
 21
143.1321388554
 31
0.0
  0
LINE
  5
2E9
100
AcDbEntity
  8
L1_95
  6
DASHED
 62
         2
100
AcDbLine
 10
1608.5892533854
 20
145.2517108049
 30
0.0
 11
1608.235844077
 21
145.0476698455
 31
0.0
  0
LINE
  5
2EA
100
AcDbEntity
  8
L1_95
  6
DASHED
 62
         2
100
AcDbLine
 10
1607.885844077
 20
145.0476698455
 30
0.0
 11
1608.235844077
 21
145.0476698455
 31
0.0
  0
LINE
  5
2EB
100
AcDbEntity
  8
L1_95
  6
DASHED
 62
         2
100
AcDbLine
 10
1611.6642533851
 20
139.9256545722
 30
0.0
 11
1611.3108440767
 21
139.7216136128
 31
0.0
  0
LINE
  5
2EC
100
AcDbEntity
  8
L1_95
  6
DASHED
 62
         2
100
AcDbLine
 10
1611.1358440767
 20
139.4185047215
 30
0.0
 11
1611.3108440767
 21
139.7216136128
 31
0.0
  0
LINE
  5
2ED
100
AcDbEntity
  8
L1_95
  6
DASHED
 62
         2
100
AcDbLine
 10
1611.1358440767
 20
139.4185047215
 30
0.0
 11
1607.8180470784
 21
137.5029737314
 31
0.0
  0
LINE
  5
2EE
100
AcDbEntity
  8
L1_95
  6
DASHED
 62
         2
100
AcDbLine
 10
1611.1358440767
 20
160.9507787373
 30
0.0
 11
1607.885844077
 21
155.3216136132
 31
0.0
  0
LINE
  5
2EF
100
AcDbEntity
  8
L1_95
  6
DASHED
 62
         2
100
AcDbLine
 10
1611.3108440767
 20
160.647669846
 30
0.0
 11
1608.235844077
 21
155.3216136132
 31
0.0
  0
LINE
  5
2F0
100
AcDbEntity
  8
L1_95
  6
DASHED
 62
         2
100
AcDbLine
 10
1611.1358440767
 20
160.9507787373
 30
0.0
 11
1607.8180470784
 21
162.8663097274
 31
0.0
  0
LINE
  5
2F1
100
AcDbEntity
  8
L1_95
  6
DASHED
 62
         2
100
AcDbLine
 10
1611.6642533851
 20
160.4436288866
 30
0.0
 11
1611.3108440767
 21
160.647669846
 31
0.0
  0
LINE
  5
2F2
100
AcDbEntity
  8
L1_95
  6
DASHED
 62
         2
100
AcDbLine
 10
1611.1358440767
 20
160.9507787373
 30
0.0
 11
1611.3108440767
 21
160.647669846
 31
0.0
  0
LINE
  5
2F3
100
AcDbEntity
  8
L1_95
  6
DASHED
 62
         2
100
AcDbLine
 10
1608.5892533854
 20
155.1175726539
 30
0.0
 11
1608.235844077
 21
155.3216136132
 31
0.0
  0
LINE
  5
2F4
100
AcDbEntity
  8
L1_95
  6
DASHED
 62
         2
100
AcDbLine
 10
1607.885844077
 20
155.3216136132
 30
0.0
 11
1608.235844077
 21
155.3216136132
 31
0.0
  0
LINE
  5
2F5
100
AcDbEntity
  8
L1_95
  6
DASHED
 62
         2
100
AcDbLine
 10
1607.885844077
 20
155.3216136132
 30
0.0
 11
1604.5680470787
 21
157.2371446033
 31
0.0
  0
LINE
  5
2F6
100
AcDbEntity
  8
L1_95
  6
DASHED
 62
         2
100
AcDbLine
 10
1626.5333403759
 20
166.0877506211
 30
0.0
 11
1620.0333403766
 21
166.0877506211
 31
0.0
  0
LINE
  5
2F7
100
AcDbEntity
  8
L1_95
  6
DASHED
 62
         2
100
AcDbLine
 10
1626.3583403759
 20
165.7846417298
 30
0.0
 11
1620.2083403766
 21
165.7846417298
 31
0.0
  0
LINE
  5
2F8
100
AcDbEntity
  8
L1_95
  6
DASHED
 62
         2
100
AcDbLine
 10
1634.9024273674
 20
160.4436288866
 30
0.0
 11
1635.2558366758
 21
160.647669846
 31
0.0
  0
LINE
  5
2F9
100
AcDbEntity
  8
L1_95
  6
CENTER
 62
         1
100
AcDbLine
 10
1643.2019246633
 20
161.6846417294
 30
0.0
 11
1603.3647560892
 21
138.6846417294
 31
0.0
  0
LINE
  5
2FA
100
AcDbEntity
  8
L1_95
  6
CENTER
 62
         1
100
AcDbLine
 10
1643.2019246633
 20
138.6846417294
 30
0.0
 11
1603.3647560892
 21
161.6846417294
 31
0.0
  0
LINE
  5
2FB
100
AcDbEntity
  8
L1_95
  6
DASHED
 62
         2
100
AcDbLine
 10
1626.5333403759
 20
166.0877506211
 30
0.0
 11
1626.5333403759
 21
169.9188126013
 31
0.0
  0
ARC
  5
2FC
100
AcDbEntity
  8
L1_95
  6
CONTINUOUS
 62
         7
100
AcDbCircle
 10
1439.6033403763
 20
127.6846417294
 30
0.0
 40
0.5
100
AcDbArc
 50
270.0
 51
360.0
  0
ARC
  5
2FD
100
AcDbEntity
  8
L1_95
  6
CONTINUOUS
 62
         7
100
AcDbCircle
 10
1439.6033403763
 20
172.6846417294
 30
0.0
 40
0.5
100
AcDbArc
 50
0.0
 51
90.0
  0
LINE
  5
2FE
100
AcDbEntity
  8
L1_95
  6
CENTER
 62
         1
100
AcDbLine
 10
1418.8533403763
 20
150.1846417294
 30
0.0
 11
1487.1033403763
 21
150.1846417294
 31
0.0
  0
LINE
  5
2FF
100
AcDbEntity
  8
L1_95
  6
CONTINUOUS
 62
         7
100
AcDbLine
 10
1480.6033403763
 20
130.2846417294
 30
0.0
 11
1480.6033403763
 21
170.0846417294
 31
0.0
  0
LINE
  5
300
100
AcDbEntity
  8
L1_95
  6
CONTINUOUS
 62
         7
100
AcDbLine
 10
1478.6533403763
 20
130.2846417294
 30
0.0
 11
1478.6533403763
 21
170.0846417294
 31
0.0
  0
LINE
  5
301
100
AcDbEntity
  8
L1_95
  6
CONTINUOUS
 62
         7
100
AcDbLine
 10
1486.6033403763
 20
141.9346417294
 30
0.0
 11
1481.8033403763
 21
141.9346417294
 31
0.0
  0
ARC
  5
302
100
AcDbEntity
  8
L1_95
  6
CONTINUOUS
 62
         7
100
AcDbCircle
 10
1481.8033403763
 20
142.4346417294
 30
0.0
 40
0.5
100
AcDbArc
 50
180.0
 51
270.0
  0
LINE
  5
303
100
AcDbEntity
  8
L1_95
  6
CONTINUOUS
 62
         7
100
AcDbLine
 10
1481.3033403763
 20
142.4346417294
 30
0.0
 11
1481.3033403763
 21
157.9346417294
 31
0.0
  0
ARC
  5
304
100
AcDbEntity
  8
L1_95
  6
CONTINUOUS
 62
         7
100
AcDbCircle
 10
1481.8033403763
 20
157.9346417294
 30
0.0
 40
0.5
100
AcDbArc
 50
90.0
 51
180.0
  0
LINE
  5
305
100
AcDbEntity
  8
L1_95
  6
CONTINUOUS
 62
         7
100
AcDbLine
 10
1486.6033403763
 20
158.4346417294
 30
0.0
 11
1481.8033403763
 21
158.4346417294
 31
0.0
  0
LINE
  5
306
100
AcDbEntity
  8
L1_95
  6
CONTINUOUS
 62
         7
100
AcDbLine
 10
1486.6033403763
 20
170.1846417294
 30
0.0
 11
1480.7033403763
 21
170.1846417294
 31
0.0
  0
LINE
  5
307
100
AcDbEntity
  8
L1_95
  6
CONTINUOUS
 62
         7
100
AcDbLine
 10
1486.6033403763
 20
130.1846417294
 30
0.0
 11
1480.7033403763
 21
130.1846417294
 31
0.0
  0
LINE
  5
308
100
AcDbEntity
  8
L1_95
  6
CONTINUOUS
 62
         7
100
AcDbLine
 10
1487.1033403763
 20
130.6846417294
 30
0.0
 11
1487.1033403763
 21
141.4346417294
 31
0.0
  0
LINE
  5
309
100
AcDbEntity
  8
L1_95
  6
CONTINUOUS
 62
         7
100
AcDbLine
 10
1480.6033403763
 20
169.1846417294
 30
0.0
 11
1478.6533403763
 21
169.1846417294
 31
0.0
  0
LINE
  5
30A
100
AcDbEntity
  8
L1_95
  6
CONTINUOUS
 62
         7
100
AcDbLine
 10
1480.6033403763
 20
131.1846417294
 30
0.0
 11
1478.6533403763
 21
131.1846417294
 31
0.0
  0
LINE
  5
30B
100
AcDbEntity
  8
L1_95
  6
CONTINUOUS
 62
         7
100
AcDbLine
 10
1486.6033403763
 20
170.1846417294
 30
0.0
 11
1487.1033403763
 21
169.6846417294
 31
0.0
  0
LINE
  5
30C
100
AcDbEntity
  8
L1_95
  6
CONTINUOUS
 62
         7
100
AcDbLine
 10
1487.1033403763
 20
130.6846417294
 30
0.0
 11
1486.6033403763
 21
130.1846417294
 31
0.0
  0
LINE
  5
30D
100
AcDbEntity
  8
L1_95
  6
CONTINUOUS
 62
         7
100
AcDbLine
 10
1487.1033403763
 20
158.9346417294
 30
0.0
 11
1487.1033403763
 21
169.6846417294
 31
0.0
  0
LINE
  5
30E
100
AcDbEntity
  8
L1_95
  6
CONTINUOUS
 62
         7
100
AcDbLine
 10
1487.1033403763
 20
158.9346417294
 30
0.0
 11
1486.6033403763
 21
158.4346417294
 31
0.0
  0
LINE
  5
30F
100
AcDbEntity
  8
L1_95
  6
CONTINUOUS
 62
         7
100
AcDbLine
 10
1487.1033403763
 20
141.4346417294
 30
0.0
 11
1486.6033403763
 21
141.9346417294
 31
0.0
  0
ARC
  5
310
100
AcDbEntity
  8
L1_95
  6
CONTINUOUS
 62
         7
100
AcDbCircle
 10
1440.6033403763
 20
129.1846417294
 30
0.0
 40
0.5
100
AcDbArc
 50
90.0
 51
180.0
  0
ARC
  5
311
100
AcDbEntity
  8
L1_95
  6
CONTINUOUS
 62
         7
100
AcDbCircle
 10
1440.6033403763
 20
171.1846417294
 30
0.0
 40
0.5
100
AcDbArc
 50
180.0
 51
270.0
  0
LINE
  5
312
100
AcDbEntity
  8
L1_95
  6
CONTINUOUS
 62
         7
100
AcDbLine
 10
1440.1033403763
 20
127.6846417294
 30
0.0
 11
1440.1033403763
 21
172.6846417294
 31
0.0
  0
LINE
  5
313
100
AcDbEntity
  8
L1_95
  6
CONTINUOUS
 62
         7
100
AcDbLine
 10
1478.5533403763
 20
130.1846417294
 30
0.0
 11
1449.5533403763
 21
130.1846417294
 31
0.0
  0
LINE
  5
314
100
AcDbEntity
  8
L1_95
  6
CONTINUOUS
 62
         7
100
AcDbLine
 10
1478.5533403763
 20
170.1846417294
 30
0.0
 11
1449.5533403763
 21
170.1846417294
 31
0.0
  0
LINE
  5
315
100
AcDbEntity
  8
L1_95
  6
CONTINUOUS
 62
         7
100
AcDbLine
 10
1448.1533403763
 20
129.6846417294
 30
0.0
 11
1440.6033403763
 21
129.6846417294
 31
0.0
  0
LINE
  5
316
100
AcDbEntity
  8
L1_95
  6
CONTINUOUS
 62
         7
100
AcDbLine
 10
1448.1533403763
 20
170.6846417294
 30
0.0
 11
1440.6033403763
 21
170.6846417294
 31
0.0
  0
LINE
  5
317
100
AcDbEntity
  8
L1_95
  6
CONTINUOUS
 62
         7
100
AcDbLine
 10
1422.1033403763
 20
173.1846417294
 30
0.0
 11
1439.6033403763
 21
173.1846417294
 31
0.0
  0
LINE
  5
318
100
AcDbEntity
  8
L1_95
  6
CONTINUOUS
 62
         7
100
AcDbLine
 10
1422.1033403763
 20
127.1846417294
 30
0.0
 11
1439.6033403763
 21
127.1846417294
 31
0.0
  0
LINE
  5
319
100
AcDbEntity
  8
L1_95
  6
CONTINUOUS
 62
         7
100
AcDbLine
 10
1449.3533403763
 20
169.9846417294
 30
0.0
 11
1449.5533403763
 21
170.1846417294
 31
0.0
  0
DIMENSION
  5
31C
100
AcDbEntity
  8
L1_95
  6
CONTINUOUS
 62
         4
100
AcDbDimension
  2
*D10
 10
1487.1033403763
 20
188.5843287438
 30
0.0
 11
1489.7373874486
 21
191.7163287438
 31
0.0
  3
DIMSTYLE1
100
AcDbAlignedDimension
 13
1487.1033403763
 23
169.6846417294
 33
0.0
 14
1478.6533403763
 24
169.1846417294
 34
0.0
100
AcDbRotatedDimension
  0
DIMENSION
  5
32B
100
AcDbEntity
  8
L1_95
  6
CONTINUOUS
 62
         4
100
AcDbDimension
  2
*D11
 10
1478.6533403763
 20
178.4560774431
 30
0.0
 11
1488.1733762299
 21
182.6410774431
 31
0.0
  3
DIMSTYLE1
100
AcDbAlignedDimension
 13
1478.6533403763
 23
169.1846417294
 33
0.0
 14
1480.6033403763
 24
169.1846417294
 34
0.0
100
AcDbRotatedDimension
  0
DIMENSION
  5
33B
100
AcDbEntity
  8
L1_95
  6
CONTINUOUS
 62
         4
100
AcDbDimension
  2
*D12
 10
1487.1033403763
 20
204.1922665889
 30
0.0
 11
1458.3584702205
 21
207.3242665889
 31
0.0
  3
DIMSTYLE1
100
AcDbAlignedDimension
 13
1487.1033403763
 23
169.6846417294
 33
0.0
 14
1440.1033403763
 24
172.6846417294
 34
0.0
100
AcDbRotatedDimension
  0
LINE
  5
347
100
AcDbEntity
  8
L1_95
  6
CONTINUOUS
 62
         7
100
AcDbLine
 10
1448.3533403763
 20
129.8846417294
 30
0.0
 11
1448.3533403763
 21
170.4846417294
 31
0.0
  0
ARC
  5
348
100
AcDbEntity
  8
L1_95
  6
CONTINUOUS
 62
         7
100
AcDbCircle
 10
1448.1533403763
 20
170.4846417294
 30
0.0
 40
0.2
100
AcDbArc
 50
0.0
 51
90.0
  0
DIMENSION
  5
34B
100
AcDbEntity
  8
L1_95
  6
CONTINUOUS
 62
         4
100
AcDbDimension
  2
*D13
 10
1487.1033403763
 20
196.2094929993
 30
0.0
 11
1456.7274925204
 21
199.3414929993
 31
0.0
  3
DIMSTYLE1
100
AcDbAlignedDimension
 13
1487.1033403763
 23
169.6846417294
 33
0.0
 14
1448.3533403763
 24
170.4846417294
 34
0.0
100
AcDbRotatedDimension
  0
LINE
  5
357
100
AcDbEntity
  8
L1_95
  6
CONTINUOUS
 62
         7
100
AcDbLine
 10
1449.3533403763
 20
169.9846417294
 30
0.0
 11
1448.7533403763
 21
169.9846417294
 31
0.0
  0
ARC
  5
358
100
AcDbEntity
  8
L1_95
  6
CONTINUOUS
 62
         7
100
AcDbCircle
 10
1448.7533403763
 20
170.3846417294
 30
0.0
 40
0.4
100
AcDbArc
 50
180.0
 51
270.0
  0
ARC
  5
359
100
AcDbEntity
  8
L1_95
  6
CONTINUOUS
 62
         7
100
AcDbCircle
 10
1448.1533403763
 20
129.8846417294
 30
0.0
 40
0.2
100
AcDbArc
 50
270.0
 51
360.0
  0
LINE
  5
35A
100
AcDbEntity
  8
L1_95
  6
CONTINUOUS
 62
         7
100
AcDbLine
 10
1449.3533403763
 20
130.3846417294
 30
0.0
 11
1449.5533403763
 21
130.1846417294
 31
0.0
  0
ARC
  5
35B
100
AcDbEntity
  8
L1_95
  6
CONTINUOUS
 62
         7
100
AcDbCircle
 10
1448.7533403763
 20
129.9846417294
 30
0.0
 40
0.4
100
AcDbArc
 50
90.0
 51
180.0
  0
LINE
  5
35C
100
AcDbEntity
  8
L1_95
  6
CONTINUOUS
 62
         7
100
AcDbLine
 10
1449.3533403763
 20
130.3846417294
 30
0.0
 11
1448.7533403763
 21
130.3846417294
 31
0.0
  0
LINE
  5
35D
100
AcDbEntity
  8
L1_95
  6
CONTINUOUS
 62
         7
100
AcDbLine
 10
1478.5533403763
 20
170.1846417294
 30
0.0
 11
1478.6533403763
 21
170.0846417294
 31
0.0
  0
LINE
  5
35E
100
AcDbEntity
  8
L1_95
  6
CONTINUOUS
 62
         7
100
AcDbLine
 10
1480.6033403763
 20
170.0846417294
 30
0.0
 11
1480.7033403763
 21
170.1846417294
 31
0.0
  0
LINE
  5
35F
100
AcDbEntity
  8
L1_95
  6
CONTINUOUS
 62
         7
100
AcDbLine
 10
1478.6533403763
 20
130.2846417294
 30
0.0
 11
1478.5533403763
 21
130.1846417294
 31
0.0
  0
LINE
  5
360
100
AcDbEntity
  8
L1_95
  6
CONTINUOUS
 62
         7
100
AcDbLine
 10
1480.6033403763
 20
130.2846417294
 30
0.0
 11
1480.7033403763
 21
130.1846417294
 31
0.0
  0
LINE
  5
361
100
AcDbEntity
  8
L1_95
  6
CONTINUOUS
 62
         7
100
AcDbLine
 10
1480.6033403763
 20
-32.8433347407
 30
0.0
 11
1480.7033403763
 21
-32.9433347407
 31
0.0
  0
LINE
  5
362
100
AcDbEntity
  8
L1_95
  6
CONTINUOUS
 62
         7
100
AcDbLine
 10
1478.6533403763
 20
-32.8433347407
 30
0.0
 11
1478.5533403763
 21
-32.9433347407
 31
0.0
  0
LINE
  5
363
100
AcDbEntity
  8
L1_95
  6
CONTINUOUS
 62
         7
100
AcDbLine
 10
1480.6033403763
 20
6.9566652593
 30
0.0
 11
1480.7033403763
 21
7.0566652593
 31
0.0
  0
LINE
  5
364
100
AcDbEntity
  8
L1_95
  6
CONTINUOUS
 62
         7
100
AcDbLine
 10
1478.5533403763
 20
7.0566652593
 30
0.0
 11
1478.6533403763
 21
6.9566652593
 31
0.0
  0
LINE
  5
365
100
AcDbEntity
  8
L1_95
  6
CONTINUOUS
 62
         7
100
AcDbLine
 10
1449.3533403763
 20
-32.7433347407
 30
0.0
 11
1448.7533403763
 21
-32.7433347407
 31
0.0
  0
ARC
  5
366
100
AcDbEntity
  8
L1_95
  6
CONTINUOUS
 62
         7
100
AcDbCircle
 10
1448.7533403763
 20
-33.1433347407
 30
0.0
 40
0.4
100
AcDbArc
 50
90.0
 51
180.0
  0
LINE
  5
367
100
AcDbEntity
  8
L1_95
  6
CONTINUOUS
 62
         7
100
AcDbLine
 10
1449.3533403763
 20
-32.7433347407
 30
0.0
 11
1449.5533403763
 21
-32.9433347407
 31
0.0
  0
LINE
  5
368
100
AcDbEntity
  8
L1_95
  6
CONTINUOUS
 62
         7
100
AcDbLine
 10
1448.3533403763
 20
-33.1433347407
 30
0.0
 11
1448.3533403763
 21
-33.2433347407
 31
0.0
  0
ARC
  5
369
100
AcDbEntity
  8
L1_95
  6
CONTINUOUS
 62
         7
100
AcDbCircle
 10
1448.1533403763
 20
-33.2433347407
 30
0.0
 40
0.2
100
AcDbArc
 50
270.0
 51
360.0
  0
ARC
  5
36A
100
AcDbEntity
  8
L1_95
  6
CONTINUOUS
 62
         7
100
AcDbCircle
 10
1448.7533403763
 20
7.2566652593
 30
0.0
 40
0.4
100
AcDbArc
 50
180.0
 51
270.0
  0
LINE
  5
36B
100
AcDbEntity
  8
L1_95
  6
CONTINUOUS
 62
         7
100
AcDbLine
 10
1449.3533403763
 20
6.8566652593
 30
0.0
 11
1448.7533403763
 21
6.8566652593
 31
0.0
  0
ARC
  5
36C
100
AcDbEntity
  8
L1_95
  6
CONTINUOUS
 62
         7
100
AcDbCircle
 10
1448.1533403763
 20
7.3566652593
 30
0.0
 40
0.2
100
AcDbArc
 50
0.0
 51
90.0
  0
LINE
  5
36D
100
AcDbEntity
  8
L1_95
  6
CONTINUOUS
 62
         7
100
AcDbLine
 10
1448.3533403763
 20
7.2566652593
 30
0.0
 11
1448.3533403763
 21
7.3566652593
 31
0.0
  0
DIMENSION
  5
370
100
AcDbEntity
  8
L1_95
  6
CONTINUOUS
 62
         4
100
AcDbDimension
  2
*D14
 10
1487.1033403763
 20
-50.8863910118
 30
0.0
 11
1463.6783403763
 21
-47.7543910118
 31
0.0
  3
DIMSTYLE1
100
AcDbAlignedDimension
 13
1487.1033403763
 23
-21.6933347407
 33
0.0
 14
1446.1033403763
 24
-28.9433347407
 34
0.0
100
AcDbRotatedDimension
  0
LINE
  5
37C
100
AcDbEntity
  8
L1_95
  6
CONTINUOUS
 62
         7
100
AcDbLine
 10
1449.3533403763
 20
6.8566652593
 30
0.0
 11
1449.5533403763
 21
7.0566652593
 31
0.0
  0
LINE
  5
37D
100
AcDbEntity
  8
L1_95
  6
CONTINUOUS
 62
         7
100
AcDbLine
 10
1422.1033403763
 20
-35.9433347407
 30
0.0
 11
1439.6033403763
 21
-35.9433347407
 31
0.0
  0
LINE
  5
37E
100
AcDbEntity
  8
L1_95
  6
CONTINUOUS
 62
         7
100
AcDbLine
 10
1422.1033403763
 20
10.0566652593
 30
0.0
 11
1439.6033403763
 21
10.0566652593
 31
0.0
  0
LINE
  5
37F
100
AcDbEntity
  8
L1_95
  6
CONTINUOUS
 62
         7
100
AcDbLine
 10
1440.1033403763
 20
-35.4433347407
 30
0.0
 11
1440.1033403763
 21
-33.9433347407
 31
0.0
  0
LINE
  5
380
100
AcDbEntity
  8
L1_95
  6
CONTINUOUS
 62
         7
100
AcDbLine
 10
1448.1533403763
 20
7.5566652593
 30
0.0
 11
1440.6033403763
 21
7.5566652593
 31
0.0
  0
LINE
  5
381
100
AcDbEntity
  8
L1_95
  6
CONTINUOUS
 62
         7
100
AcDbLine
 10
1448.1533403763
 20
-33.4433347407
 30
0.0
 11
1440.6033403763
 21
-33.4433347407
 31
0.0
  0
LINE
  5
382
100
AcDbEntity
  8
L1_95
  6
CONTINUOUS
 62
         7
100
AcDbLine
 10
1478.5533403763
 20
7.0566652593
 30
0.0
 11
1449.5533403763
 21
7.0566652593
 31
0.0
  0
LINE
  5
383
100
AcDbEntity
  8
L1_95
  6
CONTINUOUS
 62
         7
100
AcDbLine
 10
1478.5533403763
 20
-32.9433347407
 30
0.0
 11
1449.5533403763
 21
-32.9433347407
 31
0.0
  0
LINE
  5
384
100
AcDbEntity
  8
L1_95
  6
CONTINUOUS
 62
         7
100
AcDbLine
 10
1485.1033403763
 20
2.5566652593
 30
0.0
 11
1451.1033403763
 21
2.5566652593
 31
0.0
  0
LINE
  5
385
100
AcDbEntity
  8
L1_95
  6
CONTINUOUS
 62
         7
100
AcDbLine
 10
1485.1033403763
 20
-28.4433347407
 30
0.0
 11
1451.1033403763
 21
-28.4433347407
 31
0.0
  0
LINE
  5
386
100
AcDbEntity
  8
L1_95
  6
CONTINUOUS
 62
         7
100
AcDbLine
 10
1440.1033403763
 20
8.0566652593
 30
0.0
 11
1440.1033403763
 21
9.5566652593
 31
0.0
  0
LINE
  5
387
100
AcDbEntity
  8
L1_95
  6
CONTINUOUS
 62
         7
100
AcDbLine
 10
1451.1033403763
 20
-28.9433347407
 30
0.0
 11
1451.1033403763
 21
3.0566652593
 31
0.0
  0
LINE
  5
388
100
AcDbEntity
  8
L1_95
  6
CONTINUOUS
 62
         7
100
AcDbLine
 10
1446.1033403763
 20
-28.9433347407
 30
0.0
 11
1446.1033403763
 21
3.0566652593
 31
0.0
  0
LINE
  5
389
100
AcDbEntity
  8
L1_95
  6
CONTINUOUS
 62
         7
100
AcDbLine
 10
1451.1033403763
 20
3.0566652593
 30
0.0
 11
1446.1033403763
 21
3.0566652593
 31
0.0
  0
LINE
  5
38A
100
AcDbEntity
  8
L1_95
  6
CONTINUOUS
 62
         7
100
AcDbLine
 10
1451.1033403763
 20
-28.9433347407
 30
0.0
 11
1446.1033403763
 21
-28.9433347407
 31
0.0
  0
LINE
  5
38B
100
AcDbEntity
  8
L1_95
  6
CONTINUOUS
 62
         7
100
AcDbLine
 10
1446.1033403763
 20
2.5566652593
 30
0.0
 11
1437.1544112038
 21
-12.9433347407
 31
0.0
  0
LINE
  5
38C
100
AcDbEntity
  8
L1_95
  6
CONTINUOUS
 62
         7
100
AcDbLine
 10
1446.1033403763
 20
-28.4433347407
 30
0.0
 11
1437.1544112038
 21
-12.9433347407
 31
0.0
  0
ARC
  5
38D
100
AcDbEntity
  8
L1_95
  6
CONTINUOUS
 62
         7
100
AcDbCircle
 10
1440.6033403763
 20
8.0566652593
 30
0.0
 40
0.5
100
AcDbArc
 50
180.0
 51
270.0
  0
ARC
  5
38E
100
AcDbEntity
  8
L1_95
  6
CONTINUOUS
 62
         7
100
AcDbCircle
 10
1440.6033403763
 20
-33.9433347407
 30
0.0
 40
0.5
100
AcDbArc
 50
90.0
 51
180.0
  0
LINE
  5
38F
100
AcDbEntity
  8
L1_95
  6
CENTER
 62
         1
100
AcDbLine
 10
1457.9033403763
 20
0.8264310933
 30
0.0
 11
1457.9033403763
 21
10.5522646056
 31
0.0
  0
LINE
  5
390
100
AcDbEntity
  8
L1_95
  6
CENTER
 62
         1
100
AcDbLine
 10
1457.9033403763
 20
-35.2672531426
 30
0.0
 11
1457.9033403763
 21
-26.2583626725
 31
0.0
  0
LINE
  5
391
100
AcDbEntity
  8
L1_95
  6
CONTINUOUS
 62
         7
100
AcDbLine
 10
1485.1033403763
 20
2.5566652593
 30
0.0
 11
1485.1033403763
 21
-4.6933347407
 31
0.0
  0
ARC
  5
392
100
AcDbEntity
  8
L1_95
  6
CONTINUOUS
 62
         7
100
AcDbCircle
 10
1485.1033403763
 20
-30.4433347407
 30
0.0
 40
2.0
100
AcDbArc
 50
0.0
 51
90.0
  0
ARC
  5
393
100
AcDbEntity
  8
L1_95
  6
CONTINUOUS
 62
         7
100
AcDbCircle
 10
1485.1033403763
 20
4.5566652593
 30
0.0
 40
2.0
100
AcDbArc
 50
270.0
 51
360.0
  0
LINE
  5
394
100
AcDbEntity
  8
L1_95
  6
CONTINUOUS
 62
         7
100
AcDbLine
 10
1487.1033403763
 20
-21.6933347407
 30
0.0
 11
1486.6033403763
 21
-21.1933347407
 31
0.0
  0
LINE
  5
395
100
AcDbEntity
  8
L1_95
  6
CONTINUOUS
 62
         7
100
AcDbLine
 10
1487.1033403763
 20
-4.1933347407
 30
0.0
 11
1486.6033403763
 21
-4.6933347407
 31
0.0
  0
LINE
  5
396
100
AcDbEntity
  8
L1_95
  6
CONTINUOUS
 62
         7
100
AcDbLine
 10
1487.1033403763
 20
-4.1933347407
 30
0.0
 11
1487.1033403763
 21
6.5566652593
 31
0.0
  0
LINE
  5
397
100
AcDbEntity
  8
L1_95
  6
CONTINUOUS
 62
         7
100
AcDbLine
 10
1487.1033403763
 20
-32.4433347407
 30
0.0
 11
1486.6033403763
 21
-32.9433347407
 31
0.0
  0
LINE
  5
398
100
AcDbEntity
  8
L1_95
  6
CONTINUOUS
 62
         7
100
AcDbLine
 10
1486.6033403763
 20
7.0566652593
 30
0.0
 11
1487.1033403763
 21
6.5566652593
 31
0.0
  0
LINE
  5
399
100
AcDbEntity
  8
L1_95
  6
CONTINUOUS
 62
         7
100
AcDbLine
 10
1478.6533403763
 20
-32.8433347407
 30
0.0
 11
1478.6533403763
 21
-31.9433347407
 31
0.0
  0
LINE
  5
39A
100
AcDbEntity
  8
L1_95
  6
CONTINUOUS
 62
         7
100
AcDbLine
 10
1480.6033403763
 20
-32.8433347407
 30
0.0
 11
1480.6033403763
 21
-31.9433347407
 31
0.0
  0
LINE
  5
39B
100
AcDbEntity
  8
L1_95
  6
CONTINUOUS
 62
         7
100
AcDbLine
 10
1480.6033403763
 20
-31.9433347407
 30
0.0
 11
1478.6533403763
 21
-31.9433347407
 31
0.0
  0
LINE
  5
39C
100
AcDbEntity
  8
L1_95
  6
CONTINUOUS
 62
         7
100
AcDbLine
 10
1480.6033403763
 20
6.0566652593
 30
0.0
 11
1478.6533403763
 21
6.0566652593
 31
0.0
  0
LINE
  5
39D
100
AcDbEntity
  8
L1_95
  6
CONTINUOUS
 62
         7
100
AcDbLine
 10
1487.1033403763
 20
-32.4433347407
 30
0.0
 11
1487.1033403763
 21
-21.6933347407
 31
0.0
  0
LINE
  5
39E
100
AcDbEntity
  8
L1_95
  6
CONTINUOUS
 62
         7
100
AcDbLine
 10
1486.6033403763
 20
-32.9433347407
 30
0.0
 11
1480.7033403763
 21
-32.9433347407
 31
0.0
  0
LINE
  5
39F
100
AcDbEntity
  8
L1_95
  6
CONTINUOUS
 62
         7
100
AcDbLine
 10
1486.6033403763
 20
7.0566652593
 30
0.0
 11
1480.7033403763
 21
7.0566652593
 31
0.0
  0
LINE
  5
3A0
100
AcDbEntity
  8
L1_95
  6
CONTINUOUS
 62
         7
100
AcDbLine
 10
1486.6033403763
 20
-4.6933347407
 30
0.0
 11
1481.8033403763
 21
-4.6933347407
 31
0.0
  0
LINE
  5
3A1
100
AcDbEntity
  8
L1_95
  6
CONTINUOUS
 62
         7
100
AcDbLine
 10
1480.3033403763
 20
-19.6933347407
 30
0.0
 11
1480.3033403763
 21
-6.1933347407
 31
0.0
  0
LINE
  5
3A2
100
AcDbEntity
  8
L1_95
  6
CONTINUOUS
 62
         7
100
AcDbLine
 10
1486.6033403763
 20
-21.1933347407
 30
0.0
 11
1481.8033403763
 21
-21.1933347407
 31
0.0
  0
LINE
  5
3A3
100
AcDbEntity
  8
L1_95
  6
CONTINUOUS
 62
         7
100
AcDbLine
 10
1478.6533403763
 20
6.0566652593
 30
0.0
 11
1478.6533403763
 21
6.9566652593
 31
0.0
  0
LINE
  5
3A4
100
AcDbEntity
  8
L1_95
  6
CONTINUOUS
 62
         7
100
AcDbLine
 10
1480.6033403763
 20
6.0566652593
 30
0.0
 11
1480.6033403763
 21
6.9566652593
 31
0.0
  0
LINE
  5
3A5
100
AcDbEntity
  8
L1_95
  6
CONTINUOUS
 62
         7
100
AcDbLine
 10
1485.1033403763
 20
-21.1933347407
 30
0.0
 11
1485.1033403763
 21
-28.4433347407
 31
0.0
  0
LINE
  5
3A6
100
AcDbEntity
  8
L1_95
  6
CENTER
 62
         1
100
AcDbLine
 10
1418.8533403763
 20
-12.9433347407
 30
0.0
 11
1487.1033403763
 21
-12.9433347407
 31
0.0
  0
LINE
  5
3A7
100
AcDbEntity
  8
L1_95
  6
CONTINUOUS
 62
         7
100
AcDbLine
 10
1454.6533403766
 20
2.9597741511
 30
0.0
 11
1454.6533403766
 21
6.9566652593
 31
0.0
  0
LINE
  5
3A8
100
AcDbEntity
  8
L1_95
  6
CONTINUOUS
 62
         7
100
AcDbLine
 10
1454.6533403766
 20
2.9597741511
 30
0.0
 11
1454.8283403766
 21
2.6566652598
 31
0.0
  0
LINE
  5
3A9
100
AcDbEntity
  8
L1_95
  6
CONTINUOUS
 62
         7
100
AcDbLine
 10
1454.8283403766
 20
2.5566652598
 30
0.0
 11
1454.8283403766
 21
2.6566652598
 31
0.0
  0
LINE
  5
3AA
100
AcDbEntity
  8
L1_95
  6
CONTINUOUS
 62
         7
100
AcDbLine
 10
1454.5533403766
 20
7.0566652593
 30
0.0
 11
1454.6533403766
 21
6.9566652593
 31
0.0
  0
LINE
  5
3AB
100
AcDbEntity
  8
L1_95
  6
CONTINUOUS
 62
         7
100
AcDbLine
 10
1461.1533403759
 20
2.9597741511
 30
0.0
 11
1460.9783403759
 21
2.6566652598
 31
0.0
  0
LINE
  5
3AC
100
AcDbEntity
  8
L1_95
  6
CONTINUOUS
 62
         7
100
AcDbLine
 10
1461.1533403759
 20
2.9597741511
 30
0.0
 11
1461.1533403759
 21
6.9566652593
 31
0.0
  0
LINE
  5
3AD
100
AcDbEntity
  8
L1_95
  6
CONTINUOUS
 62
         7
100
AcDbLine
 10
1460.9783403759
 20
2.5566652598
 30
0.0
 11
1460.9783403759
 21
2.6566652598
 31
0.0
  0
LINE
  5
3AE
100
AcDbEntity
  8
L1_95
  6
CONTINUOUS
 62
         7
100
AcDbLine
 10
1461.1533403759
 20
6.9566652593
 30
0.0
 11
1461.2533403759
 21
7.0566652593
 31
0.0
  0
LINE
  5
3AF
100
AcDbEntity
  8
L1_95
  6
CONTINUOUS
 62
         7
100
AcDbLine
 10
1454.6533403766
 20
-28.8464436324
 30
0.0
 11
1454.6533403766
 21
-32.8433347407
 31
0.0
  0
LINE
  5
3B0
100
AcDbEntity
  8
L1_95
  6
CONTINUOUS
 62
         7
100
AcDbLine
 10
1454.6533403766
 20
-28.8464436324
 30
0.0
 11
1454.8283403766
 21
-28.5433347411
 31
0.0
  0
LINE
  5
3B1
100
AcDbEntity
  8
L1_95
  6
CONTINUOUS
 62
         7
100
AcDbLine
 10
1454.8283403766
 20
-28.4433347411
 30
0.0
 11
1454.8283403766
 21
-28.5433347411
 31
0.0
  0
LINE
  5
3B2
100
AcDbEntity
  8
L1_95
  6
CONTINUOUS
 62
         7
100
AcDbLine
 10
1454.5533403766
 20
-32.9433347407
 30
0.0
 11
1454.6533403766
 21
-32.8433347407
 31
0.0
  0
LINE
  5
3B3
100
AcDbEntity
  8
L1_95
  6
CONTINUOUS
 62
         7
100
AcDbLine
 10
1461.1533403759
 20
-28.8464436324
 30
0.0
 11
1460.9783403759
 21
-28.5433347411
 31
0.0
  0
LINE
  5
3B4
100
AcDbEntity
  8
L1_95
  6
CONTINUOUS
 62
         7
100
AcDbLine
 10
1461.1533403759
 20
-28.8464436324
 30
0.0
 11
1461.1533403759
 21
-32.8433347407
 31
0.0
  0
LINE
  5
3B5
100
AcDbEntity
  8
L1_95
  6
CONTINUOUS
 62
         7
100
AcDbLine
 10
1460.9783403759
 20
-28.4433347411
 30
0.0
 11
1460.9783403759
 21
-28.5433347411
 31
0.0
  0
LINE
  5
3B6
100
AcDbEntity
  8
L1_95
  6
CONTINUOUS
 62
         7
100
AcDbLine
 10
1461.1533403759
 20
-32.8433347407
 30
0.0
 11
1461.2533403759
 21
-32.9433347407
 31
0.0
  0
ARC
  5
3B7
100
AcDbEntity
  8
L1_95
  6
CONTINUOUS
 62
         7
100
AcDbCircle
 10
1439.6033403763
 20
9.5566652593
 30
0.0
 40
0.5
100
AcDbArc
 50
0.0
 51
90.0
  0
ARC
  5
3B8
100
AcDbEntity
  8
L1_95
  6
CONTINUOUS
 62
         7
100
AcDbCircle
 10
1439.6033403763
 20
-35.4433347407
 30
0.0
 40
0.5
100
AcDbArc
 50
270.0
 51
360.0
  0
LINE
  5
3B9
100
AcDbEntity
  8
L1_95
  6
CONTINUOUS
 62
         4
100
AcDbLine
 10
1486.6033403763
 20
158.4346417294
 30
0.0
 11
1486.6033403763
 21
170.1846417294
 31
0.0
  0
LINE
  5
3BA
100
AcDbEntity
  8
L1_95
  6
CONTINUOUS
 62
         4
100
AcDbLine
 10
1478.5533403763
 20
130.1846417294
 30
0.0
 11
1478.5533403763
 21
170.1846417294
 31
0.0
  0
LINE
  5
3BB
100
AcDbEntity
  8
L1_95
  6
CONTINUOUS
 62
         7
100
AcDbLine
 10
1449.5533403763
 20
130.1846417294
 30
0.0
 11
1449.5533403763
 21
170.1846417294
 31
0.0
  0
LINE
  5
3BC
100
AcDbEntity
  8
L1_95
  6
CONTINUOUS
 62
         4
100
AcDbLine
 10
1449.3533403763
 20
130.3846417294
 30
0.0
 11
1449.3533403763
 21
169.9846417294
 31
0.0
  0
LINE
  5
3BD
100
AcDbEntity
  8
L1_95
  6
CONTINUOUS
 62
         4
100
AcDbLine
 10
1448.7533403763
 20
130.3846417294
 30
0.0
 11
1448.7533403763
 21
169.9846417294
 31
0.0
  0
LINE
  5
3BE
100
AcDbEntity
  8
L1_95
  6
CONTINUOUS
 62
         4
100
AcDbLine
 10
1448.1533403763
 20
129.6846417294
 30
0.0
 11
1448.1533403763
 21
170.6846417294
 31
0.0
  0
LINE
  5
3BF
100
AcDbEntity
  8
L1_95
  6
CONTINUOUS
 62
         4
100
AcDbLine
 10
1440.6033403763
 20
129.6846417294
 30
0.0
 11
1440.6033403763
 21
170.6846417294
 31
0.0
  0
LINE
  5
3C0
100
AcDbEntity
  8
L1_95
  6
CONTINUOUS
 62
         4
100
AcDbLine
 10
1439.6033403763
 20
127.1846417294
 30
0.0
 11
1439.6033403763
 21
173.1846417294
 31
0.0
  0
LINE
  5
3C1
100
AcDbEntity
  8
L1_95
  6
CONTINUOUS
 62
         4
100
AcDbLine
 10
1486.6033403763
 20
130.1846417294
 30
0.0
 11
1486.6033403763
 21
141.9346417294
 31
0.0
  0
LINE
  5
3C2
100
AcDbEntity
  8
L1_95
  6
CONTINUOUS
 62
         4
100
AcDbLine
 10
1480.7033403763
 20
130.1846417294
 30
0.0
 11
1480.7033403763
 21
170.1846417294
 31
0.0
  0
CIRCLE
  5
3C3
100
AcDbEntity
  8
L1_95
  6
CONTINUOUS
 62
         7
100
AcDbCircle
 10
1623.2833403763
 20
150.1846417294
 30
0.0
 40
20.0
  0
CIRCLE
  5
3C4
100
AcDbEntity
  8
L1_95
  6
CONTINUOUS
 62
         7
100
AcDbCircle
 10
1623.2833403763
 20
150.1846417294
 30
0.0
 40
20.5
  0
CIRCLE
  5
3C5
100
AcDbEntity
  8
L1_95
  6
CONTINUOUS
 62
         7
100
AcDbCircle
 10
1623.2833403763
 20
150.1846417294
 30
0.0
 40
23.0
  0
CIRCLE
  5
3C6
100
AcDbEntity
  8
L1_95
  6
CONTINUOUS
 62
         7
100
AcDbCircle
 10
1623.2833403763
 20
150.1846417294
 30
0.0
 40
15.5
  0
LINE
  5
3C7
100
AcDbEntity
  8
L1_95
  6
CENTER
 62
         1
100
AcDbLine
 10
1646.2833403763
 20
150.1846417294
 30
0.0
 11
1600.2833403763
 21
150.1846417294
 31
0.0
  0
LINE
  5
3C8
100
AcDbEntity
  8
L1_95
  6
CENTER
 62
         1
100
AcDbLine
 10
1623.2833403763
 20
127.1846417294
 30
0.0
 11
1623.2833403763
 21
173.1846417294
 31
0.0
  0
LINE
  5
3C9
100
AcDbEntity
  8
L1_95
  6
DASHED
 62
         2
100
AcDbLine
 10
1626.3583403759
 20
165.3765598111
 30
0.0
 11
1626.3583403759
 21
165.7846417298
 31
0.0
  0
LINE
  5
3CA
100
AcDbEntity
  8
L1_95
  6
DASHED
 62
         2
100
AcDbLine
 10
1626.5333403759
 20
166.0877506211
 30
0.0
 11
1626.3583403759
 21
165.7846417298
 31
0.0
  0
LINE
  5
3CB
100
AcDbEntity
  8
L1_95
  6
DASHED
 62
         2
100
AcDbLine
 10
1620.2083403766
 20
165.3765598111
 30
0.0
 11
1620.2083403766
 21
165.7846417298
 31
0.0
  0
LINE
  5
3CC
100
AcDbEntity
  8
L1_95
  6
DASHED
 62
         2
100
AcDbLine
 10
1620.0333403766
 20
166.0877506211
 30
0.0
 11
1620.2083403766
 21
165.7846417298
 31
0.0
  0
LINE
  5
3CD
100
AcDbEntity
  8
L1_95
  6
DASHED
 62
         2
100
AcDbLine
 10
1620.0333403766
 20
166.0877506211
 30
0.0
 11
1620.0333403766
 21
169.9188126013
 31
0.0
  0
LINE
  5
3CE
100
AcDbEntity
  8
L1_95
  6
CONTINUOUS
 62
         7
100
AcDbLine
 10
1394.1033403763
 20
180.6846417294
 30
0.0
 11
1394.1033403763
 21
119.6846417294
 31
0.0
  0
LINE
  5
3CF
100
AcDbEntity
  8
L1_95
  6
CENTER
 62
         1
100
AcDbLine
 10
1392.1033403763
 20
172.4096417294
 30
0.0
 11
1392.1033403763
 21
127.9596417294
 31
0.0
  0
LINE
  5
3D0
100
AcDbEntity
  8
L1_95
  6
CONTINUOUS
 62
         7
100
AcDbLine
 10
1326.7033403763
 20
162.0074490628
 30
0.0
 11
1326.7033403763
 21
138.361834396
 31
0.0
  0
DIMENSION
  5
3D3
100
AcDbEntity
  8
L1_95
  6
CONTINUOUS
 62
         4
100
AcDbDimension
  2
*D15
 10
1687.5554533999
 20
12.3535969983
 30
0.0
 11
1675.2260640842
 21
5.4377516372
 31
0.0
 70
         3
  3
DIMSTYLE1
100
AcDbDiametricDimension
 15
1657.1893719352
 25
-8.4335002869
 35
0.0
 40
0.0
  0
LINE
  5
3DD
100
AcDbEntity
  8
L1_95
  6
CENTER
 62
         1
100
AcDbLine
 10
1696.2700740053
 20
2.9484643557
 30
0.0
 11
1646.0533847216
 21
2.9484643557
 31
0.0
  0
CIRCLE
  5
3DE
100
AcDbEntity
  8
L1_95
  6
CONTINUOUS
 62
         7
100
AcDbCircle
 10
1678.4549726675
 20
-20.0892316443
 30
0.0
 40
1.52064
  0
CIRCLE
  5
3DF
100
AcDbEntity
  8
L1_95
  6
CONTINUOUS
 62
         7
100
AcDbCircle
 10
1666.2898526675
 20
-20.0892316443
 30
0.0
 40
1.52064
  0
LINE
  5
3E0
100
AcDbEntity
  8
L1_95
  6
CONTINUOUS
 62
         7
100
AcDbLine
 10
1669.3311326675
 20
-23.1305116443
 30
0.0
 11
1666.2898526675
 21
-23.1305116443
 31
0.0
  0
LINE
  5
3E1
100
AcDbEntity
  8
L1_95
  6
CONTINUOUS
 62
         7
100
AcDbLine
 10
1678.4549726675
 20
-23.1305116443
 30
0.0
 11
1675.4136926675
 21
-23.1305116443
 31
0.0
  0
ARC
  5
3E2
100
AcDbEntity
  8
L1_95
  6
CONTINUOUS
 62
         7
100
AcDbCircle
 10
1678.4549726675
 20
-20.0892316443
 30
0.0
 40
3.04128
100
AcDbArc
 50
270.0
 51
360.0
  0
LINE
  5
3E3
100
AcDbEntity
  8
L1_95
  6
CONTINUOUS
 62
         7
100
AcDbLine
 10
1681.4962526675
 20
-20.0892316443
 30
0.0
 11
1681.4962526675
 21
-19.0825866469
 31
0.0
  0
ARC
  5
3E4
100
AcDbEntity
  8
L1_95
  6
CONTINUOUS
 62
         7
100
AcDbCircle
 10
1684.5375326675
 20
-19.0825866469
 30
0.0
 40
3.04128
100
AcDbArc
 50
118.906630073
 51
180.0000000001
  0
ARC
  5
3E5
100
AcDbEntity
  8
L1_95
  6
CONTINUOUS
 62
         7
100
AcDbCircle
 10
1672.3724126675
 20
2.9484643557
 30
0.0
 40
22.125312
100
AcDbArc
 50
298.906630073
 51
601.093369927
  0
ARC
  5
3E6
100
AcDbEntity
  8
L1_95
  6
CONTINUOUS
 62
         7
100
AcDbCircle
 10
1666.2898526675
 20
-20.0892316443
 30
0.0
 40
3.04128
100
AcDbArc
 50
180.0
 51
270.0
  0
LINE
  5
3E7
100
AcDbEntity
  8
L1_95
  6
CONTINUOUS
 62
         7
100
AcDbLine
 10
1663.2485726675
 20
-20.0892316443
 30
0.0
 11
1663.2485726675
 21
-19.0825866469
 31
0.0
  0
ARC
  5
3E8
100
AcDbEntity
  8
L1_95
  6
CONTINUOUS
 62
         7
100
AcDbCircle
 10
1660.2072926675
 20
-19.0825866469
 30
0.0
 40
3.04128
100
AcDbArc
 50
0.0
 51
61.0933699271
  0
LINE
  5
3E9
100
AcDbEntity
  8
L1_95
  6
CONTINUOUS
 62
         7
100
AcDbLine
 10
1669.3311326675
 20
-23.1305116443
 30
0.0
 11
1669.3311326675
 21
-16.1866096073
 31
0.0
  0
LINE
  5
3EA
100
AcDbEntity
  8
L1_95
  6
CONTINUOUS
 62
         7
100
AcDbLine
 10
1675.4136926675
 20
-23.1305116443
 30
0.0
 11
1675.4136926675
 21
-16.1866096073
 31
0.0
  0
ARC
  5
3EB
100
AcDbEntity
  8
L1_95
  6
CONTINUOUS
 62
         7
100
AcDbCircle
 10
1672.3724126675
 20
1.9600483557
 30
0.0
 40
18.399744
100
AcDbArc
 50
279.5140383561
 51
620.4859616439
  0
LINE
  5
3EC
100
AcDbEntity
  8
L1_95
  6
CENTER
 62
         1
100
AcDbLine
 10
1672.3724126675
 20
-23.7463737329
 30
0.0
 11
1672.3724126675
 21
27.3035091644
 31
0.0
  0
CIRCLE
  5
3ED
100
AcDbEntity
  8
L1_95
  6
CONTINUOUS
 62
         7
100
AcDbCircle
 10
1650.3737967992
 20
69.6346200917
 30
0.0
 40
3.1749999997
  0
DIMENSION
  5
3F1
100
AcDbEntity
  8
L1_95
  6
CONTINUOUS
 62
         4
100
AcDbDimension
  2
*D16
 10
1647.4618500017
 20
68.3692383918
 30
0.0
 11
1658.0754372034
 21
74.4182453128
 31
0.0
 70
         3
  3
DIMSTYLE2
100
AcDbDiametricDimension
 15
1653.2857435967
 25
70.9000017917
 35
0.0
 40
0.0
  0
DIMENSION
  5
3FE
100
AcDbEntity
  8
L1_95
  6
CONTINUOUS
 62
         4
100
AcDbDimension
  2
*D17
 10
1512.1992337219
 20
93.8727564958
 30
0.0
 11
1510.1742337219
 21
55.7239648913
 31
0.0
  3
DIMSTYLE2
100
AcDbAlignedDimension
 13
1536.5310510641
 23
93.8727564958
 33
0.0
 14
1536.5310510641
 24
34.8727564958
 34
0.0
 50
90.0
100
AcDbRotatedDimension
  0
DIMENSION
  5
40C
100
AcDbEntity
  8
L1_95
  6
CONTINUOUS
 62
         4
100
AcDbDimension
  2
*D18
 10
1581.0310510641
 20
100.2415188883
 30
0.0
 11
1547.5803839628
 21
102.2665188883
 31
0.0
  3
DIMSTYLE2
100
AcDbAlignedDimension
 13
1581.0310510641
 23
92.3727564958
 33
0.0
 14
1521.0310510641
 24
92.3727564958
 34
0.0
100
AcDbRotatedDimension
  0
LINE
  5
418
100
AcDbEntity
  8
L1_95
  6
CONTINUOUS
 62
         7
100
AcDbLine
 10
1536.6084013333
 20
93.8727564958
 30
0.0
 11
1536.0310510641
 21
92.8727564958
 31
0.0
  0
LINE
  5
419
100
AcDbEntity
  8
L1_95
  6
CONTINUOUS
 62
         7
100
AcDbLine
 10
1545.453700795
 20
93.8727564958
 30
0.0
 11
1546.0310510641
 21
92.8727564958
 31
0.0
  0
LINE
  5
41A
100
AcDbEntity
  8
L1_95
  6
CONTINUOUS
 62
         7
100
AcDbLine
 10
1556.6084013333
 20
93.8727564958
 30
0.0
 11
1556.0310510641
 21
92.8727564958
 31
0.0
  0
LINE
  5
41B
100
AcDbEntity
  8
L1_95
  6
CONTINUOUS
 62
         7
100
AcDbLine
 10
1565.453700795
 20
93.8727564958
 30
0.0
 11
1566.0310510641
 21
92.8727564958
 31
0.0
  0
LINE
  5
41C
100
AcDbEntity
  8
L1_95
  6
CONTINUOUS
 62
         7
100
AcDbLine
 10
1545.453700795
 20
34.8727564958
 30
0.0
 11
1546.0310510641
 21
35.8727564958
 31
0.0
  0
LINE
  5
41D
100
AcDbEntity
  8
L1_95
  6
CONTINUOUS
 62
         7
100
AcDbLine
 10
1536.6084013333
 20
34.8727564958
 30
0.0
 11
1536.0310510641
 21
35.8727564958
 31
0.0
  0
LINE
  5
41E
100
AcDbEntity
  8
L1_95
  6
CONTINUOUS
 62
         7
100
AcDbLine
 10
1556.6084013333
 20
34.8727564958
 30
0.0
 11
1556.0310510641
 21
35.8727564958
 31
0.0
  0
LINE
  5
41F
100
AcDbEntity
  8
L1_95
  6
CONTINUOUS
 62
         7
100
AcDbLine
 10
1565.453700795
 20
34.8727564958
 30
0.0
 11
1566.0310510641
 21
35.8727564958
 31
0.0
  0
LINE
  5
420
100
AcDbEntity
  8
L1_95
  6
CONTINUOUS
 62
         7
100
AcDbLine
 10
1521.5310510641
 20
92.8727564958
 30
0.0
 11
1521.5310510641
 21
35.8727564958
 31
0.0
  0
LINE
  5
421
100
AcDbEntity
  8
L1_95
  6
CONTINUOUS
 62
         7
100
AcDbLine
 10
1580.5310510641
 20
92.8727564958
 30
0.0
 11
1580.5310510641
 21
35.8727564958
 31
0.0
  0
LINE
  5
422
100
AcDbEntity
  8
L1_95
  6
CONTINUOUS
 62
         7
100
AcDbLine
 10
1521.0310510641
 20
36.3727564958
 30
0.0
 11
1521.0310510641
 21
92.3727564958
 31
0.0
  0
LINE
  5
423
100
AcDbEntity
  8
L1_95
  6
CONTINUOUS
 62
         7
100
AcDbLine
 10
1521.0310510641
 20
92.3727564958
 30
0.0
 11
1521.5310510641
 21
92.8727564958
 31
0.0
  0
LINE
  5
424
100
AcDbEntity
  8
L1_95
  6
CONTINUOUS
 62
         7
100
AcDbLine
 10
1536.0310510641
 20
92.8727564958
 30
0.0
 11
1521.5310510641
 21
92.8727564958
 31
0.0
  0
LINE
  5
425
100
AcDbEntity
  8
L1_95
  6
CONTINUOUS
 62
         7
100
AcDbLine
 10
1521.0310510641
 20
36.3727564958
 30
0.0
 11
1521.5310510641
 21
35.8727564958
 31
0.0
  0
LINE
  5
426
100
AcDbEntity
  8
L1_95
  6
CONTINUOUS
 62
         7
100
AcDbLine
 10
1536.0310510641
 20
35.8727564958
 30
0.0
 11
1521.5310510641
 21
35.8727564958
 31
0.0
  0
LINE
  5
427
100
AcDbEntity
  8
L1_95
  6
CONTINUOUS
 62
         7
100
AcDbLine
 10
1545.453700795
 20
34.8727564958
 30
0.0
 11
1536.6084013333
 21
34.8727564958
 31
0.0
  0
LINE
  5
428
100
AcDbEntity
  8
L1_95
  6
CONTINUOUS
 62
         7
100
AcDbLine
 10
1565.453700795
 20
34.8727564958
 30
0.0
 11
1556.6084013333
 21
34.8727564958
 31
0.0
  0
LINE
  5
429
100
AcDbEntity
  8
L1_95
  6
CONTINUOUS
 62
         7
100
AcDbLine
 10
1581.0310510641
 20
36.3727564958
 30
0.0
 11
1580.5310510641
 21
35.8727564958
 31
0.0
  0
LINE
  5
42A
100
AcDbEntity
  8
L1_95
  6
CONTINUOUS
 62
         7
100
AcDbLine
 10
1580.5310510641
 20
35.8727564958
 30
0.0
 11
1566.0310510641
 21
35.8727564958
 31
0.0
  0
LINE
  5
42B
100
AcDbEntity
  8
L1_95
  6
CONTINUOUS
 62
         7
100
AcDbLine
 10
1581.0310510641
 20
36.3727564958
 30
0.0
 11
1581.0310510641
 21
92.3727564958
 31
0.0
  0
LINE
  5
42C
100
AcDbEntity
  8
L1_95
  6
CONTINUOUS
 62
         7
100
AcDbLine
 10
1580.5310510641
 20
92.8727564958
 30
0.0
 11
1581.0310510641
 21
92.3727564958
 31
0.0
  0
LINE
  5
42D
100
AcDbEntity
  8
L1_95
  6
CONTINUOUS
 62
         7
100
AcDbLine
 10
1580.5310510641
 20
92.8727564958
 30
0.0
 11
1566.0310510641
 21
92.8727564958
 31
0.0
  0
LINE
  5
42E
100
AcDbEntity
  8
L1_95
  6
CONTINUOUS
 62
         7
100
AcDbLine
 10
1566.0310510641
 20
35.8727564958
 30
0.0
 11
1566.0310510641
 21
92.8727564958
 31
0.0
  0
LINE
  5
42F
100
AcDbEntity
  8
L1_95
  6
CONTINUOUS
 62
         7
100
AcDbLine
 10
1565.453700795
 20
93.8727564958
 30
0.0
 11
1556.6084013333
 21
93.8727564958
 31
0.0
  0
LINE
  5
430
100
AcDbEntity
  8
L1_95
  6
CONTINUOUS
 62
         7
100
AcDbLine
 10
1556.0310510641
 20
35.8727564958
 30
0.0
 11
1556.0310510641
 21
92.8727564958
 31
0.0
  0
LINE
  5
431
100
AcDbEntity
  8
L1_95
  6
CONTINUOUS
 62
         7
100
AcDbLine
 10
1546.0310510641
 20
35.8727564958
 30
0.0
 11
1546.0310510641
 21
92.8727564958
 31
0.0
  0
LINE
  5
432
100
AcDbEntity
  8
L1_95
  6
CONTINUOUS
 62
         7
100
AcDbLine
 10
1545.453700795
 20
93.8727564958
 30
0.0
 11
1536.6084013333
 21
93.8727564958
 31
0.0
  0
LINE
  5
433
100
AcDbEntity
  8
L1_95
  6
CONTINUOUS
 62
         7
100
AcDbLine
 10
1536.0310510641
 20
35.8727564958
 30
0.0
 11
1536.0310510641
 21
92.8727564958
 31
0.0
  0
LINE
  5
434
100
AcDbEntity
  8
L1_95
  6
CONTINUOUS
 62
         7
100
AcDbLine
 10
1556.0310510641
 20
92.8727564958
 30
0.0
 11
1546.0310510641
 21
92.8727564958
 31
0.0
  0
LINE
  5
435
100
AcDbEntity
  8
L1_95
  6
CONTINUOUS
 62
         7
100
AcDbLine
 10
1556.0310510641
 20
35.8727564958
 30
0.0
 11
1546.0310510641
 21
35.8727564958
 31
0.0
  0
LINE
  5
436
100
AcDbEntity
  8
L1_95
  6
CENTER
 62
         1
100
AcDbLine
 10
1589.5541247931
 20
64.3727564958
 30
0.0
 11
1515.3987845702
 21
64.3727564958
 31
0.0
  0
LINE
  5
437
100
AcDbEntity
  8
L1_95
  6
CONTINUOUS
 62
         7
100
AcDbLine
 10
1586.8212767835
 20
-12.0598052688
 30
0.0
 11
1586.0284611619
 21
12.2551172353
 31
0.0
  0
LINE
  5
438
100
AcDbEntity
  8
L1_95
  6
CONTINUOUS
 62
         7
100
AcDbLine
 10
1588.0044183847
 20
13.1036541442
 30
0.0
 11
1586.9470782342
 21
31.0212590129
 31
0.0
  0
LINE
  5
439
100
AcDbEntity
  8
L1_95
  6
CONTINUOUS
 62
         7
100
AcDbLine
 10
1590.6592876003
 20
-12.3092730104
 30
0.0
 11
1589.8748915026
 21
11.7474304769
 31
0.0
  0
LINE
  5
43A
100
AcDbEntity
  8
L1_95
  6
CONTINUOUS
 62
         7
100
AcDbLine
 10
1591.8539015847
 20
12.6597762788
 30
0.0
 11
1590.785089051
 21
30.7717912712
 31
0.0
  0
LINE
  5
43B
100
AcDbEntity
  8
L1_95
  6
CONTINUOUS
 62
         7
100
AcDbLine
 10
1594.5300076003
 20
-12.3092730105
 30
0.0
 11
1593.7456115026
 21
11.7474304769
 31
0.0
  0
LINE
  5
43C
100
AcDbEntity
  8
L1_95
  6
CONTINUOUS
 62
         7
100
AcDbLine
 10
1595.7246215847
 20
12.6597762788
 30
0.0
 11
1594.655809051
 21
30.7717912712
 31
0.0
  0
LINE
  5
43D
100
AcDbEntity
  8
L1_95
  6
CONTINUOUS
 62
         7
100
AcDbLine
 10
1598.4007276003
 20
-12.3092730104
 30
0.0
 11
1597.6163315026
 21
11.747430477
 31
0.0
  0
LINE
  5
43E
100
AcDbEntity
  8
L1_95
  6
CONTINUOUS
 62
         7
100
AcDbLine
 10
1599.5953415848
 20
12.6597762788
 30
0.0
 11
1598.526529051
 21
30.7717912712
 31
0.0
  0
LINE
  5
43F
100
AcDbEntity
  8
L1_95
  6
CONTINUOUS
 62
         7
100
AcDbLine
 10
1602.2714476003
 20
-12.3092730104
 30
0.0
 11
1601.4870515026
 21
11.7474304769
 31
0.0
  0
LINE
  5
440
100
AcDbEntity
  8
L1_95
  6
CONTINUOUS
 62
         7
100
AcDbLine
 10
1603.4660615847
 20
12.6597762788
 30
0.0
 11
1602.397249051
 21
30.7717912712
 31
0.0
  0
LINE
  5
441
100
AcDbEntity
  8
L1_95
  6
CONTINUOUS
 62
         7
100
AcDbLine
 10
1606.1421676003
 20
-12.3092730104
 30
0.0
 11
1605.3577715026
 21
11.747430477
 31
0.0
  0
LINE
  5
442
100
AcDbEntity
  8
L1_95
  6
CONTINUOUS
 62
         7
100
AcDbLine
 10
1607.3367815847
 20
12.6597762788
 30
0.0
 11
1606.267969051
 21
30.7717912712
 31
0.0
  0
LINE
  5
443
100
AcDbEntity
  8
L1_95
  6
CONTINUOUS
 62
         7
100
AcDbLine
 10
1610.138689051
 20
30.7717912712
 30
0.0
 11
1608.0775276003
 21
-12.3092730104
 31
0.0
  0
LINE
  5
444
100
AcDbEntity
  8
L1_95
  6
CONTINUOUS
 62
         7
100
AcDbLine
 10
1608.203329051
 20
30.7717912712
 30
0.0
 11
1606.1421676003
 21
-12.3092730104
 31
0.0
  0
LINE
  5
445
100
AcDbEntity
  8
L1_95
  6
CONTINUOUS
 62
         7
100
AcDbLine
 10
1606.267969051
 20
30.7717912712
 30
0.0
 11
1604.2068076003
 21
-12.3092730104
 31
0.0
  0
LINE
  5
446
100
AcDbEntity
  8
L1_95
  6
CONTINUOUS
 62
         7
100
AcDbLine
 10
1604.332609051
 20
30.7717912712
 30
0.0
 11
1602.2714476003
 21
-12.3092730104
 31
0.0
  0
LINE
  5
447
100
AcDbEntity
  8
L1_95
  6
CONTINUOUS
 62
         7
100
AcDbLine
 10
1602.397249051
 20
30.7717912712
 30
0.0
 11
1600.3360876003
 21
-12.3092730104
 31
0.0
  0
LINE
  5
448
100
AcDbEntity
  8
L1_95
  6
CONTINUOUS
 62
         7
100
AcDbLine
 10
1600.461889051
 20
30.7717912712
 30
0.0
 11
1598.4007276003
 21
-12.3092730104
 31
0.0
  0
LINE
  5
449
100
AcDbEntity
  8
L1_95
  6
CONTINUOUS
 62
         7
100
AcDbLine
 10
1598.526529051
 20
30.7717912712
 30
0.0
 11
1596.4653676003
 21
-12.3092730104
 31
0.0
  0
LINE
  5
44A
100
AcDbEntity
  8
L1_95
  6
CONTINUOUS
 62
         7
100
AcDbLine
 10
1596.591169051
 20
30.7717912712
 30
0.0
 11
1594.5300076003
 21
-12.3092730104
 31
0.0
  0
LINE
  5
44B
100
AcDbEntity
  8
L1_95
  6
CONTINUOUS
 62
         7
100
AcDbLine
 10
1594.655809051
 20
30.7717912712
 30
0.0
 11
1592.5946476003
 21
-12.3092730104
 31
0.0
  0
LINE
  5
44C
100
AcDbEntity
  8
L1_95
  6
CONTINUOUS
 62
         7
100
AcDbLine
 10
1592.720449051
 20
30.7717912712
 30
0.0
 11
1590.6592876003
 21
-12.3092730104
 31
0.0
  0
LINE
  5
44D
100
AcDbEntity
  8
L1_95
  6
CONTINUOUS
 62
         7
100
AcDbLine
 10
1590.785089051
 20
30.7717912712
 30
0.0
 11
1588.7239276003
 21
-12.3092730104
 31
0.0
  0
LINE
  5
44E
100
AcDbEntity
  8
L1_95
  6
CONTINUOUS
 62
         7
100
AcDbLine
 10
1588.849729051
 20
30.7717912712
 30
0.0
 11
1586.7885676003
 21
-12.3092730104
 31
0.0
  0
LINE
  5
44F
100
AcDbEntity
  8
L1_95
  6
CONTINUOUS
 62
         7
100
AcDbLine
 10
1586.914369051
 20
30.7717912712
 30
0.0
 11
1584.8532076003
 21
-12.3092730104
 31
0.0
  0
LINE
  5
450
100
AcDbEntity
  8
L1_95
  6
CONTINUOUS
 62
         7
100
AcDbLine
 10
1584.979009051
 20
30.7717912712
 30
0.0
 11
1582.9178476003
 21
-12.3092730104
 31
0.0
  0
ARC
  5
451
100
AcDbEntity
  8
L1_95
  6
CONTINUOUS
 62
         7
100
AcDbCircle
 10
1609.171009051
 20
30.7717912712
 30
0.0
 40
0.96768
100
AcDbArc
 50
345.0604480713
 51
539.9999999997
  0
ARC
  5
452
100
AcDbEntity
  8
L1_95
  6
CONTINUOUS
 62
         7
100
AcDbCircle
 10
1607.1098476003
 20
-12.3092730104
 30
0.0
 40
0.96768
100
AcDbArc
 50
165.0604480713
 51
360.0000000001
  0
ARC
  5
453
100
AcDbEntity
  8
L1_95
  6
CONTINUOUS
 62
         7
100
AcDbCircle
 10
1605.300289051
 20
30.7717912712
 30
0.0
 40
0.96768
100
AcDbArc
 50
345.0604480709
 51
539.9999999997
  0
ARC
  5
454
100
AcDbEntity
  8
L1_95
  6
CONTINUOUS
 62
         7
100
AcDbCircle
 10
1603.2391276003
 20
-12.3092730104
 30
0.0
 40
0.96768
100
AcDbArc
 50
165.0604480713
 51
360.0000000006
  0
ARC
  5
455
100
AcDbEntity
  8
L1_95
  6
CONTINUOUS
 62
         7
100
AcDbCircle
 10
1601.429569051
 20
30.7717912712
 30
0.0
 40
0.96768
100
AcDbArc
 50
345.0604480713
 51
539.9999999997
  0
ARC
  5
456
100
AcDbEntity
  8
L1_95
  6
CONTINUOUS
 62
         7
100
AcDbCircle
 10
1599.3684076003
 20
-12.3092730104
 30
0.0
 40
0.96768
100
AcDbArc
 50
165.0604480709
 51
359.9999999997
  0
ARC
  5
457
100
AcDbEntity
  8
L1_95
  6
CONTINUOUS
 62
         7
100
AcDbCircle
 10
1597.558849051
 20
30.7717912712
 30
0.0
 40
0.96768
100
AcDbArc
 50
345.0604480713
 51
540.0000000001
  0
ARC
  5
458
100
AcDbEntity
  8
L1_95
  6
CONTINUOUS
 62
         7
100
AcDbCircle
 10
1595.4976876003
 20
-12.3092730104
 30
0.0
 40
0.96768
100
AcDbArc
 50
165.0604480713
 51
360.0000000001
  0
ARC
  5
459
100
AcDbEntity
  8
L1_95
  6
CONTINUOUS
 62
         7
100
AcDbCircle
 10
1593.688129051
 20
30.7717912712
 30
0.0
 40
0.96768
100
AcDbArc
 50
345.0604480705
 51
539.9999999997
  0
ARC
  5
45A
100
AcDbEntity
  8
L1_95
  6
CONTINUOUS
 62
         7
100
AcDbCircle
 10
1591.6269676003
 20
-12.3092730104
 30
0.0
 40
0.96768
100
AcDbArc
 50
165.0604480709
 51
359.9999999997
  0
ARC
  5
45B
100
AcDbEntity
  8
L1_95
  6
CONTINUOUS
 62
         7
100
AcDbCircle
 10
1589.817409051
 20
30.7717912712
 30
0.0
 40
0.96768
100
AcDbArc
 50
345.0604480709
 51
539.9999999997
  0
ARC
  5
45C
100
AcDbEntity
  8
L1_95
  6
CONTINUOUS
 62
         7
100
AcDbCircle
 10
1587.7562476003
 20
-12.3092730104
 30
0.0
 40
0.96768
100
AcDbArc
 50
165.0604480713
 51
359.9999999997
  0
ARC
  5
45D
100
AcDbEntity
  8
L1_95
  6
CONTINUOUS
 62
         7
100
AcDbCircle
 10
1585.946689051
 20
30.7717912712
 30
0.0
 40
0.96768
100
AcDbArc
 50
345.0604480705
 51
539.9999999997
  0
ARC
  5
45E
100
AcDbEntity
  8
L1_95
  6
CONTINUOUS
 62
         7
100
AcDbCircle
 10
1583.8855276003
 20
-12.3092730104
 30
0.0
 40
0.96768
100
AcDbArc
 50
165.0604480709
 51
360.0000000001
  0
LINE
  5
45F
100
AcDbEntity
  8
L1_95
  6
CONTINUOUS
 62
         7
100
AcDbLine
 10
1419.1033403763
 20
-43.4433347407
 30
0.0
 11
1419.1033403763
 21
-38.9433347407
 31
0.0
  0
LINE
  5
460
100
AcDbEntity
  8
L1_95
  6
CONTINUOUS
 62
         7
100
AcDbLine
 10
1419.1033403763
 20
13.0566652593
 30
0.0
 11
1419.1033403763
 21
17.5566652593
 31
0.0
  0
ARC
  5
461
100
AcDbEntity
  8
L1_95
  6
CONTINUOUS
 62
         7
100
AcDbCircle
 10
1422.1033403763
 20
176.1846417294
 30
0.0
 40
3.0
100
AcDbArc
 50
180.0
 51
270.0
  0
ARC
  5
462
100
AcDbEntity
  8
L1_95
  6
CONTINUOUS
 62
         7
100
AcDbCircle
 10
1422.1033403763
 20
124.1846417294
 30
0.0
 40
3.0
100
AcDbArc
 50
90.0
 51
180.0
  0
ARC
  5
463
100
AcDbEntity
  8
L1_95
  6
CONTINUOUS
 62
         7
100
AcDbCircle
 10
1422.1033403763
 20
13.0566652593
 30
0.0
 40
3.0
100
AcDbArc
 50
180.0
 51
270.0
  0
ARC
  5
464
100
AcDbEntity
  8
L1_95
  6
CONTINUOUS
 62
         7
100
AcDbCircle
 10
1422.1033403763
 20
-38.9433347407
 30
0.0
 40
3.0
100
AcDbArc
 50
90.0
 51
180.0
  0
POLYLINE
  5
466
100
AcDbEntity
  8
L1_95
  6
CONTINUOUS
 62
         7
100
AcDb2dPolyline
 66
         1
 10
0.0
 20
0.0
 30
0.0
 70
         2
  0
VERTEX
  5
468
100
AcDbEntity
  8
L1_95
  6
CONTINUOUS
 62
         7
100
AcDbVertex
100
AcDb2dVertex
 10
1461.1533403763
 20
-2.9433347407
 30
0.0
 70
         1
  0
VERTEX
  5
46A
100
AcDbEntity
  8
L1_95
  6
CONTINUOUS
 62
         7
100
AcDbVertex
100
AcDb2dVertex
 10
1461.1009523373
 20
-2.4637811297
 30
0.0
 70
         1
  0
VERTEX
  5
46C
100
AcDbEntity
  8
L1_95
  6
CONTINUOUS
 62
         7
100
AcDbVertex
100
AcDb2dVertex
 10
1461.0520745762
 20
-2.2791328881
 30
0.0
 70
         1
  0
VERTEX
  5
46E
100
AcDbEntity
  8
L1_95
  6
CONTINUOUS
 62
         7
100
AcDbVertex
100
AcDb2dVertex
 10
1460.985856927
 20
-2.0935757597
 30
0.0
 70
         1
  0
VERTEX
  5
470
100
AcDbEntity
  8
L1_95
  6
CONTINUOUS
 62
         7
100
AcDbVertex
100
AcDb2dVertex
 10
1460.9017480142
 20
-1.9087762439
 30
0.0
 70
         1
  0
VERTEX
  5
472
100
AcDbEntity
  8
L1_95
  6
CONTINUOUS
 62
         7
100
AcDbVertex
100
AcDb2dVertex
 10
1460.7995036201
 20
-1.7265180271
 30
0.0
 70
         1
  0
VERTEX
  5
474
100
AcDbEntity
  8
L1_95
  6
CONTINUOUS
 62
         7
100
AcDbVertex
100
AcDb2dVertex
 10
1460.6792231611
 20
-1.5486538497
 30
0.0
 70
         1
  0
VERTEX
  5
476
100
AcDbEntity
  8
L1_95
  6
CONTINUOUS
 62
         7
100
AcDbVertex
100
AcDb2dVertex
 10
1460.5413726852
 20
-1.3770490237
 30
0.0
 70
         1
  0
VERTEX
  5
478
100
AcDbEntity
  8
L1_95
  6
CONTINUOUS
 62
         7
100
AcDbVertex
100
AcDb2dVertex
 10
1460.3867913201
 20
-1.2135196741
 30
0.0
 70
         1
  0
VERTEX
  5
47A
100
AcDbEntity
  8
L1_95
  6
CONTINUOUS
 62
         7
100
AcDbVertex
100
AcDb2dVertex
 10
1460.2166793231
 20
-1.0597696203
 30
0.0
 70
         1
  0
VERTEX
  5
47C
100
AcDbEntity
  8
L1_95
  6
CONTINUOUS
 62
         7
100
AcDbVertex
100
AcDb2dVertex
 10
1460.0325674562
 20
-0.9173302581
 30
0.0
 70
         1
  0
VERTEX
  5
47E
100
AcDbEntity
  8
L1_95
  6
CONTINUOUS
 62
         7
100
AcDbVertex
100
AcDb2dVertex
 10
1459.7669815178
 20
-0.746362331
 30
0.0
 70
         1
  0
VERTEX
  5
480
100
AcDbEntity
  8
L1_95
  6
CONTINUOUS
 62
         7
100
AcDbVertex
100
AcDb2dVertex
 10
1459.4844771806
 20
-0.6004189215
 30
0.0
 70
         1
  0
VERTEX
  5
482
100
AcDbEntity
  8
L1_95
  6
CONTINUOUS
 62
         7
100
AcDbVertex
100
AcDb2dVertex
 10
1459.1904087135
 20
-0.4809160505
 30
0.0
 70
         1
  0
VERTEX
  5
484
100
AcDbEntity
  8
L1_95
  6
CONTINUOUS
 62
         7
100
AcDbVertex
100
AcDb2dVertex
 10
1458.890199758
 20
-0.3882845062
 30
0.0
 70
         1
  0
VERTEX
  5
486
100
AcDbEntity
  8
L1_95
  6
CONTINUOUS
 62
         7
100
AcDbVertex
100
AcDb2dVertex
 10
1458.5890389984
 20
-0.322032501
 30
0.0
 70
         1
  0
VERTEX
  5
488
100
AcDbEntity
  8
L1_95
  6
CONTINUOUS
 62
         7
100
AcDbVertex
100
AcDb2dVertex
 10
1458.2916303527
 20
-0.2808745943
 30
0.0
 70
         1
  0
VERTEX
  5
48A
100
AcDbEntity
  8
L1_95
  6
CONTINUOUS
 62
         7
100
AcDbVertex
100
AcDb2dVertex
 10
1458.0020163861
 20
-0.2629030646
 30
0.0
 70
         1
  0
VERTEX
  5
48C
100
AcDbEntity
  8
L1_95
  6
CONTINUOUS
 62
         7
100
AcDbVertex
100
AcDb2dVertex
 10
1457.6309234007
 20
-0.271103906
 30
0.0
 70
         1
  0
VERTEX
  5
48E
100
AcDbEntity
  8
L1_95
  6
CONTINUOUS
 62
         7
100
AcDbVertex
100
AcDb2dVertex
 10
1457.2854596654
 20
-0.3105765773
 30
0.0
 70
         1
  0
VERTEX
  5
490
100
AcDbEntity
  8
L1_95
  6
CONTINUOUS
 62
         7
100
AcDbVertex
100
AcDb2dVertex
 10
1456.9689981215
 20
-0.3748769452
 30
0.0
 70
         1
  0
VERTEX
  5
492
100
AcDbEntity
  8
L1_95
  6
CONTINUOUS
 62
         7
100
AcDbVertex
100
AcDb2dVertex
 10
1456.6829170858
 20
-0.4579209307
 30
0.0
 70
         1
  0
VERTEX
  5
494
100
AcDbEntity
  8
L1_95
  6
CONTINUOUS
 62
         7
100
AcDbVertex
100
AcDb2dVertex
 10
1456.4270573602
 20
-0.5542933574
 30
0.0
 70
         1
  0
VERTEX
  5
496
100
AcDbEntity
  8
L1_95
  6
CONTINUOUS
 62
         7
100
AcDbVertex
100
AcDb2dVertex
 10
1456.1279500967
 20
-0.6971519671
 30
0.0
 70
         1
  0
VERTEX
  5
498
100
AcDbEntity
  8
L1_95
  6
CONTINUOUS
 62
         7
100
AcDbVertex
100
AcDb2dVertex
 10
1455.8764395862
 20
-0.847090146
 30
0.0
 70
         1
  0
VERTEX
  5
49A
100
AcDbEntity
  8
L1_95
  6
CONTINUOUS
 62
         7
100
AcDbVertex
100
AcDb2dVertex
 10
1455.6666712813
 20
-0.9977431673
 30
0.0
 70
         1
  0
VERTEX
  5
49C
100
AcDbEntity
  8
L1_95
  6
CONTINUOUS
 62
         7
100
AcDbVertex
100
AcDb2dVertex
 10
1455.4389388965
 20
-1.195069385
 30
0.0
 70
         1
  0
VERTEX
  5
49E
100
AcDbEntity
  8
L1_95
  6
CONTINUOUS
 62
         7
100
AcDbVertex
100
AcDb2dVertex
 10
1455.2630013905
 20
-1.3796975015
 30
0.0
 70
         1
  0
VERTEX
  5
4A0
100
AcDbEntity
  8
L1_95
  6
CONTINUOUS
 62
         7
100
AcDbVertex
100
AcDb2dVertex
 10
1455.1273813496
 20
-1.5487571698
 30
0.0
 70
         1
  0
VERTEX
  5
4A2
100
AcDbEntity
  8
L1_95
  6
CONTINUOUS
 62
         7
100
AcDbVertex
100
AcDb2dVertex
 10
1454.9915048608
 20
-1.7522553887
 30
0.0
 70
         1
  0
VERTEX
  5
4A4
100
AcDbEntity
  8
L1_95
  6
CONTINUOUS
 62
         7
100
AcDbVertex
100
AcDb2dVertex
 10
1454.8681348737
 20
-1.9846121406
 30
0.0
 70
         1
  0
VERTEX
  5
4A6
100
AcDbEntity
  8
L1_95
  6
CONTINUOUS
 62
         7
100
AcDbVertex
100
AcDb2dVertex
 10
1454.7910503572
 20
-2.1709901868
 30
0.0
 70
         1
  0
VERTEX
  5
4A8
100
AcDbEntity
  8
L1_95
  6
CONTINUOUS
 62
         7
100
AcDbVertex
100
AcDb2dVertex
 10
1454.728864288
 20
-2.3685797579
 30
0.0
 70
         1
  0
VERTEX
  5
4AA
100
AcDbEntity
  8
L1_95
  6
CONTINUOUS
 62
         7
100
AcDbVertex
100
AcDb2dVertex
 10
1454.6865477013
 20
-2.5609653983
 30
0.0
 70
         1
  0
VERTEX
  5
4AC
100
AcDbEntity
  8
L1_95
  6
CONTINUOUS
 62
         7
100
AcDbVertex
100
AcDb2dVertex
 10
1454.6592382579
 20
-2.7818508403
 30
0.0
 70
         1
  0
VERTEX
  5
4AE
100
AcDbEntity
  8
L1_95
  6
CONTINUOUS
 62
         7
100
AcDbVertex
100
AcDb2dVertex
 10
1454.6533403763
 20
-2.9433347301
 30
0.0
 70
         1
  0
SEQEND
  5
4B0
100
AcDbEntity
  8
L1_95
  6
CONTINUOUS
 62
         7
  0
POLYLINE
  5
4B2
100
AcDbEntity
  8
L1_95
  6
CONTINUOUS
 62
         7
100
AcDb2dPolyline
 66
         1
 10
0.0
 20
0.0
 30
0.0
 70
         2
  0
VERTEX
  5
4B4
100
AcDbEntity
  8
L1_95
  6
CONTINUOUS
 62
         7
100
AcDbVertex
100
AcDb2dVertex
 10
1454.6533403763
 20
-2.9433347407
 30
0.0
 70
         1
  0
VERTEX
  5
4B6
100
AcDbEntity
  8
L1_95
  6
CONTINUOUS
 62
         7
100
AcDbVertex
100
AcDb2dVertex
 10
1454.7057283636
 20
-3.4704254172
 30
0.0
 70
         1
  0
VERTEX
  5
4B8
100
AcDbEntity
  8
L1_95
  6
CONTINUOUS
 62
         7
100
AcDbVertex
100
AcDb2dVertex
 10
1454.754606074
 20
-3.6733774155
 30
0.0
 70
         1
  0
VERTEX
  5
4BA
100
AcDbEntity
  8
L1_95
  6
CONTINUOUS
 62
         7
100
AcDbVertex
100
AcDb2dVertex
 10
1454.8208236525
 20
-3.8773283959
 30
0.0
 70
         1
  0
VERTEX
  5
4BC
100
AcDbEntity
  8
L1_95
  6
CONTINUOUS
 62
         7
100
AcDbVertex
100
AcDb2dVertex
 10
1454.9049324736
 20
-4.0804466645
 30
0.0
 70
         1
  0
VERTEX
  5
4BE
100
AcDbEntity
  8
L1_95
  6
CONTINUOUS
 62
         7
100
AcDbVertex
100
AcDb2dVertex
 10
1455.0071767542
 20
-4.2807717249
 30
0.0
 70
         1
  0
VERTEX
  5
4C0
100
AcDbEntity
  8
L1_95
  6
CONTINUOUS
 62
         7
100
AcDbVertex
100
AcDb2dVertex
 10
1455.1274570783
 20
-4.4762671811
 30
0.0
 70
         1
  0
VERTEX
  5
4C2
100
AcDbEntity
  8
L1_95
  6
CONTINUOUS
 62
         7
100
AcDbVertex
100
AcDb2dVertex
 10
1455.2653073991
 20
-4.6648828198
 30
0.0
 70
         1
  0
VERTEX
  5
4C4
100
AcDbEntity
  8
L1_95
  6
CONTINUOUS
 62
         7
100
AcDbVertex
100
AcDb2dVertex
 10
1455.4198885907
 20
-4.8446224899
 30
0.0
 70
         1
  0
VERTEX
  5
4C6
100
AcDbEntity
  8
L1_95
  6
CONTINUOUS
 62
         7
100
AcDbVertex
100
AcDb2dVertex
 10
1455.5900003987
 20
-5.0136134787
 30
0.0
 70
         1
  0
VERTEX
  5
4C8
100
AcDbEntity
  8
L1_95
  6
CONTINUOUS
 62
         7
100
AcDbVertex
100
AcDb2dVertex
 10
1455.7741120649
 20
-5.1701725883
 30
0.0
 70
         1
  0
VERTEX
  5
4CA
100
AcDbEntity
  8
L1_95
  6
CONTINUOUS
 62
         7
100
AcDbVertex
100
AcDb2dVertex
 10
1456.0396977228
 20
-5.3580882802
 30
0.0
 70
         1
  0
VERTEX
  5
4CC
100
AcDbEntity
  8
L1_95
  6
CONTINUOUS
 62
         7
100
AcDbVertex
100
AcDb2dVertex
 10
1456.3222017766
 20
-5.5184988614
 30
0.0
 70
         1
  0
VERTEX
  5
4CE
100
AcDbEntity
  8
L1_95
  6
CONTINUOUS
 62
         7
100
AcDbVertex
100
AcDb2dVertex
 10
1456.6162699684
 20
-5.6498479429
 30
0.0
 70
         1
  0
VERTEX
  5
4D0
100
AcDbEntity
  8
L1_95
  6
CONTINUOUS
 62
         7
100
AcDbVertex
100
AcDb2dVertex
 10
1456.9164786669
 20
-5.7516620297
 30
0.0
 70
         1
  0
VERTEX
  5
4D2
100
AcDbEntity
  8
L1_95
  6
CONTINUOUS
 62
         7
100
AcDbVertex
100
AcDb2dVertex
 10
1457.2176391962
 20
-5.8244816541
 30
0.0
 70
         1
  0
VERTEX
  5
4D4
100
AcDbEntity
  8
L1_95
  6
CONTINUOUS
 62
         7
100
AcDbVertex
100
AcDb2dVertex
 10
1457.5150476445
 20
-5.8697196732
 30
0.0
 70
         1
  0
VERTEX
  5
4D6
100
AcDbEntity
  8
L1_95
  6
CONTINUOUS
 62
         7
100
AcDbVertex
100
AcDb2dVertex
 10
1457.8046614507
 20
-5.88947291
 30
0.0
 70
         1
  0
VERTEX
  5
4D8
100
AcDbEntity
  8
L1_95
  6
CONTINUOUS
 62
         7
100
AcDbVertex
100
AcDb2dVertex
 10
1458.0831975904
 20
-5.8863149166
 30
0.0
 70
         1
  0
VERTEX
  5
4DA
100
AcDbEntity
  8
L1_95
  6
CONTINUOUS
 62
         7
100
AcDbVertex
100
AcDb2dVertex
 10
1458.4356188158
 20
-5.851032473
 30
0.0
 70
         1
  0
VERTEX
  5
4DC
100
AcDbEntity
  8
L1_95
  6
CONTINUOUS
 62
         7
100
AcDbVertex
100
AcDb2dVertex
 10
1458.7596927961
 20
-5.7866711312
 30
0.0
 70
         1
  0
VERTEX
  5
4DE
100
AcDbEntity
  8
L1_95
  6
CONTINUOUS
 62
         7
100
AcDbVertex
100
AcDb2dVertex
 10
1459.0535735649
 20
-5.7000595139
 30
0.0
 70
         1
  0
VERTEX
  5
4E0
100
AcDbEntity
  8
L1_95
  6
CONTINUOUS
 62
         7
100
AcDbVertex
100
AcDb2dVertex
 10
1459.3170718766
 20
-5.5973590173
 30
0.0
 70
         1
  0
VERTEX
  5
4E2
100
AcDbEntity
  8
L1_95
  6
CONTINUOUS
 62
         7
100
AcDbVertex
100
AcDb2dVertex
 10
1459.5511955955
 20
-5.4838621255
 30
0.0
 70
         1
  0
VERTEX
  5
4E4
100
AcDbEntity
  8
L1_95
  6
CONTINUOUS
 62
         7
100
AcDbVertex
100
AcDb2dVertex
 10
1459.8232987794
 20
-5.3215226431
 30
0.0
 70
         1
  0
VERTEX
  5
4E6
100
AcDbEntity
  8
L1_95
  6
CONTINUOUS
 62
         7
100
AcDbVertex
100
AcDb2dVertex
 10
1460.0509848384
 20
-5.1555786634
 30
0.0
 70
         1
  0
VERTEX
  5
4E8
100
AcDbEntity
  8
L1_95
  6
CONTINUOUS
 62
         7
100
AcDbVertex
100
AcDb2dVertex
 10
1460.2402583387
 20
-4.9917173315
 30
0.0
 70
         1
  0
VERTEX
  5
4EA
100
AcDbEntity
  8
L1_95
  6
CONTINUOUS
 62
         7
100
AcDbVertex
100
AcDb2dVertex
 10
1460.4452707551
 20
-4.7799562946
 30
0.0
 70
         1
  0
VERTEX
  5
4EC
100
AcDbEntity
  8
L1_95
  6
CONTINUOUS
 62
         7
100
AcDbVertex
100
AcDb2dVertex
 10
1460.6034572254
 20
-4.5838035705
 30
0.0
 70
         1
  0
VERTEX
  5
4EE
100
AcDbEntity
  8
L1_95
  6
CONTINUOUS
 62
         7
100
AcDbVertex
100
AcDb2dVertex
 10
1460.7618816873
 20
-4.3457665563
 30
0.0
 70
         1
  0
VERTEX
  5
4F0
100
AcDbEntity
  8
L1_95
  6
CONTINUOUS
 62
         7
100
AcDbVertex
100
AcDb2dVertex
 10
1460.8732979247
 20
-4.1402838202
 30
0.0
 70
         1
  0
VERTEX
  5
4F2
100
AcDbEntity
  8
L1_95
  6
CONTINUOUS
 62
         7
100
AcDbVertex
100
AcDb2dVertex
 10
1460.9747654076
 20
-3.9069148279
 30
0.0
 70
         1
  0
VERTEX
  5
4F4
100
AcDbEntity
  8
L1_95
  6
CONTINUOUS
 62
         7
100
AcDbVertex
100
AcDb2dVertex
 10
1461.0560429287
 20
-3.659152413
 30
0.0
 70
         1
  0
VERTEX
  5
4F6
100
AcDbEntity
  8
L1_95
  6
CONTINUOUS
 62
         7
100
AcDbVertex
100
AcDb2dVertex
 10
1461.1108620728
 20
-3.4183270169
 30
0.0
 70
         1
  0
VERTEX
  5
4F8
100
AcDbEntity
  8
L1_95
  6
CONTINUOUS
 62
         7
100
AcDbVertex
100
AcDb2dVertex
 10
1461.1400067724
 20
-3.2100541275
 30
0.0
 70
         1
  0
VERTEX
  5
4FA
100
AcDbEntity
  8
L1_95
  6
CONTINUOUS
 62
         7
100
AcDbVertex
100
AcDb2dVertex
 10
1461.1533403762
 20
-2.9433374393
 30
0.0
 70
         1
  0
SEQEND
  5
4FC
100
AcDbEntity
  8
L1_95
  6
CONTINUOUS
 62
         7
  0
LINE
  5
4FD
100
AcDbEntity
  8
L1_95
  6
CENTER
 62
         1
100
AcDbLine
 10
1461.1533403763
 20
-2.9433347407
 30
0.0
 11
1454.6533403763
 21
-2.9433347407
 31
0.0
  0
POLYLINE
  5
4FF
100
AcDbEntity
  8
L1_95
  6
CONTINUOUS
 62
         7
100
AcDb2dPolyline
 66
         1
 10
0.0
 20
0.0
 30
0.0
 70
         2
  0
VERTEX
  5
501
100
AcDbEntity
  8
L1_95
  6
CONTINUOUS
 62
         7
100
AcDbVertex
100
AcDb2dVertex
 10
1454.6533403763
 20
-22.9433347513
 30
0.0
 70
         1
  0
VERTEX
  5
503
100
AcDbEntity
  8
L1_95
  6
CONTINUOUS
 62
         7
100
AcDbVertex
100
AcDb2dVertex
 10
1454.7057284179
 20
-23.4228883639
 30
0.0
 70
         1
  0
VERTEX
  5
505
100
AcDbEntity
  8
L1_95
  6
CONTINUOUS
 62
         7
100
AcDbVertex
100
AcDb2dVertex
 10
1454.7546061803
 20
-23.607536606
 30
0.0
 70
         1
  0
VERTEX
  5
507
100
AcDbEntity
  8
L1_95
  6
CONTINUOUS
 62
         7
100
AcDbVertex
100
AcDb2dVertex
 10
1454.8208238308
 20
-23.7930937349
 30
0.0
 70
         1
  0
VERTEX
  5
509
100
AcDbEntity
  8
L1_95
  6
CONTINUOUS
 62
         7
100
AcDbVertex
100
AcDb2dVertex
 10
1454.9049327452
 20
-23.9778932509
 30
0.0
 70
         1
  0
VERTEX
  5
50B
100
AcDbEntity
  8
L1_95
  6
CONTINUOUS
 62
         7
100
AcDbVertex
100
AcDb2dVertex
 10
1455.0071771409
 20
-24.160151468
 30
0.0
 70
         1
  0
VERTEX
  5
50D
100
AcDbEntity
  8
L1_95
  6
CONTINUOUS
 62
         7
100
AcDbVertex
100
AcDb2dVertex
 10
1455.1274576015
 20
-24.3380156454
 30
0.0
 70
         1
  0
VERTEX
  5
50F
100
AcDbEntity
  8
L1_95
  6
CONTINUOUS
 62
         7
100
AcDbVertex
100
AcDb2dVertex
 10
1455.2653080792
 20
-24.5096204713
 30
0.0
 70
         1
  0
VERTEX
  5
511
100
AcDbEntity
  8
L1_95
  6
CONTINUOUS
 62
         7
100
AcDbVertex
100
AcDb2dVertex
 10
1455.419889446
 20
-24.6731498205
 30
0.0
 70
         1
  0
VERTEX
  5
513
100
AcDbEntity
  8
L1_95
  6
CONTINUOUS
 62
         7
100
AcDbVertex
100
AcDb2dVertex
 10
1455.5900014447
 20
-24.8268998739
 30
0.0
 70
         1
  0
VERTEX
  5
515
100
AcDbEntity
  8
L1_95
  6
CONTINUOUS
 62
         7
100
AcDbVertex
100
AcDb2dVertex
 10
1455.7741133134
 20
-24.9693392354
 30
0.0
 70
         1
  0
VERTEX
  5
517
100
AcDbEntity
  8
L1_95
  6
CONTINUOUS
 62
         7
100
AcDbVertex
100
AcDb2dVertex
 10
1456.0396992539
 20
-25.1403071614
 30
0.0
 70
         1
  0
VERTEX
  5
519
100
AcDbEntity
  8
L1_95
  6
CONTINUOUS
 62
         7
100
AcDbVertex
100
AcDb2dVertex
 10
1456.3222035929
 20
-25.2862505695
 30
0.0
 70
         1
  0
VERTEX
  5
51B
100
AcDbEntity
  8
L1_95
  6
CONTINUOUS
 62
         7
100
AcDbVertex
100
AcDb2dVertex
 10
1456.6162720616
 20
-25.4057534389
 30
0.0
 70
         1
  0
VERTEX
  5
51D
100
AcDbEntity
  8
L1_95
  6
CONTINUOUS
 62
         7
100
AcDbVertex
100
AcDb2dVertex
 10
1456.9164810184
 20
-25.4983849814
 30
0.0
 70
         1
  0
VERTEX
  5
51F
100
AcDbEntity
  8
L1_95
  6
CONTINUOUS
 62
         7
100
AcDbVertex
100
AcDb2dVertex
 10
1457.2176417789
 20
-25.5646369848
 30
0.0
 70
         1
  0
VERTEX
  5
521
100
AcDbEntity
  8
L1_95
  6
CONTINUOUS
 62
         7
100
AcDbVertex
100
AcDb2dVertex
 10
1457.5150504252
 20
-25.6057948895
 30
0.0
 70
         1
  0
VERTEX
  5
523
100
AcDbEntity
  8
L1_95
  6
CONTINUOUS
 62
         7
100
AcDbVertex
100
AcDb2dVertex
 10
1457.8046643921
 20
-25.6237664174
 30
0.0
 70
         1
  0
VERTEX
  5
525
100
AcDbEntity
  8
L1_95
  6
CONTINUOUS
 62
         7
100
AcDbVertex
100
AcDb2dVertex
 10
1458.1757573773
 20
-25.6155655736
 30
0.0
 70
         1
  0
VERTEX
  5
527
100
AcDbEntity
  8
L1_95
  6
CONTINUOUS
 62
         7
100
AcDbVertex
100
AcDb2dVertex
 10
1458.5212211121
 20
-25.5760929
 30
0.0
 70
         1
  0
VERTEX
  5
529
100
AcDbEntity
  8
L1_95
  6
CONTINUOUS
 62
         7
100
AcDbVertex
100
AcDb2dVertex
 10
1458.8376826551
 20
-25.5117925302
 30
0.0
 70
         1
  0
VERTEX
  5
52B
100
AcDbEntity
  8
L1_95
  6
CONTINUOUS
 62
         7
100
AcDbVertex
100
AcDb2dVertex
 10
1459.1237636896
 20
-25.428748543
 30
0.0
 70
         1
  0
VERTEX
  5
52D
100
AcDbEntity
  8
L1_95
  6
CONTINUOUS
 62
         7
100
AcDbVertex
100
AcDb2dVertex
 10
1459.3796234139
 20
-25.3323761149
 30
0.0
 70
         1
  0
VERTEX
  5
52F
100
AcDbEntity
  8
L1_95
  6
CONTINUOUS
 62
         7
100
AcDbVertex
100
AcDb2dVertex
 10
1459.6787306755
 20
-25.1895175036
 30
0.0
 70
         1
  0
VERTEX
  5
531
100
AcDbEntity
  8
L1_95
  6
CONTINUOUS
 62
         7
100
AcDbVertex
100
AcDb2dVertex
 10
1459.9302411841
 20
-25.0395793236
 30
0.0
 70
         1
  0
VERTEX
  5
533
100
AcDbEntity
  8
L1_95
  6
CONTINUOUS
 62
         7
100
AcDbVertex
100
AcDb2dVertex
 10
1460.1400094873
 20
-24.8889263015
 30
0.0
 70
         1
  0
VERTEX
  5
535
100
AcDbEntity
  8
L1_95
  6
CONTINUOUS
 62
         7
100
AcDbVertex
100
AcDb2dVertex
 10
1460.3677418698
 20
-24.6916000831
 30
0.0
 70
         1
  0
VERTEX
  5
537
100
AcDbEntity
  8
L1_95
  6
CONTINUOUS
 62
         7
100
AcDbVertex
100
AcDb2dVertex
 10
1460.5436793738
 20
-24.5069719663
 30
0.0
 70
         1
  0
VERTEX
  5
539
100
AcDbEntity
  8
L1_95
  6
CONTINUOUS
 62
         7
100
AcDbVertex
100
AcDb2dVertex
 10
1460.6792994131
 20
-24.3379122978
 30
0.0
 70
         1
  0
VERTEX
  5
53B
100
AcDbEntity
  8
L1_95
  6
CONTINUOUS
 62
         7
100
AcDbVertex
100
AcDb2dVertex
 10
1460.8151759
 20
-24.1344140789
 30
0.0
 70
         1
  0
VERTEX
  5
53D
100
AcDbEntity
  8
L1_95
  6
CONTINUOUS
 62
         7
100
AcDbVertex
100
AcDb2dVertex
 10
1460.938545885
 20
-23.9020573273
 30
0.0
 70
         1
  0
VERTEX
  5
53F
100
AcDbEntity
  8
L1_95
  6
CONTINUOUS
 62
         7
100
AcDbVertex
100
AcDb2dVertex
 10
1461.0156304001
 20
-23.7156792815
 30
0.0
 70
         1
  0
VERTEX
  5
541
100
AcDbEntity
  8
L1_95
  6
CONTINUOUS
 62
         7
100
AcDbVertex
100
AcDb2dVertex
 10
1461.0778164678
 20
-23.5180897109
 30
0.0
 70
         1
  0
VERTEX
  5
543
100
AcDbEntity
  8
L1_95
  6
CONTINUOUS
 62
         7
100
AcDbVertex
100
AcDb2dVertex
 10
1461.1201330532
 20
-23.3257040711
 30
0.0
 70
         1
  0
VERTEX
  5
545
100
AcDbEntity
  8
L1_95
  6
CONTINUOUS
 62
         7
100
AcDbVertex
100
AcDb2dVertex
 10
1461.1474424955
 20
-23.1048186299
 30
0.0
 70
         1
  0
VERTEX
  5
547
100
AcDbEntity
  8
L1_95
  6
CONTINUOUS
 62
         7
100
AcDbVertex
100
AcDb2dVertex
 10
1461.1533403763
 20
-22.9433347407
 30
0.0
 70
         1
  0
SEQEND
  5
549
100
AcDbEntity
  8
L1_95
  6
CONTINUOUS
 62
         7
  0
POLYLINE
  5
54B
100
AcDbEntity
  8
L1_95
  6
CONTINUOUS
 62
         7
100
AcDb2dPolyline
 66
         1
 10
0.0
 20
0.0
 30
0.0
 70
         2
  0
VERTEX
  5
54D
100
AcDbEntity
  8
L1_95
  6
CONTINUOUS
 62
         7
100
AcDbVertex
100
AcDb2dVertex
 10
1461.1533403763
 20
-22.9433320421
 30
0.0
 70
         1
  0
VERTEX
  5
54F
100
AcDbEntity
  8
L1_95
  6
CONTINUOUS
 62
         7
100
AcDbVertex
100
AcDb2dVertex
 10
1461.1009517616
 20
-22.4162409343
 30
0.0
 70
         1
  0
VERTEX
  5
551
100
AcDbEntity
  8
L1_95
  6
CONTINUOUS
 62
         7
100
AcDbVertex
100
AcDb2dVertex
 10
1461.052073759
 20
-22.2132888038
 30
0.0
 70
         1
  0
VERTEX
  5
553
100
AcDbEntity
  8
L1_95
  6
CONTINUOUS
 62
         7
100
AcDbVertex
100
AcDb2dVertex
 10
1460.9858558583
 20
-22.0093377149
 30
0.0
 70
         1
  0
VERTEX
  5
555
100
AcDbEntity
  8
L1_95
  6
CONTINUOUS
 62
         7
100
AcDbVertex
100
AcDb2dVertex
 10
1460.9017466881
 20
-21.8062193667
 30
0.0
 70
         1
  0
VERTEX
  5
557
100
AcDbEntity
  8
L1_95
  6
CONTINUOUS
 62
         7
100
AcDbVertex
100
AcDb2dVertex
 10
1460.7995020355
 20
-21.6058942605
 30
0.0
 70
         1
  0
VERTEX
  5
559
100
AcDbEntity
  8
L1_95
  6
CONTINUOUS
 62
         7
100
AcDbVertex
100
AcDb2dVertex
 10
1460.6792213218
 20
-21.4103987966
 30
0.0
 70
         1
  0
VERTEX
  5
55B
100
AcDbEntity
  8
L1_95
  6
CONTINUOUS
 62
         7
100
AcDbVertex
100
AcDb2dVertex
 10
1460.5413706004
 20
-21.2217831918
 30
0.0
 70
         1
  0
VERTEX
  5
55D
100
AcDbEntity
  8
L1_95
  6
CONTINUOUS
 62
         7
100
AcDbVertex
100
AcDb2dVertex
 10
1460.3867890044
 20
-21.0420435992
 30
0.0
 70
         1
  0
VERTEX
  5
55F
100
AcDbEntity
  8
L1_95
  6
CONTINUOUS
 62
         7
100
AcDbVertex
100
AcDb2dVertex
 10
1460.2166767959
 20
-20.8730527326
 30
0.0
 70
         1
  0
VERTEX
  5
561
100
AcDbEntity
  8
L1_95
  6
CONTINUOUS
 62
         7
100
AcDbVertex
100
AcDb2dVertex
 10
1460.0325647412
 20
-20.7164937894
 30
0.0
 70
         1
  0
VERTEX
  5
563
100
AcDbEntity
  8
L1_95
  6
CONTINUOUS
 62
         7
100
AcDbVertex
100
AcDb2dVertex
 10
1459.7669785949
 20
-20.528578386
 30
0.0
 70
         1
  0
VERTEX
  5
565
100
AcDbEntity
  8
L1_95
  6
CONTINUOUS
 62
         7
100
AcDbVertex
100
AcDb2dVertex
 10
1459.484474105
 20
-20.36816816
 30
0.0
 70
         1
  0
VERTEX
  5
567
100
AcDbEntity
  8
L1_95
  6
CONTINUOUS
 62
         7
100
AcDbVertex
100
AcDb2dVertex
 10
1459.190405543
 20
-20.2368194884
 30
0.0
 70
         1
  0
VERTEX
  5
569
100
AcDbEntity
  8
L1_95
  6
CONTINUOUS
 62
         7
100
AcDbVertex
100
AcDb2dVertex
 10
1458.8901965493
 20
-20.1350058515
 30
0.0
 70
         1
  0
VERTEX
  5
56B
100
AcDbEntity
  8
L1_95
  6
CONTINUOUS
 62
         7
100
AcDbVertex
100
AcDb2dVertex
 10
1458.5890358047
 20
-20.0621867014
 30
0.0
 70
         1
  0
VERTEX
  5
56D
100
AcDbEntity
  8
L1_95
  6
CONTINUOUS
 62
         7
100
AcDbVertex
100
AcDb2dVertex
 10
1458.2916272207
 20
-20.0169491657
 30
0.0
 70
         1
  0
VERTEX
  5
56F
100
AcDbEntity
  8
L1_95
  6
CONTINUOUS
 62
         7
100
AcDbVertex
100
AcDb2dVertex
 10
1458.0020133548
 20
-19.9971964075
 30
0.0
 70
         1
  0
VERTEX
  5
571
100
AcDbEntity
  8
L1_95
  6
CONTINUOUS
 62
         7
100
AcDbVertex
100
AcDb2dVertex
 10
1457.7234772247
 20
-20.0003548632
 30
0.0
 70
         1
  0
VERTEX
  5
573
100
AcDbEntity
  8
L1_95
  6
CONTINUOUS
 62
         7
100
AcDbVertex
100
AcDb2dVertex
 10
1457.3710561056
 20
-20.0356378863
 30
0.0
 70
         1
  0
VERTEX
  5
575
100
AcDbEntity
  8
L1_95
  6
CONTINUOUS
 62
         7
100
AcDbVertex
100
AcDb2dVertex
 10
1457.0469823171
 20
-20.0999997471
 30
0.0
 70
         1
  0
VERTEX
  5
577
100
AcDbEntity
  8
L1_95
  6
CONTINUOUS
 62
         7
100
AcDbVertex
100
AcDb2dVertex
 10
1456.7531018019
 20
-20.1866118158
 30
0.0
 70
         1
  0
VERTEX
  5
579
100
AcDbEntity
  8
L1_95
  6
CONTINUOUS
 62
         7
100
AcDbVertex
100
AcDb2dVertex
 10
1456.4896037841
 20
-20.2893126949
 30
0.0
 70
         1
  0
VERTEX
  5
57B
100
AcDbEntity
  8
L1_95
  6
CONTINUOUS
 62
         7
100
AcDbVertex
100
AcDb2dVertex
 10
1456.2554803817
 20
-20.4028099035
 30
0.0
 70
         1
  0
VERTEX
  5
57D
100
AcDbEntity
  8
L1_95
  6
CONTINUOUS
 62
         7
100
AcDbVertex
100
AcDb2dVertex
 10
1455.9833776352
 20
-20.5651497187
 30
0.0
 70
         1
  0
VERTEX
  5
57F
100
AcDbEntity
  8
L1_95
  6
CONTINUOUS
 62
         7
100
AcDbVertex
100
AcDb2dVertex
 10
1455.7556920046
 20
-20.7310939396
 30
0.0
 70
         1
  0
VERTEX
  5
581
100
AcDbEntity
  8
L1_95
  6
CONTINUOUS
 62
         7
100
AcDbVertex
100
AcDb2dVertex
 10
1455.5664189089
 20
-20.8949554387
 30
0.0
 70
         1
  0
VERTEX
  5
583
100
AcDbEntity
  8
L1_95
  6
CONTINUOUS
 62
         7
100
AcDbVertex
100
AcDb2dVertex
 10
1455.3614069881
 20
-21.1067166126
 30
0.0
 70
         1
  0
VERTEX
  5
585
100
AcDbEntity
  8
L1_95
  6
CONTINUOUS
 62
         7
100
AcDbVertex
100
AcDb2dVertex
 10
1455.2032209493
 20
-21.3028694007
 30
0.0
 70
         1
  0
VERTEX
  5
587
100
AcDbEntity
  8
L1_95
  6
CONTINUOUS
 62
         7
100
AcDbVertex
100
AcDb2dVertex
 10
1455.0447969758
 20
-21.5409064279
 30
0.0
 70
         1
  0
VERTEX
  5
589
100
AcDbEntity
  8
L1_95
  6
CONTINUOUS
 62
         7
100
AcDbVertex
100
AcDb2dVertex
 10
1454.9333811288
 20
-21.7463891286
 30
0.0
 70
         1
  0
VERTEX
  5
58B
100
AcDbEntity
  8
L1_95
  6
CONTINUOUS
 62
         7
100
AcDbVertex
100
AcDb2dVertex
 10
1454.8319140542
 20
-21.9797580375
 30
0.0
 70
         1
  0
VERTEX
  5
58D
100
AcDbEntity
  8
L1_95
  6
CONTINUOUS
 62
         7
100
AcDbVertex
100
AcDb2dVertex
 10
1454.7506369257
 20
-22.2275203219
 30
0.0
 70
         1
  0
VERTEX
  5
58F
100
AcDbEntity
  8
L1_95
  6
CONTINUOUS
 62
         7
100
AcDbVertex
100
AcDb2dVertex
 10
1454.6958181229
 20
-22.468345557
 30
0.0
 70
         1
  0
VERTEX
  5
591
100
AcDbEntity
  8
L1_95
  6
CONTINUOUS
 62
         7
100
AcDbVertex
100
AcDb2dVertex
 10
1454.6666736864
 20
-22.6766182845
 30
0.0
 70
         1
  0
VERTEX
  5
593
100
AcDbEntity
  8
L1_95
  6
CONTINUOUS
 62
         7
100
AcDbVertex
100
AcDb2dVertex
 10
1454.6533403763
 20
-22.9433347407
 30
0.0
 70
         1
  0
SEQEND
  5
595
100
AcDbEntity
  8
L1_95
  6
CONTINUOUS
 62
         7
  0
LINE
  5
596
100
AcDbEntity
  8
L1_95
  6
CENTER
 62
         1
100
AcDbLine
 10
1461.1533403763
 20
-22.9433347407
 30
0.0
 11
1454.6533403763
 21
-22.9433347407
 31
0.0
  0
LINE
  5
597
100
AcDbEntity
  8
L1_95
  6
CENTER
 62
         1
100
AcDbLine
 10
1457.9033403763
 20
-32.9433347407
 30
0.0
 11
1457.9033403763
 21
7.0566652593
 31
0.0
  0
TEXT
  5
599
100
AcDbEntity
  8
L1_95
  6
CONTINUOUS
 62
         2
100
AcDbText
 10
1607.8551181589
 20
218.0204784082
 30
0.0
 40
4.5
  1
532280
 41
0.98
  7
BOX
100
AcDbText
  0
ENDSEC
  0
SECTION
  2
OBJECTS
  0
DICTIONARY
  5
19
100
AcDbDictionary
  3
ACAD_GROUP
350
1A
  3
ACAD_MLINESTYLE
350
1B
  0
DICTIONARY
  5
1A
102
{ACAD_REACTORS
330
19
102
}
100
AcDbDictionary
  0
DICTIONARY
  5
1B
102
{ACAD_REACTORS
330
19
102
}
100
AcDbDictionary
  3
STANDARD
350
1C
  0
MLINESTYLE
  5
1C
102
{ACAD_REACTORS
330
1B
102
}
100
AcDbMlineStyle
  2
STANDARD
 70
         0
  3

 62
         0
 51
90.0
 52
90.0
 71
         2
 49
0.5
 62
       256
  6
BYLAYER
 49
-0.5
 62
       256
  6
BYLAYER
  0
ENDSEC
  0
EOF
