  0
SECTION
  2
HEADER
  9
$ACADVER
  1
AC1014
  9
$ACADMAINTVER
 70
         0
  9
$DWGCODEPAGE
  3
BIG5
  9
$INSBASE
 10
0.0
 20
0.0
 30
0.0
  9
$EXTMIN
 10
1094.4508238408
 20
-146.7983268801
 30
0.0
  9
$EXTMAX
 10
1875.2005642603
 20
246.8314755437
 30
0.0
  9
$LIMMIN
 10
0.0
 20
0.0
  9
$LIMMAX
 10
0.0
 20
0.0
  9
$ORTHOMODE
 70
         0
  9
$REGENMODE
 70
         1
  9
$FILLMODE
 70
         1
  9
$QTEXTMODE
 70
         0
  9
$MIRRTEXT
 70
         1
  9
$DRAGMODE
 70
         2
  9
$LTSCALE
 40
1.0
  9
$OSMODE
 70
         0
  9
$ATTMODE
 70
         1
  9
$TEXTSIZE
 40
2.7
  9
$TRACEWID
 40
0.05
  9
$TEXTSTYLE
  7
STANDARD
  9
$CLAYER
  8
0
  9
$CELTYPE
  6
CONTINUOUS
  9
$CECOLOR
 62
        16
  9
$CELTSCALE
 40
1.0
  9
$DELOBJ
 70
         1
  9
$DISPSILH
 70
         0
  9
$DIMSCALE
 40
1.0
  9
$DIMASZ
 40
0.18
  9
$DIMEXO
 40
0.0625
  9
$DIMDLI
 40
0.38
  9
$DIMRND
 40
0.0
  9
$DIMDLE
 40
0.0
  9
$DIMEXE
 40
0.25
  9
$DIMTP
 40
0.01
  9
$DIMTM
 40
-0.01
  9
$DIMTXT
 40
2.7
  9
$DIMCEN
 40
0.09
  9
$DIMTSZ
 40
0.0
  9
$DIMTOL
 70
         0
  9
$DIMLIM
 70
         0
  9
$DIMTIH
 70
         1
  9
$DIMTOH
 70
         1
  9
$DIMSE1
 70
         0
  9
$DIMSE2
 70
         0
  9
$DIMTAD
 70
         0
  9
$DIMZIN
 70
         0
  9
$DIMBLK
  1

  9
$DIMASO
 70
         1
  9
$DIMSHO
 70
         1
  9
$DIMPOST
  1

  9
$DIMAPOST
  1

  9
$DIMALT
 70
         0
  9
$DIMALTD
 70
         2
  9
$DIMALTF
 40
25.4
  9
$DIMLFAC
 40
1.0
  9
$DIMTOFL
 70
         0
  9
$DIMTVP
 40
0.0
  9
$DIMTIX
 70
         0
  9
$DIMSOXD
 70
         0
  9
$DIMSAH
 70
         0
  9
$DIMBLK1
  1

  9
$DIMBLK2
  1

  9
$DIMSTYLE
  2
STANDARD
  9
$DIMCLRD
 70
         0
  9
$DIMCLRE
 70
         0
  9
$DIMCLRT
 70
        16
  9
$DIMTFAC
 40
0.7
  9
$DIMGAP
 40
0.09
  9
$DIMJUST
 70
         0
  9
$DIMSD1
 70
         0
  9
$DIMSD2
 70
         0
  9
$DIMTOLJ
 70
         1
  9
$DIMTZIN
 70
         0
  9
$DIMALTZ
 70
         0
  9
$DIMALTTZ
 70
         0
  9
$DIMFIT
 70
         3
  9
$DIMUPT
 70
         0
  9
$DIMUNIT
 70
         2
  9
$DIMDEC
 70
         4
  9
$DIMTDEC
 70
         4
  9
$DIMALTU
 70
         2
  9
$DIMALTTD
 70
         2
  9
$DIMTXSTY
  7
STANDARD
  9
$DIMAUNIT
 70
         0
  9
$LUNITS
 70
         2
  9
$LUPREC
 70
        10
  9
$SKETCHINC
 40
0.1
  9
$FILLETRAD
 40
0.0
  9
$AUNITS
 70
         0
  9
$AUPREC
 70
         0
  9
$MENU
  1
acad
  9
$ELEVATION
 40
0.0
  9
$PELEVATION
 40
0.0
  9
$THICKNESS
 40
0.0
  9
$LIMCHECK
 70
         0
  9
$BLIPMODE
 70
         1
  9
$CHAMFERA
 40
0.0
  9
$CHAMFERB
 40
0.0
  9
$CHAMFERC
 40
0.0
  9
$CHAMFERD
 40
0.0
  9
$SKPOLY
 70
         0
  9
$TDCREATE
 40
0.000000000
  9
$TDUPDATE
 40
0.000000000
  9
$TDINDWG
 40
0.0000000000
  9
$TDUSRTIMER
 40
0.0000000000
  9
$USRTIMER
 70
         1
  9
$ANGBASE
 50
0.0
  9
$ANGDIR
 70
         0
  9
$PDMODE
 70
         2
  9
$PDSIZE
 40
0.0
  9
$PLINEWID
 40
0.0
  9
$COORDS
 70
         1
  9
$SPLFRAME
 70
         0
  9
$SPLINETYPE
 70
         6
  9
$SPLINESEGS
 70
         8
  9
$ATTDIA
 70
         0
  9
$ATTREQ
 70
         1
  9
$HANDLING
 70
         1
  9
$HANDSEED
  5
61E
  9
$SURFTAB1
 70
         6
  9
$SURFTAB2
 70
         6
  9
$SURFTYPE
 70
         6
  9
$SURFU
 70
         6
  9
$SURFV
 70
         6
  9
$UCSNAME
  2

  9
$UCSORG
 10
0.0
 20
0.0
 30
0.0
  9
$UCSXDIR
 10
1.0
 20
0.0
 30
0.0
  9
$UCSYDIR
 10
0.0
 20
1.0
 30
0.0
  9
$PUCSNAME
  2

  9
$PUCSORG
 10
0.0
 20
0.0
 30
0.0
  9
$PUCSXDIR
 10
1.0
 20
0.0
 30
0.0
  9
$PUCSYDIR
 10
0.0
 20
1.0
 30
0.0
  9
$USERI1
 70
         0
  9
$USERI2
 70
         0
  9
$USERI3
 70
         0
  9
$USERI4
 70
         0
  9
$USERI5
 70
         0
  9
$USERR1
 40
0.0
  9
$USERR2
 40
0.0
  9
$USERR3
 40
0.0
  9
$USERR4
 40
0.0
  9
$USERR5
 40
0.0
  9
$WORLDVIEW
 70
         1
  9
$SHADEDGE
 70
         3
  9
$SHADEDIF
 70
        70
  9
$TILEMODE
 70
         1
  9
$MAXACTVP
 70
        16
  9
$PINSBASE
 10
0.0
 20
0.0
 30
0.0
  9
$PLIMCHECK
 70
         0
  9
$PEXTMIN
 10
1.0000000000E+20
 20
1.0000000000E+20
 30
1.0000000000E+20
  9
$PEXTMAX
 10
-1.0000000000E+20
 20
-1.0000000000E+20
 30
-1.0000000000E+20
  9
$PLIMMIN
 10
0.0
 20
0.0
  9
$PLIMMAX
 10
12.0
 20
9.0
  9
$UNITMODE
 70
         0
  9
$VISRETAIN
 70
         0
  9
$PLINEGEN
 70
         1
  9
$PSLTSCALE
 70
         0
  9
$TREEDEPTH
 70
      3020
  9
$PICKSTYLE
 70
         1
  9
$CMLSTYLE
  2
STANDARD
  9
$CMLJUST
 70
         0
  9
$CMLSCALE
 40
1.0
  9
$PROXYGRAPHICS
 70
         0
  9
$MEASUREMENT
 70
         0
  0
ENDSEC
  0
SECTION
  2
CLASSES
  0
CLASS
  1
LWPOLYLINE
  2
AcDbPolyline
  3
"AutoCAD"
 90
        0
280
         0
281
         1
  0
CLASS
  1
IMAGE
  2
AcDbRasterImage
  3
ISM
 90
      127
280
         0
281
         1
  0
CLASS
  1
OLE2FRAME
  2
AcDbOle2Frame
  3
""
 90
        0
280
         0
281
         1
  0
CLASS
  1
HATCH
  2
AcDbHatch
  3
"ACAD_SEDONA"
 90
        0
280
         0
281
         1
  0
CLASS
  1
DICTIONARYVAR
  2
AcDbDictionaryVar
  3
"AutoCAD"
 90
        0
280
         0
281
         0
  0
CLASS
  1
RASTERVARIABLES
  2
AcDbRasterVariables
  3
ISM
 90
        0
280
         0
281
         0
  0
CLASS
  1
IMAGEDEF
  2
AcDbRasterImageDef
  3
ISM
 90
        0
280
         0
281
         0
  0
CLASS
  1
IMAGEDEF_REACTOR
  2
AcDbRasterImageDefReactor
  3
ISM
 90
        1
280
         0
281
         0
  0
CLASS
  1
IDBUFFER
  2
AcDbIdBuffer
  3
"Acad"
 90
        0
280
         0
281
         0
  0
CLASS
  1
SPATIAL_FILTER
  2
AcDbSpatialFilter
  3
"Acad"
 90
        0
280
         0
281
         0
  0
CLASS
  1
XRECORD
  2
AcDbXrecord
  3
"<Built In>"
 90
        0
280
         0
281
         0
  0
CLASS
  1
SORTENTSTABLE
  2
AcDbSortentsTable
  3
"AutoCAD"
 90
        0
280
         0
281
         0
  0
CLASS
  1
LAYER_INDEX
  2
AcDbLayerIndex
  3
"Acad"
 90
        0
280
         0
281
         0
  0
CLASS
  1
SPATIAL_INDEX
  2
AcDbSpatialIndex
  3
"Acad"
 90
        0
280
         0
281
         0
  0
CLASS
  1
OBJECT_PTR
  2
CAseDLPNTableRecord
  3
"ASE-LPNTableRecord"
 90
        1
280
         0
281
         0
  0
CLASS
  1
LAYOUT
  2
AcDbLayout
  3
"AutoCAD 2000"
 90
        1
280
         0
281
         0
  0
CLASS
  1
PLOTSETTINGS
  2
AcDbPlotSettings
  3
"AutoCAD 2000"
 90
        1
280
         0
281
         0
  0
CLASS
  1
ACDBDICTIONARYWDFLT
  2
AcDbDictionaryWithDefault
  3
"AutoCAD 2000"
 90
        1
280
         0
281
         0
  0
CLASS
  1
ACDBPLACEHOLDER
  2
AcDbPlaceHolder
  3
"AutoCAD 2000"
 90
        1
280
         0
281
         0
  0
CLASS
  1
VBA_PROJECT
  2
AcDbVbaProject
  3
"acadvba"
 90
        1
280
         0
281
         0
  0
CLASS
  1
WIPEOUT
  2
AcDbWipeout
  3
WipeOut|AutoCAD Express Tool|expresstools@autodesk.com
 90
      127
280
         0
281
         1
  0
CLASS
  1
WIPEOUTVARIABLES
  2
AcDbWipeoutVariables
  3
WipeOut|AutoCAD Express Tool|expresstools@autodesk.com
 90
        0
280
         0
281
         0
  0
CLASS
  1
RTEXT
  2
RText
  3
RText|AutoCAD Express Tool|expresstools@autodesk.com
 90
        0
280
         0
281
         1
  0
CLASS
  1
ARCALIGNEDTEXT
  2
AcDbArcAlignedText
  3
ATEXT|AutoCAD Express Tool|expresstools@autodesk.com
 90
        0
280
         0
281
         1
  0
ENDSEC
  0
SECTION
  2
TABLES
  0
TABLE
  2
VPORT
  5
7
100
AcDbSymbolTable
 70
         1
  0
VPORT
  5
15
100
AcDbSymbolTableRecord
100
AcDbViewportTableRecord
  2
*ACTIVE
 70
         0
 10
0.0
 20
0.0
 11
1.0
 21
1.0
 12
1484.8256940505
 22
50.0165743318
 13
0.0
 23
0.0
 14
1.0
 24
1.0
 15
0.0
 25
0.0
 16
0.0
 26
0.0
 36
1.0
 17
0.0
 27
0.0
 37
0.0
 40
393.6298024238
 41
1.9834619625
 42
50.0
 43
0.0
 44
0.0
 50
0.0
 51
0.0
 71
         0
 72
       100
 73
         1
 74
         1
 75
         0
 76
         0
 77
         0
 78
         0
  0
ENDTAB
  0
TABLE
  2
LTYPE
  5
4
100
AcDbSymbolTable
 70
         6
  0
LTYPE
  5
11
100
AcDbSymbolTableRecord
100
AcDbLinetypeTableRecord
  2
BYBLOCK
 70
        64
  3

 72
        65
 73
         0
 40
0.0
  0
LTYPE
  5
12
100
AcDbSymbolTableRecord
100
AcDbLinetypeTableRecord
  2
BYLAYER
 70
        64
  3

 72
        65
 73
         0
 40
0.0
  0
LTYPE
  5
13
100
AcDbSymbolTableRecord
100
AcDbLinetypeTableRecord
  2
CONTINUOUS
 70
        64
  3
Solid line
 72
        65
 73
         0
 40
0.0
  0
LTYPE
  5
1D
100
AcDbSymbolTableRecord
100
AcDbLinetypeTableRecord
  2
DASHED
 70
        64
  3
_ _ _ _ _ _ _ _ _ _ _ _ _ _ _ _
 72
        65
 73
         2
 40
0.2
 49
0.1
 74
         0
 49
-0.1
 74
         0
  0
LTYPE
  5
1E
100
AcDbSymbolTableRecord
100
AcDbLinetypeTableRecord
  2
CENTER
 70
        64
  3
___ _ ___ _ ___ _ ___ _ ___ _ ___ _ ___ _ ___ _
 72
        65
 73
         4
 40
0.95
 49
0.625
 74
         0
 49
-0.125
 74
         0
 49
0.075
 74
         0
 49
-0.125
 74
         0
  0
LTYPE
  5
1F
100
AcDbSymbolTableRecord
100
AcDbLinetypeTableRecord
  2
PHANTOM
 70
        64
  3
______  __  __  ______  __  __  ______  __  __  
 72
        65
 73
         6
 40
1.025
 49
0.625
 74
         0
 49
-0.125
 74
         0
 49
0.075
 74
         0
 49
-0.125
 74
         0
 49
0.075
 74
         0
 49
-0.125
 74
         0
  0
ENDTAB
  0
TABLE
  2
LAYER
  5
2
100
AcDbSymbolTable
 70
         5
  0
LAYER
  5
14
100
AcDbSymbolTableRecord
100
AcDbLayerTableRecord
  2
0
 70
         0
 62
         7
  6
CONTINUOUS
  0
LAYER
  5
21
100
AcDbSymbolTableRecord
100
AcDbLayerTableRecord
  2
_____U
 70
         1
 62
         7
  6
CONTINUOUS
  0
LAYER
  5
22
100
AcDbSymbolTableRecord
100
AcDbLayerTableRecord
  2
_Y__________
 70
         0
 62
         7
  6
CONTINUOUS
  0
LAYER
  5
23
100
AcDbSymbolTableRecord
100
AcDbLayerTableRecord
  2
L1_120
 70
         0
 62
         7
  6
CONTINUOUS
  0
LAYER
  5
2FA
100
AcDbSymbolTableRecord
100
AcDbLayerTableRecord
  2
DEFPOINTS
 70
         0
 62
        -7
  6
CONTINUOUS
  0
ENDTAB
  0
TABLE
  2
STYLE
  5
3
100
AcDbSymbolTable
 70
        20
  0
STYLE
  5
17
100
AcDbSymbolTableRecord
100
AcDbTextStyleTableRecord
  2
STANDARD
 70
         0
 40
0.0
 41
1.0
 50
0.0
 71
         0
 42
0.0
  3
txt
  4

  0
STYLE
  5
303
100
AcDbSymbolTableRecord
100
AcDbTextStyleTableRecord
  2
BOX
 70
         0
 40
1.0
 41
1.0
 50
0.0
 71
         0
 42
0.2
  3
txt.shx
  4

  0
STYLE
  5
334
100
AcDbSymbolTableRecord
100
AcDbTextStyleTableRecord
  2
BOX
 70
         0
 40
1.0
 41
1.0
 50
0.0
 71
         0
 42
0.2
  3
txt.shx
  4

  0
STYLE
  5
345
100
AcDbSymbolTableRecord
100
AcDbTextStyleTableRecord
  2
BOX
 70
         0
 40
1.0
 41
1.0
 50
0.0
 71
         0
 42
0.2
  3
txt.shx
  4

  0
STYLE
  5
353
100
AcDbSymbolTableRecord
100
AcDbTextStyleTableRecord
  2
BOX
 70
         0
 40
1.0
 41
1.0
 50
0.0
 71
         0
 42
0.2
  3
txt.shx
  4

  0
STYLE
  5
368
100
AcDbSymbolTableRecord
100
AcDbTextStyleTableRecord
  2
BOX
 70
         0
 40
1.0
 41
1.0
 50
0.0
 71
         0
 42
0.2
  3
txt.shx
  4

  0
STYLE
  5
39D
100
AcDbSymbolTableRecord
100
AcDbTextStyleTableRecord
  2
BOX
 70
         0
 40
1.0
 41
1.0
 50
0.0
 71
         0
 42
0.2
  3
txt.shx
  4

  0
STYLE
  5
57A
100
AcDbSymbolTableRecord
100
AcDbTextStyleTableRecord
  2
BOX
 70
         0
 40
1.0
 41
1.0
 50
0.0
 71
         0
 42
0.2
  3
txt.shx
  4

  0
STYLE
  5
588
100
AcDbSymbolTableRecord
100
AcDbTextStyleTableRecord
  2
BOX
 70
         0
 40
1.0
 41
1.0
 50
0.0
 71
         0
 42
0.2
  3
txt.shx
  4

  0
STYLE
  5
597
100
AcDbSymbolTableRecord
100
AcDbTextStyleTableRecord
  2
BOX
 70
         0
 40
1.0
 41
1.0
 50
0.0
 71
         0
 42
0.2
  3
txt.shx
  4

  0
STYLE
  5
5A6
100
AcDbSymbolTableRecord
100
AcDbTextStyleTableRecord
  2
BOX
 70
         0
 40
1.0
 41
1.0
 50
0.0
 71
         0
 42
0.2
  3
txt.shx
  4

  0
STYLE
  5
5B4
100
AcDbSymbolTableRecord
100
AcDbTextStyleTableRecord
  2
BOX
 70
         0
 40
1.0
 41
1.0
 50
0.0
 71
         0
 42
0.2
  3
txt.shx
  4

  0
STYLE
  5
5C2
100
AcDbSymbolTableRecord
100
AcDbTextStyleTableRecord
  2
BOX
 70
         0
 40
1.0
 41
1.0
 50
0.0
 71
         0
 42
0.2
  3
txt.shx
  4

  0
STYLE
  5
5D1
100
AcDbSymbolTableRecord
100
AcDbTextStyleTableRecord
  2
BOX
 70
         0
 40
1.0
 41
1.0
 50
0.0
 71
         0
 42
0.2
  3
txt.shx
  4

  0
STYLE
  5
5E0
100
AcDbSymbolTableRecord
100
AcDbTextStyleTableRecord
  2
BOX
 70
         0
 40
1.0
 41
1.0
 50
0.0
 71
         0
 42
0.2
  3
txt.shx
  4

  0
STYLE
  5
5EE
100
AcDbSymbolTableRecord
100
AcDbTextStyleTableRecord
  2
BOX
 70
         0
 40
1.0
 41
1.0
 50
0.0
 71
         0
 42
0.2
  3
txt.shx
  4

  0
STYLE
  5
5FC
100
AcDbSymbolTableRecord
100
AcDbTextStyleTableRecord
  2
BOX
 70
         0
 40
1.0
 41
1.0
 50
0.0
 71
         0
 42
0.2
  3
txt.shx
  4

  0
STYLE
  5
60B
100
AcDbSymbolTableRecord
100
AcDbTextStyleTableRecord
  2
BOX
 70
         0
 40
1.0
 41
1.0
 50
0.0
 71
         0
 42
0.2
  3
txt.shx
  4

  0
STYLE
  5
619
100
AcDbSymbolTableRecord
100
AcDbTextStyleTableRecord
  2
BOX
 70
         0
 40
1.0
 41
1.0
 50
0.0
 71
         0
 42
0.2
  3
txt.shx
  4

  0
STYLE
  5
61C
100
AcDbSymbolTableRecord
100
AcDbTextStyleTableRecord
  2
BOX
 70
         0
 40
1.0
 41
1.0
 50
0.0
 71
         0
 42
0.2
  3
txt.shx
  4

  0
ENDTAB
  0
TABLE
  2
VIEW
  5
5
100
AcDbSymbolTable
 70
         0
  0
ENDTAB
  0
TABLE
  2
UCS
  5
6
100
AcDbSymbolTable
 70
         1
  0
UCS
  5
20
100
AcDbSymbolTableRecord
100
AcDbUCSTableRecord
  2
CK_VIEW_1
 70
         0
 10
0.0
 20
0.0
 30
1.0
 11
1.0
 21
0.0
 31
0.0
 12
0.0
 22
1.0
 32
0.0
  0
ENDTAB
  0
TABLE
  2
APPID
  5
8
100
AcDbSymbolTable
 70
         1
  0
APPID
  5
16
100
AcDbSymbolTableRecord
100
AcDbRegAppTableRecord
  2
ACAD
 70
         0
  0
ENDTAB
  0
TABLE
  2
DIMSTYLE
  5
9
100
AcDbSymbolTable
 70
         3
  0
DIMSTYLE
105
18
100
AcDbSymbolTableRecord
100
AcDbDimStyleTableRecord
  2
STANDARD
 70
         0
  3

  4

  5

  6

  7

 40
1.0
 41
0.18
 42
0.0625
 43
0.38
 44
0.18
 45
0.0
 46
0.0
 47
0.0
 48
0.0
 71
         0
 72
         0
 73
         1
 74
         1
 75
         0
 76
         0
 77
         0
 78
         0
140
0.18
141
0.09
142
0.0
143
25.4
144
1.0
145
0.0
146
1.0
147
0.09
170
         0
171
         2
172
         0
173
         0
174
         0
175
         0
176
         0
177
         0
178
         0
270
         2
271
         4
272
         4
273
         2
274
         2
275
         0
280
         0
281
         0
282
         0
283
         1
284
         0
285
         0
286
         0
287
         0
288
         0
340
17
  0
DIMSTYLE
105
2F6
100
AcDbSymbolTableRecord
100
AcDbDimStyleTableRecord
  2
DIMSTYLE1
 70
         0
  3

  4

  5

  6

  7

 40
1.0
 41
2.7
 42
0.0625
 43
0.38
 44
2.7
 45
0.0
 46
0.0
 47
0.0
 48
0.0
 71
         0
 72
         0
 73
         1
 74
         1
 75
         0
 76
         0
 77
         0
 78
         0
140
2.7
141
0.09
142
0.0
143
25.4
144
1.0
145
0.0
146
1.0
147
0.09
170
         0
171
         2
172
         0
173
         0
174
         0
175
         0
176
         0
177
         0
178
         0
270
         2
271
         4
272
         4
273
         2
274
         2
275
         0
280
         0
281
         0
282
         0
283
         1
284
         0
285
         0
286
         0
287
         0
288
         0
340
17
  0
DIMSTYLE
105
35D
100
AcDbSymbolTableRecord
100
AcDbDimStyleTableRecord
  2
DIMSTYLE2
 70
         0
  3

  4

  5

  6

  7

 40
1.0
 41
2.6666666664
 42
0.0625
 43
0.38
 44
2.6666666664
 45
0.0
 46
0.0
 47
0.0
 48
0.0
 71
         0
 72
         0
 73
         1
 74
         1
 75
         0
 76
         0
 77
         0
 78
         0
140
2.6666666664
141
0.09
142
0.0
143
25.4
144
1.0
145
0.0
146
1.0
147
0.09
170
         0
171
         2
172
         0
173
         0
174
         0
175
         0
176
         0
177
         0
178
         0
270
         2
271
         4
272
         4
273
         2
274
         2
275
         0
280
         0
281
         0
282
         0
283
         1
284
         0
285
         0
286
         0
287
         0
288
         0
340
17
  0
ENDTAB
  0
TABLE
  2
BLOCK_RECORD
  5
1
100
AcDbSymbolTable
 70
        19
  0
BLOCK_RECORD
  5
A
100
AcDbSymbolTableRecord
100
AcDbBlockTableRecord
  2
*MODEL_SPACE
  0
BLOCK_RECORD
  5
B
100
AcDbSymbolTableRecord
100
AcDbBlockTableRecord
  2
*PAPER_SPACE
  0
BLOCK_RECORD
  5
2F7
100
AcDbSymbolTableRecord
100
AcDbBlockTableRecord
  2
*D0
  0
BLOCK_RECORD
  5
329
100
AcDbSymbolTableRecord
100
AcDbBlockTableRecord
  2
*D1
  0
BLOCK_RECORD
  5
33A
100
AcDbSymbolTableRecord
100
AcDbBlockTableRecord
  2
*D2
  0
BLOCK_RECORD
  5
348
100
AcDbSymbolTableRecord
100
AcDbBlockTableRecord
  2
*D3
  0
BLOCK_RECORD
  5
35E
100
AcDbSymbolTableRecord
100
AcDbBlockTableRecord
  2
*D4
  0
BLOCK_RECORD
  5
394
100
AcDbSymbolTableRecord
100
AcDbBlockTableRecord
  2
*D5
  0
BLOCK_RECORD
  5
516
100
AcDbSymbolTableRecord
100
AcDbBlockTableRecord
  2
*X6
  0
BLOCK_RECORD
  5
56F
100
AcDbSymbolTableRecord
100
AcDbBlockTableRecord
  2
*D7
  0
BLOCK_RECORD
  5
57D
100
AcDbSymbolTableRecord
100
AcDbBlockTableRecord
  2
*D8
  0
BLOCK_RECORD
  5
58B
100
AcDbSymbolTableRecord
100
AcDbBlockTableRecord
  2
*D9
  0
BLOCK_RECORD
  5
59A
100
AcDbSymbolTableRecord
100
AcDbBlockTableRecord
  2
*D10
  0
BLOCK_RECORD
  5
5A9
100
AcDbSymbolTableRecord
100
AcDbBlockTableRecord
  2
*D11
  0
BLOCK_RECORD
  5
5B7
100
AcDbSymbolTableRecord
100
AcDbBlockTableRecord
  2
*D12
  0
BLOCK_RECORD
  5
5C5
100
AcDbSymbolTableRecord
100
AcDbBlockTableRecord
  2
*D13
  0
BLOCK_RECORD
  5
5D4
100
AcDbSymbolTableRecord
100
AcDbBlockTableRecord
  2
*D14
  0
BLOCK_RECORD
  5
5E3
100
AcDbSymbolTableRecord
100
AcDbBlockTableRecord
  2
*D15
  0
BLOCK_RECORD
  5
5F1
100
AcDbSymbolTableRecord
100
AcDbBlockTableRecord
  2
*D16
  0
BLOCK_RECORD
  5
5FF
100
AcDbSymbolTableRecord
100
AcDbBlockTableRecord
  2
*D17
  0
BLOCK_RECORD
  5
60E
100
AcDbSymbolTableRecord
100
AcDbBlockTableRecord
  2
*D18
  0
ENDTAB
  0
ENDSEC
  0
SECTION
  2
BLOCKS
  0
BLOCK
  5
D
100
AcDbEntity
  8
0
100
AcDbBlockBegin
  2
*MODEL_SPACE
 70
         0
 10
0.0
 20
0.0
 30
0.0
  3
*MODEL_SPACE
  1

  0
ENDBLK
  5
E
100
AcDbEntity
  8
0
100
AcDbBlockEnd
  0
BLOCK
  5
F
100
AcDbEntity
 67
         1
  8
0
100
AcDbBlockBegin
  2
*PAPER_SPACE
 70
         0
 10
0.0
 20
0.0
 30
0.0
  3
*PAPER_SPACE
  1

  0
ENDBLK
  5
10
100
AcDbEntity
 67
         1
  8
0
100
AcDbBlockEnd
  0
BLOCK
  5
2F8
100
AcDbEntity
  8
0
100
AcDbBlockBegin
  2
*D0
 70
        65
 10
0.0
 20
0.0
 30
0.0
  3
*D0
  1

  0
POINT
  5
2FB
100
AcDbEntity
  8
DEFPOINTS
  6
CONTINUOUS
 62
         0
100
AcDbPoint
 10
1591.7958688099
 20
12.1091055841
 30
0.0
  0
POINT
  5
2FC
100
AcDbEntity
  8
DEFPOINTS
  6
CONTINUOUS
 62
         0
100
AcDbPoint
 10
1624.4357904908
 20
12.1091055841
 30
0.0
  0
POINT
  5
2FD
100
AcDbEntity
  8
DEFPOINTS
  6
CONTINUOUS
 62
         0
100
AcDbPoint
 10
1624.4357904908
 20
-69.8908944159
 30
0.0
  0
LINE
  5
2FE
100
AcDbEntity
  8
L1_120
  6
CONTINUOUS
 62
         4
100
AcDbLine
 10
1623.0857904908
 20
12.1091055841
 30
0.0
 11
1591.1208688099
 21
12.1091055841
 31
0.0
  0
LINE
  5
2FF
100
AcDbEntity
  8
L1_120
  6
CONTINUOUS
 62
         4
100
AcDbLine
 10
1623.0857904908
 20
-69.8908944159
 30
0.0
 11
1591.1208688099
 21
-69.8908944159
 31
0.0
  0
LINE
  5
300
100
AcDbEntity
  8
L1_120
  6
CONTINUOUS
 62
         4
100
AcDbLine
 10
1591.7958688099
 20
12.1091055841
 30
0.0
 11
1591.7958688099
 21
-69.8908944159
 31
0.0
  0
SOLID
  5
301
100
AcDbEntity
  8
L1_120
  6
CONTINUOUS
 62
         4
100
AcDbTrace
 10
1591.7958688099
 20
12.1091055841
 30
0.0
 11
1592.2008688099
 21
9.4091055841
 31
0.0
 12
1591.3908688099
 22
9.4091055841
 32
0.0
 13
1591.7958688099
 23
12.1091055841
 33
0.0
  0
SOLID
  5
302
100
AcDbEntity
  8
L1_120
  6
CONTINUOUS
 62
         4
100
AcDbTrace
 10
1591.7958688099
 20
-69.8908944159
 30
0.0
 11
1591.3908688099
 21
-67.1908944159
 31
0.0
 12
1592.2008688099
 22
-67.1908944159
 32
0.0
 13
1591.7958688099
 23
-69.8908944159
 33
0.0
  0
TEXT
  5
304
100
AcDbEntity
  8
L1_120
  6
CONTINUOUS
 62
         4
100
AcDbText
 10
1589.7708688099
 20
-37.1712439188
 30
0.0
 40
2.7
  1
崷82
 50
90.0
  7
BOX
100
AcDbText
  0
ENDBLK
  5
305
100
AcDbEntity
  8
0
  6
CONTINUOUS
100
AcDbBlockEnd
  0
BLOCK
  5
32A
100
AcDbEntity
  8
0
100
AcDbBlockBegin
  2
*D1
 70
        65
 10
0.0
 20
0.0
 30
0.0
  3
*D1
  1

  0
POINT
  5
32C
100
AcDbEntity
  8
DEFPOINTS
  6
CONTINUOUS
 62
         0
100
AcDbPoint
 10
1679.8584402216
 20
21.5323690281
 30
0.0
  0
POINT
  5
32D
100
AcDbEntity
  8
DEFPOINTS
  6
CONTINUOUS
 62
         0
100
AcDbPoint
 10
1679.8584402216
 20
10.6091055841
 30
0.0
  0
POINT
  5
32E
100
AcDbEntity
  8
DEFPOINTS
  6
CONTINUOUS
 62
         0
100
AcDbPoint
 10
1604.8584402216
 20
10.6091055841
 30
0.0
  0
LINE
  5
32F
100
AcDbEntity
  8
L1_120
  6
CONTINUOUS
 62
         4
100
AcDbLine
 10
1679.8584402216
 20
11.9591055841
 30
0.0
 11
1679.8584402216
 21
22.2073690281
 31
0.0
  0
LINE
  5
330
100
AcDbEntity
  8
L1_120
  6
CONTINUOUS
 62
         4
100
AcDbLine
 10
1604.8584402216
 20
11.9591055841
 30
0.0
 11
1604.8584402216
 21
22.2073690281
 31
0.0
  0
LINE
  5
331
100
AcDbEntity
  8
L1_120
  6
CONTINUOUS
 62
         4
100
AcDbLine
 10
1679.8584402216
 20
21.5323690281
 30
0.0
 11
1604.8584402216
 21
21.5323690281
 31
0.0
  0
SOLID
  5
332
100
AcDbEntity
  8
L1_120
  6
CONTINUOUS
 62
         4
100
AcDbTrace
 10
1679.8584402216
 20
21.5323690281
 30
0.0
 11
1677.1584402216
 21
21.1273690281
 31
0.0
 12
1677.1584402216
 22
21.9373690281
 32
0.0
 13
1679.8584402216
 23
21.5323690281
 33
0.0
  0
SOLID
  5
333
100
AcDbEntity
  8
L1_120
  6
CONTINUOUS
 62
         4
100
AcDbTrace
 10
1604.8584402216
 20
21.5323690281
 30
0.0
 11
1607.5584402216
 21
21.9373690281
 31
0.0
 12
1607.5584402216
 22
21.1273690281
 32
0.0
 13
1604.8584402216
 23
21.5323690281
 33
0.0
  0
TEXT
  5
335
100
AcDbEntity
  8
L1_120
  6
CONTINUOUS
 62
         4
100
AcDbText
 10
1638.5950832397
 20
23.5573690281
 30
0.0
 40
2.7
  1
75
  7
BOX
100
AcDbText
  0
ENDBLK
  5
336
100
AcDbEntity
  8
0
  6
CONTINUOUS
100
AcDbBlockEnd
  0
BLOCK
  5
33B
100
AcDbEntity
  8
0
100
AcDbBlockBegin
  2
*D2
 70
        65
 10
0.0
 20
0.0
 30
0.0
  3
*D2
  1

  0
POINT
  5
33D
100
AcDbEntity
  8
DEFPOINTS
  6
CONTINUOUS
 62
         0
100
AcDbPoint
 10
1326.7033403763
 20
224.2142117972
 30
0.0
  0
POINT
  5
33E
100
AcDbEntity
  8
DEFPOINTS
  6
CONTINUOUS
 62
         0
100
AcDbPoint
 10
1326.7033403763
 20
162.0074490628
 30
0.0
  0
POINT
  5
33F
100
AcDbEntity
  8
DEFPOINTS
  6
CONTINUOUS
 62
         0
100
AcDbPoint
 10
1512.1033403763
 20
179.6846417294
 30
0.0
  0
LINE
  5
340
100
AcDbEntity
  8
L1_120
  6
CONTINUOUS
 62
         4
100
AcDbLine
 10
1326.7033403763
 20
163.3574490628
 30
0.0
 11
1326.7033403763
 21
224.8892117972
 31
0.0
  0
LINE
  5
341
100
AcDbEntity
  8
L1_120
  6
CONTINUOUS
 62
         4
100
AcDbLine
 10
1512.1033403763
 20
181.0346417294
 30
0.0
 11
1512.1033403763
 21
224.8892117972
 31
0.0
  0
LINE
  5
342
100
AcDbEntity
  8
L1_120
  6
CONTINUOUS
 62
         4
100
AcDbLine
 10
1326.7033403763
 20
224.2142117972
 30
0.0
 11
1512.1033403763
 21
224.2142117972
 31
0.0
  0
SOLID
  5
343
100
AcDbEntity
  8
L1_120
  6
CONTINUOUS
 62
         4
100
AcDbTrace
 10
1326.7033403763
 20
224.2142117972
 30
0.0
 11
1329.4033403763
 21
224.6192117972
 31
0.0
 12
1329.4033403763
 22
223.8092117972
 32
0.0
 13
1326.7033403763
 23
224.2142117972
 33
0.0
  0
SOLID
  5
344
100
AcDbEntity
  8
L1_120
  6
CONTINUOUS
 62
         4
100
AcDbTrace
 10
1512.1033403763
 20
224.2142117972
 30
0.0
 11
1509.4033403763
 21
223.8092117972
 31
0.0
 12
1509.4033403763
 22
224.6192117972
 32
0.0
 13
1512.1033403763
 23
224.2142117972
 33
0.0
  0
TEXT
  5
346
100
AcDbEntity
  8
L1_120
  6
CONTINUOUS
 62
         4
100
AcDbText
 10
1412.6533403763
 20
226.2392117972
 30
0.0
 40
2.7
  1
185.4
  7
BOX
100
AcDbText
  0
ENDBLK
  5
347
100
AcDbEntity
  8
0
  6
CONTINUOUS
100
AcDbBlockEnd
  0
BLOCK
  5
349
100
AcDbEntity
  8
0
100
AcDbBlockBegin
  2
*D3
 70
        65
 10
0.0
 20
0.0
 30
0.0
  3
*D3
  1

  0
POINT
  5
34B
100
AcDbEntity
  8
DEFPOINTS
  6
CONTINUOUS
 62
         0
100
AcDbPoint
 10
1392.1033403763
 20
217.6437200673
 30
0.0
  0
POINT
  5
34C
100
AcDbEntity
  8
DEFPOINTS
  6
CONTINUOUS
 62
         0
100
AcDbPoint
 10
1392.1033403763
 20
172.4096417294
 30
0.0
  0
POINT
  5
34D
100
AcDbEntity
  8
DEFPOINTS
  6
CONTINUOUS
 62
         0
100
AcDbPoint
 10
1512.1033403763
 20
179.6846417294
 30
0.0
  0
LINE
  5
34E
100
AcDbEntity
  8
L1_120
  6
CONTINUOUS
 62
         4
100
AcDbLine
 10
1392.1033403763
 20
173.7596417294
 30
0.0
 11
1392.1033403763
 21
218.3187200673
 31
0.0
  0
LINE
  5
34F
100
AcDbEntity
  8
L1_120
  6
CONTINUOUS
 62
         4
100
AcDbLine
 10
1512.1033403763
 20
181.0346417294
 30
0.0
 11
1512.1033403763
 21
218.3187200673
 31
0.0
  0
LINE
  5
350
100
AcDbEntity
  8
L1_120
  6
CONTINUOUS
 62
         4
100
AcDbLine
 10
1392.1033403763
 20
217.6437200673
 30
0.0
 11
1512.1033403763
 21
217.6437200673
 31
0.0
  0
SOLID
  5
351
100
AcDbEntity
  8
L1_120
  6
CONTINUOUS
 62
         4
100
AcDbTrace
 10
1392.1033403763
 20
217.6437200673
 30
0.0
 11
1394.8033403763
 21
218.0487200673
 31
0.0
 12
1394.8033403763
 22
217.2387200673
 32
0.0
 13
1392.1033403763
 23
217.6437200673
 33
0.0
  0
SOLID
  5
352
100
AcDbEntity
  8
L1_120
  6
CONTINUOUS
 62
         4
100
AcDbTrace
 10
1512.1033403763
 20
217.6437200673
 30
0.0
 11
1509.4033403763
 21
217.2387200673
 31
0.0
 12
1509.4033403763
 22
218.0487200673
 32
0.0
 13
1512.1033403763
 23
217.6437200673
 33
0.0
  0
TEXT
  5
354
100
AcDbEntity
  8
L1_120
  6
CONTINUOUS
 62
         4
100
AcDbText
 10
1448.0533403763
 20
219.6687200673
 30
0.0
 40
2.7
  1
120
  7
BOX
100
AcDbText
  0
ENDBLK
  5
355
100
AcDbEntity
  8
0
  6
CONTINUOUS
100
AcDbBlockEnd
  0
BLOCK
  5
35F
100
AcDbEntity
  8
0
100
AcDbBlockBegin
  2
*D4
 70
        65
 10
0.0
 20
0.0
 30
0.0
  3
*D4
  1

  0
POINT
  5
361
100
AcDbEntity
  8
DEFPOINTS
  6
CONTINUOUS
 62
         0
100
AcDbPoint
 10
1761.564634188
 20
-106.2550139512
 30
0.0
  0
POINT
  5
362
100
AcDbEntity
  8
DEFPOINTS
  6
CONTINUOUS
 62
         0
100
AcDbPoint
 10
1769.8586063799
 20
-103.527306807
 30
0.0
  0
LINE
  5
363
100
AcDbEntity
  8
L1_120
  6
CONTINUOUS
 62
         4
100
AcDbLine
 10
1769.8586063799
 20
-103.527306807
 30
0.0
 11
1788.815184058
 21
-97.2929005216
 31
0.0
  0
SOLID
  5
364
100
AcDbEntity
  8
L1_120
  6
CONTINUOUS
 62
         4
100
AcDbTrace
 10
1769.8586063799
 20
-103.527306807
 30
0.0
 11
1772.266827239
 21
-102.3142184328
 31
0.0
 12
1772.5167603183
 22
-103.0741746524
 32
0.0
 13
1769.8586063799
 23
-103.527306807
 33
0.0
  0
LINE
  5
365
100
AcDbEntity
  8
L1_120
  6
CONTINUOUS
 62
         4
100
AcDbLine
 10
1761.564634188
 20
-106.2550139512
 30
0.0
 11
1756.4982593905
 21
-107.9212344799
 31
0.0
  0
SOLID
  5
366
100
AcDbEntity
  8
L1_120
  6
CONTINUOUS
 62
         4
100
AcDbTrace
 10
1761.564634188
 20
-106.2550139512
 30
0.0
 11
1759.1564133289
 21
-107.4681023254
 31
0.0
 12
1758.9064802496
 22
-106.7081461058
 32
0.0
 13
1761.564634188
 23
-106.2550139512
 33
0.0
  0
LINE
  5
367
100
AcDbEntity
  8
L1_120
  6
CONTINUOUS
 62
         4
100
AcDbLine
 10
1761.564634188
 20
-106.2550139512
 30
0.0
 11
1769.8586063799
 21
-103.527306807
 31
0.0
  0
TEXT
  5
369
100
AcDbEntity
  8
L1_120
  6
CONTINUOUS
 62
         4
100
AcDbText
 10
1769.6071267584
 20
-102.2386057308
 30
0.0
 40
2.6666666664
  1
崷8.731
 50
18.204911406
  7
BOX
100
AcDbText
  0
ENDBLK
  5
36A
100
AcDbEntity
  8
0
  6
CONTINUOUS
100
AcDbBlockEnd
  0
BLOCK
  5
395
100
AcDbEntity
  8
0
100
AcDbBlockBegin
  2
*D5
 70
        65
 10
0.0
 20
0.0
 30
0.0
  3
*D5
  1

  0
POINT
  5
397
100
AcDbEntity
  8
DEFPOINTS
  6
CONTINUOUS
 62
         0
100
AcDbPoint
 10
1523.906288096
 20
-107.2763578369
 30
0.0
  0
POINT
  5
398
100
AcDbEntity
  8
DEFPOINTS
  6
CONTINUOUS
 62
         0
100
AcDbPoint
 10
1567.6156088135
 20
-72.4910709691
 30
0.0
  0
LINE
  5
399
100
AcDbEntity
  8
L1_120
  6
CONTINUOUS
 62
         4
100
AcDbLine
 10
1567.6156088135
 20
-72.4910709691
 30
0.0
 11
1545.7609484547
 21
-89.883714403
 31
0.0
  0
SOLID
  5
39A
100
AcDbEntity
  8
L1_120
  6
CONTINUOUS
 62
         4
100
AcDbTrace
 10
1567.6156088135
 20
-72.4910709691
 30
0.0
 11
1565.7551701156
 21
-74.4892683695
 31
0.0
 12
1565.2507794273
 22
-73.8554781569
 32
0.0
 13
1567.6156088135
 23
-72.4910709691
 33
0.0
  0
LINE
  5
39B
100
AcDbEntity
  8
L1_120
  6
CONTINUOUS
 62
         4
100
AcDbLine
 10
1523.906288096
 20
-107.2763578369
 30
0.0
 11
1545.7609484547
 21
-89.883714403
 31
0.0
  0
SOLID
  5
39C
100
AcDbEntity
  8
L1_120
  6
CONTINUOUS
 62
         4
100
AcDbTrace
 10
1523.906288096
 20
-107.2763578369
 30
0.0
 11
1525.7667267939
 21
-105.2781604364
 31
0.0
 12
1526.2711174822
 22
-105.911950649
 32
0.0
 13
1523.906288096
 23
-107.2763578369
 33
0.0
  0
TEXT
  5
39E
100
AcDbEntity
  8
L1_120
  6
CONTINUOUS
 62
         4
100
AcDbText
 10
1527.004059348
 20
-103.1398200307
 30
0.0
 40
2.7
  1
崷55.8
 50
38.5139053999
  7
BOX
100
AcDbText
  0
ENDBLK
  5
39F
100
AcDbEntity
  8
0
  6
CONTINUOUS
100
AcDbBlockEnd
  0
BLOCK
  5
517
100
AcDbEntity
  8
0
100
AcDbBlockBegin
  2
*X6
 70
        65
 10
0.0
 20
0.0
 30
0.0
  3
*X6
  1

  0
LINE
  5
518
100
AcDbEntity
  8
L1_120
  6
CONTINUOUS
 62
         4
100
AcDbLine
 10
1510.656683349
 20
-42.9433347407
 30
0.0
 11
1512.1033403763
 21
-41.4966777134
 31
0.0
  0
LINE
  5
519
100
AcDbEntity
  8
L1_120
  6
CONTINUOUS
 62
         4
100
AcDbLine
 10
1506.4140426619
 20
-42.9433347407
 30
0.0
 11
1511.6643465345
 21
-37.693030868
 31
0.0
  0
LINE
  5
51A
100
AcDbEntity
  8
L1_120
  6
CONTINUOUS
 62
         4
100
AcDbLine
 10
1503.6714019747
 20
-41.4433347407
 30
0.0
 11
1508.1714019747
 21
-36.9433347407
 31
0.0
  0
LINE
  5
51B
100
AcDbEntity
  8
L1_120
  6
CONTINUOUS
 62
         4
100
AcDbLine
 10
1497.9287612876
 20
-42.9433347407
 30
0.0
 11
1503.9287612876
 21
-36.9433347407
 31
0.0
  0
LINE
  5
51C
100
AcDbEntity
  8
L1_120
  6
CONTINUOUS
 62
         4
100
AcDbLine
 10
1493.6861206005
 20
-42.9433347407
 30
0.0
 11
1499.6861206005
 21
-36.9433347407
 31
0.0
  0
LINE
  5
51D
100
AcDbEntity
  8
L1_120
  6
CONTINUOUS
 62
         4
100
AcDbLine
 10
1489.4434799134
 20
-42.9433347407
 30
0.0
 11
1495.4434799134
 21
-36.9433347407
 31
0.0
  0
LINE
  5
51E
100
AcDbEntity
  8
L1_120
  6
CONTINUOUS
 62
         4
100
AcDbLine
 10
1485.2008392263
 20
-42.9433347407
 30
0.0
 11
1491.2008392263
 21
-36.9433347407
 31
0.0
  0
LINE
  5
51F
100
AcDbEntity
  8
L1_120
  6
CONTINUOUS
 62
         4
100
AcDbLine
 10
1480.9581985391
 20
-42.9433347407
 30
0.0
 11
1486.9581985391
 21
-36.9433347407
 31
0.0
  0
LINE
  5
520
100
AcDbEntity
  8
L1_120
  6
CONTINUOUS
 62
         4
100
AcDbLine
 10
1476.715557852
 20
-42.9433347407
 30
0.0
 11
1482.715557852
 21
-36.9433347407
 31
0.0
  0
LINE
  5
521
100
AcDbEntity
  8
L1_120
  6
CONTINUOUS
 62
         4
100
AcDbLine
 10
1472.4729171649
 20
-42.9433347407
 30
0.0
 11
1478.4729171649
 21
-36.9433347407
 31
0.0
  0
LINE
  5
522
100
AcDbEntity
  8
L1_120
  6
CONTINUOUS
 62
         4
100
AcDbLine
 10
1469.3033403758
 20
-41.8702708426
 30
0.0
 11
1474.2302764778
 21
-36.9433347407
 31
0.0
  0
LINE
  5
523
100
AcDbEntity
  8
L1_120
  6
CONTINUOUS
 62
         4
100
AcDbLine
 10
1469.3033403758
 20
-37.6276301555
 30
0.0
 11
1469.9876357907
 21
-36.9433347407
 31
0.0
  0
LINE
  5
524
100
AcDbEntity
  8
L1_120
  6
CONTINUOUS
 62
         4
100
AcDbLine
 10
1459.7449951035
 20
-42.9433347407
 30
0.0
 11
1460.3033403767
 21
-42.3849894675
 31
0.0
  0
LINE
  5
525
100
AcDbEntity
  8
L1_120
  6
CONTINUOUS
 62
         4
100
AcDbLine
 10
1455.5023544164
 20
-42.9433347407
 30
0.0
 11
1460.3033403767
 21
-38.1423487804
 31
0.0
  0
LINE
  5
526
100
AcDbEntity
  8
L1_120
  6
CONTINUOUS
 62
         4
100
AcDbLine
 10
1509.5023544164
 20
11.0566652593
 30
0.0
 11
1512.1033403763
 21
13.6576512192
 31
0.0
  0
LINE
  5
527
100
AcDbEntity
  8
L1_120
  6
CONTINUOUS
 62
         4
100
AcDbLine
 10
1450.7597137293
 20
-43.4433347407
 30
0.0
 11
1457.2597137293
 21
-36.9433347407
 31
0.0
  0
LINE
  5
528
100
AcDbEntity
  8
L1_120
  6
CONTINUOUS
 62
         4
100
AcDbLine
 10
1505.2597137293
 20
11.0566652593
 30
0.0
 11
1511.2597137293
 21
17.0566652593
 31
0.0
  0
LINE
  5
529
100
AcDbEntity
  8
L1_120
  6
CONTINUOUS
 62
         4
100
AcDbLine
 10
1446.5170730422
 20
-43.4433347407
 30
0.0
 11
1453.0170730422
 21
-36.9433347407
 31
0.0
  0
LINE
  5
52A
100
AcDbEntity
  8
L1_120
  6
CONTINUOUS
 62
         4
100
AcDbLine
 10
1501.0170730422
 20
11.0566652593
 30
0.0
 11
1507.0170730422
 21
17.0566652593
 31
0.0
  0
LINE
  5
52B
100
AcDbEntity
  8
L1_120
  6
CONTINUOUS
 62
         4
100
AcDbLine
 10
1438.8274911728
 20
-46.8902759229
 30
0.0
 11
1439.0502815585
 21
-46.6674855372
 31
0.0
  0
LINE
  5
52C
100
AcDbEntity
  8
L1_120
  6
CONTINUOUS
 62
         4
100
AcDbLine
 10
1442.2744323551
 20
-43.4433347407
 30
0.0
 11
1448.2744323551
 21
-37.4433347407
 31
0.0
  0
LINE
  5
52D
100
AcDbEntity
  8
L1_120
  6
CONTINUOUS
 62
         4
100
AcDbLine
 10
1496.7744323551
 20
11.0566652593
 30
0.0
 11
1501.9033403763
 21
16.1855732805
 31
0.0
  0
LINE
  5
52E
100
AcDbEntity
  8
L1_120
  6
CONTINUOUS
 62
         4
100
AcDbLine
 10
1434.5317916679
 20
-46.9433347407
 30
0.0
 11
1446.1620882219
 21
-35.3130381867
 31
0.0
  0
LINE
  5
52F
100
AcDbEntity
  8
L1_120
  6
CONTINUOUS
 62
         4
100
AcDbLine
 10
1492.5317916679
 20
11.0566652593
 30
0.0
 11
1498.5317916679
 21
17.0566652593
 31
0.0
  0
LINE
  5
530
100
AcDbEntity
  8
L1_120
  6
CONTINUOUS
 62
         4
100
AcDbLine
 10
1430.2891509808
 20
-46.9433347407
 30
0.0
 11
1444.6091739513
 21
-32.6233117702
 31
0.0
  0
LINE
  5
531
100
AcDbEntity
  8
L1_120
  6
CONTINUOUS
 62
         4
100
AcDbLine
 10
1488.2891509808
 20
11.0566652593
 30
0.0
 11
1494.2891509808
 21
17.0566652593
 31
0.0
  0
LINE
  5
532
100
AcDbEntity
  8
L1_120
  6
CONTINUOUS
 62
         4
100
AcDbLine
 10
1427.1033403763
 20
-45.8865046581
 30
0.0
 11
1443.0562596807
 21
-29.9335853537
 31
0.0
  0
LINE
  5
533
100
AcDbEntity
  8
L1_120
  6
CONTINUOUS
 62
         4
100
AcDbLine
 10
1484.0465102937
 20
11.0566652593
 30
0.0
 11
1490.0465102937
 21
17.0566652593
 31
0.0
  0
LINE
  5
534
100
AcDbEntity
  8
L1_120
  6
CONTINUOUS
 62
         4
100
AcDbLine
 10
1425.3038696066
 20
-43.4433347407
 30
0.0
 11
1441.5033454101
 21
-27.2438589372
 31
0.0
  0
LINE
  5
535
100
AcDbEntity
  8
L1_120
  6
CONTINUOUS
 62
         4
100
AcDbLine
 10
1479.8038696066
 20
11.0566652593
 30
0.0
 11
1485.8038696066
 21
17.0566652593
 31
0.0
  0
LINE
  5
536
100
AcDbEntity
  8
L1_120
  6
CONTINUOUS
 62
         4
100
AcDbLine
 10
1421.0612289195
 20
-43.4433347407
 30
0.0
 11
1439.9504311395
 21
-24.5541325207
 31
0.0
  0
LINE
  5
537
100
AcDbEntity
  8
L1_120
  6
CONTINUOUS
 62
         4
100
AcDbLine
 10
1475.5612289195
 20
11.0566652593
 30
0.0
 11
1481.5612289195
 21
17.0566652593
 31
0.0
  0
LINE
  5
538
100
AcDbEntity
  8
L1_120
  6
CONTINUOUS
 62
         4
100
AcDbLine
 10
1415.8185882323
 20
-44.4433347407
 30
0.0
 11
1438.3975168689
 21
-21.8644061042
 31
0.0
  0
LINE
  5
539
100
AcDbEntity
  8
L1_120
  6
CONTINUOUS
 62
         4
100
AcDbLine
 10
1471.3185882323
 20
11.0566652593
 30
0.0
 11
1477.3185882323
 21
17.0566652593
 31
0.0
  0
LINE
  5
53A
100
AcDbEntity
  8
L1_120
  6
CONTINUOUS
 62
         4
100
AcDbLine
 10
1412.9247505847
 20
-43.0945317012
 30
0.0
 11
1436.8446025983
 21
-19.1746796877
 31
0.0
  0
LINE
  5
53B
100
AcDbEntity
  8
L1_120
  6
CONTINUOUS
 62
         4
100
AcDbLine
 10
1469.3033403758
 20
13.2840580899
 30
0.0
 11
1473.0759475452
 21
17.0566652593
 31
0.0
  0
LINE
  5
53C
100
AcDbEntity
  8
L1_120
  6
CONTINUOUS
 62
         4
100
AcDbLine
 10
1411.3718363141
 20
-40.4048052847
 30
0.0
 11
1435.2916883276
 21
-16.4849532711
 31
0.0
  0
LINE
  5
53D
100
AcDbEntity
  8
L1_120
  6
CONTINUOUS
 62
         4
100
AcDbLine
 10
1403.090666171
 20
-44.4433347407
 30
0.0
 11
1404.5399329143
 21
-42.9940679973
 31
0.0
  0
LINE
  5
53E
100
AcDbEntity
  8
L1_120
  6
CONTINUOUS
 62
         4
100
AcDbLine
 10
1408.090666171
 20
-39.4433347407
 30
0.0
 11
1433.738774057
 21
-13.7952268546
 31
0.0
  0
LINE
  5
53F
100
AcDbEntity
  8
L1_120
  6
CONTINUOUS
 62
         4
100
AcDbLine
 10
1458.590666171
 20
11.0566652593
 30
0.0
 11
1460.3033403767
 21
12.769339465
 31
0.0
  0
LINE
  5
540
100
AcDbEntity
  8
L1_120
  6
CONTINUOUS
 62
         4
100
AcDbLine
 10
1398.8480254839
 20
-44.4433347407
 30
0.0
 11
1437.2069164768
 21
-6.0844437477
 31
0.0
  0
LINE
  5
541
100
AcDbEntity
  8
L1_120
  6
CONTINUOUS
 62
         4
100
AcDbLine
 10
1454.3480254839
 20
11.0566652593
 30
0.0
 11
1460.2756829303
 21
16.9843227057
 31
0.0
  0
LINE
  5
542
100
AcDbEntity
  8
L1_120
  6
CONTINUOUS
 62
         4
100
AcDbLine
 10
1394.6933120211
 20
-44.3554075163
 30
0.0
 11
1443.0024714346
 21
3.9537518971
 31
0.0
  0
LINE
  5
543
100
AcDbEntity
  8
L1_120
  6
CONTINUOUS
 62
         4
100
AcDbLine
 10
1450.6053847968
 20
11.5566652593
 30
0.0
 11
1456.1053847968
 21
17.0566652593
 31
0.0
  0
LINE
  5
544
100
AcDbEntity
  8
L1_120
  6
CONTINUOUS
 62
         4
100
AcDbLine
 10
1394.1033403763
 20
-40.7027384741
 30
0.0
 11
1452.3627441096
 21
17.5566652593
 31
0.0
  0
LINE
  5
545
100
AcDbEntity
  8
L1_120
  6
CONTINUOUS
 62
         4
100
AcDbLine
 10
1394.1033403763
 20
-36.4600977869
 30
0.0
 11
1448.1201034225
 21
17.5566652593
 31
0.0
  0
LINE
  5
546
100
AcDbEntity
  8
L1_120
  6
CONTINUOUS
 62
         4
100
AcDbLine
 10
1391.2734829455
 20
-35.0473145305
 30
0.0
 11
1443.8774627354
 21
17.5566652593
 31
0.0
  0
LINE
  5
547
100
AcDbEntity
  8
L1_120
  6
CONTINUOUS
 62
         4
100
AcDbLine
 10
1387.5708121193
 20
-34.5073446696
 30
0.0
 11
1439.6348220483
 21
17.5566652593
 31
0.0
  0
LINE
  5
548
100
AcDbEntity
  8
L1_120
  6
CONTINUOUS
 62
         4
100
AcDbLine
 10
1383.8681412931
 20
-33.9673748087
 30
0.0
 11
1438.8351819226
 21
20.9996658207
 31
0.0
  0
LINE
  5
549
100
AcDbEntity
  8
L1_120
  6
CONTINUOUS
 62
         4
100
AcDbLine
 10
1380.1654704669
 20
-33.4274049479
 30
0.0
 11
1434.649540674
 21
21.0566652593
 31
0.0
  0
LINE
  5
54A
100
AcDbEntity
  8
L1_120
  6
CONTINUOUS
 62
         4
100
AcDbLine
 10
1376.4627996406
 20
-32.887435087
 30
0.0
 11
1430.4068999869
 21
21.0566652593
 31
0.0
  0
LINE
  5
54B
100
AcDbEntity
  8
L1_120
  6
CONTINUOUS
 62
         4
100
AcDbLine
 10
1372.7601288144
 20
-32.3474652261
 30
0.0
 11
1422.6642592998
 21
17.5566652593
 31
0.0
  0
LINE
  5
54C
100
AcDbEntity
  8
L1_120
  6
CONTINUOUS
 62
         4
100
AcDbLine
 10
1369.0574579882
 20
-31.8074953652
 30
0.0
 11
1419.2624794945
 21
18.3975261411
 31
0.0
  0
LINE
  5
54D
100
AcDbEntity
  8
L1_120
  6
CONTINUOUS
 62
         4
100
AcDbLine
 10
1365.354787162
 20
-31.2675255043
 30
0.0
 11
1410.1789779256
 21
13.5566652593
 31
0.0
  0
LINE
  5
54E
100
AcDbEntity
  8
L1_120
  6
CONTINUOUS
 62
         4
100
AcDbLine
 10
1411.6879179877
 20
15.0656053214
 30
0.0
 11
1415.1789779256
 21
18.5566652593
 31
0.0
  0
LINE
  5
54F
100
AcDbEntity
  8
L1_120
  6
CONTINUOUS
 62
         4
100
AcDbLine
 10
1361.6521163357
 20
-30.7275556434
 30
0.0
 11
1406.2033403763
 21
13.8236683971
 31
0.0
  0
LINE
  5
550
100
AcDbEntity
  8
L1_120
  6
CONTINUOUS
 62
         4
100
AcDbLine
 10
1357.9494455095
 20
-30.1875857825
 30
0.0
 11
1404.7977966743
 21
16.6607653823
 31
0.0
  0
LINE
  5
551
100
AcDbEntity
  8
L1_120
  6
CONTINUOUS
 62
         4
100
AcDbLine
 10
1354.2467746833
 20
-29.6476159216
 30
0.0
 11
1363.9010558642
 21
-19.9933347407
 31
0.0
  0
LINE
  5
552
100
AcDbEntity
  8
L1_120
  6
CONTINUOUS
 62
         4
100
AcDbLine
 10
1371.4725658458
 20
-12.4218247591
 30
0.0
 11
1393.1125340866
 21
9.2181434817
 31
0.0
  0
LINE
  5
553
100
AcDbEntity
  8
L1_120
  6
CONTINUOUS
 62
         4
100
AcDbLine
 10
1394.1033403763
 20
10.2089497714
 30
0.0
 11
1402.4510558642
 21
18.5566652593
 31
0.0
  0
LINE
  5
554
100
AcDbEntity
  8
L1_120
  6
CONTINUOUS
 62
         4
100
AcDbLine
 10
1350.5441038571
 20
-29.1076460607
 30
0.0
 11
1359.6584151771
 21
-19.9933347407
 31
0.0
  0
LINE
  5
555
100
AcDbEntity
  8
L1_120
  6
CONTINUOUS
 62
         4
100
AcDbLine
 10
1369.9196515752
 20
-9.7320983426
 30
0.0
 11
1388.3922119183
 21
8.7404620006
 31
0.0
  0
LINE
  5
556
100
AcDbEntity
  8
L1_120
  6
CONTINUOUS
 62
         4
100
AcDbLine
 10
1394.1033403763
 20
14.4515904585
 30
0.0
 11
1398.2084151771
 21
18.5566652593
 31
0.0
  0
LINE
  5
557
100
AcDbEntity
  8
L1_120
  6
CONTINUOUS
 62
         4
100
AcDbLine
 10
1346.8414330309
 20
-28.5676761998
 30
0.0
 11
1355.41577449
 21
-19.9933347407
 31
0.0
  0
LINE
  5
558
100
AcDbEntity
  8
L1_120
  6
CONTINUOUS
 62
         4
100
AcDbLine
 10
1368.3667373046
 20
-7.0423719261
 30
0.0
 11
1383.4252226043
 21
8.0161133736
 31
0.0
  0
LINE
  5
559
100
AcDbEntity
  8
L1_120
  6
CONTINUOUS
 62
         4
100
AcDbLine
 10
1343.1387622046
 20
-28.0277063389
 30
0.0
 11
1351.1731338028
 21
-19.9933347407
 31
0.0
  0
LINE
  5
55A
100
AcDbEntity
  8
L1_120
  6
CONTINUOUS
 62
         4
100
AcDbLine
 10
1365.2731338028
 20
-5.8933347407
 30
0.0
 11
1378.4582332902
 21
7.2917647467
 31
0.0
  0
LINE
  5
55B
100
AcDbEntity
  8
L1_120
  6
CONTINUOUS
 62
         4
100
AcDbLine
 10
1339.4360913784
 20
-27.487736478
 30
0.0
 11
1346.9304931157
 21
-19.9933347407
 31
0.0
  0
LINE
  5
55C
100
AcDbEntity
  8
L1_120
  6
CONTINUOUS
 62
         4
100
AcDbLine
 10
1361.0304931157
 20
-5.8933347407
 30
0.0
 11
1373.4912439762
 21
6.5674161198
 31
0.0
  0
LINE
  5
55D
100
AcDbEntity
  8
L1_120
  6
CONTINUOUS
 62
         4
100
AcDbLine
 10
1335.7334205522
 20
-26.9477666171
 30
0.0
 11
1342.6878524286
 21
-19.9933347407
 31
0.0
  0
LINE
  5
55E
100
AcDbEntity
  8
L1_120
  6
CONTINUOUS
 62
         4
100
AcDbLine
 10
1356.7878524286
 20
-5.8933347407
 30
0.0
 11
1368.5242546621
 21
5.8430674928
 31
0.0
  0
LINE
  5
55F
100
AcDbEntity
  8
L1_120
  6
CONTINUOUS
 62
         4
100
AcDbLine
 10
1332.030749726
 20
-26.4077967562
 30
0.0
 11
1338.4452117415
 21
-19.9933347407
 31
0.0
  0
LINE
  5
560
100
AcDbEntity
  8
L1_120
  6
CONTINUOUS
 62
         4
100
AcDbLine
 10
1352.5452117415
 20
-5.8933347407
 30
0.0
 11
1363.557265348
 21
5.1187188659
 31
0.0
  0
LINE
  5
561
100
AcDbEntity
  8
L1_120
  6
CONTINUOUS
 62
         4
100
AcDbLine
 10
1328.3280788998
 20
-25.8678268953
 30
0.0
 11
1332.7525710544
 21
-21.4433347407
 31
0.0
  0
LINE
  5
562
100
AcDbEntity
  8
L1_120
  6
CONTINUOUS
 62
         4
100
AcDbLine
 10
1348.3025710544
 20
-5.8933347407
 30
0.0
 11
1358.590276034
 21
4.3943702389
 31
0.0
  0
LINE
  5
563
100
AcDbEntity
  8
L1_120
  6
CONTINUOUS
 62
         4
100
AcDbLine
 10
1326.7033403763
 20
-23.2499247317
 30
0.0
 11
1328.5099303672
 21
-21.4433347407
 31
0.0
  0
LINE
  5
564
100
AcDbEntity
  8
L1_120
  6
CONTINUOUS
 62
         4
100
AcDbLine
 10
1344.0599303672
 20
-5.8933347407
 30
0.0
 11
1353.6232867199
 21
3.670021612
 31
0.0
  0
LINE
  5
565
100
AcDbEntity
  8
L1_120
  6
CONTINUOUS
 62
         4
100
AcDbLine
 10
1339.8172896801
 20
-5.8933347407
 30
0.0
 11
1348.6562974059
 21
2.9456729851
 31
0.0
  0
LINE
  5
566
100
AcDbEntity
  8
L1_120
  6
CONTINUOUS
 62
         4
100
AcDbLine
 10
1335.7033403763
 20
-5.7646433574
 30
0.0
 11
1343.6893080918
 21
2.2213243581
 31
0.0
  0
LINE
  5
567
100
AcDbEntity
  8
L1_120
  6
CONTINUOUS
 62
         4
100
AcDbLine
 10
1332.7820083059
 20
-4.4433347407
 30
0.0
 11
1338.7223187777
 21
1.4969757312
 31
0.0
  0
LINE
  5
568
100
AcDbEntity
  8
L1_120
  6
CONTINUOUS
 62
         4
100
AcDbLine
 10
1328.5393676188
 20
-4.4433347407
 30
0.0
 11
1333.7553294637
 21
0.7726271042
 31
0.0
  0
LINE
  5
569
100
AcDbEntity
  8
L1_120
  6
CONTINUOUS
 62
         4
100
AcDbLine
 10
1326.7033403763
 20
-2.0367212961
 30
0.0
 11
1328.7883401496
 21
0.0482784773
 31
0.0
  0
ENDBLK
  5
56A
100
AcDbEntity
  8
0
  6
CONTINUOUS
100
AcDbBlockEnd
  0
BLOCK
  5
570
100
AcDbEntity
  8
0
100
AcDbBlockBegin
  2
*D7
 70
        65
 10
0.0
 20
0.0
 30
0.0
  3
*D7
  1

  0
POINT
  5
572
100
AcDbEntity
  8
DEFPOINTS
  6
CONTINUOUS
 62
         0
100
AcDbPoint
 10
1512.1033403763
 20
207.4170423888
 30
0.0
  0
POINT
  5
573
100
AcDbEntity
  8
DEFPOINTS
  6
CONTINUOUS
 62
         0
100
AcDbPoint
 10
1512.1033403763
 20
179.6846417294
 30
0.0
  0
POINT
  5
574
100
AcDbEntity
  8
DEFPOINTS
  6
CONTINUOUS
 62
         0
100
AcDbPoint
 10
1439.1033403763
 20
183.6846417294
 30
0.0
  0
LINE
  5
575
100
AcDbEntity
  8
L1_120
  6
CONTINUOUS
 62
         4
100
AcDbLine
 10
1512.1033403763
 20
181.0346417294
 30
0.0
 11
1512.1033403763
 21
208.0920423888
 31
0.0
  0
LINE
  5
576
100
AcDbEntity
  8
L1_120
  6
CONTINUOUS
 62
         4
100
AcDbLine
 10
1439.1033403763
 20
185.0346417294
 30
0.0
 11
1439.1033403763
 21
208.0920423888
 31
0.0
  0
LINE
  5
577
100
AcDbEntity
  8
L1_120
  6
CONTINUOUS
 62
         4
100
AcDbLine
 10
1512.1033403763
 20
207.4170423888
 30
0.0
 11
1439.1033403763
 21
207.4170423888
 31
0.0
  0
SOLID
  5
578
100
AcDbEntity
  8
L1_120
  6
CONTINUOUS
 62
         4
100
AcDbTrace
 10
1512.1033403763
 20
207.4170423888
 30
0.0
 11
1509.4033403763
 21
207.0120423888
 31
0.0
 12
1509.4033403763
 22
207.8220423888
 32
0.0
 13
1512.1033403763
 23
207.4170423888
 33
0.0
  0
SOLID
  5
579
100
AcDbEntity
  8
L1_120
  6
CONTINUOUS
 62
         4
100
AcDbTrace
 10
1439.1033403763
 20
207.4170423888
 30
0.0
 11
1441.8033403763
 21
207.8220423888
 31
0.0
 12
1441.8033403763
 22
207.0120423888
 32
0.0
 13
1439.1033403763
 23
207.4170423888
 33
0.0
  0
TEXT
  5
57B
100
AcDbEntity
  8
L1_120
  6
CONTINUOUS
 62
         4
100
AcDbText
 10
1468.1472821067
 20
210.5490423888
 30
0.0
 40
2.7
  1
73
  7
BOX
100
AcDbText
  0
ENDBLK
  5
57C
100
AcDbEntity
  8
0
  6
CONTINUOUS
100
AcDbBlockEnd
  0
BLOCK
  5
57E
100
AcDbEntity
  8
0
100
AcDbBlockBegin
  2
*D8
 70
        65
 10
0.0
 20
0.0
 30
0.0
  3
*D8
  1

  0
POINT
  5
580
100
AcDbEntity
  8
DEFPOINTS
  6
CONTINUOUS
 62
         0
100
AcDbPoint
 10
1512.1033403763
 20
198.8495497108
 30
0.0
  0
POINT
  5
581
100
AcDbEntity
  8
DEFPOINTS
  6
CONTINUOUS
 62
         0
100
AcDbPoint
 10
1512.1033403763
 20
179.6846417294
 30
0.0
  0
POINT
  5
582
100
AcDbEntity
  8
DEFPOINTS
  6
CONTINUOUS
 62
         0
100
AcDbPoint
 10
1452.6033403763
 20
180.4846417294
 30
0.0
  0
LINE
  5
583
100
AcDbEntity
  8
L1_120
  6
CONTINUOUS
 62
         4
100
AcDbLine
 10
1512.1033403763
 20
181.0346417294
 30
0.0
 11
1512.1033403763
 21
199.5245497108
 31
0.0
  0
LINE
  5
584
100
AcDbEntity
  8
L1_120
  6
CONTINUOUS
 62
         4
100
AcDbLine
 10
1452.6033403763
 20
181.8346417294
 30
0.0
 11
1452.6033403763
 21
199.5245497108
 31
0.0
  0
LINE
  5
585
100
AcDbEntity
  8
L1_120
  6
CONTINUOUS
 62
         4
100
AcDbLine
 10
1512.1033403763
 20
198.8495497108
 30
0.0
 11
1452.6033403763
 21
198.8495497108
 31
0.0
  0
SOLID
  5
586
100
AcDbEntity
  8
L1_120
  6
CONTINUOUS
 62
         4
100
AcDbTrace
 10
1512.1033403763
 20
198.8495497108
 30
0.0
 11
1509.4033403763
 21
198.4445497108
 31
0.0
 12
1509.4033403763
 22
199.2545497108
 32
0.0
 13
1512.1033403763
 23
198.8495497108
 33
0.0
  0
SOLID
  5
587
100
AcDbEntity
  8
L1_120
  6
CONTINUOUS
 62
         4
100
AcDbTrace
 10
1452.6033403763
 20
198.8495497108
 30
0.0
 11
1455.3033403763
 21
199.2545497108
 31
0.0
 12
1455.3033403763
 22
198.4445497108
 32
0.0
 13
1452.6033403763
 23
198.8495497108
 33
0.0
  0
TEXT
  5
589
100
AcDbEntity
  8
L1_120
  6
CONTINUOUS
 62
         4
100
AcDbText
 10
1472.7908472593
 20
201.9815497108
 30
0.0
 40
2.7
  1
59.5
  7
BOX
100
AcDbText
  0
ENDBLK
  5
58A
100
AcDbEntity
  8
0
  6
CONTINUOUS
100
AcDbBlockEnd
  0
BLOCK
  5
58C
100
AcDbEntity
  8
0
100
AcDbBlockBegin
  2
*D9
 70
        65
 10
0.0
 20
0.0
 30
0.0
  3
*D9
  1

  0
POINT
  5
58E
100
AcDbEntity
  8
DEFPOINTS
  6
CONTINUOUS
 62
         0
100
AcDbPoint
 10
1512.1033403763
 20
195.1777671345
 30
0.0
  0
POINT
  5
58F
100
AcDbEntity
  8
DEFPOINTS
  6
CONTINUOUS
 62
         0
100
AcDbPoint
 10
1512.1033403763
 20
179.6846417294
 30
0.0
  0
POINT
  5
590
100
AcDbEntity
  8
DEFPOINTS
  6
CONTINUOUS
 62
         0
100
AcDbPoint
 10
1501.9033403763
 20
178.6846417294
 30
0.0
  0
LINE
  5
591
100
AcDbEntity
  8
L1_120
  6
CONTINUOUS
 62
         4
100
AcDbLine
 10
1512.1033403763
 20
181.0346417294
 30
0.0
 11
1512.1033403763
 21
195.8527671345
 31
0.0
  0
LINE
  5
592
100
AcDbEntity
  8
L1_120
  6
CONTINUOUS
 62
         4
100
AcDbLine
 10
1501.9033403763
 20
180.0346417294
 30
0.0
 11
1501.9033403763
 21
195.8527671345
 31
0.0
  0
LINE
  5
593
100
AcDbEntity
  8
L1_120
  6
CONTINUOUS
 62
         4
100
AcDbLine
 10
1512.1033403763
 20
195.1777671345
 30
0.0
 11
1501.9033403763
 21
195.1777671345
 31
0.0
  0
SOLID
  5
594
100
AcDbEntity
  8
L1_120
  6
CONTINUOUS
 62
         4
100
AcDbTrace
 10
1512.1033403763
 20
195.1777671345
 30
0.0
 11
1509.4033403763
 21
194.7727671345
 31
0.0
 12
1509.4033403763
 22
195.5827671345
 32
0.0
 13
1512.1033403763
 23
195.1777671345
 33
0.0
  0
LINE
  5
595
100
AcDbEntity
  8
L1_120
  6
CONTINUOUS
 62
         4
100
AcDbLine
 10
1512.1033403763
 20
195.1777671345
 30
0.0
 11
1526.7133710448
 21
195.1777671345
 31
0.0
  0
SOLID
  5
596
100
AcDbEntity
  8
L1_120
  6
CONTINUOUS
 62
         4
100
AcDbTrace
 10
1501.9033403763
 20
195.1777671345
 30
0.0
 11
1504.6033403763
 21
195.5827671345
 31
0.0
 12
1504.6033403763
 22
194.7727671345
 32
0.0
 13
1501.9033403763
 23
195.1777671345
 33
0.0
  0
TEXT
  5
598
100
AcDbEntity
  8
L1_120
  6
CONTINUOUS
 62
         4
100
AcDbText
 10
1513.6633710448
 20
198.3097671345
 30
0.0
 40
2.7
  1
10.2
  7
BOX
100
AcDbText
  0
ENDBLK
  5
599
100
AcDbEntity
  8
0
  6
CONTINUOUS
100
AcDbBlockEnd
  0
BLOCK
  5
59B
100
AcDbEntity
  8
0
100
AcDbBlockBegin
  2
*D10
 70
        65
 10
0.0
 20
0.0
 30
0.0
  3
*D10
  1

  0
POINT
  5
59D
100
AcDbEntity
  8
DEFPOINTS
  6
CONTINUOUS
 62
         0
100
AcDbPoint
 10
1501.9033403763
 20
186.8142623774
 30
0.0
  0
POINT
  5
59E
100
AcDbEntity
  8
DEFPOINTS
  6
CONTINUOUS
 62
         0
100
AcDbPoint
 10
1501.9033403763
 20
178.6846417294
 30
0.0
  0
POINT
  5
59F
100
AcDbEntity
  8
DEFPOINTS
  6
CONTINUOUS
 62
         0
100
AcDbPoint
 10
1504.1033403763
 20
178.6846417294
 30
0.0
  0
LINE
  5
5A0
100
AcDbEntity
  8
L1_120
  6
CONTINUOUS
 62
         4
100
AcDbLine
 10
1501.9033403763
 20
180.0346417294
 30
0.0
 11
1501.9033403763
 21
187.4892623774
 31
0.0
  0
LINE
  5
5A1
100
AcDbEntity
  8
L1_120
  6
CONTINUOUS
 62
         4
100
AcDbLine
 10
1504.1033403763
 20
180.0346417294
 30
0.0
 11
1504.1033403763
 21
187.4892623774
 31
0.0
  0
LINE
  5
5A2
100
AcDbEntity
  8
L1_120
  6
CONTINUOUS
 62
         4
100
AcDbLine
 10
1501.9033403763
 20
186.8142623774
 30
0.0
 11
1504.1033403763
 21
186.8142623774
 31
0.0
  0
SOLID
  5
5A3
100
AcDbEntity
  8
L1_120
  6
CONTINUOUS
 62
         4
100
AcDbTrace
 10
1501.9033403763
 20
186.8142623774
 30
0.0
 11
1504.6033403763
 21
187.2192623774
 31
0.0
 12
1504.6033403763
 22
186.4092623774
 32
0.0
 13
1501.9033403763
 23
186.8142623774
 33
0.0
  0
LINE
  5
5A4
100
AcDbEntity
  8
L1_120
  6
CONTINUOUS
 62
         4
100
AcDbLine
 10
1504.1033403763
 20
186.8142623774
 30
0.0
 11
1524.1394435193
 21
186.8142623774
 31
0.0
  0
SOLID
  5
5A5
100
AcDbEntity
  8
L1_120
  6
CONTINUOUS
 62
         4
100
AcDbTrace
 10
1504.1033403763
 20
186.8142623774
 30
0.0
 11
1501.4033403763
 21
186.4092623774
 31
0.0
 12
1501.4033403763
 22
187.2192623774
 32
0.0
 13
1504.1033403763
 23
186.8142623774
 33
0.0
  0
TEXT
  5
5A7
100
AcDbEntity
  8
L1_120
  6
CONTINUOUS
 62
         4
100
AcDbText
 10
1513.7894435193
 20
189.9462623774
 30
0.0
 40
2.7
  1
2.2
  7
BOX
100
AcDbText
  0
ENDBLK
  5
5A8
100
AcDbEntity
  8
0
  6
CONTINUOUS
100
AcDbBlockEnd
  0
BLOCK
  5
5AA
100
AcDbEntity
  8
0
100
AcDbBlockBegin
  2
*D11
 70
        65
 10
0.0
 20
0.0
 30
0.0
  3
*D11
  1

  0
POINT
  5
5AC
100
AcDbEntity
  8
DEFPOINTS
  6
CONTINUOUS
 62
         0
100
AcDbPoint
 10
1541.0873434298
 20
180.1846417294
 30
0.0
  0
POINT
  5
5AD
100
AcDbEntity
  8
DEFPOINTS
  6
CONTINUOUS
 62
         0
100
AcDbPoint
 10
1504.3033403763
 20
180.1846417294
 30
0.0
  0
POINT
  5
5AE
100
AcDbEntity
  8
DEFPOINTS
  6
CONTINUOUS
 62
         0
100
AcDbPoint
 10
1511.6033403763
 20
120.1846417294
 30
0.0
  0
LINE
  5
5AF
100
AcDbEntity
  8
L1_120
  6
CONTINUOUS
 62
         4
100
AcDbLine
 10
1505.6533403763
 20
180.1846417294
 30
0.0
 11
1541.7623434298
 21
180.1846417294
 31
0.0
  0
LINE
  5
5B0
100
AcDbEntity
  8
L1_120
  6
CONTINUOUS
 62
         4
100
AcDbLine
 10
1512.9533403763
 20
120.1846417294
 30
0.0
 11
1541.7623434298
 21
120.1846417294
 31
0.0
  0
LINE
  5
5B1
100
AcDbEntity
  8
L1_120
  6
CONTINUOUS
 62
         4
100
AcDbLine
 10
1541.0873434298
 20
180.1846417294
 30
0.0
 11
1541.0873434298
 21
120.1846417294
 31
0.0
  0
SOLID
  5
5B2
100
AcDbEntity
  8
L1_120
  6
CONTINUOUS
 62
         4
100
AcDbTrace
 10
1541.0873434298
 20
180.1846417294
 30
0.0
 11
1541.4923434298
 21
177.4846417294
 31
0.0
 12
1540.6823434298
 22
177.4846417294
 32
0.0
 13
1541.0873434298
 23
180.1846417294
 33
0.0
  0
SOLID
  5
5B3
100
AcDbEntity
  8
L1_120
  6
CONTINUOUS
 62
         4
100
AcDbTrace
 10
1541.0873434298
 20
120.1846417294
 30
0.0
 11
1540.6823434298
 21
122.8846417294
 31
0.0
 12
1541.4923434298
 22
122.8846417294
 32
0.0
 13
1541.0873434298
 23
120.1846417294
 33
0.0
  0
TEXT
  5
5B5
100
AcDbEntity
  8
L1_120
  6
CONTINUOUS
 62
         4
100
AcDbText
 10
1537.9553434298
 20
140.3819180653
 30
0.0
 40
2.7
  1
崷60
 50
90.0
  7
BOX
100
AcDbText
  0
ENDBLK
  5
5B6
100
AcDbEntity
  8
0
  6
CONTINUOUS
100
AcDbBlockEnd
  0
BLOCK
  5
5B8
100
AcDbEntity
  8
0
100
AcDbBlockBegin
  2
*D12
 70
        65
 10
0.0
 20
0.0
 30
0.0
  3
*D12
  1

  0
POINT
  5
5BA
100
AcDbEntity
  8
DEFPOINTS
  6
CONTINUOUS
 62
         0
100
AcDbPoint
 10
1560.057692879
 20
184.1846417294
 30
0.0
  0
POINT
  5
5BB
100
AcDbEntity
  8
DEFPOINTS
  6
CONTINUOUS
 62
         0
100
AcDbPoint
 10
1438.6033403763
 20
184.1846417294
 30
0.0
  0
POINT
  5
5BC
100
AcDbEntity
  8
DEFPOINTS
  6
CONTINUOUS
 62
         0
100
AcDbPoint
 10
1438.6033403763
 20
116.1846417294
 30
0.0
  0
LINE
  5
5BD
100
AcDbEntity
  8
L1_120
  6
CONTINUOUS
 62
         4
100
AcDbLine
 10
1439.9533403763
 20
184.1846417294
 30
0.0
 11
1560.732692879
 21
184.1846417294
 31
0.0
  0
LINE
  5
5BE
100
AcDbEntity
  8
L1_120
  6
CONTINUOUS
 62
         4
100
AcDbLine
 10
1439.9533403763
 20
116.1846417294
 30
0.0
 11
1560.732692879
 21
116.1846417294
 31
0.0
  0
LINE
  5
5BF
100
AcDbEntity
  8
L1_120
  6
CONTINUOUS
 62
         4
100
AcDbLine
 10
1560.057692879
 20
184.1846417294
 30
0.0
 11
1560.057692879
 21
116.1846417294
 31
0.0
  0
SOLID
  5
5C0
100
AcDbEntity
  8
L1_120
  6
CONTINUOUS
 62
         4
100
AcDbTrace
 10
1560.057692879
 20
184.1846417294
 30
0.0
 11
1560.462692879
 21
181.4846417294
 31
0.0
 12
1559.652692879
 22
181.4846417294
 32
0.0
 13
1560.057692879
 23
184.1846417294
 33
0.0
  0
SOLID
  5
5C1
100
AcDbEntity
  8
L1_120
  6
CONTINUOUS
 62
         4
100
AcDbTrace
 10
1560.057692879
 20
116.1846417294
 30
0.0
 11
1559.652692879
 21
118.8846417294
 31
0.0
 12
1560.462692879
 22
118.8846417294
 32
0.0
 13
1560.057692879
 23
116.1846417294
 33
0.0
  0
TEXT
  5
5C3
100
AcDbEntity
  8
L1_120
  6
CONTINUOUS
 62
         4
100
AcDbText
 10
1556.925692879
 20
138.8138976874
 30
0.0
 40
2.7
  1
崷68
 50
90.0
  7
BOX
100
AcDbText
  0
ENDBLK
  5
5C4
100
AcDbEntity
  8
0
  6
CONTINUOUS
100
AcDbBlockEnd
  0
BLOCK
  5
5C6
100
AcDbEntity
  8
0
100
AcDbBlockBegin
  2
*D13
 70
        65
 10
0.0
 20
0.0
 30
0.0
  3
*D13
  1

  0
POINT
  5
5C8
100
AcDbEntity
  8
DEFPOINTS
  6
CONTINUOUS
 62
         0
100
AcDbPoint
 10
1447.9424058192
 20
180.6846417294
 30
0.0
  0
POINT
  5
5C9
100
AcDbEntity
  8
DEFPOINTS
  6
CONTINUOUS
 62
         0
100
AcDbPoint
 10
1439.6033403763
 20
180.6846417294
 30
0.0
  0
POINT
  5
5CA
100
AcDbEntity
  8
DEFPOINTS
  6
CONTINUOUS
 62
         0
100
AcDbPoint
 10
1439.6033403763
 20
119.6846417294
 30
0.0
  0
LINE
  5
5CB
100
AcDbEntity
  8
L1_120
  6
CONTINUOUS
 62
         4
100
AcDbLine
 10
1440.9533403763
 20
180.6846417294
 30
0.0
 11
1448.6174058192
 21
180.6846417294
 31
0.0
  0
LINE
  5
5CC
100
AcDbEntity
  8
L1_120
  6
CONTINUOUS
 62
         4
100
AcDbLine
 10
1440.9533403763
 20
119.6846417294
 30
0.0
 11
1448.6174058192
 21
119.6846417294
 31
0.0
  0
LINE
  5
5CD
100
AcDbEntity
  8
L1_120
  6
CONTINUOUS
 62
         4
100
AcDbLine
 10
1447.9424058192
 20
180.6846417294
 30
0.0
 11
1447.9424058192
 21
119.6846417294
 31
0.0
  0
SOLID
  5
5CE
100
AcDbEntity
  8
L1_120
  6
CONTINUOUS
 62
         4
100
AcDbTrace
 10
1447.9424058192
 20
180.6846417294
 30
0.0
 11
1448.3474058192
 21
177.9846417294
 31
0.0
 12
1447.5374058192
 22
177.9846417294
 32
0.0
 13
1447.9424058192
 23
180.6846417294
 33
0.0
  0
LINE
  5
5CF
100
AcDbEntity
  8
L1_120
  6
CONTINUOUS
 62
         4
100
AcDbLine
 10
1447.9424058192
 20
119.6846417294
 30
0.0
 11
1447.9424058192
 21
93.6344662644
 31
0.0
  0
SOLID
  5
5D0
100
AcDbEntity
  8
L1_120
  6
CONTINUOUS
 62
         4
100
AcDbTrace
 10
1447.9424058192
 20
119.6846417294
 30
0.0
 11
1447.5374058192
 21
122.3846417294
 31
0.0
 12
1448.3474058192
 22
122.3846417294
 32
0.0
 13
1447.9424058192
 23
119.6846417294
 33
0.0
  0
TEXT
  5
5D2
100
AcDbEntity
  8
L1_120
  6
CONTINUOUS
 62
         4
100
AcDbText
 10
1444.8104058192
 20
94.9844662644
 30
0.0
 40
2.7
  1
崷61
 50
90.0
  7
BOX
100
AcDbText
  0
ENDBLK
  5
5D3
100
AcDbEntity
  8
0
  6
CONTINUOUS
100
AcDbBlockEnd
  0
BLOCK
  5
5D5
100
AcDbEntity
  8
0
100
AcDbBlockBegin
  2
*D14
 70
        65
 10
0.0
 20
0.0
 30
0.0
  3
*D14
  1

  0
POINT
  5
5D7
100
AcDbEntity
  8
DEFPOINTS
  6
CONTINUOUS
 62
         0
100
AcDbPoint
 10
1492.2419740548
 20
178.6846417294
 30
0.0
  0
POINT
  5
5D8
100
AcDbEntity
  8
DEFPOINTS
  6
CONTINUOUS
 62
         0
100
AcDbPoint
 10
1504.1033403763
 20
178.6846417294
 30
0.0
  0
POINT
  5
5D9
100
AcDbEntity
  8
DEFPOINTS
  6
CONTINUOUS
 62
         0
100
AcDbPoint
 10
1504.1033403763
 20
121.6846417294
 30
0.0
  0
LINE
  5
5DA
100
AcDbEntity
  8
L1_120
  6
CONTINUOUS
 62
         4
100
AcDbLine
 10
1502.7533403763
 20
178.6846417294
 30
0.0
 11
1491.5669740548
 21
178.6846417294
 31
0.0
  0
LINE
  5
5DB
100
AcDbEntity
  8
L1_120
  6
CONTINUOUS
 62
         4
100
AcDbLine
 10
1502.7533403763
 20
121.6846417294
 30
0.0
 11
1491.5669740548
 21
121.6846417294
 31
0.0
  0
LINE
  5
5DC
100
AcDbEntity
  8
L1_120
  6
CONTINUOUS
 62
         4
100
AcDbLine
 10
1492.2419740548
 20
178.6846417294
 30
0.0
 11
1492.2419740548
 21
121.6846417294
 31
0.0
  0
SOLID
  5
5DD
100
AcDbEntity
  8
L1_120
  6
CONTINUOUS
 62
         4
100
AcDbTrace
 10
1492.2419740548
 20
178.6846417294
 30
0.0
 11
1492.6469740548
 21
175.9846417294
 31
0.0
 12
1491.8369740548
 22
175.9846417294
 32
0.0
 13
1492.2419740548
 23
178.6846417294
 33
0.0
  0
LINE
  5
5DE
100
AcDbEntity
  8
L1_120
  6
CONTINUOUS
 62
         4
100
AcDbLine
 10
1492.2419740548
 20
121.6846417294
 30
0.0
 11
1492.2419740548
 21
92.1205060253
 31
0.0
  0
SOLID
  5
5DF
100
AcDbEntity
  8
L1_120
  6
CONTINUOUS
 62
         4
100
AcDbTrace
 10
1492.2419740548
 20
121.6846417294
 30
0.0
 11
1491.8369740548
 21
124.3846417294
 31
0.0
 12
1492.6469740548
 22
124.3846417294
 32
0.0
 13
1492.2419740548
 23
121.6846417294
 33
0.0
  0
TEXT
  5
5E1
100
AcDbEntity
  8
L1_120
  6
CONTINUOUS
 62
         4
100
AcDbText
 10
1489.1099740548
 20
93.4705060253
 30
0.0
 40
2.7
  1
崷57
 50
90.0
  7
BOX
100
AcDbText
  0
ENDBLK
  5
5E2
100
AcDbEntity
  8
0
  6
CONTINUOUS
100
AcDbBlockEnd
  0
BLOCK
  5
5E4
100
AcDbEntity
  8
0
100
AcDbBlockBegin
  2
*D15
 70
        65
 10
0.0
 20
0.0
 30
0.0
  3
*D15
  1

  0
POINT
  5
5E6
100
AcDbEntity
  8
DEFPOINTS
  6
CONTINUOUS
 62
         0
100
AcDbPoint
 10
1464.8033403763
 20
37.7100228397
 30
0.0
  0
POINT
  5
5E7
100
AcDbEntity
  8
DEFPOINTS
  6
CONTINUOUS
 62
         0
100
AcDbPoint
 10
1464.8033403763
 20
17.8622943309
 30
0.0
  0
POINT
  5
5E8
100
AcDbEntity
  8
DEFPOINTS
  6
CONTINUOUS
 62
         0
100
AcDbPoint
 10
1512.1033403763
 20
16.5566652593
 30
0.0
  0
LINE
  5
5E9
100
AcDbEntity
  8
L1_120
  6
CONTINUOUS
 62
         4
100
AcDbLine
 10
1464.8033403763
 20
19.2122943309
 30
0.0
 11
1464.8033403763
 21
38.3850228397
 31
0.0
  0
LINE
  5
5EA
100
AcDbEntity
  8
L1_120
  6
CONTINUOUS
 62
         4
100
AcDbLine
 10
1512.1033403763
 20
17.9066652593
 30
0.0
 11
1512.1033403763
 21
38.3850228397
 31
0.0
  0
LINE
  5
5EB
100
AcDbEntity
  8
L1_120
  6
CONTINUOUS
 62
         4
100
AcDbLine
 10
1464.8033403763
 20
37.7100228397
 30
0.0
 11
1512.1033403763
 21
37.7100228397
 31
0.0
  0
SOLID
  5
5EC
100
AcDbEntity
  8
L1_120
  6
CONTINUOUS
 62
         4
100
AcDbTrace
 10
1464.8033403763
 20
37.7100228397
 30
0.0
 11
1467.5033403763
 21
38.1150228397
 31
0.0
 12
1467.5033403763
 22
37.3050228397
 32
0.0
 13
1464.8033403763
 23
37.7100228397
 33
0.0
  0
SOLID
  5
5ED
100
AcDbEntity
  8
L1_120
  6
CONTINUOUS
 62
         4
100
AcDbTrace
 10
1512.1033403763
 20
37.7100228397
 30
0.0
 11
1509.4033403763
 21
37.3050228397
 31
0.0
 12
1509.4033403763
 22
38.1150228397
 32
0.0
 13
1512.1033403763
 23
37.7100228397
 33
0.0
  0
TEXT
  5
5EF
100
AcDbEntity
  8
L1_120
  6
CONTINUOUS
 62
         4
100
AcDbText
 10
1476.7369334944
 20
40.8420228397
 30
0.0
 40
2.7
  1
47.3
  7
BOX
100
AcDbText
  0
ENDBLK
  5
5F0
100
AcDbEntity
  8
0
  6
CONTINUOUS
100
AcDbBlockEnd
  0
BLOCK
  5
5F2
100
AcDbEntity
  8
0
100
AcDbBlockBegin
  2
*D16
 70
        65
 10
0.0
 20
0.0
 30
0.0
  3
*D16
  1

  0
POINT
  5
5F4
100
AcDbEntity
  8
DEFPOINTS
  6
CONTINUOUS
 62
         0
100
AcDbPoint
 10
1512.1033403763
 20
-55.2868775663
 30
0.0
  0
POINT
  5
5F5
100
AcDbEntity
  8
DEFPOINTS
  6
CONTINUOUS
 62
         0
100
AcDbPoint
 10
1512.1033403763
 20
-25.6933347407
 30
0.0
  0
POINT
  5
5F6
100
AcDbEntity
  8
DEFPOINTS
  6
CONTINUOUS
 62
         0
100
AcDbPoint
 10
1447.1033403763
 20
-37.4433347407
 30
0.0
  0
LINE
  5
5F7
100
AcDbEntity
  8
L1_120
  6
CONTINUOUS
 62
         4
100
AcDbLine
 10
1512.1033403763
 20
-27.0433347407
 30
0.0
 11
1512.1033403763
 21
-55.9618775663
 31
0.0
  0
LINE
  5
5F8
100
AcDbEntity
  8
L1_120
  6
CONTINUOUS
 62
         4
100
AcDbLine
 10
1447.1033403763
 20
-38.7933347407
 30
0.0
 11
1447.1033403763
 21
-55.9618775663
 31
0.0
  0
LINE
  5
5F9
100
AcDbEntity
  8
L1_120
  6
CONTINUOUS
 62
         4
100
AcDbLine
 10
1512.1033403763
 20
-55.2868775663
 30
0.0
 11
1447.1033403763
 21
-55.2868775663
 31
0.0
  0
SOLID
  5
5FA
100
AcDbEntity
  8
L1_120
  6
CONTINUOUS
 62
         4
100
AcDbTrace
 10
1512.1033403763
 20
-55.2868775663
 30
0.0
 11
1509.4033403763
 21
-55.6918775663
 31
0.0
 12
1509.4033403763
 22
-54.8818775663
 32
0.0
 13
1512.1033403763
 23
-55.2868775663
 33
0.0
  0
SOLID
  5
5FB
100
AcDbEntity
  8
L1_120
  6
CONTINUOUS
 62
         4
100
AcDbTrace
 10
1447.1033403763
 20
-55.2868775663
 30
0.0
 11
1449.8033403763
 21
-54.8818775663
 31
0.0
 12
1449.8033403763
 22
-55.6918775663
 32
0.0
 13
1447.1033403763
 23
-55.2868775663
 33
0.0
  0
TEXT
  5
5FD
100
AcDbEntity
  8
L1_120
  6
CONTINUOUS
 62
         4
100
AcDbText
 10
1472.2448842359
 20
-52.1548775663
 30
0.0
 40
2.7
  1
65
  7
BOX
100
AcDbText
  0
ENDBLK
  5
5FE
100
AcDbEntity
  8
0
  6
CONTINUOUS
100
AcDbBlockEnd
  0
BLOCK
  5
600
100
AcDbEntity
  8
0
100
AcDbBlockBegin
  2
*D17
 70
        65
 10
0.0
 20
0.0
 30
0.0
  3
*D17
  1

  0
POINT
  5
602
100
AcDbEntity
  8
DEFPOINTS
  6
CONTINUOUS
 62
         0
100
AcDbPoint
 10
1512.1033403763
 20
-5.0614139583
 30
0.0
  0
POINT
  5
603
100
AcDbEntity
  8
DEFPOINTS
  6
CONTINUOUS
 62
         0
100
AcDbPoint
 10
1512.1033403763
 20
-0.1933347407
 30
0.0
  0
POINT
  5
604
100
AcDbEntity
  8
DEFPOINTS
  6
CONTINUOUS
 62
         0
100
AcDbPoint
 10
1503.8033403763
 20
-1.1933347407
 30
0.0
  0
LINE
  5
605
100
AcDbEntity
  8
L1_120
  6
CONTINUOUS
 62
         4
100
AcDbLine
 10
1512.1033403763
 20
-1.5433347407
 30
0.0
 11
1512.1033403763
 21
-5.7364139583
 31
0.0
  0
LINE
  5
606
100
AcDbEntity
  8
L1_120
  6
CONTINUOUS
 62
         4
100
AcDbLine
 10
1503.8033403763
 20
0.1566652593
 30
0.0
 11
1503.8033403763
 21
-4.3864139583
 31
0.0
  0
LINE
  5
607
100
AcDbEntity
  8
L1_120
  6
CONTINUOUS
 62
         4
100
AcDbLine
 10
1512.1033403763
 20
-5.0614139583
 30
0.0
 11
1503.8033403763
 21
-5.0614139583
 31
0.0
  0
SOLID
  5
608
100
AcDbEntity
  8
L1_120
  6
CONTINUOUS
 62
         4
100
AcDbTrace
 10
1512.1033403763
 20
-5.0614139583
 30
0.0
 11
1509.4033403763
 21
-5.4664139583
 31
0.0
 12
1509.4033403763
 22
-4.6564139583
 32
0.0
 13
1512.1033403763
 23
-5.0614139583
 33
0.0
  0
LINE
  5
609
100
AcDbEntity
  8
L1_120
  6
CONTINUOUS
 62
         4
100
AcDbLine
 10
1512.1033403763
 20
-5.0614139583
 30
0.0
 11
1525.8509170142
 21
-5.0614139583
 31
0.0
  0
SOLID
  5
60A
100
AcDbEntity
  8
L1_120
  6
CONTINUOUS
 62
         4
100
AcDbTrace
 10
1503.8033403763
 20
-5.0614139583
 30
0.0
 11
1506.5033403763
 21
-4.6564139583
 31
0.0
 12
1506.5033403763
 22
-5.4664139583
 32
0.0
 13
1503.8033403763
 23
-5.0614139583
 33
0.0
  0
TEXT
  5
60C
100
AcDbEntity
  8
L1_120
  6
CONTINUOUS
 62
         4
100
AcDbText
 10
1515.5009170142
 20
-1.9294139583
 30
0.0
 40
2.7
  1
8.3
  7
BOX
100
AcDbText
  0
ENDBLK
  5
60D
100
AcDbEntity
  8
0
  6
CONTINUOUS
100
AcDbBlockEnd
  0
BLOCK
  5
60F
100
AcDbEntity
  8
0
100
AcDbBlockBegin
  2
*D18
 70
        65
 10
0.0
 20
0.0
 30
0.0
  3
*D18
  1

  0
POINT
  5
611
100
AcDbEntity
  8
DEFPOINTS
  6
CONTINUOUS
 62
         0
100
AcDbPoint
 10
1536.3733772399
 20
11.0566652593
 30
0.0
  0
POINT
  5
612
100
AcDbEntity
  8
DEFPOINTS
  6
CONTINUOUS
 62
         0
100
AcDbPoint
 10
1510.1033403763
 20
11.0566652593
 30
0.0
  0
POINT
  5
613
100
AcDbEntity
  8
DEFPOINTS
  6
CONTINUOUS
 62
         0
100
AcDbPoint
 10
1510.1033403763
 20
-36.9433347407
 30
0.0
  0
LINE
  5
614
100
AcDbEntity
  8
L1_120
  6
CONTINUOUS
 62
         4
100
AcDbLine
 10
1511.4533403763
 20
11.0566652593
 30
0.0
 11
1537.0483772399
 21
11.0566652593
 31
0.0
  0
LINE
  5
615
100
AcDbEntity
  8
L1_120
  6
CONTINUOUS
 62
         4
100
AcDbLine
 10
1511.4533403763
 20
-36.9433347407
 30
0.0
 11
1537.0483772399
 21
-36.9433347407
 31
0.0
  0
LINE
  5
616
100
AcDbEntity
  8
L1_120
  6
CONTINUOUS
 62
         4
100
AcDbLine
 10
1536.3733772399
 20
11.0566652593
 30
0.0
 11
1536.3733772399
 21
-36.9433347407
 31
0.0
  0
SOLID
  5
617
100
AcDbEntity
  8
L1_120
  6
CONTINUOUS
 62
         4
100
AcDbTrace
 10
1536.3733772399
 20
11.0566652593
 30
0.0
 11
1536.7783772399
 21
8.3566652593
 31
0.0
 12
1535.9683772399
 22
8.3566652593
 32
0.0
 13
1536.3733772399
 23
11.0566652593
 33
0.0
  0
SOLID
  5
618
100
AcDbEntity
  8
L1_120
  6
CONTINUOUS
 62
         4
100
AcDbTrace
 10
1536.3733772399
 20
-36.9433347407
 30
0.0
 11
1535.9683772399
 21
-34.2433347407
 31
0.0
 12
1536.7783772399
 22
-34.2433347407
 32
0.0
 13
1536.3733772399
 23
-36.9433347407
 33
0.0
  0
TEXT
  5
61A
100
AcDbEntity
  8
L1_120
  6
CONTINUOUS
 62
         4
100
AcDbText
 10
1533.2413772399
 20
-22.4263863007
 30
0.0
 40
2.7
  1
崷48
 50
90.0
  7
BOX
100
AcDbText
  0
ENDBLK
  5
61B
100
AcDbEntity
  8
0
  6
CONTINUOUS
100
AcDbBlockEnd
  0
ENDSEC
  0
SECTION
  2
ENTITIES
  0
LINE
  5
24
100
AcDbEntity
  8
L1_120
  6
CONTINUOUS
 62
         4
100
AcDbLine
 10
1504.2033403763
 20
120.1846417294
 30
0.0
 11
1504.2033403763
 21
180.1846417294
 31
0.0
  0
LINE
  5
25
100
AcDbEntity
  8
L1_120
  6
CONTINUOUS
 62
         7
100
AcDbLine
 10
1512.1033403763
 20
162.9346417294
 30
0.0
 11
1511.6033403763
 21
162.4346417294
 31
0.0
  0
LINE
  5
26
100
AcDbEntity
  8
L1_120
  6
CONTINUOUS
 62
         7
100
AcDbLine
 10
1511.6033403763
 20
137.9346417294
 30
0.0
 11
1512.1033403763
 21
137.4346417294
 31
0.0
  0
LINE
  5
27
100
AcDbEntity
  8
L1_120
  6
CONTINUOUS
 62
         7
100
AcDbLine
 10
1511.6033403763
 20
162.4346417294
 30
0.0
 11
1505.3033403763
 21
162.4346417294
 31
0.0
  0
ARC
  5
28
100
AcDbEntity
  8
L1_120
  6
CONTINUOUS
 62
         7
100
AcDbCircle
 10
1505.3033403763
 20
161.9346417294
 30
0.0
 40
0.5
100
AcDbArc
 50
90.0
 51
180.0
  0
LINE
  5
29
100
AcDbEntity
  8
L1_120
  6
CONTINUOUS
 62
         7
100
AcDbLine
 10
1504.8033403763
 20
138.4346417294
 30
0.0
 11
1504.8033403763
 21
161.9346417294
 31
0.0
  0
ARC
  5
2A
100
AcDbEntity
  8
L1_120
  6
CONTINUOUS
 62
         7
100
AcDbCircle
 10
1505.3033403763
 20
138.4346417294
 30
0.0
 40
0.5
100
AcDbArc
 50
180.0
 51
270.0
  0
LINE
  5
2B
100
AcDbEntity
  8
L1_120
  6
CONTINUOUS
 62
         7
100
AcDbLine
 10
1511.6033403763
 20
137.9346417294
 30
0.0
 11
1505.3033403763
 21
137.9346417294
 31
0.0
  0
LINE
  5
2C
100
AcDbEntity
  8
L1_120
  6
CENTER
 62
         1
100
AcDbLine
 10
1464.8033403763
 20
120.1846417294
 30
0.0
 11
1464.8033403763
 21
180.9902708009
 31
0.0
  0
POLYLINE
  5
2E
100
AcDbEntity
  8
L1_120
  6
CONTINUOUS
 62
         7
100
AcDb2dPolyline
 66
         1
 10
0.0
 20
0.0
 30
0.0
 70
         2
  0
VERTEX
  5
30
100
AcDbEntity
  8
L1_120
  6
CONTINUOUS
 62
         7
100
AcDbVertex
100
AcDb2dVertex
 10
1460.3033403763
 20
165.1846417294
 30
0.0
 70
         1
  0
VERTEX
  5
32
100
AcDbEntity
  8
L1_120
  6
CONTINUOUS
 62
         7
100
AcDbVertex
100
AcDb2dVertex
 10
1460.3429597537
 20
164.6461736589
 30
0.0
 70
         1
  0
VERTEX
  5
34
100
AcDbEntity
  8
L1_120
  6
CONTINUOUS
 62
         7
100
AcDbVertex
100
AcDb2dVertex
 10
1460.3949059099
 20
164.368417254
 30
0.0
 70
         1
  0
VERTEX
  5
36
100
AcDbEntity
  8
L1_120
  6
CONTINUOUS
 62
         7
100
AcDbVertex
100
AcDb2dVertex
 10
1460.4701298323
 20
164.0876925931
 30
0.0
 70
         1
  0
VERTEX
  5
38
100
AcDbEntity
  8
L1_120
  6
CONTINUOUS
 62
         7
100
AcDbVertex
100
AcDb2dVertex
 10
1460.5696486889
 20
163.8063720792
 30
0.0
 70
         1
  0
VERTEX
  5
3A
100
AcDbEntity
  8
L1_120
  6
CONTINUOUS
 62
         7
100
AcDbVertex
100
AcDb2dVertex
 10
1460.6940967631
 20
163.5270466671
 30
0.0
 70
         1
  0
VERTEX
  5
3C
100
AcDbEntity
  8
L1_120
  6
CONTINUOUS
 62
         7
100
AcDbVertex
100
AcDb2dVertex
 10
1460.843665225
 20
163.252463356
 30
0.0
 70
         1
  0
VERTEX
  5
3E
100
AcDbEntity
  8
L1_120
  6
CONTINUOUS
 62
         7
100
AcDbVertex
100
AcDb2dVertex
 10
1461.0180570371
 20
162.9854477457
 30
0.0
 70
         1
  0
VERTEX
  5
40
100
AcDbEntity
  8
L1_120
  6
CONTINUOUS
 62
         7
100
AcDbVertex
100
AcDb2dVertex
 10
1461.2164620225
 20
162.7288152515
 30
0.0
 70
         1
  0
VERTEX
  5
42
100
AcDbEntity
  8
L1_120
  6
CONTINUOUS
 62
         7
100
AcDbVertex
100
AcDb2dVertex
 10
1461.4375558753
 20
162.4852760989
 30
0.0
 70
         1
  0
VERTEX
  5
44
100
AcDbEntity
  8
L1_120
  6
CONTINUOUS
 62
         7
100
AcDbVertex
100
AcDb2dVertex
 10
1461.6795250214
 20
162.25734032
 30
0.0
 70
         1
  0
VERTEX
  5
46
100
AcDbEntity
  8
L1_120
  6
CONTINUOUS
 62
         7
100
AcDbVertex
100
AcDb2dVertex
 10
1461.9401169552
 20
162.0472294397
 30
0.0
 70
         1
  0
VERTEX
  5
48
100
AcDbEntity
  8
L1_120
  6
CONTINUOUS
 62
         7
100
AcDbVertex
100
AcDb2dVertex
 10
1462.216713283
 20
161.856801225
 30
0.0
 70
         1
  0
VERTEX
  5
4A
100
AcDbEntity
  8
L1_120
  6
CONTINUOUS
 62
         7
100
AcDbVertex
100
AcDb2dVertex
 10
1462.5064205494
 20
161.6874927976
 30
0.0
 70
         1
  0
VERTEX
  5
4C
100
AcDbEntity
  8
L1_120
  6
CONTINUOUS
 62
         7
100
AcDbVertex
100
AcDb2dVertex
 10
1462.806172329
 20
161.540285696
 30
0.0
 70
         1
  0
VERTEX
  5
4E
100
AcDbEntity
  8
L1_120
  6
CONTINUOUS
 62
         7
100
AcDbVertex
100
AcDb2dVertex
 10
1463.1128352576
 20
161.4156943909
 30
0.0
 70
         1
  0
VERTEX
  5
50
100
AcDbEntity
  8
L1_120
  6
CONTINUOUS
 62
         7
100
AcDbVertex
100
AcDb2dVertex
 10
1463.4233117451
 20
161.3137775961
 30
0.0
 70
         1
  0
VERTEX
  5
52
100
AcDbEntity
  8
L1_120
  6
CONTINUOUS
 62
         7
100
AcDbVertex
100
AcDb2dVertex
 10
1463.7346329765
 20
161.2341698055
 30
0.0
 70
         1
  0
VERTEX
  5
54
100
AcDbEntity
  8
L1_120
  6
CONTINUOUS
 62
         7
100
AcDbVertex
100
AcDb2dVertex
 10
1464.0440372798
 20
161.1761290341
 30
0.0
 70
         1
  0
VERTEX
  5
56
100
AcDbEntity
  8
L1_120
  6
CONTINUOUS
 62
         7
100
AcDbVertex
100
AcDb2dVertex
 10
1464.4515107636
 20
161.1302662458
 30
0.0
 70
         1
  0
VERTEX
  5
58
100
AcDbEntity
  8
L1_120
  6
CONTINUOUS
 62
         7
100
AcDbVertex
100
AcDb2dVertex
 10
1464.845969066
 20
161.1179998423
 30
0.0
 70
         1
  0
VERTEX
  5
5A
100
AcDbEntity
  8
L1_120
  6
CONTINUOUS
 62
         7
100
AcDbVertex
100
AcDb2dVertex
 10
1465.2233669307
 20
161.1355716365
 30
0.0
 70
         1
  0
VERTEX
  5
5C
100
AcDbEntity
  8
L1_120
  6
CONTINUOUS
 62
         7
100
AcDbVertex
100
AcDb2dVertex
 10
1465.5807349629
 20
161.1789623098
 30
0.0
 70
         1
  0
VERTEX
  5
5E
100
AcDbEntity
  8
L1_120
  6
CONTINUOUS
 62
         7
100
AcDbVertex
100
AcDb2dVertex
 10
1465.9161057784
 20
161.2441176408
 30
0.0
 70
         1
  0
VERTEX
  5
60
100
AcDbEntity
  8
L1_120
  6
CONTINUOUS
 62
         7
100
AcDbVertex
100
AcDb2dVertex
 10
1466.2283942808
 20
161.3271250767
 30
0.0
 70
         1
  0
VERTEX
  5
62
100
AcDbEntity
  8
L1_120
  6
CONTINUOUS
 62
         7
100
AcDbVertex
100
AcDb2dVertex
 10
1466.6110091345
 20
161.4603680484
 30
0.0
 70
         1
  0
VERTEX
  5
64
100
AcDbEntity
  8
L1_120
  6
CONTINUOUS
 62
         7
100
AcDbVertex
100
AcDb2dVertex
 10
1466.9521952411
 20
161.6114522295
 30
0.0
 70
         1
  0
VERTEX
  5
66
100
AcDbEntity
  8
L1_120
  6
CONTINUOUS
 62
         7
100
AcDbVertex
100
AcDb2dVertex
 10
1467.254037276
 20
161.7738109215
 30
0.0
 70
         1
  0
VERTEX
  5
68
100
AcDbEntity
  8
L1_120
  6
CONTINUOUS
 62
         7
100
AcDbVertex
100
AcDb2dVertex
 10
1467.5194269829
 20
161.9421367272
 30
0.0
 70
         1
  0
VERTEX
  5
6A
100
AcDbEntity
  8
L1_120
  6
CONTINUOUS
 62
         7
100
AcDbVertex
100
AcDb2dVertex
 10
1467.7516664486
 20
162.1122790917
 30
0.0
 70
         1
  0
VERTEX
  5
6C
100
AcDbEntity
  8
L1_120
  6
CONTINUOUS
 62
         7
100
AcDbVertex
100
AcDb2dVertex
 10
1468.0180610238
 20
162.3388587928
 30
0.0
 70
         1
  0
VERTEX
  5
6E
100
AcDbEntity
  8
L1_120
  6
CONTINUOUS
 62
         7
100
AcDbVertex
100
AcDb2dVertex
 10
1468.2386460986
 20
162.5577801118
 30
0.0
 70
         1
  0
VERTEX
  5
70
100
AcDbEntity
  8
L1_120
  6
CONTINUOUS
 62
         7
100
AcDbVertex
100
AcDb2dVertex
 10
1468.4208285008
 20
162.7657634582
 30
0.0
 70
         1
  0
VERTEX
  5
72
100
AcDbEntity
  8
L1_120
  6
CONTINUOUS
 62
         7
100
AcDbVertex
100
AcDb2dVertex
 10
1468.6174101674
 20
163.0264516042
 30
0.0
 70
         1
  0
VERTEX
  5
74
100
AcDbEntity
  8
L1_120
  6
CONTINUOUS
 62
         7
100
AcDbVertex
100
AcDb2dVertex
 10
1468.7689298121
 20
163.2623954825
 30
0.0
 70
         1
  0
VERTEX
  5
76
100
AcDbEntity
  8
L1_120
  6
CONTINUOUS
 62
         7
100
AcDbVertex
100
AcDb2dVertex
 10
1468.9209516485
 20
163.5440939101
 30
0.0
 70
         1
  0
VERTEX
  5
78
100
AcDbEntity
  8
L1_120
  6
CONTINUOUS
 62
         7
100
AcDbVertex
100
AcDb2dVertex
 10
1469.0283292699
 20
163.784730616
 30
0.0
 70
         1
  0
VERTEX
  5
7A
100
AcDbEntity
  8
L1_120
  6
CONTINUOUS
 62
         7
100
AcDbVertex
100
AcDb2dVertex
 10
1469.1267499707
 20
164.0565493242
 30
0.0
 70
         1
  0
VERTEX
  5
7C
100
AcDbEntity
  8
L1_120
  6
CONTINUOUS
 62
         7
100
AcDbVertex
100
AcDb2dVertex
 10
1469.2063146666
 20
164.3446908737
 30
0.0
 70
         1
  0
VERTEX
  5
7E
100
AcDbEntity
  8
L1_120
  6
CONTINUOUS
 62
         7
100
AcDbVertex
100
AcDb2dVertex
 10
1469.2605943148
 20
164.6254272609
 30
0.0
 70
         1
  0
VERTEX
  5
80
100
AcDbEntity
  8
L1_120
  6
CONTINUOUS
 62
         7
100
AcDbVertex
100
AcDb2dVertex
 10
1469.2898071399
 20
164.869476554
 30
0.0
 70
         1
  0
VERTEX
  5
82
100
AcDbEntity
  8
L1_120
  6
CONTINUOUS
 62
         7
100
AcDbVertex
100
AcDb2dVertex
 10
1469.3025405839
 20
165.1079703132
 30
0.0
 70
         1
  0
VERTEX
  5
84
100
AcDbEntity
  8
L1_120
  6
CONTINUOUS
 62
         7
100
AcDbVertex
100
AcDb2dVertex
 10
1469.3033403763
 20
165.1846417294
 30
0.0
 70
         1
  0
SEQEND
  5
86
100
AcDbEntity
  8
L1_120
  6
CONTINUOUS
 62
         7
  0
POLYLINE
  5
88
100
AcDbEntity
  8
L1_120
  6
CONTINUOUS
 62
         7
100
AcDb2dPolyline
 66
         1
 10
0.0
 20
0.0
 30
0.0
 70
         2
  0
VERTEX
  5
8A
100
AcDbEntity
  8
L1_120
  6
CONTINUOUS
 62
         7
100
AcDbVertex
100
AcDb2dVertex
 10
1469.3033403763
 20
165.1846423202
 30
0.0
 70
         1
  0
VERTEX
  5
8C
100
AcDbEntity
  8
L1_120
  6
CONTINUOUS
 62
         7
100
AcDbVertex
100
AcDb2dVertex
 10
1469.2637209055
 20
165.6781694442
 30
0.0
 70
         1
  0
VERTEX
  5
8E
100
AcDbEntity
  8
L1_120
  6
CONTINUOUS
 62
         7
100
AcDbVertex
100
AcDb2dVertex
 10
1469.2117747031
 20
165.9327440843
 30
0.0
 70
         1
  0
VERTEX
  5
90
100
AcDbEntity
  8
L1_120
  6
CONTINUOUS
 62
         7
100
AcDbVertex
100
AcDb2dVertex
 10
1469.1365507363
 20
166.1900392419
 30
0.0
 70
         1
  0
VERTEX
  5
92
100
AcDbEntity
  8
L1_120
  6
CONTINUOUS
 62
         7
100
AcDbVertex
100
AcDb2dVertex
 10
1469.0370318384
 20
166.4478805164
 30
0.0
 70
         1
  0
VERTEX
  5
94
100
AcDbEntity
  8
L1_120
  6
CONTINUOUS
 62
         7
100
AcDbVertex
100
AcDb2dVertex
 10
1468.9125837274
 20
166.7038931964
 30
0.0
 70
         1
  0
VERTEX
  5
96
100
AcDbEntity
  8
L1_120
  6
CONTINUOUS
 62
         7
100
AcDbVertex
100
AcDb2dVertex
 10
1468.7630152341
 20
166.9555595498
 30
0.0
 70
         1
  0
VERTEX
  5
98
100
AcDbEntity
  8
L1_120
  6
CONTINUOUS
 62
         7
100
AcDbVertex
100
AcDb2dVertex
 10
1468.5886233974
 20
167.2002898041
 30
0.0
 70
         1
  0
VERTEX
  5
9A
100
AcDbEntity
  8
L1_120
  6
CONTINUOUS
 62
         7
100
AcDbVertex
100
AcDb2dVertex
 10
1468.3902183949
 20
167.4355035214
 30
0.0
 70
         1
  0
VERTEX
  5
9C
100
AcDbEntity
  8
L1_120
  6
CONTINUOUS
 62
         7
100
AcDbVertex
100
AcDb2dVertex
 10
1468.1691245334
 20
167.658716675
 30
0.0
 70
         1
  0
VERTEX
  5
9E
100
AcDbEntity
  8
L1_120
  6
CONTINUOUS
 62
         7
100
AcDbVertex
100
AcDb2dVertex
 10
1467.9271553872
 20
167.8676287228
 30
0.0
 70
         1
  0
VERTEX
  5
A0
100
AcDbEntity
  8
L1_120
  6
CONTINUOUS
 62
         7
100
AcDbVertex
100
AcDb2dVertex
 10
1467.666563462
 20
168.0602035516
 30
0.0
 70
         1
  0
VERTEX
  5
A2
100
AcDbEntity
  8
L1_120
  6
CONTINUOUS
 62
         7
100
AcDbVertex
100
AcDb2dVertex
 10
1467.3899671512
 20
168.234738446
 30
0.0
 70
         1
  0
VERTEX
  5
A4
100
AcDbEntity
  8
L1_120
  6
CONTINUOUS
 62
         7
100
AcDbVertex
100
AcDb2dVertex
 10
1467.1002599096
 20
168.3899162289
 30
0.0
 70
         1
  0
VERTEX
  5
A6
100
AcDbEntity
  8
L1_120
  6
CONTINUOUS
 62
         7
100
AcDbVertex
100
AcDb2dVertex
 10
1466.8005081618
 20
168.5248372824
 30
0.0
 70
         1
  0
VERTEX
  5
A8
100
AcDbEntity
  8
L1_120
  6
CONTINUOUS
 62
         7
100
AcDbVertex
100
AcDb2dVertex
 10
1466.4938452709
 20
168.6390300751
 30
0.0
 70
         1
  0
VERTEX
  5
AA
100
AcDbEntity
  8
L1_120
  6
CONTINUOUS
 62
         7
100
AcDbVertex
100
AcDb2dVertex
 10
1466.1833688256
 20
168.7324407938
 30
0.0
 70
         1
  0
VERTEX
  5
AC
100
AcDbEntity
  8
L1_120
  6
CONTINUOUS
 62
         7
100
AcDbVertex
100
AcDb2dVertex
 10
1465.7663129171
 20
168.8257006655
 30
0.0
 70
         1
  0
VERTEX
  5
AE
100
AcDbEntity
  8
L1_120
  6
CONTINUOUS
 62
         7
100
AcDbVertex
100
AcDb2dVertex
 10
1465.3542533422
 20
168.8840075476
 30
0.0
 70
         1
  0
VERTEX
  5
B0
100
AcDbEntity
  8
L1_120
  6
CONTINUOUS
 62
         7
100
AcDbVertex
100
AcDb2dVertex
 10
1464.9528200697
 20
168.9099889892
 30
0.0
 70
         1
  0
VERTEX
  5
B2
100
AcDbEntity
  8
L1_120
  6
CONTINUOUS
 62
         7
100
AcDbVertex
100
AcDb2dVertex
 10
1464.5665941741
 20
168.906883992
 30
0.0
 70
         1
  0
VERTEX
  5
B4
100
AcDbEntity
  8
L1_120
  6
CONTINUOUS
 62
         7
100
AcDbVertex
100
AcDb2dVertex
 10
1464.1990687712
 20
168.878287196
 30
0.0
 70
         1
  0
VERTEX
  5
B6
100
AcDbEntity
  8
L1_120
  6
CONTINUOUS
 62
         7
100
AcDbVertex
100
AcDb2dVertex
 10
1463.8526914128
 20
168.8279218808
 30
0.0
 70
         1
  0
VERTEX
  5
B8
100
AcDbEntity
  8
L1_120
  6
CONTINUOUS
 62
         7
100
AcDbVertex
100
AcDb2dVertex
 10
1463.5289642257
 20
168.7594551563
 30
0.0
 70
         1
  0
VERTEX
  5
BA
100
AcDbEntity
  8
L1_120
  6
CONTINUOUS
 62
         7
100
AcDbVertex
100
AcDb2dVertex
 10
1463.1308990185
 20
168.6450574861
 30
0.0
 70
         1
  0
VERTEX
  5
BC
100
AcDbEntity
  8
L1_120
  6
CONTINUOUS
 62
         7
100
AcDbVertex
100
AcDb2dVertex
 10
1462.7747265896
 20
168.5118101317
 30
0.0
 70
         1
  0
VERTEX
  5
BE
100
AcDbEntity
  8
L1_120
  6
CONTINUOUS
 62
         7
100
AcDbVertex
100
AcDb2dVertex
 10
1462.4587798663
 20
168.3661619334
 30
0.0
 70
         1
  0
VERTEX
  5
C0
100
AcDbEntity
  8
L1_120
  6
CONTINUOUS
 62
         7
100
AcDbVertex
100
AcDb2dVertex
 10
1462.1804104809
 20
168.2133926955
 30
0.0
 70
         1
  0
VERTEX
  5
C2
100
AcDbEntity
  8
L1_120
  6
CONTINUOUS
 62
         7
100
AcDbVertex
100
AcDb2dVertex
 10
1461.9364277917
 20
168.0576803141
 30
0.0
 70
         1
  0
VERTEX
  5
C4
100
AcDbEntity
  8
L1_120
  6
CONTINUOUS
 62
         7
100
AcDbVertex
100
AcDb2dVertex
 10
1461.6561952366
 20
167.8488566356
 30
0.0
 70
         1
  0
VERTEX
  5
C6
100
AcDbEntity
  8
L1_120
  6
CONTINUOUS
 62
         7
100
AcDbVertex
100
AcDb2dVertex
 10
1461.4239214323
 20
167.6459313399
 30
0.0
 70
         1
  0
VERTEX
  5
C8
100
AcDbEntity
  8
L1_120
  6
CONTINUOUS
 62
         7
100
AcDbVertex
100
AcDb2dVertex
 10
1461.2319794711
 20
167.4523691385
 30
0.0
 70
         1
  0
VERTEX
  5
CA
100
AcDbEntity
  8
L1_120
  6
CONTINUOUS
 62
         7
100
AcDbVertex
100
AcDb2dVertex
 10
1461.0248188633
 20
167.2089752567
 30
0.0
 70
         1
  0
VERTEX
  5
CC
100
AcDbEntity
  8
L1_120
  6
CONTINUOUS
 62
         7
100
AcDbVertex
100
AcDb2dVertex
 10
1460.8651597589
 20
166.9881442427
 30
0.0
 70
         1
  0
VERTEX
  5
CE
100
AcDbEntity
  8
L1_120
  6
CONTINUOUS
 62
         7
100
AcDbVertex
100
AcDb2dVertex
 10
1460.7050392836
 20
166.7240387226
 30
0.0
 70
         1
  0
VERTEX
  5
D0
100
AcDbEntity
  8
L1_120
  6
CONTINUOUS
 62
         7
100
AcDbVertex
100
AcDb2dVertex
 10
1460.5920223015
 20
166.4981890304
 30
0.0
 70
         1
  0
VERTEX
  5
D2
100
AcDbEntity
  8
L1_120
  6
CONTINUOUS
 62
         7
100
AcDbVertex
100
AcDb2dVertex
 10
1460.4885312982
 20
166.2429453604
 30
0.0
 70
         1
  0
VERTEX
  5
D4
100
AcDbEntity
  8
L1_120
  6
CONTINUOUS
 62
         7
100
AcDbVertex
100
AcDb2dVertex
 10
1460.4049759029
 20
165.9723616896
 30
0.0
 70
         1
  0
VERTEX
  5
D6
100
AcDbEntity
  8
L1_120
  6
CONTINUOUS
 62
         7
100
AcDbVertex
100
AcDb2dVertex
 10
1460.3480627724
 20
165.7088405542
 30
0.0
 70
         1
  0
VERTEX
  5
D8
100
AcDbEntity
  8
L1_120
  6
CONTINUOUS
 62
         7
100
AcDbVertex
100
AcDb2dVertex
 10
1460.3174830998
 20
165.4799259695
 30
0.0
 70
         1
  0
VERTEX
  5
DA
100
AcDbEntity
  8
L1_120
  6
CONTINUOUS
 62
         7
100
AcDbVertex
100
AcDb2dVertex
 10
1460.3041751992
 20
165.256436412
 30
0.0
 70
         1
  0
VERTEX
  5
DC
100
AcDbEntity
  8
L1_120
  6
CONTINUOUS
 62
         7
100
AcDbVertex
100
AcDb2dVertex
 10
1460.3033403763
 20
165.1846423481
 30
0.0
 70
         1
  0
SEQEND
  5
DE
100
AcDbEntity
  8
L1_120
  6
CONTINUOUS
 62
         7
  0
LINE
  5
DF
100
AcDbEntity
  8
L1_120
  6
CENTER
 62
         1
100
AcDbLine
 10
1469.3033403763
 20
165.1846417294
 30
0.0
 11
1460.3033403763
 21
165.1846417294
 31
0.0
  0
POLYLINE
  5
E1
100
AcDbEntity
  8
L1_120
  6
CONTINUOUS
 62
         7
100
AcDb2dPolyline
 66
         1
 10
0.0
 20
0.0
 30
0.0
 70
         2
  0
VERTEX
  5
E3
100
AcDbEntity
  8
L1_120
  6
CONTINUOUS
 62
         7
100
AcDbVertex
100
AcDb2dVertex
 10
1460.3033403763
 20
135.1846411107
 30
0.0
 70
         1
  0
VERTEX
  5
E5
100
AcDbEntity
  8
L1_120
  6
CONTINUOUS
 62
         7
100
AcDbVertex
100
AcDb2dVertex
 10
1460.3429598521
 20
134.6911139833
 30
0.0
 70
         1
  0
VERTEX
  5
E7
100
AcDbEntity
  8
L1_120
  6
CONTINUOUS
 62
         7
100
AcDbVertex
100
AcDb2dVertex
 10
1460.3949060575
 20
134.4365393416
 30
0.0
 70
         1
  0
VERTEX
  5
E9
100
AcDbEntity
  8
L1_120
  6
CONTINUOUS
 62
         7
100
AcDbVertex
100
AcDb2dVertex
 10
1460.4701300277
 20
134.1792441828
 30
0.0
 70
         1
  0
VERTEX
  5
EB
100
AcDbEntity
  8
L1_120
  6
CONTINUOUS
 62
         7
100
AcDbVertex
100
AcDb2dVertex
 10
1460.5696489294
 20
133.9214029072
 30
0.0
 70
         1
  0
VERTEX
  5
ED
100
AcDbEntity
  8
L1_120
  6
CONTINUOUS
 62
         7
100
AcDbVertex
100
AcDb2dVertex
 10
1460.6940970445
 20
133.6653902265
 30
0.0
 70
         1
  0
VERTEX
  5
EF
100
AcDbEntity
  8
L1_120
  6
CONTINUOUS
 62
         7
100
AcDbVertex
100
AcDb2dVertex
 10
1460.843665542
 20
133.4137238728
 30
0.0
 70
         1
  0
VERTEX
  5
F1
100
AcDbEntity
  8
L1_120
  6
CONTINUOUS
 62
         7
100
AcDbVertex
100
AcDb2dVertex
 10
1461.0180573832
 20
133.1689936185
 30
0.0
 70
         1
  0
VERTEX
  5
F3
100
AcDbEntity
  8
L1_120
  6
CONTINUOUS
 62
         7
100
AcDbVertex
100
AcDb2dVertex
 10
1461.2164623902
 20
132.9337799017
 30
0.0
 70
         1
  0
VERTEX
  5
F5
100
AcDbEntity
  8
L1_120
  6
CONTINUOUS
 62
         7
100
AcDbVertex
100
AcDb2dVertex
 10
1461.4375562563
 20
132.7105667491
 30
0.0
 70
         1
  0
VERTEX
  5
F7
100
AcDbEntity
  8
L1_120
  6
CONTINUOUS
 62
         7
100
AcDbVertex
100
AcDb2dVertex
 10
1461.679525407
 20
132.5016547026
 30
0.0
 70
         1
  0
VERTEX
  5
F9
100
AcDbEntity
  8
L1_120
  6
CONTINUOUS
 62
         7
100
AcDbVertex
100
AcDb2dVertex
 10
1461.9401173366
 20
132.3090798757
 30
0.0
 70
         1
  0
VERTEX
  5
FB
100
AcDbEntity
  8
L1_120
  6
CONTINUOUS
 62
         7
100
AcDbVertex
100
AcDb2dVertex
 10
1462.2167136514
 20
132.1345449836
 30
0.0
 70
         1
  0
VERTEX
  5
FD
100
AcDbEntity
  8
L1_120
  6
CONTINUOUS
 62
         7
100
AcDbVertex
100
AcDb2dVertex
 10
1462.5064208969
 20
131.9793672034
 30
0.0
 70
         1
  0
VERTEX
  5
FF
100
AcDbEntity
  8
L1_120
  6
CONTINUOUS
 62
         7
100
AcDbVertex
100
AcDb2dVertex
 10
1462.806172648
 20
131.8444461528
 30
0.0
 70
         1
  0
VERTEX
  5
101
100
AcDbEntity
  8
L1_120
  6
CONTINUOUS
 62
         7
100
AcDbVertex
100
AcDb2dVertex
 10
1463.1128355418
 20
131.7302533634
 30
0.0
 70
         1
  0
VERTEX
  5
103
100
AcDbEntity
  8
L1_120
  6
CONTINUOUS
 62
         7
100
AcDbVertex
100
AcDb2dVertex
 10
1463.4233119896
 20
131.6368426482
 30
0.0
 70
         1
  0
VERTEX
  5
105
100
AcDbEntity
  8
L1_120
  6
CONTINUOUS
 62
         7
100
AcDbVertex
100
AcDb2dVertex
 10
1463.8403679005
 20
131.5435827814
 30
0.0
 70
         1
  0
VERTEX
  5
107
100
AcDbEntity
  8
L1_120
  6
CONTINUOUS
 62
         7
100
AcDbVertex
100
AcDb2dVertex
 10
1464.252427477
 20
131.4852759043
 30
0.0
 70
         1
  0
VERTEX
  5
109
100
AcDbEntity
  8
L1_120
  6
CONTINUOUS
 62
         7
100
AcDbVertex
100
AcDb2dVertex
 10
1464.6538607502
 20
131.4592944677
 30
0.0
 70
         1
  0
VERTEX
  5
10B
100
AcDbEntity
  8
L1_120
  6
CONTINUOUS
 62
         7
100
AcDbVertex
100
AcDb2dVertex
 10
1465.0400866456
 20
131.4623994698
 30
0.0
 70
         1
  0
VERTEX
  5
10D
100
AcDbEntity
  8
L1_120
  6
CONTINUOUS
 62
         7
100
AcDbVertex
100
AcDb2dVertex
 10
1465.4076120478
 20
131.4909962702
 30
0.0
 70
         1
  0
VERTEX
  5
10F
100
AcDbEntity
  8
L1_120
  6
CONTINUOUS
 62
         7
100
AcDbVertex
100
AcDb2dVertex
 10
1465.7539894048
 20
131.5413615896
 30
0.0
 70
         1
  0
VERTEX
  5
111
100
AcDbEntity
  8
L1_120
  6
CONTINUOUS
 62
         7
100
AcDbVertex
100
AcDb2dVertex
 10
1466.0777165901
 20
131.6098283179
 30
0.0
 70
         1
  0
VERTEX
  5
113
100
AcDbEntity
  8
L1_120
  6
CONTINUOUS
 62
         7
100
AcDbVertex
100
AcDb2dVertex
 10
1466.4757817943
 20
131.7242259927
 30
0.0
 70
         1
  0
VERTEX
  5
115
100
AcDbEntity
  8
L1_120
  6
CONTINUOUS
 62
         7
100
AcDbVertex
100
AcDb2dVertex
 10
1466.8319542198
 20
131.8574733509
 30
0.0
 70
         1
  0
VERTEX
  5
117
100
AcDbEntity
  8
L1_120
  6
CONTINUOUS
 62
         7
100
AcDbVertex
100
AcDb2dVertex
 10
1467.1479009395
 20
132.0031215524
 30
0.0
 70
         1
  0
VERTEX
  5
119
100
AcDbEntity
  8
L1_120
  6
CONTINUOUS
 62
         7
100
AcDbVertex
100
AcDb2dVertex
 10
1467.4262703212
 20
132.1558907927
 30
0.0
 70
         1
  0
VERTEX
  5
11B
100
AcDbEntity
  8
L1_120
  6
CONTINUOUS
 62
         7
100
AcDbVertex
100
AcDb2dVertex
 10
1467.6702530068
 20
132.3116031761
 30
0.0
 70
         1
  0
VERTEX
  5
11D
100
AcDbEntity
  8
L1_120
  6
CONTINUOUS
 62
         7
100
AcDbVertex
100
AcDb2dVertex
 10
1467.9504855573
 20
132.5204268566
 30
0.0
 70
         1
  0
VERTEX
  5
11F
100
AcDbEntity
  8
L1_120
  6
CONTINUOUS
 62
         7
100
AcDbVertex
100
AcDb2dVertex
 10
1468.1827593572
 20
132.7233521537
 30
0.0
 70
         1
  0
VERTEX
  5
121
100
AcDbEntity
  8
L1_120
  6
CONTINUOUS
 62
         7
100
AcDbVertex
100
AcDb2dVertex
 10
1468.3747013144
 20
132.9169143559
 30
0.0
 70
         1
  0
VERTEX
  5
123
100
AcDbEntity
  8
L1_120
  6
CONTINUOUS
 62
         7
100
AcDbVertex
100
AcDb2dVertex
 10
1468.5818619174
 20
133.1603082382
 30
0.0
 70
         1
  0
VERTEX
  5
125
100
AcDbEntity
  8
L1_120
  6
CONTINUOUS
 62
         7
100
AcDbVertex
100
AcDb2dVertex
 10
1468.7415210178
 20
133.3811392523
 30
0.0
 70
         1
  0
VERTEX
  5
127
100
AcDbEntity
  8
L1_120
  6
CONTINUOUS
 62
         7
100
AcDbVertex
100
AcDb2dVertex
 10
1468.9016414886
 20
133.6452447721
 30
0.0
 70
         1
  0
VERTEX
  5
129
100
AcDbEntity
  8
L1_120
  6
CONTINUOUS
 62
         7
100
AcDbVertex
100
AcDb2dVertex
 10
1469.014658467
 20
133.8710944637
 30
0.0
 70
         1
  0
VERTEX
  5
12B
100
AcDbEntity
  8
L1_120
  6
CONTINUOUS
 62
         7
100
AcDbVertex
100
AcDb2dVertex
 10
1469.1181494666
 20
134.1263381327
 30
0.0
 70
         1
  0
VERTEX
  5
12D
100
AcDbEntity
  8
L1_120
  6
CONTINUOUS
 62
         7
100
AcDbVertex
100
AcDb2dVertex
 10
1469.2017048583
 20
134.3969218023
 30
0.0
 70
         1
  0
VERTEX
  5
12F
100
AcDbEntity
  8
L1_120
  6
CONTINUOUS
 62
         7
100
AcDbVertex
100
AcDb2dVertex
 10
1469.2586179855
 20
134.6604429361
 30
0.0
 70
         1
  0
VERTEX
  5
131
100
AcDbEntity
  8
L1_120
  6
CONTINUOUS
 62
         7
100
AcDbVertex
100
AcDb2dVertex
 10
1469.2891976556
 20
134.8893575193
 30
0.0
 70
         1
  0
VERTEX
  5
133
100
AcDbEntity
  8
L1_120
  6
CONTINUOUS
 62
         7
100
AcDbVertex
100
AcDb2dVertex
 10
1469.302505554
 20
135.1128470752
 30
0.0
 70
         1
  0
VERTEX
  5
135
100
AcDbEntity
  8
L1_120
  6
CONTINUOUS
 62
         7
100
AcDbVertex
100
AcDb2dVertex
 10
1469.3033403763
 20
135.1846411386
 30
0.0
 70
         1
  0
SEQEND
  5
137
100
AcDbEntity
  8
L1_120
  6
CONTINUOUS
 62
         7
  0
POLYLINE
  5
139
100
AcDbEntity
  8
L1_120
  6
CONTINUOUS
 62
         7
100
AcDb2dPolyline
 66
         1
 10
0.0
 20
0.0
 30
0.0
 70
         2
  0
VERTEX
  5
13B
100
AcDbEntity
  8
L1_120
  6
CONTINUOUS
 62
         7
100
AcDbVertex
100
AcDb2dVertex
 10
1469.3033403763
 20
135.1846417294
 30
0.0
 70
         1
  0
VERTEX
  5
13D
100
AcDbEntity
  8
L1_120
  6
CONTINUOUS
 62
         7
100
AcDbVertex
100
AcDb2dVertex
 10
1469.2637209988
 20
135.7231097999
 30
0.0
 70
         1
  0
VERTEX
  5
13F
100
AcDbEntity
  8
L1_120
  6
CONTINUOUS
 62
         7
100
AcDbVertex
100
AcDb2dVertex
 10
1469.2117748426
 20
136.0008662048
 30
0.0
 70
         1
  0
VERTEX
  5
141
100
AcDbEntity
  8
L1_120
  6
CONTINUOUS
 62
         7
100
AcDbVertex
100
AcDb2dVertex
 10
1469.1365509202
 20
136.2815908657
 30
0.0
 70
         1
  0
VERTEX
  5
143
100
AcDbEntity
  8
L1_120
  6
CONTINUOUS
 62
         7
100
AcDbVertex
100
AcDb2dVertex
 10
1469.0370320636
 20
136.5629113796
 30
0.0
 70
         1
  0
VERTEX
  5
145
100
AcDbEntity
  8
L1_120
  6
CONTINUOUS
 62
         7
100
AcDbVertex
100
AcDb2dVertex
 10
1468.9125839894
 20
136.8422367916
 30
0.0
 70
         1
  0
VERTEX
  5
147
100
AcDbEntity
  8
L1_120
  6
CONTINUOUS
 62
         7
100
AcDbVertex
100
AcDb2dVertex
 10
1468.7630155275
 20
137.1168201028
 30
0.0
 70
         1
  0
VERTEX
  5
149
100
AcDbEntity
  8
L1_120
  6
CONTINUOUS
 62
         7
100
AcDbVertex
100
AcDb2dVertex
 10
1468.5886237154
 20
137.3838357131
 30
0.0
 70
         1
  0
VERTEX
  5
14B
100
AcDbEntity
  8
L1_120
  6
CONTINUOUS
 62
         7
100
AcDbVertex
100
AcDb2dVertex
 10
1468.39021873
 20
137.6404682073
 30
0.0
 70
         1
  0
VERTEX
  5
14D
100
AcDbEntity
  8
L1_120
  6
CONTINUOUS
 62
         7
100
AcDbVertex
100
AcDb2dVertex
 10
1468.1691248772
 20
137.8840073599
 30
0.0
 70
         1
  0
VERTEX
  5
14F
100
AcDbEntity
  8
L1_120
  6
CONTINUOUS
 62
         7
100
AcDbVertex
100
AcDb2dVertex
 10
1467.9271557311
 20
138.1119431387
 30
0.0
 70
         1
  0
VERTEX
  5
151
100
AcDbEntity
  8
L1_120
  6
CONTINUOUS
 62
         7
100
AcDbVertex
100
AcDb2dVertex
 10
1467.6665637973
 20
138.3220540191
 30
0.0
 70
         1
  0
VERTEX
  5
153
100
AcDbEntity
  8
L1_120
  6
CONTINUOUS
 62
         7
100
AcDbVertex
100
AcDb2dVertex
 10
1467.3899674696
 20
138.5124822337
 30
0.0
 70
         1
  0
VERTEX
  5
155
100
AcDbEntity
  8
L1_120
  6
CONTINUOUS
 62
         7
100
AcDbVertex
100
AcDb2dVertex
 10
1467.1002602031
 20
138.6817906612
 30
0.0
 70
         1
  0
VERTEX
  5
157
100
AcDbEntity
  8
L1_120
  6
CONTINUOUS
 62
         7
100
AcDbVertex
100
AcDb2dVertex
 10
1466.8005084235
 20
138.8289977627
 30
0.0
 70
         1
  0
VERTEX
  5
159
100
AcDbEntity
  8
L1_120
  6
CONTINUOUS
 62
         7
100
AcDbVertex
100
AcDb2dVertex
 10
1466.493845495
 20
138.9535890679
 30
0.0
 70
         1
  0
VERTEX
  5
15B
100
AcDbEntity
  8
L1_120
  6
CONTINUOUS
 62
         7
100
AcDbVertex
100
AcDb2dVertex
 10
1466.1833690074
 20
139.0555058626
 30
0.0
 70
         1
  0
VERTEX
  5
15D
100
AcDbEntity
  8
L1_120
  6
CONTINUOUS
 62
         7
100
AcDbVertex
100
AcDb2dVertex
 10
1465.872047776
 20
139.1351136533
 30
0.0
 70
         1
  0
VERTEX
  5
15F
100
AcDbEntity
  8
L1_120
  6
CONTINUOUS
 62
         7
100
AcDbVertex
100
AcDb2dVertex
 10
1465.5626434728
 20
139.1931544247
 30
0.0
 70
         1
  0
VERTEX
  5
161
100
AcDbEntity
  8
L1_120
  6
CONTINUOUS
 62
         7
100
AcDbVertex
100
AcDb2dVertex
 10
1465.1551699889
 20
139.2390172129
 30
0.0
 70
         1
  0
VERTEX
  5
163
100
AcDbEntity
  8
L1_120
  6
CONTINUOUS
 62
         7
100
AcDbVertex
100
AcDb2dVertex
 10
1464.7607116865
 20
139.2512836165
 30
0.0
 70
         1
  0
VERTEX
  5
165
100
AcDbEntity
  8
L1_120
  6
CONTINUOUS
 62
         7
100
AcDbVertex
100
AcDb2dVertex
 10
1464.3833138218
 20
139.2337118223
 30
0.0
 70
         1
  0
VERTEX
  5
167
100
AcDbEntity
  8
L1_120
  6
CONTINUOUS
 62
         7
100
AcDbVertex
100
AcDb2dVertex
 10
1464.0259457896
 20
139.190321149
 30
0.0
 70
         1
  0
VERTEX
  5
169
100
AcDbEntity
  8
L1_120
  6
CONTINUOUS
 62
         7
100
AcDbVertex
100
AcDb2dVertex
 10
1463.6905749742
 20
139.125165818
 30
0.0
 70
         1
  0
VERTEX
  5
16B
100
AcDbEntity
  8
L1_120
  6
CONTINUOUS
 62
         7
100
AcDbVertex
100
AcDb2dVertex
 10
1463.3782864717
 20
139.0421583821
 30
0.0
 70
         1
  0
VERTEX
  5
16D
100
AcDbEntity
  8
L1_120
  6
CONTINUOUS
 62
         7
100
AcDbVertex
100
AcDb2dVertex
 10
1462.995671618
 20
138.9089154104
 30
0.0
 70
         1
  0
VERTEX
  5
16F
100
AcDbEntity
  8
L1_120
  6
CONTINUOUS
 62
         7
100
AcDbVertex
100
AcDb2dVertex
 10
1462.6544855114
 20
138.7578312293
 30
0.0
 70
         1
  0
VERTEX
  5
171
100
AcDbEntity
  8
L1_120
  6
CONTINUOUS
 62
         7
100
AcDbVertex
100
AcDb2dVertex
 10
1462.3526434765
 20
138.5954725373
 30
0.0
 70
         1
  0
VERTEX
  5
173
100
AcDbEntity
  8
L1_120
  6
CONTINUOUS
 62
         7
100
AcDbVertex
100
AcDb2dVertex
 10
1462.0872537696
 20
138.4271467316
 30
0.0
 70
         1
  0
VERTEX
  5
175
100
AcDbEntity
  8
L1_120
  6
CONTINUOUS
 62
         7
100
AcDbVertex
100
AcDb2dVertex
 10
1461.8550143039
 20
138.257004367
 30
0.0
 70
         1
  0
VERTEX
  5
177
100
AcDbEntity
  8
L1_120
  6
CONTINUOUS
 62
         7
100
AcDbVertex
100
AcDb2dVertex
 10
1461.5886197287
 20
138.030424666
 30
0.0
 70
         1
  0
VERTEX
  5
179
100
AcDbEntity
  8
L1_120
  6
CONTINUOUS
 62
         7
100
AcDbVertex
100
AcDb2dVertex
 10
1461.3680346539
 20
137.811503347
 30
0.0
 70
         1
  0
VERTEX
  5
17B
100
AcDbEntity
  8
L1_120
  6
CONTINUOUS
 62
         7
100
AcDbVertex
100
AcDb2dVertex
 10
1461.1858522517
 20
137.6035200006
 30
0.0
 70
         1
  0
VERTEX
  5
17D
100
AcDbEntity
  8
L1_120
  6
CONTINUOUS
 62
         7
100
AcDbVertex
100
AcDb2dVertex
 10
1460.9892705851
 20
137.3428318546
 30
0.0
 70
         1
  0
VERTEX
  5
17F
100
AcDbEntity
  8
L1_120
  6
CONTINUOUS
 62
         7
100
AcDbVertex
100
AcDb2dVertex
 10
1460.8377509404
 20
137.1068879763
 30
0.0
 70
         1
  0
VERTEX
  5
181
100
AcDbEntity
  8
L1_120
  6
CONTINUOUS
 62
         7
100
AcDbVertex
100
AcDb2dVertex
 10
1460.6857291041
 20
136.8251895487
 30
0.0
 70
         1
  0
VERTEX
  5
183
100
AcDbEntity
  8
L1_120
  6
CONTINUOUS
 62
         7
100
AcDbVertex
100
AcDb2dVertex
 10
1460.5783514826
 20
136.5845528427
 30
0.0
 70
         1
  0
VERTEX
  5
185
100
AcDbEntity
  8
L1_120
  6
CONTINUOUS
 62
         7
100
AcDbVertex
100
AcDb2dVertex
 10
1460.4799307819
 20
136.3127341346
 30
0.0
 70
         1
  0
VERTEX
  5
187
100
AcDbEntity
  8
L1_120
  6
CONTINUOUS
 62
         7
100
AcDbVertex
100
AcDb2dVertex
 10
1460.4003660859
 20
136.024592585
 30
0.0
 70
         1
  0
VERTEX
  5
189
100
AcDbEntity
  8
L1_120
  6
CONTINUOUS
 62
         7
100
AcDbVertex
100
AcDb2dVertex
 10
1460.3460864377
 20
135.7438561978
 30
0.0
 70
         1
  0
VERTEX
  5
18B
100
AcDbEntity
  8
L1_120
  6
CONTINUOUS
 62
         7
100
AcDbVertex
100
AcDb2dVertex
 10
1460.3168736127
 20
135.4998069048
 30
0.0
 70
         1
  0
VERTEX
  5
18D
100
AcDbEntity
  8
L1_120
  6
CONTINUOUS
 62
         7
100
AcDbVertex
100
AcDb2dVertex
 10
1460.3041401686
 20
135.2613131456
 30
0.0
 70
         1
  0
VERTEX
  5
18F
100
AcDbEntity
  8
L1_120
  6
CONTINUOUS
 62
         7
100
AcDbVertex
100
AcDb2dVertex
 10
1460.3033403763
 20
135.1846417294
 30
0.0
 70
         1
  0
SEQEND
  5
191
100
AcDbEntity
  8
L1_120
  6
CONTINUOUS
 62
         7
  0
LINE
  5
192
100
AcDbEntity
  8
L1_120
  6
CENTER
 62
         1
100
AcDbLine
 10
1469.3033403763
 20
135.1846417294
 30
0.0
 11
1460.3033403763
 21
135.1846417294
 31
0.0
  0
LINE
  5
193
100
AcDbEntity
  8
_Y__________
  6
CONTINUOUS
 62
         7
100
AcDbLine
 10
1367.7033403763
 20
-19.9933347407
 30
0.0
 11
1371.773659774
 21
-12.9433347407
 31
0.0
  0
LINE
  5
194
100
AcDbEntity
  8
_Y__________
  6
CONTINUOUS
 62
         7
100
AcDbLine
 10
1367.7033403763
 20
-5.8933347407
 30
0.0
 11
1371.773659774
 21
-12.9433347407
 31
0.0
  0
LINE
  5
195
100
AcDbEntity
  8
_Y__________
  6
CONTINUOUS
 62
         7
100
AcDbLine
 10
1367.7033403763
 20
-5.8933347407
 30
0.0
 11
1367.7033403763
 21
-19.9933347407
 31
0.0
  0
LINE
  5
196
100
AcDbEntity
  8
_Y__________
  6
CONTINUOUS
 62
         7
100
AcDbLine
 10
1367.7033403763
 20
-19.9933347407
 30
0.0
 11
1335.7033403763
 21
-19.9933347407
 31
0.0
  0
LINE
  5
197
100
AcDbEntity
  8
_Y__________
  6
CONTINUOUS
 62
         7
100
AcDbLine
 10
1367.7033403763
 20
-5.8933347407
 30
0.0
 11
1335.7033403763
 21
-5.8933347407
 31
0.0
  0
ARC
  5
198
100
AcDbEntity
  8
_Y__________
  6
CONTINUOUS
 62
         7
100
AcDbCircle
 10
1395.1033403763
 20
17.5566652593
 30
0.0
 40
1.0
100
AcDbArc
 50
90.0
 51
180.0
  0
LINE
  5
199
100
AcDbEntity
  8
_Y__________
  6
CONTINUOUS
 62
         7
100
AcDbLine
 10
1395.1033403763
 20
18.5566652593
 30
0.0
 11
1396.1033403763
 21
18.5566652593
 31
0.0
  0
LINE
  5
19A
100
AcDbEntity
  8
_Y__________
  6
CONTINUOUS
 62
         7
100
AcDbLine
 10
1394.1033403763
 20
-42.4433347407
 30
0.0
 11
1394.1033403763
 21
-43.4433347407
 31
0.0
  0
ARC
  5
19B
100
AcDbEntity
  8
_Y__________
  6
CONTINUOUS
 62
         7
100
AcDbCircle
 10
1395.1033403763
 20
-43.4433347407
 30
0.0
 40
1.0
100
AcDbArc
 50
180.0
 51
270.0
  0
LINE
  5
19C
100
AcDbEntity
  8
_Y__________
  6
CONTINUOUS
 62
         7
100
AcDbLine
 10
1395.1033403763
 20
-44.4433347407
 30
0.0
 11
1396.1033403763
 21
-44.4433347407
 31
0.0
  0
LINE
  5
19D
100
AcDbEntity
  8
_Y__________
  6
CONTINUOUS
 62
         7
100
AcDbLine
 10
1394.1033403763
 20
16.5566652593
 30
0.0
 11
1394.1033403763
 21
17.5566652593
 31
0.0
  0
LINE
  5
19E
100
AcDbEntity
  8
_Y__________
  6
CONTINUOUS
 62
         7
100
AcDbLine
 10
1394.1033403763
 20
179.6846417294
 30
0.0
 11
1394.1033403763
 21
180.6846417294
 31
0.0
  0
LINE
  5
19F
100
AcDbEntity
  8
_Y__________
  6
CONTINUOUS
 62
         7
100
AcDbLine
 10
1395.1033403763
 20
118.6846417294
 30
0.0
 11
1396.1033403763
 21
118.6846417294
 31
0.0
  0
ARC
  5
1A0
100
AcDbEntity
  8
_Y__________
  6
CONTINUOUS
 62
         7
100
AcDbCircle
 10
1395.1033403763
 20
119.6846417294
 30
0.0
 40
1.0
100
AcDbArc
 50
180.0
 51
270.0
  0
LINE
  5
1A1
100
AcDbEntity
  8
_Y__________
  6
CONTINUOUS
 62
         7
100
AcDbLine
 10
1394.1033403763
 20
120.6846417294
 30
0.0
 11
1394.1033403763
 21
119.6846417294
 31
0.0
  0
LINE
  5
1A2
100
AcDbEntity
  8
_Y__________
  6
CONTINUOUS
 62
         7
100
AcDbLine
 10
1395.1033403763
 20
181.6846417294
 30
0.0
 11
1396.1033403763
 21
181.6846417294
 31
0.0
  0
ARC
  5
1A3
100
AcDbEntity
  8
_Y__________
  6
CONTINUOUS
 62
         7
100
AcDbCircle
 10
1395.1033403763
 20
180.6846417294
 30
0.0
 40
1.0
100
AcDbArc
 50
90.0
 51
180.0
  0
ARC
  5
1A4
100
AcDbEntity
  8
_Y__________
  6
CONTINUOUS
 62
         7
100
AcDbCircle
 10
1426.3033403763
 20
-44.2433347407
 30
0.0
 40
0.8
100
AcDbArc
 50
0.0
 51
90.0
  0
LINE
  5
1A5
100
AcDbEntity
  8
_Y__________
  6
CONTINUOUS
 62
         7
100
AcDbLine
 10
1420.4347112262
 20
-43.4433347407
 30
0.0
 11
1426.3033403763
 21
-43.4433347407
 31
0.0
  0
LINE
  5
1A6
100
AcDbEntity
  8
_Y__________
  6
CONTINUOUS
 62
         7
100
AcDbLine
 10
1419.8690258012
 20
-43.6776493157
 30
0.0
 11
1419.1033403763
 21
-44.4433347407
 31
0.0
  0
ARC
  5
1A7
100
AcDbEntity
  8
_Y__________
  6
CONTINUOUS
 62
         7
100
AcDbCircle
 10
1420.4347112262
 20
-44.2433347407
 30
0.0
 40
0.8
100
AcDbArc
 50
90.0
 51
134.9999999999
  0
LINE
  5
1A8
100
AcDbEntity
  8
_Y__________
  6
CONTINUOUS
 62
         7
100
AcDbLine
 10
1419.1033403763
 20
-44.4433347407
 30
0.0
 11
1418.1033403763
 21
-44.4433347407
 31
0.0
  0
ARC
  5
1A9
100
AcDbEntity
  8
_Y__________
  6
CONTINUOUS
 62
         7
100
AcDbCircle
 10
1426.3033403763
 20
18.3566652593
 30
0.0
 40
0.8
100
AcDbArc
 50
270.0
 51
360.0
  0
LINE
  5
1AA
100
AcDbEntity
  8
_Y__________
  6
CONTINUOUS
 62
         7
100
AcDbLine
 10
1420.4347112262
 20
17.5566652593
 30
0.0
 11
1426.3033403763
 21
17.5566652593
 31
0.0
  0
LINE
  5
1AB
100
AcDbEntity
  8
_Y__________
  6
CONTINUOUS
 62
         7
100
AcDbLine
 10
1419.8690258012
 20
17.7909798344
 30
0.0
 11
1419.1033403763
 21
18.5566652593
 31
0.0
  0
ARC
  5
1AC
100
AcDbEntity
  8
_Y__________
  6
CONTINUOUS
 62
         7
100
AcDbCircle
 10
1420.4347112262
 20
18.3566652593
 30
0.0
 40
0.8
100
AcDbArc
 50
225.0000000001
 51
270.0
  0
LINE
  5
1AD
100
AcDbEntity
  8
_Y__________
  6
CONTINUOUS
 62
         7
100
AcDbLine
 10
1419.1033403763
 20
18.5566652593
 30
0.0
 11
1418.1033403763
 21
18.5566652593
 31
0.0
  0
LINE
  5
1AE
100
AcDbEntity
  8
_Y__________
  6
CONTINUOUS
 62
         7
100
AcDbLine
 10
1419.1033403763
 20
181.6846417294
 30
0.0
 11
1418.1033403763
 21
181.6846417294
 31
0.0
  0
LINE
  5
1AF
100
AcDbEntity
  8
_Y__________
  6
CONTINUOUS
 62
         7
100
AcDbLine
 10
1419.8690258012
 20
180.9189563044
 30
0.0
 11
1419.1033403763
 21
181.6846417294
 31
0.0
  0
ARC
  5
1B0
100
AcDbEntity
  8
_Y__________
  6
CONTINUOUS
 62
         7
100
AcDbCircle
 10
1420.4347112262
 20
181.4846417294
 30
0.0
 40
0.8
100
AcDbArc
 50
225.0000000001
 51
270.0
  0
LINE
  5
1B1
100
AcDbEntity
  8
_Y__________
  6
CONTINUOUS
 62
         4
100
AcDbLine
 10
1420.1033403763
 20
180.6846417294
 30
0.0
 11
1420.1033403763
 21
119.6846417294
 31
0.0
  0
LINE
  5
1B2
100
AcDbEntity
  8
_Y__________
  6
CONTINUOUS
 62
         7
100
AcDbLine
 10
1420.4347112262
 20
180.6846417294
 30
0.0
 11
1426.3033403763
 21
180.6846417294
 31
0.0
  0
ARC
  5
1B3
100
AcDbEntity
  8
_Y__________
  6
CONTINUOUS
 62
         7
100
AcDbCircle
 10
1426.3033403763
 20
181.4846417294
 30
0.0
 40
0.8
100
AcDbArc
 50
270.0
 51
360.0
  0
LINE
  5
1B4
100
AcDbEntity
  8
_Y__________
  6
CONTINUOUS
 62
         7
100
AcDbLine
 10
1419.1033403763
 20
118.6846417294
 30
0.0
 11
1418.1033403763
 21
118.6846417294
 31
0.0
  0
LINE
  5
1B5
100
AcDbEntity
  8
_Y__________
  6
CONTINUOUS
 62
         7
100
AcDbLine
 10
1419.8690258012
 20
119.4503271543
 30
0.0
 11
1419.1033403763
 21
118.6846417294
 31
0.0
  0
ARC
  5
1B6
100
AcDbEntity
  8
_Y__________
  6
CONTINUOUS
 62
         7
100
AcDbCircle
 10
1420.4347112262
 20
118.8846417294
 30
0.0
 40
0.8
100
AcDbArc
 50
90.0
 51
134.9999999999
  0
LINE
  5
1B7
100
AcDbEntity
  8
_Y__________
  6
CONTINUOUS
 62
         7
100
AcDbLine
 10
1420.4347112262
 20
119.6846417294
 30
0.0
 11
1426.3033403763
 21
119.6846417294
 31
0.0
  0
LINE
  5
1B8
100
AcDbEntity
  8
_Y__________
  6
CONTINUOUS
 62
         7
100
AcDbLine
 10
1427.1033403763
 20
181.4846417294
 30
0.0
 11
1427.1033403763
 21
118.8846417294
 31
0.0
  0
ARC
  5
1B9
100
AcDbEntity
  8
_Y__________
  6
CONTINUOUS
 62
         7
100
AcDbCircle
 10
1426.3033403763
 20
118.8846417294
 30
0.0
 40
0.8
100
AcDbArc
 50
0.0
 51
90.0
  0
LINE
  5
1BA
100
AcDbEntity
  8
_Y__________
  6
CONTINUOUS
 62
         7
100
AcDbLine
 10
1357.7033403763
 20
-4.9433347407
 30
0.0
 11
1357.7033403763
 21
-20.9433347407
 31
0.0
  0
LINE
  5
1BB
100
AcDbEntity
  8
_Y__________
  6
CONTINUOUS
 62
         7
100
AcDbLine
 10
1413.7034823826
 20
18.5566652593
 30
0.0
 11
1418.1033403763
 21
18.5566652593
 31
0.0
  0
LINE
  5
1BC
100
AcDbEntity
  8
_Y__________
  6
CONTINUOUS
 62
         7
100
AcDbLine
 10
1411.2033403763
 20
14.2262922782
 30
0.0
 11
1413.7034823826
 21
18.5566652593
 31
0.0
  0
LINE
  5
1BD
100
AcDbEntity
  8
_Y__________
  6
CONTINUOUS
 62
         7
100
AcDbLine
 10
1411.2033403763
 20
14.2262922782
 30
0.0
 11
1411.2033403763
 21
13.5566652593
 31
0.0
  0
LINE
  5
1BE
100
AcDbEntity
  8
_Y__________
  6
CONTINUOUS
 62
         7
100
AcDbLine
 10
1406.2033403763
 20
13.5566652593
 30
0.0
 11
1411.2033403763
 21
13.5566652593
 31
0.0
  0
LINE
  5
1BF
100
AcDbEntity
  8
_Y__________
  6
CONTINUOUS
 62
         7
100
AcDbLine
 10
1406.2033403763
 20
14.2262922782
 30
0.0
 11
1406.2033403763
 21
13.5566652593
 31
0.0
  0
LINE
  5
1C0
100
AcDbEntity
  8
_Y__________
  6
CONTINUOUS
 62
         7
100
AcDbLine
 10
1406.2033403763
 20
14.2262922782
 30
0.0
 11
1403.7031983699
 21
18.5566652593
 31
0.0
  0
LINE
  5
1C1
100
AcDbEntity
  8
_Y__________
  6
CONTINUOUS
 62
         7
100
AcDbLine
 10
1395.1033403763
 20
18.5566652593
 30
0.0
 11
1403.7031983699
 21
18.5566652593
 31
0.0
  0
LINE
  5
1C2
100
AcDbEntity
  8
_Y__________
  6
CONTINUOUS
 62
         7
100
AcDbLine
 10
1394.1033403763
 20
17.5566652593
 30
0.0
 11
1394.1033403763
 21
9.5545815252
 31
0.0
  0
ARC
  5
1C3
100
AcDbEntity
  8
_Y__________
  6
CONTINUOUS
 62
         7
100
AcDbCircle
 10
1393.7033403763
 20
9.5545815252
 30
0.0
 40
0.4
100
AcDbArc
 50
270.0
 51
360.0
  0
LINE
  5
1C4
100
AcDbEntity
  8
_Y__________
  6
CONTINUOUS
 62
         7
100
AcDbLine
 10
1393.3497505378
 20
9.1545815252
 30
0.0
 11
1393.7033403763
 21
9.1545815252
 31
0.0
  0
LINE
  5
1C5
100
AcDbEntity
  8
_Y__________
  6
CONTINUOUS
 62
         7
100
AcDbLine
 10
1392.6033403763
 20
9.3545815252
 30
0.0
 11
1393.3497505378
 21
9.1545815252
 31
0.0
  0
LINE
  5
1C6
100
AcDbEntity
  8
_Y__________
  6
CONTINUOUS
 62
         7
100
AcDbLine
 10
1327.5590342598
 20
-0.1309943129
 30
0.0
 11
1392.6033403763
 21
9.3545815252
 31
0.0
  0
ARC
  5
1C7
100
AcDbEntity
  8
_Y__________
  6
CONTINUOUS
 62
         7
100
AcDbCircle
 10
1327.7033403763
 20
-1.1205274073
 30
0.0
 40
1.0
100
AcDbArc
 50
98.2971
 51
180.0
  0
LINE
  5
1C8
100
AcDbEntity
  8
_Y__________
  6
CONTINUOUS
 62
         7
100
AcDbLine
 10
1326.7033403763
 20
-1.1205274073
 30
0.0
 11
1326.7033403763
 21
-24.7661420741
 31
0.0
  0
ARC
  5
1C9
100
AcDbEntity
  8
_Y__________
  6
CONTINUOUS
 62
         7
100
AcDbCircle
 10
1327.7033403763
 20
-24.7661420741
 30
0.0
 40
1.0
100
AcDbArc
 50
180.0
 51
261.7029
  0
LINE
  5
1CA
100
AcDbEntity
  8
_Y__________
  6
CONTINUOUS
 62
         7
100
AcDbLine
 10
1327.5590342598
 20
-25.7556751684
 30
0.0
 11
1392.6033403763
 21
-35.2412510066
 31
0.0
  0
LINE
  5
1CB
100
AcDbEntity
  8
_Y__________
  6
CONTINUOUS
 62
         7
100
AcDbLine
 10
1392.6033403763
 20
-35.2412510066
 30
0.0
 11
1393.3497505378
 21
-35.0412510066
 31
0.0
  0
LINE
  5
1CC
100
AcDbEntity
  8
_Y__________
  6
CONTINUOUS
 62
         7
100
AcDbLine
 10
1393.3497505378
 20
-35.0412510066
 30
0.0
 11
1393.7033403763
 21
-35.0412510066
 31
0.0
  0
ARC
  5
1CD
100
AcDbEntity
  8
_Y__________
  6
CONTINUOUS
 62
         7
100
AcDbCircle
 10
1393.7033403763
 20
-35.4412510066
 30
0.0
 40
0.4
100
AcDbArc
 50
0.0
 51
90.0
  0
LINE
  5
1CE
100
AcDbEntity
  8
_Y__________
  6
CONTINUOUS
 62
         7
100
AcDbLine
 10
1394.1033403763
 20
-35.4412510066
 30
0.0
 11
1394.1033403763
 21
-43.4433347407
 31
0.0
  0
LINE
  5
1CF
100
AcDbEntity
  8
_Y__________
  6
CONTINUOUS
 62
         7
100
AcDbLine
 10
1395.1033403763
 20
-44.4433347407
 30
0.0
 11
1403.7031983699
 21
-44.4433347407
 31
0.0
  0
LINE
  5
1D0
100
AcDbEntity
  8
_Y__________
  6
CONTINUOUS
 62
         7
100
AcDbLine
 10
1406.2033403763
 20
-40.1129617596
 30
0.0
 11
1403.7031983699
 21
-44.4433347407
 31
0.0
  0
LINE
  5
1D1
100
AcDbEntity
  8
_Y__________
  6
CONTINUOUS
 62
         7
100
AcDbLine
 10
1406.2033403763
 20
-39.4433347407
 30
0.0
 11
1406.2033403763
 21
-40.1129617596
 31
0.0
  0
LINE
  5
1D2
100
AcDbEntity
  8
_Y__________
  6
CONTINUOUS
 62
         7
100
AcDbLine
 10
1406.2033403763
 20
-39.4433347407
 30
0.0
 11
1411.2033403763
 21
-39.4433347407
 31
0.0
  0
LINE
  5
1D3
100
AcDbEntity
  8
_Y__________
  6
CONTINUOUS
 62
         7
100
AcDbLine
 10
1411.2033403763
 20
-39.4433347407
 30
0.0
 11
1411.2033403763
 21
-40.1129617596
 31
0.0
  0
LINE
  5
1D4
100
AcDbEntity
  8
_Y__________
  6
CONTINUOUS
 62
         7
100
AcDbLine
 10
1411.2033403763
 20
-40.1129617596
 30
0.0
 11
1413.7034823826
 21
-44.4433347407
 31
0.0
  0
LINE
  5
1D5
100
AcDbEntity
  8
_Y__________
  6
CONTINUOUS
 62
         7
100
AcDbLine
 10
1413.7034823826
 20
-44.4433347407
 30
0.0
 11
1418.1033403763
 21
-44.4433347407
 31
0.0
  0
LINE
  5
1D6
100
AcDbEntity
  8
_Y__________
  6
CONTINUOUS
 62
         7
100
AcDbLine
 10
1335.7033403763
 20
-5.8933347407
 30
0.0
 11
1357.7033403763
 21
-5.8933347407
 31
0.0
  0
LINE
  5
1D7
100
AcDbEntity
  8
_Y__________
  6
CONTINUOUS
 62
         7
100
AcDbLine
 10
1335.7033403763
 20
-19.9933347407
 30
0.0
 11
1357.7033403763
 21
-19.9933347407
 31
0.0
  0
LINE
  5
1D8
100
AcDbEntity
  8
_Y__________
  6
CONTINUOUS
 62
         7
100
AcDbLine
 10
1335.7033403763
 20
-4.8433347407
 30
0.0
 11
1335.7033403763
 21
-21.0433347407
 31
0.0
  0
ARC
  5
1D9
100
AcDbEntity
  8
_Y__________
  6
CONTINUOUS
 62
         7
100
AcDbCircle
 10
1335.1033403763
 20
-4.8433347407
 30
0.0
 40
0.6
100
AcDbArc
 50
360.0
 51
450.0
  0
LINE
  5
1DA
100
AcDbEntity
  8
_Y__________
  6
CONTINUOUS
 62
         7
100
AcDbLine
 10
1334.5287420363
 20
-4.2433347407
 30
0.0
 11
1335.1033403763
 21
-4.2433347407
 31
0.0
  0
ARC
  5
1DB
100
AcDbEntity
  8
_Y__________
  6
CONTINUOUS
 62
         7
100
AcDbCircle
 10
1334.5287420363
 20
-4.8433347407
 30
0.0
 40
0.6
100
AcDbArc
 50
90.0
 51
105.0
  0
LINE
  5
1DC
100
AcDbEntity
  8
_Y__________
  6
CONTINUOUS
 62
         7
100
AcDbLine
 10
1333.7033403763
 20
-4.4433347407
 30
0.0
 11
1334.3734506093
 21
-4.2637792449
 31
0.0
  0
LINE
  5
1DD
100
AcDbEntity
  8
_Y__________
  6
CONTINUOUS
 62
         7
100
AcDbLine
 10
1328.2033403763
 20
-4.4433347407
 30
0.0
 11
1333.7033403763
 21
-4.4433347407
 31
0.0
  0
ARC
  5
1DE
100
AcDbEntity
  8
_Y__________
  6
CONTINUOUS
 62
         7
100
AcDbCircle
 10
1328.2033403763
 20
-2.9433347407
 30
0.0
 40
1.5
100
AcDbArc
 50
180.0
 51
270.0
  0
LINE
  5
1DF
100
AcDbEntity
  8
_Y__________
  6
CONTINUOUS
 62
         7
100
AcDbLine
 10
1328.4353911838
 20
-4.4433347407
 30
0.0
 11
1328.4353911838
 21
-21.4433347407
 31
0.0
  0
LINE
  5
1E0
100
AcDbEntity
  8
_Y__________
  6
CONTINUOUS
 62
         7
100
AcDbLine
 10
1333.7033403763
 20
-4.4433347407
 30
0.0
 11
1333.7033403763
 21
-21.4433347407
 31
0.0
  0
ARC
  5
1E1
100
AcDbEntity
  8
_Y__________
  6
CONTINUOUS
 62
         7
100
AcDbCircle
 10
1335.1033403763
 20
-21.0433347407
 30
0.0
 40
0.6
100
AcDbArc
 50
270.0
 51
360.0
  0
LINE
  5
1E2
100
AcDbEntity
  8
_Y__________
  6
CONTINUOUS
 62
         7
100
AcDbLine
 10
1334.5287420363
 20
-21.6433347407
 30
0.0
 11
1335.1033403763
 21
-21.6433347407
 31
0.0
  0
LINE
  5
1E3
100
AcDbEntity
  8
_Y__________
  6
CONTINUOUS
 62
         7
100
AcDbLine
 10
1328.2033403763
 20
-21.4433347407
 30
0.0
 11
1333.7033403763
 21
-21.4433347407
 31
0.0
  0
LINE
  5
1E4
100
AcDbEntity
  8
_Y__________
  6
CONTINUOUS
 62
         7
100
AcDbLine
 10
1333.7033403763
 20
-21.4433347407
 30
0.0
 11
1334.3734506093
 21
-21.6228902364
 31
0.0
  0
ARC
  5
1E5
100
AcDbEntity
  8
_Y__________
  6
CONTINUOUS
 62
         7
100
AcDbCircle
 10
1334.5287420363
 20
-21.0433347407
 30
0.0
 40
0.6
100
AcDbArc
 50
255.0
 51
270.0
  0
ARC
  5
1E6
100
AcDbEntity
  8
_Y__________
  6
CONTINUOUS
 62
         7
100
AcDbCircle
 10
1328.2033403763
 20
-22.9433347407
 30
0.0
 40
1.5
100
AcDbArc
 50
90.0
 51
180.0
  0
LINE
  5
1E7
100
AcDbEntity
  8
_Y__________
  6
CONTINUOUS
 62
         5
100
AcDbLine
 10
1335.7033403763
 20
-20.9433347407
 30
0.0
 11
1357.7033403763
 21
-20.9433347407
 31
0.0
  0
LINE
  5
1E8
100
AcDbEntity
  8
_Y__________
  6
CONTINUOUS
 62
         5
100
AcDbLine
 10
1335.7033403763
 20
-4.9433347407
 30
0.0
 11
1357.7033403763
 21
-4.9433347407
 31
0.0
  0
LINE
  5
1E9
100
AcDbEntity
  8
_Y__________
  6
CENTER
 62
         1
100
AcDbLine
 10
1323.7864097888
 20
-12.9433347407
 30
0.0
 11
1419.1033403763
 21
-12.9433347407
 31
0.0
  0
LINE
  5
1EA
100
AcDbEntity
  8
_Y__________
  6
CENTER
 62
         1
100
AcDbLine
 10
1408.7033403763
 20
181.6846417294
 30
0.0
 11
1408.7033403763
 21
118.6846417294
 31
0.0
  0
LINE
  5
1EB
100
AcDbEntity
  8
_Y__________
  6
CONTINUOUS
 62
         7
100
AcDbLine
 10
1419.1033403763
 20
180.6846417294
 30
0.0
 11
1419.1033403763
 21
119.6846417294
 31
0.0
  0
LINE
  5
1EC
100
AcDbEntity
  8
_Y__________
  6
CONTINUOUS
 62
         7
100
AcDbLine
 10
1394.1033403763
 20
180.6846417294
 30
0.0
 11
1394.1033403763
 21
119.6846417294
 31
0.0
  0
LINE
  5
1ED
100
AcDbEntity
  8
_Y__________
  6
CONTINUOUS
 62
         7
100
AcDbLine
 10
1327.5590342598
 20
162.9969821571
 30
0.0
 11
1392.6033403763
 21
172.4825579953
 31
0.0
  0
LINE
  5
1EE
100
AcDbEntity
  8
_Y__________
  6
CONTINUOUS
 62
         7
100
AcDbLine
 10
1327.5590342598
 20
137.3723013017
 30
0.0
 11
1392.6033403763
 21
127.8867254635
 31
0.0
  0
ARC
  5
1EF
100
AcDbEntity
  8
_Y__________
  6
CONTINUOUS
 62
         7
100
AcDbCircle
 10
1327.7033403763
 20
162.0074490628
 30
0.0
 40
1.0
100
AcDbArc
 50
98.2971
 51
180.0
  0
ARC
  5
1F0
100
AcDbEntity
  8
_Y__________
  6
CONTINUOUS
 62
         7
100
AcDbCircle
 10
1327.7033403763
 20
138.361834396
 30
0.0
 40
1.0
100
AcDbArc
 50
180.0
 51
261.7029
  0
LINE
  5
1F1
100
AcDbEntity
  8
_Y__________
  6
CONTINUOUS
 62
         7
100
AcDbLine
 10
1326.7033403763
 20
162.0074490628
 30
0.0
 11
1326.7033403763
 21
138.361834396
 31
0.0
  0
LINE
  5
1F2
100
AcDbEntity
  8
_Y__________
  6
CONTINUOUS
 62
         7
100
AcDbLine
 10
1395.1033403763
 20
118.6846417294
 30
0.0
 11
1403.7031983699
 21
118.6846417294
 31
0.0
  0
LINE
  5
1F3
100
AcDbEntity
  8
_Y__________
  6
CENTER
 62
         1
100
AcDbLine
 10
1392.1033403763
 20
172.4096417294
 30
0.0
 11
1392.1033403763
 21
127.9596417294
 31
0.0
  0
LINE
  5
1F4
100
AcDbEntity
  8
_Y__________
  6
CONTINUOUS
 62
         7
100
AcDbLine
 10
1392.6033403763
 20
172.4825579953
 30
0.0
 11
1392.6033403763
 21
127.8867254635
 31
0.0
  0
LINE
  5
1F5
100
AcDbEntity
  8
_Y__________
  6
CONTINUOUS
 62
         7
100
AcDbLine
 10
1393.3497505378
 20
128.0867254635
 30
0.0
 11
1393.7033403763
 21
128.0867254635
 31
0.0
  0
ARC
  5
1F6
100
AcDbEntity
  8
_Y__________
  6
CONTINUOUS
 62
         7
100
AcDbCircle
 10
1393.7033403763
 20
127.6867254635
 30
0.0
 40
0.4
100
AcDbArc
 50
0.0
 51
90.0
  0
LINE
  5
1F7
100
AcDbEntity
  8
_Y__________
  6
CONTINUOUS
 62
         7
100
AcDbLine
 10
1392.6033403763
 20
127.8867254635
 30
0.0
 11
1393.3497505378
 21
128.0867254635
 31
0.0
  0
ARC
  5
1F8
100
AcDbEntity
  8
_Y__________
  6
CONTINUOUS
 62
         7
100
AcDbCircle
 10
1393.7033403763
 20
172.6825579953
 30
0.0
 40
0.4
100
AcDbArc
 50
270.0
 51
360.0
  0
LINE
  5
1F9
100
AcDbEntity
  8
_Y__________
  6
CONTINUOUS
 62
         7
100
AcDbLine
 10
1393.3497505378
 20
172.2825579953
 30
0.0
 11
1393.7033403763
 21
172.2825579953
 31
0.0
  0
LINE
  5
1FA
100
AcDbEntity
  8
_Y__________
  6
CONTINUOUS
 62
         7
100
AcDbLine
 10
1392.6033403763
 20
172.4825579953
 30
0.0
 11
1393.3497505378
 21
172.2825579953
 31
0.0
  0
LINE
  5
1FB
100
AcDbEntity
  8
_Y__________
  6
CONTINUOUS
 62
         7
100
AcDbLine
 10
1411.2033403763
 20
123.0150147105
 30
0.0
 11
1413.7034823826
 21
118.6846417294
 31
0.0
  0
LINE
  5
1FC
100
AcDbEntity
  8
_Y__________
  6
CONTINUOUS
 62
         7
100
AcDbLine
 10
1406.2033403763
 20
123.0150147105
 30
0.0
 11
1403.7031983699
 21
118.6846417294
 31
0.0
  0
LINE
  5
1FD
100
AcDbEntity
  8
_Y__________
  6
CONTINUOUS
 62
         7
100
AcDbLine
 10
1413.7034823826
 20
118.6846417294
 30
0.0
 11
1418.1033403763
 21
118.6846417294
 31
0.0
  0
LINE
  5
1FE
100
AcDbEntity
  8
_Y__________
  6
CONTINUOUS
 62
         7
100
AcDbLine
 10
1395.1033403763
 20
181.6846417294
 30
0.0
 11
1403.7031983699
 21
181.6846417294
 31
0.0
  0
LINE
  5
1FF
100
AcDbEntity
  8
_Y__________
  6
CONTINUOUS
 62
         7
100
AcDbLine
 10
1413.7034823826
 20
181.6846417294
 30
0.0
 11
1418.1033403763
 21
181.6846417294
 31
0.0
  0
LINE
  5
200
100
AcDbEntity
  8
_Y__________
  6
CONTINUOUS
 62
         7
100
AcDbLine
 10
1411.2033403763
 20
177.3542687483
 30
0.0
 11
1413.7034823826
 21
181.6846417294
 31
0.0
  0
LINE
  5
201
100
AcDbEntity
  8
_Y__________
  6
CONTINUOUS
 62
         7
100
AcDbLine
 10
1406.2033403763
 20
177.3542687483
 30
0.0
 11
1403.7031983699
 21
181.6846417294
 31
0.0
  0
LINE
  5
202
100
AcDbEntity
  8
_Y__________
  6
CENTER
 62
         1
100
AcDbLine
 10
1321.1945221388
 20
150.1846417294
 30
0.0
 11
1367.7664645449
 21
150.1846417294
 31
0.0
  0
LINE
  5
203
100
AcDbEntity
  8
_Y__________
  6
CENTER
 62
         1
100
AcDbLine
 10
1380.541891064
 20
150.1846417294
 30
0.0
 11
1419.1033403763
 21
150.1846417294
 31
0.0
  0
LINE
  5
204
100
AcDbEntity
  8
_Y__________
  6
CONTINUOUS
 62
         7
100
AcDbLine
 10
1406.2033403763
 20
176.6846417294
 30
0.0
 11
1411.2033403763
 21
176.6846417294
 31
0.0
  0
LINE
  5
205
100
AcDbEntity
  8
_Y__________
  6
CONTINUOUS
 62
         7
100
AcDbLine
 10
1406.2033403763
 20
123.6846417294
 30
0.0
 11
1411.2033403763
 21
123.6846417294
 31
0.0
  0
LINE
  5
206
100
AcDbEntity
  8
_Y__________
  6
CENTER
 62
         1
100
AcDbLine
 10
1623.2833403763
 20
184.6846417294
 30
0.0
 11
1623.2833403763
 21
111.6775086338
 31
0.0
  0
CIRCLE
  5
207
100
AcDbEntity
  8
_Y__________
  6
DASHED
 62
         2
100
AcDbCircle
 10
1623.2833403763
 20
150.1846417294
 30
0.0
 40
31.5
  0
LINE
  5
208
100
AcDbEntity
  8
_Y__________
  6
CENTER
 62
         1
100
AcDbLine
 10
1588.7833403763
 20
150.1846417294
 30
0.0
 11
1657.7833403763
 21
150.1846417294
 31
0.0
  0
ARC
  5
209
100
AcDbEntity
  8
_Y__________
  6
CONTINUOUS
 62
         4
100
AcDbCircle
 10
1214.9233403763
 20
150.1846417294
 30
0.0
 40
8.0
100
AcDbArc
 50
265.563559301
 51
540.0
  0
CIRCLE
  5
20A
100
AcDbEntity
  8
_Y__________
  6
CONTINUOUS
 62
         7
100
AcDbCircle
 10
1214.9233403763
 20
150.1846417294
 30
0.0
 40
8.5
  0
CIRCLE
  5
20B
100
AcDbEntity
  8
_Y__________
  6
CONTINUOUS
 62
         7
100
AcDbCircle
 10
1214.9233403763
 20
150.1846417294
 30
0.0
 40
7.0
  0
CIRCLE
  5
20C
100
AcDbEntity
  8
_Y__________
  6
CONTINUOUS
 62
         7
100
AcDbCircle
 10
1214.9233403763
 20
150.1846417294
 30
0.0
 40
22.2979162659
  0
CIRCLE
  5
20D
100
AcDbEntity
  8
_Y__________
  6
CONTINUOUS
 62
         7
100
AcDbCircle
 10
1214.9233403763
 20
150.1846417294
 30
0.0
 40
12.6875524223
  0
LINE
  5
20E
100
AcDbEntity
  8
_Y__________
  6
CENTER
 62
         1
100
AcDbLine
 10
1214.9233403763
 20
184.6846417294
 30
0.0
 11
1214.9233403763
 21
115.6846417294
 31
0.0
  0
CIRCLE
  5
20F
100
AcDbEntity
  8
_Y__________
  6
CONTINUOUS
 62
         7
100
AcDbCircle
 10
1214.9233403763
 20
150.1846417294
 30
0.0
 40
31.5
  0
LINE
  5
210
100
AcDbEntity
  8
_Y__________
  6
CENTER
 62
         1
100
AcDbLine
 10
1180.4233403763
 20
150.1846417294
 30
0.0
 11
1249.4233403763
 21
150.1846417294
 31
0.0
  0
LINE
  5
211
100
AcDbEntity
  8
_Y__________
  6
CONTINUOUS
 62
         7
100
AcDbLine
 10
1192.3233403763
 20
142.9346417294
 30
0.0
 11
1191.5233403763
 21
142.1346417294
 31
0.0
  0
LINE
  5
212
100
AcDbEntity
  8
_Y__________
  6
CONTINUOUS
 62
         7
100
AcDbLine
 10
1191.5233403763
 20
158.2346417294
 30
0.0
 11
1192.3233403763
 21
157.4346417294
 31
0.0
  0
LINE
  5
213
100
AcDbEntity
  8
_Y__________
  6
CONTINUOUS
 62
         7
100
AcDbLine
 10
1184.9693176535
 20
142.1346417294
 30
0.0
 11
1184.5760087767
 21
141.7413328526
 31
0.0
  0
LINE
  5
214
100
AcDbEntity
  8
_Y__________
  6
CONTINUOUS
 62
         7
100
AcDbLine
 10
1184.9693176535
 20
158.2346417294
 30
0.0
 11
1184.5760087767
 21
158.6279506061
 31
0.0
  0
LINE
  5
215
100
AcDbEntity
  8
_Y__________
  6
CONTINUOUS
 62
         7
100
AcDbLine
 10
1192.3233403763
 20
157.4346417294
 30
0.0
 11
1192.3233403763
 21
142.9346417294
 31
0.0
  0
LINE
  5
216
100
AcDbEntity
  8
_Y__________
  6
CONTINUOUS
 62
         7
100
AcDbLine
 10
1184.9693176535
 20
158.2346417294
 30
0.0
 11
1191.5233403763
 21
158.2346417294
 31
0.0
  0
LINE
  5
217
100
AcDbEntity
  8
_Y__________
  6
CONTINUOUS
 62
         7
100
AcDbLine
 10
1184.9693176535
 20
142.1346417294
 30
0.0
 11
1191.5233403763
 21
142.1346417294
 31
0.0
  0
LINE
  5
218
100
AcDbEntity
  8
_Y__________
  6
CONTINUOUS
 62
         7
100
AcDbLine
 10
1237.5233403763
 20
157.4346417294
 30
0.0
 11
1238.3233403763
 21
158.2346417294
 31
0.0
  0
LINE
  5
219
100
AcDbEntity
  8
_Y__________
  6
CONTINUOUS
 62
         7
100
AcDbLine
 10
1237.5233403763
 20
142.9346417294
 30
0.0
 11
1238.3233403763
 21
142.1346417294
 31
0.0
  0
LINE
  5
21A
100
AcDbEntity
  8
_Y__________
  6
CONTINUOUS
 62
         7
100
AcDbLine
 10
1244.877363099
 20
142.1346417294
 30
0.0
 11
1245.2706719758
 21
141.7413328526
 31
0.0
  0
LINE
  5
21B
100
AcDbEntity
  8
_Y__________
  6
CONTINUOUS
 62
         7
100
AcDbLine
 10
1244.877363099
 20
158.2346417294
 30
0.0
 11
1245.2706719758
 21
158.6279506061
 31
0.0
  0
LINE
  5
21C
100
AcDbEntity
  8
_Y__________
  6
CONTINUOUS
 62
         7
100
AcDbLine
 10
1244.877363099
 20
142.1346417294
 30
0.0
 11
1238.3233403763
 21
142.1346417294
 31
0.0
  0
LINE
  5
21D
100
AcDbEntity
  8
_Y__________
  6
CONTINUOUS
 62
         7
100
AcDbLine
 10
1244.877363099
 20
158.2346417294
 30
0.0
 11
1238.3233403763
 21
158.2346417294
 31
0.0
  0
LINE
  5
21E
100
AcDbEntity
  8
_Y__________
  6
CONTINUOUS
 62
         7
100
AcDbLine
 10
1237.5233403763
 20
157.4346417294
 30
0.0
 11
1237.5233403763
 21
142.9346417294
 31
0.0
  0
ARC
  5
21F
100
AcDbEntity
  8
_Y__________
  6
DASHED
 62
         2
100
AcDbCircle
 10
1214.9233403763
 20
150.1846417294
 30
0.0
 40
26.5
100
AcDbArc
 50
17.6843950499
 51
162.3156049501
  0
ARC
  5
220
100
AcDbEntity
  8
_Y__________
  6
DASHED
 62
         2
100
AcDbCircle
 10
1214.9233403763
 20
150.1846417294
 30
0.0
 40
26.5
100
AcDbArc
 50
197.6843950499
 51
342.3156049501
  0
LINE
  5
221
100
AcDbEntity
  8
_Y__________
  6
CONTINUOUS
 62
         4
100
AcDbLine
 10
1394.1033403763
 20
158.7346417294
 30
0.0
 11
1403.7033403763
 21
158.7346417294
 31
0.0
  0
LINE
  5
222
100
AcDbEntity
  8
_Y__________
  6
CONTINUOUS
 62
         7
100
AcDbLine
 10
1403.7033403763
 20
181.6846417294
 30
0.0
 11
1403.7033403763
 21
158.7346417294
 31
0.0
  0
LINE
  5
223
100
AcDbEntity
  8
_Y__________
  6
CONTINUOUS
 62
         7
100
AcDbLine
 10
1406.2033403763
 20
177.3542687483
 30
0.0
 11
1406.2033403763
 21
158.2346417294
 31
0.0
  0
LINE
  5
224
100
AcDbEntity
  8
_Y__________
  6
CONTINUOUS
 62
         7
100
AcDbLine
 10
1411.2033403763
 20
177.3542687483
 30
0.0
 11
1411.2033403763
 21
157.5927454004
 31
0.0
  0
LINE
  5
225
100
AcDbEntity
  8
_Y__________
  6
CONTINUOUS
 62
         7
100
AcDbLine
 10
1413.7033403763
 20
181.6846417294
 30
0.0
 11
1413.7033403763
 21
156.6018062122
 31
0.0
  0
LINE
  5
226
100
AcDbEntity
  8
_Y__________
  6
CONTINUOUS
 62
         4
100
AcDbLine
 10
1403.7033403763
 20
158.7346417294
 30
0.0
 11
1406.2033403763
 21
158.2346417294
 31
0.0
  0
LINE
  5
227
100
AcDbEntity
  8
_Y__________
  6
CONTINUOUS
 62
         4
100
AcDbLine
 10
1403.7033403763
 20
141.6346417294
 30
0.0
 11
1406.2033403763
 21
142.1346417294
 31
0.0
  0
LINE
  5
228
100
AcDbEntity
  8
_Y__________
  6
CONTINUOUS
 62
         4
100
AcDbLine
 10
1411.2033403763
 20
142.7765380584
 30
0.0
 11
1413.7033403763
 21
143.7674772465
 31
0.0
  0
LINE
  5
229
100
AcDbEntity
  8
_Y__________
  6
CONTINUOUS
 62
         4
100
AcDbLine
 10
1411.2033403763
 20
157.5927454004
 30
0.0
 11
1413.7033403763
 21
156.6018062122
 31
0.0
  0
ARC
  5
22A
100
AcDbEntity
  8
_Y__________
  6
CONTINUOUS
 62
         4
100
AcDbCircle
 10
1408.0533403763
 20
150.1846417294
 30
0.0
 40
8.55
100
AcDbArc
 50
311.3623424579
 51
408.6376575421
  0
ARC
  5
22B
100
AcDbEntity
  8
_Y__________
  6
CONTINUOUS
 62
         7
100
AcDbCircle
 10
1408.0533403763
 20
150.1846417294
 30
0.0
 40
8.05
100
AcDbArc
 50
270.0
 51
450.0
  0
LINE
  5
22C
100
AcDbEntity
  8
_Y__________
  6
CONTINUOUS
 62
         7
100
AcDbLine
 10
1394.1033403763
 20
158.2346417294
 30
0.0
 11
1408.0533403763
 21
158.2346417294
 31
0.0
  0
LINE
  5
22D
100
AcDbEntity
  8
_Y__________
  6
CONTINUOUS
 62
         7
100
AcDbLine
 10
1394.1033403763
 20
142.1346417294
 30
0.0
 11
1408.0533403763
 21
142.1346417294
 31
0.0
  0
LINE
  5
22E
100
AcDbEntity
  8
_Y__________
  6
CONTINUOUS
 62
         4
100
AcDbLine
 10
1394.1033403763
 20
141.6346417294
 30
0.0
 11
1403.7033403763
 21
141.6346417294
 31
0.0
  0
LINE
  5
22F
100
AcDbEntity
  8
_Y__________
  6
CONTINUOUS
 62
         7
100
AcDbLine
 10
1403.7033403763
 20
141.6346417294
 30
0.0
 11
1403.7033403763
 21
118.6846417294
 31
0.0
  0
LINE
  5
230
100
AcDbEntity
  8
_Y__________
  6
CONTINUOUS
 62
         7
100
AcDbLine
 10
1406.2033403763
 20
142.1346417294
 30
0.0
 11
1406.2033403763
 21
123.0150147105
 31
0.0
  0
LINE
  5
231
100
AcDbEntity
  8
_Y__________
  6
CONTINUOUS
 62
         7
100
AcDbLine
 10
1411.2033403763
 20
142.7765380584
 30
0.0
 11
1411.2033403763
 21
123.0150147105
 31
0.0
  0
LINE
  5
232
100
AcDbEntity
  8
_Y__________
  6
CONTINUOUS
 62
         7
100
AcDbLine
 10
1413.7033403763
 20
143.7674772465
 30
0.0
 11
1413.7033403763
 21
118.6846417294
 31
0.0
  0
ARC
  5
233
100
AcDbEntity
  8
_Y__________
  6
DASHED
 62
         2
100
AcDbCircle
 10
1623.2833403763
 20
150.1846417294
 30
0.0
 40
26.5
100
AcDbArc
 50
17.6843950499
 51
162.3156049501
  0
ARC
  5
234
100
AcDbEntity
  8
_Y__________
  6
DASHED
 62
         2
100
AcDbCircle
 10
1623.2833403763
 20
150.1846417294
 30
0.0
 40
26.5
100
AcDbArc
 50
197.6843950499
 51
342.3156049501
  0
LINE
  5
235
100
AcDbEntity
  8
_Y__________
  6
DASHED
 62
         2
100
AcDbLine
 10
1645.8833403763
 20
142.9346417294
 30
0.0
 11
1646.6833403763
 21
142.1346417294
 31
0.0
  0
LINE
  5
236
100
AcDbEntity
  8
_Y__________
  6
DASHED
 62
         2
100
AcDbLine
 10
1646.6833403763
 20
158.2346417294
 30
0.0
 11
1645.8833403763
 21
157.4346417294
 31
0.0
  0
LINE
  5
237
100
AcDbEntity
  8
_Y__________
  6
DASHED
 62
         2
100
AcDbLine
 10
1653.237363099
 20
142.1346417294
 30
0.0
 11
1653.6306719758
 21
141.7413328526
 31
0.0
  0
LINE
  5
238
100
AcDbEntity
  8
_Y__________
  6
DASHED
 62
         2
100
AcDbLine
 10
1653.237363099
 20
158.2346417294
 30
0.0
 11
1653.6306719758
 21
158.6279506061
 31
0.0
  0
LINE
  5
239
100
AcDbEntity
  8
_Y__________
  6
DASHED
 62
         2
100
AcDbLine
 10
1653.237363099
 20
142.1346417294
 30
0.0
 11
1646.6833403763
 21
142.1346417294
 31
0.0
  0
LINE
  5
23A
100
AcDbEntity
  8
_Y__________
  6
DASHED
 62
         2
100
AcDbLine
 10
1653.237363099
 20
158.2346417294
 30
0.0
 11
1646.6833403763
 21
158.2346417294
 31
0.0
  0
LINE
  5
23B
100
AcDbEntity
  8
_Y__________
  6
DASHED
 62
         2
100
AcDbLine
 10
1645.8833403763
 20
157.4346417294
 30
0.0
 11
1645.8833403763
 21
142.9346417294
 31
0.0
  0
LINE
  5
23C
100
AcDbEntity
  8
_Y__________
  6
DASHED
 62
         2
100
AcDbLine
 10
1600.6833403763
 20
157.4346417294
 30
0.0
 11
1599.8833403763
 21
158.2346417294
 31
0.0
  0
LINE
  5
23D
100
AcDbEntity
  8
_Y__________
  6
DASHED
 62
         2
100
AcDbLine
 10
1600.6833403763
 20
142.9346417294
 30
0.0
 11
1599.8833403763
 21
142.1346417294
 31
0.0
  0
LINE
  5
23E
100
AcDbEntity
  8
_Y__________
  6
DASHED
 62
         2
100
AcDbLine
 10
1593.3293176535
 20
142.1346417294
 30
0.0
 11
1592.9360087767
 21
141.7413328526
 31
0.0
  0
LINE
  5
23F
100
AcDbEntity
  8
_Y__________
  6
DASHED
 62
         2
100
AcDbLine
 10
1593.3293176535
 20
158.2346417294
 30
0.0
 11
1592.9360087767
 21
158.6279506061
 31
0.0
  0
LINE
  5
240
100
AcDbEntity
  8
_Y__________
  6
DASHED
 62
         2
100
AcDbLine
 10
1600.6833403763
 20
157.4346417294
 30
0.0
 11
1600.6833403763
 21
142.9346417294
 31
0.0
  0
LINE
  5
241
100
AcDbEntity
  8
_Y__________
  6
DASHED
 62
         2
100
AcDbLine
 10
1593.3293176535
 20
158.2346417294
 30
0.0
 11
1599.8833403763
 21
158.2346417294
 31
0.0
  0
LINE
  5
242
100
AcDbEntity
  8
_Y__________
  6
DASHED
 62
         2
100
AcDbLine
 10
1593.3293176535
 20
142.1346417294
 30
0.0
 11
1599.8833403763
 21
142.1346417294
 31
0.0
  0
CIRCLE
  5
243
100
AcDbEntity
  8
_Y__________
  6
DASHED
 62
         2
100
AcDbCircle
 10
1623.2833403763
 20
150.1846417294
 30
0.0
 40
30.5
  0
LINE
  5
244
100
AcDbEntity
  8
L1_120
  6
DASHED
 62
         2
100
AcDbLine
 10
1604.5448781443
 20
165.9286730892
 30
0.0
 11
1600.2793781448
 21
158.5406103702
 31
0.0
  0
LINE
  5
245
100
AcDbEntity
  8
L1_120
  6
DASHED
 62
         2
100
AcDbLine
 10
1604.3103781443
 20
166.3348390035
 30
0.0
 11
1599.8103781448
 21
158.5406103702
 31
0.0
  0
LINE
  5
246
100
AcDbEntity
  8
L1_120
  6
DASHED
 62
         2
100
AcDbLine
 10
1604.3103781443
 20
166.3348390035
 30
0.0
 11
1599.8465246917
 21
168.912045996
 31
0.0
  0
LINE
  5
247
100
AcDbEntity
  8
L1_120
  6
DASHED
 62
         2
100
AcDbLine
 10
1599.8103781448
 20
158.5406103702
 30
0.0
 11
1595.3465246921
 21
161.1178173627
 31
0.0
  0
LINE
  5
248
100
AcDbEntity
  8
L1_120
  6
DASHED
 62
         2
100
AcDbLine
 10
1604.9623833205
 20
165.6876263633
 30
0.0
 11
1604.5448781443
 21
165.9286730892
 31
0.0
  0
LINE
  5
249
100
AcDbEntity
  8
L1_120
  6
DASHED
 62
         2
100
AcDbLine
 10
1600.6968833209
 20
158.2995636444
 30
0.0
 11
1600.2793781448
 21
158.5406103702
 31
0.0
  0
LINE
  5
24A
100
AcDbEntity
  8
L1_120
  6
DASHED
 62
         2
100
AcDbLine
 10
1600.2793781448
 20
158.5406103702
 30
0.0
 11
1599.8103781448
 21
158.5406103702
 31
0.0
  0
LINE
  5
24B
100
AcDbEntity
  8
L1_120
  6
DASHED
 62
         2
100
AcDbLine
 10
1604.5448781443
 20
165.9286730892
 30
0.0
 11
1604.3103781443
 21
166.3348390035
 31
0.0
  0
LINE
  5
24C
100
AcDbEntity
  8
L1_120
  6
DASHED
 62
         2
100
AcDbLine
 10
1600.2793781448
 20
141.8286730886
 30
0.0
 11
1604.5448781443
 21
134.4406103696
 31
0.0
  0
LINE
  5
24D
100
AcDbEntity
  8
L1_120
  6
DASHED
 62
         2
100
AcDbLine
 10
1599.8103781448
 20
141.8286730886
 30
0.0
 11
1604.3103781443
 21
134.0344444553
 31
0.0
  0
LINE
  5
24E
100
AcDbEntity
  8
L1_120
  6
DASHED
 62
         2
100
AcDbLine
 10
1599.8103781448
 20
141.8286730886
 30
0.0
 11
1595.3465246921
 21
139.251466096
 31
0.0
  0
LINE
  5
24F
100
AcDbEntity
  8
L1_120
  6
DASHED
 62
         2
100
AcDbLine
 10
1604.3103781443
 20
134.0344444553
 30
0.0
 11
1599.8465246917
 21
131.4572374628
 31
0.0
  0
LINE
  5
250
100
AcDbEntity
  8
L1_120
  6
DASHED
 62
         2
100
AcDbLine
 10
1600.6968833209
 20
142.0697198144
 30
0.0
 11
1600.2793781448
 21
141.8286730886
 31
0.0
  0
LINE
  5
251
100
AcDbEntity
  8
L1_120
  6
DASHED
 62
         2
100
AcDbLine
 10
1604.9623833205
 20
134.6816570955
 30
0.0
 11
1604.5448781443
 21
134.4406103696
 31
0.0
  0
LINE
  5
252
100
AcDbEntity
  8
L1_120
  6
DASHED
 62
         2
100
AcDbLine
 10
1604.5448781443
 20
134.4406103696
 30
0.0
 11
1604.3103781443
 21
134.0344444553
 31
0.0
  0
LINE
  5
253
100
AcDbEntity
  8
L1_120
  6
DASHED
 62
         2
100
AcDbLine
 10
1600.2793781448
 20
141.8286730886
 30
0.0
 11
1599.8103781448
 21
141.8286730886
 31
0.0
  0
LINE
  5
254
100
AcDbEntity
  8
L1_120
  6
DASHED
 62
         2
100
AcDbLine
 10
1619.0178403767
 20
126.0846417288
 30
0.0
 11
1627.5488403758
 21
126.0846417288
 31
0.0
  0
LINE
  5
255
100
AcDbEntity
  8
L1_120
  6
DASHED
 62
         2
100
AcDbLine
 10
1618.7833403767
 20
125.6784758145
 30
0.0
 11
1627.7833403758
 21
125.6784758145
 31
0.0
  0
LINE
  5
256
100
AcDbEntity
  8
L1_120
  6
DASHED
 62
         2
100
AcDbLine
 10
1618.7833403767
 20
125.6784758145
 30
0.0
 11
1618.7833403767
 21
120.5240618294
 31
0.0
  0
LINE
  5
257
100
AcDbEntity
  8
L1_120
  6
DASHED
 62
         2
100
AcDbLine
 10
1627.7833403758
 20
125.6784758145
 30
0.0
 11
1627.7833403758
 21
120.5240618294
 31
0.0
  0
LINE
  5
258
100
AcDbEntity
  8
L1_120
  6
DASHED
 62
         2
100
AcDbLine
 10
1619.0178403767
 20
126.5667351805
 30
0.0
 11
1619.0178403767
 21
126.0846417288
 31
0.0
  0
LINE
  5
259
100
AcDbEntity
  8
L1_120
  6
DASHED
 62
         2
100
AcDbLine
 10
1627.5488403758
 20
126.5667351805
 30
0.0
 11
1627.5488403758
 21
126.0846417288
 31
0.0
  0
LINE
  5
25A
100
AcDbEntity
  8
L1_120
  6
DASHED
 62
         2
100
AcDbLine
 10
1627.5488403758
 20
126.0846417288
 30
0.0
 11
1627.7833403758
 21
125.6784758145
 31
0.0
  0
LINE
  5
25B
100
AcDbEntity
  8
L1_120
  6
DASHED
 62
         2
100
AcDbLine
 10
1619.0178403767
 20
126.0846417288
 30
0.0
 11
1618.7833403767
 21
125.6784758145
 31
0.0
  0
LINE
  5
25C
100
AcDbEntity
  8
L1_120
  6
DASHED
 62
         2
100
AcDbLine
 10
1642.0218026082
 20
134.4406103696
 30
0.0
 11
1646.2873026078
 21
141.8286730886
 31
0.0
  0
LINE
  5
25D
100
AcDbEntity
  8
L1_120
  6
DASHED
 62
         2
100
AcDbLine
 10
1642.2563026082
 20
134.0344444553
 30
0.0
 11
1646.7563026077
 21
141.8286730886
 31
0.0
  0
LINE
  5
25E
100
AcDbEntity
  8
L1_120
  6
DASHED
 62
         2
100
AcDbLine
 10
1642.2563026082
 20
134.0344444553
 30
0.0
 11
1646.7201560608
 21
131.4572374627
 31
0.0
  0
LINE
  5
25F
100
AcDbEntity
  8
L1_120
  6
DASHED
 62
         2
100
AcDbLine
 10
1646.7563026077
 20
141.8286730886
 30
0.0
 11
1651.2201560604
 21
139.251466096
 31
0.0
  0
LINE
  5
260
100
AcDbEntity
  8
L1_120
  6
DASHED
 62
         2
100
AcDbLine
 10
1641.604297432
 20
134.6816570955
 30
0.0
 11
1642.0218026082
 21
134.4406103696
 31
0.0
  0
LINE
  5
261
100
AcDbEntity
  8
L1_120
  6
DASHED
 62
         2
100
AcDbLine
 10
1645.8697974316
 20
142.0697198144
 30
0.0
 11
1646.2873026078
 21
141.8286730886
 31
0.0
  0
LINE
  5
262
100
AcDbEntity
  8
L1_120
  6
DASHED
 62
         2
100
AcDbLine
 10
1646.2873026078
 20
141.8286730886
 30
0.0
 11
1646.7563026077
 21
141.8286730886
 31
0.0
  0
LINE
  5
263
100
AcDbEntity
  8
L1_120
  6
DASHED
 62
         2
100
AcDbLine
 10
1642.0218026082
 20
134.4406103696
 30
0.0
 11
1642.2563026082
 21
134.0344444553
 31
0.0
  0
LINE
  5
264
100
AcDbEntity
  8
L1_120
  6
DASHED
 62
         2
100
AcDbLine
 10
1646.2873026078
 20
158.5406103702
 30
0.0
 11
1642.0218026082
 21
165.9286730892
 31
0.0
  0
LINE
  5
265
100
AcDbEntity
  8
L1_120
  6
DASHED
 62
         2
100
AcDbLine
 10
1646.7563026077
 20
158.5406103702
 30
0.0
 11
1642.2563026082
 21
166.3348390035
 31
0.0
  0
LINE
  5
266
100
AcDbEntity
  8
L1_120
  6
DASHED
 62
         2
100
AcDbLine
 10
1646.7563026077
 20
158.5406103702
 30
0.0
 11
1651.2201560604
 21
161.1178173627
 31
0.0
  0
LINE
  5
267
100
AcDbEntity
  8
L1_120
  6
DASHED
 62
         2
100
AcDbLine
 10
1642.2563026082
 20
166.3348390035
 30
0.0
 11
1646.7201560609
 21
168.912045996
 31
0.0
  0
LINE
  5
268
100
AcDbEntity
  8
L1_120
  6
DASHED
 62
         2
100
AcDbLine
 10
1645.8697974316
 20
158.2995636444
 30
0.0
 11
1646.2873026078
 21
158.5406103702
 31
0.0
  0
LINE
  5
269
100
AcDbEntity
  8
L1_120
  6
DASHED
 62
         2
100
AcDbLine
 10
1641.604297432
 20
165.6876263633
 30
0.0
 11
1642.0218026082
 21
165.9286730892
 31
0.0
  0
LINE
  5
26A
100
AcDbEntity
  8
L1_120
  6
DASHED
 62
         2
100
AcDbLine
 10
1642.0218026082
 20
165.9286730892
 30
0.0
 11
1642.2563026082
 21
166.3348390035
 31
0.0
  0
LINE
  5
26B
100
AcDbEntity
  8
L1_120
  6
DASHED
 62
         2
100
AcDbLine
 10
1646.2873026078
 20
158.5406103702
 30
0.0
 11
1646.7563026077
 21
158.5406103702
 31
0.0
  0
LINE
  5
26C
100
AcDbEntity
  8
L1_120
  6
CENTER
 62
         1
100
AcDbLine
 10
1593.8384766476
 20
167.1846417294
 30
0.0
 11
1652.7282041049
 21
133.1846417294
 31
0.0
  0
LINE
  5
26D
100
AcDbEntity
  8
L1_120
  6
CENTER
 62
         1
100
AcDbLine
 10
1593.8384766476
 20
133.1846417294
 30
0.0
 11
1652.7282041049
 21
167.1846417294
 31
0.0
  0
LINE
  5
26E
100
AcDbEntity
  8
L1_120
  6
DASHED
 62
         2
100
AcDbLine
 10
1627.5488403758
 20
174.28464173
 30
0.0
 11
1619.0178403767
 21
174.28464173
 31
0.0
  0
LINE
  5
26F
100
AcDbEntity
  8
L1_120
  6
DASHED
 62
         2
100
AcDbLine
 10
1627.7833403758
 20
174.6908076443
 30
0.0
 11
1618.7833403767
 21
174.6908076443
 31
0.0
  0
LINE
  5
270
100
AcDbEntity
  8
L1_120
  6
DASHED
 62
         2
100
AcDbLine
 10
1619.0178403767
 20
174.28464173
 30
0.0
 11
1618.7833403767
 21
174.6908076443
 31
0.0
  0
LINE
  5
271
100
AcDbEntity
  8
L1_120
  6
DASHED
 62
         2
100
AcDbLine
 10
1619.0178403767
 20
173.8025482783
 30
0.0
 11
1619.0178403767
 21
174.28464173
 31
0.0
  0
LINE
  5
272
100
AcDbEntity
  8
L1_120
  6
DASHED
 62
         2
100
AcDbLine
 10
1618.7833403767
 20
174.6908076443
 30
0.0
 11
1618.7833403767
 21
179.8452216294
 31
0.0
  0
LINE
  5
273
100
AcDbEntity
  8
L1_120
  6
DASHED
 62
         2
100
AcDbLine
 10
1627.5488403758
 20
174.28464173
 30
0.0
 11
1627.7833403758
 21
174.6908076443
 31
0.0
  0
LINE
  5
274
100
AcDbEntity
  8
L1_120
  6
DASHED
 62
         2
100
AcDbLine
 10
1627.5488403758
 20
173.8025482783
 30
0.0
 11
1627.5488403758
 21
174.28464173
 31
0.0
  0
LINE
  5
275
100
AcDbEntity
  8
L1_120
  6
DASHED
 62
         2
100
AcDbLine
 10
1627.7833403758
 20
174.6908076443
 30
0.0
 11
1627.7833403758
 21
179.8452216294
 31
0.0
  0
LINE
  5
276
100
AcDbEntity
  8
L1_120
  6
CENTER
 62
         1
100
AcDbLine
 10
1623.2833403763
 20
116.1846417294
 30
0.0
 11
1623.2833403763
 21
184.1846417294
 31
0.0
  0
LINE
  5
277
100
AcDbEntity
  8
L1_120
  6
CENTER
 62
         1
100
AcDbLine
 10
1657.2833403763
 20
150.1846417294
 30
0.0
 11
1589.2833403763
 21
150.1846417294
 31
0.0
  0
LINE
  5
278
100
AcDbEntity
  8
L1_120
  6
CONTINUOUS
 62
         7
100
AcDbLine
 10
1602.7955391277
 20
138.1096417294
 30
0.0
 11
1596.0115600897
 21
138.1096417294
 31
0.0
  0
LINE
  5
279
100
AcDbEntity
  8
L1_120
  6
CONTINUOUS
 62
         7
100
AcDbLine
 10
1602.7955391277
 20
162.2596417294
 30
0.0
 11
1596.0115600897
 21
162.2596417294
 31
0.0
  0
CIRCLE
  5
27A
100
AcDbEntity
  8
L1_120
  6
CONTINUOUS
 62
         7
100
AcDbCircle
 10
1623.2833403763
 20
150.1846417294
 30
0.0
 40
24.0
  0
CIRCLE
  5
27B
100
AcDbEntity
  8
L1_120
  6
CONTINUOUS
 62
         7
100
AcDbCircle
 10
1623.2833403763
 20
150.1846417294
 30
0.0
 40
34.0
  0
CIRCLE
  5
27C
100
AcDbEntity
  8
L1_120
  6
CONTINUOUS
 62
         7
100
AcDbCircle
 10
1623.2833403763
 20
150.1846417294
 30
0.0
 40
30.5
  0
CIRCLE
  5
27D
100
AcDbEntity
  8
L1_120
  6
CONTINUOUS
 62
         7
100
AcDbCircle
 10
1623.2833403763
 20
150.1846417294
 30
0.0
 40
30.0
  0
LINE
  5
27E
100
AcDbEntity
  8
L1_120
  6
CONTINUOUS
 62
         7
100
AcDbLine
 10
1650.5551206628
 20
138.1096417294
 30
0.0
 11
1643.7711416248
 21
138.1096417294
 31
0.0
  0
LINE
  5
27F
100
AcDbEntity
  8
L1_120
  6
CONTINUOUS
 62
         7
100
AcDbLine
 10
1650.5551206628
 20
162.2596417294
 30
0.0
 11
1643.7711416248
 21
162.2596417294
 31
0.0
  0
LINE
  5
280
100
AcDbEntity
  8
L1_120
  6
CONTINUOUS
 62
         4
100
AcDbLine
 10
1511.6033403763
 20
120.1846417294
 30
0.0
 11
1511.6033403763
 21
137.9346417294
 31
0.0
  0
LINE
  5
281
100
AcDbEntity
  8
L1_120
  6
CONTINUOUS
 62
         4
100
AcDbLine
 10
1511.6033403763
 20
162.4346417294
 30
0.0
 11
1511.6033403763
 21
180.1846417294
 31
0.0
  0
LINE
  5
282
100
AcDbEntity
  8
L1_120
  6
CONTINUOUS
 62
         4
100
AcDbLine
 10
1501.8033403763
 20
120.1846417294
 30
0.0
 11
1501.8033403763
 21
180.1846417294
 31
0.0
  0
LINE
  5
283
100
AcDbEntity
  8
L1_120
  6
CONTINUOUS
 62
         7
100
AcDbLine
 10
1453.8033403763
 20
120.1846417294
 30
0.0
 11
1453.8033403763
 21
180.1846417294
 31
0.0
  0
LINE
  5
284
100
AcDbEntity
  8
L1_120
  6
CONTINUOUS
 62
         4
100
AcDbLine
 10
1453.6033403763
 20
120.3846417294
 30
0.0
 11
1453.6033403763
 21
179.9846417294
 31
0.0
  0
LINE
  5
285
100
AcDbEntity
  8
L1_120
  6
CONTINUOUS
 62
         4
100
AcDbLine
 10
1453.0033403763
 20
120.3846417294
 30
0.0
 11
1453.0033403763
 21
179.9846417294
 31
0.0
  0
LINE
  5
286
100
AcDbEntity
  8
L1_120
  6
CONTINUOUS
 62
         4
100
AcDbLine
 10
1452.4033403763
 20
119.6846417294
 30
0.0
 11
1452.4033403763
 21
180.6846417294
 31
0.0
  0
LINE
  5
287
100
AcDbEntity
  8
L1_120
  6
CONTINUOUS
 62
         4
100
AcDbLine
 10
1439.6033403763
 20
119.6846417294
 30
0.0
 11
1439.6033403763
 21
180.6846417294
 31
0.0
  0
LINE
  5
288
100
AcDbEntity
  8
L1_120
  6
CONTINUOUS
 62
         4
100
AcDbLine
 10
1438.6033403763
 20
116.1846417294
 30
0.0
 11
1438.6033403763
 21
184.1846417294
 31
0.0
  0
LINE
  5
289
100
AcDbEntity
  8
L1_120
  6
CENTER
 62
         1
100
AcDbLine
 10
1464.8033403763
 20
-35.2485634314
 30
0.0
 11
1464.8033403763
 21
-45.0554759977
 31
0.0
  0
LINE
  5
28A
100
AcDbEntity
  8
L1_120
  6
CENTER
 62
         1
100
AcDbLine
 10
1464.8033403763
 20
9.8740936749
 30
0.0
 11
1464.8033403763
 21
17.8622943309
 31
0.0
  0
LINE
  5
28B
100
AcDbEntity
  8
L1_120
  6
CENTER
 62
         1
100
AcDbLine
 10
1419.1033403763
 20
-12.9433347407
 30
0.0
 11
1509.6119993832
 21
-12.9433347407
 31
0.0
  0
LINE
  5
28C
100
AcDbEntity
  8
L1_120
  6
CONTINUOUS
 62
         7
100
AcDbLine
 10
1504.1033403763
 20
-42.8433347407
 30
0.0
 11
1504.2033403763
 21
-42.9433347407
 31
0.0
  0
LINE
  5
28D
100
AcDbEntity
  8
L1_120
  6
CONTINUOUS
 62
         7
100
AcDbLine
 10
1511.6033403763
 20
-42.9433347407
 30
0.0
 11
1504.2033403763
 21
-42.9433347407
 31
0.0
  0
LINE
  5
28E
100
AcDbEntity
  8
L1_120
  6
CONTINUOUS
 62
         7
100
AcDbLine
 10
1504.1033403763
 20
-42.8433347407
 30
0.0
 11
1504.1033403763
 21
-41.4433347407
 31
0.0
  0
LINE
  5
28F
100
AcDbEntity
  8
L1_120
  6
CONTINUOUS
 62
         7
100
AcDbLine
 10
1501.9033403763
 20
-42.8433347407
 30
0.0
 11
1501.8033403763
 21
-42.9433347407
 31
0.0
  0
LINE
  5
290
100
AcDbEntity
  8
L1_120
  6
CONTINUOUS
 62
         7
100
AcDbLine
 10
1501.8033403763
 20
-42.9433347407
 30
0.0
 11
1453.8033403763
 21
-42.9433347407
 31
0.0
  0
LINE
  5
291
100
AcDbEntity
  8
L1_120
  6
CONTINUOUS
 62
         7
100
AcDbLine
 10
1501.9033403763
 20
-42.8433347407
 30
0.0
 11
1501.9033403763
 21
-41.4433347407
 31
0.0
  0
LINE
  5
292
100
AcDbEntity
  8
L1_120
  6
CONTINUOUS
 62
         7
100
AcDbLine
 10
1504.1033403763
 20
16.9566652593
 30
0.0
 11
1504.2033403763
 21
17.0566652593
 31
0.0
  0
LINE
  5
293
100
AcDbEntity
  8
L1_120
  6
CONTINUOUS
 62
         7
100
AcDbLine
 10
1511.6033403763
 20
17.0566652593
 30
0.0
 11
1504.2033403763
 21
17.0566652593
 31
0.0
  0
LINE
  5
294
100
AcDbEntity
  8
L1_120
  6
CONTINUOUS
 62
         7
100
AcDbLine
 10
1504.1033403763
 20
15.5566652593
 30
0.0
 11
1504.1033403763
 21
16.9566652593
 31
0.0
  0
LINE
  5
295
100
AcDbEntity
  8
L1_120
  6
CONTINUOUS
 62
         7
100
AcDbLine
 10
1501.8033403763
 20
17.0566652593
 30
0.0
 11
1501.9033403763
 21
16.9566652593
 31
0.0
  0
LINE
  5
296
100
AcDbEntity
  8
L1_120
  6
CONTINUOUS
 62
         7
100
AcDbLine
 10
1501.9033403763
 20
15.5566652593
 30
0.0
 11
1501.9033403763
 21
16.9566652593
 31
0.0
  0
LINE
  5
297
100
AcDbEntity
  8
L1_120
  6
CONTINUOUS
 62
         7
100
AcDbLine
 10
1501.8033403763
 20
17.0566652593
 30
0.0
 11
1453.8033403763
 21
17.0566652593
 31
0.0
  0
ARC
  5
298
100
AcDbEntity
  8
L1_120
  6
CONTINUOUS
 62
         7
100
AcDbCircle
 10
1438.6033403763
 20
-46.4433347407
 30
0.0
 40
0.5
100
AcDbArc
 50
270.0
 51
360.0
  0
ARC
  5
299
100
AcDbEntity
  8
L1_120
  6
CONTINUOUS
 62
         7
100
AcDbCircle
 10
1438.6033403763
 20
20.5566652593
 30
0.0
 40
0.5
100
AcDbArc
 50
0.0
 51
90.0
  0
LINE
  5
29A
100
AcDbEntity
  8
L1_120
  6
CONTINUOUS
 62
         7
100
AcDbLine
 10
1469.3033403758
 20
-42.8433347407
 30
0.0
 11
1469.4033403758
 21
-42.9433347407
 31
0.0
  0
LINE
  5
29B
100
AcDbEntity
  8
L1_120
  6
CONTINUOUS
 62
         7
100
AcDbLine
 10
1469.3033403758
 20
-37.4495006556
 30
0.0
 11
1469.3033403758
 21
-42.8433347407
 31
0.0
  0
LINE
  5
29C
100
AcDbEntity
  8
L1_120
  6
CONTINUOUS
 62
         7
100
AcDbLine
 10
1469.0688403758
 20
-36.9433347413
 30
0.0
 11
1469.0688403758
 21
-37.0433347413
 31
0.0
  0
LINE
  5
29D
100
AcDbEntity
  8
L1_120
  6
CONTINUOUS
 62
         7
100
AcDbLine
 10
1469.0688403758
 20
-37.0433347413
 30
0.0
 11
1469.3033403758
 21
-37.4495006556
 31
0.0
  0
LINE
  5
29E
100
AcDbEntity
  8
L1_120
  6
CONTINUOUS
 62
         7
100
AcDbLine
 10
1460.2033403767
 20
-42.9433347407
 30
0.0
 11
1460.3033403767
 21
-42.8433347407
 31
0.0
  0
LINE
  5
29F
100
AcDbEntity
  8
L1_120
  6
CONTINUOUS
 62
         7
100
AcDbLine
 10
1460.3033403767
 20
-37.4495006556
 30
0.0
 11
1460.3033403767
 21
-42.8433347407
 31
0.0
  0
LINE
  5
2A0
100
AcDbEntity
  8
L1_120
  6
CONTINUOUS
 62
         7
100
AcDbLine
 10
1460.5378403767
 20
-36.9433347413
 30
0.0
 11
1460.5378403767
 21
-37.0433347413
 31
0.0
  0
LINE
  5
2A1
100
AcDbEntity
  8
L1_120
  6
CONTINUOUS
 62
         7
100
AcDbLine
 10
1460.5378403767
 20
-37.0433347413
 30
0.0
 11
1460.3033403767
 21
-37.4495006556
 31
0.0
  0
LINE
  5
2A2
100
AcDbEntity
  8
L1_120
  6
CONTINUOUS
 62
         7
100
AcDbLine
 10
1469.3033403758
 20
16.9566652593
 30
0.0
 11
1469.4033403758
 21
17.0566652593
 31
0.0
  0
LINE
  5
2A3
100
AcDbEntity
  8
L1_120
  6
CONTINUOUS
 62
         7
100
AcDbLine
 10
1469.3033403758
 20
11.5628311743
 30
0.0
 11
1469.3033403758
 21
16.9566652593
 31
0.0
  0
LINE
  5
2A4
100
AcDbEntity
  8
L1_120
  6
CONTINUOUS
 62
         7
100
AcDbLine
 10
1469.0688403758
 20
11.0566652599
 30
0.0
 11
1469.0688403758
 21
11.1566652599
 31
0.0
  0
LINE
  5
2A5
100
AcDbEntity
  8
L1_120
  6
CONTINUOUS
 62
         7
100
AcDbLine
 10
1469.0688403758
 20
11.1566652599
 30
0.0
 11
1469.3033403758
 21
11.5628311743
 31
0.0
  0
LINE
  5
2A6
100
AcDbEntity
  8
L1_120
  6
CONTINUOUS
 62
         7
100
AcDbLine
 10
1460.2033403767
 20
17.0566652593
 30
0.0
 11
1460.3033403767
 21
16.9566652593
 31
0.0
  0
LINE
  5
2A7
100
AcDbEntity
  8
L1_120
  6
CONTINUOUS
 62
         7
100
AcDbLine
 10
1460.3033403767
 20
11.5628311742
 30
0.0
 11
1460.3033403767
 21
16.9566652593
 31
0.0
  0
LINE
  5
2A8
100
AcDbEntity
  8
L1_120
  6
CONTINUOUS
 62
         7
100
AcDbLine
 10
1460.5378403767
 20
11.0566652599
 30
0.0
 11
1460.5378403767
 21
11.1566652599
 31
0.0
  0
LINE
  5
2A9
100
AcDbEntity
  8
L1_120
  6
CONTINUOUS
 62
         7
100
AcDbLine
 10
1460.5378403767
 20
11.1566652599
 30
0.0
 11
1460.3033403767
 21
11.5628311742
 31
0.0
  0
LINE
  5
2AA
100
AcDbEntity
  8
L1_120
  6
CONTINUOUS
 62
         7
100
AcDbLine
 10
1510.1033403763
 20
-25.1933347407
 30
0.0
 11
1510.1033403763
 21
-36.9433347407
 31
0.0
  0
LINE
  5
2AB
100
AcDbEntity
  8
L1_120
  6
CONTINUOUS
 62
         7
100
AcDbLine
 10
1511.6033403763
 20
-25.1933347407
 30
0.0
 11
1505.3033403763
 21
-25.1933347407
 31
0.0
  0
LINE
  5
2AC
100
AcDbEntity
  8
L1_120
  6
CONTINUOUS
 62
         7
100
AcDbLine
 10
1503.8033403763
 20
-23.6933347407
 30
0.0
 11
1503.8033403763
 21
-2.1933347407
 31
0.0
  0
LINE
  5
2AD
100
AcDbEntity
  8
L1_120
  6
CONTINUOUS
 62
         7
100
AcDbLine
 10
1511.6033403763
 20
-0.6933347407
 30
0.0
 11
1505.3033403763
 21
-0.6933347407
 31
0.0
  0
LINE
  5
2AE
100
AcDbEntity
  8
L1_120
  6
CONTINUOUS
 62
         7
100
AcDbLine
 10
1511.6033403763
 20
-42.9433347407
 30
0.0
 11
1512.1033403763
 21
-42.4433347407
 31
0.0
  0
LINE
  5
2AF
100
AcDbEntity
  8
L1_120
  6
CONTINUOUS
 62
         7
100
AcDbLine
 10
1511.6033403763
 20
-25.1933347407
 30
0.0
 11
1512.1033403763
 21
-25.6933347407
 31
0.0
  0
LINE
  5
2B0
100
AcDbEntity
  8
L1_120
  6
CONTINUOUS
 62
         7
100
AcDbLine
 10
1512.1033403763
 20
-0.1933347407
 30
0.0
 11
1511.6033403763
 21
-0.6933347407
 31
0.0
  0
LINE
  5
2B1
100
AcDbEntity
  8
L1_120
  6
CONTINUOUS
 62
         7
100
AcDbLine
 10
1511.6033403763
 20
17.0566652593
 30
0.0
 11
1512.1033403763
 21
16.5566652593
 31
0.0
  0
LINE
  5
2B2
100
AcDbEntity
  8
L1_120
  6
CONTINUOUS
 62
         7
100
AcDbLine
 10
1512.1033403763
 20
-0.1933347407
 30
0.0
 11
1512.1033403763
 21
16.5566652593
 31
0.0
  0
LINE
  5
2B3
100
AcDbEntity
  8
L1_120
  6
CONTINUOUS
 62
         7
100
AcDbLine
 10
1512.1033403763
 20
-42.4433347407
 30
0.0
 11
1512.1033403763
 21
-25.6933347407
 31
0.0
  0
LINE
  5
2B4
100
AcDbEntity
  8
L1_120
  6
CONTINUOUS
 62
         7
100
AcDbLine
 10
1504.1033403763
 20
15.5566652593
 30
0.0
 11
1501.9033403763
 21
15.5566652593
 31
0.0
  0
LINE
  5
2B5
100
AcDbEntity
  8
L1_120
  6
CONTINUOUS
 62
         7
100
AcDbLine
 10
1504.1033403763
 20
-41.4433347407
 30
0.0
 11
1501.9033403763
 21
-41.4433347407
 31
0.0
  0
LINE
  5
2B6
100
AcDbEntity
  8
L1_120
  6
CONTINUOUS
 62
         7
100
AcDbLine
 10
1510.1033403763
 20
11.0566652593
 30
0.0
 11
1510.1033403763
 21
-0.6933347407
 31
0.0
  0
ARC
  5
2B7
100
AcDbEntity
  8
L1_120
  6
CONTINUOUS
 62
         7
100
AcDbCircle
 10
1510.1033403763
 20
-38.9433347407
 30
0.0
 40
2.0
100
AcDbArc
 50
0.0
 51
90.0
  0
ARC
  5
2B8
100
AcDbEntity
  8
L1_120
  6
CONTINUOUS
 62
         7
100
AcDbCircle
 10
1510.1033403763
 20
13.0566652593
 30
0.0
 40
2.0
100
AcDbArc
 50
270.0
 51
360.0
  0
LINE
  5
2B9
100
AcDbEntity
  8
L1_120
  6
CONTINUOUS
 62
         7
100
AcDbLine
 10
1452.1033403763
 20
-37.4433347407
 30
0.0
 11
1447.1033403763
 21
-37.4433347407
 31
0.0
  0
LINE
  5
2BA
100
AcDbEntity
  8
L1_120
  6
CONTINUOUS
 62
         7
100
AcDbLine
 10
1452.1033403763
 20
11.5566652593
 30
0.0
 11
1447.1033403763
 21
11.5566652593
 31
0.0
  0
LINE
  5
2BB
100
AcDbEntity
  8
L1_120
  6
CONTINUOUS
 62
         7
100
AcDbLine
 10
1447.1033403763
 20
-36.9433347407
 30
0.0
 11
1433.2469339157
 21
-12.9433347407
 31
0.0
  0
LINE
  5
2BC
100
AcDbEntity
  8
L1_120
  6
CONTINUOUS
 62
         7
100
AcDbLine
 10
1447.1033403763
 20
11.0566652593
 30
0.0
 11
1433.2469339157
 21
-12.9433347407
 31
0.0
  0
LINE
  5
2BD
100
AcDbEntity
  8
L1_120
  6
CONTINUOUS
 62
         7
100
AcDbLine
 10
1447.1033403763
 20
-37.4433347407
 30
0.0
 11
1447.1033403763
 21
11.5566652593
 31
0.0
  0
LINE
  5
2BE
100
AcDbEntity
  8
L1_120
  6
CONTINUOUS
 62
         7
100
AcDbLine
 10
1510.1033403763
 20
-36.9433347407
 30
0.0
 11
1452.1033403763
 21
-36.9433347407
 31
0.0
  0
LINE
  5
2BF
100
AcDbEntity
  8
L1_120
  6
CONTINUOUS
 62
         7
100
AcDbLine
 10
1510.1033403763
 20
11.0566652593
 30
0.0
 11
1452.1033403763
 21
11.0566652593
 31
0.0
  0
LINE
  5
2C0
100
AcDbEntity
  8
L1_120
  6
CONTINUOUS
 62
         7
100
AcDbLine
 10
1452.1033403763
 20
-37.4433347407
 30
0.0
 11
1452.1033403763
 21
11.5566652593
 31
0.0
  0
LINE
  5
2C1
100
AcDbEntity
  8
L1_120
  6
CONTINUOUS
 62
         7
100
AcDbLine
 10
1439.1033403763
 20
18.0566652593
 30
0.0
 11
1439.1033403763
 21
20.5566652593
 31
0.0
  0
LINE
  5
2C2
100
AcDbEntity
  8
L1_120
  6
CONTINUOUS
 62
         7
100
AcDbLine
 10
1452.4033403763
 20
-43.4433347407
 30
0.0
 11
1439.6033403763
 21
-43.4433347407
 31
0.0
  0
LINE
  5
2C3
100
AcDbEntity
  8
L1_120
  6
CONTINUOUS
 62
         7
100
AcDbLine
 10
1452.4033403763
 20
17.5566652593
 30
0.0
 11
1439.6033403763
 21
17.5566652593
 31
0.0
  0
LINE
  5
2C4
100
AcDbEntity
  8
L1_120
  6
CONTINUOUS
 62
         7
100
AcDbLine
 10
1438.6033403763
 20
-46.9433347407
 30
0.0
 11
1428.1033403763
 21
-46.9433347407
 31
0.0
  0
LINE
  5
2C5
100
AcDbEntity
  8
L1_120
  6
CONTINUOUS
 62
         7
100
AcDbLine
 10
1438.6033403763
 20
21.0566652593
 30
0.0
 11
1428.1033403763
 21
21.0566652593
 31
0.0
  0
LINE
  5
2C6
100
AcDbEntity
  8
L1_120
  6
CONTINUOUS
 62
         7
100
AcDbLine
 10
1439.1033403763
 20
-46.4433347407
 30
0.0
 11
1439.1033403763
 21
-43.9433347407
 31
0.0
  0
ARC
  5
2C7
100
AcDbEntity
  8
L1_120
  6
CONTINUOUS
 62
         7
100
AcDbCircle
 10
1439.6033403763
 20
18.0566652593
 30
0.0
 40
0.5
100
AcDbArc
 50
180.0
 51
270.0
  0
ARC
  5
2C8
100
AcDbEntity
  8
L1_120
  6
CONTINUOUS
 62
         7
100
AcDbCircle
 10
1439.6033403763
 20
-43.9433347407
 30
0.0
 40
0.5
100
AcDbArc
 50
90.0
 51
180.0
  0
LINE
  5
2C9
100
AcDbEntity
  8
L1_120
  6
CONTINUOUS
 62
         7
100
AcDbLine
 10
1453.6033403763
 20
16.8566652593
 30
0.0
 11
1453.8033403763
 21
17.0566652593
 31
0.0
  0
LINE
  5
2CA
100
AcDbEntity
  8
L1_120
  6
CONTINUOUS
 62
         7
100
AcDbLine
 10
1452.6033403763
 20
17.2566652593
 30
0.0
 11
1452.6033403763
 21
17.3566652593
 31
0.0
  0
ARC
  5
2CB
100
AcDbEntity
  8
L1_120
  6
CONTINUOUS
 62
         7
100
AcDbCircle
 10
1452.4033403763
 20
17.3566652593
 30
0.0
 40
0.2
100
AcDbArc
 50
0.0
 51
90.0
  0
LINE
  5
2CC
100
AcDbEntity
  8
L1_120
  6
CONTINUOUS
 62
         7
100
AcDbLine
 10
1453.6033403763
 20
16.8566652593
 30
0.0
 11
1453.0033403763
 21
16.8566652593
 31
0.0
  0
ARC
  5
2CD
100
AcDbEntity
  8
L1_120
  6
CONTINUOUS
 62
         7
100
AcDbCircle
 10
1453.0033403763
 20
17.2566652593
 30
0.0
 40
0.4
100
AcDbArc
 50
180.0
 51
270.0
  0
ARC
  5
2CE
100
AcDbEntity
  8
L1_120
  6
CONTINUOUS
 62
         7
100
AcDbCircle
 10
1452.4033403763
 20
-43.2433347407
 30
0.0
 40
0.2
100
AcDbArc
 50
270.0
 51
360.0
  0
LINE
  5
2CF
100
AcDbEntity
  8
L1_120
  6
CONTINUOUS
 62
         7
100
AcDbLine
 10
1452.6033403763
 20
-43.1433347407
 30
0.0
 11
1452.6033403763
 21
-43.2433347407
 31
0.0
  0
ARC
  5
2D0
100
AcDbEntity
  8
L1_120
  6
CONTINUOUS
 62
         7
100
AcDbCircle
 10
1453.0033403763
 20
-43.1433347407
 30
0.0
 40
0.4
100
AcDbArc
 50
90.0
 51
180.0
  0
LINE
  5
2D1
100
AcDbEntity
  8
L1_120
  6
CONTINUOUS
 62
         7
100
AcDbLine
 10
1453.6033403763
 20
-42.7433347407
 30
0.0
 11
1453.8033403763
 21
-42.9433347407
 31
0.0
  0
LINE
  5
2D2
100
AcDbEntity
  8
L1_120
  6
CONTINUOUS
 62
         7
100
AcDbLine
 10
1453.6033403763
 20
-42.7433347407
 30
0.0
 11
1453.0033403763
 21
-42.7433347407
 31
0.0
  0
LINE
  5
2D3
100
AcDbEntity
  8
L1_120
  6
CONTINUOUS
 62
         7
100
AcDbLine
 10
1504.1033403763
 20
120.2846417294
 30
0.0
 11
1504.2033403763
 21
120.1846417294
 31
0.0
  0
LINE
  5
2D4
100
AcDbEntity
  8
L1_120
  6
CONTINUOUS
 62
         7
100
AcDbLine
 10
1501.9033403763
 20
120.2846417294
 30
0.0
 11
1501.8033403763
 21
120.1846417294
 31
0.0
  0
LINE
  5
2D5
100
AcDbEntity
  8
L1_120
  6
CONTINUOUS
 62
         7
100
AcDbLine
 10
1504.1033403763
 20
180.0846417294
 30
0.0
 11
1504.2033403763
 21
180.1846417294
 31
0.0
  0
LINE
  5
2D6
100
AcDbEntity
  8
L1_120
  6
CONTINUOUS
 62
         7
100
AcDbLine
 10
1501.8033403763
 20
180.1846417294
 30
0.0
 11
1501.9033403763
 21
180.0846417294
 31
0.0
  0
LINE
  5
2D7
100
AcDbEntity
  8
L1_120
  6
CONTINUOUS
 62
         7
100
AcDbLine
 10
1453.6033403763
 20
120.3846417294
 30
0.0
 11
1453.0033403763
 21
120.3846417294
 31
0.0
  0
LINE
  5
2D8
100
AcDbEntity
  8
L1_120
  6
CONTINUOUS
 62
         7
100
AcDbLine
 10
1453.6033403763
 20
120.3846417294
 30
0.0
 11
1453.8033403763
 21
120.1846417294
 31
0.0
  0
ARC
  5
2D9
100
AcDbEntity
  8
L1_120
  6
CONTINUOUS
 62
         7
100
AcDbCircle
 10
1453.0033403763
 20
119.9846417294
 30
0.0
 40
0.4
100
AcDbArc
 50
90.0
 51
180.0
  0
LINE
  5
2DA
100
AcDbEntity
  8
L1_120
  6
CONTINUOUS
 62
         7
100
AcDbLine
 10
1452.6033403763
 20
180.4846417294
 30
0.0
 11
1452.6033403763
 21
119.8846417294
 31
0.0
  0
ARC
  5
2DB
100
AcDbEntity
  8
L1_120
  6
CONTINUOUS
 62
         7
100
AcDbCircle
 10
1452.4033403763
 20
119.8846417294
 30
0.0
 40
0.2
100
AcDbArc
 50
270.0
 51
360.0
  0
ARC
  5
2DC
100
AcDbEntity
  8
L1_120
  6
CONTINUOUS
 62
         7
100
AcDbCircle
 10
1453.0033403763
 20
180.3846417294
 30
0.0
 40
0.4
100
AcDbArc
 50
180.0
 51
270.0
  0
LINE
  5
2DD
100
AcDbEntity
  8
L1_120
  6
CONTINUOUS
 62
         7
100
AcDbLine
 10
1453.6033403763
 20
179.9846417294
 30
0.0
 11
1453.0033403763
 21
179.9846417294
 31
0.0
  0
ARC
  5
2DE
100
AcDbEntity
  8
L1_120
  6
CONTINUOUS
 62
         7
100
AcDbCircle
 10
1452.4033403763
 20
180.4846417294
 30
0.0
 40
0.2
100
AcDbArc
 50
0.0
 51
90.0
  0
LINE
  5
2DF
100
AcDbEntity
  8
L1_120
  6
CONTINUOUS
 62
         7
100
AcDbLine
 10
1453.6033403763
 20
179.9846417294
 30
0.0
 11
1453.8033403763
 21
180.1846417294
 31
0.0
  0
ARC
  5
2E0
100
AcDbEntity
  8
L1_120
  6
CONTINUOUS
 62
         7
100
AcDbCircle
 10
1439.6033403763
 20
119.1846417294
 30
0.0
 40
0.5
100
AcDbArc
 50
90.0
 51
180.0
  0
ARC
  5
2E1
100
AcDbEntity
  8
L1_120
  6
CONTINUOUS
 62
         7
100
AcDbCircle
 10
1439.6033403763
 20
181.1846417294
 30
0.0
 40
0.5
100
AcDbArc
 50
180.0
 51
270.0
  0
LINE
  5
2E2
100
AcDbEntity
  8
L1_120
  6
CONTINUOUS
 62
         7
100
AcDbLine
 10
1438.6033403763
 20
184.1846417294
 30
0.0
 11
1428.1033403763
 21
184.1846417294
 31
0.0
  0
LINE
  5
2E3
100
AcDbEntity
  8
L1_120
  6
CONTINUOUS
 62
         7
100
AcDbLine
 10
1438.6033403763
 20
116.1846417294
 30
0.0
 11
1428.1033403763
 21
116.1846417294
 31
0.0
  0
LINE
  5
2E4
100
AcDbEntity
  8
L1_120
  6
CONTINUOUS
 62
         7
100
AcDbLine
 10
1452.4033403763
 20
180.6846417294
 30
0.0
 11
1439.6033403763
 21
180.6846417294
 31
0.0
  0
LINE
  5
2E5
100
AcDbEntity
  8
L1_120
  6
CONTINUOUS
 62
         7
100
AcDbLine
 10
1452.4033403763
 20
119.6846417294
 30
0.0
 11
1439.6033403763
 21
119.6846417294
 31
0.0
  0
LINE
  5
2E6
100
AcDbEntity
  8
L1_120
  6
CONTINUOUS
 62
         7
100
AcDbLine
 10
1439.1033403763
 20
116.6846417294
 30
0.0
 11
1439.1033403763
 21
183.6846417294
 31
0.0
  0
LINE
  5
2E7
100
AcDbEntity
  8
L1_120
  6
CONTINUOUS
 62
         7
100
AcDbLine
 10
1501.8033403763
 20
180.1846417294
 30
0.0
 11
1453.8033403763
 21
180.1846417294
 31
0.0
  0
LINE
  5
2E8
100
AcDbEntity
  8
L1_120
  6
CONTINUOUS
 62
         7
100
AcDbLine
 10
1501.8033403763
 20
120.1846417294
 30
0.0
 11
1453.8033403763
 21
120.1846417294
 31
0.0
  0
LINE
  5
2E9
100
AcDbEntity
  8
L1_120
  6
CONTINUOUS
 62
         7
100
AcDbLine
 10
1501.9033403763
 20
120.2846417294
 30
0.0
 11
1501.9033403763
 21
180.0846417294
 31
0.0
  0
LINE
  5
2EA
100
AcDbEntity
  8
L1_120
  6
CONTINUOUS
 62
         7
100
AcDbLine
 10
1504.1033403763
 20
120.2846417294
 30
0.0
 11
1504.1033403763
 21
180.0846417294
 31
0.0
  0
LINE
  5
2EB
100
AcDbEntity
  8
L1_120
  6
CONTINUOUS
 62
         7
100
AcDbLine
 10
1504.1033403763
 20
121.6846417294
 30
0.0
 11
1501.9033403763
 21
121.6846417294
 31
0.0
  0
LINE
  5
2EC
100
AcDbEntity
  8
L1_120
  6
CONTINUOUS
 62
         7
100
AcDbLine
 10
1504.1033403763
 20
178.6846417294
 30
0.0
 11
1501.9033403763
 21
178.6846417294
 31
0.0
  0
LINE
  5
2ED
100
AcDbEntity
  8
L1_120
  6
CONTINUOUS
 62
         7
100
AcDbLine
 10
1511.6033403763
 20
120.1846417294
 30
0.0
 11
1504.2033403763
 21
120.1846417294
 31
0.0
  0
LINE
  5
2EE
100
AcDbEntity
  8
L1_120
  6
CONTINUOUS
 62
         7
100
AcDbLine
 10
1511.6033403763
 20
180.1846417294
 30
0.0
 11
1504.2033403763
 21
180.1846417294
 31
0.0
  0
LINE
  5
2EF
100
AcDbEntity
  8
L1_120
  6
CONTINUOUS
 62
         7
100
AcDbLine
 10
1512.1033403763
 20
120.6846417294
 30
0.0
 11
1512.1033403763
 21
137.4346417294
 31
0.0
  0
LINE
  5
2F0
100
AcDbEntity
  8
L1_120
  6
CONTINUOUS
 62
         7
100
AcDbLine
 10
1512.1033403763
 20
162.9346417294
 30
0.0
 11
1512.1033403763
 21
179.6846417294
 31
0.0
  0
LINE
  5
2F1
100
AcDbEntity
  8
L1_120
  6
CONTINUOUS
 62
         7
100
AcDbLine
 10
1511.6033403763
 20
180.1846417294
 30
0.0
 11
1512.1033403763
 21
179.6846417294
 31
0.0
  0
LINE
  5
2F2
100
AcDbEntity
  8
L1_120
  6
CONTINUOUS
 62
         7
100
AcDbLine
 10
1511.6033403763
 20
120.1846417294
 30
0.0
 11
1512.1033403763
 21
120.6846417294
 31
0.0
  0
LINE
  5
2F3
100
AcDbEntity
  8
L1_120
  6
CENTER
 62
         1
100
AcDbLine
 10
1419.1033403763
 20
150.1846417294
 30
0.0
 11
1509.6119993832
 21
150.1846417294
 31
0.0
  0
ARC
  5
2F4
100
AcDbEntity
  8
L1_120
  6
CONTINUOUS
 62
         7
100
AcDbCircle
 10
1438.6033403763
 20
183.6846417294
 30
0.0
 40
0.5
100
AcDbArc
 50
0.0
 51
90.0
  0
ARC
  5
2F5
100
AcDbEntity
  8
L1_120
  6
CONTINUOUS
 62
         7
100
AcDbCircle
 10
1438.6033403763
 20
116.6846417294
 30
0.0
 40
0.5
100
AcDbArc
 50
270.0
 51
360.0
  0
DIMENSION
  5
2F9
100
AcDbEntity
  8
L1_120
  6
CONTINUOUS
 62
         4
100
AcDbDimension
  2
*D0
 10
1591.7958688099
 20
12.1091055841
 30
0.0
 11
1589.7708688099
 21
-37.1712439188
 31
0.0
  3
DIMSTYLE1
100
AcDbAlignedDimension
 13
1624.4357904908
 23
12.1091055841
 33
0.0
 14
1624.4357904908
 24
-69.8908944159
 34
0.0
 50
90.0
100
AcDbRotatedDimension
  0
LINE
  5
306
100
AcDbEntity
  8
L1_120
  6
CONTINUOUS
 62
         4
100
AcDbLine
 10
1605.3584402216
 20
11.1091055841
 30
0.0
 11
1605.3584402216
 21
-68.8908944159
 31
0.0
  0
LINE
  5
307
100
AcDbEntity
  8
L1_120
  6
CONTINUOUS
 62
         4
100
AcDbLine
 10
1679.3584402216
 20
11.1091055841
 30
0.0
 11
1679.3584402216
 21
-68.8908944159
 31
0.0
  0
LINE
  5
308
100
AcDbEntity
  8
L1_120
  6
CONTINUOUS
 62
         7
100
AcDbLine
 10
1623.8584402216
 20
-68.8908944159
 30
0.0
 11
1605.3584402216
 21
-68.8908944159
 31
0.0
  0
LINE
  5
309
100
AcDbEntity
  8
L1_120
  6
CONTINUOUS
 62
         7
100
AcDbLine
 10
1643.8584402216
 20
-68.8908944159
 30
0.0
 11
1633.8584402216
 21
-68.8908944159
 31
0.0
  0
LINE
  5
30A
100
AcDbEntity
  8
L1_120
  6
CONTINUOUS
 62
         7
100
AcDbLine
 10
1643.8584402216
 20
11.1091055841
 30
0.0
 11
1633.8584402216
 21
11.1091055841
 31
0.0
  0
LINE
  5
30B
100
AcDbEntity
  8
L1_120
  6
CONTINUOUS
 62
         7
100
AcDbLine
 10
1623.8584402216
 20
11.1091055841
 30
0.0
 11
1605.3584402216
 21
11.1091055841
 31
0.0
  0
LINE
  5
30C
100
AcDbEntity
  8
L1_120
  6
CONTINUOUS
 62
         4
100
AcDbLine
 10
1623.8584402216
 20
-68.8908944159
 30
0.0
 11
1623.8584402216
 21
11.1091055841
 31
0.0
  0
LINE
  5
30D
100
AcDbEntity
  8
L1_120
  6
CONTINUOUS
 62
         7
100
AcDbLine
 10
1624.4357904908
 20
12.1091055841
 30
0.0
 11
1624.4357904908
 21
-69.8908944159
 31
0.0
  0
LINE
  5
30E
100
AcDbEntity
  8
L1_120
  6
CONTINUOUS
 62
         7
100
AcDbLine
 10
1633.2810899525
 20
-69.8908944159
 30
0.0
 11
1633.2810899525
 21
12.1091055841
 31
0.0
  0
LINE
  5
30F
100
AcDbEntity
  8
L1_120
  6
CONTINUOUS
 62
         4
100
AcDbLine
 10
1633.8584402216
 20
11.1091055841
 30
0.0
 11
1633.8584402216
 21
-68.8908944159
 31
0.0
  0
LINE
  5
310
100
AcDbEntity
  8
L1_120
  6
CONTINUOUS
 62
         4
100
AcDbLine
 10
1643.8584402216
 20
-68.8908944159
 30
0.0
 11
1643.8584402216
 21
11.1091055841
 31
0.0
  0
LINE
  5
311
100
AcDbEntity
  8
L1_120
  6
CONTINUOUS
 62
         7
100
AcDbLine
 10
1644.4357904908
 20
12.1091055841
 30
0.0
 11
1644.4357904908
 21
-69.8908944159
 31
0.0
  0
LINE
  5
312
100
AcDbEntity
  8
L1_120
  6
CONTINUOUS
 62
         7
100
AcDbLine
 10
1653.2810899525
 20
-69.8908944159
 30
0.0
 11
1653.2810899525
 21
12.1091055841
 31
0.0
  0
LINE
  5
313
100
AcDbEntity
  8
L1_120
  6
CONTINUOUS
 62
         4
100
AcDbLine
 10
1653.8584402216
 20
11.1091055841
 30
0.0
 11
1653.8584402216
 21
-68.8908944159
 31
0.0
  0
LINE
  5
314
100
AcDbEntity
  8
L1_120
  6
CONTINUOUS
 62
         7
100
AcDbLine
 10
1605.3584402216
 20
-68.8908944159
 30
0.0
 11
1604.8584402216
 21
-68.3908944159
 31
0.0
  0
LINE
  5
315
100
AcDbEntity
  8
L1_120
  6
CONTINUOUS
 62
         7
100
AcDbLine
 10
1679.3584402216
 20
-68.8908944159
 30
0.0
 11
1653.8584402216
 21
-68.8908944159
 31
0.0
  0
LINE
  5
316
100
AcDbEntity
  8
L1_120
  6
CONTINUOUS
 62
         7
100
AcDbLine
 10
1679.3584402216
 20
-68.8908944159
 30
0.0
 11
1679.8584402216
 21
-68.3908944159
 31
0.0
  0
LINE
  5
317
100
AcDbEntity
  8
L1_120
  6
CONTINUOUS
 62
         7
100
AcDbLine
 10
1653.8584402216
 20
-68.8908944159
 30
0.0
 11
1653.2810899525
 21
-69.8908944159
 31
0.0
  0
LINE
  5
318
100
AcDbEntity
  8
L1_120
  6
CONTINUOUS
 62
         7
100
AcDbLine
 10
1643.8584402216
 20
-68.8908944159
 30
0.0
 11
1644.4357904908
 21
-69.8908944159
 31
0.0
  0
LINE
  5
319
100
AcDbEntity
  8
L1_120
  6
CONTINUOUS
 62
         7
100
AcDbLine
 10
1623.8584402216
 20
-68.8908944159
 30
0.0
 11
1624.4357904908
 21
-69.8908944159
 31
0.0
  0
LINE
  5
31A
100
AcDbEntity
  8
L1_120
  6
CONTINUOUS
 62
         7
100
AcDbLine
 10
1633.8584402216
 20
-68.8908944159
 30
0.0
 11
1633.2810899525
 21
-69.8908944159
 31
0.0
  0
LINE
  5
31B
100
AcDbEntity
  8
L1_120
  6
CONTINUOUS
 62
         7
100
AcDbLine
 10
1633.2810899525
 20
-69.8908944159
 30
0.0
 11
1624.4357904908
 21
-69.8908944159
 31
0.0
  0
LINE
  5
31C
100
AcDbEntity
  8
L1_120
  6
CONTINUOUS
 62
         7
100
AcDbLine
 10
1653.2810899525
 20
-69.8908944159
 30
0.0
 11
1644.4357904908
 21
-69.8908944159
 31
0.0
  0
LINE
  5
31D
100
AcDbEntity
  8
L1_120
  6
CONTINUOUS
 62
         7
100
AcDbLine
 10
1605.3584402216
 20
11.1091055841
 30
0.0
 11
1604.8584402216
 21
10.6091055841
 31
0.0
  0
LINE
  5
31E
100
AcDbEntity
  8
L1_120
  6
CONTINUOUS
 62
         7
100
AcDbLine
 10
1679.3584402216
 20
11.1091055841
 30
0.0
 11
1679.8584402216
 21
10.6091055841
 31
0.0
  0
LINE
  5
31F
100
AcDbEntity
  8
L1_120
  6
CONTINUOUS
 62
         7
100
AcDbLine
 10
1653.8584402216
 20
11.1091055841
 30
0.0
 11
1653.2810899525
 21
12.1091055841
 31
0.0
  0
LINE
  5
320
100
AcDbEntity
  8
L1_120
  6
CONTINUOUS
 62
         7
100
AcDbLine
 10
1643.8584402216
 20
11.1091055841
 30
0.0
 11
1644.4357904908
 21
12.1091055841
 31
0.0
  0
LINE
  5
321
100
AcDbEntity
  8
L1_120
  6
CONTINUOUS
 62
         7
100
AcDbLine
 10
1623.8584402216
 20
11.1091055841
 30
0.0
 11
1624.4357904908
 21
12.1091055841
 31
0.0
  0
LINE
  5
322
100
AcDbEntity
  8
L1_120
  6
CONTINUOUS
 62
         7
100
AcDbLine
 10
1633.8584402216
 20
11.1091055841
 30
0.0
 11
1633.2810899525
 21
12.1091055841
 31
0.0
  0
LINE
  5
323
100
AcDbEntity
  8
L1_120
  6
CONTINUOUS
 62
         7
100
AcDbLine
 10
1633.2810899525
 20
12.1091055841
 30
0.0
 11
1624.4357904908
 21
12.1091055841
 31
0.0
  0
LINE
  5
324
100
AcDbEntity
  8
L1_120
  6
CONTINUOUS
 62
         7
100
AcDbLine
 10
1653.2810899525
 20
12.1091055841
 30
0.0
 11
1644.4357904908
 21
12.1091055841
 31
0.0
  0
LINE
  5
325
100
AcDbEntity
  8
L1_120
  6
CONTINUOUS
 62
         7
100
AcDbLine
 10
1604.8584402216
 20
-68.3908944159
 30
0.0
 11
1604.8584402216
 21
10.6091055841
 31
0.0
  0
LINE
  5
326
100
AcDbEntity
  8
L1_120
  6
CONTINUOUS
 62
         7
100
AcDbLine
 10
1679.8584402216
 20
-68.3908944159
 30
0.0
 11
1679.8584402216
 21
10.6091055841
 31
0.0
  0
LINE
  5
327
100
AcDbEntity
  8
L1_120
  6
CONTINUOUS
 62
         7
100
AcDbLine
 10
1679.3584402216
 20
11.1091055841
 30
0.0
 11
1653.8584402216
 21
11.1091055841
 31
0.0
  0
LINE
  5
328
100
AcDbEntity
  8
L1_120
  6
CENTER
 62
         1
100
AcDbLine
 10
1685.1579377277
 20
-28.8908944159
 30
0.0
 11
1596.9763579986
 21
-28.8908944159
 31
0.0
  0
DIMENSION
  5
32B
100
AcDbEntity
  8
L1_120
  6
CONTINUOUS
 62
         4
100
AcDbDimension
  2
*D1
 10
1679.8584402216
 20
21.5323690281
 30
0.0
 11
1638.5950832397
 21
23.5573690281
 31
0.0
  3
DIMSTYLE1
100
AcDbAlignedDimension
 13
1679.8584402216
 23
10.6091055841
 33
0.0
 14
1604.8584402216
 24
10.6091055841
 34
0.0
100
AcDbRotatedDimension
  0
LINE
  5
337
100
AcDbEntity
  8
L1_120
  6
CONTINUOUS
 62
         7
100
AcDbLine
 10
1394.1033403763
 20
180.6846417294
 30
0.0
 11
1394.1033403763
 21
119.6846417294
 31
0.0
  0
LINE
  5
338
100
AcDbEntity
  8
L1_120
  6
CENTER
 62
         1
100
AcDbLine
 10
1392.1033403763
 20
172.4096417294
 30
0.0
 11
1392.1033403763
 21
127.9596417294
 31
0.0
  0
LINE
  5
339
100
AcDbEntity
  8
L1_120
  6
CONTINUOUS
 62
         7
100
AcDbLine
 10
1326.7033403763
 20
162.0074490628
 30
0.0
 11
1326.7033403763
 21
138.361834396
 31
0.0
  0
DIMENSION
  5
33C
100
AcDbEntity
  8
L1_120
  6
CONTINUOUS
 62
         4
100
AcDbDimension
  2
*D2
 10
1326.7033403763
 20
224.2142117972
 30
0.0
 11
1412.6533403763
 21
226.2392117972
 31
0.0
  3
DIMSTYLE1
100
AcDbAlignedDimension
 13
1326.7033403763
 23
162.0074490628
 33
0.0
 14
1512.1033403763
 24
179.6846417294
 34
0.0
100
AcDbRotatedDimension
  0
DIMENSION
  5
34A
100
AcDbEntity
  8
L1_120
  6
CONTINUOUS
 62
         4
100
AcDbDimension
  2
*D3
 10
1392.1033403763
 20
217.6437200673
 30
0.0
 11
1448.0533403763
 21
219.6687200673
 31
0.0
  3
DIMSTYLE1
100
AcDbAlignedDimension
 13
1392.1033403763
 23
172.4096417294
 33
0.0
 14
1512.1033403763
 24
179.6846417294
 34
0.0
100
AcDbRotatedDimension
  0
LINE
  5
356
100
AcDbEntity
  8
L1_120
  6
CONTINUOUS
 62
         7
100
AcDbLine
 10
1427.1033403763
 20
117.1846417294
 30
0.0
 11
1427.1033403763
 21
183.1846417294
 31
0.0
  0
ARC
  5
357
100
AcDbEntity
  8
L1_120
  6
CONTINUOUS
 62
         7
100
AcDbCircle
 10
1428.1033403763
 20
183.1846417294
 30
0.0
 40
1.0
100
AcDbArc
 50
90.0
 51
180.0
  0
ARC
  5
358
100
AcDbEntity
  8
L1_120
  6
CONTINUOUS
 62
         7
100
AcDbCircle
 10
1428.1033403763
 20
117.1846417294
 30
0.0
 40
1.0
100
AcDbArc
 50
180.0
 51
270.0
  0
LINE
  5
359
100
AcDbEntity
  8
L1_120
  6
CONTINUOUS
 62
         7
100
AcDbLine
 10
1427.1033403763
 20
-45.9433347407
 30
0.0
 11
1427.1033403763
 21
-44.2433347407
 31
0.0
  0
LINE
  5
35A
100
AcDbEntity
  8
L1_120
  6
CONTINUOUS
 62
         7
100
AcDbLine
 10
1427.1033403763
 20
18.3566652593
 30
0.0
 11
1427.1033403763
 21
20.0566652593
 31
0.0
  0
ARC
  5
35B
100
AcDbEntity
  8
L1_120
  6
CONTINUOUS
 62
         7
100
AcDbCircle
 10
1428.1033403763
 20
20.0566652593
 30
0.0
 40
1.0
100
AcDbArc
 50
90.0
 51
180.0
  0
ARC
  5
35C
100
AcDbEntity
  8
L1_120
  6
CONTINUOUS
 62
         7
100
AcDbCircle
 10
1428.1033403763
 20
-45.9433347407
 30
0.0
 40
1.0
100
AcDbArc
 50
180.0
 51
270.0
  0
DIMENSION
  5
360
100
AcDbEntity
  8
L1_120
  6
CONTINUOUS
 62
         4
100
AcDbDimension
  2
*D4
 10
1761.564634188
 20
-106.2550139512
 30
0.0
 11
1769.6071267584
 21
-102.2386057308
 31
0.0
 70
         3
  3
DIMSTYLE2
100
AcDbDiametricDimension
 15
1769.8586063799
 25
-103.527306807
 35
0.0
 40
0.0
  0
CIRCLE
  5
36B
100
AcDbEntity
  8
L1_120
  6
CONTINUOUS
 62
         7
100
AcDbCircle
 10
1765.711620284
 20
-104.8911603791
 30
0.0
 40
4.3654999996
  0
ARC
  5
36C
100
AcDbEntity
  8
L1_120
  6
CONTINUOUS
 62
         7
100
AcDbCircle
 10
1752.4736216939
 20
-61.9625449455
 30
0.0
 40
1.354752
100
AcDbArc
 50
165.0604480709
 51
360.0000000001
  0
ARC
  5
36D
100
AcDbEntity
  8
L1_120
  6
CONTINUOUS
 62
         7
100
AcDbCircle
 10
1755.3592477248
 20
-1.6490549511
 30
0.0
 40
1.354752
100
AcDbArc
 50
345.0604480705
 51
539.9999999997
  0
ARC
  5
36E
100
AcDbEntity
  8
L1_120
  6
CONTINUOUS
 62
         7
100
AcDbCircle
 10
1757.8926296939
 20
-61.9625449455
 30
0.0
 40
1.354752
100
AcDbArc
 50
165.0604480713
 51
359.9999999997
  0
ARC
  5
36F
100
AcDbEntity
  8
L1_120
  6
CONTINUOUS
 62
         7
100
AcDbCircle
 10
1760.7782557248
 20
-1.6490549511
 30
0.0
 40
1.354752
100
AcDbArc
 50
345.0604480709
 51
539.9999999997
  0
ARC
  5
370
100
AcDbEntity
  8
L1_120
  6
CONTINUOUS
 62
         7
100
AcDbCircle
 10
1763.3116376939
 20
-61.9625449455
 30
0.0
 40
1.354752
100
AcDbArc
 50
165.0604480709
 51
359.9999999997
  0
ARC
  5
371
100
AcDbEntity
  8
L1_120
  6
CONTINUOUS
 62
         7
100
AcDbCircle
 10
1766.1972637248
 20
-1.6490549511
 30
0.0
 40
1.354752
100
AcDbArc
 50
345.0604480705
 51
539.9999999997
  0
ARC
  5
372
100
AcDbEntity
  8
L1_120
  6
CONTINUOUS
 62
         7
100
AcDbCircle
 10
1768.7306456939
 20
-61.9625449455
 30
0.0
 40
1.354752
100
AcDbArc
 50
165.0604480713
 51
360.0000000001
  0
ARC
  5
373
100
AcDbEntity
  8
L1_120
  6
CONTINUOUS
 62
         7
100
AcDbCircle
 10
1771.6162717248
 20
-1.6490549511
 30
0.0
 40
1.354752
100
AcDbArc
 50
345.0604480713
 51
540.0000000001
  0
ARC
  5
374
100
AcDbEntity
  8
L1_120
  6
CONTINUOUS
 62
         7
100
AcDbCircle
 10
1774.1496536939
 20
-61.9625449455
 30
0.0
 40
1.354752
100
AcDbArc
 50
165.0604480709
 51
359.9999999997
  0
ARC
  5
375
100
AcDbEntity
  8
L1_120
  6
CONTINUOUS
 62
         7
100
AcDbCircle
 10
1777.0352797248
 20
-1.6490549511
 30
0.0
 40
1.354752
100
AcDbArc
 50
345.0604480713
 51
539.9999999997
  0
ARC
  5
376
100
AcDbEntity
  8
L1_120
  6
CONTINUOUS
 62
         7
100
AcDbCircle
 10
1779.5686616939
 20
-61.9625449455
 30
0.0
 40
1.354752
100
AcDbArc
 50
165.0604480713
 51
360.0000000006
  0
ARC
  5
377
100
AcDbEntity
  8
L1_120
  6
CONTINUOUS
 62
         7
100
AcDbCircle
 10
1782.4542877248
 20
-1.6490549511
 30
0.0
 40
1.354752
100
AcDbArc
 50
345.0604480709
 51
539.9999999997
  0
ARC
  5
378
100
AcDbEntity
  8
L1_120
  6
CONTINUOUS
 62
         7
100
AcDbCircle
 10
1784.9876696939
 20
-61.9625449455
 30
0.0
 40
1.354752
100
AcDbArc
 50
165.0604480713
 51
360.0000000001
  0
ARC
  5
379
100
AcDbEntity
  8
L1_120
  6
CONTINUOUS
 62
         7
100
AcDbCircle
 10
1787.8732957248
 20
-1.6490549511
 30
0.0
 40
1.354752
100
AcDbArc
 50
345.0604480713
 51
539.9999999997
  0
LINE
  5
37A
100
AcDbEntity
  8
L1_120
  6
CONTINUOUS
 62
         7
100
AcDbLine
 10
1754.0044957248
 20
-1.6490549511
 30
0.0
 11
1751.1188696939
 21
-61.9625449455
 31
0.0
  0
LINE
  5
37B
100
AcDbEntity
  8
L1_120
  6
CONTINUOUS
 62
         7
100
AcDbLine
 10
1756.7139997248
 20
-1.6490549511
 30
0.0
 11
1753.8283736939
 21
-61.9625449455
 31
0.0
  0
LINE
  5
37C
100
AcDbEntity
  8
L1_120
  6
CONTINUOUS
 62
         7
100
AcDbLine
 10
1759.4235037248
 20
-1.6490549511
 30
0.0
 11
1756.5378776939
 21
-61.9625449455
 31
0.0
  0
LINE
  5
37D
100
AcDbEntity
  8
L1_120
  6
CONTINUOUS
 62
         7
100
AcDbLine
 10
1762.1330077248
 20
-1.6490549511
 30
0.0
 11
1759.2473816939
 21
-61.9625449455
 31
0.0
  0
LINE
  5
37E
100
AcDbEntity
  8
L1_120
  6
CONTINUOUS
 62
         7
100
AcDbLine
 10
1764.8425117248
 20
-1.6490549511
 30
0.0
 11
1761.9568856939
 21
-61.9625449455
 31
0.0
  0
LINE
  5
37F
100
AcDbEntity
  8
L1_120
  6
CONTINUOUS
 62
         7
100
AcDbLine
 10
1767.5520157248
 20
-1.6490549511
 30
0.0
 11
1764.6663896939
 21
-61.9625449455
 31
0.0
  0
LINE
  5
380
100
AcDbEntity
  8
L1_120
  6
CONTINUOUS
 62
         7
100
AcDbLine
 10
1770.2615197248
 20
-1.6490549511
 30
0.0
 11
1767.3758936939
 21
-61.9625449455
 31
0.0
  0
LINE
  5
381
100
AcDbEntity
  8
L1_120
  6
CONTINUOUS
 62
         7
100
AcDbLine
 10
1772.9710237248
 20
-1.6490549511
 30
0.0
 11
1770.0853976939
 21
-61.9625449455
 31
0.0
  0
LINE
  5
382
100
AcDbEntity
  8
L1_120
  6
CONTINUOUS
 62
         7
100
AcDbLine
 10
1775.6805277248
 20
-1.6490549511
 30
0.0
 11
1772.7949016939
 21
-61.9625449455
 31
0.0
  0
LINE
  5
383
100
AcDbEntity
  8
L1_120
  6
CONTINUOUS
 62
         7
100
AcDbLine
 10
1778.3900317248
 20
-1.6490549511
 30
0.0
 11
1775.5044056939
 21
-61.9625449455
 31
0.0
  0
LINE
  5
384
100
AcDbEntity
  8
L1_120
  6
CONTINUOUS
 62
         7
100
AcDbLine
 10
1781.0995357248
 20
-1.6490549511
 30
0.0
 11
1778.2139096939
 21
-61.9625449455
 31
0.0
  0
LINE
  5
385
100
AcDbEntity
  8
L1_120
  6
CONTINUOUS
 62
         7
100
AcDbLine
 10
1783.8090397248
 20
-1.6490549511
 30
0.0
 11
1780.9234136939
 21
-61.9625449455
 31
0.0
  0
LINE
  5
386
100
AcDbEntity
  8
L1_120
  6
CONTINUOUS
 62
         7
100
AcDbLine
 10
1786.5185437248
 20
-1.6490549511
 30
0.0
 11
1783.6329176939
 21
-61.9625449455
 31
0.0
  0
LINE
  5
387
100
AcDbEntity
  8
L1_120
  6
CONTINUOUS
 62
         7
100
AcDbLine
 10
1789.2280477248
 20
-1.6490549511
 30
0.0
 11
1786.3424216939
 21
-61.9625449455
 31
0.0
  0
LINE
  5
388
100
AcDbEntity
  8
L1_120
  6
CONTINUOUS
 62
         7
100
AcDbLine
 10
1785.3053772721
 20
-27.0058759405
 30
0.0
 11
1783.8090397248
 21
-1.6490549511
 31
0.0
  0
LINE
  5
389
100
AcDbEntity
  8
L1_120
  6
CONTINUOUS
 62
         7
100
AcDbLine
 10
1783.6329176939
 20
-61.9625449455
 30
0.0
 11
1782.534763157
 21
-28.2831600631
 31
0.0
  0
LINE
  5
38A
100
AcDbEntity
  8
L1_120
  6
CONTINUOUS
 62
         7
100
AcDbLine
 10
1779.8863692721
 20
-27.0058759405
 30
0.0
 11
1778.3900317248
 21
-1.6490549511
 31
0.0
  0
LINE
  5
38B
100
AcDbEntity
  8
L1_120
  6
CONTINUOUS
 62
         7
100
AcDbLine
 10
1778.2139096939
 20
-61.9625449454
 30
0.0
 11
1777.115755157
 21
-28.2831600631
 31
0.0
  0
LINE
  5
38C
100
AcDbEntity
  8
L1_120
  6
CONTINUOUS
 62
         7
100
AcDbLine
 10
1774.4673612721
 20
-27.0058759405
 30
0.0
 11
1772.9710237248
 21
-1.6490549511
 31
0.0
  0
LINE
  5
38D
100
AcDbEntity
  8
L1_120
  6
CONTINUOUS
 62
         7
100
AcDbLine
 10
1772.7949016939
 20
-61.9625449454
 30
0.0
 11
1771.696747157
 21
-28.2831600631
 31
0.0
  0
LINE
  5
38E
100
AcDbEntity
  8
L1_120
  6
CONTINUOUS
 62
         7
100
AcDbLine
 10
1769.0483532721
 20
-27.0058759405
 30
0.0
 11
1767.5520157248
 21
-1.6490549511
 31
0.0
  0
LINE
  5
38F
100
AcDbEntity
  8
L1_120
  6
CONTINUOUS
 62
         7
100
AcDbLine
 10
1767.3758936939
 20
-61.9625449455
 30
0.0
 11
1766.277739157
 21
-28.2831600631
 31
0.0
  0
LINE
  5
390
100
AcDbEntity
  8
L1_120
  6
CONTINUOUS
 62
         7
100
AcDbLine
 10
1763.6293452721
 20
-27.0058759405
 30
0.0
 11
1762.1330077248
 21
-1.6490549511
 31
0.0
  0
LINE
  5
391
100
AcDbEntity
  8
L1_120
  6
CONTINUOUS
 62
         7
100
AcDbLine
 10
1761.9568856939
 20
-61.9625449455
 30
0.0
 11
1760.858731157
 21
-28.2831600631
 31
0.0
  0
LINE
  5
392
100
AcDbEntity
  8
L1_120
  6
CONTINUOUS
 62
         7
100
AcDbLine
 10
1758.2400687921
 20
-26.384446929
 30
0.0
 11
1756.7597925813
 21
-1.2998001128
 31
0.0
  0
LINE
  5
393
100
AcDbEntity
  8
L1_120
  6
CONTINUOUS
 62
         7
100
AcDbLine
 10
1756.5836705504
 20
-61.6132901071
 30
0.0
 11
1755.4737286801
 21
-27.5723986014
 31
0.0
  0
DIMENSION
  5
396
100
AcDbEntity
  8
L1_120
  6
CONTINUOUS
 62
         4
100
AcDbDimension
  2
*D5
 10
1523.906288096
 20
-107.2763578369
 30
0.0
 11
1527.004059348
 21
-103.1398200307
 31
0.0
 70
         3
  3
DIMSTYLE2
100
AcDbDiametricDimension
 15
1567.6156088135
 25
-72.4910709691
 35
0.0
 40
0.0
  0
LINE
  5
3A0
100
AcDbEntity
  8
L1_120
  6
CENTER
 62
         1
100
AcDbLine
 10
1582.0375983655
 20
-88.383298915
 30
0.0
 11
1505.8086640328
 21
-88.383298915
 31
0.0
  0
CIRCLE
  5
3A1
100
AcDbEntity
  8
L1_120
  6
CONTINUOUS
 62
         7
100
AcDbCircle
 10
1554.9942745347
 20
-123.354521443
 30
0.0
 40
2.30833152
  0
CIRCLE
  5
3A2
100
AcDbEntity
  8
L1_120
  6
CONTINUOUS
 62
         7
100
AcDbCircle
 10
1536.5276223747
 20
-123.354521443
 30
0.0
 40
2.30833152
  0
LINE
  5
3A3
100
AcDbEntity
  8
L1_120
  6
CONTINUOUS
 62
         7
100
AcDbLine
 10
1541.1442854147
 20
-127.971184483
 30
0.0
 11
1536.5276223747
 21
-127.971184483
 31
0.0
  0
LINE
  5
3A4
100
AcDbEntity
  8
L1_120
  6
CONTINUOUS
 62
         7
100
AcDbLine
 10
1554.9942745347
 20
-127.971184483
 30
0.0
 11
1550.3776114947
 21
-127.971184483
 31
0.0
  0
ARC
  5
3A5
100
AcDbEntity
  8
L1_120
  6
CONTINUOUS
 62
         7
100
AcDbCircle
 10
1554.9942745347
 20
-123.354521443
 30
0.0
 40
4.61666304
100
AcDbArc
 50
270.0
 51
360.0
  0
LINE
  5
3A6
100
AcDbEntity
  8
L1_120
  6
CONTINUOUS
 62
         7
100
AcDbLine
 10
1559.6109375747
 20
-123.354521443
 30
0.0
 11
1559.6109375747
 21
-121.826434337
 31
0.0
  0
ARC
  5
3A7
100
AcDbEntity
  8
L1_120
  6
CONTINUOUS
 62
         7
100
AcDbCircle
 10
1564.2276006148
 20
-121.826434337
 30
0.0
 40
4.61666304
100
AcDbArc
 50
118.906630073
 51
180.0000000001
  0
ARC
  5
3A8
100
AcDbEntity
  8
L1_120
  6
CONTINUOUS
 62
         7
100
AcDbCircle
 10
1545.7609484547
 20
-88.383298915
 30
0.0
 40
33.586223616
100
AcDbArc
 50
298.906630073
 51
601.093369927
  0
ARC
  5
3A9
100
AcDbEntity
  8
L1_120
  6
CONTINUOUS
 62
         7
100
AcDbCircle
 10
1536.5276223747
 20
-123.354521443
 30
0.0
 40
4.61666304
100
AcDbArc
 50
180.0
 51
270.0
  0
LINE
  5
3AA
100
AcDbEntity
  8
L1_120
  6
CONTINUOUS
 62
         7
100
AcDbLine
 10
1531.9109593347
 20
-123.354521443
 30
0.0
 11
1531.9109593347
 21
-121.826434337
 31
0.0
  0
ARC
  5
3AB
100
AcDbEntity
  8
L1_120
  6
CONTINUOUS
 62
         7
100
AcDbCircle
 10
1527.2942962947
 20
-121.826434337
 30
0.0
 40
4.61666304
100
AcDbArc
 50
0.0
 51
61.0933699271
  0
LINE
  5
3AC
100
AcDbEntity
  8
L1_120
  6
CONTINUOUS
 62
         7
100
AcDbLine
 10
1541.1442854147
 20
-127.971184483
 30
0.0
 11
1541.1442854147
 21
-117.4303411909
 31
0.0
  0
LINE
  5
3AD
100
AcDbEntity
  8
L1_120
  6
CONTINUOUS
 62
         7
100
AcDbLine
 10
1550.3776114947
 20
-127.971184483
 30
0.0
 11
1550.3776114947
 21
-117.4303411909
 31
0.0
  0
ARC
  5
3AE
100
AcDbEntity
  8
L1_120
  6
CONTINUOUS
 62
         7
100
AcDbCircle
 10
1545.7609484547
 20
-89.883714403
 30
0.0
 40
27.930811392
100
AcDbArc
 50
279.5140383561
 51
620.4859616439
  0
LINE
  5
3AF
100
AcDbEntity
  8
L1_120
  6
CENTER
 62
         1
100
AcDbLine
 10
1545.7609484547
 20
-128.9060631335
 30
0.0
 11
1545.7609484547
 21
-51.4123408955
 31
0.0
  0
POLYLINE
  5
3B1
100
AcDbEntity
  8
L1_120
  6
CONTINUOUS
 62
         7
100
AcDb2dPolyline
 66
         1
 10
0.0
 20
0.0
 30
0.0
 70
         2
  0
VERTEX
  5
3B3
100
AcDbEntity
  8
L1_120
  6
CONTINUOUS
 62
         7
100
AcDbVertex
100
AcDb2dVertex
 10
1460.3033403763
 20
2.0566652593
 30
0.0
 70
         1
  0
VERTEX
  5
3B5
100
AcDbEntity
  8
L1_120
  6
CONTINUOUS
 62
         7
100
AcDbVertex
100
AcDb2dVertex
 10
1460.3429597537
 20
1.5181971888
 30
0.0
 70
         1
  0
VERTEX
  5
3B7
100
AcDbEntity
  8
L1_120
  6
CONTINUOUS
 62
         7
100
AcDbVertex
100
AcDb2dVertex
 10
1460.3949059099
 20
1.2404407839
 30
0.0
 70
         1
  0
VERTEX
  5
3B9
100
AcDbEntity
  8
L1_120
  6
CONTINUOUS
 62
         7
100
AcDbVertex
100
AcDb2dVertex
 10
1460.4701298323
 20
0.959716123
 30
0.0
 70
         1
  0
VERTEX
  5
3BB
100
AcDbEntity
  8
L1_120
  6
CONTINUOUS
 62
         7
100
AcDbVertex
100
AcDb2dVertex
 10
1460.5696486889
 20
0.6783956092
 30
0.0
 70
         1
  0
VERTEX
  5
3BD
100
AcDbEntity
  8
L1_120
  6
CONTINUOUS
 62
         7
100
AcDbVertex
100
AcDb2dVertex
 10
1460.6940967631
 20
0.3990701971
 30
0.0
 70
         1
  0
VERTEX
  5
3BF
100
AcDbEntity
  8
L1_120
  6
CONTINUOUS
 62
         7
100
AcDbVertex
100
AcDb2dVertex
 10
1460.843665225
 20
0.124486886
 30
0.0
 70
         1
  0
VERTEX
  5
3C1
100
AcDbEntity
  8
L1_120
  6
CONTINUOUS
 62
         7
100
AcDbVertex
100
AcDb2dVertex
 10
1461.0180570371
 20
-0.1425287244
 30
0.0
 70
         1
  0
VERTEX
  5
3C3
100
AcDbEntity
  8
L1_120
  6
CONTINUOUS
 62
         7
100
AcDbVertex
100
AcDb2dVertex
 10
1461.2164620225
 20
-0.3991612185
 30
0.0
 70
         1
  0
VERTEX
  5
3C5
100
AcDbEntity
  8
L1_120
  6
CONTINUOUS
 62
         7
100
AcDbVertex
100
AcDb2dVertex
 10
1461.4375558753
 20
-0.6427003712
 30
0.0
 70
         1
  0
VERTEX
  5
3C7
100
AcDbEntity
  8
L1_120
  6
CONTINUOUS
 62
         7
100
AcDbVertex
100
AcDb2dVertex
 10
1461.6795250214
 20
-0.87063615
 30
0.0
 70
         1
  0
VERTEX
  5
3C9
100
AcDbEntity
  8
L1_120
  6
CONTINUOUS
 62
         7
100
AcDbVertex
100
AcDb2dVertex
 10
1461.9401169552
 20
-1.0807470304
 30
0.0
 70
         1
  0
VERTEX
  5
3CB
100
AcDbEntity
  8
L1_120
  6
CONTINUOUS
 62
         7
100
AcDbVertex
100
AcDb2dVertex
 10
1462.216713283
 20
-1.271175245
 30
0.0
 70
         1
  0
VERTEX
  5
3CD
100
AcDbEntity
  8
L1_120
  6
CONTINUOUS
 62
         7
100
AcDbVertex
100
AcDb2dVertex
 10
1462.5064205494
 20
-1.4404836725
 30
0.0
 70
         1
  0
VERTEX
  5
3CF
100
AcDbEntity
  8
L1_120
  6
CONTINUOUS
 62
         7
100
AcDbVertex
100
AcDb2dVertex
 10
1462.806172329
 20
-1.587690774
 30
0.0
 70
         1
  0
VERTEX
  5
3D1
100
AcDbEntity
  8
L1_120
  6
CONTINUOUS
 62
         7
100
AcDbVertex
100
AcDb2dVertex
 10
1463.1128352576
 20
-1.7122820792
 30
0.0
 70
         1
  0
VERTEX
  5
3D3
100
AcDbEntity
  8
L1_120
  6
CONTINUOUS
 62
         7
100
AcDbVertex
100
AcDb2dVertex
 10
1463.4233117451
 20
-1.8141988739
 30
0.0
 70
         1
  0
VERTEX
  5
3D5
100
AcDbEntity
  8
L1_120
  6
CONTINUOUS
 62
         7
100
AcDbVertex
100
AcDb2dVertex
 10
1463.7346329765
 20
-1.8938066646
 30
0.0
 70
         1
  0
VERTEX
  5
3D7
100
AcDbEntity
  8
L1_120
  6
CONTINUOUS
 62
         7
100
AcDbVertex
100
AcDb2dVertex
 10
1464.0440372798
 20
-1.9518474359
 30
0.0
 70
         1
  0
VERTEX
  5
3D9
100
AcDbEntity
  8
L1_120
  6
CONTINUOUS
 62
         7
100
AcDbVertex
100
AcDb2dVertex
 10
1464.4515107636
 20
-1.9977102242
 30
0.0
 70
         1
  0
VERTEX
  5
3DB
100
AcDbEntity
  8
L1_120
  6
CONTINUOUS
 62
         7
100
AcDbVertex
100
AcDb2dVertex
 10
1464.845969066
 20
-2.0099766278
 30
0.0
 70
         1
  0
VERTEX
  5
3DD
100
AcDbEntity
  8
L1_120
  6
CONTINUOUS
 62
         7
100
AcDbVertex
100
AcDb2dVertex
 10
1465.2233669307
 20
-1.9924048336
 30
0.0
 70
         1
  0
VERTEX
  5
3DF
100
AcDbEntity
  8
L1_120
  6
CONTINUOUS
 62
         7
100
AcDbVertex
100
AcDb2dVertex
 10
1465.5807349629
 20
-1.9490141603
 30
0.0
 70
         1
  0
VERTEX
  5
3E1
100
AcDbEntity
  8
L1_120
  6
CONTINUOUS
 62
         7
100
AcDbVertex
100
AcDb2dVertex
 10
1465.9161057784
 20
-1.8838588292
 30
0.0
 70
         1
  0
VERTEX
  5
3E3
100
AcDbEntity
  8
L1_120
  6
CONTINUOUS
 62
         7
100
AcDbVertex
100
AcDb2dVertex
 10
1466.2283942808
 20
-1.8008513933
 30
0.0
 70
         1
  0
VERTEX
  5
3E5
100
AcDbEntity
  8
L1_120
  6
CONTINUOUS
 62
         7
100
AcDbVertex
100
AcDb2dVertex
 10
1466.6110091345
 20
-1.6676084217
 30
0.0
 70
         1
  0
VERTEX
  5
3E7
100
AcDbEntity
  8
L1_120
  6
CONTINUOUS
 62
         7
100
AcDbVertex
100
AcDb2dVertex
 10
1466.9521952411
 20
-1.5165242405
 30
0.0
 70
         1
  0
VERTEX
  5
3E9
100
AcDbEntity
  8
L1_120
  6
CONTINUOUS
 62
         7
100
AcDbVertex
100
AcDb2dVertex
 10
1467.254037276
 20
-1.3541655486
 30
0.0
 70
         1
  0
VERTEX
  5
3EB
100
AcDbEntity
  8
L1_120
  6
CONTINUOUS
 62
         7
100
AcDbVertex
100
AcDb2dVertex
 10
1467.5194269829
 20
-1.1858397429
 30
0.0
 70
         1
  0
VERTEX
  5
3ED
100
AcDbEntity
  8
L1_120
  6
CONTINUOUS
 62
         7
100
AcDbVertex
100
AcDb2dVertex
 10
1467.7516664486
 20
-1.0156973783
 30
0.0
 70
         1
  0
VERTEX
  5
3EF
100
AcDbEntity
  8
L1_120
  6
CONTINUOUS
 62
         7
100
AcDbVertex
100
AcDb2dVertex
 10
1468.0180610238
 20
-0.7891176773
 30
0.0
 70
         1
  0
VERTEX
  5
3F1
100
AcDbEntity
  8
L1_120
  6
CONTINUOUS
 62
         7
100
AcDbVertex
100
AcDb2dVertex
 10
1468.2386460986
 20
-0.5701963583
 30
0.0
 70
         1
  0
VERTEX
  5
3F3
100
AcDbEntity
  8
L1_120
  6
CONTINUOUS
 62
         7
100
AcDbVertex
100
AcDb2dVertex
 10
1468.4208285008
 20
-0.3622130118
 30
0.0
 70
         1
  0
VERTEX
  5
3F5
100
AcDbEntity
  8
L1_120
  6
CONTINUOUS
 62
         7
100
AcDbVertex
100
AcDb2dVertex
 10
1468.6174101674
 20
-0.1015248658
 30
0.0
 70
         1
  0
VERTEX
  5
3F7
100
AcDbEntity
  8
L1_120
  6
CONTINUOUS
 62
         7
100
AcDbVertex
100
AcDb2dVertex
 10
1468.7689298121
 20
0.1344190124
 30
0.0
 70
         1
  0
VERTEX
  5
3F9
100
AcDbEntity
  8
L1_120
  6
CONTINUOUS
 62
         7
100
AcDbVertex
100
AcDb2dVertex
 10
1468.9209516485
 20
0.4161174401
 30
0.0
 70
         1
  0
VERTEX
  5
3FB
100
AcDbEntity
  8
L1_120
  6
CONTINUOUS
 62
         7
100
AcDbVertex
100
AcDb2dVertex
 10
1469.0283292699
 20
0.656754146
 30
0.0
 70
         1
  0
VERTEX
  5
3FD
100
AcDbEntity
  8
L1_120
  6
CONTINUOUS
 62
         7
100
AcDbVertex
100
AcDb2dVertex
 10
1469.1267499707
 20
0.9285728542
 30
0.0
 70
         1
  0
VERTEX
  5
3FF
100
AcDbEntity
  8
L1_120
  6
CONTINUOUS
 62
         7
100
AcDbVertex
100
AcDb2dVertex
 10
1469.2063146666
 20
1.2167144037
 30
0.0
 70
         1
  0
VERTEX
  5
401
100
AcDbEntity
  8
L1_120
  6
CONTINUOUS
 62
         7
100
AcDbVertex
100
AcDb2dVertex
 10
1469.2605943148
 20
1.4974507909
 30
0.0
 70
         1
  0
VERTEX
  5
403
100
AcDbEntity
  8
L1_120
  6
CONTINUOUS
 62
         7
100
AcDbVertex
100
AcDb2dVertex
 10
1469.2898071399
 20
1.7415000839
 30
0.0
 70
         1
  0
VERTEX
  5
405
100
AcDbEntity
  8
L1_120
  6
CONTINUOUS
 62
         7
100
AcDbVertex
100
AcDb2dVertex
 10
1469.3025405839
 20
1.9799938431
 30
0.0
 70
         1
  0
VERTEX
  5
407
100
AcDbEntity
  8
L1_120
  6
CONTINUOUS
 62
         7
100
AcDbVertex
100
AcDb2dVertex
 10
1469.3033403763
 20
2.0566652593
 30
0.0
 70
         1
  0
SEQEND
  5
409
100
AcDbEntity
  8
L1_120
  6
CONTINUOUS
 62
         7
  0
POLYLINE
  5
40B
100
AcDbEntity
  8
L1_120
  6
CONTINUOUS
 62
         7
100
AcDb2dPolyline
 66
         1
 10
0.0
 20
0.0
 30
0.0
 70
         2
  0
VERTEX
  5
40D
100
AcDbEntity
  8
L1_120
  6
CONTINUOUS
 62
         7
100
AcDbVertex
100
AcDb2dVertex
 10
1469.3033403763
 20
2.0566658501
 30
0.0
 70
         1
  0
VERTEX
  5
40F
100
AcDbEntity
  8
L1_120
  6
CONTINUOUS
 62
         7
100
AcDbVertex
100
AcDb2dVertex
 10
1469.2637209055
 20
2.5501929741
 30
0.0
 70
         1
  0
VERTEX
  5
411
100
AcDbEntity
  8
L1_120
  6
CONTINUOUS
 62
         7
100
AcDbVertex
100
AcDb2dVertex
 10
1469.2117747031
 20
2.8047676143
 30
0.0
 70
         1
  0
VERTEX
  5
413
100
AcDbEntity
  8
L1_120
  6
CONTINUOUS
 62
         7
100
AcDbVertex
100
AcDb2dVertex
 10
1469.1365507363
 20
3.0620627718
 30
0.0
 70
         1
  0
VERTEX
  5
415
100
AcDbEntity
  8
L1_120
  6
CONTINUOUS
 62
         7
100
AcDbVertex
100
AcDb2dVertex
 10
1469.0370318384
 20
3.3199040464
 30
0.0
 70
         1
  0
VERTEX
  5
417
100
AcDbEntity
  8
L1_120
  6
CONTINUOUS
 62
         7
100
AcDbVertex
100
AcDb2dVertex
 10
1468.9125837274
 20
3.5759167264
 30
0.0
 70
         1
  0
VERTEX
  5
419
100
AcDbEntity
  8
L1_120
  6
CONTINUOUS
 62
         7
100
AcDbVertex
100
AcDb2dVertex
 10
1468.7630152341
 20
3.8275830797
 30
0.0
 70
         1
  0
VERTEX
  5
41B
100
AcDbEntity
  8
L1_120
  6
CONTINUOUS
 62
         7
100
AcDbVertex
100
AcDb2dVertex
 10
1468.5886233974
 20
4.072313334
 30
0.0
 70
         1
  0
VERTEX
  5
41D
100
AcDbEntity
  8
L1_120
  6
CONTINUOUS
 62
         7
100
AcDbVertex
100
AcDb2dVertex
 10
1468.3902183949
 20
4.3075270513
 30
0.0
 70
         1
  0
VERTEX
  5
41F
100
AcDbEntity
  8
L1_120
  6
CONTINUOUS
 62
         7
100
AcDbVertex
100
AcDb2dVertex
 10
1468.1691245334
 20
4.5307402049
 30
0.0
 70
         1
  0
VERTEX
  5
421
100
AcDbEntity
  8
L1_120
  6
CONTINUOUS
 62
         7
100
AcDbVertex
100
AcDb2dVertex
 10
1467.9271553872
 20
4.7396522528
 30
0.0
 70
         1
  0
VERTEX
  5
423
100
AcDbEntity
  8
L1_120
  6
CONTINUOUS
 62
         7
100
AcDbVertex
100
AcDb2dVertex
 10
1467.666563462
 20
4.9322270816
 30
0.0
 70
         1
  0
VERTEX
  5
425
100
AcDbEntity
  8
L1_120
  6
CONTINUOUS
 62
         7
100
AcDbVertex
100
AcDb2dVertex
 10
1467.3899671512
 20
5.106761976
 30
0.0
 70
         1
  0
VERTEX
  5
427
100
AcDbEntity
  8
L1_120
  6
CONTINUOUS
 62
         7
100
AcDbVertex
100
AcDb2dVertex
 10
1467.1002599096
 20
5.2619397588
 30
0.0
 70
         1
  0
VERTEX
  5
429
100
AcDbEntity
  8
L1_120
  6
CONTINUOUS
 62
         7
100
AcDbVertex
100
AcDb2dVertex
 10
1466.8005081618
 20
5.3968608124
 30
0.0
 70
         1
  0
VERTEX
  5
42B
100
AcDbEntity
  8
L1_120
  6
CONTINUOUS
 62
         7
100
AcDbVertex
100
AcDb2dVertex
 10
1466.4938452709
 20
5.5110536051
 30
0.0
 70
         1
  0
VERTEX
  5
42D
100
AcDbEntity
  8
L1_120
  6
CONTINUOUS
 62
         7
100
AcDbVertex
100
AcDb2dVertex
 10
1466.1833688256
 20
5.6044643238
 30
0.0
 70
         1
  0
VERTEX
  5
42F
100
AcDbEntity
  8
L1_120
  6
CONTINUOUS
 62
         7
100
AcDbVertex
100
AcDb2dVertex
 10
1465.7663129171
 20
5.6977241955
 30
0.0
 70
         1
  0
VERTEX
  5
431
100
AcDbEntity
  8
L1_120
  6
CONTINUOUS
 62
         7
100
AcDbVertex
100
AcDb2dVertex
 10
1465.3542533422
 20
5.7560310776
 30
0.0
 70
         1
  0
VERTEX
  5
433
100
AcDbEntity
  8
L1_120
  6
CONTINUOUS
 62
         7
100
AcDbVertex
100
AcDb2dVertex
 10
1464.9528200697
 20
5.7820125192
 30
0.0
 70
         1
  0
VERTEX
  5
435
100
AcDbEntity
  8
L1_120
  6
CONTINUOUS
 62
         7
100
AcDbVertex
100
AcDb2dVertex
 10
1464.5665941741
 20
5.7789075219
 30
0.0
 70
         1
  0
VERTEX
  5
437
100
AcDbEntity
  8
L1_120
  6
CONTINUOUS
 62
         7
100
AcDbVertex
100
AcDb2dVertex
 10
1464.1990687712
 20
5.750310726
 30
0.0
 70
         1
  0
VERTEX
  5
439
100
AcDbEntity
  8
L1_120
  6
CONTINUOUS
 62
         7
100
AcDbVertex
100
AcDb2dVertex
 10
1463.8526914128
 20
5.6999454108
 30
0.0
 70
         1
  0
VERTEX
  5
43B
100
AcDbEntity
  8
L1_120
  6
CONTINUOUS
 62
         7
100
AcDbVertex
100
AcDb2dVertex
 10
1463.5289642257
 20
5.6314786863
 30
0.0
 70
         1
  0
VERTEX
  5
43D
100
AcDbEntity
  8
L1_120
  6
CONTINUOUS
 62
         7
100
AcDbVertex
100
AcDb2dVertex
 10
1463.1308990185
 20
5.517081016
 30
0.0
 70
         1
  0
VERTEX
  5
43F
100
AcDbEntity
  8
L1_120
  6
CONTINUOUS
 62
         7
100
AcDbVertex
100
AcDb2dVertex
 10
1462.7747265896
 20
5.3838336617
 30
0.0
 70
         1
  0
VERTEX
  5
441
100
AcDbEntity
  8
L1_120
  6
CONTINUOUS
 62
         7
100
AcDbVertex
100
AcDb2dVertex
 10
1462.4587798663
 20
5.2381854633
 30
0.0
 70
         1
  0
VERTEX
  5
443
100
AcDbEntity
  8
L1_120
  6
CONTINUOUS
 62
         7
100
AcDbVertex
100
AcDb2dVertex
 10
1462.1804104809
 20
5.0854162255
 30
0.0
 70
         1
  0
VERTEX
  5
445
100
AcDbEntity
  8
L1_120
  6
CONTINUOUS
 62
         7
100
AcDbVertex
100
AcDb2dVertex
 10
1461.9364277917
 20
4.9297038441
 30
0.0
 70
         1
  0
VERTEX
  5
447
100
AcDbEntity
  8
L1_120
  6
CONTINUOUS
 62
         7
100
AcDbVertex
100
AcDb2dVertex
 10
1461.6561952366
 20
4.7208801656
 30
0.0
 70
         1
  0
VERTEX
  5
449
100
AcDbEntity
  8
L1_120
  6
CONTINUOUS
 62
         7
100
AcDbVertex
100
AcDb2dVertex
 10
1461.4239214323
 20
4.5179548698
 30
0.0
 70
         1
  0
VERTEX
  5
44B
100
AcDbEntity
  8
L1_120
  6
CONTINUOUS
 62
         7
100
AcDbVertex
100
AcDb2dVertex
 10
1461.2319794711
 20
4.3243926685
 30
0.0
 70
         1
  0
VERTEX
  5
44D
100
AcDbEntity
  8
L1_120
  6
CONTINUOUS
 62
         7
100
AcDbVertex
100
AcDb2dVertex
 10
1461.0248188633
 20
4.0809987866
 30
0.0
 70
         1
  0
VERTEX
  5
44F
100
AcDbEntity
  8
L1_120
  6
CONTINUOUS
 62
         7
100
AcDbVertex
100
AcDb2dVertex
 10
1460.8651597589
 20
3.8601677726
 30
0.0
 70
         1
  0
VERTEX
  5
451
100
AcDbEntity
  8
L1_120
  6
CONTINUOUS
 62
         7
100
AcDbVertex
100
AcDb2dVertex
 10
1460.7050392836
 20
3.5960622525
 30
0.0
 70
         1
  0
VERTEX
  5
453
100
AcDbEntity
  8
L1_120
  6
CONTINUOUS
 62
         7
100
AcDbVertex
100
AcDb2dVertex
 10
1460.5920223015
 20
3.3702125604
 30
0.0
 70
         1
  0
VERTEX
  5
455
100
AcDbEntity
  8
L1_120
  6
CONTINUOUS
 62
         7
100
AcDbVertex
100
AcDb2dVertex
 10
1460.4885312982
 20
3.1149688904
 30
0.0
 70
         1
  0
VERTEX
  5
457
100
AcDbEntity
  8
L1_120
  6
CONTINUOUS
 62
         7
100
AcDbVertex
100
AcDb2dVertex
 10
1460.4049759029
 20
2.8443852195
 30
0.0
 70
         1
  0
VERTEX
  5
459
100
AcDbEntity
  8
L1_120
  6
CONTINUOUS
 62
         7
100
AcDbVertex
100
AcDb2dVertex
 10
1460.3480627724
 20
2.5808640842
 30
0.0
 70
         1
  0
VERTEX
  5
45B
100
AcDbEntity
  8
L1_120
  6
CONTINUOUS
 62
         7
100
AcDbVertex
100
AcDb2dVertex
 10
1460.3174830998
 20
2.3519494995
 30
0.0
 70
         1
  0
VERTEX
  5
45D
100
AcDbEntity
  8
L1_120
  6
CONTINUOUS
 62
         7
100
AcDbVertex
100
AcDb2dVertex
 10
1460.3041751992
 20
2.128459942
 30
0.0
 70
         1
  0
VERTEX
  5
45F
100
AcDbEntity
  8
L1_120
  6
CONTINUOUS
 62
         7
100
AcDbVertex
100
AcDb2dVertex
 10
1460.3033403763
 20
2.056665878
 30
0.0
 70
         1
  0
SEQEND
  5
461
100
AcDbEntity
  8
L1_120
  6
CONTINUOUS
 62
         7
  0
LINE
  5
462
100
AcDbEntity
  8
L1_120
  6
CENTER
 62
         1
100
AcDbLine
 10
1469.3033403763
 20
2.0566652593
 30
0.0
 11
1460.3033403763
 21
2.0566652593
 31
0.0
  0
LINE
  5
463
100
AcDbEntity
  8
L1_120
  6
CENTER
 62
         1
100
AcDbLine
 10
1469.3033403763
 20
-27.9433347407
 30
0.0
 11
1460.3033403763
 21
-27.9433347407
 31
0.0
  0
POLYLINE
  5
465
100
AcDbEntity
  8
L1_120
  6
CONTINUOUS
 62
         7
100
AcDb2dPolyline
 66
         1
 10
0.0
 20
0.0
 30
0.0
 70
         2
  0
VERTEX
  5
467
100
AcDbEntity
  8
L1_120
  6
CONTINUOUS
 62
         7
100
AcDbVertex
100
AcDb2dVertex
 10
1460.3033403763
 20
-27.9433353594
 30
0.0
 70
         1
  0
VERTEX
  5
469
100
AcDbEntity
  8
L1_120
  6
CONTINUOUS
 62
         7
100
AcDbVertex
100
AcDb2dVertex
 10
1460.3429598521
 20
-28.4368624868
 30
0.0
 70
         1
  0
VERTEX
  5
46B
100
AcDbEntity
  8
L1_120
  6
CONTINUOUS
 62
         7
100
AcDbVertex
100
AcDb2dVertex
 10
1460.3949060575
 20
-28.6914371284
 30
0.0
 70
         1
  0
VERTEX
  5
46D
100
AcDbEntity
  8
L1_120
  6
CONTINUOUS
 62
         7
100
AcDbVertex
100
AcDb2dVertex
 10
1460.4701300277
 20
-28.9487322873
 30
0.0
 70
         1
  0
VERTEX
  5
46F
100
AcDbEntity
  8
L1_120
  6
CONTINUOUS
 62
         7
100
AcDbVertex
100
AcDb2dVertex
 10
1460.5696489294
 20
-29.2065735629
 30
0.0
 70
         1
  0
VERTEX
  5
471
100
AcDbEntity
  8
L1_120
  6
CONTINUOUS
 62
         7
100
AcDbVertex
100
AcDb2dVertex
 10
1460.6940970445
 20
-29.4625862436
 30
0.0
 70
         1
  0
VERTEX
  5
473
100
AcDbEntity
  8
L1_120
  6
CONTINUOUS
 62
         7
100
AcDbVertex
100
AcDb2dVertex
 10
1460.843665542
 20
-29.7142525973
 30
0.0
 70
         1
  0
VERTEX
  5
475
100
AcDbEntity
  8
L1_120
  6
CONTINUOUS
 62
         7
100
AcDbVertex
100
AcDb2dVertex
 10
1461.0180573832
 20
-29.9589828515
 30
0.0
 70
         1
  0
VERTEX
  5
477
100
AcDbEntity
  8
L1_120
  6
CONTINUOUS
 62
         7
100
AcDbVertex
100
AcDb2dVertex
 10
1461.2164623902
 20
-30.1941965684
 30
0.0
 70
         1
  0
VERTEX
  5
479
100
AcDbEntity
  8
L1_120
  6
CONTINUOUS
 62
         7
100
AcDbVertex
100
AcDb2dVertex
 10
1461.4375562563
 20
-30.417409721
 30
0.0
 70
         1
  0
VERTEX
  5
47B
100
AcDbEntity
  8
L1_120
  6
CONTINUOUS
 62
         7
100
AcDbVertex
100
AcDb2dVertex
 10
1461.679525407
 20
-30.6263217674
 30
0.0
 70
         1
  0
VERTEX
  5
47D
100
AcDbEntity
  8
L1_120
  6
CONTINUOUS
 62
         7
100
AcDbVertex
100
AcDb2dVertex
 10
1461.9401173366
 20
-30.8188965944
 30
0.0
 70
         1
  0
VERTEX
  5
47F
100
AcDbEntity
  8
L1_120
  6
CONTINUOUS
 62
         7
100
AcDbVertex
100
AcDb2dVertex
 10
1462.2167136514
 20
-30.9934314865
 30
0.0
 70
         1
  0
VERTEX
  5
481
100
AcDbEntity
  8
L1_120
  6
CONTINUOUS
 62
         7
100
AcDbVertex
100
AcDb2dVertex
 10
1462.5064208969
 20
-31.1486092667
 30
0.0
 70
         1
  0
VERTEX
  5
483
100
AcDbEntity
  8
L1_120
  6
CONTINUOUS
 62
         7
100
AcDbVertex
100
AcDb2dVertex
 10
1462.806172648
 20
-31.2835303172
 30
0.0
 70
         1
  0
VERTEX
  5
485
100
AcDbEntity
  8
L1_120
  6
CONTINUOUS
 62
         7
100
AcDbVertex
100
AcDb2dVertex
 10
1463.1128355418
 20
-31.3977231066
 30
0.0
 70
         1
  0
VERTEX
  5
487
100
AcDbEntity
  8
L1_120
  6
CONTINUOUS
 62
         7
100
AcDbVertex
100
AcDb2dVertex
 10
1463.4233119896
 20
-31.4911338218
 30
0.0
 70
         1
  0
VERTEX
  5
489
100
AcDbEntity
  8
L1_120
  6
CONTINUOUS
 62
         7
100
AcDbVertex
100
AcDb2dVertex
 10
1463.8403679005
 20
-31.5843936886
 30
0.0
 70
         1
  0
VERTEX
  5
48B
100
AcDbEntity
  8
L1_120
  6
CONTINUOUS
 62
         7
100
AcDbVertex
100
AcDb2dVertex
 10
1464.252427477
 20
-31.6427005657
 30
0.0
 70
         1
  0
VERTEX
  5
48D
100
AcDbEntity
  8
L1_120
  6
CONTINUOUS
 62
         7
100
AcDbVertex
100
AcDb2dVertex
 10
1464.6538607502
 20
-31.6686820024
 30
0.0
 70
         1
  0
VERTEX
  5
48F
100
AcDbEntity
  8
L1_120
  6
CONTINUOUS
 62
         7
100
AcDbVertex
100
AcDb2dVertex
 10
1465.0400866456
 20
-31.6655770003
 30
0.0
 70
         1
  0
VERTEX
  5
491
100
AcDbEntity
  8
L1_120
  6
CONTINUOUS
 62
         7
100
AcDbVertex
100
AcDb2dVertex
 10
1465.4076120478
 20
-31.6369801999
 30
0.0
 70
         1
  0
VERTEX
  5
493
100
AcDbEntity
  8
L1_120
  6
CONTINUOUS
 62
         7
100
AcDbVertex
100
AcDb2dVertex
 10
1465.7539894048
 20
-31.5866148804
 30
0.0
 70
         1
  0
VERTEX
  5
495
100
AcDbEntity
  8
L1_120
  6
CONTINUOUS
 62
         7
100
AcDbVertex
100
AcDb2dVertex
 10
1466.0777165901
 20
-31.5181481521
 30
0.0
 70
         1
  0
VERTEX
  5
497
100
AcDbEntity
  8
L1_120
  6
CONTINUOUS
 62
         7
100
AcDbVertex
100
AcDb2dVertex
 10
1466.4757817943
 20
-31.4037504774
 30
0.0
 70
         1
  0
VERTEX
  5
499
100
AcDbEntity
  8
L1_120
  6
CONTINUOUS
 62
         7
100
AcDbVertex
100
AcDb2dVertex
 10
1466.8319542198
 20
-31.2705031192
 30
0.0
 70
         1
  0
VERTEX
  5
49B
100
AcDbEntity
  8
L1_120
  6
CONTINUOUS
 62
         7
100
AcDbVertex
100
AcDb2dVertex
 10
1467.1479009395
 20
-31.1248549177
 30
0.0
 70
         1
  0
VERTEX
  5
49D
100
AcDbEntity
  8
L1_120
  6
CONTINUOUS
 62
         7
100
AcDbVertex
100
AcDb2dVertex
 10
1467.4262703212
 20
-30.9720856773
 30
0.0
 70
         1
  0
VERTEX
  5
49F
100
AcDbEntity
  8
L1_120
  6
CONTINUOUS
 62
         7
100
AcDbVertex
100
AcDb2dVertex
 10
1467.6702530068
 20
-30.8163732939
 30
0.0
 70
         1
  0
VERTEX
  5
4A1
100
AcDbEntity
  8
L1_120
  6
CONTINUOUS
 62
         7
100
AcDbVertex
100
AcDb2dVertex
 10
1467.9504855573
 20
-30.6075496134
 30
0.0
 70
         1
  0
VERTEX
  5
4A3
100
AcDbEntity
  8
L1_120
  6
CONTINUOUS
 62
         7
100
AcDbVertex
100
AcDb2dVertex
 10
1468.1827593572
 20
-30.4046243164
 30
0.0
 70
         1
  0
VERTEX
  5
4A5
100
AcDbEntity
  8
L1_120
  6
CONTINUOUS
 62
         7
100
AcDbVertex
100
AcDb2dVertex
 10
1468.3747013144
 20
-30.2110621142
 30
0.0
 70
         1
  0
VERTEX
  5
4A7
100
AcDbEntity
  8
L1_120
  6
CONTINUOUS
 62
         7
100
AcDbVertex
100
AcDb2dVertex
 10
1468.5818619174
 20
-29.9676682318
 30
0.0
 70
         1
  0
VERTEX
  5
4A9
100
AcDbEntity
  8
L1_120
  6
CONTINUOUS
 62
         7
100
AcDbVertex
100
AcDb2dVertex
 10
1468.7415210178
 20
-29.7468372177
 30
0.0
 70
         1
  0
VERTEX
  5
4AB
100
AcDbEntity
  8
L1_120
  6
CONTINUOUS
 62
         7
100
AcDbVertex
100
AcDb2dVertex
 10
1468.9016414886
 20
-29.482731698
 30
0.0
 70
         1
  0
VERTEX
  5
4AD
100
AcDbEntity
  8
L1_120
  6
CONTINUOUS
 62
         7
100
AcDbVertex
100
AcDb2dVertex
 10
1469.014658467
 20
-29.2568820064
 30
0.0
 70
         1
  0
VERTEX
  5
4AF
100
AcDbEntity
  8
L1_120
  6
CONTINUOUS
 62
         7
100
AcDbVertex
100
AcDb2dVertex
 10
1469.1181494666
 20
-29.0016383374
 30
0.0
 70
         1
  0
VERTEX
  5
4B1
100
AcDbEntity
  8
L1_120
  6
CONTINUOUS
 62
         7
100
AcDbVertex
100
AcDb2dVertex
 10
1469.2017048583
 20
-28.7310546678
 30
0.0
 70
         1
  0
VERTEX
  5
4B3
100
AcDbEntity
  8
L1_120
  6
CONTINUOUS
 62
         7
100
AcDbVertex
100
AcDb2dVertex
 10
1469.2586179855
 20
-28.467533534
 30
0.0
 70
         1
  0
VERTEX
  5
4B5
100
AcDbEntity
  8
L1_120
  6
CONTINUOUS
 62
         7
100
AcDbVertex
100
AcDb2dVertex
 10
1469.2891976556
 20
-28.2386189508
 30
0.0
 70
         1
  0
VERTEX
  5
4B7
100
AcDbEntity
  8
L1_120
  6
CONTINUOUS
 62
         7
100
AcDbVertex
100
AcDb2dVertex
 10
1469.302505554
 20
-28.0151293949
 30
0.0
 70
         1
  0
VERTEX
  5
4B9
100
AcDbEntity
  8
L1_120
  6
CONTINUOUS
 62
         7
100
AcDbVertex
100
AcDb2dVertex
 10
1469.3033403763
 20
-27.9433353315
 30
0.0
 70
         1
  0
SEQEND
  5
4BB
100
AcDbEntity
  8
L1_120
  6
CONTINUOUS
 62
         7
  0
POLYLINE
  5
4BD
100
AcDbEntity
  8
L1_120
  6
CONTINUOUS
 62
         7
100
AcDb2dPolyline
 66
         1
 10
0.0
 20
0.0
 30
0.0
 70
         2
  0
VERTEX
  5
4BF
100
AcDbEntity
  8
L1_120
  6
CONTINUOUS
 62
         7
100
AcDbVertex
100
AcDb2dVertex
 10
1469.3033403763
 20
-27.9433347407
 30
0.0
 70
         1
  0
VERTEX
  5
4C1
100
AcDbEntity
  8
L1_120
  6
CONTINUOUS
 62
         7
100
AcDbVertex
100
AcDb2dVertex
 10
1469.2637209988
 20
-27.4048666702
 30
0.0
 70
         1
  0
VERTEX
  5
4C3
100
AcDbEntity
  8
L1_120
  6
CONTINUOUS
 62
         7
100
AcDbVertex
100
AcDb2dVertex
 10
1469.2117748426
 20
-27.1271102652
 30
0.0
 70
         1
  0
VERTEX
  5
4C5
100
AcDbEntity
  8
L1_120
  6
CONTINUOUS
 62
         7
100
AcDbVertex
100
AcDb2dVertex
 10
1469.1365509202
 20
-26.8463856044
 30
0.0
 70
         1
  0
VERTEX
  5
4C7
100
AcDbEntity
  8
L1_120
  6
CONTINUOUS
 62
         7
100
AcDbVertex
100
AcDb2dVertex
 10
1469.0370320636
 20
-26.5650650905
 30
0.0
 70
         1
  0
VERTEX
  5
4C9
100
AcDbEntity
  8
L1_120
  6
CONTINUOUS
 62
         7
100
AcDbVertex
100
AcDb2dVertex
 10
1468.9125839894
 20
-26.2857396784
 30
0.0
 70
         1
  0
VERTEX
  5
4CB
100
AcDbEntity
  8
L1_120
  6
CONTINUOUS
 62
         7
100
AcDbVertex
100
AcDb2dVertex
 10
1468.7630155275
 20
-26.0111563673
 30
0.0
 70
         1
  0
VERTEX
  5
4CD
100
AcDbEntity
  8
L1_120
  6
CONTINUOUS
 62
         7
100
AcDbVertex
100
AcDb2dVertex
 10
1468.5886237154
 20
-25.7441407569
 30
0.0
 70
         1
  0
VERTEX
  5
4CF
100
AcDbEntity
  8
L1_120
  6
CONTINUOUS
 62
         7
100
AcDbVertex
100
AcDb2dVertex
 10
1468.39021873
 20
-25.4875082628
 30
0.0
 70
         1
  0
VERTEX
  5
4D1
100
AcDbEntity
  8
L1_120
  6
CONTINUOUS
 62
         7
100
AcDbVertex
100
AcDb2dVertex
 10
1468.1691248772
 20
-25.2439691102
 30
0.0
 70
         1
  0
VERTEX
  5
4D3
100
AcDbEntity
  8
L1_120
  6
CONTINUOUS
 62
         7
100
AcDbVertex
100
AcDb2dVertex
 10
1467.9271557311
 20
-25.0160333313
 30
0.0
 70
         1
  0
VERTEX
  5
4D5
100
AcDbEntity
  8
L1_120
  6
CONTINUOUS
 62
         7
100
AcDbVertex
100
AcDb2dVertex
 10
1467.6665637973
 20
-24.805922451
 30
0.0
 70
         1
  0
VERTEX
  5
4D7
100
AcDbEntity
  8
L1_120
  6
CONTINUOUS
 62
         7
100
AcDbVertex
100
AcDb2dVertex
 10
1467.3899674696
 20
-24.6154942363
 30
0.0
 70
         1
  0
VERTEX
  5
4D9
100
AcDbEntity
  8
L1_120
  6
CONTINUOUS
 62
         7
100
AcDbVertex
100
AcDb2dVertex
 10
1467.1002602031
 20
-24.4461858088
 30
0.0
 70
         1
  0
VERTEX
  5
4DB
100
AcDbEntity
  8
L1_120
  6
CONTINUOUS
 62
         7
100
AcDbVertex
100
AcDb2dVertex
 10
1466.8005084235
 20
-24.2989787073
 30
0.0
 70
         1
  0
VERTEX
  5
4DD
100
AcDbEntity
  8
L1_120
  6
CONTINUOUS
 62
         7
100
AcDbVertex
100
AcDb2dVertex
 10
1466.493845495
 20
-24.1743874022
 30
0.0
 70
         1
  0
VERTEX
  5
4DF
100
AcDbEntity
  8
L1_120
  6
CONTINUOUS
 62
         7
100
AcDbVertex
100
AcDb2dVertex
 10
1466.1833690074
 20
-24.0724706074
 30
0.0
 70
         1
  0
VERTEX
  5
4E1
100
AcDbEntity
  8
L1_120
  6
CONTINUOUS
 62
         7
100
AcDbVertex
100
AcDb2dVertex
 10
1465.872047776
 20
-23.9928628168
 30
0.0
 70
         1
  0
VERTEX
  5
4E3
100
AcDbEntity
  8
L1_120
  6
CONTINUOUS
 62
         7
100
AcDbVertex
100
AcDb2dVertex
 10
1465.5626434728
 20
-23.9348220454
 30
0.0
 70
         1
  0
VERTEX
  5
4E5
100
AcDbEntity
  8
L1_120
  6
CONTINUOUS
 62
         7
100
AcDbVertex
100
AcDb2dVertex
 10
1465.1551699889
 20
-23.8889592571
 30
0.0
 70
         1
  0
VERTEX
  5
4E7
100
AcDbEntity
  8
L1_120
  6
CONTINUOUS
 62
         7
100
AcDbVertex
100
AcDb2dVertex
 10
1464.7607116865
 20
-23.8766928535
 30
0.0
 70
         1
  0
VERTEX
  5
4E9
100
AcDbEntity
  8
L1_120
  6
CONTINUOUS
 62
         7
100
AcDbVertex
100
AcDb2dVertex
 10
1464.3833138218
 20
-23.8942646477
 30
0.0
 70
         1
  0
VERTEX
  5
4EB
100
AcDbEntity
  8
L1_120
  6
CONTINUOUS
 62
         7
100
AcDbVertex
100
AcDb2dVertex
 10
1464.0259457896
 20
-23.9376553211
 30
0.0
 70
         1
  0
VERTEX
  5
4ED
100
AcDbEntity
  8
L1_120
  6
CONTINUOUS
 62
         7
100
AcDbVertex
100
AcDb2dVertex
 10
1463.6905749742
 20
-24.0028106521
 30
0.0
 70
         1
  0
VERTEX
  5
4EF
100
AcDbEntity
  8
L1_120
  6
CONTINUOUS
 62
         7
100
AcDbVertex
100
AcDb2dVertex
 10
1463.3782864717
 20
-24.085818088
 30
0.0
 70
         1
  0
VERTEX
  5
4F1
100
AcDbEntity
  8
L1_120
  6
CONTINUOUS
 62
         7
100
AcDbVertex
100
AcDb2dVertex
 10
1462.995671618
 20
-24.2190610596
 30
0.0
 70
         1
  0
VERTEX
  5
4F3
100
AcDbEntity
  8
L1_120
  6
CONTINUOUS
 62
         7
100
AcDbVertex
100
AcDb2dVertex
 10
1462.6544855114
 20
-24.3701452408
 30
0.0
 70
         1
  0
VERTEX
  5
4F5
100
AcDbEntity
  8
L1_120
  6
CONTINUOUS
 62
         7
100
AcDbVertex
100
AcDb2dVertex
 10
1462.3526434765
 20
-24.5325039328
 30
0.0
 70
         1
  0
VERTEX
  5
4F7
100
AcDbEntity
  8
L1_120
  6
CONTINUOUS
 62
         7
100
AcDbVertex
100
AcDb2dVertex
 10
1462.0872537696
 20
-24.7008297385
 30
0.0
 70
         1
  0
VERTEX
  5
4F9
100
AcDbEntity
  8
L1_120
  6
CONTINUOUS
 62
         7
100
AcDbVertex
100
AcDb2dVertex
 10
1461.8550143039
 20
-24.870972103
 30
0.0
 70
         1
  0
VERTEX
  5
4FB
100
AcDbEntity
  8
L1_120
  6
CONTINUOUS
 62
         7
100
AcDbVertex
100
AcDb2dVertex
 10
1461.5886197287
 20
-25.0975518041
 30
0.0
 70
         1
  0
VERTEX
  5
4FD
100
AcDbEntity
  8
L1_120
  6
CONTINUOUS
 62
         7
100
AcDbVertex
100
AcDb2dVertex
 10
1461.3680346539
 20
-25.316473123
 30
0.0
 70
         1
  0
VERTEX
  5
4FF
100
AcDbEntity
  8
L1_120
  6
CONTINUOUS
 62
         7
100
AcDbVertex
100
AcDb2dVertex
 10
1461.1858522517
 20
-25.5244564695
 30
0.0
 70
         1
  0
VERTEX
  5
501
100
AcDbEntity
  8
L1_120
  6
CONTINUOUS
 62
         7
100
AcDbVertex
100
AcDb2dVertex
 10
1460.9892705851
 20
-25.7851446155
 30
0.0
 70
         1
  0
VERTEX
  5
503
100
AcDbEntity
  8
L1_120
  6
CONTINUOUS
 62
         7
100
AcDbVertex
100
AcDb2dVertex
 10
1460.8377509404
 20
-26.0210884937
 30
0.0
 70
         1
  0
VERTEX
  5
505
100
AcDbEntity
  8
L1_120
  6
CONTINUOUS
 62
         7
100
AcDbVertex
100
AcDb2dVertex
 10
1460.6857291041
 20
-26.3027869214
 30
0.0
 70
         1
  0
VERTEX
  5
507
100
AcDbEntity
  8
L1_120
  6
CONTINUOUS
 62
         7
100
AcDbVertex
100
AcDb2dVertex
 10
1460.5783514826
 20
-26.5434236273
 30
0.0
 70
         1
  0
VERTEX
  5
509
100
AcDbEntity
  8
L1_120
  6
CONTINUOUS
 62
         7
100
AcDbVertex
100
AcDb2dVertex
 10
1460.4799307819
 20
-26.8152423355
 30
0.0
 70
         1
  0
VERTEX
  5
50B
100
AcDbEntity
  8
L1_120
  6
CONTINUOUS
 62
         7
100
AcDbVertex
100
AcDb2dVertex
 10
1460.4003660859
 20
-27.103383885
 30
0.0
 70
         1
  0
VERTEX
  5
50D
100
AcDbEntity
  8
L1_120
  6
CONTINUOUS
 62
         7
100
AcDbVertex
100
AcDb2dVertex
 10
1460.3460864377
 20
-27.3841202722
 30
0.0
 70
         1
  0
VERTEX
  5
50F
100
AcDbEntity
  8
L1_120
  6
CONTINUOUS
 62
         7
100
AcDbVertex
100
AcDb2dVertex
 10
1460.3168736127
 20
-27.6281695653
 30
0.0
 70
         1
  0
VERTEX
  5
511
100
AcDbEntity
  8
L1_120
  6
CONTINUOUS
 62
         7
100
AcDbVertex
100
AcDb2dVertex
 10
1460.3041401686
 20
-27.8666633245
 30
0.0
 70
         1
  0
VERTEX
  5
513
100
AcDbEntity
  8
L1_120
  6
CONTINUOUS
 62
         7
100
AcDbVertex
100
AcDb2dVertex
 10
1460.3033403763
 20
-27.9433347407
 30
0.0
 70
         1
  0
SEQEND
  5
515
100
AcDbEntity
  8
L1_120
  6
CONTINUOUS
 62
         7
  0
INSERT
  5
56C
100
AcDbEntity
  8
0
  6
CONTINUOUS
100
AcDbBlockReference
  2
*X6
 10
0.0
 20
0.0
 30
0.0
  0
ARC
  5
56D
100
AcDbEntity
  8
L1_120
  6
CONTINUOUS
 62
         7
100
AcDbCircle
 10
1505.3033403763
 20
-2.1933347407
 30
0.0
 40
1.5
100
AcDbArc
 50
90.0
 51
180.0
  0
ARC
  5
56E
100
AcDbEntity
  8
L1_120
  6
CONTINUOUS
 62
         7
100
AcDbCircle
 10
1505.3033403763
 20
-23.6933347407
 30
0.0
 40
1.5
100
AcDbArc
 50
180.0
 51
270.0
  0
DIMENSION
  5
571
100
AcDbEntity
  8
L1_120
  6
CONTINUOUS
 62
         4
100
AcDbDimension
  2
*D7
 10
1512.1033403763
 20
207.4170423888
 30
0.0
 11
1468.1472821067
 21
210.5490423888
 31
0.0
  3
DIMSTYLE2
100
AcDbAlignedDimension
 13
1512.1033403763
 23
179.6846417294
 33
0.0
 14
1439.1033403763
 24
183.6846417294
 34
0.0
100
AcDbRotatedDimension
  0
DIMENSION
  5
57F
100
AcDbEntity
  8
L1_120
  6
CONTINUOUS
 62
         4
100
AcDbDimension
  2
*D8
 10
1512.1033403763
 20
198.8495497108
 30
0.0
 11
1472.7908472593
 21
201.9815497108
 31
0.0
  3
DIMSTYLE2
100
AcDbAlignedDimension
 13
1512.1033403763
 23
179.6846417294
 33
0.0
 14
1452.6033403763
 24
180.4846417294
 34
0.0
100
AcDbRotatedDimension
  0
DIMENSION
  5
58D
100
AcDbEntity
  8
L1_120
  6
CONTINUOUS
 62
         4
100
AcDbDimension
  2
*D9
 10
1512.1033403763
 20
195.1777671345
 30
0.0
 11
1513.6633710448
 21
198.3097671345
 31
0.0
  3
DIMSTYLE2
100
AcDbAlignedDimension
 13
1512.1033403763
 23
179.6846417294
 33
0.0
 14
1501.9033403763
 24
178.6846417294
 34
0.0
100
AcDbRotatedDimension
  0
DIMENSION
  5
59C
100
AcDbEntity
  8
L1_120
  6
CONTINUOUS
 62
         4
100
AcDbDimension
  2
*D10
 10
1501.9033403763
 20
186.8142623774
 30
0.0
 11
1513.7894435193
 21
189.9462623774
 31
0.0
  3
DIMSTYLE2
100
AcDbAlignedDimension
 13
1501.9033403763
 23
178.6846417294
 33
0.0
 14
1504.1033403763
 24
178.6846417294
 34
0.0
100
AcDbRotatedDimension
  0
DIMENSION
  5
5AB
100
AcDbEntity
  8
L1_120
  6
CONTINUOUS
 62
         4
100
AcDbDimension
  2
*D11
 10
1541.0873434298
 20
180.1846417294
 30
0.0
 11
1537.9553434298
 21
140.3819180653
 31
0.0
  3
DIMSTYLE2
100
AcDbAlignedDimension
 13
1504.3033403763
 23
180.1846417294
 33
0.0
 14
1511.6033403763
 24
120.1846417294
 34
0.0
 50
90.0
100
AcDbRotatedDimension
  0
DIMENSION
  5
5B9
100
AcDbEntity
  8
L1_120
  6
CONTINUOUS
 62
         4
100
AcDbDimension
  2
*D12
 10
1560.057692879
 20
184.1846417294
 30
0.0
 11
1556.925692879
 21
138.8138976874
 31
0.0
  3
DIMSTYLE2
100
AcDbAlignedDimension
 13
1438.6033403763
 23
184.1846417294
 33
0.0
 14
1438.6033403763
 24
116.1846417294
 34
0.0
 50
90.0
100
AcDbRotatedDimension
  0
DIMENSION
  5
5C7
100
AcDbEntity
  8
L1_120
  6
CONTINUOUS
 62
         4
100
AcDbDimension
  2
*D13
 10
1447.9424058192
 20
180.6846417294
 30
0.0
 11
1444.8104058192
 21
94.9844662644
 31
0.0
  3
DIMSTYLE2
100
AcDbAlignedDimension
 13
1439.6033403763
 23
180.6846417294
 33
0.0
 14
1439.6033403763
 24
119.6846417294
 34
0.0
 50
90.0
100
AcDbRotatedDimension
  0
DIMENSION
  5
5D6
100
AcDbEntity
  8
L1_120
  6
CONTINUOUS
 62
         4
100
AcDbDimension
  2
*D14
 10
1492.2419740548
 20
178.6846417294
 30
0.0
 11
1489.1099740548
 21
93.4705060253
 31
0.0
  3
DIMSTYLE2
100
AcDbAlignedDimension
 13
1504.1033403763
 23
178.6846417294
 33
0.0
 14
1504.1033403763
 24
121.6846417294
 34
0.0
 50
90.0
100
AcDbRotatedDimension
  0
DIMENSION
  5
5E5
100
AcDbEntity
  8
L1_120
  6
CONTINUOUS
 62
         4
100
AcDbDimension
  2
*D15
 10
1464.8033403763
 20
37.7100228397
 30
0.0
 11
1476.7369334944
 21
40.8420228397
 31
0.0
  3
DIMSTYLE2
100
AcDbAlignedDimension
 13
1464.8033403763
 23
17.8622943309
 33
0.0
 14
1512.1033403763
 24
16.5566652593
 34
0.0
100
AcDbRotatedDimension
  0
DIMENSION
  5
5F3
100
AcDbEntity
  8
L1_120
  6
CONTINUOUS
 62
         4
100
AcDbDimension
  2
*D16
 10
1512.1033403763
 20
-55.2868775663
 30
0.0
 11
1472.2448842359
 21
-52.1548775663
 31
0.0
  3
DIMSTYLE2
100
AcDbAlignedDimension
 13
1512.1033403763
 23
-25.6933347407
 33
0.0
 14
1447.1033403763
 24
-37.4433347407
 34
0.0
100
AcDbRotatedDimension
  0
DIMENSION
  5
601
100
AcDbEntity
  8
L1_120
  6
CONTINUOUS
 62
         4
100
AcDbDimension
  2
*D17
 10
1512.1033403763
 20
-5.0614139583
 30
0.0
 11
1515.5009170142
 21
-1.9294139583
 31
0.0
  3
DIMSTYLE2
100
AcDbAlignedDimension
 13
1512.1033403763
 23
-0.1933347407
 33
0.0
 14
1503.8033403763
 24
-1.1933347407
 34
0.0
100
AcDbRotatedDimension
  0
DIMENSION
  5
610
100
AcDbEntity
  8
L1_120
  6
CONTINUOUS
 62
         4
100
AcDbDimension
  2
*D18
 10
1536.3733772399
 20
11.0566652593
 30
0.0
 11
1533.2413772399
 21
-22.4263863007
 31
0.0
  3
DIMSTYLE2
100
AcDbAlignedDimension
 13
1510.1033403763
 23
11.0566652593
 33
0.0
 14
1510.1033403763
 24
-36.9433347407
 34
0.0
 50
90.0
100
AcDbRotatedDimension
  0
TEXT
  5
61D
100
AcDbEntity
  8
L1_120
  6
CONTINUOUS
 62
         2
100
AcDbText
 10
1607.8551181589
 20
218.0204784082
 30
0.0
 40
4.5
  1
532282
 41
0.98
  7
BOX
100
AcDbText
  0
ENDSEC
  0
SECTION
  2
OBJECTS
  0
DICTIONARY
  5
19
100
AcDbDictionary
  3
ACAD_GROUP
350
1A
  3
ACAD_MLINESTYLE
350
1B
  0
DICTIONARY
  5
1A
102
{ACAD_REACTORS
330
19
102
}
100
AcDbDictionary
  0
DICTIONARY
  5
1B
102
{ACAD_REACTORS
330
19
102
}
100
AcDbDictionary
  3
STANDARD
350
1C
  0
MLINESTYLE
  5
1C
102
{ACAD_REACTORS
330
1B
102
}
100
AcDbMlineStyle
  2
STANDARD
 70
         0
  3

 62
         0
 51
90.0
 52
90.0
 71
         2
 49
0.5
 62
       256
  6
BYLAYER
 49
-0.5
 62
       256
  6
BYLAYER
  0
ENDSEC
  0
EOF
