  0
SECTION
  2
HEADER
  9
$ACADVER
  1
AC1014
  9
$ACADMAINTVER
 70
         0
  9
$DWGCODEPAGE
  3
BIG5
  9
$INSBASE
 10
0.0
 20
0.0
 30
0.0
  9
$EXTMIN
 10
1033.440998077
 20
-416.4034188716
 30
0.0
  9
$EXTMAX
 10
1792.3033857035
 20
-45.9516093918
 30
0.0
  9
$LIMMIN
 10
0.0
 20
0.0
  9
$LIMMAX
 10
0.0
 20
0.0
  9
$ORTHOMODE
 70
         0
  9
$REGENMODE
 70
         1
  9
$FILLMODE
 70
         1
  9
$QTEXTMODE
 70
         0
  9
$MIRRTEXT
 70
         1
  9
$DRAGMODE
 70
         2
  9
$LTSCALE
 40
1.0
  9
$OSMODE
 70
         0
  9
$ATTMODE
 70
         1
  9
$TEXTSIZE
 40
1.7
  9
$TRACEWID
 40
0.05
  9
$TEXTSTYLE
  7
STANDARD
  9
$CLAYER
  8
0
  9
$CELTYPE
  6
CONTINUOUS
  9
$CECOLOR
 62
        16
  9
$CELTSCALE
 40
1.0
  9
$DELOBJ
 70
         1
  9
$DISPSILH
 70
         0
  9
$DIMSCALE
 40
1.0
  9
$DIMASZ
 40
0.18
  9
$DIMEXO
 40
0.0625
  9
$DIMDLI
 40
0.38
  9
$DIMRND
 40
0.0
  9
$DIMDLE
 40
0.0
  9
$DIMEXE
 40
0.25
  9
$DIMTP
 40
0.01
  9
$DIMTM
 40
-0.01
  9
$DIMTXT
 40
2.7
  9
$DIMCEN
 40
0.09
  9
$DIMTSZ
 40
0.0
  9
$DIMTOL
 70
         0
  9
$DIMLIM
 70
         0
  9
$DIMTIH
 70
         1
  9
$DIMTOH
 70
         1
  9
$DIMSE1
 70
         0
  9
$DIMSE2
 70
         0
  9
$DIMTAD
 70
         0
  9
$DIMZIN
 70
         0
  9
$DIMBLK
  1

  9
$DIMASO
 70
         1
  9
$DIMSHO
 70
         1
  9
$DIMPOST
  1

  9
$DIMAPOST
  1

  9
$DIMALT
 70
         0
  9
$DIMALTD
 70
         2
  9
$DIMALTF
 40
25.4
  9
$DIMLFAC
 40
1.0
  9
$DIMTOFL
 70
         0
  9
$DIMTVP
 40
0.0
  9
$DIMTIX
 70
         0
  9
$DIMSOXD
 70
         0
  9
$DIMSAH
 70
         0
  9
$DIMBLK1
  1

  9
$DIMBLK2
  1

  9
$DIMSTYLE
  2
STANDARD
  9
$DIMCLRD
 70
         0
  9
$DIMCLRE
 70
         0
  9
$DIMCLRT
 70
        16
  9
$DIMTFAC
 40
1.0
  9
$DIMGAP
 40
0.09
  9
$DIMJUST
 70
         0
  9
$DIMSD1
 70
         0
  9
$DIMSD2
 70
         0
  9
$DIMTOLJ
 70
         1
  9
$DIMTZIN
 70
         0
  9
$DIMALTZ
 70
         0
  9
$DIMALTTZ
 70
         0
  9
$DIMFIT
 70
         3
  9
$DIMUPT
 70
         0
  9
$DIMUNIT
 70
         2
  9
$DIMDEC
 70
         4
  9
$DIMTDEC
 70
         4
  9
$DIMALTU
 70
         2
  9
$DIMALTTD
 70
         2
  9
$DIMTXSTY
  7
STANDARD
  9
$DIMAUNIT
 70
         0
  9
$LUNITS
 70
         2
  9
$LUPREC
 70
        10
  9
$SKETCHINC
 40
0.1
  9
$FILLETRAD
 40
0.0
  9
$AUNITS
 70
         0
  9
$AUPREC
 70
         0
  9
$MENU
  1
acad
  9
$ELEVATION
 40
0.0
  9
$PELEVATION
 40
0.0
  9
$THICKNESS
 40
0.0
  9
$LIMCHECK
 70
         0
  9
$BLIPMODE
 70
         1
  9
$CHAMFERA
 40
0.0
  9
$CHAMFERB
 40
0.0
  9
$CHAMFERC
 40
0.0
  9
$CHAMFERD
 40
0.0
  9
$SKPOLY
 70
         0
  9
$TDCREATE
 40
0.000000000
  9
$TDUPDATE
 40
0.000000000
  9
$TDINDWG
 40
0.0000000000
  9
$TDUSRTIMER
 40
0.0000000000
  9
$USRTIMER
 70
         1
  9
$ANGBASE
 50
0.0
  9
$ANGDIR
 70
         0
  9
$PDMODE
 70
         2
  9
$PDSIZE
 40
0.0
  9
$PLINEWID
 40
0.0
  9
$COORDS
 70
         0
  9
$SPLFRAME
 70
         0
  9
$SPLINETYPE
 70
         6
  9
$SPLINESEGS
 70
         8
  9
$ATTDIA
 70
         0
  9
$ATTREQ
 70
         1
  9
$HANDLING
 70
         1
  9
$HANDSEED
  5
370
  9
$SURFTAB1
 70
         6
  9
$SURFTAB2
 70
         6
  9
$SURFTYPE
 70
         6
  9
$SURFU
 70
         6
  9
$SURFV
 70
         6
  9
$UCSNAME
  2

  9
$UCSORG
 10
0.0
 20
0.0
 30
0.0
  9
$UCSXDIR
 10
1.0
 20
0.0
 30
0.0
  9
$UCSYDIR
 10
0.0
 20
1.0
 30
0.0
  9
$PUCSNAME
  2

  9
$PUCSORG
 10
0.0
 20
0.0
 30
0.0
  9
$PUCSXDIR
 10
1.0
 20
0.0
 30
0.0
  9
$PUCSYDIR
 10
0.0
 20
1.0
 30
0.0
  9
$USERI1
 70
         0
  9
$USERI2
 70
         0
  9
$USERI3
 70
         0
  9
$USERI4
 70
         0
  9
$USERI5
 70
         0
  9
$USERR1
 40
0.0
  9
$USERR2
 40
0.0
  9
$USERR3
 40
0.0
  9
$USERR4
 40
0.0
  9
$USERR5
 40
0.0
  9
$WORLDVIEW
 70
         1
  9
$SHADEDGE
 70
         3
  9
$SHADEDIF
 70
        70
  9
$TILEMODE
 70
         1
  9
$MAXACTVP
 70
        16
  9
$PINSBASE
 10
0.0
 20
0.0
 30
0.0
  9
$PLIMCHECK
 70
         0
  9
$PEXTMIN
 10
1.0000000000E+20
 20
1.0000000000E+20
 30
1.0000000000E+20
  9
$PEXTMAX
 10
-1.0000000000E+20
 20
-1.0000000000E+20
 30
-1.0000000000E+20
  9
$PLIMMIN
 10
0.0
 20
0.0
  9
$PLIMMAX
 10
12.0
 20
9.0
  9
$UNITMODE
 70
         0
  9
$VISRETAIN
 70
         0
  9
$PLINEGEN
 70
         1
  9
$PSLTSCALE
 70
         0
  9
$TREEDEPTH
 70
      3020
  9
$PICKSTYLE
 70
         1
  9
$CMLSTYLE
  2
STANDARD
  9
$CMLJUST
 70
         0
  9
$CMLSCALE
 40
1.0
  9
$PROXYGRAPHICS
 70
         0
  9
$MEASUREMENT
 70
         0
  0
ENDSEC
  0
SECTION
  2
CLASSES
  0
CLASS
  1
LWPOLYLINE
  2
AcDbPolyline
  3
"AutoCAD"
 90
        0
280
         0
281
         1
  0
CLASS
  1
IMAGE
  2
AcDbRasterImage
  3
ISM
 90
      127
280
         0
281
         1
  0
CLASS
  1
OLE2FRAME
  2
AcDbOle2Frame
  3
""
 90
        0
280
         0
281
         1
  0
CLASS
  1
HATCH
  2
AcDbHatch
  3
"ACAD_SEDONA"
 90
        0
280
         0
281
         1
  0
CLASS
  1
DICTIONARYVAR
  2
AcDbDictionaryVar
  3
"AutoCAD"
 90
        0
280
         0
281
         0
  0
CLASS
  1
RASTERVARIABLES
  2
AcDbRasterVariables
  3
ISM
 90
        0
280
         0
281
         0
  0
CLASS
  1
IMAGEDEF
  2
AcDbRasterImageDef
  3
ISM
 90
        0
280
         0
281
         0
  0
CLASS
  1
IMAGEDEF_REACTOR
  2
AcDbRasterImageDefReactor
  3
ISM
 90
        1
280
         0
281
         0
  0
CLASS
  1
IDBUFFER
  2
AcDbIdBuffer
  3
"Acad"
 90
        0
280
         0
281
         0
  0
CLASS
  1
SPATIAL_FILTER
  2
AcDbSpatialFilter
  3
"Acad"
 90
        0
280
         0
281
         0
  0
CLASS
  1
XRECORD
  2
AcDbXrecord
  3
"<Built In>"
 90
        0
280
         0
281
         0
  0
CLASS
  1
SORTENTSTABLE
  2
AcDbSortentsTable
  3
"AutoCAD"
 90
        0
280
         0
281
         0
  0
CLASS
  1
LAYER_INDEX
  2
AcDbLayerIndex
  3
"Acad"
 90
        0
280
         0
281
         0
  0
CLASS
  1
SPATIAL_INDEX
  2
AcDbSpatialIndex
  3
"Acad"
 90
        0
280
         0
281
         0
  0
CLASS
  1
OBJECT_PTR
  2
CAseDLPNTableRecord
  3
"ASE-LPNTableRecord"
 90
        1
280
         0
281
         0
  0
CLASS
  1
LAYOUT
  2
AcDbLayout
  3
"AutoCAD 2000"
 90
        1
280
         0
281
         0
  0
CLASS
  1
PLOTSETTINGS
  2
AcDbPlotSettings
  3
"AutoCAD 2000"
 90
        1
280
         0
281
         0
  0
CLASS
  1
ACDBDICTIONARYWDFLT
  2
AcDbDictionaryWithDefault
  3
"AutoCAD 2000"
 90
        1
280
         0
281
         0
  0
CLASS
  1
ACDBPLACEHOLDER
  2
AcDbPlaceHolder
  3
"AutoCAD 2000"
 90
        1
280
         0
281
         0
  0
CLASS
  1
VBA_PROJECT
  2
AcDbVbaProject
  3
"acadvba"
 90
        1
280
         0
281
         0
  0
CLASS
  1
WIPEOUT
  2
AcDbWipeout
  3
WipeOut|AutoCAD Express Tool|expresstools@autodesk.com
 90
      127
280
         0
281
         1
  0
CLASS
  1
WIPEOUTVARIABLES
  2
AcDbWipeoutVariables
  3
WipeOut|AutoCAD Express Tool|expresstools@autodesk.com
 90
        0
280
         0
281
         0
  0
CLASS
  1
RTEXT
  2
RText
  3
RText|AutoCAD Express Tool|expresstools@autodesk.com
 90
        0
280
         0
281
         1
  0
CLASS
  1
ARCALIGNEDTEXT
  2
AcDbArcAlignedText
  3
ATEXT|AutoCAD Express Tool|expresstools@autodesk.com
 90
        0
280
         0
281
         1
  0
ENDSEC
  0
SECTION
  2
TABLES
  0
TABLE
  2
VPORT
  5
7
100
AcDbSymbolTable
 70
         1
  0
VPORT
  5
15
100
AcDbSymbolTableRecord
100
AcDbViewportTableRecord
  2
*ACTIVE
 70
         0
 10
0.0
 20
0.0
 11
1.0
 21
1.0
 12
1412.8721918903
 22
-231.1775141317
 13
0.0
 23
0.0
 14
1.0
 24
1.0
 15
0.0
 25
0.0
 16
0.0
 26
0.0
 36
1.0
 17
0.0
 27
0.0
 37
0.0
 40
370.4518094797
 41
2.0484780158
 42
50.0
 43
0.0
 44
0.0
 50
0.0
 51
0.0
 71
         0
 72
       100
 73
         1
 74
         1
 75
         0
 76
         0
 77
         0
 78
         0
  0
ENDTAB
  0
TABLE
  2
LTYPE
  5
4
100
AcDbSymbolTable
 70
         6
  0
LTYPE
  5
11
100
AcDbSymbolTableRecord
100
AcDbLinetypeTableRecord
  2
BYBLOCK
 70
        64
  3

 72
        65
 73
         0
 40
0.0
  0
LTYPE
  5
12
100
AcDbSymbolTableRecord
100
AcDbLinetypeTableRecord
  2
BYLAYER
 70
        64
  3

 72
        65
 73
         0
 40
0.0
  0
LTYPE
  5
13
100
AcDbSymbolTableRecord
100
AcDbLinetypeTableRecord
  2
CONTINUOUS
 70
        64
  3
Solid line
 72
        65
 73
         0
 40
0.0
  0
LTYPE
  5
1D
100
AcDbSymbolTableRecord
100
AcDbLinetypeTableRecord
  2
DASHED
 70
        64
  3
_ _ _ _ _ _ _ _ _ _ _ _ _ _ _ _
 72
        65
 73
         2
 40
0.2
 49
0.1
 74
         0
 49
-0.1
 74
         0
  0
LTYPE
  5
1E
100
AcDbSymbolTableRecord
100
AcDbLinetypeTableRecord
  2
CENTER
 70
        64
  3
___ _ ___ _ ___ _ ___ _ ___ _ ___ _ ___ _ ___ _
 72
        65
 73
         4
 40
0.95
 49
0.625
 74
         0
 49
-0.125
 74
         0
 49
0.075
 74
         0
 49
-0.125
 74
         0
  0
LTYPE
  5
1F
100
AcDbSymbolTableRecord
100
AcDbLinetypeTableRecord
  2
PHANTOM
 70
        64
  3
______  __  __  ______  __  __  ______  __  __  
 72
        65
 73
         6
 40
1.025
 49
0.625
 74
         0
 49
-0.125
 74
         0
 49
0.075
 74
         0
 49
-0.125
 74
         0
 49
0.075
 74
         0
 49
-0.125
 74
         0
  0
ENDTAB
  0
TABLE
  2
LAYER
  5
2
100
AcDbSymbolTable
 70
         6
  0
LAYER
  5
14
100
AcDbSymbolTableRecord
100
AcDbLayerTableRecord
  2
0
 70
         0
 62
         7
  6
CONTINUOUS
  0
LAYER
  5
21
100
AcDbSymbolTableRecord
100
AcDbLayerTableRecord
  2
_____U
 70
         1
 62
         7
  6
CONTINUOUS
  0
LAYER
  5
22
100
AcDbSymbolTableRecord
100
AcDbLayerTableRecord
  2
_____T______
 70
         1
 62
         7
  6
CONTINUOUS
  0
LAYER
  5
23
100
AcDbSymbolTableRecord
100
AcDbLayerTableRecord
  2
______L_______
 70
         1
 62
         7
  6
CONTINUOUS
  0
LAYER
  5
24
100
AcDbSymbolTableRecord
100
AcDbLayerTableRecord
  2
L1_120
 70
         0
 62
         7
  6
CONTINUOUS
  0
LAYER
  5
1C0
100
AcDbSymbolTableRecord
100
AcDbLayerTableRecord
  2
DEFPOINTS
 70
         0
 62
        -7
  6
CONTINUOUS
  0
ENDTAB
  0
TABLE
  2
STYLE
  5
3
100
AcDbSymbolTable
 70
        11
  0
STYLE
  5
17
100
AcDbSymbolTableRecord
100
AcDbTextStyleTableRecord
  2
STANDARD
 70
         0
 40
0.0
 41
1.0
 50
0.0
 71
         0
 42
0.0
  3
txt
  4

  0
STYLE
  5
1C9
100
AcDbSymbolTableRecord
100
AcDbTextStyleTableRecord
  2
BOX
 70
         0
 40
1.0
 41
1.0
 50
0.0
 71
         0
 42
0.2
  3
txt.shx
  4

  0
STYLE
  5
1DA
100
AcDbSymbolTableRecord
100
AcDbTextStyleTableRecord
  2
BOX
 70
         0
 40
1.0
 41
1.0
 50
0.0
 71
         0
 42
0.2
  3
txt.shx
  4

  0
STYLE
  5
20D
100
AcDbSymbolTableRecord
100
AcDbTextStyleTableRecord
  2
BOX
 70
         0
 40
1.0
 41
1.0
 50
0.0
 71
         0
 42
0.2
  3
txt.shx
  4

  0
STYLE
  5
21A
100
AcDbSymbolTableRecord
100
AcDbTextStyleTableRecord
  2
BOX
 70
         0
 40
1.0
 41
1.0
 50
0.0
 71
         0
 42
0.2
  3
txt.shx
  4

  0
STYLE
  5
228
100
AcDbSymbolTableRecord
100
AcDbTextStyleTableRecord
  2
BOX
 70
         0
 40
1.0
 41
1.0
 50
0.0
 71
         0
 42
0.2
  3
txt.shx
  4

  0
STYLE
  5
236
100
AcDbSymbolTableRecord
100
AcDbTextStyleTableRecord
  2
BOX
 70
         0
 40
1.0
 41
1.0
 50
0.0
 71
         0
 42
0.2
  3
txt.shx
  4

  0
STYLE
  5
29D
100
AcDbSymbolTableRecord
100
AcDbTextStyleTableRecord
  2
BOX
 70
         0
 40
1.0
 41
1.0
 50
0.0
 71
         0
 42
0.2
  3
txt.shx
  4

  0
STYLE
  5
331
100
AcDbSymbolTableRecord
100
AcDbTextStyleTableRecord
  2
BOX
 70
         0
 40
1.0
 41
1.0
 50
0.0
 71
         0
 42
0.2
  3
txt.shx
  4

  0
STYLE
  5
33F
100
AcDbSymbolTableRecord
100
AcDbTextStyleTableRecord
  2
BOX
 70
         0
 40
1.0
 41
1.0
 50
0.0
 71
         0
 42
0.2
  3
txt.shx
  4

  0
STYLE
  5
369
100
AcDbSymbolTableRecord
100
AcDbTextStyleTableRecord
  2
BOX
 70
         0
 40
1.0
 41
1.0
 50
0.0
 71
         0
 42
0.2
  3
txt.shx
  4

  0
ENDTAB
  0
TABLE
  2
VIEW
  5
5
100
AcDbSymbolTable
 70
         0
  0
ENDTAB
  0
TABLE
  2
UCS
  5
6
100
AcDbSymbolTable
 70
         1
  0
UCS
  5
20
100
AcDbSymbolTableRecord
100
AcDbUCSTableRecord
  2
CK_VIEW_1
 70
         0
 10
0.0
 20
0.0
 30
1.0
 11
1.0
 21
0.0
 31
0.0
 12
0.0
 22
1.0
 32
0.0
  0
ENDTAB
  0
TABLE
  2
APPID
  5
8
100
AcDbSymbolTable
 70
         1
  0
APPID
  5
16
100
AcDbSymbolTableRecord
100
AcDbRegAppTableRecord
  2
ACAD
 70
         0
  0
ENDTAB
  0
TABLE
  2
DIMSTYLE
  5
9
100
AcDbSymbolTable
 70
         2
  0
DIMSTYLE
105
18
100
AcDbSymbolTableRecord
100
AcDbDimStyleTableRecord
  2
STANDARD
 70
         0
  3

  4

  5

  6

  7

 40
1.0
 41
0.18
 42
0.0625
 43
0.38
 44
0.18
 45
0.0
 46
0.0
 47
0.0
 48
0.0
 71
         0
 72
         0
 73
         1
 74
         1
 75
         0
 76
         0
 77
         0
 78
         0
140
0.18
141
0.09
142
0.0
143
25.4
144
1.0
145
0.0
146
1.0
147
0.09
170
         0
171
         2
172
         0
173
         0
174
         0
175
         0
176
         0
177
         0
178
         0
270
         2
271
         4
272
         4
273
         2
274
         2
275
         0
280
         0
281
         0
282
         0
283
         1
284
         0
285
         0
286
         0
287
         0
288
         0
340
17
  0
DIMSTYLE
105
1BC
100
AcDbSymbolTableRecord
100
AcDbDimStyleTableRecord
  2
DIMSTYLE1
 70
         0
  3

  4

  5

  6

  7

 40
1.0
 41
2.7
 42
0.0625
 43
0.38
 44
2.7
 45
0.0
 46
0.0
 47
0.0
 48
0.0
 71
         0
 72
         0
 73
         1
 74
         1
 75
         0
 76
         0
 77
         0
 78
         0
140
2.7
141
0.09
142
0.0
143
25.4
144
1.0
145
0.0
146
1.0
147
0.09
170
         0
171
         2
172
         0
173
         0
174
         0
175
         0
176
         0
177
         0
178
         0
270
         2
271
         4
272
         4
273
         2
274
         2
275
         0
280
         0
281
         0
282
         0
283
         1
284
         0
285
         0
286
         0
287
         0
288
         0
340
17
  0
ENDTAB
  0
TABLE
  2
BLOCK_RECORD
  5
1
100
AcDbSymbolTable
 70
        10
  0
BLOCK_RECORD
  5
A
100
AcDbSymbolTableRecord
100
AcDbBlockTableRecord
  2
*MODEL_SPACE
  0
BLOCK_RECORD
  5
B
100
AcDbSymbolTableRecord
100
AcDbBlockTableRecord
  2
*PAPER_SPACE
  0
BLOCK_RECORD
  5
1BD
100
AcDbSymbolTableRecord
100
AcDbBlockTableRecord
  2
*D0
  0
BLOCK_RECORD
  5
1CC
100
AcDbSymbolTableRecord
100
AcDbBlockTableRecord
  2
*D1
  0
BLOCK_RECORD
  5
20F
100
AcDbSymbolTableRecord
100
AcDbBlockTableRecord
  2
*D2
  0
BLOCK_RECORD
  5
21D
100
AcDbSymbolTableRecord
100
AcDbBlockTableRecord
  2
*D3
  0
BLOCK_RECORD
  5
22B
100
AcDbSymbolTableRecord
100
AcDbBlockTableRecord
  2
*D4
  0
BLOCK_RECORD
  5
292
100
AcDbSymbolTableRecord
100
AcDbBlockTableRecord
  2
*D5
  0
BLOCK_RECORD
  5
2A0
100
AcDbSymbolTableRecord
100
AcDbBlockTableRecord
  2
*X6
  0
BLOCK_RECORD
  5
326
100
AcDbSymbolTableRecord
100
AcDbBlockTableRecord
  2
*D7
  0
BLOCK_RECORD
  5
334
100
AcDbSymbolTableRecord
100
AcDbBlockTableRecord
  2
*D8
  0
BLOCK_RECORD
  5
35D
100
AcDbSymbolTableRecord
100
AcDbBlockTableRecord
  2
*D9
  0
ENDTAB
  0
ENDSEC
  0
SECTION
  2
BLOCKS
  0
BLOCK
  5
D
100
AcDbEntity
  8
0
100
AcDbBlockBegin
  2
*MODEL_SPACE
 70
         0
 10
0.0
 20
0.0
 30
0.0
  3
*MODEL_SPACE
  1

  0
ENDBLK
  5
E
100
AcDbEntity
  8
0
100
AcDbBlockEnd
  0
BLOCK
  5
F
100
AcDbEntity
 67
         1
  8
0
100
AcDbBlockBegin
  2
*PAPER_SPACE
 70
         0
 10
0.0
 20
0.0
 30
0.0
  3
*PAPER_SPACE
  1

  0
ENDBLK
  5
10
100
AcDbEntity
 67
         1
  8
0
100
AcDbBlockEnd
  0
BLOCK
  5
1BE
100
AcDbEntity
  8
0
100
AcDbBlockBegin
  2
*D0
 70
        65
 10
0.0
 20
0.0
 30
0.0
  3
*D0
  1

  0
POINT
  5
1C1
100
AcDbEntity
  8
DEFPOINTS
  6
CONTINUOUS
 62
         0
100
AcDbPoint
 10
1562.6340642062
 20
-208.5406455356
 30
0.0
  0
POINT
  5
1C2
100
AcDbEntity
  8
DEFPOINTS
  6
CONTINUOUS
 62
         0
100
AcDbPoint
 10
1543.7475047567
 20
-208.5406455356
 30
0.0
  0
POINT
  5
1C3
100
AcDbEntity
  8
DEFPOINTS
  6
CONTINUOUS
 62
         0
100
AcDbPoint
 10
1543.7475047567
 20
-241.5406455357
 30
0.0
  0
LINE
  5
1C4
100
AcDbEntity
  8
L1_120
  6
CONTINUOUS
 62
         4
100
AcDbLine
 10
1545.0975047567
 20
-208.5406455356
 30
0.0
 11
1563.3090642062
 21
-208.5406455356
 31
0.0
  0
LINE
  5
1C5
100
AcDbEntity
  8
L1_120
  6
CONTINUOUS
 62
         4
100
AcDbLine
 10
1545.0975047567
 20
-241.5406455357
 30
0.0
 11
1563.3090642062
 21
-241.5406455357
 31
0.0
  0
LINE
  5
1C6
100
AcDbEntity
  8
L1_120
  6
CONTINUOUS
 62
         4
100
AcDbLine
 10
1562.6340642062
 20
-208.5406455356
 30
0.0
 11
1562.6340642062
 21
-241.5406455357
 31
0.0
  0
SOLID
  5
1C7
100
AcDbEntity
  8
L1_120
  6
CONTINUOUS
 62
         4
100
AcDbTrace
 10
1562.6340642062
 20
-208.5406455356
 30
0.0
 11
1563.0390642062
 21
-211.2406455356
 31
0.0
 12
1562.2290642062
 22
-211.2406455356
 32
0.0
 13
1562.6340642062
 23
-208.5406455356
 33
0.0
  0
SOLID
  5
1C8
100
AcDbEntity
  8
L1_120
  6
CONTINUOUS
 62
         4
100
AcDbTrace
 10
1562.6340642062
 20
-241.5406455357
 30
0.0
 11
1562.2290642062
 21
-238.8406455357
 31
0.0
 12
1563.0390642062
 22
-238.8406455357
 32
0.0
 13
1562.6340642062
 23
-241.5406455357
 33
0.0
  0
TEXT
  5
1CA
100
AcDbEntity
  8
L1_120
  6
CONTINUOUS
 62
         4
100
AcDbText
 10
1559.5020642063
 20
-230.9606263583
 30
0.0
 40
2.7
  1
崷33
 50
90.0
 41
0.98
  7
BOX
100
AcDbText
  0
ENDBLK
  5
1CB
100
AcDbEntity
  8
0
  6
CONTINUOUS
100
AcDbBlockEnd
  0
BLOCK
  5
1CD
100
AcDbEntity
  8
0
100
AcDbBlockBegin
  2
*D1
 70
        65
 10
0.0
 20
0.0
 30
0.0
  3
*D1
  1

  0
POINT
  5
1CF
100
AcDbEntity
  8
DEFPOINTS
  6
CONTINUOUS
 62
         0
100
AcDbPoint
 10
1409.2881976524
 20
-204.0406455357
 30
0.0
  0
POINT
  5
1D0
100
AcDbEntity
  8
DEFPOINTS
  6
CONTINUOUS
 62
         0
100
AcDbPoint
 10
1486.5695834439
 20
-204.0406455357
 30
0.0
  0
POINT
  5
1D1
100
AcDbEntity
  8
DEFPOINTS
  6
CONTINUOUS
 62
         0
100
AcDbPoint
 10
1486.5695834439
 20
-204.0406455357
 30
0.0
  0
POINT
  5
1D2
100
AcDbEntity
  8
DEFPOINTS
  6
CONTINUOUS
 62
         0
100
AcDbPoint
 10
1523.7666567481
 20
-206.9681186936
 30
0.0
  0
LINE
  5
1D3
100
AcDbEntity
  8
L1_120
  6
CONTINUOUS
 62
         4
100
AcDbLine
 10
1487.9195834439
 20
-204.0406455357
 30
0.0
 11
1513.5438282028
 21
-204.0406455357
 31
0.0
  0
ARC
  5
1D4
100
AcDbEntity
  8
L1_120
  6
CONTINUOUS
 62
         4
100
AcDbCircle
 10
1486.5695834439
 20
-204.0406455357
 30
0.0
 40
26.2992447589
100
AcDbArc
 50
343.7355097188
 51
355.5
  0
SOLID
  5
1D5
100
AcDbEntity
  8
L1_120
  6
CONTINUOUS
 62
         4
100
AcDbTrace
 10
1512.7877564082
 20
-206.1040604977
 30
0.0
 11
1512.83973748
 21
-208.8337716488
 31
0.0
 12
1512.0365565572
 22
-208.7288888319
 32
0.0
 13
1512.7877564082
 23
-206.1040604977
 33
0.0
  0
ARC
  5
1D6
100
AcDbEntity
  8
L1_120
  6
CONTINUOUS
 62
         4
100
AcDbCircle
 10
1486.5695834439
 20
-204.0406455357
 30
0.0
 40
26.2992447589
100
AcDbArc
 50
360.0
 51
369.4702013628
  0
SOLID
  5
1D7
100
AcDbEntity
  8
L1_120
  6
CONTINUOUS
 62
         4
100
AcDbTrace
 10
1512.8688282028
 20
-204.0406455357
 30
0.0
 11
1512.3258857078
 21
-201.3649702102
 31
0.0
 12
1513.1348197028
 22
-201.323427561
 32
0.0
 13
1512.8688282028
 23
-204.0406455357
 33
0.0
  0
ARC
  5
1D8
100
AcDbEntity
  8
L1_120
  6
CONTINUOUS
 62
         4
100
AcDbCircle
 10
1486.5695834439
 20
-204.0406455357
 30
0.0
 40
26.2992447589
100
AcDbArc
 50
355.5
 51
360.0
  0
SOLID
  5
1D9
100
AcDbEntity
  8
L1_120
  6
CONTINUOUS
 62
         4
100
AcDbTrace
 10
1486.5695834439
 20
-204.0406455357
 30
0.0
 11
1487.6433368863
 21
-201.5304506139
 31
0.0
 12
1488.3325687412
 22
-201.9559614249
 32
0.0
 13
1486.5695834439
 23
-204.0406455357
 33
0.0
  0
TEXT
  5
1DB
100
AcDbEntity
  8
L1_120
  6
CONTINUOUS
 62
         4
100
AcDbText
 10
1513.8604038651
 20
-197.2565089807
 30
0.0
 40
2.7
  1
4.5%%d 
 41
0.98
  7
BOX
100
AcDbText
  0
ENDBLK
  5
1DC
100
AcDbEntity
  8
0
  6
CONTINUOUS
100
AcDbBlockEnd
  0
BLOCK
  5
210
100
AcDbEntity
  8
0
100
AcDbBlockBegin
  2
*D2
 70
        65
 10
0.0
 20
0.0
 30
0.0
  3
*D2
  1

  0
POINT
  5
212
100
AcDbEntity
  8
DEFPOINTS
  6
CONTINUOUS
 62
         0
100
AcDbPoint
 10
1383.7275047567
 20
-174.6932085563
 30
0.0
  0
POINT
  5
213
100
AcDbEntity
  8
DEFPOINTS
  6
CONTINUOUS
 62
         0
100
AcDbPoint
 10
1383.7275047567
 20
-202.9427292698
 30
0.0
  0
POINT
  5
214
100
AcDbEntity
  8
DEFPOINTS
  6
CONTINUOUS
 62
         0
100
AcDbPoint
 10
1543.7475047567
 20
-216.348426519
 30
0.0
  0
LINE
  5
215
100
AcDbEntity
  8
L1_120
  6
CONTINUOUS
 62
         4
100
AcDbLine
 10
1383.7275047567
 20
-201.5927292698
 30
0.0
 11
1383.7275047567
 21
-174.0182085563
 31
0.0
  0
LINE
  5
216
100
AcDbEntity
  8
L1_120
  6
CONTINUOUS
 62
         4
100
AcDbLine
 10
1543.7475047567
 20
-214.998426519
 30
0.0
 11
1543.7475047567
 21
-174.0182085563
 31
0.0
  0
LINE
  5
217
100
AcDbEntity
  8
L1_120
  6
CONTINUOUS
 62
         4
100
AcDbLine
 10
1383.7275047567
 20
-174.6932085563
 30
0.0
 11
1543.7475047567
 21
-174.6932085563
 31
0.0
  0
SOLID
  5
218
100
AcDbEntity
  8
L1_120
  6
CONTINUOUS
 62
         4
100
AcDbTrace
 10
1383.7275047567
 20
-174.6932085563
 30
0.0
 11
1386.4275047567
 21
-174.2882085563
 31
0.0
 12
1386.4275047567
 22
-175.0982085563
 32
0.0
 13
1383.7275047567
 23
-174.6932085563
 33
0.0
  0
SOLID
  5
219
100
AcDbEntity
  8
L1_120
  6
CONTINUOUS
 62
         4
100
AcDbTrace
 10
1543.7475047567
 20
-174.6932085563
 30
0.0
 11
1541.0475047567
 21
-175.0982085563
 31
0.0
 12
1541.0475047567
 22
-174.2882085563
 32
0.0
 13
1543.7475047567
 23
-174.6932085563
 33
0.0
  0
TEXT
  5
21B
100
AcDbEntity
  8
L1_120
  6
CONTINUOUS
 62
         4
100
AcDbText
 10
1461.6487503682
 20
-172.6682085563
 30
0.0
 40
2.7
  1
160
 41
0.98
  7
BOX
100
AcDbText
  0
ENDBLK
  5
21C
100
AcDbEntity
  8
0
  6
CONTINUOUS
100
AcDbBlockEnd
  0
BLOCK
  5
21E
100
AcDbEntity
  8
0
100
AcDbBlockBegin
  2
*D3
 70
        65
 10
0.0
 20
0.0
 30
0.0
  3
*D3
  1

  0
POINT
  5
220
100
AcDbEntity
  8
DEFPOINTS
  6
CONTINUOUS
 62
         0
100
AcDbPoint
 10
1318.3275047567
 20
-162.7642506387
 30
0.0
  0
POINT
  5
221
100
AcDbEntity
  8
DEFPOINTS
  6
CONTINUOUS
 62
         0
100
AcDbPoint
 10
1318.3275047567
 20
-213.2178382022
 30
0.0
  0
POINT
  5
222
100
AcDbEntity
  8
DEFPOINTS
  6
CONTINUOUS
 62
         0
100
AcDbPoint
 10
1543.7475047567
 20
-216.348426519
 30
0.0
  0
LINE
  5
223
100
AcDbEntity
  8
L1_120
  6
CONTINUOUS
 62
         4
100
AcDbLine
 10
1318.3275047567
 20
-211.8678382022
 30
0.0
 11
1318.3275047567
 21
-162.0892506387
 31
0.0
  0
LINE
  5
224
100
AcDbEntity
  8
L1_120
  6
CONTINUOUS
 62
         4
100
AcDbLine
 10
1543.7475047567
 20
-214.998426519
 30
0.0
 11
1543.7475047567
 21
-162.0892506387
 31
0.0
  0
LINE
  5
225
100
AcDbEntity
  8
L1_120
  6
CONTINUOUS
 62
         4
100
AcDbLine
 10
1318.3275047567
 20
-162.7642506387
 30
0.0
 11
1543.7475047567
 21
-162.7642506387
 31
0.0
  0
SOLID
  5
226
100
AcDbEntity
  8
L1_120
  6
CONTINUOUS
 62
         4
100
AcDbTrace
 10
1318.3275047567
 20
-162.7642506387
 30
0.0
 11
1321.0275047567
 21
-162.3592506387
 31
0.0
 12
1321.0275047567
 22
-163.1692506387
 32
0.0
 13
1318.3275047567
 23
-162.7642506387
 33
0.0
  0
SOLID
  5
227
100
AcDbEntity
  8
L1_120
  6
CONTINUOUS
 62
         4
100
AcDbTrace
 10
1543.7475047567
 20
-162.7642506387
 30
0.0
 11
1541.0475047567
 21
-163.1692506387
 31
0.0
 12
1541.0475047567
 22
-162.3592506387
 32
0.0
 13
1543.7475047567
 23
-162.7642506387
 33
0.0
  0
TEXT
  5
229
100
AcDbEntity
  8
L1_120
  6
CONTINUOUS
 62
         4
100
AcDbText
 10
1423.9674779924
 20
-160.7392506387
 30
0.0
 40
2.7
  1
225.42
 41
0.98
  7
BOX
100
AcDbText
  0
ENDBLK
  5
22A
100
AcDbEntity
  8
0
  6
CONTINUOUS
100
AcDbBlockEnd
  0
BLOCK
  5
22C
100
AcDbEntity
  8
0
100
AcDbBlockBegin
  2
*D4
 70
        65
 10
0.0
 20
0.0
 30
0.0
  3
*D4
  1

  0
POINT
  5
22E
100
AcDbEntity
  8
DEFPOINTS
  6
CONTINUOUS
 62
         0
100
AcDbPoint
 10
1572.0145430119
 20
-204.0406455357
 30
0.0
  0
POINT
  5
22F
100
AcDbEntity
  8
DEFPOINTS
  6
CONTINUOUS
 62
         0
100
AcDbPoint
 10
1486.5695834439
 20
-204.0406455357
 30
0.0
  0
POINT
  5
230
100
AcDbEntity
  8
DEFPOINTS
  6
CONTINUOUS
 62
         0
100
AcDbPoint
 10
1486.5695834439
 20
-246.0406455357
 30
0.0
  0
LINE
  5
231
100
AcDbEntity
  8
L1_120
  6
CONTINUOUS
 62
         4
100
AcDbLine
 10
1487.9195834439
 20
-204.0406455357
 30
0.0
 11
1572.6895430119
 21
-204.0406455357
 31
0.0
  0
LINE
  5
232
100
AcDbEntity
  8
L1_120
  6
CONTINUOUS
 62
         4
100
AcDbLine
 10
1487.9195834439
 20
-246.0406455357
 30
0.0
 11
1572.6895430119
 21
-246.0406455357
 31
0.0
  0
LINE
  5
233
100
AcDbEntity
  8
L1_120
  6
CONTINUOUS
 62
         4
100
AcDbLine
 10
1572.0145430119
 20
-204.0406455357
 30
0.0
 11
1572.0145430119
 21
-246.0406455357
 31
0.0
  0
SOLID
  5
234
100
AcDbEntity
  8
L1_120
  6
CONTINUOUS
 62
         4
100
AcDbTrace
 10
1572.0145430119
 20
-204.0406455357
 30
0.0
 11
1572.4195430119
 21
-206.7406455357
 31
0.0
 12
1571.6095430119
 22
-206.7406455357
 32
0.0
 13
1572.0145430119
 23
-204.0406455357
 33
0.0
  0
SOLID
  5
235
100
AcDbEntity
  8
L1_120
  6
CONTINUOUS
 62
         4
100
AcDbTrace
 10
1572.0145430119
 20
-246.0406455357
 30
0.0
 11
1571.6095430119
 21
-243.3406455357
 31
0.0
 12
1572.4195430119
 22
-243.3406455357
 32
0.0
 13
1572.0145430119
 23
-246.0406455357
 33
0.0
  0
TEXT
  5
237
100
AcDbEntity
  8
L1_120
  6
CONTINUOUS
 62
         4
100
AcDbText
 10
1568.8825430119
 20
-230.9998443575
 30
0.0
 40
2.7
  1
崷42
 50
90.0
 41
0.98
  7
BOX
100
AcDbText
  0
ENDBLK
  5
238
100
AcDbEntity
  8
0
  6
CONTINUOUS
100
AcDbBlockEnd
  0
BLOCK
  5
293
100
AcDbEntity
  8
0
100
AcDbBlockBegin
  2
*D5
 70
        65
 10
0.0
 20
0.0
 30
0.0
  3
*D5
  1

  0
POINT
  5
295
100
AcDbEntity
  8
DEFPOINTS
  6
CONTINUOUS
 62
         0
100
AcDbPoint
 10
1492.0475047567
 20
-371.3492425357
 30
0.0
  0
POINT
  5
296
100
AcDbEntity
  8
DEFPOINTS
  6
CONTINUOUS
 62
         0
100
AcDbPoint
 10
1492.0475047567
 20
-347.6686220057
 30
0.0
  0
POINT
  5
297
100
AcDbEntity
  8
DEFPOINTS
  6
CONTINUOUS
 62
         0
100
AcDbPoint
 10
1544.0475047567
 20
-352.219657439
 30
0.0
  0
LINE
  5
298
100
AcDbEntity
  8
L1_120
  6
CONTINUOUS
 62
         4
100
AcDbLine
 10
1492.0475047567
 20
-349.0186220057
 30
0.0
 11
1492.0475047567
 21
-372.0242425357
 31
0.0
  0
LINE
  5
299
100
AcDbEntity
  8
L1_120
  6
CONTINUOUS
 62
         4
100
AcDbLine
 10
1544.0475047567
 20
-353.569657439
 30
0.0
 11
1544.0475047567
 21
-372.0242425357
 31
0.0
  0
LINE
  5
29A
100
AcDbEntity
  8
L1_120
  6
CONTINUOUS
 62
         4
100
AcDbLine
 10
1492.0475047567
 20
-371.3492425357
 30
0.0
 11
1544.0475047567
 21
-371.3492425357
 31
0.0
  0
SOLID
  5
29B
100
AcDbEntity
  8
L1_120
  6
CONTINUOUS
 62
         4
100
AcDbTrace
 10
1492.0475047567
 20
-371.3492425357
 30
0.0
 11
1494.7475047567
 21
-370.9442425357
 31
0.0
 12
1494.7475047567
 22
-371.7542425357
 32
0.0
 13
1492.0475047567
 23
-371.3492425357
 33
0.0
  0
SOLID
  5
29C
100
AcDbEntity
  8
L1_120
  6
CONTINUOUS
 62
         4
100
AcDbTrace
 10
1544.0475047567
 20
-371.3492425357
 30
0.0
 11
1541.3475047567
 21
-371.7542425357
 31
0.0
 12
1541.3475047567
 22
-370.9442425357
 32
0.0
 13
1544.0475047567
 23
-371.3492425357
 33
0.0
  0
TEXT
  5
29E
100
AcDbEntity
  8
L1_120
  6
CONTINUOUS
 62
         4
100
AcDbText
 10
1515.6774255739
 20
-368.2172425357
 30
0.0
 40
2.7
  1
52
  7
BOX
100
AcDbText
  0
ENDBLK
  5
29F
100
AcDbEntity
  8
0
  6
CONTINUOUS
100
AcDbBlockEnd
  0
BLOCK
  5
2A1
100
AcDbEntity
  8
0
100
AcDbBlockBegin
  2
*X6
 70
        65
 10
0.0
 20
0.0
 30
0.0
  3
*X6
  1

  0
LINE
  5
2A2
100
AcDbEntity
  8
L1_120
  6
CONTINUOUS
 62
         4
100
AcDbLine
 10
1540.9884185433
 20
-354.9093773121
 30
0.0
 11
1544.0475047567
 21
-351.8502910987
 31
0.0
  0
LINE
  5
2A3
100
AcDbEntity
  8
L1_120
  6
CONTINUOUS
 62
         4
100
AcDbLine
 10
1536.3833511959
 20
-355.2718039723
 30
0.0
 11
1543.7156047046
 21
-347.9395504637
 31
0.0
  0
LINE
  5
2A4
100
AcDbEntity
  8
L1_120
  6
CONTINUOUS
 62
         4
100
AcDbLine
 10
1531.7782838485
 20
-355.6342306326
 30
0.0
 11
1539.7288924754
 21
-347.6836220057
 31
0.0
  0
LINE
  5
2A5
100
AcDbEntity
  8
L1_120
  6
CONTINUOUS
 62
         4
100
AcDbLine
 10
1527.1732165011
 20
-355.9966572929
 30
0.0
 11
1535.4862517883
 21
-347.6836220057
 31
0.0
  0
LINE
  5
2A6
100
AcDbEntity
  8
L1_120
  6
CONTINUOUS
 62
         4
100
AcDbLine
 10
1522.5681491537
 20
-356.3590839532
 30
0.0
 11
1531.2436111012
 21
-347.6836220057
 31
0.0
  0
LINE
  5
2A7
100
AcDbEntity
  8
L1_120
  6
CONTINUOUS
 62
         4
100
AcDbLine
 10
1517.9630818063
 20
-356.7215106135
 30
0.0
 11
1527.0009704141
 21
-347.6836220057
 31
0.0
  0
LINE
  5
2A8
100
AcDbEntity
  8
L1_120
  6
CONTINUOUS
 62
         4
100
AcDbLine
 10
1513.3580144589
 20
-357.0839372737
 30
0.0
 11
1522.7583297269
 21
-347.6836220057
 31
0.0
  0
LINE
  5
2A9
100
AcDbEntity
  8
L1_120
  6
CONTINUOUS
 62
         4
100
AcDbLine
 10
1541.7883297269
 20
-328.6536220057
 30
0.0
 11
1544.0475047567
 21
-326.3944469759
 31
0.0
  0
LINE
  5
2AA
100
AcDbEntity
  8
L1_120
  6
CONTINUOUS
 62
         4
100
AcDbLine
 10
1508.7529471115
 20
-357.446363934
 30
0.0
 11
1518.5156890398
 21
-347.6836220057
 31
0.0
  0
LINE
  5
2AB
100
AcDbEntity
  8
L1_120
  6
CONTINUOUS
 62
         4
100
AcDbLine
 10
1537.5456890398
 20
-328.6536220057
 30
0.0
 11
1543.9764687195
 21
-322.222842326
 31
0.0
  0
LINE
  5
2AC
100
AcDbEntity
  8
L1_120
  6
CONTINUOUS
 62
         4
100
AcDbLine
 10
1504.1478797641
 20
-357.8087905943
 30
0.0
 11
1514.2730483527
 21
-347.6836220057
 31
0.0
  0
LINE
  5
2AD
100
AcDbEntity
  8
L1_120
  6
CONTINUOUS
 62
         4
100
AcDbLine
 10
1533.3030483527
 20
-328.6536220057
 30
0.0
 11
1540.5623370035
 21
-321.3943333549
 31
0.0
  0
LINE
  5
2AE
100
AcDbEntity
  8
L1_120
  6
CONTINUOUS
 62
         4
100
AcDbLine
 10
1499.5428124167
 20
-358.1712172546
 30
0.0
 11
1510.0304076656
 21
-347.6836220057
 31
0.0
  0
LINE
  5
2AF
100
AcDbEntity
  8
L1_120
  6
CONTINUOUS
 62
         4
100
AcDbLine
 10
1529.0604076656
 20
-328.6536220057
 30
0.0
 11
1536.6292379268
 21
-321.0847917445
 31
0.0
  0
LINE
  5
2B0
100
AcDbEntity
  8
L1_120
  6
CONTINUOUS
 62
         4
100
AcDbLine
 10
1494.9377450693
 20
-358.5336439149
 30
0.0
 11
1505.7877669785
 21
-347.6836220057
 31
0.0
  0
LINE
  5
2B1
100
AcDbEntity
  8
L1_120
  6
CONTINUOUS
 62
         4
100
AcDbLine
 10
1524.8177669785
 20
-328.6536220057
 30
0.0
 11
1532.6961388501
 21
-320.7752501341
 31
0.0
  0
LINE
  5
2B2
100
AcDbEntity
  8
L1_120
  6
CONTINUOUS
 62
         4
100
AcDbLine
 10
1490.3326777219
 20
-358.8960705752
 30
0.0
 11
1500.5601262913
 21
-348.6686220057
 31
0.0
  0
LINE
  5
2B3
100
AcDbEntity
  8
L1_120
  6
CONTINUOUS
 62
         4
100
AcDbLine
 10
1520.5751262913
 20
-328.6536220057
 30
0.0
 11
1528.7630397734
 21
-320.4657085236
 31
0.0
  0
LINE
  5
2B4
100
AcDbEntity
  8
L1_120
  6
CONTINUOUS
 62
         4
100
AcDbLine
 10
1485.8174856042
 20
-359.1686220057
 30
0.0
 11
1496.3174856042
 21
-348.6686220057
 31
0.0
  0
LINE
  5
2B5
100
AcDbEntity
  8
L1_120
  6
CONTINUOUS
 62
         4
100
AcDbLine
 10
1516.3324856042
 20
-328.6536220057
 30
0.0
 11
1524.8299406968
 21
-320.1561669132
 31
0.0
  0
LINE
  5
2B6
100
AcDbEntity
  8
L1_120
  6
CONTINUOUS
 62
         4
100
AcDbLine
 10
1481.5748449171
 20
-359.1686220057
 30
0.0
 11
1492.0748449171
 21
-348.6686220057
 31
0.0
  0
LINE
  5
2B7
100
AcDbEntity
  8
L1_120
  6
CONTINUOUS
 62
         4
100
AcDbLine
 10
1512.0898449171
 20
-328.6536220057
 30
0.0
 11
1520.8968416201
 21
-319.8466253027
 31
0.0
  0
LINE
  5
2B8
100
AcDbEntity
  8
L1_120
  6
CONTINUOUS
 62
         4
100
AcDbLine
 10
1477.33220423
 20
-359.1686220057
 30
0.0
 11
1490.73220423
 21
-345.7686220057
 31
0.0
  0
LINE
  5
2B9
100
AcDbEntity
  8
L1_120
  6
CONTINUOUS
 62
         4
100
AcDbLine
 10
1507.84720423
 20
-328.6536220057
 30
0.0
 11
1516.9637425434
 21
-319.5370836923
 31
0.0
  0
LINE
  5
2BA
100
AcDbEntity
  8
L1_120
  6
CONTINUOUS
 62
         4
100
AcDbLine
 10
1473.0895635429
 20
-359.1686220057
 30
0.0
 11
1486.4895635429
 21
-345.7686220057
 31
0.0
  0
LINE
  5
2BB
100
AcDbEntity
  8
L1_120
  6
CONTINUOUS
 62
         4
100
AcDbLine
 10
1503.6045635429
 20
-328.6536220057
 30
0.0
 11
1513.0306434667
 21
-319.2275420818
 31
0.0
  0
LINE
  5
2BC
100
AcDbEntity
  8
L1_120
  6
CONTINUOUS
 62
         4
100
AcDbLine
 10
1468.8469228558
 20
-359.1686220057
 30
0.0
 11
1482.2469228557
 21
-345.7686220057
 31
0.0
  0
LINE
  5
2BD
100
AcDbEntity
  8
L1_120
  6
CONTINUOUS
 62
         4
100
AcDbLine
 10
1500.3469228557
 20
-327.6686220057
 30
0.0
 11
1509.0975443901
 21
-318.9180004714
 31
0.0
  0
LINE
  5
2BE
100
AcDbEntity
  8
L1_120
  6
CONTINUOUS
 62
         4
100
AcDbLine
 10
1464.6042821686
 20
-359.1686220057
 30
0.0
 11
1478.0042821686
 21
-345.7686220057
 31
0.0
  0
LINE
  5
2BF
100
AcDbEntity
  8
L1_120
  6
CONTINUOUS
 62
         4
100
AcDbLine
 10
1496.1042821686
 20
-327.6686220057
 30
0.0
 11
1505.1644453134
 21
-318.608458861
 31
0.0
  0
LINE
  5
2C0
100
AcDbEntity
  8
L1_120
  6
CONTINUOUS
 62
         4
100
AcDbLine
 10
1460.3616414815
 20
-359.1686220057
 30
0.0
 11
1473.7616414815
 21
-345.7686220057
 31
0.0
  0
LINE
  5
2C1
100
AcDbEntity
  8
L1_120
  6
CONTINUOUS
 62
         4
100
AcDbLine
 10
1488.9616414815
 20
-330.5686220057
 30
0.0
 11
1501.2313462367
 21
-318.2989172505
 31
0.0
  0
LINE
  5
2C2
100
AcDbEntity
  8
L1_120
  6
CONTINUOUS
 62
         4
100
AcDbLine
 10
1456.1190007944
 20
-359.1686220057
 30
0.0
 11
1469.5190007944
 21
-345.7686220057
 31
0.0
  0
LINE
  5
2C3
100
AcDbEntity
  8
L1_120
  6
CONTINUOUS
 62
         4
100
AcDbLine
 10
1484.7190007944
 20
-330.5686220057
 30
0.0
 11
1497.29824716
 21
-317.9893756401
 31
0.0
  0
LINE
  5
2C4
100
AcDbEntity
  8
L1_120
  6
CONTINUOUS
 62
         4
100
AcDbLine
 10
1451.8763601073
 20
-359.1686220057
 30
0.0
 11
1465.2763601073
 21
-345.7686220057
 31
0.0
  0
LINE
  5
2C5
100
AcDbEntity
  8
L1_120
  6
CONTINUOUS
 62
         4
100
AcDbLine
 10
1480.4763601073
 20
-330.5686220057
 30
0.0
 11
1493.3651480834
 21
-317.6798340296
 31
0.0
  0
LINE
  5
2C6
100
AcDbEntity
  8
L1_120
  6
CONTINUOUS
 62
         4
100
AcDbLine
 10
1447.6337194202
 20
-359.1686220057
 30
0.0
 11
1461.5837194202
 21
-345.2186220057
 31
0.0
  0
LINE
  5
2C7
100
AcDbEntity
  8
L1_120
  6
CONTINUOUS
 62
         4
100
AcDbLine
 10
1476.2337194202
 20
-330.5686220057
 30
0.0
 11
1489.4320490067
 21
-317.3702924192
 31
0.0
  0
LINE
  5
2C8
100
AcDbEntity
  8
L1_120
  6
CONTINUOUS
 62
         4
100
AcDbLine
 10
1443.391078733
 20
-359.1686220057
 30
0.0
 11
1457.341078733
 21
-345.2186220057
 31
0.0
  0
LINE
  5
2C9
100
AcDbEntity
  8
L1_120
  6
CONTINUOUS
 62
         4
100
AcDbLine
 10
1471.991078733
 20
-330.5686220057
 30
0.0
 11
1485.391078733
 21
-317.1686220057
 31
0.0
  0
LINE
  5
2CA
100
AcDbEntity
  8
L1_120
  6
CONTINUOUS
 62
         4
100
AcDbLine
 10
1439.1484380459
 20
-359.1686220057
 30
0.0
 11
1453.0984380459
 21
-345.2186220057
 31
0.0
  0
LINE
  5
2CB
100
AcDbEntity
  8
L1_120
  6
CONTINUOUS
 62
         4
100
AcDbLine
 10
1467.7484380459
 20
-330.5686220057
 30
0.0
 11
1481.1484380459
 21
-317.1686220057
 31
0.0
  0
LINE
  5
2CC
100
AcDbEntity
  8
L1_120
  6
CONTINUOUS
 62
         4
100
AcDbLine
 10
1434.9057973588
 20
-359.1686220057
 30
0.0
 11
1448.8557973588
 21
-345.2186220057
 31
0.0
  0
LINE
  5
2CD
100
AcDbEntity
  8
L1_120
  6
CONTINUOUS
 62
         4
100
AcDbLine
 10
1463.5057973588
 20
-330.5686220057
 30
0.0
 11
1476.9057973588
 21
-317.1686220057
 31
0.0
  0
LINE
  5
2CE
100
AcDbEntity
  8
L1_120
  6
CONTINUOUS
 62
         4
100
AcDbLine
 10
1430.6631566717
 20
-359.1686220057
 30
0.0
 11
1444.6131566717
 21
-345.2186220057
 31
0.0
  0
LINE
  5
2CF
100
AcDbEntity
  8
L1_120
  6
CONTINUOUS
 62
         4
100
AcDbLine
 10
1458.7131566717
 20
-331.1186220057
 30
0.0
 11
1472.6631566717
 21
-317.1686220057
 31
0.0
  0
LINE
  5
2D0
100
AcDbEntity
  8
L1_120
  6
CONTINUOUS
 62
         4
100
AcDbLine
 10
1426.4205159846
 20
-359.1686220057
 30
0.0
 11
1440.3705159846
 21
-345.2186220057
 31
0.0
  0
LINE
  5
2D1
100
AcDbEntity
  8
L1_120
  6
CONTINUOUS
 62
         4
100
AcDbLine
 10
1454.4705159846
 20
-331.1186220057
 30
0.0
 11
1468.4205159846
 21
-317.1686220057
 31
0.0
  0
LINE
  5
2D2
100
AcDbEntity
  8
L1_120
  6
CONTINUOUS
 62
         4
100
AcDbLine
 10
1422.1778752974
 20
-359.1686220057
 30
0.0
 11
1436.1278752974
 21
-345.2186220057
 31
0.0
  0
LINE
  5
2D3
100
AcDbEntity
  8
L1_120
  6
CONTINUOUS
 62
         4
100
AcDbLine
 10
1450.2278752974
 20
-331.1186220057
 30
0.0
 11
1464.1778752974
 21
-317.1686220057
 31
0.0
  0
LINE
  5
2D4
100
AcDbEntity
  8
L1_120
  6
CONTINUOUS
 62
         4
100
AcDbLine
 10
1407.4352346103
 20
-369.6686220057
 30
0.0
 11
1411.0275047567
 21
-366.0763518593
 31
0.0
  0
LINE
  5
2D5
100
AcDbEntity
  8
L1_120
  6
CONTINUOUS
 62
         4
100
AcDbLine
 10
1421.1475047567
 20
-355.9563518593
 30
0.0
 11
1431.8852346103
 21
-345.2186220057
 31
0.0
  0
LINE
  5
2D6
100
AcDbEntity
  8
L1_120
  6
CONTINUOUS
 62
         4
100
AcDbLine
 10
1445.9852346103
 20
-331.1186220057
 30
0.0
 11
1459.9352346103
 21
-317.1686220057
 31
0.0
  0
LINE
  5
2D7
100
AcDbEntity
  8
L1_120
  6
CONTINUOUS
 62
         4
100
AcDbLine
 10
1404.7363555641
 20
-368.1248603648
 30
0.0
 11
1411.0275047567
 21
-361.8337111722
 31
0.0
  0
LINE
  5
2D8
100
AcDbEntity
  8
L1_120
  6
CONTINUOUS
 62
         4
100
AcDbLine
 10
1413.6925939232
 20
-359.1686220057
 30
0.0
 11
1415.9475047567
 21
-356.9137111722
 31
0.0
  0
LINE
  5
2D9
100
AcDbEntity
  8
L1_120
  6
CONTINUOUS
 62
         4
100
AcDbLine
 10
1420.8591028447
 20
-352.0021130842
 30
0.0
 11
1427.6425939232
 21
-345.2186220057
 31
0.0
  0
LINE
  5
2DA
100
AcDbEntity
  8
L1_120
  6
CONTINUOUS
 62
         4
100
AcDbLine
 10
1441.7425939232
 20
-331.1186220057
 30
0.0
 11
1455.6925939232
 21
-317.1686220057
 31
0.0
  0
LINE
  5
2DB
100
AcDbEntity
  8
L1_120
  6
CONTINUOUS
 62
         4
100
AcDbLine
 10
1403.1834412935
 20
-365.4351339483
 30
0.0
 11
1415.9475047567
 21
-352.6710704851
 31
0.0
  0
LINE
  5
2DC
100
AcDbEntity
  8
L1_120
  6
CONTINUOUS
 62
         4
100
AcDbLine
 10
1417.136310623
 20
-351.4822646188
 30
0.0
 11
1423.3999532361
 21
-345.2186220057
 31
0.0
  0
LINE
  5
2DD
100
AcDbEntity
  8
L1_120
  6
CONTINUOUS
 62
         4
100
AcDbLine
 10
1437.4999532361
 20
-331.1186220057
 30
0.0
 11
1451.4499532361
 21
-317.1686220057
 31
0.0
  0
LINE
  5
2DE
100
AcDbEntity
  8
L1_120
  6
CONTINUOUS
 62
         4
100
AcDbLine
 10
1394.707312549
 20
-369.6686220057
 30
0.0
 11
1396.8841746983
 21
-367.4917598563
 31
0.0
  0
LINE
  5
2DF
100
AcDbEntity
  8
L1_120
  6
CONTINUOUS
 62
         4
100
AcDbLine
 10
1399.707312549
 20
-364.6686220057
 30
0.0
 11
1419.157312549
 21
-345.2186220057
 31
0.0
  0
LINE
  5
2E0
100
AcDbEntity
  8
L1_120
  6
CONTINUOUS
 62
         4
100
AcDbLine
 10
1433.257312549
 20
-331.1186220057
 30
0.0
 11
1447.207312549
 21
-317.1686220057
 31
0.0
  0
LINE
  5
2E1
100
AcDbEntity
  8
L1_120
  6
CONTINUOUS
 62
         4
100
AcDbLine
 10
1390.4646718618
 20
-369.6686220057
 30
0.0
 11
1414.9146718618
 21
-345.2186220057
 31
0.0
  0
LINE
  5
2E2
100
AcDbEntity
  8
L1_120
  6
CONTINUOUS
 62
         4
100
AcDbLine
 10
1429.0146718618
 20
-331.1186220057
 30
0.0
 11
1442.9646718618
 21
-317.1686220057
 31
0.0
  0
LINE
  5
2E3
100
AcDbEntity
  8
L1_120
  6
CONTINUOUS
 62
         4
100
AcDbLine
 10
1386.4243824518
 20
-369.4662707287
 30
0.0
 11
1410.6720311747
 21
-345.2186220057
 31
0.0
  0
LINE
  5
2E4
100
AcDbEntity
  8
L1_120
  6
CONTINUOUS
 62
         4
100
AcDbLine
 10
1424.7720311747
 20
-331.1186220057
 30
0.0
 11
1438.7220311747
 21
-317.1686220057
 31
0.0
  0
LINE
  5
2E5
100
AcDbEntity
  8
L1_120
  6
CONTINUOUS
 62
         4
100
AcDbLine
 10
1386.0275047567
 20
-365.6205077366
 30
0.0
 11
1406.4293904876
 21
-345.2186220057
 31
0.0
  0
LINE
  5
2E6
100
AcDbEntity
  8
L1_120
  6
CONTINUOUS
 62
         4
100
AcDbLine
 10
1420.5293904876
 20
-331.1186220057
 30
0.0
 11
1434.4793904876
 21
-317.1686220057
 31
0.0
  0
LINE
  5
2E7
100
AcDbEntity
  8
L1_120
  6
CONTINUOUS
 62
         4
100
AcDbLine
 10
1386.0275047567
 20
-361.3778670495
 30
0.0
 11
1402.1867498005
 21
-345.2186220057
 31
0.0
  0
LINE
  5
2E8
100
AcDbEntity
  8
L1_120
  6
CONTINUOUS
 62
         4
100
AcDbLine
 10
1416.7434743908
 20
-330.6618974154
 30
0.0
 11
1430.2367498005
 21
-317.1686220057
 31
0.0
  0
LINE
  5
2E9
100
AcDbEntity
  8
L1_120
  6
CONTINUOUS
 62
         4
100
AcDbLine
 10
1382.9292677906
 20
-360.2334633285
 30
0.0
 11
1397.9441091134
 21
-345.2186220057
 31
0.0
  0
LINE
  5
2EA
100
AcDbEntity
  8
L1_120
  6
CONTINUOUS
 62
         4
100
AcDbLine
 10
1414.2481080359
 20
-328.9146230832
 30
0.0
 11
1417.8789745235
 21
-325.2837565955
 31
0.0
  0
LINE
  5
2EB
100
AcDbEntity
  8
L1_120
  6
CONTINUOUS
 62
         4
100
AcDbLine
 10
1421.1475047567
 20
-322.0152263624
 30
0.0
 11
1425.9941091134
 21
-317.1686220057
 31
0.0
  0
LINE
  5
2EC
100
AcDbEntity
  8
L1_120
  6
CONTINUOUS
 62
         4
100
AcDbLine
 10
1379.2265969644
 20
-359.6934934676
 30
0.0
 11
1393.7014684262
 21
-345.2186220057
 31
0.0
  0
LINE
  5
2ED
100
AcDbEntity
  8
L1_120
  6
CONTINUOUS
 62
         4
100
AcDbLine
 10
1407.8014684262
 20
-331.1186220057
 30
0.0
 11
1409.3832920389
 21
-329.536798393
 31
0.0
  0
LINE
  5
2EE
100
AcDbEntity
  8
L1_120
  6
CONTINUOUS
 62
         4
100
AcDbLine
 10
1411.7527416811
 20
-327.1673487509
 30
0.0
 11
1415.9475047567
 21
-322.9725856752
 31
0.0
  0
LINE
  5
2EF
100
AcDbEntity
  8
L1_120
  6
CONTINUOUS
 62
         4
100
AcDbLine
 10
1421.1475047567
 20
-317.7725856752
 30
0.0
 11
1421.7514684262
 21
-317.1686220057
 31
0.0
  0
LINE
  5
2F0
100
AcDbEntity
  8
L1_120
  6
CONTINUOUS
 62
         4
100
AcDbLine
 10
1375.5239261382
 20
-359.1535236067
 30
0.0
 11
1389.4588277391
 21
-345.2186220057
 31
0.0
  0
LINE
  5
2F1
100
AcDbEntity
  8
L1_120
  6
CONTINUOUS
 62
         4
100
AcDbLine
 10
1403.5588277391
 20
-331.1186220057
 30
0.0
 11
1406.8879256841
 21
-327.7895240608
 31
0.0
  0
LINE
  5
2F2
100
AcDbEntity
  8
L1_120
  6
CONTINUOUS
 62
         4
100
AcDbLine
 10
1409.2573753262
 20
-325.4200744186
 30
0.0
 11
1415.9475047567
 21
-318.7299449881
 31
0.0
  0
LINE
  5
2F3
100
AcDbEntity
  8
L1_120
  6
CONTINUOUS
 62
         4
100
AcDbLine
 10
1371.8212553119
 20
-358.6135537458
 30
0.0
 11
1385.216187052
 21
-345.2186220057
 31
0.0
  0
LINE
  5
2F4
100
AcDbEntity
  8
L1_120
  6
CONTINUOUS
 62
         4
100
AcDbLine
 10
1399.316187052
 20
-331.1186220057
 30
0.0
 11
1404.3925593292
 21
-326.0422497285
 31
0.0
  0
LINE
  5
2F5
100
AcDbEntity
  8
L1_120
  6
CONTINUOUS
 62
         4
100
AcDbLine
 10
1406.7620089713
 20
-323.6728000864
 30
0.0
 11
1413.266187052
 21
-317.1686220057
 31
0.0
  0
LINE
  5
2F6
100
AcDbEntity
  8
L1_120
  6
CONTINUOUS
 62
         4
100
AcDbLine
 10
1368.1185844857
 20
-358.0735838849
 30
0.0
 11
1380.9735463649
 21
-345.2186220057
 31
0.0
  0
LINE
  5
2F7
100
AcDbEntity
  8
L1_120
  6
CONTINUOUS
 62
         4
100
AcDbLine
 10
1395.0735463649
 20
-331.1186220057
 30
0.0
 11
1401.8971929744
 21
-324.2949753962
 31
0.0
  0
LINE
  5
2F8
100
AcDbEntity
  8
L1_120
  6
CONTINUOUS
 62
         4
100
AcDbLine
 10
1404.2666426165
 20
-321.9255257541
 30
0.0
 11
1411.0275047567
 21
-315.1646636139
 31
0.0
  0
LINE
  5
2F9
100
AcDbEntity
  8
L1_120
  6
CONTINUOUS
 62
         4
100
AcDbLine
 10
1364.4159136595
 20
-357.533614024
 30
0.0
 11
1376.7309056778
 21
-345.2186220057
 31
0.0
  0
LINE
  5
2FA
100
AcDbEntity
  8
L1_120
  6
CONTINUOUS
 62
         4
100
AcDbLine
 10
1390.8309056778
 20
-331.1186220057
 30
0.0
 11
1399.4018266195
 21
-322.547701064
 31
0.0
  0
LINE
  5
2FB
100
AcDbEntity
  8
L1_120
  6
CONTINUOUS
 62
         4
100
AcDbLine
 10
1401.7712762616
 20
-320.1782514219
 30
0.0
 11
1411.0275047567
 21
-310.9220229268
 31
0.0
  0
LINE
  5
2FC
100
AcDbEntity
  8
L1_120
  6
CONTINUOUS
 62
         4
100
AcDbLine
 10
1360.7132428333
 20
-356.9936441631
 30
0.0
 11
1372.4882649907
 21
-345.2186220057
 31
0.0
  0
LINE
  5
2FD
100
AcDbEntity
  8
L1_120
  6
CONTINUOUS
 62
         4
100
AcDbLine
 10
1386.5882649907
 20
-331.1186220057
 30
0.0
 11
1396.9064602647
 21
-320.8004267317
 31
0.0
  0
LINE
  5
2FE
100
AcDbEntity
  8
L1_120
  6
CONTINUOUS
 62
         4
100
AcDbLine
 10
1399.2759099068
 20
-318.4309770896
 30
0.0
 11
1410.7399711869
 21
-306.9669158095
 31
0.0
  0
LINE
  5
2FF
100
AcDbEntity
  8
L1_120
  6
CONTINUOUS
 62
         4
100
AcDbLine
 10
1357.0105720071
 20
-356.4536743022
 30
0.0
 11
1368.2456243035
 21
-345.2186220057
 31
0.0
  0
LINE
  5
300
100
AcDbEntity
  8
L1_120
  6
CONTINUOUS
 62
         4
100
AcDbLine
 10
1382.3456243035
 20
-331.1186220057
 30
0.0
 11
1394.4110939098
 21
-319.0531523994
 31
0.0
  0
LINE
  5
301
100
AcDbEntity
  8
L1_120
  6
CONTINUOUS
 62
         4
100
AcDbLine
 10
1396.7805435519
 20
-316.6837027573
 30
0.0
 11
1401.7956243035
 21
-311.6686220057
 31
0.0
  0
LINE
  5
302
100
AcDbEntity
  8
L1_120
  6
CONTINUOUS
 62
         4
100
AcDbLine
 10
1404.0321597717
 20
-309.4320865376
 30
0.0
 11
1406.7956243035
 21
-306.6686220057
 31
0.0
  0
LINE
  5
303
100
AcDbEntity
  8
L1_120
  6
CONTINUOUS
 62
         4
100
AcDbLine
 10
1353.3079011808
 20
-355.9137044413
 30
0.0
 11
1364.0029836164
 21
-345.2186220057
 31
0.0
  0
LINE
  5
304
100
AcDbEntity
  8
L1_120
  6
CONTINUOUS
 62
         4
100
AcDbLine
 10
1378.1029836164
 20
-331.1186220057
 30
0.0
 11
1391.915727555
 21
-317.3058780672
 31
0.0
  0
LINE
  5
305
100
AcDbEntity
  8
L1_120
  6
CONTINUOUS
 62
         4
100
AcDbLine
 10
1394.2851771971
 20
-314.9364284251
 30
0.0
 11
1398.1275047567
 21
-311.0941008654
 31
0.0
  0
LINE
  5
306
100
AcDbEntity
  8
L1_120
  6
CONTINUOUS
 62
         4
100
AcDbLine
 10
1349.6052303546
 20
-355.3737345804
 30
0.0
 11
1359.7603429293
 21
-345.2186220057
 31
0.0
  0
LINE
  5
307
100
AcDbEntity
  8
L1_120
  6
CONTINUOUS
 62
         4
100
AcDbLine
 10
1373.8603429293
 20
-331.1186220057
 30
0.0
 11
1389.4203612001
 21
-315.5586037349
 31
0.0
  0
LINE
  5
308
100
AcDbEntity
  8
L1_120
  6
CONTINUOUS
 62
         4
100
AcDbLine
 10
1391.7898108422
 20
-313.1891540928
 30
0.0
 11
1396.6094016537
 21
-308.3695632813
 31
0.0
  0
LINE
  5
309
100
AcDbEntity
  8
L1_120
  6
CONTINUOUS
 62
         4
100
AcDbLine
 10
1345.9025595284
 20
-354.8337647195
 30
0.0
 11
1355.5177022422
 21
-345.2186220057
 31
0.0
  0
LINE
  5
30A
100
AcDbEntity
  8
L1_120
  6
CONTINUOUS
 62
         4
100
AcDbLine
 10
1369.6177022422
 20
-331.1186220057
 30
0.0
 11
1384.7941666651
 21
-315.9421575828
 31
0.0
  0
LINE
  5
30B
100
AcDbEntity
  8
L1_120
  6
CONTINUOUS
 62
         4
100
AcDbLine
 10
1386.0275047567
 20
-314.7088194912
 30
0.0
 11
1386.9249948453
 21
-313.8113294026
 31
0.0
  0
LINE
  5
30C
100
AcDbEntity
  8
L1_120
  6
CONTINUOUS
 62
         4
100
AcDbLine
 10
1389.2944444874
 20
-311.4418797605
 30
0.0
 11
1394.0677022422
 21
-306.6686220057
 31
0.0
  0
LINE
  5
30D
100
AcDbEntity
  8
L1_120
  6
CONTINUOUS
 62
         4
100
AcDbLine
 10
1342.1998887022
 20
-354.2937948586
 30
0.0
 11
1351.2750615551
 21
-345.2186220057
 31
0.0
  0
LINE
  5
30E
100
AcDbEntity
  8
L1_120
  6
CONTINUOUS
 62
         4
100
AcDbLine
 10
1365.3750615551
 20
-331.1186220057
 30
0.0
 11
1379.9563555606
 21
-316.5373280002
 31
0.0
  0
LINE
  5
30F
100
AcDbEntity
  8
L1_120
  6
CONTINUOUS
 62
         4
100
AcDbLine
 10
1387.0862841497
 20
-309.407399411
 30
0.0
 11
1389.8250615551
 21
-306.6686220057
 31
0.0
  0
LINE
  5
310
100
AcDbEntity
  8
L1_120
  6
CONTINUOUS
 62
         4
100
AcDbLine
 10
1338.4972178759
 20
-353.7538249977
 30
0.0
 11
1347.0324208679
 21
-345.2186220057
 31
0.0
  0
LINE
  5
311
100
AcDbEntity
  8
L1_120
  6
CONTINUOUS
 62
         4
100
AcDbLine
 10
1361.1324208679
 20
-331.1186220057
 30
0.0
 11
1374.9893662465
 21
-317.2616766272
 31
0.0
  0
LINE
  5
312
100
AcDbEntity
  8
L1_120
  6
CONTINUOUS
 62
         4
100
AcDbLine
 10
1334.7945470497
 20
-353.2138551368
 30
0.0
 11
1342.7897801808
 21
-345.2186220057
 31
0.0
  0
LINE
  5
313
100
AcDbEntity
  8
L1_120
  6
CONTINUOUS
 62
         4
100
AcDbLine
 10
1356.8897801808
 20
-331.1186220057
 30
0.0
 11
1370.0223769324
 21
-317.9860252541
 31
0.0
  0
LINE
  5
314
100
AcDbEntity
  8
L1_120
  6
CONTINUOUS
 62
         4
100
AcDbLine
 10
1331.0918762235
 20
-352.6738852759
 30
0.0
 11
1338.5471394937
 21
-345.2186220057
 31
0.0
  0
LINE
  5
315
100
AcDbEntity
  8
L1_120
  6
CONTINUOUS
 62
         4
100
AcDbLine
 10
1352.6471394937
 20
-331.1186220057
 30
0.0
 11
1365.0553876184
 21
-318.710373881
 31
0.0
  0
LINE
  5
316
100
AcDbEntity
  8
L1_120
  6
CONTINUOUS
 62
         4
100
AcDbLine
 10
1327.3892053973
 20
-352.133915415
 30
0.0
 11
1334.3044988066
 21
-345.2186220057
 31
0.0
  0
LINE
  5
317
100
AcDbEntity
  8
L1_120
  6
CONTINUOUS
 62
         4
100
AcDbLine
 10
1348.4044988066
 20
-331.1186220057
 30
0.0
 11
1360.0883983043
 21
-319.434722508
 31
0.0
  0
LINE
  5
318
100
AcDbEntity
  8
L1_120
  6
CONTINUOUS
 62
         4
100
AcDbLine
 10
1323.6865345711
 20
-351.5939455541
 30
0.0
 11
1330.0618581195
 21
-345.2186220057
 31
0.0
  0
LINE
  5
319
100
AcDbEntity
  8
L1_120
  6
CONTINUOUS
 62
         4
100
AcDbLine
 10
1344.1618581195
 20
-331.1186220057
 30
0.0
 11
1355.1214089903
 21
-320.1590711349
 31
0.0
  0
LINE
  5
31A
100
AcDbEntity
  8
L1_120
  6
CONTINUOUS
 62
         4
100
AcDbLine
 10
1319.9838637448
 20
-351.0539756932
 30
0.0
 11
1324.3692174323
 21
-346.6686220057
 31
0.0
  0
LINE
  5
31B
100
AcDbEntity
  8
L1_120
  6
CONTINUOUS
 62
         4
100
AcDbLine
 10
1339.9192174323
 20
-331.1186220057
 30
0.0
 11
1350.1544196762
 21
-320.8834197619
 31
0.0
  0
LINE
  5
31C
100
AcDbEntity
  8
L1_120
  6
CONTINUOUS
 62
         4
100
AcDbLine
 10
1318.627505044
 20
-348.167693707
 30
0.0
 11
1320.126576458
 21
-346.668622293
 31
0.0
  0
LINE
  5
31D
100
AcDbEntity
  8
L1_120
  6
CONTINUOUS
 62
         4
100
AcDbLine
 10
1335.6765767452
 20
-331.1186220057
 30
0.0
 11
1345.1874303621
 21
-321.6077683888
 31
0.0
  0
LINE
  5
31E
100
AcDbEntity
  8
L1_120
  6
CONTINUOUS
 62
         4
100
AcDbLine
 10
1331.4339360581
 20
-331.1186220057
 30
0.0
 11
1340.2204410481
 21
-322.3321170157
 31
0.0
  0
LINE
  5
31F
100
AcDbEntity
  8
L1_120
  6
CONTINUOUS
 62
         4
100
AcDbLine
 10
1327.6275047567
 20
-330.68241262
 30
0.0
 11
1335.253451734
 21
-323.0564656427
 31
0.0
  0
LINE
  5
320
100
AcDbEntity
  8
L1_120
  6
CONTINUOUS
 62
         4
100
AcDbLine
 10
1324.3986546839
 20
-329.6686220057
 30
0.0
 11
1330.28646242
 21
-323.7808142696
 31
0.0
  0
LINE
  5
321
100
AcDbEntity
  8
L1_120
  6
CONTINUOUS
 62
         4
100
AcDbLine
 10
1320.1560139967
 20
-329.6686220057
 30
0.0
 11
1325.3194731059
 21
-324.5051628966
 31
0.0
  0
LINE
  5
322
100
AcDbEntity
  8
L1_120
  6
CONTINUOUS
 62
         4
100
AcDbLine
 10
1318.6275047567
 20
-326.9544905586
 30
0.0
 11
1320.3524837918
 21
-325.2295115235
 31
0.0
  0
ENDBLK
  5
323
100
AcDbEntity
  8
0
  6
CONTINUOUS
100
AcDbBlockEnd
  0
BLOCK
  5
327
100
AcDbEntity
  8
0
100
AcDbBlockBegin
  2
*D7
 70
        65
 10
0.0
 20
0.0
 30
0.0
  3
*D7
  1

  0
POINT
  5
329
100
AcDbEntity
  8
DEFPOINTS
  6
CONTINUOUS
 62
         0
100
AcDbPoint
 10
1538.2720913127
 20
-306.66725772
 30
0.0
  0
POINT
  5
32A
100
AcDbEntity
  8
DEFPOINTS
  6
CONTINUOUS
 62
         0
100
AcDbPoint
 10
1538.2720913127
 20
-294.8384065024
 30
0.0
  0
POINT
  5
32B
100
AcDbEntity
  8
DEFPOINTS
  6
CONTINUOUS
 62
         0
100
AcDbPoint
 10
1558.2720913127
 20
-294.7436623908
 30
0.0
  0
LINE
  5
32C
100
AcDbEntity
  8
L1_120
  6
CONTINUOUS
 62
         4
100
AcDbLine
 10
1538.2720913127
 20
-296.1884065024
 30
0.0
 11
1538.2720913127
 21
-307.34225772
 31
0.0
  0
LINE
  5
32D
100
AcDbEntity
  8
L1_120
  6
CONTINUOUS
 62
         4
100
AcDbLine
 10
1558.2720913127
 20
-296.0936623908
 30
0.0
 11
1558.2720913127
 21
-307.34225772
 31
0.0
  0
LINE
  5
32E
100
AcDbEntity
  8
L1_120
  6
CONTINUOUS
 62
         4
100
AcDbLine
 10
1538.2720913127
 20
-306.66725772
 30
0.0
 11
1558.2720913127
 21
-306.66725772
 31
0.0
  0
SOLID
  5
32F
100
AcDbEntity
  8
L1_120
  6
CONTINUOUS
 62
         4
100
AcDbTrace
 10
1538.2720913127
 20
-306.66725772
 30
0.0
 11
1540.9720913127
 21
-306.26225772
 31
0.0
 12
1540.9720913127
 22
-307.07225772
 32
0.0
 13
1538.2720913127
 23
-306.66725772
 33
0.0
  0
SOLID
  5
330
100
AcDbEntity
  8
L1_120
  6
CONTINUOUS
 62
         4
100
AcDbTrace
 10
1558.2720913127
 20
-306.66725772
 30
0.0
 11
1555.5720913127
 21
-307.07225772
 31
0.0
 12
1555.5720913127
 22
-306.26225772
 32
0.0
 13
1558.2720913127
 23
-306.66725772
 33
0.0
  0
TEXT
  5
332
100
AcDbEntity
  8
L1_120
  6
CONTINUOUS
 62
         4
100
AcDbText
 10
1545.557882281
 20
-304.64225772
 30
0.0
 40
2.7
  1
20
  7
BOX
100
AcDbText
  0
ENDBLK
  5
333
100
AcDbEntity
  8
0
  6
CONTINUOUS
100
AcDbBlockEnd
  0
BLOCK
  5
335
100
AcDbEntity
  8
0
100
AcDbBlockBegin
  2
*D8
 70
        65
 10
0.0
 20
0.0
 30
0.0
  3
*D8
  1

  0
POINT
  5
337
100
AcDbEntity
  8
DEFPOINTS
  6
CONTINUOUS
 62
         0
100
AcDbPoint
 10
1512.7298190027
 20
-273.9970861023
 30
0.0
  0
POINT
  5
338
100
AcDbEntity
  8
DEFPOINTS
  6
CONTINUOUS
 62
         0
100
AcDbPoint
 10
1512.7298190027
 20
-286.434261314
 30
0.0
  0
POINT
  5
339
100
AcDbEntity
  8
DEFPOINTS
  6
CONTINUOUS
 62
         0
100
AcDbPoint
 10
1520.7298190027
 20
-286.434261314
 30
0.0
  0
LINE
  5
33A
100
AcDbEntity
  8
L1_120
  6
CONTINUOUS
 62
         4
100
AcDbLine
 10
1512.7298190027
 20
-285.084261314
 30
0.0
 11
1512.7298190027
 21
-273.3220861023
 31
0.0
  0
LINE
  5
33B
100
AcDbEntity
  8
L1_120
  6
CONTINUOUS
 62
         4
100
AcDbLine
 10
1520.7298190027
 20
-285.084261314
 30
0.0
 11
1520.7298190027
 21
-273.3220861023
 31
0.0
  0
LINE
  5
33C
100
AcDbEntity
  8
L1_120
  6
CONTINUOUS
 62
         4
100
AcDbLine
 10
1512.7298190027
 20
-273.9970861023
 30
0.0
 11
1520.7298190027
 21
-273.9970861023
 31
0.0
  0
SOLID
  5
33D
100
AcDbEntity
  8
L1_120
  6
CONTINUOUS
 62
         4
100
AcDbTrace
 10
1512.7298190027
 20
-273.9970861023
 30
0.0
 11
1515.4298190027
 21
-273.5920861023
 31
0.0
 12
1515.4298190027
 22
-274.4020861023
 32
0.0
 13
1512.7298190027
 23
-273.9970861023
 33
0.0
  0
SOLID
  5
33E
100
AcDbEntity
  8
L1_120
  6
CONTINUOUS
 62
         4
100
AcDbTrace
 10
1520.7298190027
 20
-273.9970861023
 30
0.0
 11
1518.0298190027
 21
-274.4020861023
 31
0.0
 12
1518.0298190027
 22
-273.5920861023
 32
0.0
 13
1520.7298190027
 23
-273.9970861023
 33
0.0
  0
TEXT
  5
340
100
AcDbEntity
  8
L1_120
  6
CONTINUOUS
 62
         4
100
AcDbText
 10
1515.3798190027
 20
-271.9720861023
 30
0.0
 40
2.7
  1
8
  7
BOX
100
AcDbText
  0
ENDBLK
  5
341
100
AcDbEntity
  8
0
  6
CONTINUOUS
100
AcDbBlockEnd
  0
BLOCK
  5
35E
100
AcDbEntity
  8
0
100
AcDbBlockBegin
  2
*D9
 70
        65
 10
0.0
 20
0.0
 30
0.0
  3
*D9
  1

  0
POINT
  5
360
100
AcDbEntity
  8
DEFPOINTS
  6
CONTINUOUS
 62
         0
100
AcDbPoint
 10
1574.5606350675
 20
-280.7436623908
 30
0.0
  0
POINT
  5
361
100
AcDbEntity
  8
DEFPOINTS
  6
CONTINUOUS
 62
         0
100
AcDbPoint
 10
1556.2720913127
 20
-280.7436623908
 30
0.0
  0
POINT
  5
362
100
AcDbEntity
  8
DEFPOINTS
  6
CONTINUOUS
 62
         0
100
AcDbPoint
 10
1556.2720913127
 20
-296.7436623908
 30
0.0
  0
LINE
  5
363
100
AcDbEntity
  8
L1_120
  6
CONTINUOUS
 62
         4
100
AcDbLine
 10
1557.6220913127
 20
-280.7436623908
 30
0.0
 11
1575.2356350675
 21
-280.7436623908
 31
0.0
  0
LINE
  5
364
100
AcDbEntity
  8
L1_120
  6
CONTINUOUS
 62
         4
100
AcDbLine
 10
1557.6220913127
 20
-296.7436623908
 30
0.0
 11
1575.2356350675
 21
-296.7436623908
 31
0.0
  0
LINE
  5
365
100
AcDbEntity
  8
L1_120
  6
CONTINUOUS
 62
         4
100
AcDbLine
 10
1574.5606350675
 20
-280.7436623908
 30
0.0
 11
1574.5606350675
 21
-296.7436623908
 31
0.0
  0
SOLID
  5
366
100
AcDbEntity
  8
L1_120
  6
CONTINUOUS
 62
         4
100
AcDbTrace
 10
1574.5606350675
 20
-280.7436623908
 30
0.0
 11
1574.9656350675
 21
-283.4436623908
 31
0.0
 12
1574.1556350675
 22
-283.4436623908
 32
0.0
 13
1574.5606350675
 23
-280.7436623908
 33
0.0
  0
LINE
  5
367
100
AcDbEntity
  8
L1_120
  6
CONTINUOUS
 62
         4
100
AcDbLine
 10
1574.5606350675
 20
-280.7436623908
 30
0.0
 11
1574.5606350675
 21
-255.2684541823
 31
0.0
  0
SOLID
  5
368
100
AcDbEntity
  8
L1_120
  6
CONTINUOUS
 62
         4
100
AcDbTrace
 10
1574.5606350675
 20
-296.7436623908
 30
0.0
 11
1574.1556350675
 21
-294.0436623908
 31
0.0
 12
1574.9656350675
 22
-294.0436623908
 32
0.0
 13
1574.5606350675
 23
-296.7436623908
 33
0.0
  0
TEXT
  5
36A
100
AcDbEntity
  8
L1_120
  6
CONTINUOUS
 62
         4
100
AcDbText
 10
1572.5356350675
 20
-278.2184541823
 30
0.0
 40
2.7
  1
M16xP1.0
 50
90.0
  7
BOX
100
AcDbText
  0
ENDBLK
  5
36B
100
AcDbEntity
  8
0
  6
CONTINUOUS
100
AcDbBlockEnd
  0
ENDSEC
  0
SECTION
  2
ENTITIES
  0
LINE
  5
25
100
AcDbEntity
  8
L1_120
  6
CONTINUOUS
 62
         7
100
AcDbLine
 10
1318.3275047567
 20
-213.8064638192
 30
0.0
 11
1318.3275047567
 21
-236.2748272521
 31
0.0
  0
LINE
  5
26
100
AcDbEntity
  8
L1_120
  6
CONTINUOUS
 62
         7
100
AcDbLine
 10
1405.3275047567
 20
-231.4578100185
 30
0.0
 11
1405.3275047567
 21
-256.5406455357
 31
0.0
  0
LINE
  5
27
100
AcDbEntity
  8
L1_120
  6
CONTINUOUS
 62
         7
100
AcDbLine
 10
1402.8275047567
 20
-232.4487492066
 30
0.0
 11
1402.8275047567
 21
-252.2102725546
 31
0.0
  0
LINE
  5
28
100
AcDbEntity
  8
L1_120
  6
CONTINUOUS
 62
         7
100
AcDbLine
 10
1397.8275047567
 20
-233.0906455357
 30
0.0
 11
1397.8275047567
 21
-252.2102725546
 31
0.0
  0
LINE
  5
29
100
AcDbEntity
  8
L1_120
  6
CONTINUOUS
 62
         7
100
AcDbLine
 10
1395.3275047567
 20
-233.5906455357
 30
0.0
 11
1395.3275047567
 21
-256.5406455357
 31
0.0
  0
LINE
  5
2A
100
AcDbEntity
  8
L1_120
  6
CONTINUOUS
 62
         4
100
AcDbLine
 10
1385.7275047567
 20
-233.5906455357
 30
0.0
 11
1395.3275047567
 21
-233.5906455357
 31
0.0
  0
LINE
  5
2B
100
AcDbEntity
  8
L1_120
  6
CONTINUOUS
 62
         7
100
AcDbLine
 10
1385.7275047567
 20
-233.0906455357
 30
0.0
 11
1399.6775047567
 21
-233.0906455357
 31
0.0
  0
LINE
  5
2C
100
AcDbEntity
  8
L1_120
  6
CONTINUOUS
 62
         7
100
AcDbLine
 10
1385.7275047567
 20
-216.9906455357
 30
0.0
 11
1399.6775047567
 21
-216.9906455357
 31
0.0
  0
ARC
  5
2D
100
AcDbEntity
  8
L1_120
  6
CONTINUOUS
 62
         7
100
AcDbCircle
 10
1399.6775047567
 20
-225.0406455357
 30
0.0
 40
8.05
100
AcDbArc
 50
270.0
 51
450.0
  0
ARC
  5
2E
100
AcDbEntity
  8
L1_120
  6
CONTINUOUS
 62
         4
100
AcDbCircle
 10
1399.6775047567
 20
-225.0406455357
 30
0.0
 40
8.55
100
AcDbArc
 50
311.3623424579
 51
408.6376575421
  0
LINE
  5
2F
100
AcDbEntity
  8
L1_120
  6
CONTINUOUS
 62
         4
100
AcDbLine
 10
1402.8275047567
 20
-217.6325418647
 30
0.0
 11
1405.3275047567
 21
-218.6234810528
 31
0.0
  0
LINE
  5
30
100
AcDbEntity
  8
L1_120
  6
CONTINUOUS
 62
         4
100
AcDbLine
 10
1402.8275047567
 20
-232.4487492066
 30
0.0
 11
1405.3275047567
 21
-231.4578100185
 31
0.0
  0
LINE
  5
31
100
AcDbEntity
  8
L1_120
  6
CONTINUOUS
 62
         4
100
AcDbLine
 10
1395.3275047567
 20
-233.5906455357
 30
0.0
 11
1397.8275047567
 21
-233.0906455357
 31
0.0
  0
LINE
  5
32
100
AcDbEntity
  8
L1_120
  6
CONTINUOUS
 62
         4
100
AcDbLine
 10
1395.3275047567
 20
-216.4906455357
 30
0.0
 11
1397.8275047567
 21
-216.9906455357
 31
0.0
  0
LINE
  5
33
100
AcDbEntity
  8
L1_120
  6
CONTINUOUS
 62
         7
100
AcDbLine
 10
1405.3275047567
 20
-193.5406455357
 30
0.0
 11
1405.3275047567
 21
-218.6234810528
 31
0.0
  0
LINE
  5
34
100
AcDbEntity
  8
L1_120
  6
CONTINUOUS
 62
         7
100
AcDbLine
 10
1402.8275047567
 20
-197.8710185167
 30
0.0
 11
1402.8275047567
 21
-217.6325418647
 31
0.0
  0
LINE
  5
35
100
AcDbEntity
  8
L1_120
  6
CONTINUOUS
 62
         7
100
AcDbLine
 10
1397.8275047567
 20
-197.8710185167
 30
0.0
 11
1397.8275047567
 21
-216.9906455357
 31
0.0
  0
LINE
  5
36
100
AcDbEntity
  8
L1_120
  6
CONTINUOUS
 62
         7
100
AcDbLine
 10
1395.3275047567
 20
-193.5406455357
 30
0.0
 11
1395.3275047567
 21
-216.4906455357
 31
0.0
  0
LINE
  5
37
100
AcDbEntity
  8
L1_120
  6
CONTINUOUS
 62
         4
100
AcDbLine
 10
1385.7275047567
 20
-216.4906455357
 30
0.0
 11
1395.3275047567
 21
-216.4906455357
 31
0.0
  0
LINE
  5
38
100
AcDbEntity
  8
L1_120
  6
CONTINUOUS
 62
         7
100
AcDbLine
 10
1385.7275047567
 20
-195.5406455357
 30
0.0
 11
1385.7275047567
 21
-194.5406455357
 31
0.0
  0
LINE
  5
39
100
AcDbEntity
  8
L1_120
  6
CONTINUOUS
 62
         7
100
AcDbLine
 10
1410.7275047567
 20
-195.5406455357
 30
0.0
 11
1410.7275047567
 21
-194.5406455357
 31
0.0
  0
ARC
  5
3A
100
AcDbEntity
  8
L1_120
  6
CONTINUOUS
 62
         7
100
AcDbCircle
 10
1409.7275047567
 20
-255.5406455357
 30
0.0
 40
1.0
100
AcDbArc
 50
270.0
 51
360.0
  0
LINE
  5
3B
100
AcDbEntity
  8
L1_120
  6
CONTINUOUS
 62
         7
100
AcDbLine
 10
1408.7275047567
 20
-256.5406455357
 30
0.0
 11
1409.7275047567
 21
-256.5406455357
 31
0.0
  0
LINE
  5
3C
100
AcDbEntity
  8
L1_120
  6
CONTINUOUS
 62
         7
100
AcDbLine
 10
1386.7275047567
 20
-256.5406455357
 30
0.0
 11
1387.7275047567
 21
-256.5406455357
 31
0.0
  0
ARC
  5
3D
100
AcDbEntity
  8
L1_120
  6
CONTINUOUS
 62
         7
100
AcDbCircle
 10
1386.7275047567
 20
-255.5406455357
 30
0.0
 40
1.0
100
AcDbArc
 50
180.0
 51
270.0
  0
LINE
  5
3E
100
AcDbEntity
  8
L1_120
  6
CONTINUOUS
 62
         7
100
AcDbLine
 10
1385.7275047567
 20
-254.5406455357
 30
0.0
 11
1385.7275047567
 21
-255.5406455357
 31
0.0
  0
LINE
  5
3F
100
AcDbEntity
  8
L1_120
  6
CONTINUOUS
 62
         7
100
AcDbLine
 10
1386.7275047567
 20
-193.5406455357
 30
0.0
 11
1387.7275047567
 21
-193.5406455357
 31
0.0
  0
LINE
  5
40
100
AcDbEntity
  8
L1_120
  6
CONTINUOUS
 62
         7
100
AcDbLine
 10
1410.7275047567
 20
-254.5406455357
 30
0.0
 11
1410.7275047567
 21
-255.5406455357
 31
0.0
  0
LINE
  5
41
100
AcDbEntity
  8
L1_120
  6
CONTINUOUS
 62
         7
100
AcDbLine
 10
1408.7275047567
 20
-193.5406455357
 30
0.0
 11
1409.7275047567
 21
-193.5406455357
 31
0.0
  0
ARC
  5
42
100
AcDbEntity
  8
L1_120
  6
CONTINUOUS
 62
         7
100
AcDbCircle
 10
1409.7275047567
 20
-194.5406455357
 30
0.0
 40
1.0
100
AcDbArc
 50
0.0
 51
90.0
  0
ARC
  5
43
100
AcDbEntity
  8
L1_120
  6
CONTINUOUS
 62
         7
100
AcDbCircle
 10
1386.7275047567
 20
-194.5406455357
 30
0.0
 40
1.0
100
AcDbArc
 50
90.0
 51
180.0
  0
LINE
  5
44
100
AcDbEntity
  8
L1_120
  6
CONTINUOUS
 62
         4
100
AcDbLine
 10
1340.2527189031
 20
-261.6225760477
 30
0.0
 11
1340.7646147691
 21
-261.6225760477
 31
0.0
  0
LINE
  5
45
100
AcDbEntity
  8
L1_120
  6
CONTINUOUS
 62
         7
100
AcDbLine
 10
1397.8275047567
 20
-251.5406455357
 30
0.0
 11
1402.8275047567
 21
-251.5406455357
 31
0.0
  0
LINE
  5
46
100
AcDbEntity
  8
L1_120
  6
CONTINUOUS
 62
         7
100
AcDbLine
 10
1397.8275047567
 20
-198.5406455357
 30
0.0
 11
1402.8275047567
 21
-198.5406455357
 31
0.0
  0
LINE
  5
47
100
AcDbEntity
  8
L1_120
  6
CONTINUOUS
 62
         7
100
AcDbLine
 10
1397.8275047567
 20
-197.8710185167
 30
0.0
 11
1395.3273627504
 21
-193.5406455357
 31
0.0
  0
LINE
  5
48
100
AcDbEntity
  8
L1_120
  6
CONTINUOUS
 62
         7
100
AcDbLine
 10
1402.8275047567
 20
-197.8710185167
 30
0.0
 11
1405.327646763
 21
-193.5406455357
 31
0.0
  0
LINE
  5
49
100
AcDbEntity
  8
L1_120
  6
CONTINUOUS
 62
         7
100
AcDbLine
 10
1405.327646763
 20
-193.5406455357
 30
0.0
 11
1409.7275047567
 21
-193.5406455357
 31
0.0
  0
LINE
  5
4A
100
AcDbEntity
  8
L1_120
  6
CONTINUOUS
 62
         7
100
AcDbLine
 10
1386.7275047567
 20
-193.5406455357
 30
0.0
 11
1395.3273627504
 21
-193.5406455357
 31
0.0
  0
LINE
  5
4B
100
AcDbEntity
  8
L1_120
  6
CONTINUOUS
 62
         7
100
AcDbLine
 10
1405.327646763
 20
-256.5406455357
 30
0.0
 11
1409.7275047567
 21
-256.5406455357
 31
0.0
  0
LINE
  5
4C
100
AcDbEntity
  8
L1_120
  6
CONTINUOUS
 62
         7
100
AcDbLine
 10
1397.8275047567
 20
-252.2102725546
 30
0.0
 11
1395.3273627504
 21
-256.5406455357
 31
0.0
  0
LINE
  5
4D
100
AcDbEntity
  8
L1_120
  6
CONTINUOUS
 62
         7
100
AcDbLine
 10
1402.8275047567
 20
-252.2102725546
 30
0.0
 11
1405.327646763
 21
-256.5406455357
 31
0.0
  0
LINE
  5
4E
100
AcDbEntity
  8
L1_120
  6
CONTINUOUS
 62
         7
100
AcDbLine
 10
1384.2275047567
 20
-202.7427292698
 30
0.0
 11
1384.9739149182
 21
-202.9427292698
 31
0.0
  0
LINE
  5
4F
100
AcDbEntity
  8
L1_120
  6
CONTINUOUS
 62
         7
100
AcDbLine
 10
1384.9739149182
 20
-202.9427292698
 30
0.0
 11
1385.3275047567
 21
-202.9427292698
 31
0.0
  0
ARC
  5
50
100
AcDbEntity
  8
L1_120
  6
CONTINUOUS
 62
         7
100
AcDbCircle
 10
1385.3275047567
 20
-202.5427292698
 30
0.0
 40
0.4
100
AcDbArc
 50
270.0
 51
360.0
  0
LINE
  5
51
100
AcDbEntity
  8
L1_120
  6
CONTINUOUS
 62
         7
100
AcDbLine
 10
1384.2275047567
 20
-247.3385618015
 30
0.0
 11
1384.9739149182
 21
-247.1385618015
 31
0.0
  0
ARC
  5
52
100
AcDbEntity
  8
L1_120
  6
CONTINUOUS
 62
         7
100
AcDbCircle
 10
1385.3275047567
 20
-247.5385618015
 30
0.0
 40
0.4
100
AcDbArc
 50
0.0
 51
90.0
  0
LINE
  5
53
100
AcDbEntity
  8
L1_120
  6
CONTINUOUS
 62
         7
100
AcDbLine
 10
1384.9739149182
 20
-247.1385618015
 30
0.0
 11
1385.3275047567
 21
-247.1385618015
 31
0.0
  0
LINE
  5
54
100
AcDbEntity
  8
L1_120
  6
CONTINUOUS
 62
         7
100
AcDbLine
 10
1384.2275047567
 20
-202.7427292698
 30
0.0
 11
1384.2275047567
 21
-247.3385618015
 31
0.0
  0
LINE
  5
55
100
AcDbEntity
  8
L1_120
  6
CENTER
 62
         1
100
AcDbLine
 10
1383.7275047567
 20
-202.8156455357
 30
0.0
 11
1383.7275047567
 21
-247.2656455357
 31
0.0
  0
LINE
  5
56
100
AcDbEntity
  8
L1_120
  6
CONTINUOUS
 62
         7
100
AcDbLine
 10
1386.7275047567
 20
-256.5406455357
 30
0.0
 11
1395.3273627504
 21
-256.5406455357
 31
0.0
  0
LINE
  5
57
100
AcDbEntity
  8
L1_120
  6
CONTINUOUS
 62
         7
100
AcDbLine
 10
1318.3275047567
 20
-213.2178382022
 30
0.0
 11
1318.3275047567
 21
-236.8634528691
 31
0.0
  0
ARC
  5
58
100
AcDbEntity
  8
L1_120
  6
CONTINUOUS
 62
         7
100
AcDbCircle
 10
1319.3275047567
 20
-236.8634528691
 30
0.0
 40
1.0
100
AcDbArc
 50
180.0
 51
261.7029
  0
ARC
  5
59
100
AcDbEntity
  8
L1_120
  6
CONTINUOUS
 62
         7
100
AcDbCircle
 10
1319.3275047567
 20
-213.2178382022
 30
0.0
 40
1.0
100
AcDbArc
 50
98.2971
 51
180.0
  0
LINE
  5
5A
100
AcDbEntity
  8
L1_120
  6
CONTINUOUS
 62
         7
100
AcDbLine
 10
1319.1831986403
 20
-237.8529859634
 30
0.0
 11
1384.2275047567
 21
-247.3385618015
 31
0.0
  0
LINE
  5
5B
100
AcDbEntity
  8
L1_120
  6
CONTINUOUS
 62
         7
100
AcDbLine
 10
1319.1831986403
 20
-212.2283051079
 30
0.0
 11
1384.2275047567
 21
-202.7427292698
 31
0.0
  0
LINE
  5
5C
100
AcDbEntity
  8
L1_120
  6
CONTINUOUS
 62
         7
100
AcDbLine
 10
1385.7275047567
 20
-194.5406455357
 30
0.0
 11
1385.7275047567
 21
-255.5406455357
 31
0.0
  0
LINE
  5
5D
100
AcDbEntity
  8
L1_120
  6
CONTINUOUS
 62
         7
100
AcDbLine
 10
1410.7275047567
 20
-194.5406455357
 30
0.0
 11
1410.7275047567
 21
-255.5406455357
 31
0.0
  0
LINE
  5
5E
100
AcDbEntity
  8
L1_120
  6
CENTER
 62
         1
100
AcDbLine
 10
1400.3275047567
 20
-193.5406455357
 30
0.0
 11
1400.3275047567
 21
-256.5406455357
 31
0.0
  0
ARC
  5
5F
100
AcDbEntity
  8
L1_120
  6
DASHED
 62
         2
100
AcDbCircle
 10
1231.0721451996
 20
-225.0406455357
 30
0.0
 40
26.5
100
AcDbArc
 50
197.6843950499
 51
342.3156049501
  0
ARC
  5
60
100
AcDbEntity
  8
L1_120
  6
DASHED
 62
         2
100
AcDbCircle
 10
1231.0721451996
 20
-225.0406455357
 30
0.0
 40
26.5
100
AcDbArc
 50
17.6843950499
 51
162.3156049501
  0
LINE
  5
61
100
AcDbEntity
  8
L1_120
  6
CONTINUOUS
 62
         7
100
AcDbLine
 10
1253.6721451996
 20
-217.7906455357
 30
0.0
 11
1253.6721451996
 21
-232.2906455357
 31
0.0
  0
LINE
  5
62
100
AcDbEntity
  8
L1_120
  6
CONTINUOUS
 62
         7
100
AcDbLine
 10
1261.0261679224
 20
-216.9906455357
 30
0.0
 11
1254.4721451996
 21
-216.9906455357
 31
0.0
  0
LINE
  5
63
100
AcDbEntity
  8
L1_120
  6
CONTINUOUS
 62
         7
100
AcDbLine
 10
1261.0261679224
 20
-233.0906455357
 30
0.0
 11
1254.4721451996
 21
-233.0906455357
 31
0.0
  0
LINE
  5
64
100
AcDbEntity
  8
L1_120
  6
CONTINUOUS
 62
         7
100
AcDbLine
 10
1261.0261679224
 20
-216.9906455357
 30
0.0
 11
1261.4194767991
 21
-216.5973366589
 31
0.0
  0
LINE
  5
65
100
AcDbEntity
  8
L1_120
  6
CONTINUOUS
 62
         7
100
AcDbLine
 10
1261.0261679224
 20
-233.0906455357
 30
0.0
 11
1261.4194767991
 21
-233.4839544124
 31
0.0
  0
LINE
  5
66
100
AcDbEntity
  8
L1_120
  6
CONTINUOUS
 62
         7
100
AcDbLine
 10
1253.6721451996
 20
-232.2906455357
 30
0.0
 11
1254.4721451996
 21
-233.0906455357
 31
0.0
  0
LINE
  5
67
100
AcDbEntity
  8
L1_120
  6
CONTINUOUS
 62
         7
100
AcDbLine
 10
1253.6721451996
 20
-217.7906455357
 30
0.0
 11
1254.4721451996
 21
-216.9906455357
 31
0.0
  0
LINE
  5
68
100
AcDbEntity
  8
L1_120
  6
CONTINUOUS
 62
         7
100
AcDbLine
 10
1201.1181224768
 20
-233.0906455357
 30
0.0
 11
1207.6721451996
 21
-233.0906455357
 31
0.0
  0
LINE
  5
69
100
AcDbEntity
  8
L1_120
  6
CONTINUOUS
 62
         7
100
AcDbLine
 10
1201.1181224768
 20
-216.9906455357
 30
0.0
 11
1207.6721451996
 21
-216.9906455357
 31
0.0
  0
LINE
  5
6A
100
AcDbEntity
  8
L1_120
  6
CONTINUOUS
 62
         7
100
AcDbLine
 10
1208.4721451996
 20
-217.7906455357
 30
0.0
 11
1208.4721451996
 21
-232.2906455357
 31
0.0
  0
LINE
  5
6B
100
AcDbEntity
  8
L1_120
  6
CONTINUOUS
 62
         7
100
AcDbLine
 10
1201.1181224768
 20
-216.9906455357
 30
0.0
 11
1200.7248136001
 21
-216.5973366589
 31
0.0
  0
LINE
  5
6C
100
AcDbEntity
  8
L1_120
  6
CONTINUOUS
 62
         7
100
AcDbLine
 10
1201.1181224768
 20
-233.0906455357
 30
0.0
 11
1200.7248136001
 21
-233.4839544124
 31
0.0
  0
LINE
  5
6D
100
AcDbEntity
  8
L1_120
  6
CONTINUOUS
 62
         7
100
AcDbLine
 10
1207.6721451996
 20
-216.9906455357
 30
0.0
 11
1208.4721451996
 21
-217.7906455357
 31
0.0
  0
LINE
  5
6E
100
AcDbEntity
  8
L1_120
  6
CONTINUOUS
 62
         7
100
AcDbLine
 10
1208.4721451996
 20
-232.2906455357
 30
0.0
 11
1207.6721451996
 21
-233.0906455357
 31
0.0
  0
LINE
  5
6F
100
AcDbEntity
  8
L1_120
  6
CENTER
 62
         1
100
AcDbLine
 10
1196.5721451996
 20
-225.0406455357
 30
0.0
 11
1265.5721451996
 21
-225.0406455357
 31
0.0
  0
CIRCLE
  5
70
100
AcDbEntity
  8
L1_120
  6
CONTINUOUS
 62
         7
100
AcDbCircle
 10
1231.0721451996
 20
-225.0406455357
 30
0.0
 40
31.5
  0
LINE
  5
71
100
AcDbEntity
  8
L1_120
  6
CENTER
 62
         1
100
AcDbLine
 10
1231.0721451996
 20
-190.5406455357
 30
0.0
 11
1231.0721451996
 21
-259.5406455357
 31
0.0
  0
CIRCLE
  5
72
100
AcDbEntity
  8
L1_120
  6
CONTINUOUS
 62
         7
100
AcDbCircle
 10
1231.0721451996
 20
-225.0406455357
 30
0.0
 40
12.6875524223
  0
CIRCLE
  5
73
100
AcDbEntity
  8
L1_120
  6
CONTINUOUS
 62
         7
100
AcDbCircle
 10
1231.0721451996
 20
-225.0406455357
 30
0.0
 40
22.2979162659
  0
CIRCLE
  5
74
100
AcDbEntity
  8
L1_120
  6
CONTINUOUS
 62
         7
100
AcDbCircle
 10
1231.0721451996
 20
-225.0406455357
 30
0.0
 40
7.0
  0
CIRCLE
  5
75
100
AcDbEntity
  8
L1_120
  6
CONTINUOUS
 62
         7
100
AcDbCircle
 10
1231.0721451996
 20
-225.0406455357
 30
0.0
 40
8.5
  0
ARC
  5
76
100
AcDbEntity
  8
L1_120
  6
CONTINUOUS
 62
         4
100
AcDbCircle
 10
1231.0721451996
 20
-225.0406455357
 30
0.0
 40
8.0
100
AcDbArc
 50
265.563559301
 51
540.0
  0
LINE
  5
77
100
AcDbEntity
  8
L1_120
  6
CENTER
 62
         1
100
AcDbLine
 10
1224.6566791921
 20
-251.4384067269
 30
0.0
 11
1219.0185234674
 21
-249.3862858669
 31
0.0
  0
POLYLINE
  5
79
100
AcDbEntity
  8
L1_120
  6
CONTINUOUS
 62
         7
100
AcDb3dPolyline
 66
         1
 10
0.0
 20
0.0
 30
0.0
 70
         8
  0
VERTEX
  5
7B
100
AcDbEntity
  8
L1_120
  6
CONTINUOUS
 62
         7
100
AcDbVertex
100
AcDb3dPolylineVertex
 10
1219.9582160882
 20
-249.7283060102
 30
0.0
 70
        32
  0
VERTEX
  5
7D
100
AcDbEntity
  8
L1_120
  6
CONTINUOUS
 62
         7
100
AcDbVertex
100
AcDb3dPolylineVertex
 10
1219.9582160882
 20
-249.7283060102
 30
0.0
 70
        32
  0
SEQEND
  5
7F
100
AcDbEntity
  8
L1_120
  6
CONTINUOUS
 62
         7
  0
ARC
  5
80
100
AcDbEntity
  8
L1_120
  6
CONTINUOUS
 62
         7
100
AcDbCircle
 10
1222.7511951417
 20
-250.7448672506
 30
0.0
 40
2.9722262277
100
AcDbArc
 50
141.257725858
 51
160.0
  0
POLYLINE
  5
82
100
AcDbEntity
  8
L1_120
  6
CONTINUOUS
 62
         7
100
AcDb3dPolyline
 66
         1
 10
0.0
 20
0.0
 30
0.0
 70
         8
  0
VERTEX
  5
84
100
AcDbEntity
  8
L1_120
  6
CONTINUOUS
 62
         7
100
AcDbVertex
100
AcDb3dPolylineVertex
 10
1220.43295119
 20
-248.884793669
 30
0.0
 70
        32
  0
VERTEX
  5
86
100
AcDbEntity
  8
L1_120
  6
CONTINUOUS
 62
         7
100
AcDbVertex
100
AcDb3dPolylineVertex
 10
1220.43295119
 20
-248.884793669
 30
0.0
 70
        32
  0
SEQEND
  5
88
100
AcDbEntity
  8
L1_120
  6
CONTINUOUS
 62
         7
  0
ARC
  5
89
100
AcDbEntity
  8
L1_120
  6
CONTINUOUS
 62
         7
100
AcDbCircle
 10
1222.3591177863
 20
-250.4302788182
 30
0.0
 40
2.4695428935
100
AcDbArc
 50
120.6773100904
 51
141.257725858
  0
POLYLINE
  5
8B
100
AcDbEntity
  8
L1_120
  6
CONTINUOUS
 62
         7
100
AcDb3dPolyline
 66
         1
 10
0.0
 20
0.0
 30
0.0
 70
         8
  0
VERTEX
  5
8D
100
AcDbEntity
  8
L1_120
  6
CONTINUOUS
 62
         7
100
AcDbVertex
100
AcDb3dPolylineVertex
 10
1221.0991511623
 20
-248.3063376209
 30
0.0
 70
        32
  0
VERTEX
  5
8F
100
AcDbEntity
  8
L1_120
  6
CONTINUOUS
 62
         7
100
AcDbVertex
100
AcDb3dPolylineVertex
 10
1221.0991511623
 20
-248.3063376209
 30
0.0
 70
        32
  0
SEQEND
  5
91
100
AcDbEntity
  8
L1_120
  6
CONTINUOUS
 62
         7
  0
ARC
  5
92
100
AcDbEntity
  8
L1_120
  6
CONTINUOUS
 62
         7
100
AcDbCircle
 10
1222.1593792552
 20
-250.0935771256
 30
0.0
 40
2.0780540551
100
AcDbArc
 50
96.8239621528
 51
120.6773100904
  0
POLYLINE
  5
94
100
AcDbEntity
  8
L1_120
  6
CONTINUOUS
 62
         7
100
AcDb3dPolyline
 66
         1
 10
0.0
 20
0.0
 30
0.0
 70
         8
  0
VERTEX
  5
96
100
AcDbEntity
  8
L1_120
  6
CONTINUOUS
 62
         7
100
AcDbVertex
100
AcDb3dPolylineVertex
 10
1221.9124664632
 20
-248.0302442079
 30
0.0
 70
        32
  0
VERTEX
  5
98
100
AcDbEntity
  8
L1_120
  6
CONTINUOUS
 62
         7
100
AcDbVertex
100
AcDb3dPolylineVertex
 10
1221.9124664632
 20
-248.0302442079
 30
0.0
 70
        32
  0
SEQEND
  5
9A
100
AcDbEntity
  8
L1_120
  6
CONTINUOUS
 62
         7
  0
ARC
  5
9B
100
AcDbEntity
  8
L1_120
  6
CONTINUOUS
 62
         7
100
AcDbCircle
 10
1222.1084689265
 20
-249.6681436913
 30
0.0
 40
1.6495853065
100
AcDbArc
 50
70.0
 51
96.8239621528
  0
POLYLINE
  5
9D
100
AcDbEntity
  8
L1_120
  6
CONTINUOUS
 62
         7
100
AcDb3dPolyline
 66
         1
 10
0.0
 20
0.0
 30
0.0
 70
         8
  0
VERTEX
  5
9F
100
AcDbEntity
  8
L1_120
  6
CONTINUOUS
 62
         7
100
AcDbVertex
100
AcDb3dPolylineVertex
 10
1222.6726603294
 20
-248.1180405515
 30
0.0
 70
        32
  0
VERTEX
  5
A1
100
AcDbEntity
  8
L1_120
  6
CONTINUOUS
 62
         7
100
AcDbVertex
100
AcDb3dPolylineVertex
 10
1222.6726603294
 20
-248.1180405515
 30
0.0
 70
        32
  0
SEQEND
  5
A3
100
AcDbEntity
  8
L1_120
  6
CONTINUOUS
 62
         7
  0
ARC
  5
A4
100
AcDbEntity
  8
L1_120
  6
CONTINUOUS
 62
         7
100
AcDbCircle
 10
1222.1084689265
 20
-249.6681436913
 30
0.0
 40
1.6495853065
100
AcDbArc
 50
43.1760378472
 51
70.0
  0
POLYLINE
  5
A6
100
AcDbEntity
  8
L1_120
  6
CONTINUOUS
 62
         7
100
AcDb3dPolyline
 66
         1
 10
0.0
 20
0.0
 30
0.0
 70
         8
  0
VERTEX
  5
A8
100
AcDbEntity
  8
L1_120
  6
CONTINUOUS
 62
         7
100
AcDbVertex
100
AcDb3dPolylineVertex
 10
1223.3114370181
 20
-248.5394278485
 30
0.0
 70
        32
  0
VERTEX
  5
AA
100
AcDbEntity
  8
L1_120
  6
CONTINUOUS
 62
         7
100
AcDbVertex
100
AcDb3dPolylineVertex
 10
1223.3114370181
 20
-248.5394278485
 30
0.0
 70
        32
  0
SEQEND
  5
AC
100
AcDbEntity
  8
L1_120
  6
CONTINUOUS
 62
         7
  0
ARC
  5
AD
100
AcDbEntity
  8
L1_120
  6
CONTINUOUS
 62
         7
100
AcDbCircle
 10
1221.7960060118
 20
-249.9613200811
 30
0.0
 40
2.0780540551
100
AcDbArc
 50
19.3226899097
 51
43.1760378473
  0
POLYLINE
  5
AF
100
AcDbEntity
  8
L1_120
  6
CONTINUOUS
 62
         7
100
AcDb3dPolyline
 66
         1
 10
0.0
 20
0.0
 30
0.0
 70
         8
  0
VERTEX
  5
B1
100
AcDbEntity
  8
L1_120
  6
CONTINUOUS
 62
         7
100
AcDbVertex
100
AcDb3dPolylineVertex
 10
1223.7570032599
 20
-249.2737166715
 30
0.0
 70
        32
  0
VERTEX
  5
B3
100
AcDbEntity
  8
L1_120
  6
CONTINUOUS
 62
         7
100
AcDbVertex
100
AcDb3dPolylineVertex
 10
1223.7570032599
 20
-249.2737166715
 30
0.0
 70
        32
  0
SEQEND
  5
B5
100
AcDbEntity
  8
L1_120
  6
CONTINUOUS
 62
         7
  0
ARC
  5
B6
100
AcDbEntity
  8
L1_120
  6
CONTINUOUS
 62
         7
100
AcDbCircle
 10
1221.4265697438
 20
-250.0908590887
 30
0.0
 40
2.4695428935
100
AcDbArc
 50
358.742274142
 51
379.3226899096
  0
POLYLINE
  5
B8
100
AcDbEntity
  8
L1_120
  6
CONTINUOUS
 62
         7
100
AcDb3dPolyline
 66
         1
 10
0.0
 20
0.0
 30
0.0
 70
         8
  0
VERTEX
  5
BA
100
AcDbEntity
  8
L1_120
  6
CONTINUOUS
 62
         7
100
AcDbVertex
100
AcDb3dPolylineVertex
 10
1223.8955176663
 20
-250.1450648005
 30
0.0
 70
        32
  0
VERTEX
  5
BC
100
AcDbEntity
  8
L1_120
  6
CONTINUOUS
 62
         7
100
AcDbVertex
100
AcDb3dPolylineVertex
 10
1223.8955176663
 20
-250.1450648005
 30
0.0
 70
        32
  0
SEQEND
  5
BE
100
AcDbEntity
  8
L1_120
  6
CONTINUOUS
 62
         7
  0
ARC
  5
BF
100
AcDbEntity
  8
L1_120
  6
CONTINUOUS
 62
         7
100
AcDbCircle
 10
1220.9240075179
 20
-250.0798253431
 30
0.0
 40
2.9722262277
100
AcDbArc
 50
339.9999999999
 51
358.742274142
  0
POLYLINE
  5
C1
100
AcDbEntity
  8
L1_120
  6
CONTINUOUS
 62
         7
100
AcDb3dPolyline
 66
         1
 10
0.0
 20
0.0
 30
0.0
 70
         8
  0
VERTEX
  5
C3
100
AcDbEntity
  8
L1_120
  6
CONTINUOUS
 62
         7
100
AcDbVertex
100
AcDb3dPolylineVertex
 10
1223.7169865714
 20
-251.0963865835
 30
0.0
 70
        32
  0
VERTEX
  5
C5
100
AcDbEntity
  8
L1_120
  6
CONTINUOUS
 62
         7
100
AcDbVertex
100
AcDb3dPolylineVertex
 10
1223.7169865714
 20
-251.0963865835
 30
0.0
 70
        32
  0
SEQEND
  5
C7
100
AcDbEntity
  8
L1_120
  6
CONTINUOUS
 62
         7
  0
ARC
  5
C8
100
AcDbEntity
  8
L1_120
  6
CONTINUOUS
 62
         7
100
AcDbCircle
 10
1220.9240075179
 20
-250.0798253431
 30
0.0
 40
2.9722262277
100
AcDbArc
 50
321.257725858
 51
340.0
  0
POLYLINE
  5
CA
100
AcDbEntity
  8
L1_120
  6
CONTINUOUS
 62
         7
100
AcDb3dPolyline
 66
         1
 10
0.0
 20
0.0
 30
0.0
 70
         8
  0
VERTEX
  5
CC
100
AcDbEntity
  8
L1_120
  6
CONTINUOUS
 62
         7
100
AcDbVertex
100
AcDb3dPolylineVertex
 10
1223.2422514696
 20
-251.9398989247
 30
0.0
 70
        32
  0
VERTEX
  5
CE
100
AcDbEntity
  8
L1_120
  6
CONTINUOUS
 62
         7
100
AcDbVertex
100
AcDb3dPolylineVertex
 10
1223.2422514696
 20
-251.9398989247
 30
0.0
 70
        32
  0
SEQEND
  5
D0
100
AcDbEntity
  8
L1_120
  6
CONTINUOUS
 62
         7
  0
ARC
  5
D1
100
AcDbEntity
  8
L1_120
  6
CONTINUOUS
 62
         7
100
AcDbCircle
 10
1221.3160848733
 20
-250.3944137756
 30
0.0
 40
2.4695428935
100
AcDbArc
 50
300.6773100904
 51
321.2577258581
  0
POLYLINE
  5
D3
100
AcDbEntity
  8
L1_120
  6
CONTINUOUS
 62
         7
100
AcDb3dPolyline
 66
         1
 10
0.0
 20
0.0
 30
0.0
 70
         8
  0
VERTEX
  5
D5
100
AcDbEntity
  8
L1_120
  6
CONTINUOUS
 62
         7
100
AcDbVertex
100
AcDb3dPolylineVertex
 10
1222.5760514972
 20
-252.5183549729
 30
0.0
 70
        32
  0
VERTEX
  5
D7
100
AcDbEntity
  8
L1_120
  6
CONTINUOUS
 62
         7
100
AcDbVertex
100
AcDb3dPolylineVertex
 10
1222.5760514972
 20
-252.5183549729
 30
0.0
 70
        32
  0
SEQEND
  5
D9
100
AcDbEntity
  8
L1_120
  6
CONTINUOUS
 62
         7
  0
ARC
  5
DA
100
AcDbEntity
  8
L1_120
  6
CONTINUOUS
 62
         7
100
AcDbCircle
 10
1221.5158234044
 20
-250.7311154682
 30
0.0
 40
2.0780540551
100
AcDbArc
 50
276.8239621528
 51
300.6773100903
  0
POLYLINE
  5
DC
100
AcDbEntity
  8
L1_120
  6
CONTINUOUS
 62
         7
100
AcDb3dPolyline
 66
         1
 10
0.0
 20
0.0
 30
0.0
 70
         8
  0
VERTEX
  5
DE
100
AcDbEntity
  8
L1_120
  6
CONTINUOUS
 62
         7
100
AcDbVertex
100
AcDb3dPolylineVertex
 10
1221.7627361964
 20
-252.7944483858
 30
0.0
 70
        32
  0
VERTEX
  5
E0
100
AcDbEntity
  8
L1_120
  6
CONTINUOUS
 62
         7
100
AcDbVertex
100
AcDb3dPolylineVertex
 10
1221.7627361964
 20
-252.7944483858
 30
0.0
 70
        32
  0
SEQEND
  5
E2
100
AcDbEntity
  8
L1_120
  6
CONTINUOUS
 62
         7
  0
ARC
  5
E3
100
AcDbEntity
  8
L1_120
  6
CONTINUOUS
 62
         7
100
AcDbCircle
 10
1221.5667337331
 20
-251.1565489024
 30
0.0
 40
1.6495853065
100
AcDbArc
 50
250.0
 51
276.8239621528
  0
POLYLINE
  5
E5
100
AcDbEntity
  8
L1_120
  6
CONTINUOUS
 62
         7
100
AcDb3dPolyline
 66
         1
 10
0.0
 20
0.0
 30
0.0
 70
         8
  0
VERTEX
  5
E7
100
AcDbEntity
  8
L1_120
  6
CONTINUOUS
 62
         7
100
AcDbVertex
100
AcDb3dPolylineVertex
 10
1221.0025423302
 20
-252.7066520423
 30
0.0
 70
        32
  0
VERTEX
  5
E9
100
AcDbEntity
  8
L1_120
  6
CONTINUOUS
 62
         7
100
AcDbVertex
100
AcDb3dPolylineVertex
 10
1221.0025423302
 20
-252.7066520423
 30
0.0
 70
        32
  0
SEQEND
  5
EB
100
AcDbEntity
  8
L1_120
  6
CONTINUOUS
 62
         7
  0
ARC
  5
EC
100
AcDbEntity
  8
L1_120
  6
CONTINUOUS
 62
         7
100
AcDbCircle
 10
1221.5667337331
 20
-251.1565489024
 30
0.0
 40
1.6495853065
100
AcDbArc
 50
223.1760378472
 51
250.0
  0
POLYLINE
  5
EE
100
AcDbEntity
  8
L1_120
  6
CONTINUOUS
 62
         7
100
AcDb3dPolyline
 66
         1
 10
0.0
 20
0.0
 30
0.0
 70
         8
  0
VERTEX
  5
F0
100
AcDbEntity
  8
L1_120
  6
CONTINUOUS
 62
         7
100
AcDbVertex
100
AcDb3dPolylineVertex
 10
1220.3637656414
 20
-252.2852647452
 30
0.0
 70
        32
  0
VERTEX
  5
F2
100
AcDbEntity
  8
L1_120
  6
CONTINUOUS
 62
         7
100
AcDbVertex
100
AcDb3dPolylineVertex
 10
1220.3637656414
 20
-252.2852647452
 30
0.0
 70
        32
  0
SEQEND
  5
F4
100
AcDbEntity
  8
L1_120
  6
CONTINUOUS
 62
         7
  0
ARC
  5
F5
100
AcDbEntity
  8
L1_120
  6
CONTINUOUS
 62
         7
100
AcDbCircle
 10
1221.8791966478
 20
-250.8633725127
 30
0.0
 40
2.0780540551
100
AcDbArc
 50
199.3226899096
 51
223.1760378473
  0
ARC
  5
F6
100
AcDbEntity
  8
L1_120
  6
CONTINUOUS
 62
         7
100
AcDbCircle
 10
1222.2486329158
 20
-250.7338335051
 30
0.0
 40
2.4695428935
100
AcDbArc
 50
178.742274142
 51
199.3226899096
  0
ARC
  5
F7
100
AcDbEntity
  8
L1_120
  6
CONTINUOUS
 62
         7
100
AcDbCircle
 10
1222.7511951417
 20
-250.7448672506
 30
0.0
 40
2.9722262277
100
AcDbArc
 50
160.0
 51
178.742274142
  0
ARC
  5
F8
100
AcDbEntity
  8
L1_120
  6
CONTINUOUS
 62
         7
100
AcDbCircle
 10
1239.984911144
 20
-199.9877139457
 30
0.0
 40
2.0780540551
100
AcDbArc
 50
276.8239621528
 51
300.6773100904
  0
ARC
  5
F9
100
AcDbEntity
  8
L1_120
  6
CONTINUOUS
 62
         7
100
AcDbCircle
 10
1239.3930952574
 20
-199.3364238207
 30
0.0
 40
2.9722262277
100
AcDbArc
 50
321.257725858
 51
340.0
  0
POLYLINE
  5
FB
100
AcDbEntity
  8
L1_120
  6
CONTINUOUS
 62
         7
100
AcDb3dPolyline
 66
         1
 10
0.0
 20
0.0
 30
0.0
 70
         8
  0
VERTEX
  5
FD
100
AcDbEntity
  8
L1_120
  6
CONTINUOUS
 62
         7
100
AcDbVertex
100
AcDb3dPolylineVertex
 10
1238.4273038278
 20
-198.9849044878
 30
0.0
 70
        32
  0
VERTEX
  5
FF
100
AcDbEntity
  8
L1_120
  6
CONTINUOUS
 62
         7
100
AcDbVertex
100
AcDb3dPolylineVertex
 10
1238.4273038278
 20
-198.9849044878
 30
0.0
 70
        32
  0
SEQEND
  5
101
100
AcDbEntity
  8
L1_120
  6
CONTINUOUS
 62
         7
  0
ARC
  5
102
100
AcDbEntity
  8
L1_120
  6
CONTINUOUS
 62
         7
100
AcDbCircle
 10
1241.2202828813
 20
-200.0014657282
 30
0.0
 40
2.9722262277
100
AcDbArc
 50
160.0
 51
178.7422741421
  0
POLYLINE
  5
104
100
AcDbEntity
  8
L1_120
  6
CONTINUOUS
 62
         7
100
AcDb3dPolyline
 66
         1
 10
0.0
 20
0.0
 30
0.0
 70
         8
  0
VERTEX
  5
106
100
AcDbEntity
  8
L1_120
  6
CONTINUOUS
 62
         7
100
AcDbVertex
100
AcDb3dPolylineVertex
 10
1238.2487727329
 20
-199.9362262708
 30
0.0
 70
        32
  0
VERTEX
  5
108
100
AcDbEntity
  8
L1_120
  6
CONTINUOUS
 62
         7
100
AcDbVertex
100
AcDb3dPolylineVertex
 10
1238.2487727329
 20
-199.9362262708
 30
0.0
 70
        32
  0
SEQEND
  5
10A
100
AcDbEntity
  8
L1_120
  6
CONTINUOUS
 62
         7
  0
ARC
  5
10B
100
AcDbEntity
  8
L1_120
  6
CONTINUOUS
 62
         7
100
AcDbCircle
 10
1240.7177206553
 20
-199.9904319826
 30
0.0
 40
2.4695428935
100
AcDbArc
 50
178.7422741421
 51
199.3226899097
  0
POLYLINE
  5
10D
100
AcDbEntity
  8
L1_120
  6
CONTINUOUS
 62
         7
100
AcDb3dPolyline
 66
         1
 10
0.0
 20
0.0
 30
0.0
 70
         8
  0
VERTEX
  5
10F
100
AcDbEntity
  8
L1_120
  6
CONTINUOUS
 62
         7
100
AcDbVertex
100
AcDb3dPolylineVertex
 10
1238.3872871393
 20
-200.8075743998
 30
0.0
 70
        32
  0
VERTEX
  5
111
100
AcDbEntity
  8
L1_120
  6
CONTINUOUS
 62
         7
100
AcDbVertex
100
AcDb3dPolylineVertex
 10
1238.3872871393
 20
-200.8075743998
 30
0.0
 70
        32
  0
SEQEND
  5
113
100
AcDbEntity
  8
L1_120
  6
CONTINUOUS
 62
         7
  0
ARC
  5
114
100
AcDbEntity
  8
L1_120
  6
CONTINUOUS
 62
         7
100
AcDbCircle
 10
1240.3482843874
 20
-200.1199709902
 30
0.0
 40
2.0780540551
100
AcDbArc
 50
199.3226899097
 51
223.1760378473
  0
POLYLINE
  5
116
100
AcDbEntity
  8
L1_120
  6
CONTINUOUS
 62
         7
100
AcDb3dPolyline
 66
         1
 10
0.0
 20
0.0
 30
0.0
 70
         8
  0
VERTEX
  5
118
100
AcDbEntity
  8
L1_120
  6
CONTINUOUS
 62
         7
100
AcDbVertex
100
AcDb3dPolylineVertex
 10
1238.832853381
 20
-201.5418632228
 30
0.0
 70
        32
  0
VERTEX
  5
11A
100
AcDbEntity
  8
L1_120
  6
CONTINUOUS
 62
         7
100
AcDbVertex
100
AcDb3dPolylineVertex
 10
1238.832853381
 20
-201.5418632228
 30
0.0
 70
        32
  0
SEQEND
  5
11C
100
AcDbEntity
  8
L1_120
  6
CONTINUOUS
 62
         7
  0
ARC
  5
11D
100
AcDbEntity
  8
L1_120
  6
CONTINUOUS
 62
         7
100
AcDbCircle
 10
1240.0358214727
 20
-200.41314738
 30
0.0
 40
1.6495853065
100
AcDbArc
 50
223.1760378472
 51
249.9999999999
  0
POLYLINE
  5
11F
100
AcDbEntity
  8
L1_120
  6
CONTINUOUS
 62
         7
100
AcDb3dPolyline
 66
         1
 10
0.0
 20
0.0
 30
0.0
 70
         8
  0
VERTEX
  5
121
100
AcDbEntity
  8
L1_120
  6
CONTINUOUS
 62
         7
100
AcDbVertex
100
AcDb3dPolylineVertex
 10
1239.4716300697
 20
-201.9632505198
 30
0.0
 70
        32
  0
VERTEX
  5
123
100
AcDbEntity
  8
L1_120
  6
CONTINUOUS
 62
         7
100
AcDbVertex
100
AcDb3dPolylineVertex
 10
1239.4716300697
 20
-201.9632505198
 30
0.0
 70
        32
  0
SEQEND
  5
125
100
AcDbEntity
  8
L1_120
  6
CONTINUOUS
 62
         7
  0
ARC
  5
126
100
AcDbEntity
  8
L1_120
  6
CONTINUOUS
 62
         7
100
AcDbCircle
 10
1240.0358214727
 20
-200.41314738
 30
0.0
 40
1.6495853065
100
AcDbArc
 50
250.0
 51
276.8239621528
  0
POLYLINE
  5
128
100
AcDbEntity
  8
L1_120
  6
CONTINUOUS
 62
         7
100
AcDb3dPolyline
 66
         1
 10
0.0
 20
0.0
 30
0.0
 70
         8
  0
VERTEX
  5
12A
100
AcDbEntity
  8
L1_120
  6
CONTINUOUS
 62
         7
100
AcDbVertex
100
AcDb3dPolylineVertex
 10
1240.231823936
 20
-202.0510468634
 30
0.0
 70
        32
  0
VERTEX
  5
12C
100
AcDbEntity
  8
L1_120
  6
CONTINUOUS
 62
         7
100
AcDbVertex
100
AcDb3dPolylineVertex
 10
1240.231823936
 20
-202.0510468634
 30
0.0
 70
        32
  0
SEQEND
  5
12E
100
AcDbEntity
  8
L1_120
  6
CONTINUOUS
 62
         7
  0
POLYLINE
  5
130
100
AcDbEntity
  8
L1_120
  6
CONTINUOUS
 62
         7
100
AcDb3dPolyline
 66
         1
 10
0.0
 20
0.0
 30
0.0
 70
         8
  0
VERTEX
  5
132
100
AcDbEntity
  8
L1_120
  6
CONTINUOUS
 62
         7
100
AcDbVertex
100
AcDb3dPolylineVertex
 10
1241.0451392368
 20
-201.7749534504
 30
0.0
 70
        32
  0
VERTEX
  5
134
100
AcDbEntity
  8
L1_120
  6
CONTINUOUS
 62
         7
100
AcDbVertex
100
AcDb3dPolylineVertex
 10
1241.0451392368
 20
-201.7749534504
 30
0.0
 70
        32
  0
SEQEND
  5
136
100
AcDbEntity
  8
L1_120
  6
CONTINUOUS
 62
         7
  0
ARC
  5
137
100
AcDbEntity
  8
L1_120
  6
CONTINUOUS
 62
         7
100
AcDbCircle
 10
1239.7851726129
 20
-199.6510122532
 30
0.0
 40
2.4695428935
100
AcDbArc
 50
300.6773100903
 51
321.257725858
  0
POLYLINE
  5
139
100
AcDbEntity
  8
L1_120
  6
CONTINUOUS
 62
         7
100
AcDb3dPolyline
 66
         1
 10
0.0
 20
0.0
 30
0.0
 70
         8
  0
VERTEX
  5
13B
100
AcDbEntity
  8
L1_120
  6
CONTINUOUS
 62
         7
100
AcDbVertex
100
AcDb3dPolylineVertex
 10
1241.7113392092
 20
-201.1964974023
 30
0.0
 70
        32
  0
VERTEX
  5
13D
100
AcDbEntity
  8
L1_120
  6
CONTINUOUS
 62
         7
100
AcDbVertex
100
AcDb3dPolylineVertex
 10
1241.7113392092
 20
-201.1964974023
 30
0.0
 70
        32
  0
SEQEND
  5
13F
100
AcDbEntity
  8
L1_120
  6
CONTINUOUS
 62
         7
  0
POLYLINE
  5
141
100
AcDbEntity
  8
L1_120
  6
CONTINUOUS
 62
         7
100
AcDb3dPolyline
 66
         1
 10
0.0
 20
0.0
 30
0.0
 70
         8
  0
VERTEX
  5
143
100
AcDbEntity
  8
L1_120
  6
CONTINUOUS
 62
         7
100
AcDbVertex
100
AcDb3dPolylineVertex
 10
1242.1860743109
 20
-200.3529850611
 30
0.0
 70
        32
  0
VERTEX
  5
145
100
AcDbEntity
  8
L1_120
  6
CONTINUOUS
 62
         7
100
AcDbVertex
100
AcDb3dPolylineVertex
 10
1242.1860743109
 20
-200.3529850611
 30
0.0
 70
        32
  0
SEQEND
  5
147
100
AcDbEntity
  8
L1_120
  6
CONTINUOUS
 62
         7
  0
ARC
  5
148
100
AcDbEntity
  8
L1_120
  6
CONTINUOUS
 62
         7
100
AcDbCircle
 10
1239.3930952575
 20
-199.3364238207
 30
0.0
 40
2.9722262277
100
AcDbArc
 50
339.9999999999
 51
358.742274142
  0
POLYLINE
  5
14A
100
AcDbEntity
  8
L1_120
  6
CONTINUOUS
 62
         7
100
AcDb3dPolyline
 66
         1
 10
0.0
 20
0.0
 30
0.0
 70
         8
  0
VERTEX
  5
14C
100
AcDbEntity
  8
L1_120
  6
CONTINUOUS
 62
         7
100
AcDbVertex
100
AcDb3dPolylineVertex
 10
1242.3646054058
 20
-199.4016632781
 30
0.0
 70
        32
  0
VERTEX
  5
14E
100
AcDbEntity
  8
L1_120
  6
CONTINUOUS
 62
         7
100
AcDbVertex
100
AcDb3dPolylineVertex
 10
1242.3646054058
 20
-199.4016632781
 30
0.0
 70
        32
  0
SEQEND
  5
150
100
AcDbEntity
  8
L1_120
  6
CONTINUOUS
 62
         7
  0
ARC
  5
151
100
AcDbEntity
  8
L1_120
  6
CONTINUOUS
 62
         7
100
AcDbCircle
 10
1239.8956574834
 20
-199.3474575663
 30
0.0
 40
2.4695428935
100
AcDbArc
 50
358.742274142
 51
379.3226899097
  0
POLYLINE
  5
153
100
AcDbEntity
  8
L1_120
  6
CONTINUOUS
 62
         7
100
AcDb3dPolyline
 66
         1
 10
0.0
 20
0.0
 30
0.0
 70
         8
  0
VERTEX
  5
155
100
AcDbEntity
  8
L1_120
  6
CONTINUOUS
 62
         7
100
AcDbVertex
100
AcDb3dPolylineVertex
 10
1242.2260909995
 20
-198.530315149
 30
0.0
 70
        32
  0
VERTEX
  5
157
100
AcDbEntity
  8
L1_120
  6
CONTINUOUS
 62
         7
100
AcDbVertex
100
AcDb3dPolylineVertex
 10
1242.2260909995
 20
-198.530315149
 30
0.0
 70
        32
  0
SEQEND
  5
159
100
AcDbEntity
  8
L1_120
  6
CONTINUOUS
 62
         7
  0
ARC
  5
15A
100
AcDbEntity
  8
L1_120
  6
CONTINUOUS
 62
         7
100
AcDbCircle
 10
1240.2650937514
 20
-199.2179185586
 30
0.0
 40
2.0780540551
100
AcDbArc
 50
19.3226899096
 51
43.1760378472
  0
POLYLINE
  5
15C
100
AcDbEntity
  8
L1_120
  6
CONTINUOUS
 62
         7
100
AcDb3dPolyline
 66
         1
 10
0.0
 20
0.0
 30
0.0
 70
         8
  0
VERTEX
  5
15E
100
AcDbEntity
  8
L1_120
  6
CONTINUOUS
 62
         7
100
AcDbVertex
100
AcDb3dPolylineVertex
 10
1241.7805247577
 20
-197.7960263261
 30
0.0
 70
        32
  0
VERTEX
  5
160
100
AcDbEntity
  8
L1_120
  6
CONTINUOUS
 62
         7
100
AcDbVertex
100
AcDb3dPolylineVertex
 10
1241.7805247577
 20
-197.7960263261
 30
0.0
 70
        32
  0
SEQEND
  5
162
100
AcDbEntity
  8
L1_120
  6
CONTINUOUS
 62
         7
  0
ARC
  5
163
100
AcDbEntity
  8
L1_120
  6
CONTINUOUS
 62
         7
100
AcDbCircle
 10
1240.5775566661
 20
-198.9247421689
 30
0.0
 40
1.6495853065
100
AcDbArc
 50
43.1760378472
 51
70.0
  0
POLYLINE
  5
165
100
AcDbEntity
  8
L1_120
  6
CONTINUOUS
 62
         7
100
AcDb3dPolyline
 66
         1
 10
0.0
 20
0.0
 30
0.0
 70
         8
  0
VERTEX
  5
167
100
AcDbEntity
  8
L1_120
  6
CONTINUOUS
 62
         7
100
AcDbVertex
100
AcDb3dPolylineVertex
 10
1241.141748069
 20
-197.374639029
 30
0.0
 70
        32
  0
VERTEX
  5
169
100
AcDbEntity
  8
L1_120
  6
CONTINUOUS
 62
         7
100
AcDbVertex
100
AcDb3dPolylineVertex
 10
1241.141748069
 20
-197.374639029
 30
0.0
 70
        32
  0
SEQEND
  5
16B
100
AcDbEntity
  8
L1_120
  6
CONTINUOUS
 62
         7
  0
ARC
  5
16C
100
AcDbEntity
  8
L1_120
  6
CONTINUOUS
 62
         7
100
AcDbCircle
 10
1240.5775566661
 20
-198.9247421689
 30
0.0
 40
1.6495853065
100
AcDbArc
 50
70.0000000001
 51
96.8239621529
  0
POLYLINE
  5
16E
100
AcDbEntity
  8
L1_120
  6
CONTINUOUS
 62
         7
100
AcDb3dPolyline
 66
         1
 10
0.0
 20
0.0
 30
0.0
 70
         8
  0
VERTEX
  5
170
100
AcDbEntity
  8
L1_120
  6
CONTINUOUS
 62
         7
100
AcDbVertex
100
AcDb3dPolylineVertex
 10
1240.3815542028
 20
-197.2868426855
 30
0.0
 70
        32
  0
VERTEX
  5
172
100
AcDbEntity
  8
L1_120
  6
CONTINUOUS
 62
         7
100
AcDbVertex
100
AcDb3dPolylineVertex
 10
1240.3815542028
 20
-197.2868426855
 30
0.0
 70
        32
  0
SEQEND
  5
174
100
AcDbEntity
  8
L1_120
  6
CONTINUOUS
 62
         7
  0
ARC
  5
175
100
AcDbEntity
  8
L1_120
  6
CONTINUOUS
 62
         7
100
AcDbCircle
 10
1240.6284669948
 20
-199.3501756031
 30
0.0
 40
2.0780540551
100
AcDbArc
 50
96.8239621528
 51
120.6773100904
  0
POLYLINE
  5
177
100
AcDbEntity
  8
L1_120
  6
CONTINUOUS
 62
         7
100
AcDb3dPolyline
 66
         1
 10
0.0
 20
0.0
 30
0.0
 70
         8
  0
VERTEX
  5
179
100
AcDbEntity
  8
L1_120
  6
CONTINUOUS
 62
         7
100
AcDbVertex
100
AcDb3dPolylineVertex
 10
1239.5682389019
 20
-197.5629360984
 30
0.0
 70
        32
  0
VERTEX
  5
17B
100
AcDbEntity
  8
L1_120
  6
CONTINUOUS
 62
         7
100
AcDbVertex
100
AcDb3dPolylineVertex
 10
1239.5682389019
 20
-197.5629360984
 30
0.0
 70
        32
  0
SEQEND
  5
17D
100
AcDbEntity
  8
L1_120
  6
CONTINUOUS
 62
         7
  0
ARC
  5
17E
100
AcDbEntity
  8
L1_120
  6
CONTINUOUS
 62
         7
100
AcDbCircle
 10
1240.8282055258
 20
-199.6868772957
 30
0.0
 40
2.4695428935
100
AcDbArc
 50
120.6773100903
 51
141.257725858
  0
ARC
  5
17F
100
AcDbEntity
  8
L1_120
  6
CONTINUOUS
 62
         7
100
AcDbCircle
 10
1241.2202828813
 20
-200.0014657282
 30
0.0
 40
2.9722262277
100
AcDbArc
 50
141.257725858
 51
160.0
  0
LINE
  5
180
100
AcDbEntity
  8
L1_120
  6
CENTER
 62
         1
100
AcDbLine
 10
1243.1257669317
 20
-200.6950052044
 30
0.0
 11
1237.487611207
 21
-198.6428843445
 31
0.0
  0
LINE
  5
181
100
AcDbEntity
  8
L1_120
  6
CENTER
 62
         1
100
AcDbLine
 10
1243.2519449943
 20
-191.5769206263
 30
0.0
 11
1219.021849326
 21
-258.1485613461
 31
0.0
  0
LINE
  5
182
100
AcDbEntity
  8
L1_120
  6
CONTINUOUS
 62
         5
100
AcDbLine
 10
1327.6275047567
 20
-330.1686220057
 30
0.0
 11
1349.6275047567
 21
-330.1686220057
 31
0.0
  0
LINE
  5
183
100
AcDbEntity
  8
L1_120
  6
CONTINUOUS
 62
         5
100
AcDbLine
 10
1327.6275047567
 20
-346.1686220057
 30
0.0
 11
1349.6275047567
 21
-346.1686220057
 31
0.0
  0
ARC
  5
184
100
AcDbEntity
  8
L1_120
  6
CONTINUOUS
 62
         7
100
AcDbCircle
 10
1320.1275047567
 20
-348.1686220057
 30
0.0
 40
1.5
100
AcDbArc
 50
90.0
 51
180.0
  0
ARC
  5
185
100
AcDbEntity
  8
L1_120
  6
CONTINUOUS
 62
         7
100
AcDbCircle
 10
1326.4529064168
 20
-346.2686220057
 30
0.0
 40
0.6
100
AcDbArc
 50
255.0
 51
270.0
  0
LINE
  5
186
100
AcDbEntity
  8
L1_120
  6
CONTINUOUS
 62
         7
100
AcDbLine
 10
1325.6275047567
 20
-346.6686220057
 30
0.0
 11
1326.2976149897
 21
-346.8481775015
 31
0.0
  0
LINE
  5
187
100
AcDbEntity
  8
L1_120
  6
CONTINUOUS
 62
         7
100
AcDbLine
 10
1320.1275047567
 20
-346.6686220057
 30
0.0
 11
1325.6275047567
 21
-346.6686220057
 31
0.0
  0
LINE
  5
188
100
AcDbEntity
  8
L1_120
  6
CONTINUOUS
 62
         7
100
AcDbLine
 10
1326.4529064168
 20
-346.8686220057
 30
0.0
 11
1327.0275047567
 21
-346.8686220057
 31
0.0
  0
ARC
  5
189
100
AcDbEntity
  8
L1_120
  6
CONTINUOUS
 62
         7
100
AcDbCircle
 10
1327.0275047567
 20
-346.2686220057
 30
0.0
 40
0.6
100
AcDbArc
 50
270.0
 51
360.0
  0
LINE
  5
18A
100
AcDbEntity
  8
L1_120
  6
CONTINUOUS
 62
         7
100
AcDbLine
 10
1325.6275047567
 20
-329.6686220057
 30
0.0
 11
1325.6275047567
 21
-346.6686220057
 31
0.0
  0
ARC
  5
18B
100
AcDbEntity
  8
L1_120
  6
CONTINUOUS
 62
         7
100
AcDbCircle
 10
1320.1275047567
 20
-328.1686220057
 30
0.0
 40
1.5
100
AcDbArc
 50
180.0
 51
270.0
  0
LINE
  5
18C
100
AcDbEntity
  8
L1_120
  6
CONTINUOUS
 62
         7
100
AcDbLine
 10
1320.1275047567
 20
-329.6686220057
 30
0.0
 11
1325.6275047567
 21
-329.6686220057
 31
0.0
  0
LINE
  5
18D
100
AcDbEntity
  8
L1_120
  6
CONTINUOUS
 62
         7
100
AcDbLine
 10
1325.6275047567
 20
-329.6686220057
 30
0.0
 11
1326.2976149897
 21
-329.4890665099
 31
0.0
  0
ARC
  5
18E
100
AcDbEntity
  8
L1_120
  6
CONTINUOUS
 62
         7
100
AcDbCircle
 10
1326.4529064168
 20
-330.0686220057
 30
0.0
 40
0.6
100
AcDbArc
 50
90.0
 51
105.0
  0
LINE
  5
18F
100
AcDbEntity
  8
L1_120
  6
CONTINUOUS
 62
         7
100
AcDbLine
 10
1326.4529064168
 20
-329.4686220057
 30
0.0
 11
1327.0275047567
 21
-329.4686220057
 31
0.0
  0
ARC
  5
190
100
AcDbEntity
  8
L1_120
  6
CONTINUOUS
 62
         7
100
AcDbCircle
 10
1327.0275047567
 20
-330.0686220057
 30
0.0
 40
0.6
100
AcDbArc
 50
0.0
 51
90.0
  0
LINE
  5
191
100
AcDbEntity
  8
L1_120
  6
CONTINUOUS
 62
         7
100
AcDbLine
 10
1327.6275047567
 20
-330.0686220057
 30
0.0
 11
1327.6275047567
 21
-346.2686220057
 31
0.0
  0
LINE
  5
192
100
AcDbEntity
  8
L1_120
  6
CONTINUOUS
 62
         7
100
AcDbLine
 10
1319.4831986403
 20
-350.9809624335
 30
0.0
 11
1384.5275047567
 21
-360.4665382716
 31
0.0
  0
ARC
  5
193
100
AcDbEntity
  8
L1_120
  6
CONTINUOUS
 62
         7
100
AcDbCircle
 10
1319.6275047567
 20
-349.9914293391
 30
0.0
 40
1.0
100
AcDbArc
 50
180.0
 51
261.7029
  0
LINE
  5
194
100
AcDbEntity
  8
L1_120
  6
CONTINUOUS
 62
         7
100
AcDbLine
 10
1318.6275047567
 20
-326.3458146723
 30
0.0
 11
1318.6275047567
 21
-349.9914293391
 31
0.0
  0
ARC
  5
195
100
AcDbEntity
  8
L1_120
  6
CONTINUOUS
 62
         7
100
AcDbCircle
 10
1319.6275047567
 20
-326.3458146723
 30
0.0
 40
1.0
100
AcDbArc
 50
98.2971
 51
180.0
  0
LINE
  5
196
100
AcDbEntity
  8
L1_120
  6
CONTINUOUS
 62
         7
100
AcDbLine
 10
1319.4831986403
 20
-325.356281578
 30
0.0
 11
1384.5275047567
 21
-315.8707057398
 31
0.0
  0
LINE
  5
197
100
AcDbEntity
  8
L1_120
  6
CONTINUOUS
 62
         7
100
AcDbLine
 10
1349.6275047567
 20
-330.1686220057
 30
0.0
 11
1349.6275047567
 21
-346.1686220057
 31
0.0
  0
LINE
  5
198
100
AcDbEntity
  8
L1_120
  6
CONTINUOUS
 62
         5
100
AcDbLine
 10
1349.6275047567
 20
-346.1686220057
 30
0.0
 11
1352.6275047567
 21
-345.2186220057
 31
0.0
  0
LINE
  5
199
100
AcDbEntity
  8
L1_120
  6
CONTINUOUS
 62
         5
100
AcDbLine
 10
1349.6275047567
 20
-330.1686220057
 30
0.0
 11
1352.6275047567
 21
-331.1186220057
 31
0.0
  0
ARC
  5
19A
100
AcDbEntity
  8
L1_120
  6
CONTINUOUS
 62
         5
100
AcDbCircle
 10
1614.9075047567
 20
-225.0406455357
 30
0.0
 40
8.0
100
AcDbArc
 50
243.9197505296
 51
562.8347942099
  0
CIRCLE
  5
19B
100
AcDbEntity
  8
L1_120
  6
CONTINUOUS
 62
         7
100
AcDbCircle
 10
1614.9075047567
 20
-225.0406455357
 30
0.0
 40
9.515
  0
CIRCLE
  5
19C
100
AcDbEntity
  8
L1_120
  6
CONTINUOUS
 62
         7
100
AcDbCircle
 10
1614.9075047567
 20
-225.0406455357
 30
0.0
 40
7.6
  0
CIRCLE
  5
19D
100
AcDbEntity
  8
L1_120
  6
CONTINUOUS
 62
         7
100
AcDbCircle
 10
1614.9075047567
 20
-225.0406455357
 30
0.0
 40
16.5
  0
LINE
  5
19E
100
AcDbEntity
  8
L1_120
  6
DASHED
 62
         2
100
AcDbLine
 10
1584.9534820339
 20
-233.0906455357
 30
0.0
 11
1591.5075047567
 21
-233.0906455357
 31
0.0
  0
LINE
  5
19F
100
AcDbEntity
  8
L1_120
  6
DASHED
 62
         2
100
AcDbLine
 10
1584.9534820339
 20
-216.9906455357
 30
0.0
 11
1591.5075047567
 21
-216.9906455357
 31
0.0
  0
LINE
  5
1A0
100
AcDbEntity
  8
L1_120
  6
DASHED
 62
         2
100
AcDbLine
 10
1592.3075047567
 20
-217.7906455357
 30
0.0
 11
1592.3075047567
 21
-232.2906455357
 31
0.0
  0
LINE
  5
1A1
100
AcDbEntity
  8
L1_120
  6
DASHED
 62
         2
100
AcDbLine
 10
1584.9534820339
 20
-216.9906455357
 30
0.0
 11
1584.5601731572
 21
-216.5973366589
 31
0.0
  0
LINE
  5
1A2
100
AcDbEntity
  8
L1_120
  6
DASHED
 62
         2
100
AcDbLine
 10
1584.9534820339
 20
-233.0906455357
 30
0.0
 11
1584.5601731572
 21
-233.4839544124
 31
0.0
  0
LINE
  5
1A3
100
AcDbEntity
  8
L1_120
  6
DASHED
 62
         2
100
AcDbLine
 10
1592.3075047567
 20
-232.2906455357
 30
0.0
 11
1591.5075047567
 21
-233.0906455357
 31
0.0
  0
LINE
  5
1A4
100
AcDbEntity
  8
L1_120
  6
DASHED
 62
         2
100
AcDbLine
 10
1592.3075047567
 20
-217.7906455357
 30
0.0
 11
1591.5075047567
 21
-216.9906455357
 31
0.0
  0
LINE
  5
1A5
100
AcDbEntity
  8
L1_120
  6
DASHED
 62
         2
100
AcDbLine
 10
1637.5075047567
 20
-217.7906455357
 30
0.0
 11
1637.5075047567
 21
-232.2906455357
 31
0.0
  0
LINE
  5
1A6
100
AcDbEntity
  8
L1_120
  6
DASHED
 62
         2
100
AcDbLine
 10
1644.8615274795
 20
-216.9906455357
 30
0.0
 11
1638.3075047567
 21
-216.9906455357
 31
0.0
  0
LINE
  5
1A7
100
AcDbEntity
  8
L1_120
  6
DASHED
 62
         2
100
AcDbLine
 10
1644.8615274795
 20
-233.0906455357
 30
0.0
 11
1638.3075047567
 21
-233.0906455357
 31
0.0
  0
LINE
  5
1A8
100
AcDbEntity
  8
L1_120
  6
DASHED
 62
         2
100
AcDbLine
 10
1644.8615274795
 20
-216.9906455357
 30
0.0
 11
1645.2548363563
 21
-216.5973366589
 31
0.0
  0
LINE
  5
1A9
100
AcDbEntity
  8
L1_120
  6
DASHED
 62
         2
100
AcDbLine
 10
1644.8615274795
 20
-233.0906455357
 30
0.0
 11
1645.2548363563
 21
-233.4839544124
 31
0.0
  0
LINE
  5
1AA
100
AcDbEntity
  8
L1_120
  6
DASHED
 62
         2
100
AcDbLine
 10
1638.3075047567
 20
-216.9906455357
 30
0.0
 11
1637.5075047567
 21
-217.7906455357
 31
0.0
  0
LINE
  5
1AB
100
AcDbEntity
  8
L1_120
  6
DASHED
 62
         2
100
AcDbLine
 10
1637.5075047567
 20
-232.2906455357
 30
0.0
 11
1638.3075047567
 21
-233.0906455357
 31
0.0
  0
ARC
  5
1AC
100
AcDbEntity
  8
L1_120
  6
DASHED
 62
         2
100
AcDbCircle
 10
1614.9075047567
 20
-225.0406455357
 30
0.0
 40
26.5
100
AcDbArc
 50
197.6843950499
 51
342.3156049501
  0
ARC
  5
1AD
100
AcDbEntity
  8
L1_120
  6
DASHED
 62
         2
100
AcDbCircle
 10
1614.9075047567
 20
-225.0406455357
 30
0.0
 40
26.5
100
AcDbArc
 50
17.6843950499
 51
162.3156049501
  0
LINE
  5
1AE
100
AcDbEntity
  8
L1_120
  6
CENTER
 62
         1
100
AcDbLine
 10
1580.4075047567
 20
-225.0406455357
 30
0.0
 11
1649.4075047567
 21
-225.0406455357
 31
0.0
  0
CIRCLE
  5
1AF
100
AcDbEntity
  8
L1_120
  6
CONTINUOUS
 62
         7
100
AcDbCircle
 10
1614.9075047567
 20
-225.0406455357
 30
0.0
 40
31.5
  0
LINE
  5
1B0
100
AcDbEntity
  8
L1_120
  6
CENTER
 62
         1
100
AcDbLine
 10
1603.107809812
 20
-192.6212501185
 30
0.0
 11
1628.0777199371
 21
-261.2255143532
 31
0.0
  0
LINE
  5
1B1
100
AcDbEntity
  8
L1_120
  6
DASHED
 62
         2
100
AcDbLine
 10
1607.7492059036
 20
-199.5257722746
 30
0.0
 11
1609.0914367735
 21
-203.2135212813
 31
0.0
  0
LINE
  5
1B2
100
AcDbEntity
  8
L1_120
  6
DASHED
 62
         2
100
AcDbLine
 10
1603.9904354204
 20
-200.8938528479
 30
0.0
 11
1605.3326662903
 21
-204.5816018546
 31
0.0
  0
LINE
  5
1B3
100
AcDbEntity
  8
L1_120
  6
DASHED
 62
         2
100
AcDbLine
 10
1605.6822788209
 20
-204.5188228478
 30
0.0
 11
1610.6796800855
 21
-218.2490699784
 31
0.0
  0
LINE
  5
1B4
100
AcDbEntity
  8
L1_120
  6
DASHED
 62
         2
100
AcDbLine
 10
1608.7832644695
 20
-203.3901563748
 30
0.0
 11
1613.7806657341
 21
-217.1204035054
 31
0.0
  0
LINE
  5
1B5
100
AcDbEntity
  8
L1_120
  6
DASHED
 62
         2
100
AcDbLine
 10
1609.0914367735
 20
-203.2135212813
 30
0.0
 11
1605.3326662903
 21
-204.5816018546
 31
0.0
  0
LINE
  5
1B6
100
AcDbEntity
  8
L1_120
  6
DASHED
 62
         2
100
AcDbLine
 10
1621.0524651573
 20
-246.7480627398
 30
0.0
 11
1616.0343437793
 21
-232.9608875659
 31
0.0
  0
LINE
  5
1B7
100
AcDbEntity
  8
L1_120
  6
DASHED
 62
         2
100
AcDbLine
 10
1624.1534508059
 20
-245.6193962669
 30
0.0
 11
1619.1353294279
 21
-231.8322210929
 31
0.0
  0
LINE
  5
1B8
100
AcDbEntity
  8
L1_120
  6
DASHED
 62
         2
100
AcDbLine
 10
1622.0658036099
 20
-250.5555187967
 30
0.0
 11
1620.72357274
 21
-246.86776979
 31
0.0
  0
LINE
  5
1B9
100
AcDbEntity
  8
L1_120
  6
DASHED
 62
         2
100
AcDbLine
 10
1625.824574093
 20
-249.1874382234
 30
0.0
 11
1624.4823432231
 21
-245.4996892167
 31
0.0
  0
LINE
  5
1BA
100
AcDbEntity
  8
L1_120
  6
DASHED
 62
         2
100
AcDbLine
 10
1620.72357274
 20
-246.86776979
 30
0.0
 11
1624.4823432231
 21
-245.4996892167
 31
0.0
  0
CIRCLE
  5
1BB
100
AcDbEntity
  8
L1_120
  6
CONTINUOUS
 62
         7
100
AcDbCircle
 10
1614.9075047567
 20
-225.0406455357
 30
0.0
 40
7.05
  0
DIMENSION
  5
1BF
100
AcDbEntity
  8
L1_120
  6
CONTINUOUS
 62
         4
100
AcDbDimension
  2
*D0
 10
1562.6340642062
 20
-208.5406455356
 30
0.0
 11
1559.5020642063
 21
-230.9606263583
 31
0.0
  3
DIMSTYLE1
100
AcDbAlignedDimension
 13
1543.7475047567
 23
-208.5406455356
 33
0.0
 14
1543.7475047567
 24
-241.5406455357
 34
0.0
 50
90.0
100
AcDbRotatedDimension
  0
DIMENSION
  5
1CE
100
AcDbEntity
  8
L1_120
  6
CONTINUOUS
 62
         4
100
AcDbDimension
  2
*D1
 10
1486.5695834439
 20
-204.0406455357
 30
0.0
 11
1513.8604038651
 21
-197.2565089807
 31
0.0
 70
         2
  3
DIMSTYLE1
100
AcDb2LineAngularDimension
 13
1409.2881976524
 23
-204.0406455357
 33
0.0
 14
1486.5695834439
 24
-204.0406455357
 34
0.0
 15
1523.7666567481
 25
-206.9681186936
 35
0.0
 16
1512.7877564082
 26
-206.1040604977
 36
0.0
  0
LINE
  5
1DD
100
AcDbEntity
  8
L1_120
  6
CONTINUOUS
 62
         7
100
AcDbLine
 10
1412.7275047567
 20
-204.0406455357
 30
0.0
 11
1486.5695834439
 21
-204.0406455357
 31
0.0
  0
LINE
  5
1DE
100
AcDbEntity
  8
L1_120
  6
CONTINUOUS
 62
         7
100
AcDbLine
 10
1412.7275047567
 20
-246.0406455357
 30
0.0
 11
1486.5695834439
 21
-246.0406455357
 31
0.0
  0
ARC
  5
1DF
100
AcDbEntity
  8
L1_120
  6
CONTINUOUS
 62
         7
100
AcDbCircle
 10
1542.7475047567
 20
-240.616255044
 30
0.0
 40
1.0
100
AcDbArc
 50
274.5
 51
360.0
  0
LINE
  5
1E0
100
AcDbEntity
  8
L1_120
  6
CONTINUOUS
 62
         7
100
AcDbLine
 10
1542.8259638524
 20
-241.6131723778
 30
0.0
 11
1486.5695834439
 21
-246.0406455357
 31
0.0
  0
ARC
  5
1E1
100
AcDbEntity
  8
L1_120
  6
CONTINUOUS
 62
         7
100
AcDbCircle
 10
1542.7475047567
 20
-209.4650360274
 30
0.0
 40
1.0
100
AcDbArc
 50
0.0
 51
85.5
  0
LINE
  5
1E2
100
AcDbEntity
  8
L1_120
  6
CONTINUOUS
 62
         7
100
AcDbLine
 10
1543.7475047567
 20
-209.4650360274
 30
0.0
 11
1543.7475047567
 21
-240.616255044
 31
0.0
  0
LINE
  5
1E3
100
AcDbEntity
  8
L1_120
  6
CONTINUOUS
 62
         7
100
AcDbLine
 10
1542.8259638524
 20
-208.4681186936
 30
0.0
 11
1486.5695834439
 21
-204.0406455357
 31
0.0
  0
CIRCLE
  5
1E4
100
AcDbEntity
  8
L1_120
  6
CONTINUOUS
 62
         7
100
AcDbCircle
 10
1614.9075047567
 20
-225.0406455357
 30
0.0
 40
21.0
  0
LINE
  5
1E5
100
AcDbEntity
  8
L1_120
  6
DASHED
 62
         4
100
AcDbLine
 10
1611.8075047567
 20
-211.0406455357
 30
0.0
 11
1611.8075047567
 21
-204.4013913711
 31
0.0
  0
LINE
  5
1E6
100
AcDbEntity
  8
L1_120
  6
DASHED
 62
         4
100
AcDbLine
 10
1618.0075047567
 20
-211.0406455357
 30
0.0
 11
1618.0075047567
 21
-204.4013913711
 31
0.0
  0
LINE
  5
1E7
100
AcDbEntity
  8
L1_120
  6
DASHED
 62
         2
100
AcDbLine
 10
1614.9075047567
 20
-212.5417562356
 30
0.0
 11
1612.3075047567
 21
-211.0406455357
 31
0.0
  0
LINE
  5
1E8
100
AcDbEntity
  8
L1_120
  6
DASHED
 62
         2
100
AcDbLine
 10
1618.0075047567
 20
-211.0406455357
 30
0.0
 11
1611.8075047567
 21
-211.0406455357
 31
0.0
  0
LINE
  5
1E9
100
AcDbEntity
  8
L1_120
  6
DASHED
 62
         2
100
AcDbLine
 10
1617.5075047567
 20
-211.0406455357
 30
0.0
 11
1612.3075047567
 21
-211.0406455357
 31
0.0
  0
LINE
  5
1EA
100
AcDbEntity
  8
L1_120
  6
DASHED
 62
         2
100
AcDbLine
 10
1614.9075047567
 20
-212.5417562356
 30
0.0
 11
1617.5075047567
 21
-211.0406455357
 31
0.0
  0
LINE
  5
1EB
100
AcDbEntity
  8
L1_120
  6
DASHED
 62
         2
100
AcDbLine
 10
1612.3075047567
 20
-211.0406455357
 30
0.0
 11
1612.3075047567
 21
-204.2933816672
 31
0.0
  0
LINE
  5
1EC
100
AcDbEntity
  8
L1_120
  6
DASHED
 62
         2
100
AcDbLine
 10
1617.5075047567
 20
-211.0406455357
 30
0.0
 11
1617.5075047567
 21
-204.2933816672
 31
0.0
  0
LINE
  5
1ED
100
AcDbEntity
  8
L1_120
  6
DASHED
 62
         4
100
AcDbLine
 10
1600.9075047567
 20
-228.1406455357
 30
0.0
 11
1594.2682505922
 21
-228.1406455357
 31
0.0
  0
LINE
  5
1EE
100
AcDbEntity
  8
L1_120
  6
DASHED
 62
         4
100
AcDbLine
 10
1600.9075047567
 20
-221.9406455357
 30
0.0
 11
1594.2682505922
 21
-221.9406455357
 31
0.0
  0
LINE
  5
1EF
100
AcDbEntity
  8
L1_120
  6
DASHED
 62
         2
100
AcDbLine
 10
1602.4086154566
 20
-225.0406455357
 30
0.0
 11
1600.9075047567
 21
-227.6406455357
 31
0.0
  0
LINE
  5
1F0
100
AcDbEntity
  8
L1_120
  6
DASHED
 62
         2
100
AcDbLine
 10
1600.9075047567
 20
-221.9406455357
 30
0.0
 11
1600.9075047567
 21
-228.1406455357
 31
0.0
  0
LINE
  5
1F1
100
AcDbEntity
  8
L1_120
  6
DASHED
 62
         2
100
AcDbLine
 10
1600.9075047567
 20
-222.4406455357
 30
0.0
 11
1600.9075047567
 21
-227.6406455357
 31
0.0
  0
LINE
  5
1F2
100
AcDbEntity
  8
L1_120
  6
DASHED
 62
         2
100
AcDbLine
 10
1602.4086154566
 20
-225.0406455357
 30
0.0
 11
1600.9075047567
 21
-222.4406455357
 31
0.0
  0
LINE
  5
1F3
100
AcDbEntity
  8
L1_120
  6
DASHED
 62
         2
100
AcDbLine
 10
1600.9075047567
 20
-227.6406455357
 30
0.0
 11
1594.1602408883
 21
-227.6406455357
 31
0.0
  0
LINE
  5
1F4
100
AcDbEntity
  8
L1_120
  6
DASHED
 62
         2
100
AcDbLine
 10
1600.9075047567
 20
-222.4406455357
 30
0.0
 11
1594.1602408883
 21
-222.4406455357
 31
0.0
  0
LINE
  5
1F5
100
AcDbEntity
  8
L1_120
  6
DASHED
 62
         4
100
AcDbLine
 10
1618.0075047567
 20
-239.0406455357
 30
0.0
 11
1618.0075047567
 21
-245.6798997002
 31
0.0
  0
LINE
  5
1F6
100
AcDbEntity
  8
L1_120
  6
DASHED
 62
         4
100
AcDbLine
 10
1611.8075047567
 20
-239.0406455357
 30
0.0
 11
1611.8075047567
 21
-245.6798997002
 31
0.0
  0
LINE
  5
1F7
100
AcDbEntity
  8
L1_120
  6
DASHED
 62
         2
100
AcDbLine
 10
1614.9075047567
 20
-237.5395348358
 30
0.0
 11
1617.5075047567
 21
-239.0406455357
 31
0.0
  0
LINE
  5
1F8
100
AcDbEntity
  8
L1_120
  6
DASHED
 62
         2
100
AcDbLine
 10
1611.8075047567
 20
-239.0406455357
 30
0.0
 11
1618.0075047567
 21
-239.0406455357
 31
0.0
  0
LINE
  5
1F9
100
AcDbEntity
  8
L1_120
  6
DASHED
 62
         2
100
AcDbLine
 10
1612.3075047567
 20
-239.0406455357
 30
0.0
 11
1617.5075047567
 21
-239.0406455357
 31
0.0
  0
LINE
  5
1FA
100
AcDbEntity
  8
L1_120
  6
DASHED
 62
         2
100
AcDbLine
 10
1614.9075047567
 20
-237.5395348358
 30
0.0
 11
1612.3075047567
 21
-239.0406455357
 31
0.0
  0
LINE
  5
1FB
100
AcDbEntity
  8
L1_120
  6
DASHED
 62
         2
100
AcDbLine
 10
1617.5075047567
 20
-239.0406455357
 30
0.0
 11
1617.5075047567
 21
-245.7879094041
 31
0.0
  0
LINE
  5
1FC
100
AcDbEntity
  8
L1_120
  6
DASHED
 62
         2
100
AcDbLine
 10
1612.3075047567
 20
-239.0406455357
 30
0.0
 11
1612.3075047567
 21
-245.7879094041
 31
0.0
  0
LINE
  5
1FD
100
AcDbEntity
  8
L1_120
  6
DASHED
 62
         4
100
AcDbLine
 10
1628.9075047567
 20
-221.9406455357
 30
0.0
 11
1635.5467589213
 21
-221.9406455357
 31
0.0
  0
LINE
  5
1FE
100
AcDbEntity
  8
L1_120
  6
DASHED
 62
         4
100
AcDbLine
 10
1628.9075047567
 20
-228.1406455357
 30
0.0
 11
1635.5467589213
 21
-228.1406455357
 31
0.0
  0
LINE
  5
1FF
100
AcDbEntity
  8
L1_120
  6
DASHED
 62
         2
100
AcDbLine
 10
1627.4063940568
 20
-225.0406455357
 30
0.0
 11
1628.9075047567
 21
-222.4406455357
 31
0.0
  0
LINE
  5
200
100
AcDbEntity
  8
L1_120
  6
DASHED
 62
         2
100
AcDbLine
 10
1628.9075047567
 20
-228.1406455357
 30
0.0
 11
1628.9075047567
 21
-221.9406455357
 31
0.0
  0
LINE
  5
201
100
AcDbEntity
  8
L1_120
  6
DASHED
 62
         2
100
AcDbLine
 10
1628.9075047567
 20
-227.6406455357
 30
0.0
 11
1628.9075047567
 21
-222.4406455357
 31
0.0
  0
LINE
  5
202
100
AcDbEntity
  8
L1_120
  6
DASHED
 62
         2
100
AcDbLine
 10
1627.4063940568
 20
-225.0406455357
 30
0.0
 11
1628.9075047567
 21
-227.6406455357
 31
0.0
  0
LINE
  5
203
100
AcDbEntity
  8
L1_120
  6
DASHED
 62
         2
100
AcDbLine
 10
1628.9075047567
 20
-222.4406455357
 30
0.0
 11
1635.6547686252
 21
-222.4406455357
 31
0.0
  0
LINE
  5
204
100
AcDbEntity
  8
L1_120
  6
DASHED
 62
         2
100
AcDbLine
 10
1628.9075047567
 20
-227.6406455357
 30
0.0
 11
1635.6547686252
 21
-227.6406455357
 31
0.0
  0
LINE
  5
205
100
AcDbEntity
  8
L1_120
  6
DASHED
 62
         2
100
AcDbLine
 10
1608.7832644695
 20
-203.3901563748
 30
0.0
 11
1614.1137245527
 21
-218.0354750889
 31
0.0
  0
ARC
  5
206
100
AcDbEntity
  8
L1_120
  6
CONTINUOUS
 62
         7
100
AcDbCircle
 10
1412.7275047567
 20
-248.0406455357
 30
0.0
 40
2.0
100
AcDbArc
 50
90.0
 51
180.0
  0
ARC
  5
207
100
AcDbEntity
  8
L1_120
  6
CONTINUOUS
 62
         7
100
AcDbCircle
 10
1412.7275047567
 20
-202.0406455357
 30
0.0
 40
2.0
100
AcDbArc
 50
180.0
 51
270.0
  0
LINE
  5
208
100
AcDbEntity
  8
L1_120
  6
CONTINUOUS
 62
         4
100
AcDbLine
 10
1486.5695834439
 20
-204.0406455357
 30
0.0
 11
1486.5695834439
 21
-246.0406455357
 31
0.0
  0
LINE
  5
209
100
AcDbEntity
  8
L1_120
  6
CENTER
 62
         1
100
AcDbLine
 10
1418.3275047567
 20
-249.1370593805
 30
0.0
 11
1418.3275047567
 21
-202.129618929
 31
0.0
  0
ARC
  5
20A
100
AcDbEntity
  8
L1_120
  6
CONTINUOUS
 62
         5
100
AcDbCircle
 10
1418.3275047567
 20
-225.0407799732
 30
0.0
 40
3.1
100
AcDbArc
 50
253.7084875621
 51
566.025788772
  0
CIRCLE
  5
20B
100
AcDbEntity
  8
L1_120
  6
CONTINUOUS
 62
         7
100
AcDbCircle
 10
1418.3275047567
 20
-225.0407799732
 30
0.0
 40
2.6
  0
LINE
  5
20C
100
AcDbEntity
  8
L1_120
  6
CENTER
 62
         1
100
AcDbLine
 10
1318.3275047567
 20
-225.0406455357
 30
0.0
 11
1543.7475047567
 21
-225.0406455357
 31
0.0
  0
TEXT
  5
20E
100
AcDbEntity
  8
L1_120
  6
CONTINUOUS
 62
         2
100
AcDbText
 10
1597.614262978
 20
-164.667226155
 30
0.0
 40
4.5
  1
532490
 41
0.98
  7
BOX
100
AcDbText
  0
DIMENSION
  5
211
100
AcDbEntity
  8
L1_120
  6
CONTINUOUS
 62
         4
100
AcDbDimension
  2
*D2
 10
1383.7275047567
 20
-174.6932085563
 30
0.0
 11
1461.6487503682
 21
-172.6682085563
 31
0.0
  3
DIMSTYLE1
100
AcDbAlignedDimension
 13
1383.7275047567
 23
-202.9427292698
 33
0.0
 14
1543.7475047567
 24
-216.348426519
 34
0.0
100
AcDbRotatedDimension
  0
DIMENSION
  5
21F
100
AcDbEntity
  8
L1_120
  6
CONTINUOUS
 62
         4
100
AcDbDimension
  2
*D3
 10
1318.3275047567
 20
-162.7642506387
 30
0.0
 11
1423.9674779924
 21
-160.7392506387
 31
0.0
  3
DIMSTYLE1
100
AcDbAlignedDimension
 13
1318.3275047567
 23
-213.2178382022
 33
0.0
 14
1543.7475047567
 24
-216.348426519
 34
0.0
100
AcDbRotatedDimension
  0
DIMENSION
  5
22D
100
AcDbEntity
  8
L1_120
  6
CONTINUOUS
 62
         4
100
AcDbDimension
  2
*D4
 10
1572.0145430119
 20
-204.0406455357
 30
0.0
 11
1568.8825430119
 21
-230.9998443575
 31
0.0
  3
DIMSTYLE1
100
AcDbAlignedDimension
 13
1486.5695834439
 23
-204.0406455357
 33
0.0
 14
1486.5695834439
 24
-246.0406455357
 34
0.0
 50
90.0
100
AcDbRotatedDimension
  0
ARC
  5
239
100
AcDbEntity
  8
L1_120
  6
CONTINUOUS
 62
         7
100
AcDbCircle
 10
1387.0275047567
 20
-307.6686220057
 30
0.0
 40
1.0
100
AcDbArc
 50
90.0
 51
180.0
  0
ARC
  5
23A
100
AcDbEntity
  8
L1_120
  6
CONTINUOUS
 62
         7
100
AcDbCircle
 10
1410.0275047567
 20
-307.6686220057
 30
0.0
 40
1.0
100
AcDbArc
 50
0.0
 51
90.0
  0
LINE
  5
23B
100
AcDbEntity
  8
L1_120
  6
CONTINUOUS
 62
         7
100
AcDbLine
 10
1409.0275047567
 20
-306.6686220057
 30
0.0
 11
1410.0275047567
 21
-306.6686220057
 31
0.0
  0
LINE
  5
23C
100
AcDbEntity
  8
L1_120
  6
CONTINUOUS
 62
         7
100
AcDbLine
 10
1411.0275047567
 20
-361.1686220057
 30
0.0
 11
1411.0275047567
 21
-368.6686220057
 31
0.0
  0
LINE
  5
23D
100
AcDbEntity
  8
L1_120
  6
CONTINUOUS
 62
         7
100
AcDbLine
 10
1387.0275047567
 20
-306.6686220057
 30
0.0
 11
1388.0275047567
 21
-306.6686220057
 31
0.0
  0
LINE
  5
23E
100
AcDbEntity
  8
L1_120
  6
CONTINUOUS
 62
         7
100
AcDbLine
 10
1386.0275047567
 20
-367.6686220057
 30
0.0
 11
1386.0275047567
 21
-368.6686220057
 31
0.0
  0
ARC
  5
23F
100
AcDbEntity
  8
L1_120
  6
CONTINUOUS
 62
         7
100
AcDbCircle
 10
1387.0275047567
 20
-368.6686220057
 30
0.0
 40
1.0
100
AcDbArc
 50
180.0
 51
270.0
  0
LINE
  5
240
100
AcDbEntity
  8
L1_120
  6
CONTINUOUS
 62
         7
100
AcDbLine
 10
1387.0275047567
 20
-369.6686220057
 30
0.0
 11
1388.0275047567
 21
-369.6686220057
 31
0.0
  0
LINE
  5
241
100
AcDbEntity
  8
L1_120
  6
CONTINUOUS
 62
         7
100
AcDbLine
 10
1409.0275047567
 20
-369.6686220057
 30
0.0
 11
1410.0275047567
 21
-369.6686220057
 31
0.0
  0
ARC
  5
242
100
AcDbEntity
  8
L1_120
  6
CONTINUOUS
 62
         7
100
AcDbCircle
 10
1410.0275047567
 20
-368.6686220057
 30
0.0
 40
1.0
100
AcDbArc
 50
270.0
 51
360.0
  0
LINE
  5
243
100
AcDbEntity
  8
L1_120
  6
CONTINUOUS
 62
         7
100
AcDbLine
 10
1411.0275047567
 20
-315.1686220057
 30
0.0
 11
1411.0275047567
 21
-307.6686220057
 31
0.0
  0
LINE
  5
244
100
AcDbEntity
  8
L1_120
  6
CONTINUOUS
 62
         7
100
AcDbLine
 10
1386.0275047567
 20
-308.6686220057
 30
0.0
 11
1386.0275047567
 21
-307.6686220057
 31
0.0
  0
LINE
  5
245
100
AcDbEntity
  8
L1_120
  6
CONTINUOUS
 62
         7
100
AcDbLine
 10
1405.627646763
 20
-369.6686220057
 30
0.0
 11
1410.0275047567
 21
-369.6686220057
 31
0.0
  0
LINE
  5
246
100
AcDbEntity
  8
L1_120
  6
CONTINUOUS
 62
         7
100
AcDbLine
 10
1403.1275047567
 20
-365.3382490246
 30
0.0
 11
1405.627646763
 21
-369.6686220057
 31
0.0
  0
LINE
  5
247
100
AcDbEntity
  8
L1_120
  6
CONTINUOUS
 62
         7
100
AcDbLine
 10
1403.1275047567
 20
-364.6686220057
 30
0.0
 11
1403.1275047567
 21
-365.3382490246
 31
0.0
  0
LINE
  5
248
100
AcDbEntity
  8
L1_120
  6
CONTINUOUS
 62
         7
100
AcDbLine
 10
1398.1275047567
 20
-364.6686220057
 30
0.0
 11
1403.1275047567
 21
-364.6686220057
 31
0.0
  0
LINE
  5
249
100
AcDbEntity
  8
L1_120
  6
CONTINUOUS
 62
         7
100
AcDbLine
 10
1398.1275047567
 20
-364.6686220057
 30
0.0
 11
1398.1275047567
 21
-365.3382490246
 31
0.0
  0
LINE
  5
24A
100
AcDbEntity
  8
L1_120
  6
CONTINUOUS
 62
         7
100
AcDbLine
 10
1398.1275047567
 20
-365.3382490246
 30
0.0
 11
1395.6273627504
 21
-369.6686220057
 31
0.0
  0
LINE
  5
24B
100
AcDbEntity
  8
L1_120
  6
CONTINUOUS
 62
         7
100
AcDbLine
 10
1387.0275047567
 20
-369.6686220057
 30
0.0
 11
1395.6273627504
 21
-369.6686220057
 31
0.0
  0
LINE
  5
24C
100
AcDbEntity
  8
L1_120
  6
CONTINUOUS
 62
         7
100
AcDbLine
 10
1386.0275047567
 20
-360.6665382716
 30
0.0
 11
1386.0275047567
 21
-368.6686220057
 31
0.0
  0
ARC
  5
24D
100
AcDbEntity
  8
L1_120
  6
CONTINUOUS
 62
         7
100
AcDbCircle
 10
1385.6275047567
 20
-360.6665382716
 30
0.0
 40
0.4
100
AcDbArc
 50
0.0
 51
90.0
  0
LINE
  5
24E
100
AcDbEntity
  8
L1_120
  6
CONTINUOUS
 62
         7
100
AcDbLine
 10
1385.2739149182
 20
-360.2665382716
 30
0.0
 11
1385.6275047567
 21
-360.2665382716
 31
0.0
  0
LINE
  5
24F
100
AcDbEntity
  8
L1_120
  6
CONTINUOUS
 62
         7
100
AcDbLine
 10
1384.5275047567
 20
-360.4665382716
 30
0.0
 11
1385.2739149182
 21
-360.2665382716
 31
0.0
  0
LINE
  5
250
100
AcDbEntity
  8
L1_120
  6
CONTINUOUS
 62
         7
100
AcDbLine
 10
1384.5275047567
 20
-315.8707057398
 30
0.0
 11
1385.2739149182
 21
-316.0707057398
 31
0.0
  0
LINE
  5
251
100
AcDbEntity
  8
L1_120
  6
CONTINUOUS
 62
         7
100
AcDbLine
 10
1385.2739149182
 20
-316.0707057398
 30
0.0
 11
1385.6275047567
 21
-316.0707057398
 31
0.0
  0
ARC
  5
252
100
AcDbEntity
  8
L1_120
  6
CONTINUOUS
 62
         7
100
AcDbCircle
 10
1385.6275047567
 20
-315.6707057398
 30
0.0
 40
0.4
100
AcDbArc
 50
270.0
 51
360.0
  0
LINE
  5
253
100
AcDbEntity
  8
L1_120
  6
CONTINUOUS
 62
         7
100
AcDbLine
 10
1386.0275047567
 20
-307.6686220057
 30
0.0
 11
1386.0275047567
 21
-315.6707057398
 31
0.0
  0
LINE
  5
254
100
AcDbEntity
  8
L1_120
  6
CONTINUOUS
 62
         7
100
AcDbLine
 10
1387.0275047567
 20
-306.6686220057
 30
0.0
 11
1395.6273627504
 21
-306.6686220057
 31
0.0
  0
LINE
  5
255
100
AcDbEntity
  8
L1_120
  6
CONTINUOUS
 62
         7
100
AcDbLine
 10
1398.1275047567
 20
-310.9989949868
 30
0.0
 11
1395.6273627504
 21
-306.6686220057
 31
0.0
  0
LINE
  5
256
100
AcDbEntity
  8
L1_120
  6
CONTINUOUS
 62
         7
100
AcDbLine
 10
1398.1275047567
 20
-310.9989949868
 30
0.0
 11
1398.1275047567
 21
-311.6686220057
 31
0.0
  0
LINE
  5
257
100
AcDbEntity
  8
L1_120
  6
CONTINUOUS
 62
         7
100
AcDbLine
 10
1398.1275047567
 20
-311.6686220057
 30
0.0
 11
1403.1275047567
 21
-311.6686220057
 31
0.0
  0
LINE
  5
258
100
AcDbEntity
  8
L1_120
  6
CONTINUOUS
 62
         7
100
AcDbLine
 10
1403.1275047567
 20
-310.9989949868
 30
0.0
 11
1403.1275047567
 21
-311.6686220057
 31
0.0
  0
LINE
  5
259
100
AcDbEntity
  8
L1_120
  6
CONTINUOUS
 62
         7
100
AcDbLine
 10
1403.1275047567
 20
-310.9989949868
 30
0.0
 11
1405.627646763
 21
-306.6686220057
 31
0.0
  0
LINE
  5
25A
100
AcDbEntity
  8
L1_120
  6
CONTINUOUS
 62
         7
100
AcDbLine
 10
1405.627646763
 20
-306.6686220057
 30
0.0
 11
1410.0275047567
 21
-306.6686220057
 31
0.0
  0
LINE
  5
25B
100
AcDbEntity
  8
L1_120
  6
CONTINUOUS
 62
         7
100
AcDbLine
 10
1386.6330482497
 20
-313.6069061957
 30
0.0
 11
1411.6423702785
 21
-331.1186220057
 31
0.0
  0
LINE
  5
25C
100
AcDbEntity
  8
L1_120
  6
CENTER
 62
         1
100
AcDbLine
 10
1384.3892006681
 20
-310.021469133
 30
0.0
 11
1414.5190574912
 21
-331.1186220057
 31
0.0
  0
LINE
  5
25D
100
AcDbEntity
  8
L1_120
  6
CONTINUOUS
 62
         7
100
AcDbLine
 10
1388.5258504897
 20
-310.9037044495
 30
0.0
 11
1417.395744704
 21
-331.1186220057
 31
0.0
  0
LINE
  5
25E
100
AcDbEntity
  8
L1_120
  6
CONTINUOUS
 62
         4
100
AcDbLine
 10
1386.432296497
 20
-313.8936094112
 30
0.0
 11
1390.5280567184
 21
-316.7614915929
 31
0.0
  0
LINE
  5
25F
100
AcDbEntity
  8
L1_120
  6
CONTINUOUS
 62
         7
100
AcDbLine
 10
1392.8223624638
 20
-313.4848834158
 30
0.0
 11
1390.5280567184
 21
-316.7614915929
 31
0.0
  0
LINE
  5
260
100
AcDbEntity
  8
L1_120
  6
CONTINUOUS
 62
         4
100
AcDbLine
 10
1388.7266022424
 20
-310.617001234
 30
0.0
 11
1392.8223624638
 21
-313.4848834158
 31
0.0
  0
LINE
  5
261
100
AcDbEntity
  8
L1_120
  6
CONTINUOUS
 62
         7
100
AcDbLine
 10
1388.7552810642
 20
-310.5760436318
 30
0.0
 11
1386.3462600315
 21
-314.0164822178
 31
0.0
  0
LINE
  5
262
100
AcDbEntity
  8
L1_120
  6
CONTINUOUS
 62
         7
100
AcDbLine
 10
1386.0275047567
 20
-308.6660340988
 30
0.0
 11
1388.7552810642
 21
-310.5760436318
 31
0.0
  0
LINE
  5
263
100
AcDbEntity
  8
L1_120
  6
CONTINUOUS
 62
         7
100
AcDbLine
 10
1386.0275047567
 20
-313.7932873716
 30
0.0
 11
1386.3462600315
 21
-314.0164822178
 31
0.0
  0
ARC
  5
264
100
AcDbEntity
  8
L1_120
  6
CONTINUOUS
 62
         7
100
AcDbCircle
 10
1543.0475047567
 20
-322.5930124974
 30
0.0
 40
1.0
100
AcDbArc
 50
0.0
 51
85.5
  0
LINE
  5
265
100
AcDbEntity
  8
L1_120
  6
CONTINUOUS
 62
         7
100
AcDbLine
 10
1544.0475047567
 20
-322.5930124974
 30
0.0
 11
1544.0475047567
 21
-353.744231514
 31
0.0
  0
ARC
  5
266
100
AcDbEntity
  8
L1_120
  6
CONTINUOUS
 62
         7
100
AcDbCircle
 10
1543.0475047567
 20
-353.744231514
 30
0.0
 40
1.0
100
AcDbArc
 50
274.5
 51
360.0
  0
LINE
  5
267
100
AcDbEntity
  8
L1_120
  6
CONTINUOUS
 62
         7
100
AcDbLine
 10
1543.1259638524
 20
-354.7411488478
 30
0.0
 11
1486.8695834439
 21
-359.1686220057
 31
0.0
  0
LINE
  5
268
100
AcDbEntity
  8
L1_120
  6
CONTINUOUS
 62
         7
100
AcDbLine
 10
1413.0275047567
 20
-359.1686220057
 30
0.0
 11
1486.8695834439
 21
-359.1686220057
 31
0.0
  0
LINE
  5
269
100
AcDbEntity
  8
L1_120
  6
CONTINUOUS
 62
         7
100
AcDbLine
 10
1543.1259638524
 20
-321.5960951636
 30
0.0
 11
1486.8695834439
 21
-317.1686220057
 31
0.0
  0
LINE
  5
26A
100
AcDbEntity
  8
L1_120
  6
CONTINUOUS
 62
         7
100
AcDbLine
 10
1413.0275047567
 20
-317.1686220057
 30
0.0
 11
1486.8695834439
 21
-317.1686220057
 31
0.0
  0
LINE
  5
26B
100
AcDbEntity
  8
L1_120
  6
CONTINUOUS
 62
         4
100
AcDbLine
 10
1472.0475047567
 20
-346.1686220057
 30
0.0
 11
1472.0475047567
 21
-330.1686220057
 31
0.0
  0
LINE
  5
26C
100
AcDbEntity
  8
L1_120
  6
CONTINUOUS
 62
         7
100
AcDbLine
 10
1462.0475047567
 20
-330.5686220057
 30
0.0
 11
1462.0475047567
 21
-345.7686220057
 31
0.0
  0
LINE
  5
26D
100
AcDbEntity
  8
L1_120
  6
CONTINUOUS
 62
         7
100
AcDbLine
 10
1461.7299621087
 20
-331.1186220057
 30
0.0
 11
1461.7299621087
 21
-345.2186220057
 31
0.0
  0
LINE
  5
26E
100
AcDbEntity
  8
L1_120
  6
CONTINUOUS
 62
         7
100
AcDbLine
 10
1462.0475047567
 20
-345.7686220057
 30
0.0
 11
1461.7299621087
 21
-345.2186220057
 31
0.0
  0
LINE
  5
26F
100
AcDbEntity
  8
L1_120
  6
CONTINUOUS
 62
         7
100
AcDbLine
 10
1462.0475047567
 20
-330.5686220057
 30
0.0
 11
1461.7299621087
 21
-331.1186220057
 31
0.0
  0
LINE
  5
270
100
AcDbEntity
  8
L1_120
  6
CONTINUOUS
 62
         4
100
AcDbLine
 10
1472.0475047567
 20
-346.1686220057
 30
0.0
 11
1492.0475047567
 21
-346.1686220057
 31
0.0
  0
LINE
  5
271
100
AcDbEntity
  8
L1_120
  6
CONTINUOUS
 62
         4
100
AcDbLine
 10
1472.0475047567
 20
-330.1686220057
 30
0.0
 11
1492.0475047567
 21
-330.1686220057
 31
0.0
  0
LINE
  5
272
100
AcDbEntity
  8
L1_120
  6
CONTINUOUS
 62
         7
100
AcDbLine
 10
1462.0475047567
 20
-345.7686220057
 30
0.0
 11
1492.0475047567
 21
-345.7686220057
 31
0.0
  0
LINE
  5
273
100
AcDbEntity
  8
L1_120
  6
CONTINUOUS
 62
         7
100
AcDbLine
 10
1462.0475047567
 20
-330.5686220057
 30
0.0
 11
1492.0475047567
 21
-330.5686220057
 31
0.0
  0
LINE
  5
274
100
AcDbEntity
  8
L1_120
  6
CONTINUOUS
 62
         7
100
AcDbLine
 10
1502.0475047567
 20
-327.6686220057
 30
0.0
 11
1502.0475047567
 21
-348.6686220057
 31
0.0
  0
LINE
  5
275
100
AcDbEntity
  8
L1_120
  6
CONTINUOUS
 62
         7
100
AcDbLine
 10
1492.0475047567
 20
-348.6686220057
 30
0.0
 11
1492.0475047567
 21
-327.6686220057
 31
0.0
  0
LINE
  5
276
100
AcDbEntity
  8
L1_120
  6
CONTINUOUS
 62
         7
100
AcDbLine
 10
1492.0475047567
 20
-327.6686220057
 30
0.0
 11
1502.0475047567
 21
-327.6686220057
 31
0.0
  0
LINE
  5
277
100
AcDbEntity
  8
L1_120
  6
CONTINUOUS
 62
         7
100
AcDbLine
 10
1492.0475047567
 20
-348.6686220057
 30
0.0
 11
1502.0475047567
 21
-348.6686220057
 31
0.0
  0
LINE
  5
278
100
AcDbEntity
  8
L1_120
  6
CONTINUOUS
 62
         7
100
AcDbLine
 10
1502.0475047567
 20
-328.6536220057
 30
0.0
 11
1543.0475047567
 21
-328.6536220057
 31
0.0
  0
LINE
  5
279
100
AcDbEntity
  8
L1_120
  6
CONTINUOUS
 62
         7
100
AcDbLine
 10
1502.0475047567
 20
-347.6836220057
 30
0.0
 11
1543.0475047567
 21
-347.6836220057
 31
0.0
  0
ARC
  5
27A
100
AcDbEntity
  8
L1_120
  6
CONTINUOUS
 62
         7
100
AcDbCircle
 10
1543.0475047567
 20
-327.6536220057
 30
0.0
 40
1.0
100
AcDbArc
 50
270.0
 51
360.0
  0
ARC
  5
27B
100
AcDbEntity
  8
L1_120
  6
CONTINUOUS
 62
         7
100
AcDbCircle
 10
1543.0475047567
 20
-348.6836220057
 30
0.0
 40
1.0
100
AcDbArc
 50
0.0
 51
90.0
  0
ARC
  5
27C
100
AcDbEntity
  8
L1_120
  6
CONTINUOUS
 62
         7
100
AcDbCircle
 10
1413.0275047567
 20
-315.1686220057
 30
0.0
 40
2.0
100
AcDbArc
 50
180.0
 51
270.0
  0
ARC
  5
27D
100
AcDbEntity
  8
L1_120
  6
CONTINUOUS
 62
         7
100
AcDbCircle
 10
1413.0275047567
 20
-361.1686220057
 30
0.0
 40
2.0
100
AcDbArc
 50
90.0
 51
180.0
  0
LINE
  5
27E
100
AcDbEntity
  8
L1_120
  6
CENTER
 62
         1
100
AcDbLine
 10
1418.5475047567
 20
-363.136154415
 30
0.0
 11
1418.5475047567
 21
-313.9791434925
 31
0.0
  0
LINE
  5
27F
100
AcDbEntity
  8
L1_120
  6
CONTINUOUS
 62
         7
100
AcDbLine
 10
1418.5475047567
 20
-350.6675113058
 30
0.0
 11
1415.9475047567
 21
-352.1686220057
 31
0.0
  0
LINE
  5
280
100
AcDbEntity
  8
L1_120
  6
CONTINUOUS
 62
         4
100
AcDbLine
 10
1415.4475047567
 20
-352.1686220057
 30
0.0
 11
1415.4475047567
 21
-359.1686220057
 31
0.0
  0
LINE
  5
281
100
AcDbEntity
  8
L1_120
  6
CONTINUOUS
 62
         4
100
AcDbLine
 10
1415.4475047567
 20
-324.1686220057
 30
0.0
 11
1415.4475047567
 21
-317.1686220057
 31
0.0
  0
LINE
  5
282
100
AcDbEntity
  8
L1_120
  6
CONTINUOUS
 62
         4
100
AcDbLine
 10
1421.6475047567
 20
-352.1686220057
 30
0.0
 11
1421.6475047567
 21
-359.1686220057
 31
0.0
  0
LINE
  5
283
100
AcDbEntity
  8
L1_120
  6
CONTINUOUS
 62
         4
100
AcDbLine
 10
1421.6475047567
 20
-324.1686220057
 30
0.0
 11
1421.6475047567
 21
-317.1686220057
 31
0.0
  0
LINE
  5
284
100
AcDbEntity
  8
L1_120
  6
CONTINUOUS
 62
         7
100
AcDbLine
 10
1421.1475047567
 20
-352.1686220057
 30
0.0
 11
1415.9475047567
 21
-352.1686220057
 31
0.0
  0
LINE
  5
285
100
AcDbEntity
  8
L1_120
  6
CONTINUOUS
 62
         7
100
AcDbLine
 10
1421.6475047567
 20
-352.1686220057
 30
0.0
 11
1415.4475047567
 21
-352.1686220057
 31
0.0
  0
LINE
  5
286
100
AcDbEntity
  8
L1_120
  6
CONTINUOUS
 62
         7
100
AcDbLine
 10
1418.5475047567
 20
-325.6697327056
 30
0.0
 11
1421.1475047567
 21
-324.1686220057
 31
0.0
  0
LINE
  5
287
100
AcDbEntity
  8
L1_120
  6
CONTINUOUS
 62
         7
100
AcDbLine
 10
1418.5475047567
 20
-350.6675113058
 30
0.0
 11
1421.1475047567
 21
-352.1686220057
 31
0.0
  0
LINE
  5
288
100
AcDbEntity
  8
L1_120
  6
CONTINUOUS
 62
         7
100
AcDbLine
 10
1415.9475047567
 20
-352.1686220057
 30
0.0
 11
1415.9475047567
 21
-359.1686220057
 31
0.0
  0
LINE
  5
289
100
AcDbEntity
  8
L1_120
  6
CONTINUOUS
 62
         7
100
AcDbLine
 10
1415.9475047567
 20
-324.1686220057
 30
0.0
 11
1415.9475047567
 21
-317.1686220057
 31
0.0
  0
LINE
  5
28A
100
AcDbEntity
  8
L1_120
  6
CONTINUOUS
 62
         7
100
AcDbLine
 10
1421.1475047567
 20
-352.1686220057
 30
0.0
 11
1421.1475047567
 21
-359.1686220057
 31
0.0
  0
LINE
  5
28B
100
AcDbEntity
  8
L1_120
  6
CONTINUOUS
 62
         7
100
AcDbLine
 10
1421.1475047567
 20
-324.1686220057
 30
0.0
 11
1421.1475047567
 21
-317.1686220057
 31
0.0
  0
LINE
  5
28C
100
AcDbEntity
  8
L1_120
  6
CONTINUOUS
 62
         7
100
AcDbLine
 10
1421.1475047567
 20
-324.1686220057
 30
0.0
 11
1415.9475047567
 21
-324.1686220057
 31
0.0
  0
LINE
  5
28D
100
AcDbEntity
  8
L1_120
  6
CONTINUOUS
 62
         7
100
AcDbLine
 10
1421.6475047567
 20
-324.1686220057
 30
0.0
 11
1415.4475047567
 21
-324.1686220057
 31
0.0
  0
LINE
  5
28E
100
AcDbEntity
  8
L1_120
  6
CONTINUOUS
 62
         7
100
AcDbLine
 10
1418.5475047567
 20
-325.6697327056
 30
0.0
 11
1415.9475047567
 21
-324.1686220057
 31
0.0
  0
LINE
  5
28F
100
AcDbEntity
  8
L1_120
  6
CENTER
 62
         1
100
AcDbLine
 10
1315.7105741693
 20
-338.1686220057
 30
0.0
 11
1544.0475047567
 21
-338.1686220057
 31
0.0
  0
LINE
  5
290
100
AcDbEntity
  8
L1_120
  6
CONTINUOUS
 62
         7
100
AcDbLine
 10
1327.6275047567
 20
-331.1186220057
 30
0.0
 11
1461.7299621087
 21
-331.1186220057
 31
0.0
  0
LINE
  5
291
100
AcDbEntity
  8
L1_120
  6
CONTINUOUS
 62
         7
100
AcDbLine
 10
1327.6275047567
 20
-345.2186220057
 30
0.0
 11
1461.7299621087
 21
-345.2186220057
 31
0.0
  0
DIMENSION
  5
294
100
AcDbEntity
  8
L1_120
  6
CONTINUOUS
 62
         4
100
AcDbDimension
  2
*D5
 10
1492.0475047567
 20
-371.3492425357
 30
0.0
 11
1515.6774255739
 21
-368.2172425357
 31
0.0
  3
DIMSTYLE1
100
AcDbAlignedDimension
 13
1492.0475047567
 23
-347.6686220057
 33
0.0
 14
1544.0475047567
 24
-352.219657439
 34
0.0
100
AcDbRotatedDimension
  0
INSERT
  5
325
100
AcDbEntity
  8
0
  6
CONTINUOUS
100
AcDbBlockReference
  2
*X6
 10
0.0
 20
0.0
 30
0.0
  0
DIMENSION
  5
328
100
AcDbEntity
  8
L1_120
  6
CONTINUOUS
 62
         4
100
AcDbDimension
  2
*D7
 10
1538.2720913127
 20
-306.66725772
 30
0.0
 11
1545.557882281
 21
-304.64225772
 31
0.0
  3
DIMSTYLE1
100
AcDbAlignedDimension
 13
1538.2720913127
 23
-294.8384065024
 33
0.0
 14
1558.2720913127
 24
-294.7436623908
 34
0.0
100
AcDbRotatedDimension
  0
DIMENSION
  5
336
100
AcDbEntity
  8
L1_120
  6
CONTINUOUS
 62
         4
100
AcDbDimension
  2
*D8
 10
1512.7298190027
 20
-273.9970861023
 30
0.0
 11
1515.3798190027
 21
-271.9720861023
 31
0.0
  3
DIMSTYLE1
100
AcDbAlignedDimension
 13
1512.7298190027
 23
-286.434261314
 33
0.0
 14
1520.7298190027
 24
-286.434261314
 34
0.0
100
AcDbRotatedDimension
  0
LINE
  5
342
100
AcDbEntity
  8
L1_120
  6
CENTER
 62
         1
100
AcDbLine
 10
1561.1246083868
 20
-288.7436623908
 30
0.0
 11
1533.7288717817
 21
-288.7436623908
 31
0.0
  0
LINE
  5
343
100
AcDbEntity
  8
L1_120
  6
CONTINUOUS
 62
         7
100
AcDbLine
 10
1539.3720913127
 20
-280.7436623908
 30
0.0
 11
1556.2720913127
 21
-280.7436623908
 31
0.0
  0
LINE
  5
344
100
AcDbEntity
  8
L1_120
  6
CONTINUOUS
 62
         7
100
AcDbLine
 10
1539.3720913127
 20
-296.7436623908
 30
0.0
 11
1556.2720913127
 21
-296.7436623908
 31
0.0
  0
LINE
  5
345
100
AcDbEntity
  8
L1_120
  6
CONTINUOUS
 62
         7
100
AcDbLine
 10
1538.2720913127
 20
-282.6489182791
 30
0.0
 11
1538.2720913127
 21
-294.8384065024
 31
0.0
  0
LINE
  5
346
100
AcDbEntity
  8
L1_120
  6
CONTINUOUS
 62
         4
100
AcDbLine
 10
1539.3720913127
 20
-280.7436623908
 30
0.0
 11
1539.3720913127
 21
-296.7436623908
 31
0.0
  0
LINE
  5
347
100
AcDbEntity
  8
L1_120
  6
CONTINUOUS
 62
         7
100
AcDbLine
 10
1538.2720913127
 20
-282.6489182791
 30
0.0
 11
1539.3720913127
 21
-280.7436623908
 31
0.0
  0
LINE
  5
348
100
AcDbEntity
  8
L1_120
  6
CONTINUOUS
 62
         7
100
AcDbLine
 10
1539.3720913127
 20
-296.7436623908
 30
0.0
 11
1538.2720913127
 21
-294.8384065024
 31
0.0
  0
LINE
  5
349
100
AcDbEntity
  8
L1_120
  6
CONTINUOUS
 62
         4
100
AcDbLine
 10
1558.1773472011
 20
-282.6489182791
 30
0.0
 11
1538.2720913127
 21
-282.6489182791
 31
0.0
  0
LINE
  5
34A
100
AcDbEntity
  8
L1_120
  6
CONTINUOUS
 62
         4
100
AcDbLine
 10
1558.1773472011
 20
-294.8384065024
 30
0.0
 11
1538.2720913127
 21
-294.8384065024
 31
0.0
  0
LINE
  5
34B
100
AcDbEntity
  8
L1_120
  6
CENTER
 62
         1
100
AcDbLine
 10
1526.2669145495
 20
-288.7436623908
 30
0.0
 11
1506.6181568965
 21
-288.7436623908
 31
0.0
  0
LINE
  5
34C
100
AcDbEntity
  8
L1_120
  6
CENTER
 62
         1
100
AcDbLine
 10
1516.7298190027
 20
-299.2077887265
 30
0.0
 11
1516.7298190027
 21
-278.0661862949
 31
0.0
  0
CIRCLE
  5
34D
100
AcDbEntity
  8
L1_120
  6
CONTINUOUS
 62
         7
100
AcDbCircle
 10
1516.7298190027
 20
-288.7436623908
 30
0.0
 40
8.0
  0
CIRCLE
  5
34E
100
AcDbEntity
  8
L1_120
  6
CONTINUOUS
 62
         7
100
AcDbCircle
 10
1516.7298190027
 20
-288.7436623908
 30
0.0
 40
6.0947441117
  0
LINE
  5
34F
100
AcDbEntity
  8
L1_120
  6
DASHED
 62
         2
100
AcDbLine
 10
1544.2720913127
 20
-293.3624645443
 30
0.0
 11
1544.2720913127
 21
-284.1248602372
 31
0.0
  0
LINE
  5
350
100
AcDbEntity
  8
L1_120
  6
CONTINUOUS
 62
         7
100
AcDbLine
 10
1520.7298190027
 20
-286.434261314
 30
0.0
 11
1516.7298190027
 21
-284.1248602372
 31
0.0
  0
LINE
  5
351
100
AcDbEntity
  8
L1_120
  6
CONTINUOUS
 62
         7
100
AcDbLine
 10
1516.7298190027
 20
-284.1248602372
 30
0.0
 11
1512.7298190027
 21
-286.434261314
 31
0.0
  0
LINE
  5
352
100
AcDbEntity
  8
L1_120
  6
CONTINUOUS
 62
         7
100
AcDbLine
 10
1512.7298190027
 20
-286.434261314
 30
0.0
 11
1512.7298190027
 21
-291.0530634675
 31
0.0
  0
LINE
  5
353
100
AcDbEntity
  8
L1_120
  6
CONTINUOUS
 62
         7
100
AcDbLine
 10
1512.7298190027
 20
-291.0530634675
 30
0.0
 11
1516.7298190027
 21
-293.3624645443
 31
0.0
  0
LINE
  5
354
100
AcDbEntity
  8
L1_120
  6
CONTINUOUS
 62
         7
100
AcDbLine
 10
1516.7298190027
 20
-293.3624645443
 30
0.0
 11
1520.7298190027
 21
-291.0530634675
 31
0.0
  0
LINE
  5
355
100
AcDbEntity
  8
L1_120
  6
CONTINUOUS
 62
         7
100
AcDbLine
 10
1520.7298190027
 20
-291.0530634675
 30
0.0
 11
1520.7298190027
 21
-286.434261314
 31
0.0
  0
LINE
  5
356
100
AcDbEntity
  8
L1_120
  6
DASHED
 62
         2
100
AcDbLine
 10
1538.2720913127
 20
-284.1248602372
 30
0.0
 11
1544.2720913127
 21
-284.1248602372
 31
0.0
  0
LINE
  5
357
100
AcDbEntity
  8
L1_120
  6
DASHED
 62
         2
100
AcDbLine
 10
1538.2720913127
 20
-286.434261314
 30
0.0
 11
1544.2720913127
 21
-286.434261314
 31
0.0
  0
LINE
  5
358
100
AcDbEntity
  8
L1_120
  6
DASHED
 62
         2
100
AcDbLine
 10
1538.2720913127
 20
-293.3624645443
 30
0.0
 11
1544.2720913127
 21
-293.3624645443
 31
0.0
  0
LINE
  5
359
100
AcDbEntity
  8
L1_120
  6
DASHED
 62
         2
100
AcDbLine
 10
1538.2720913127
 20
-291.0530634675
 30
0.0
 11
1544.2720913127
 21
-291.0530634675
 31
0.0
  0
CIRCLE
  5
35A
100
AcDbEntity
  8
L1_120
  6
CONTINUOUS
 62
         7
100
AcDbCircle
 10
1516.7298190027
 20
-288.7436623908
 30
0.0
 40
4.6188021535
  0
LINE
  5
35B
100
AcDbEntity
  8
L1_120
  6
DASHED
 62
         2
100
AcDbLine
 10
1544.2720913127
 20
-286.2436623908
 30
0.0
 11
1558.2720913127
 21
-286.2436623908
 31
0.0
  0
LINE
  5
35C
100
AcDbEntity
  8
L1_120
  6
DASHED
 62
         2
100
AcDbLine
 10
1544.2720913127
 20
-291.2436623908
 30
0.0
 11
1558.2720913127
 21
-291.2436623908
 31
0.0
  0
DIMENSION
  5
35F
100
AcDbEntity
  8
L1_120
  6
CONTINUOUS
 62
         4
100
AcDbDimension
  2
*D9
 10
1574.5606350675
 20
-280.7436623908
 30
0.0
 11
1572.5356350675
 21
-278.2184541823
 31
0.0
  3
DIMSTYLE1
100
AcDbAlignedDimension
 13
1556.2720913127
 23
-280.7436623908
 33
0.0
 14
1556.2720913127
 24
-296.7436623908
 34
0.0
 50
90.0
100
AcDbRotatedDimension
  0
LINE
  5
36C
100
AcDbEntity
  8
L1_120
  6
CONTINUOUS
 62
         7
100
AcDbLine
 10
1558.2720913127
 20
-282.7436623908
 30
0.0
 11
1558.2720913127
 21
-294.7436623908
 31
0.0
  0
LINE
  5
36D
100
AcDbEntity
  8
L1_120
  6
CONTINUOUS
 62
         4
100
AcDbLine
 10
1556.2720913127
 20
-280.7436623908
 30
0.0
 11
1556.2720913127
 21
-296.7436623908
 31
0.0
  0
LINE
  5
36E
100
AcDbEntity
  8
L1_120
  6
CONTINUOUS
 62
         7
100
AcDbLine
 10
1556.2720913127
 20
-280.7436623908
 30
0.0
 11
1558.2720913127
 21
-282.7436623908
 31
0.0
  0
LINE
  5
36F
100
AcDbEntity
  8
L1_120
  6
CONTINUOUS
 62
         7
100
AcDbLine
 10
1556.2720913127
 20
-296.7436623908
 30
0.0
 11
1558.2720913127
 21
-294.7436623908
 31
0.0
  0
ENDSEC
  0
SECTION
  2
OBJECTS
  0
DICTIONARY
  5
19
100
AcDbDictionary
  3
ACAD_GROUP
350
1A
  3
ACAD_MLINESTYLE
350
1B
  0
DICTIONARY
  5
1A
102
{ACAD_REACTORS
330
19
102
}
100
AcDbDictionary
  0
DICTIONARY
  5
1B
102
{ACAD_REACTORS
330
19
102
}
100
AcDbDictionary
  3
STANDARD
350
1C
  0
MLINESTYLE
  5
1C
102
{ACAD_REACTORS
330
1B
102
}
100
AcDbMlineStyle
  2
STANDARD
 70
         0
  3

 62
         0
 51
90.0
 52
90.0
 71
         2
 49
0.5
 62
       256
  6
BYLAYER
 49
-0.5
 62
       256
  6
BYLAYER
  0
ENDSEC
  0
EOF
