  0
SECTION
  2
HEADER
  9
$ACADVER
  1
AC1014
  9
$ACADMAINTVER
 70
         0
  9
$DWGCODEPAGE
  3
BIG5
  9
$INSBASE
 10
0.0
 20
0.0
 30
0.0
  9
$EXTMIN
 10
458.3800545228
 20
2972.1521434851
 30
0.0
  9
$EXTMAX
 10
1023.1020284683
 20
3256.867446636
 30
0.0
  9
$LIMMIN
 10
0.0
 20
0.0
  9
$LIMMAX
 10
0.0
 20
0.0
  9
$ORTHOMODE
 70
         0
  9
$REGENMODE
 70
         1
  9
$FILLMODE
 70
         1
  9
$QTEXTMODE
 70
         0
  9
$MIRRTEXT
 70
         1
  9
$DRAGMODE
 70
         2
  9
$LTSCALE
 40
1.0
  9
$OSMODE
 70
         0
  9
$ATTMODE
 70
         1
  9
$TEXTSIZE
 40
2.5
  9
$TRACEWID
 40
0.05
  9
$TEXTSTYLE
  7
STANDARD
  9
$CLAYER
  8
0
  9
$CELTYPE
  6
CONTINUOUS
  9
$CECOLOR
 62
         4
  9
$CELTSCALE
 40
1.0
  9
$DELOBJ
 70
         1
  9
$DISPSILH
 70
         0
  9
$DIMSCALE
 40
1.0
  9
$DIMASZ
 40
0.18
  9
$DIMEXO
 40
0.0625
  9
$DIMDLI
 40
0.38
  9
$DIMRND
 40
0.0
  9
$DIMDLE
 40
0.0
  9
$DIMEXE
 40
0.25
  9
$DIMTP
 40
0.01
  9
$DIMTM
 40
-0.01
  9
$DIMTXT
 40
2.7
  9
$DIMCEN
 40
0.09
  9
$DIMTSZ
 40
0.0
  9
$DIMTOL
 70
         0
  9
$DIMLIM
 70
         0
  9
$DIMTIH
 70
         1
  9
$DIMTOH
 70
         1
  9
$DIMSE1
 70
         0
  9
$DIMSE2
 70
         0
  9
$DIMTAD
 70
         0
  9
$DIMZIN
 70
         0
  9
$DIMBLK
  1

  9
$DIMASO
 70
         1
  9
$DIMSHO
 70
         1
  9
$DIMPOST
  1

  9
$DIMAPOST
  1

  9
$DIMALT
 70
         0
  9
$DIMALTD
 70
         2
  9
$DIMALTF
 40
25.4
  9
$DIMLFAC
 40
1.0
  9
$DIMTOFL
 70
         0
  9
$DIMTVP
 40
0.0
  9
$DIMTIX
 70
         0
  9
$DIMSOXD
 70
         0
  9
$DIMSAH
 70
         0
  9
$DIMBLK1
  1

  9
$DIMBLK2
  1

  9
$DIMSTYLE
  2
STANDARD
  9
$DIMCLRD
 70
         0
  9
$DIMCLRE
 70
         0
  9
$DIMCLRT
 70
         4
  9
$DIMTFAC
 40
0.6
  9
$DIMGAP
 40
0.09
  9
$DIMJUST
 70
         0
  9
$DIMSD1
 70
         0
  9
$DIMSD2
 70
         0
  9
$DIMTOLJ
 70
         1
  9
$DIMTZIN
 70
         0
  9
$DIMALTZ
 70
         0
  9
$DIMALTTZ
 70
         0
  9
$DIMFIT
 70
         3
  9
$DIMUPT
 70
         0
  9
$DIMUNIT
 70
         2
  9
$DIMDEC
 70
         4
  9
$DIMTDEC
 70
         4
  9
$DIMALTU
 70
         2
  9
$DIMALTTD
 70
         2
  9
$DIMTXSTY
  7
STANDARD
  9
$DIMAUNIT
 70
         0
  9
$LUNITS
 70
         2
  9
$LUPREC
 70
        10
  9
$SKETCHINC
 40
0.1
  9
$FILLETRAD
 40
0.0
  9
$AUNITS
 70
         0
  9
$AUPREC
 70
         0
  9
$MENU
  1
acad
  9
$ELEVATION
 40
0.0
  9
$PELEVATION
 40
0.0
  9
$THICKNESS
 40
0.0
  9
$LIMCHECK
 70
         0
  9
$BLIPMODE
 70
         1
  9
$CHAMFERA
 40
0.0
  9
$CHAMFERB
 40
0.0
  9
$CHAMFERC
 40
0.0
  9
$CHAMFERD
 40
0.0
  9
$SKPOLY
 70
         0
  9
$TDCREATE
 40
0.000000000
  9
$TDUPDATE
 40
0.000000000
  9
$TDINDWG
 40
0.0000000000
  9
$TDUSRTIMER
 40
0.0000000000
  9
$USRTIMER
 70
         1
  9
$ANGBASE
 50
0.0
  9
$ANGDIR
 70
         0
  9
$PDMODE
 70
         2
  9
$PDSIZE
 40
0.0
  9
$PLINEWID
 40
0.0
  9
$COORDS
 70
         1
  9
$SPLFRAME
 70
         0
  9
$SPLINETYPE
 70
         6
  9
$SPLINESEGS
 70
         8
  9
$ATTDIA
 70
         0
  9
$ATTREQ
 70
         1
  9
$HANDLING
 70
         1
  9
$HANDSEED
  5
22A
  9
$SURFTAB1
 70
         6
  9
$SURFTAB2
 70
         6
  9
$SURFTYPE
 70
         6
  9
$SURFU
 70
         6
  9
$SURFV
 70
         6
  9
$UCSNAME
  2

  9
$UCSORG
 10
0.0
 20
0.0
 30
0.0
  9
$UCSXDIR
 10
1.0
 20
0.0
 30
0.0
  9
$UCSYDIR
 10
0.0
 20
1.0
 30
0.0
  9
$PUCSNAME
  2

  9
$PUCSORG
 10
0.0
 20
0.0
 30
0.0
  9
$PUCSXDIR
 10
1.0
 20
0.0
 30
0.0
  9
$PUCSYDIR
 10
0.0
 20
1.0
 30
0.0
  9
$USERI1
 70
         0
  9
$USERI2
 70
         0
  9
$USERI3
 70
         0
  9
$USERI4
 70
         0
  9
$USERI5
 70
         0
  9
$USERR1
 40
0.0
  9
$USERR2
 40
0.0
  9
$USERR3
 40
0.0
  9
$USERR4
 40
0.0
  9
$USERR5
 40
0.0
  9
$WORLDVIEW
 70
         1
  9
$SHADEDGE
 70
         3
  9
$SHADEDIF
 70
        70
  9
$TILEMODE
 70
         1
  9
$MAXACTVP
 70
        16
  9
$PINSBASE
 10
0.0
 20
0.0
 30
0.0
  9
$PLIMCHECK
 70
         0
  9
$PEXTMIN
 10
1.0000000000E+20
 20
1.0000000000E+20
 30
1.0000000000E+20
  9
$PEXTMAX
 10
-1.0000000000E+20
 20
-1.0000000000E+20
 30
-1.0000000000E+20
  9
$PLIMMIN
 10
0.0
 20
0.0
  9
$PLIMMAX
 10
12.0
 20
9.0
  9
$UNITMODE
 70
         0
  9
$VISRETAIN
 70
         0
  9
$PLINEGEN
 70
         1
  9
$PSLTSCALE
 70
         0
  9
$TREEDEPTH
 70
      3020
  9
$PICKSTYLE
 70
         1
  9
$CMLSTYLE
  2
STANDARD
  9
$CMLJUST
 70
         0
  9
$CMLSCALE
 40
1.0
  9
$PROXYGRAPHICS
 70
         0
  9
$MEASUREMENT
 70
         0
  0
ENDSEC
  0
SECTION
  2
CLASSES
  0
CLASS
  1
LWPOLYLINE
  2
AcDbPolyline
  3
"AutoCAD"
 90
        0
280
         0
281
         1
  0
CLASS
  1
IMAGE
  2
AcDbRasterImage
  3
ISM
 90
      127
280
         0
281
         1
  0
CLASS
  1
OLE2FRAME
  2
AcDbOle2Frame
  3
""
 90
        0
280
         0
281
         1
  0
CLASS
  1
HATCH
  2
AcDbHatch
  3
"ACAD_SEDONA"
 90
        0
280
         0
281
         1
  0
CLASS
  1
DICTIONARYVAR
  2
AcDbDictionaryVar
  3
"AutoCAD"
 90
        0
280
         0
281
         0
  0
CLASS
  1
RASTERVARIABLES
  2
AcDbRasterVariables
  3
ISM
 90
        0
280
         0
281
         0
  0
CLASS
  1
IMAGEDEF
  2
AcDbRasterImageDef
  3
ISM
 90
        0
280
         0
281
         0
  0
CLASS
  1
IMAGEDEF_REACTOR
  2
AcDbRasterImageDefReactor
  3
ISM
 90
        1
280
         0
281
         0
  0
CLASS
  1
IDBUFFER
  2
AcDbIdBuffer
  3
"Acad"
 90
        0
280
         0
281
         0
  0
CLASS
  1
SPATIAL_FILTER
  2
AcDbSpatialFilter
  3
"Acad"
 90
        0
280
         0
281
         0
  0
CLASS
  1
XRECORD
  2
AcDbXrecord
  3
"<Built In>"
 90
        0
280
         0
281
         0
  0
CLASS
  1
SORTENTSTABLE
  2
AcDbSortentsTable
  3
"AutoCAD"
 90
        0
280
         0
281
         0
  0
CLASS
  1
LAYER_INDEX
  2
AcDbLayerIndex
  3
"Acad"
 90
        0
280
         0
281
         0
  0
CLASS
  1
SPATIAL_INDEX
  2
AcDbSpatialIndex
  3
"Acad"
 90
        0
280
         0
281
         0
  0
CLASS
  1
OBJECT_PTR
  2
CAseDLPNTableRecord
  3
"ASE-LPNTableRecord"
 90
        1
280
         0
281
         0
  0
CLASS
  1
LAYOUT
  2
AcDbLayout
  3
"AutoCAD 2000"
 90
        1
280
         0
281
         0
  0
CLASS
  1
PLOTSETTINGS
  2
AcDbPlotSettings
  3
"AutoCAD 2000"
 90
        1
280
         0
281
         0
  0
CLASS
  1
ACDBDICTIONARYWDFLT
  2
AcDbDictionaryWithDefault
  3
"AutoCAD 2000"
 90
        1
280
         0
281
         0
  0
CLASS
  1
ACDBPLACEHOLDER
  2
AcDbPlaceHolder
  3
"AutoCAD 2000"
 90
        1
280
         0
281
         0
  0
CLASS
  1
VBA_PROJECT
  2
AcDbVbaProject
  3
"acadvba"
 90
        1
280
         0
281
         0
  0
CLASS
  1
WIPEOUT
  2
AcDbWipeout
  3
WipeOut|AutoCAD Express Tool|expresstools@autodesk.com
 90
      127
280
         0
281
         1
  0
CLASS
  1
WIPEOUTVARIABLES
  2
AcDbWipeoutVariables
  3
WipeOut|AutoCAD Express Tool|expresstools@autodesk.com
 90
        0
280
         0
281
         0
  0
CLASS
  1
RTEXT
  2
RText
  3
RText|AutoCAD Express Tool|expresstools@autodesk.com
 90
        0
280
         0
281
         1
  0
CLASS
  1
ARCALIGNEDTEXT
  2
AcDbArcAlignedText
  3
ATEXT|AutoCAD Express Tool|expresstools@autodesk.com
 90
        0
280
         0
281
         1
  0
ENDSEC
  0
SECTION
  2
TABLES
  0
TABLE
  2
VPORT
  5
7
100
AcDbSymbolTable
 70
         1
  0
VPORT
  5
15
100
AcDbSymbolTableRecord
100
AcDbViewportTableRecord
  2
*ACTIVE
 70
         0
 10
0.0
 20
0.0
 11
1.0
 21
1.0
 12
740.7410414955
 22
3114.5097950605
 13
0.0
 23
0.0
 14
1.0
 24
1.0
 15
0.0
 25
0.0
 16
0.0
 26
0.0
 36
1.0
 17
0.0
 27
0.0
 37
0.0
 40
284.715303151
 41
1.9834619625
 42
50.0
 43
0.0
 44
0.0
 50
0.0
 51
0.0
 71
         0
 72
       100
 73
         1
 74
         1
 75
         0
 76
         0
 77
         0
 78
         0
  0
ENDTAB
  0
TABLE
  2
LTYPE
  5
4
100
AcDbSymbolTable
 70
         6
  0
LTYPE
  5
11
100
AcDbSymbolTableRecord
100
AcDbLinetypeTableRecord
  2
BYBLOCK
 70
        64
  3

 72
        65
 73
         0
 40
0.0
  0
LTYPE
  5
12
100
AcDbSymbolTableRecord
100
AcDbLinetypeTableRecord
  2
BYLAYER
 70
        64
  3

 72
        65
 73
         0
 40
0.0
  0
LTYPE
  5
13
100
AcDbSymbolTableRecord
100
AcDbLinetypeTableRecord
  2
CONTINUOUS
 70
        64
  3
Solid line
 72
        65
 73
         0
 40
0.0
  0
LTYPE
  5
1D
100
AcDbSymbolTableRecord
100
AcDbLinetypeTableRecord
  2
DASHED
 70
        64
  3
_ _ _ _ _ _ _ _ _ _ _ _ _ _ _ _
 72
        65
 73
         2
 40
0.2
 49
0.1
 74
         0
 49
-0.1
 74
         0
  0
LTYPE
  5
1E
100
AcDbSymbolTableRecord
100
AcDbLinetypeTableRecord
  2
CENTER
 70
        64
  3
___ _ ___ _ ___ _ ___ _ ___ _ ___ _ ___ _ ___ _
 72
        65
 73
         4
 40
0.95
 49
0.625
 74
         0
 49
-0.125
 74
         0
 49
0.075
 74
         0
 49
-0.125
 74
         0
  0
LTYPE
  5
1F
100
AcDbSymbolTableRecord
100
AcDbLinetypeTableRecord
  2
PHANTOM
 70
        64
  3
______  __  __  ______  __  __  ______  __  __  
 72
        65
 73
         6
 40
1.025
 49
0.625
 74
         0
 49
-0.125
 74
         0
 49
0.075
 74
         0
 49
-0.125
 74
         0
 49
0.075
 74
         0
 49
-0.125
 74
         0
  0
ENDTAB
  0
TABLE
  2
LAYER
  5
2
100
AcDbSymbolTable
 70
        10
  0
LAYER
  5
14
100
AcDbSymbolTableRecord
100
AcDbLayerTableRecord
  2
0
 70
         0
 62
         7
  6
CONTINUOUS
  0
LAYER
  5
21
100
AcDbSymbolTableRecord
100
AcDbLayerTableRecord
  2
______
 70
         0
 62
         7
  6
CONTINUOUS
  0
LAYER
  5
22
100
AcDbSymbolTableRecord
100
AcDbLayerTableRecord
  2
______
 70
         1
 62
         7
  6
CONTINUOUS
  0
LAYER
  5
23
100
AcDbSymbolTableRecord
100
AcDbLayerTableRecord
  2
______
 70
         1
 62
         7
  6
CONTINUOUS
  0
LAYER
  5
24
100
AcDbSymbolTableRecord
100
AcDbLayerTableRecord
  2
______
 70
         1
 62
         7
  6
CONTINUOUS
  0
LAYER
  5
25
100
AcDbSymbolTableRecord
100
AcDbLayerTableRecord
  2
___G__
 70
         1
 62
         7
  6
CONTINUOUS
  0
LAYER
  5
26
100
AcDbSymbolTableRecord
100
AcDbLayerTableRecord
  2
______
 70
         1
 62
         7
  6
CONTINUOUS
  0
LAYER
  5
27
100
AcDbSymbolTableRecord
100
AcDbLayerTableRecord
  2
______
 70
         1
 62
         7
  6
CONTINUOUS
  0
LAYER
  5
28
100
AcDbSymbolTableRecord
100
AcDbLayerTableRecord
  2
______
 70
         1
 62
         7
  6
CONTINUOUS
  0
LAYER
  5
71
100
AcDbSymbolTableRecord
100
AcDbLayerTableRecord
  2
DEFPOINTS
 70
         0
 62
        -7
  6
CONTINUOUS
  0
ENDTAB
  0
TABLE
  2
STYLE
  5
3
100
AcDbSymbolTable
 70
        10
  0
STYLE
  5
17
100
AcDbSymbolTableRecord
100
AcDbTextStyleTableRecord
  2
STANDARD
 70
         0
 40
0.0
 41
1.0
 50
0.0
 71
         0
 42
0.0
  3
txt
  4

  0
STYLE
  5
7B
100
AcDbSymbolTableRecord
100
AcDbTextStyleTableRecord
  2
BOX
 70
         0
 40
1.0
 41
1.0
 50
0.0
 71
         0
 42
0.2
  3
txt.shx
  4

  0
STYLE
  5
89
100
AcDbSymbolTableRecord
100
AcDbTextStyleTableRecord
  2
BOX
 70
         0
 40
1.0
 41
1.0
 50
0.0
 71
         0
 42
0.2
  3
txt.shx
  4

  0
STYLE
  5
99
100
AcDbSymbolTableRecord
100
AcDbTextStyleTableRecord
  2
BOX
 70
         0
 40
1.0
 41
1.0
 50
0.0
 71
         0
 42
0.2
  3
txt.shx
  4

  0
STYLE
  5
123
100
AcDbSymbolTableRecord
100
AcDbTextStyleTableRecord
  2
BOX
 70
         0
 40
1.0
 41
1.0
 50
0.0
 71
         0
 42
0.2
  3
txt.shx
  4

  0
STYLE
  5
13B
100
AcDbSymbolTableRecord
100
AcDbTextStyleTableRecord
  2
BOX
 70
         0
 40
1.0
 41
1.0
 50
0.0
 71
         0
 42
0.2
  3
txt.shx
  4

  0
STYLE
  5
166
100
AcDbSymbolTableRecord
100
AcDbTextStyleTableRecord
  2
BOX
 70
         0
 40
1.0
 41
1.0
 50
0.0
 71
         0
 42
0.2
  3
txt.shx
  4

  0
STYLE
  5
184
100
AcDbSymbolTableRecord
100
AcDbTextStyleTableRecord
  2
BOX
 70
         0
 40
1.0
 41
1.0
 50
0.0
 71
         0
 42
0.2
  3
txt.shx
  4

  0
STYLE
  5
192
100
AcDbSymbolTableRecord
100
AcDbTextStyleTableRecord
  2
BOX
 70
         0
 40
1.0
 41
1.0
 50
0.0
 71
         0
 42
0.2
  3
txt.shx
  4

  0
STYLE
  5
228
100
AcDbSymbolTableRecord
100
AcDbTextStyleTableRecord
  2
BOX
 70
         0
 40
1.0
 41
1.0
 50
0.0
 71
         0
 42
0.2
  3
txt.shx
  4

  0
ENDTAB
  0
TABLE
  2
VIEW
  5
5
100
AcDbSymbolTable
 70
         0
  0
ENDTAB
  0
TABLE
  2
UCS
  5
6
100
AcDbSymbolTable
 70
         1
  0
UCS
  5
20
100
AcDbSymbolTableRecord
100
AcDbUCSTableRecord
  2
CK_VIEW_1
 70
         0
 10
0.0
 20
0.0
 30
1.0
 11
1.0
 21
0.0
 31
0.0
 12
0.0
 22
1.0
 32
0.0
  0
ENDTAB
  0
TABLE
  2
APPID
  5
8
100
AcDbSymbolTable
 70
         1
  0
APPID
  5
16
100
AcDbSymbolTableRecord
100
AcDbRegAppTableRecord
  2
ACAD
 70
         0
  0
ENDTAB
  0
TABLE
  2
DIMSTYLE
  5
9
100
AcDbSymbolTable
 70
         2
  0
DIMSTYLE
105
18
100
AcDbSymbolTableRecord
100
AcDbDimStyleTableRecord
  2
STANDARD
 70
         0
  3

  4

  5

  6

  7

 40
1.0
 41
0.18
 42
0.0625
 43
0.38
 44
0.18
 45
0.0
 46
0.0
 47
0.0
 48
0.0
 71
         0
 72
         0
 73
         1
 74
         1
 75
         0
 76
         0
 77
         0
 78
         0
140
0.18
141
0.09
142
0.0
143
25.4
144
1.0
145
0.0
146
1.0
147
0.09
170
         0
171
         2
172
         0
173
         0
174
         0
175
         0
176
         0
177
         0
178
         0
270
         2
271
         4
272
         4
273
         2
274
         2
275
         0
280
         0
281
         0
282
         0
283
         1
284
         0
285
         0
286
         0
287
         0
288
         0
340
17
  0
DIMSTYLE
105
6D
100
AcDbSymbolTableRecord
100
AcDbDimStyleTableRecord
  2
DIMSTYLE1
 70
         0
  3

  4

  5

  6

  7

 40
1.0
 41
2.7
 42
0.0625
 43
0.38
 44
2.7
 45
0.0
 46
0.0
 47
0.0
 48
0.0
 71
         0
 72
         0
 73
         1
 74
         1
 75
         0
 76
         0
 77
         0
 78
         0
140
2.7
141
0.09
142
0.0
143
25.4
144
1.0
145
0.0
146
1.0
147
0.09
170
         0
171
         2
172
         0
173
         0
174
         0
175
         0
176
         0
177
         0
178
         0
270
         2
271
         4
272
         4
273
         2
274
         2
275
         0
280
         0
281
         0
282
         0
283
         1
284
         0
285
         0
286
         0
287
         0
288
         0
340
17
  0
ENDTAB
  0
TABLE
  2
BLOCK_RECORD
  5
1
100
AcDbSymbolTable
 70
        18
  0
BLOCK_RECORD
  5
A
100
AcDbSymbolTableRecord
100
AcDbBlockTableRecord
  2
*MODEL_SPACE
  0
BLOCK_RECORD
  5
B
100
AcDbSymbolTableRecord
100
AcDbBlockTableRecord
  2
*PAPER_SPACE
  0
BLOCK_RECORD
  5
6E
100
AcDbSymbolTableRecord
100
AcDbBlockTableRecord
  2
*D0
  0
BLOCK_RECORD
  5
7E
100
AcDbSymbolTableRecord
100
AcDbBlockTableRecord
  2
*D1
  0
BLOCK_RECORD
  5
8C
100
AcDbSymbolTableRecord
100
AcDbBlockTableRecord
  2
*D2
  0
BLOCK_RECORD
  5
118
100
AcDbSymbolTableRecord
100
AcDbBlockTableRecord
  2
*D3
  0
BLOCK_RECORD
  5
130
100
AcDbSymbolTableRecord
100
AcDbBlockTableRecord
  2
*D4
  0
BLOCK_RECORD
  5
15B
100
AcDbSymbolTableRecord
100
AcDbBlockTableRecord
  2
*D5
  0
BLOCK_RECORD
  5
179
100
AcDbSymbolTableRecord
100
AcDbBlockTableRecord
  2
*D6
  0
BLOCK_RECORD
  5
187
100
AcDbSymbolTableRecord
100
AcDbBlockTableRecord
  2
*D7
  0
BLOCK_RECORD
  5
195
100
AcDbSymbolTableRecord
100
AcDbBlockTableRecord
  2
*X8
  0
BLOCK_RECORD
  5
1BD
100
AcDbSymbolTableRecord
100
AcDbBlockTableRecord
  2
*X9
  0
BLOCK_RECORD
  5
1C5
100
AcDbSymbolTableRecord
100
AcDbBlockTableRecord
  2
*X10
  0
BLOCK_RECORD
  5
1CE
100
AcDbSymbolTableRecord
100
AcDbBlockTableRecord
  2
*X11
  0
BLOCK_RECORD
  5
1D8
100
AcDbSymbolTableRecord
100
AcDbBlockTableRecord
  2
*X12
  0
BLOCK_RECORD
  5
200
100
AcDbSymbolTableRecord
100
AcDbBlockTableRecord
  2
*X13
  0
BLOCK_RECORD
  5
20A
100
AcDbSymbolTableRecord
100
AcDbBlockTableRecord
  2
*X14
  0
BLOCK_RECORD
  5
214
100
AcDbSymbolTableRecord
100
AcDbBlockTableRecord
  2
*X15
  0
BLOCK_RECORD
  5
21B
100
AcDbSymbolTableRecord
100
AcDbBlockTableRecord
  2
*X16
  0
BLOCK_RECORD
  5
221
100
AcDbSymbolTableRecord
100
AcDbBlockTableRecord
  2
*X17
  0
ENDTAB
  0
ENDSEC
  0
SECTION
  2
BLOCKS
  0
BLOCK
  5
D
100
AcDbEntity
  8
0
100
AcDbBlockBegin
  2
*MODEL_SPACE
 70
         0
 10
0.0
 20
0.0
 30
0.0
  3
*MODEL_SPACE
  1

  0
ENDBLK
  5
E
100
AcDbEntity
  8
0
100
AcDbBlockEnd
  0
BLOCK
  5
F
100
AcDbEntity
 67
         1
  8
0
100
AcDbBlockBegin
  2
*PAPER_SPACE
 70
         0
 10
0.0
 20
0.0
 30
0.0
  3
*PAPER_SPACE
  1

  0
ENDBLK
  5
10
100
AcDbEntity
 67
         1
  8
0
100
AcDbBlockEnd
  0
BLOCK
  5
6F
100
AcDbEntity
  8
0
100
AcDbBlockBegin
  2
*D0
 70
        65
 10
0.0
 20
0.0
 30
0.0
  3
*D0
  1

  0
POINT
  5
72
100
AcDbEntity
  8
DEFPOINTS
  6
CONTINUOUS
 62
         0
100
AcDbPoint
 10
969.0436217675
 20
3050.6463980427
 30
0.0
  0
POINT
  5
73
100
AcDbEntity
  8
DEFPOINTS
  6
CONTINUOUS
 62
         0
100
AcDbPoint
 10
969.0436217675
 20
3042.8811086266
 30
0.0
  0
POINT
  5
74
100
AcDbEntity
  8
DEFPOINTS
  6
CONTINUOUS
 62
         0
100
AcDbPoint
 10
975.3936217675
 20
3042.8811086266
 30
0.0
  0
LINE
  5
75
100
AcDbEntity
  8
______
  6
CONTINUOUS
 62
         4
100
AcDbLine
 10
969.0436217675
 20
3044.2311086266
 30
0.0
 11
969.0436217675
 21
3051.3213980427
 31
0.0
  0
LINE
  5
76
100
AcDbEntity
  8
______
  6
CONTINUOUS
 62
         4
100
AcDbLine
 10
975.3936217675
 20
3044.2311086266
 30
0.0
 11
975.3936217675
 21
3051.3213980427
 31
0.0
  0
LINE
  5
77
100
AcDbEntity
  8
______
  6
CONTINUOUS
 62
         4
100
AcDbLine
 10
969.0436217675
 20
3050.6463980427
 30
0.0
 11
975.3936217675
 21
3050.6463980427
 31
0.0
  0
SOLID
  5
78
100
AcDbEntity
  8
______
  6
CONTINUOUS
 62
         4
100
AcDbTrace
 10
969.0436217675
 20
3050.6463980427
 30
0.0
 11
971.7436217675
 21
3051.0513980427
 31
0.0
 12
971.7436217675
 22
3050.2413980427
 32
0.0
 13
969.0436217675
 23
3050.6463980427
 33
0.0
  0
LINE
  5
79
100
AcDbEntity
  8
______
  6
CONTINUOUS
 62
         4
100
AcDbLine
 10
975.3936217675
 20
3050.6463980427
 30
0.0
 11
966.3828478344
 21
3050.6463980427
 31
0.0
  0
SOLID
  5
7A
100
AcDbEntity
  8
______
  6
CONTINUOUS
 62
         4
100
AcDbTrace
 10
975.3936217675
 20
3050.6463980427
 30
0.0
 11
972.6936217675
 21
3050.2413980427
 31
0.0
 12
972.6936217675
 22
3051.0513980427
 32
0.0
 13
975.3936217675
 23
3050.6463980427
 33
0.0
  0
TEXT
  5
7C
100
AcDbEntity
  8
______
  6
CONTINUOUS
 62
         4
100
AcDbText
 10
967.7328478344
 20
3052.6713980427
 30
0.0
 40
2.7
  1
5/16"-24UNF
  7
BOX
100
AcDbText
  0
ENDBLK
  5
7D
100
AcDbEntity
  8
0
  6
CONTINUOUS
100
AcDbBlockEnd
  0
BLOCK
  5
7F
100
AcDbEntity
  8
0
100
AcDbBlockBegin
  2
*D1
 70
        65
 10
0.0
 20
0.0
 30
0.0
  3
*D1
  1

  0
POINT
  5
81
100
AcDbEntity
  8
DEFPOINTS
  6
CONTINUOUS
 62
         0
100
AcDbPoint
 10
959.8757073599
 20
3035.8061086266
 30
0.0
  0
POINT
  5
82
100
AcDbEntity
  8
DEFPOINTS
  6
CONTINUOUS
 62
         0
100
AcDbPoint
 10
969.9686217675
 20
3035.8061086266
 30
0.0
  0
POINT
  5
83
100
AcDbEntity
  8
DEFPOINTS
  6
CONTINUOUS
 62
         0
100
AcDbPoint
 10
969.9686217675
 20
3043.8061086266
 30
0.0
  0
LINE
  5
84
100
AcDbEntity
  8
______
  6
CONTINUOUS
 62
         4
100
AcDbLine
 10
968.6186217675
 20
3035.8061086266
 30
0.0
 11
959.2007073599
 21
3035.8061086266
 31
0.0
  0
LINE
  5
85
100
AcDbEntity
  8
______
  6
CONTINUOUS
 62
         4
100
AcDbLine
 10
968.6186217675
 20
3043.8061086266
 30
0.0
 11
959.2007073599
 21
3043.8061086266
 31
0.0
  0
LINE
  5
86
100
AcDbEntity
  8
______
  6
CONTINUOUS
 62
         4
100
AcDbLine
 10
959.8757073599
 20
3035.8061086266
 30
0.0
 11
959.8757073599
 21
3043.8061086266
 31
0.0
  0
SOLID
  5
87
100
AcDbEntity
  8
______
  6
CONTINUOUS
 62
         4
100
AcDbTrace
 10
959.8757073599
 20
3035.8061086266
 30
0.0
 11
959.4707073599
 21
3038.5061086266
 31
0.0
 12
960.2807073599
 22
3038.5061086266
 32
0.0
 13
959.8757073599
 23
3035.8061086266
 33
0.0
  0
SOLID
  5
88
100
AcDbEntity
  8
______
  6
CONTINUOUS
 62
         4
100
AcDbTrace
 10
959.8757073599
 20
3043.8061086266
 30
0.0
 11
960.2807073599
 21
3041.1061086266
 31
0.0
 12
959.4707073599
 22
3041.1061086266
 32
0.0
 13
959.8757073599
 23
3043.8061086266
 33
0.0
  0
TEXT
  5
8A
100
AcDbEntity
  8
______
  6
CONTINUOUS
 62
         4
100
AcDbText
 10
957.8507073599
 20
3035.5247757387
 30
0.0
 40
2.7
  1
6.6
 50
90.0
  7
BOX
100
AcDbText
  0
ENDBLK
  5
8B
100
AcDbEntity
  8
0
  6
CONTINUOUS
100
AcDbBlockEnd
  0
BLOCK
  5
8D
100
AcDbEntity
  8
0
100
AcDbBlockBegin
  2
*D2
 70
        65
 10
0.0
 20
0.0
 30
0.0
  3
*D2
  1

  0
POINT
  5
8F
100
AcDbEntity
  8
DEFPOINTS
  6
CONTINUOUS
 62
         0
100
AcDbPoint
 10
970.3711009061
 20
3026.8201205911
 30
0.0
  0
POINT
  5
90
100
AcDbEntity
  8
DEFPOINTS
  6
CONTINUOUS
 62
         0
100
AcDbPoint
 10
970.3711009061
 20
3035.8061086266
 30
0.0
  0
POINT
  5
91
100
AcDbEntity
  8
DEFPOINTS
  6
CONTINUOUS
 62
         0
100
AcDbPoint
 10
974.0661426289
 20
3035.8061086266
 30
0.0
  0
LINE
  5
92
100
AcDbEntity
  8
______
  6
CONTINUOUS
 62
         4
100
AcDbLine
 10
970.3711009061
 20
3034.4561086266
 30
0.0
 11
970.3711009061
 21
3026.1451205911
 31
0.0
  0
LINE
  5
93
100
AcDbEntity
  8
______
  6
CONTINUOUS
 62
         4
100
AcDbLine
 10
974.0661426289
 20
3034.4561086266
 30
0.0
 11
974.0661426289
 21
3026.1451205911
 31
0.0
  0
LINE
  5
94
100
AcDbEntity
  8
______
  6
CONTINUOUS
 62
         4
100
AcDbLine
 10
970.3711009061
 20
3026.8201205911
 30
0.0
 11
964.9711009061
 21
3026.8201205911
 31
0.0
  0
SOLID
  5
95
100
AcDbEntity
  8
______
  6
CONTINUOUS
 62
         4
100
AcDbTrace
 10
970.3711009061
 20
3026.8201205911
 30
0.0
 11
967.6711009061
 21
3026.4151205911
 31
0.0
 12
967.6711009061
 22
3027.2251205911
 32
0.0
 13
970.3711009061
 23
3026.8201205911
 33
0.0
  0
LINE
  5
96
100
AcDbEntity
  8
______
  6
CONTINUOUS
 62
         4
100
AcDbLine
 10
974.0661426289
 20
3026.8201205911
 30
0.0
 11
995.0203234802
 21
3026.8201205911
 31
0.0
  0
SOLID
  5
97
100
AcDbEntity
  8
______
  6
CONTINUOUS
 62
         4
100
AcDbTrace
 10
974.0661426289
 20
3026.8201205911
 30
0.0
 11
976.7661426289
 21
3027.2251205911
 31
0.0
 12
976.7661426289
 22
3026.4151205911
 32
0.0
 13
974.0661426289
 23
3026.8201205911
 33
0.0
  0
LINE
  5
98
100
AcDbEntity
  8
______
  6
CONTINUOUS
 62
         4
100
AcDbLine
 10
970.3711009061
 20
3026.8201205911
 30
0.0
 11
974.0661426289
 21
3026.8201205911
 31
0.0
  0
TEXT
  5
9A
100
AcDbEntity
  8
______
  6
CONTINUOUS
 62
         4
100
AcDbText
 10
977.4703234802
 20
3028.8451205911
 30
0.0
 40
2.7
  1
3.2Hex
  7
BOX
100
AcDbText
  0
ENDBLK
  5
9B
100
AcDbEntity
  8
0
  6
CONTINUOUS
100
AcDbBlockEnd
  0
BLOCK
  5
119
100
AcDbEntity
  8
0
100
AcDbBlockBegin
  2
*D3
 70
        65
 10
0.0
 20
0.0
 30
0.0
  3
*D3
  1

  0
POINT
  5
11B
100
AcDbEntity
  8
DEFPOINTS
  6
CONTINUOUS
 62
         0
100
AcDbPoint
 10
789.134544774
 20
3162.2067549247
 30
0.0
  0
POINT
  5
11C
100
AcDbEntity
  8
DEFPOINTS
  6
CONTINUOUS
 62
         0
100
AcDbPoint
 10
777.2570703957
 20
3162.2067549247
 30
0.0
  0
POINT
  5
11D
100
AcDbEntity
  8
DEFPOINTS
  6
CONTINUOUS
 62
         0
100
AcDbPoint
 10
777.2570703957
 20
3144.2067549247
 30
0.0
  0
LINE
  5
11E
100
AcDbEntity
  8
______
  6
CONTINUOUS
 62
         4
100
AcDbLine
 10
778.6070703957
 20
3162.2067549247
 30
0.0
 11
789.809544774
 21
3162.2067549247
 31
0.0
  0
LINE
  5
11F
100
AcDbEntity
  8
______
  6
CONTINUOUS
 62
         4
100
AcDbLine
 10
778.6070703957
 20
3144.2067549247
 30
0.0
 11
789.809544774
 21
3144.2067549247
 31
0.0
  0
LINE
  5
120
100
AcDbEntity
  8
______
  6
CONTINUOUS
 62
         4
100
AcDbLine
 10
789.134544774
 20
3162.2067549247
 30
0.0
 11
789.134544774
 21
3144.2067549247
 31
0.0
  0
SOLID
  5
121
100
AcDbEntity
  8
______
  6
CONTINUOUS
 62
         4
100
AcDbTrace
 10
789.134544774
 20
3162.2067549247
 30
0.0
 11
789.539544774
 21
3159.5067549247
 31
0.0
 12
788.729544774
 22
3159.5067549247
 32
0.0
 13
789.134544774
 23
3162.2067549247
 33
0.0
  0
SOLID
  5
122
100
AcDbEntity
  8
______
  6
CONTINUOUS
 62
         4
100
AcDbTrace
 10
789.134544774
 20
3144.2067549247
 30
0.0
 11
788.729544774
 21
3146.9067549247
 31
0.0
 12
789.539544774
 22
3146.9067549247
 32
0.0
 13
789.134544774
 23
3144.2067549247
 33
0.0
  0
TEXT
  5
124
100
AcDbEntity
  8
______
  6
CONTINUOUS
 62
         4
100
AcDbText
 10
787.109544774
 20
3147.7981196215
 30
0.0
 40
2.7
  1
崷18
 50
90.0
  7
BOX
100
AcDbText
  0
ENDBLK
  5
125
100
AcDbEntity
  8
0
  6
CONTINUOUS
100
AcDbBlockEnd
  0
BLOCK
  5
131
100
AcDbEntity
  8
0
100
AcDbBlockBegin
  2
*D4
 70
        65
 10
0.0
 20
0.0
 30
0.0
  3
*D4
  1

  0
POINT
  5
133
100
AcDbEntity
  8
DEFPOINTS
  6
CONTINUOUS
 62
         0
100
AcDbPoint
 10
798.9774194394
 20
3165.9067549247
 30
0.0
  0
POINT
  5
134
100
AcDbEntity
  8
DEFPOINTS
  6
CONTINUOUS
 62
         0
100
AcDbPoint
 10
768.8790054645
 20
3165.9067549247
 30
0.0
  0
POINT
  5
135
100
AcDbEntity
  8
DEFPOINTS
  6
CONTINUOUS
 62
         0
100
AcDbPoint
 10
768.8790054645
 20
3140.5067549247
 30
0.0
  0
LINE
  5
136
100
AcDbEntity
  8
______
  6
CONTINUOUS
 62
         4
100
AcDbLine
 10
770.2290054645
 20
3165.9067549247
 30
0.0
 11
799.6524194394
 21
3165.9067549247
 31
0.0
  0
LINE
  5
137
100
AcDbEntity
  8
______
  6
CONTINUOUS
 62
         4
100
AcDbLine
 10
770.2290054645
 20
3140.5067549247
 30
0.0
 11
799.6524194394
 21
3140.5067549247
 31
0.0
  0
LINE
  5
138
100
AcDbEntity
  8
______
  6
CONTINUOUS
 62
         4
100
AcDbLine
 10
798.9774194394
 20
3165.9067549247
 30
0.0
 11
798.9774194394
 21
3140.5067549247
 31
0.0
  0
SOLID
  5
139
100
AcDbEntity
  8
______
  6
CONTINUOUS
 62
         4
100
AcDbTrace
 10
798.9774194394
 20
3165.9067549247
 30
0.0
 11
799.3824194394
 21
3163.2067549247
 31
0.0
 12
798.5724194394
 22
3163.2067549247
 32
0.0
 13
798.9774194394
 23
3165.9067549247
 33
0.0
  0
SOLID
  5
13A
100
AcDbEntity
  8
______
  6
CONTINUOUS
 62
         4
100
AcDbTrace
 10
798.9774194394
 20
3140.5067549247
 30
0.0
 11
798.5724194394
 21
3143.2067549247
 31
0.0
 12
799.3824194394
 22
3143.2067549247
 32
0.0
 13
798.9774194394
 23
3140.5067549247
 33
0.0
  0
TEXT
  5
13C
100
AcDbEntity
  8
______
  6
CONTINUOUS
 62
         4
100
AcDbText
 10
796.9524194394
 20
3144.6499335441
 30
0.0
 40
2.7
  1
崷25.4
 50
90.0
  7
BOX
100
AcDbText
  0
ENDBLK
  5
13D
100
AcDbEntity
  8
0
  6
CONTINUOUS
100
AcDbBlockEnd
  0
BLOCK
  5
15C
100
AcDbEntity
  8
0
100
AcDbBlockBegin
  2
*D5
 70
        65
 10
0.0
 20
0.0
 30
0.0
  3
*D5
  1

  0
POINT
  5
15E
100
AcDbEntity
  8
DEFPOINTS
  6
CONTINUOUS
 62
         0
100
AcDbPoint
 10
777.2570703957
 20
2997.8019985175
 30
0.0
  0
POINT
  5
15F
100
AcDbEntity
  8
DEFPOINTS
  6
CONTINUOUS
 62
         0
100
AcDbPoint
 10
777.2570703957
 20
3025.162360316
 30
0.0
  0
POINT
  5
160
100
AcDbEntity
  8
DEFPOINTS
  6
CONTINUOUS
 62
         0
100
AcDbPoint
 10
747.2570703957
 20
3029.2377549247
 30
0.0
  0
LINE
  5
161
100
AcDbEntity
  8
______
  6
CONTINUOUS
 62
         4
100
AcDbLine
 10
777.2570703957
 20
3023.812360316
 30
0.0
 11
777.2570703957
 21
2997.1269985175
 31
0.0
  0
LINE
  5
162
100
AcDbEntity
  8
______
  6
CONTINUOUS
 62
         4
100
AcDbLine
 10
747.2570703957
 20
3027.8877549247
 30
0.0
 11
747.2570703957
 21
2997.1269985175
 31
0.0
  0
LINE
  5
163
100
AcDbEntity
  8
______
  6
CONTINUOUS
 62
         4
100
AcDbLine
 10
777.2570703957
 20
2997.8019985175
 30
0.0
 11
747.2570703957
 21
2997.8019985175
 31
0.0
  0
SOLID
  5
164
100
AcDbEntity
  8
______
  6
CONTINUOUS
 62
         4
100
AcDbTrace
 10
777.2570703957
 20
2997.8019985175
 30
0.0
 11
774.5570703957
 21
2997.3969985175
 31
0.0
 12
774.5570703957
 22
2998.2069985175
 32
0.0
 13
777.2570703957
 23
2997.8019985175
 33
0.0
  0
SOLID
  5
165
100
AcDbEntity
  8
______
  6
CONTINUOUS
 62
         4
100
AcDbTrace
 10
747.2570703957
 20
2997.8019985175
 30
0.0
 11
749.9570703957
 21
2998.2069985175
 31
0.0
 12
749.9570703957
 22
2997.3969985175
 32
0.0
 13
747.2570703957
 23
2997.8019985175
 33
0.0
  0
TEXT
  5
167
100
AcDbEntity
  8
______
  6
CONTINUOUS
 62
         4
100
AcDbText
 10
758.1944914539
 20
2999.8269985175
 30
0.0
 40
2.7
  1
30
  7
BOX
100
AcDbText
  0
ENDBLK
  5
168
100
AcDbEntity
  8
0
  6
CONTINUOUS
100
AcDbBlockEnd
  0
BLOCK
  5
17A
100
AcDbEntity
  8
0
100
AcDbBlockBegin
  2
*D6
 70
        65
 10
0.0
 20
0.0
 30
0.0
  3
*D6
  1

  0
POINT
  5
17C
100
AcDbEntity
  8
DEFPOINTS
  6
CONTINUOUS
 62
         0
100
AcDbPoint
 10
777.2570703957
 20
3207.9098623757
 30
0.0
  0
POINT
  5
17D
100
AcDbEntity
  8
DEFPOINTS
  6
CONTINUOUS
 62
         0
100
AcDbPoint
 10
777.2570703957
 20
3161.2511495335
 30
0.0
  0
POINT
  5
17E
100
AcDbEntity
  8
DEFPOINTS
  6
CONTINUOUS
 62
         0
100
AcDbPoint
 10
717.2570703957
 20
3175.4317549247
 30
0.0
  0
LINE
  5
17F
100
AcDbEntity
  8
______
  6
CONTINUOUS
 62
         4
100
AcDbLine
 10
777.2570703957
 20
3162.6011495335
 30
0.0
 11
777.2570703957
 21
3208.5848623757
 31
0.0
  0
LINE
  5
180
100
AcDbEntity
  8
______
  6
CONTINUOUS
 62
         4
100
AcDbLine
 10
717.2570703957
 20
3176.7817549247
 30
0.0
 11
717.2570703957
 21
3208.5848623757
 31
0.0
  0
LINE
  5
181
100
AcDbEntity
  8
______
  6
CONTINUOUS
 62
         4
100
AcDbLine
 10
777.2570703957
 20
3207.9098623757
 30
0.0
 11
717.2570703957
 21
3207.9098623757
 31
0.0
  0
SOLID
  5
182
100
AcDbEntity
  8
______
  6
CONTINUOUS
 62
         4
100
AcDbTrace
 10
777.2570703957
 20
3207.9098623757
 30
0.0
 11
774.5570703957
 21
3207.5048623757
 31
0.0
 12
774.5570703957
 22
3208.3148623757
 32
0.0
 13
777.2570703957
 23
3207.9098623757
 33
0.0
  0
SOLID
  5
183
100
AcDbEntity
  8
______
  6
CONTINUOUS
 62
         4
100
AcDbTrace
 10
717.2570703957
 20
3207.9098623757
 30
0.0
 11
719.9570703957
 21
3208.3148623757
 31
0.0
 12
719.9570703957
 22
3207.5048623757
 32
0.0
 13
717.2570703957
 23
3207.9098623757
 33
0.0
  0
TEXT
  5
185
100
AcDbEntity
  8
______
  6
CONTINUOUS
 62
         4
100
AcDbText
 10
741.8881737889
 20
3209.9348623757
 30
0.0
 40
2.7
  1
60
  7
BOX
100
AcDbText
  0
ENDBLK
  5
186
100
AcDbEntity
  8
0
  6
CONTINUOUS
100
AcDbBlockEnd
  0
BLOCK
  5
188
100
AcDbEntity
  8
0
100
AcDbBlockBegin
  2
*D7
 70
        65
 10
0.0
 20
0.0
 30
0.0
  3
*D7
  1

  0
POINT
  5
18A
100
AcDbEntity
  8
DEFPOINTS
  6
CONTINUOUS
 62
         0
100
AcDbPoint
 10
777.2570703957
 20
3220.148712729
 30
0.0
  0
POINT
  5
18B
100
AcDbEntity
  8
DEFPOINTS
  6
CONTINUOUS
 62
         0
100
AcDbPoint
 10
777.2570703957
 20
3161.2511495335
 30
0.0
  0
POINT
  5
18C
100
AcDbEntity
  8
DEFPOINTS
  6
CONTINUOUS
 62
         0
100
AcDbPoint
 10
623.8570703957
 20
3164.7067549247
 30
0.0
  0
LINE
  5
18D
100
AcDbEntity
  8
______
  6
CONTINUOUS
 62
         4
100
AcDbLine
 10
777.2570703957
 20
3162.6011495335
 30
0.0
 11
777.2570703957
 21
3220.823712729
 31
0.0
  0
LINE
  5
18E
100
AcDbEntity
  8
______
  6
CONTINUOUS
 62
         4
100
AcDbLine
 10
623.8570703957
 20
3166.0567549247
 30
0.0
 11
623.8570703957
 21
3220.823712729
 31
0.0
  0
LINE
  5
18F
100
AcDbEntity
  8
______
  6
CONTINUOUS
 62
         4
100
AcDbLine
 10
777.2570703957
 20
3220.148712729
 30
0.0
 11
623.8570703957
 21
3220.148712729
 31
0.0
  0
SOLID
  5
190
100
AcDbEntity
  8
______
  6
CONTINUOUS
 62
         4
100
AcDbTrace
 10
777.2570703957
 20
3220.148712729
 30
0.0
 11
774.5570703957
 21
3219.743712729
 31
0.0
 12
774.5570703957
 22
3220.553712729
 32
0.0
 13
777.2570703957
 23
3220.148712729
 33
0.0
  0
SOLID
  5
191
100
AcDbEntity
  8
______
  6
CONTINUOUS
 62
         4
100
AcDbTrace
 10
623.8570703957
 20
3220.148712729
 30
0.0
 11
626.5570703957
 21
3220.553712729
 31
0.0
 12
626.5570703957
 22
3219.743712729
 32
0.0
 13
623.8570703957
 23
3220.148712729
 33
0.0
  0
TEXT
  5
193
100
AcDbEntity
  8
______
  6
CONTINUOUS
 62
         4
100
AcDbText
 10
692.4477298121
 20
3222.173712729
 30
0.0
 40
2.7
  1
153.4
  7
BOX
100
AcDbText
  0
ENDBLK
  5
194
100
AcDbEntity
  8
0
  6
CONTINUOUS
100
AcDbBlockEnd
  0
BLOCK
  5
196
100
AcDbEntity
  8
0
100
AcDbBlockBegin
  2
*X8
 70
        65
 10
0.0
 20
0.0
 30
0.0
  3
*X8
  1

  0
LINE
  5
197
100
AcDbEntity
  8
______
  6
CONTINUOUS
 62
         4
100
AcDbLine
 10
767.3629873159
 20
3037.1757549247
 30
0.0
 11
770.8164263526
 21
3040.6291939614
 31
0.0
  0
LINE
  5
198
100
AcDbEntity
  8
______
  6
CONTINUOUS
 62
         4
100
AcDbLine
 10
763.1203466288
 20
3037.1757549247
 30
0.0
 11
771.047102306
 21
3045.1025106019
 31
0.0
  0
LINE
  5
199
100
AcDbEntity
  8
______
  6
CONTINUOUS
 62
         4
100
AcDbLine
 10
758.8777059417
 20
3037.1757549247
 30
0.0
 11
767.6087059417
 21
3045.9067549247
 31
0.0
  0
LINE
  5
19A
100
AcDbEntity
  8
______
  6
CONTINUOUS
 62
         4
100
AcDbLine
 10
754.6350652546
 20
3037.1757549247
 30
0.0
 11
763.3660652546
 21
3045.9067549247
 31
0.0
  0
LINE
  5
19B
100
AcDbEntity
  8
______
  6
CONTINUOUS
 62
         4
100
AcDbLine
 10
750.3924245675
 20
3037.1757549247
 30
0.0
 11
759.1234245675
 21
3045.9067549247
 31
0.0
  0
LINE
  5
19C
100
AcDbEntity
  8
______
  6
CONTINUOUS
 62
         4
100
AcDbLine
 10
746.8517754018
 20
3037.8777464462
 30
0.0
 11
754.8807838803
 21
3045.9067549247
 31
0.0
  0
LINE
  5
19D
100
AcDbEntity
  8
______
  6
CONTINUOUS
 62
         4
100
AcDbLine
 10
744.8556431932
 20
3040.1242549247
 30
0.0
 11
750.6381431932
 21
3045.9067549247
 31
0.0
  0
LINE
  5
19E
100
AcDbEntity
  8
______
  6
CONTINUOUS
 62
         4
100
AcDbLine
 10
740.6130025061
 20
3040.1242549247
 30
0.0
 11
746.3955025061
 21
3045.9067549247
 31
0.0
  0
LINE
  5
19F
100
AcDbEntity
  8
______
  6
CONTINUOUS
 62
         4
100
AcDbLine
 10
736.370361819
 20
3040.1242549247
 30
0.0
 11
742.152861819
 21
3045.9067549247
 31
0.0
  0
LINE
  5
1A0
100
AcDbEntity
  8
______
  6
CONTINUOUS
 62
         4
100
AcDbLine
 10
732.1277211319
 20
3040.1242549247
 30
0.0
 11
737.9102211319
 21
3045.9067549247
 31
0.0
  0
LINE
  5
1A1
100
AcDbEntity
  8
______
  6
CONTINUOUS
 62
         4
100
AcDbLine
 10
727.8850804447
 20
3040.1242549247
 30
0.0
 11
733.6710422888
 21
3045.9102167688
 31
0.0
  0
LINE
  5
1A2
100
AcDbEntity
  8
______
  6
CONTINUOUS
 62
         4
100
AcDbLine
 10
723.6424397576
 20
3040.1242549247
 30
0.0
 11
730.616890848
 21
3047.0987060151
 31
0.0
  0
LINE
  5
1A3
100
AcDbEntity
  8
______
  6
CONTINUOUS
 62
         4
100
AcDbLine
 10
719.3997990705
 20
3040.1242549247
 30
0.0
 11
728.9990864601
 21
3049.7235423143
 31
0.0
  0
LINE
  5
1A4
100
AcDbEntity
  8
______
  6
CONTINUOUS
 62
         4
100
AcDbLine
 10
715.1571583834
 20
3040.1242549247
 30
0.0
 11
728.8570703957
 21
3053.8241669371
 31
0.0
  0
LINE
  5
1A5
100
AcDbEntity
  8
______
  6
CONTINUOUS
 62
         4
100
AcDbLine
 10
710.9145176963
 20
3040.1242549247
 30
0.0
 11
728.8570703957
 21
3058.0668076242
 31
0.0
  0
LINE
  5
1A6
100
AcDbEntity
  8
______
  6
CONTINUOUS
 62
         4
100
AcDbLine
 10
706.6718770091
 20
3040.1242549247
 30
0.0
 11
728.8570703957
 21
3062.3094483113
 31
0.0
  0
LINE
  5
1A7
100
AcDbEntity
  8
______
  6
CONTINUOUS
 62
         4
100
AcDbLine
 10
702.429236322
 20
3040.1242549247
 30
0.0
 11
717.5323876936
 21
3055.2274062963
 31
0.0
  0
LINE
  5
1A8
100
AcDbEntity
  8
______
  6
CONTINUOUS
 62
         4
100
AcDbLine
 10
718.8570703957
 20
3056.5520889984
 30
0.0
 11
727.011736322
 21
3064.7067549247
 31
0.0
  0
LINE
  5
1A9
100
AcDbEntity
  8
______
  6
CONTINUOUS
 62
         4
100
AcDbLine
 10
698.1865956349
 20
3040.1242549247
 30
0.0
 11
712.8516406635
 21
3054.7892999534
 31
0.0
  0
LINE
  5
1AA
100
AcDbEntity
  8
______
  6
CONTINUOUS
 62
         4
100
AcDbLine
 10
718.8570703957
 20
3060.7947296855
 30
0.0
 11
722.7690956349
 21
3064.7067549247
 31
0.0
  0
LINE
  5
1AB
100
AcDbEntity
  8
______
  6
CONTINUOUS
 62
         4
100
AcDbLine
 10
693.9439549478
 20
3040.1242549247
 30
0.0
 11
707.8846513495
 21
3054.0649513264
 31
0.0
  0
LINE
  5
1AC
100
AcDbEntity
  8
______
  6
CONTINUOUS
 62
         4
100
AcDbLine
 10
689.7013142607
 20
3040.1242549247
 30
0.0
 11
702.9176620354
 21
3053.3406026995
 31
0.0
  0
LINE
  5
1AD
100
AcDbEntity
  8
______
  6
CONTINUOUS
 62
         4
100
AcDbLine
 10
685.4586735735
 20
3040.1242549247
 30
0.0
 11
697.9506727213
 21
3052.6162540725
 31
0.0
  0
LINE
  5
1AE
100
AcDbEntity
  8
______
  6
CONTINUOUS
 62
         4
100
AcDbLine
 10
681.2160328864
 20
3040.1242549247
 30
0.0
 11
692.9836834073
 21
3051.8919054456
 31
0.0
  0
LINE
  5
1AF
100
AcDbEntity
  8
______
  6
CONTINUOUS
 62
         4
100
AcDbLine
 10
676.9733921993
 20
3040.1242549247
 30
0.0
 11
688.0166940932
 21
3051.1675568187
 31
0.0
  0
LINE
  5
1B0
100
AcDbEntity
  8
______
  6
CONTINUOUS
 62
         4
100
AcDbLine
 10
672.7307515122
 20
3040.1242549247
 30
0.0
 11
683.0497047792
 21
3050.4432081917
 31
0.0
  0
LINE
  5
1B1
100
AcDbEntity
  8
______
  6
CONTINUOUS
 62
         4
100
AcDbLine
 10
668.4881108251
 20
3040.1242549247
 30
0.0
 11
678.0827154651
 21
3049.7188595648
 31
0.0
  0
LINE
  5
1B2
100
AcDbEntity
  8
______
  6
CONTINUOUS
 62
         4
100
AcDbLine
 10
664.2454701379
 20
3040.1242549247
 30
0.0
 11
673.115726151
 21
3048.9945109378
 31
0.0
  0
LINE
  5
1B3
100
AcDbEntity
  8
______
  6
CONTINUOUS
 62
         4
100
AcDbLine
 10
660.0028294508
 20
3040.1242549247
 30
0.0
 11
668.148736837
 21
3048.2701623109
 31
0.0
  0
LINE
  5
1B4
100
AcDbEntity
  8
______
  6
CONTINUOUS
 62
         4
100
AcDbLine
 10
655.8570703957
 20
3040.2211365567
 30
0.0
 11
663.1817475229
 21
3047.545813684
 31
0.0
  0
LINE
  5
1B5
100
AcDbEntity
  8
______
  6
CONTINUOUS
 62
         4
100
AcDbLine
 10
652.6000480766
 20
3041.2067549247
 30
0.0
 11
658.2147582089
 21
3046.821465057
 31
0.0
  0
LINE
  5
1B6
100
AcDbEntity
  8
______
  6
CONTINUOUS
 62
         4
100
AcDbLine
 10
648.3574073895
 20
3041.2067549247
 30
0.0
 11
653.2477688948
 21
3046.0971164301
 31
0.0
  0
LINE
  5
1B7
100
AcDbEntity
  8
______
  6
CONTINUOUS
 62
         4
100
AcDbLine
 10
644.1147667024
 20
3041.2067549247
 30
0.0
 11
648.1147667024
 21
3045.2067549247
 31
0.0
  0
LINE
  5
1B8
100
AcDbEntity
  8
______
  6
CONTINUOUS
 62
         4
100
AcDbLine
 10
639.8721260152
 20
3041.2067549247
 30
0.0
 11
644.3721260152
 21
3045.7067549247
 31
0.0
  0
LINE
  5
1B9
100
AcDbEntity
  8
______
  6
CONTINUOUS
 62
         4
100
AcDbLine
 10
636.2358007728
 20
3041.8130703694
 30
0.0
 11
640.1294853281
 21
3045.7067549247
 31
0.0
  0
ENDBLK
  5
1BA
100
AcDbEntity
  8
0
  6
CONTINUOUS
100
AcDbBlockEnd
  0
BLOCK
  5
1BE
100
AcDbEntity
  8
0
100
AcDbBlockBegin
  2
*X9
 70
        65
 10
0.0
 20
0.0
 30
0.0
  3
*X9
  1

  0
LINE
  5
1BF
100
AcDbEntity
  8
______
  6
CONTINUOUS
 62
         4
100
AcDbLine
 10
775.8512267463
 20
3037.1787129809
 30
0.0
 11
777.2541123396
 21
3038.5815985741
 31
0.0
  0
LINE
  5
1C0
100
AcDbEntity
  8
______
  6
CONTINUOUS
 62
         4
100
AcDbLine
 10
771.605628003
 20
3037.1757549247
 30
0.0
 11
776.7790248921
 21
3042.3491518138
 31
0.0
  0
LINE
  5
1C1
100
AcDbEntity
  8
______
  6
CONTINUOUS
 62
         4
100
AcDbLine
 10
770.8164263526
 20
3040.6291939614
 30
0.0
 11
773.9405201119
 21
3043.7532877207
 31
0.0
  0
ENDBLK
  5
1C2
100
AcDbEntity
  8
0
  6
CONTINUOUS
100
AcDbBlockEnd
  0
BLOCK
  5
1C6
100
AcDbEntity
  8
0
100
AcDbBlockBegin
  2
*X10
 70
        65
 10
0.0
 20
0.0
 30
0.0
  3
*X10
  1

  0
LINE
  5
1C7
100
AcDbEntity
  8
______
  6
CONTINUOUS
 62
         4
100
AcDbLine
 10
635.6294853281
 20
3041.2067549247
 30
0.0
 11
636.2358007728
 21
3041.8130703694
 31
0.0
  0
LINE
  5
1C8
100
AcDbEntity
  8
______
  6
CONTINUOUS
 62
         4
100
AcDbLine
 10
631.886844641
 20
3041.7067549247
 30
0.0
 11
635.886844641
 21
3045.7067549247
 31
0.0
  0
LINE
  5
1C9
100
AcDbEntity
  8
______
  6
CONTINUOUS
 62
         4
100
AcDbLine
 10
627.6442039539
 20
3041.7067549247
 30
0.0
 11
631.6442039539
 21
3045.7067549247
 31
0.0
  0
LINE
  5
1CA
100
AcDbEntity
  8
______
  6
CONTINUOUS
 62
         4
100
AcDbLine
 10
624.093397764
 20
3042.398589422
 30
0.0
 11
627.4015632668
 21
3045.7067549247
 31
0.0
  0
ENDBLK
  5
1CB
100
AcDbEntity
  8
0
  6
CONTINUOUS
100
AcDbBlockEnd
  0
BLOCK
  5
1CF
100
AcDbEntity
  8
0
100
AcDbBlockBegin
  2
*X11
 70
        65
 10
0.0
 20
0.0
 30
0.0
  3
*X11
  1

  0
LINE
  5
1D0
100
AcDbEntity
  8
______
  6
CONTINUOUS
 62
         4
100
AcDbLine
 10
655.7601887637
 20
3040.1242549247
 30
0.0
 11
655.8570703957
 21
3040.2211365567
 31
0.0
  0
LINE
  5
1D1
100
AcDbEntity
  8
______
  6
CONTINUOUS
 62
         4
100
AcDbLine
 10
651.5175480766
 20
3040.1242549247
 30
0.0
 11
652.6000480766
 21
3041.2067549247
 31
0.0
  0
LINE
  5
1D2
100
AcDbEntity
  8
______
  6
CONTINUOUS
 62
         4
100
AcDbLine
 10
647.2749073895
 20
3040.1242549247
 30
0.0
 11
648.3574073895
 21
3041.2067549247
 31
0.0
  0
LINE
  5
1D3
100
AcDbEntity
  8
______
  6
CONTINUOUS
 62
         4
100
AcDbLine
 10
643.0322667024
 20
3040.1242549247
 30
0.0
 11
644.1147667024
 21
3041.2067549247
 31
0.0
  0
LINE
  5
1D4
100
AcDbEntity
  8
______
  6
CONTINUOUS
 62
         4
100
AcDbLine
 10
638.7896260152
 20
3040.1242549247
 30
0.0
 11
639.8721260152
 21
3041.2067549247
 31
0.0
  0
ENDBLK
  5
1D5
100
AcDbEntity
  8
0
  6
CONTINUOUS
100
AcDbBlockEnd
  0
BLOCK
  5
1D9
100
AcDbEntity
  8
0
100
AcDbBlockBegin
  2
*X12
 70
        65
 10
0.0
 20
0.0
 30
0.0
  3
*X12
  1

  0
LINE
  5
1DA
100
AcDbEntity
  8
______
  6
CONTINUOUS
 62
         4
100
AcDbLine
 10
750.6939873159
 20
3020.5067549247
 30
0.0
 11
756.0570703957
 21
3025.8698380045
 31
0.0
  0
LINE
  5
1DB
100
AcDbEntity
  8
______
  6
CONTINUOUS
 62
         4
100
AcDbLine
 10
727.6513466288
 20
3001.7067549247
 30
0.0
 11
728.8570703957
 21
3002.9124786916
 31
0.0
  0
LINE
  5
1DC
100
AcDbEntity
  8
______
  6
CONTINUOUS
 62
         4
100
AcDbLine
 10
746.4513466288
 20
3020.5067549247
 30
0.0
 11
755.1823466288
 21
3029.2377549247
 31
0.0
  0
LINE
  5
1DD
100
AcDbEntity
  8
______
  6
CONTINUOUS
 62
         4
100
AcDbLine
 10
723.4087059417
 20
3001.7067549247
 30
0.0
 11
728.8570703957
 21
3007.1551193788
 31
0.0
  0
LINE
  5
1DE
100
AcDbEntity
  8
______
  6
CONTINUOUS
 62
         4
100
AcDbLine
 10
742.2087059417
 20
3020.5067549247
 30
0.0
 11
750.9397059417
 21
3029.2377549247
 31
0.0
  0
LINE
  5
1DF
100
AcDbEntity
  8
______
  6
CONTINUOUS
 62
         4
100
AcDbLine
 10
719.3215456919
 20
3001.8622353621
 30
0.0
 11
728.8570703957
 21
3011.3977600659
 31
0.0
  0
LINE
  5
1E0
100
AcDbEntity
  8
______
  6
CONTINUOUS
 62
         4
100
AcDbLine
 10
737.9660652546
 20
3020.5067549247
 30
0.0
 11
743.7485652546
 21
3026.2892549247
 31
0.0
  0
LINE
  5
1E1
100
AcDbEntity
  8
______
  6
CONTINUOUS
 62
         4
100
AcDbLine
 10
718.8570703957
 20
3005.640400753
 30
0.0
 11
728.8589062617
 21
3015.642236619
 31
0.0
  0
LINE
  5
1E2
100
AcDbEntity
  8
______
  6
CONTINUOUS
 62
         4
100
AcDbLine
 10
733.7215887015
 20
3020.5049190588
 30
0.0
 11
739.5059245675
 21
3026.2892549247
 31
0.0
  0
LINE
  5
1E3
100
AcDbEntity
  8
______
  6
CONTINUOUS
 62
         4
100
AcDbLine
 10
718.8570703957
 20
3009.8830414401
 30
0.0
 11
735.2632838803
 21
3026.2892549247
 31
0.0
  0
LINE
  5
1E4
100
AcDbEntity
  8
______
  6
CONTINUOUS
 62
         4
100
AcDbLine
 10
715.9096420764
 20
3011.1782538079
 30
0.0
 11
731.0206431932
 21
3026.2892549247
 31
0.0
  0
LINE
  5
1E5
100
AcDbEntity
  8
______
  6
CONTINUOUS
 62
         4
100
AcDbLine
 10
712.2069712502
 20
3011.7182236688
 30
0.0
 11
726.7780025061
 21
3026.2892549247
 31
0.0
  0
LINE
  5
1E6
100
AcDbEntity
  8
______
  6
CONTINUOUS
 62
         4
100
AcDbLine
 10
708.504300424
 20
3012.2581935297
 30
0.0
 11
722.535361819
 21
3026.2892549247
 31
0.0
  0
LINE
  5
1E7
100
AcDbEntity
  8
______
  6
CONTINUOUS
 62
         4
100
AcDbLine
 10
704.8016295977
 20
3012.7981633906
 30
0.0
 11
718.2927211319
 21
3026.2892549247
 31
0.0
  0
LINE
  5
1E8
100
AcDbEntity
  8
______
  6
CONTINUOUS
 62
         4
100
AcDbLine
 10
701.0989587715
 20
3013.3381332515
 30
0.0
 11
714.0500804447
 21
3026.2892549247
 31
0.0
  0
LINE
  5
1E9
100
AcDbEntity
  8
______
  6
CONTINUOUS
 62
         4
100
AcDbLine
 10
697.3962879453
 20
3013.8781031124
 30
0.0
 11
709.8074397576
 21
3026.2892549247
 31
0.0
  0
LINE
  5
1EA
100
AcDbEntity
  8
______
  6
CONTINUOUS
 62
         4
100
AcDbLine
 10
693.6936171191
 20
3014.4180729733
 30
0.0
 11
705.5647990705
 21
3026.2892549247
 31
0.0
  0
LINE
  5
1EB
100
AcDbEntity
  8
______
  6
CONTINUOUS
 62
         4
100
AcDbLine
 10
689.9909462928
 20
3014.9580428342
 30
0.0
 11
701.3221583834
 21
3026.2892549247
 31
0.0
  0
LINE
  5
1EC
100
AcDbEntity
  8
______
  6
CONTINUOUS
 62
         4
100
AcDbLine
 10
686.2882754666
 20
3015.4980126951
 30
0.0
 11
697.0795176963
 21
3026.2892549247
 31
0.0
  0
LINE
  5
1ED
100
AcDbEntity
  8
______
  6
CONTINUOUS
 62
         4
100
AcDbLine
 10
682.5856046404
 20
3016.037982556
 30
0.0
 11
692.8368770091
 21
3026.2892549247
 31
0.0
  0
LINE
  5
1EE
100
AcDbEntity
  8
______
  6
CONTINUOUS
 62
         4
100
AcDbLine
 10
678.8829338142
 20
3016.5779524169
 30
0.0
 11
688.594236322
 21
3026.2892549247
 31
0.0
  0
LINE
  5
1EF
100
AcDbEntity
  8
______
  6
CONTINUOUS
 62
         4
100
AcDbLine
 10
675.180262988
 20
3017.1179222778
 30
0.0
 11
684.3515956349
 21
3026.2892549247
 31
0.0
  0
LINE
  5
1F0
100
AcDbEntity
  8
______
  6
CONTINUOUS
 62
         4
100
AcDbLine
 10
671.4775921617
 20
3017.6578921387
 30
0.0
 11
680.1089549478
 21
3026.2892549247
 31
0.0
  0
LINE
  5
1F1
100
AcDbEntity
  8
______
  6
CONTINUOUS
 62
         4
100
AcDbLine
 10
667.7749213355
 20
3018.1978619996
 30
0.0
 11
675.8663142607
 21
3026.2892549247
 31
0.0
  0
LINE
  5
1F2
100
AcDbEntity
  8
______
  6
CONTINUOUS
 62
         4
100
AcDbLine
 10
664.0722505093
 20
3018.7378318605
 30
0.0
 11
671.6236735735
 21
3026.2892549247
 31
0.0
  0
LINE
  5
1F3
100
AcDbEntity
  8
______
  6
CONTINUOUS
 62
         4
100
AcDbLine
 10
660.3695796831
 20
3019.2778017214
 30
0.0
 11
667.3810328864
 21
3026.2892549247
 31
0.0
  0
LINE
  5
1F4
100
AcDbEntity
  8
______
  6
CONTINUOUS
 62
         4
100
AcDbLine
 10
656.6669088568
 20
3019.8177715823
 30
0.0
 11
663.1383921993
 21
3026.2892549247
 31
0.0
  0
LINE
  5
1F5
100
AcDbEntity
  8
______
  6
CONTINUOUS
 62
         4
100
AcDbLine
 10
652.9642380306
 20
3020.3577414432
 30
0.0
 11
658.8957515122
 21
3026.2892549247
 31
0.0
  0
LINE
  5
1F6
100
AcDbEntity
  8
______
  6
CONTINUOUS
 62
         4
100
AcDbLine
 10
649.5706108251
 20
3021.2067549247
 30
0.0
 11
653.5706108251
 21
3025.2067549247
 31
0.0
  0
LINE
  5
1F7
100
AcDbEntity
  8
______
  6
CONTINUOUS
 62
         4
100
AcDbLine
 10
644.8279701379
 20
3020.7067549247
 30
0.0
 11
649.3279701379
 21
3025.2067549247
 31
0.0
  0
LINE
  5
1F8
100
AcDbEntity
  8
______
  6
CONTINUOUS
 62
         4
100
AcDbLine
 10
640.5853294508
 20
3020.7067549247
 30
0.0
 11
645.0853294508
 21
3025.2067549247
 31
0.0
  0
LINE
  5
1F9
100
AcDbEntity
  8
______
  6
CONTINUOUS
 62
         4
100
AcDbLine
 10
636.3426887637
 20
3020.7067549247
 30
0.0
 11
640.8426887637
 21
3025.2067549247
 31
0.0
  0
LINE
  5
1FA
100
AcDbEntity
  8
______
  6
CONTINUOUS
 62
         4
100
AcDbLine
 10
632.1000480766
 20
3020.7067549247
 30
0.0
 11
636.6000480766
 21
3025.2067549247
 31
0.0
  0
LINE
  5
1FB
100
AcDbEntity
  8
______
  6
CONTINUOUS
 62
         4
100
AcDbLine
 10
627.8574073895
 20
3020.7067549247
 30
0.0
 11
631.8574073895
 21
3024.7067549247
 31
0.0
  0
LINE
  5
1FC
100
AcDbEntity
  8
______
  6
CONTINUOUS
 62
         4
100
AcDbLine
 10
624.0392678259
 20
3021.1312560483
 30
0.0
 11
627.6147667024
 21
3024.7067549247
 31
0.0
  0
ENDBLK
  5
1FD
100
AcDbEntity
  8
0
  6
CONTINUOUS
100
AcDbBlockEnd
  0
BLOCK
  5
201
100
AcDbEntity
  8
0
100
AcDbBlockBegin
  2
*X13
 70
        65
 10
0.0
 20
0.0
 30
0.0
  3
*X13
  1

  0
LINE
  5
202
100
AcDbEntity
  8
______
  6
CONTINUOUS
 62
         4
100
AcDbLine
 10
653.5706108251
 20
3025.2067549247
 30
0.0
 11
654.6531108251
 21
3026.2892549247
 31
0.0
  0
LINE
  5
203
100
AcDbEntity
  8
______
  6
CONTINUOUS
 62
         4
100
AcDbLine
 10
649.3279701379
 20
3025.2067549247
 30
0.0
 11
650.4104701379
 21
3026.2892549247
 31
0.0
  0
LINE
  5
204
100
AcDbEntity
  8
______
  6
CONTINUOUS
 62
         4
100
AcDbLine
 10
645.0853294508
 20
3025.2067549247
 30
0.0
 11
646.1678294508
 21
3026.2892549247
 31
0.0
  0
LINE
  5
205
100
AcDbEntity
  8
______
  6
CONTINUOUS
 62
         4
100
AcDbLine
 10
640.8426887637
 20
3025.2067549247
 30
0.0
 11
641.9251887637
 21
3026.2892549247
 31
0.0
  0
LINE
  5
206
100
AcDbEntity
  8
______
  6
CONTINUOUS
 62
         4
100
AcDbLine
 10
636.6000480766
 20
3025.2067549247
 30
0.0
 11
637.6825480766
 21
3026.2892549247
 31
0.0
  0
ENDBLK
  5
207
100
AcDbEntity
  8
0
  6
CONTINUOUS
100
AcDbBlockEnd
  0
BLOCK
  5
20B
100
AcDbEntity
  8
0
100
AcDbBlockBegin
  2
*X14
 70
        65
 10
0.0
 20
0.0
 30
0.0
  3
*X14
  1

  0
LINE
  5
20C
100
AcDbEntity
  8
______
  6
CONTINUOUS
 62
         4
100
AcDbLine
 10
774.16562704
 20
3022.7651912132
 30
0.0
 11
777.2570703957
 21
3025.8566345689
 31
0.0
  0
LINE
  5
20D
100
AcDbEntity
  8
______
  6
CONTINUOUS
 62
         4
100
AcDbLine
 10
767.6645500644
 20
3020.5067549247
 30
0.0
 11
776.271657907
 21
3029.1138627673
 31
0.0
  0
LINE
  5
20E
100
AcDbEntity
  8
______
  6
CONTINUOUS
 62
         4
100
AcDbLine
 10
764.2568682615
 20
3021.341713809
 30
0.0
 11
772.1529093773
 21
3029.2377549247
 31
0.0
  0
LINE
  5
20F
100
AcDbEntity
  8
______
  6
CONTINUOUS
 62
         4
100
AcDbLine
 10
763.1307245741
 20
3024.4582108087
 30
0.0
 11
767.9102686902
 21
3029.2377549247
 31
0.0
  0
LINE
  5
210
100
AcDbEntity
  8
______
  6
CONTINUOUS
 62
         4
100
AcDbLine
 10
762.4570703957
 20
3028.0271973174
 30
0.0
 11
763.667628003
 21
3029.2377549247
 31
0.0
  0
ENDBLK
  5
211
100
AcDbEntity
  8
0
  6
CONTINUOUS
100
AcDbBlockEnd
  0
BLOCK
  5
215
100
AcDbEntity
  8
0
100
AcDbBlockBegin
  2
*X15
 70
        65
 10
0.0
 20
0.0
 30
0.0
  3
*X15
  1

  0
LINE
  5
216
100
AcDbEntity
  8
______
  6
CONTINUOUS
 62
         4
100
AcDbLine
 10
763.4219093773
 20
3020.5067549247
 30
0.0
 11
764.2568682615
 21
3021.341713809
 31
0.0
  0
LINE
  5
217
100
AcDbEntity
  8
______
  6
CONTINUOUS
 62
         4
100
AcDbLine
 10
762.4570703957
 20
3023.7845566303
 30
0.0
 11
763.1307245741
 21
3024.4582108087
 31
0.0
  0
ENDBLK
  5
218
100
AcDbEntity
  8
0
  6
CONTINUOUS
100
AcDbBlockEnd
  0
BLOCK
  5
21C
100
AcDbEntity
  8
0
100
AcDbBlockBegin
  2
*X16
 70
        65
 10
0.0
 20
0.0
 30
0.0
  3
*X16
  1

  0
LINE
  5
21D
100
AcDbEntity
  8
______
  6
CONTINUOUS
 62
         4
100
AcDbLine
 10
761.9570703957
 20
3023.2845566303
 30
0.0
 11
762.4570703957
 21
3023.7845566303
 31
0.0
  0
ENDBLK
  5
21E
100
AcDbEntity
  8
0
  6
CONTINUOUS
100
AcDbBlockEnd
  0
BLOCK
  5
222
100
AcDbEntity
  8
0
100
AcDbBlockBegin
  2
*X17
 70
        65
 10
0.0
 20
0.0
 30
0.0
  3
*X17
  1

  0
LINE
  5
223
100
AcDbEntity
  8
______
  6
CONTINUOUS
 62
         4
100
AcDbLine
 10
761.9570703957
 20
3023.2845566303
 30
0.0
 11
762.4570703957
 21
3023.7845566303
 31
0.0
  0
LINE
  5
224
100
AcDbEntity
  8
______
  6
CONTINUOUS
 62
         4
100
AcDbLine
 10
761.9570703957
 20
3027.5271973174
 30
0.0
 11
762.4570703957
 21
3028.0271973174
 31
0.0
  0
ENDBLK
  5
225
100
AcDbEntity
  8
0
  6
CONTINUOUS
100
AcDbBlockEnd
  0
ENDSEC
  0
SECTION
  2
ENTITIES
  0
LINE
  5
29
100
AcDbEntity
  8
______
  6
CONTINUOUS
 62
         4
100
AcDbLine
 10
974.7840329943
 20
3035.8050926246
 30
0.0
 11
969.6532105407
 21
3035.8050926246
 31
0.0
  0
LINE
  5
2A
100
AcDbEntity
  8
______
  6
CONTINUOUS
 62
         4
100
AcDbLine
 10
975.3936281175
 20
3036.262293539
 30
0.0
 11
969.0436154175
 21
3036.262293539
 31
0.0
  0
LINE
  5
2B
100
AcDbEntity
  8
______
  6
CONTINUOUS
 62
         4
100
AcDbLine
 10
974.7840329943
 20
3035.8050926246
 30
0.0
 11
975.3936281175
 21
3036.262293539
 31
0.0
  0
LINE
  5
2C
100
AcDbEntity
  8
______
  6
CONTINUOUS
 62
         4
100
AcDbLine
 10
969.6532105407
 20
3035.8050926246
 30
0.0
 11
969.0436154175
 21
3036.262293539
 31
0.0
  0
LINE
  5
2D
100
AcDbEntity
  8
______
  6
CONTINUOUS
 62
         4
100
AcDbLine
 10
969.0436154175
 20
3036.262293539
 30
0.0
 11
969.0436154175
 21
3036.7660612132
 31
0.0
  0
LINE
  5
2E
100
AcDbEntity
  8
______
  6
CONTINUOUS
 62
         4
100
AcDbLine
 10
969.6532105407
 20
3037.2698288874
 30
0.0
 11
969.0436154175
 21
3037.7735965616
 31
0.0
  0
LINE
  5
2F
100
AcDbEntity
  8
______
  6
CONTINUOUS
 62
         4
100
AcDbLine
 10
969.0436154175
 20
3037.7735965616
 30
0.0
 11
969.6532105407
 21
3038.2773642358
 31
0.0
  0
LINE
  5
30
100
AcDbEntity
  8
______
  6
CONTINUOUS
 62
         4
100
AcDbLine
 10
975.3936281175
 20
3037.2698288874
 30
0.0
 11
974.7840329943
 21
3037.7735965616
 31
0.0
  0
LINE
  5
31
100
AcDbEntity
  8
______
  6
CONTINUOUS
 62
         4
100
AcDbLine
 10
974.7840329943
 20
3037.7735965616
 30
0.0
 11
975.3936281175
 21
3038.2773642358
 31
0.0
  0
LINE
  5
32
100
AcDbEntity
  8
______
  6
CONTINUOUS
 62
         4
100
AcDbLine
 10
975.3936281175
 20
3038.2773642358
 30
0.0
 11
969.0436154175
 21
3037.7735965616
 31
0.0
  0
LINE
  5
33
100
AcDbEntity
  8
______
  6
CONTINUOUS
 62
         4
100
AcDbLine
 10
974.7840329943
 20
3037.7735965616
 30
0.0
 11
969.6532105407
 21
3037.2698288874
 31
0.0
  0
LINE
  5
34
100
AcDbEntity
  8
______
  6
CONTINUOUS
 62
         4
100
AcDbLine
 10
969.6532105407
 20
3037.2698288874
 30
0.0
 11
969.0436154175
 21
3036.7660612132
 31
0.0
  0
LINE
  5
35
100
AcDbEntity
  8
______
  6
CONTINUOUS
 62
         4
100
AcDbLine
 10
975.3936281175
 20
3037.2698288874
 30
0.0
 11
974.7840329943
 21
3036.7660612132
 31
0.0
  0
LINE
  5
36
100
AcDbEntity
  8
______
  6
CONTINUOUS
 62
         4
100
AcDbLine
 10
974.7840329943
 20
3036.7660612132
 30
0.0
 11
975.3936281175
 21
3036.262293539
 31
0.0
  0
LINE
  5
37
100
AcDbEntity
  8
______
  6
CONTINUOUS
 62
         4
100
AcDbLine
 10
975.3936281175
 20
3037.2698288874
 30
0.0
 11
969.0436154175
 21
3036.7660612132
 31
0.0
  0
LINE
  5
38
100
AcDbEntity
  8
______
  6
CONTINUOUS
 62
         4
100
AcDbLine
 10
974.7840329943
 20
3036.7660612132
 30
0.0
 11
970.1569782149
 21
3036.262293539
 31
0.0
  0
LINE
  5
39
100
AcDbEntity
  8
______
  6
CONTINUOUS
 62
         4
100
AcDbLine
 10
975.3936281175
 20
3036.262293539
 30
0.0
 11
970.1569782149
 21
3036.262293539
 31
0.0
  0
LINE
  5
3A
100
AcDbEntity
  8
______
  6
CONTINUOUS
 62
         4
100
AcDbLine
 10
969.6532105407
 20
3038.2773642358
 30
0.0
 11
969.0436154175
 21
3038.78113191
 31
0.0
  0
LINE
  5
3B
100
AcDbEntity
  8
______
  6
CONTINUOUS
 62
         4
100
AcDbLine
 10
969.0436154175
 20
3038.78113191
 30
0.0
 11
969.6532105407
 21
3039.2848995842
 31
0.0
  0
LINE
  5
3C
100
AcDbEntity
  8
______
  6
CONTINUOUS
 62
         4
100
AcDbLine
 10
975.3936281175
 20
3038.2773642358
 30
0.0
 11
974.7840329943
 21
3038.78113191
 31
0.0
  0
LINE
  5
3D
100
AcDbEntity
  8
______
  6
CONTINUOUS
 62
         4
100
AcDbLine
 10
974.7840329943
 20
3038.78113191
 30
0.0
 11
975.3936281175
 21
3039.2848995842
 31
0.0
  0
LINE
  5
3E
100
AcDbEntity
  8
______
  6
CONTINUOUS
 62
         4
100
AcDbLine
 10
975.3936281175
 20
3039.2848995842
 30
0.0
 11
969.0436154175
 21
3038.78113191
 31
0.0
  0
LINE
  5
3F
100
AcDbEntity
  8
______
  6
CONTINUOUS
 62
         4
100
AcDbLine
 10
974.7840329943
 20
3038.78113191
 30
0.0
 11
969.6532105407
 21
3038.2773642358
 31
0.0
  0
LINE
  5
40
100
AcDbEntity
  8
______
  6
CONTINUOUS
 62
         4
100
AcDbLine
 10
969.6532105407
 20
3037.2698288874
 30
0.0
 11
969.0436154175
 21
3036.7660612132
 31
0.0
  0
LINE
  5
41
100
AcDbEntity
  8
______
  6
CONTINUOUS
 62
         4
100
AcDbLine
 10
975.3936281175
 20
3037.2698288874
 30
0.0
 11
974.7840329943
 21
3036.7660612132
 31
0.0
  0
LINE
  5
42
100
AcDbEntity
  8
______
  6
CONTINUOUS
 62
         4
100
AcDbLine
 10
974.7840329943
 20
3036.7660612132
 30
0.0
 11
975.3936281175
 21
3036.262293539
 31
0.0
  0
LINE
  5
43
100
AcDbEntity
  8
______
  6
CONTINUOUS
 62
         4
100
AcDbLine
 10
975.3936281175
 20
3037.2698288874
 30
0.0
 11
969.0436154175
 21
3036.7660612132
 31
0.0
  0
LINE
  5
44
100
AcDbEntity
  8
______
  6
CONTINUOUS
 62
         4
100
AcDbLine
 10
974.7840329943
 20
3036.7660612132
 30
0.0
 11
970.1569782149
 21
3036.262293539
 31
0.0
  0
LINE
  5
45
100
AcDbEntity
  8
______
  6
CONTINUOUS
 62
         4
100
AcDbLine
 10
975.3936281175
 20
3036.262293539
 30
0.0
 11
970.1569782149
 21
3036.262293539
 31
0.0
  0
LINE
  5
46
100
AcDbEntity
  8
______
  6
CONTINUOUS
 62
         4
100
AcDbLine
 10
969.6532105407
 20
3039.2848995842
 30
0.0
 11
969.0436154175
 21
3039.7886672584
 31
0.0
  0
LINE
  5
47
100
AcDbEntity
  8
______
  6
CONTINUOUS
 62
         4
100
AcDbLine
 10
969.0436154175
 20
3039.7886672584
 30
0.0
 11
969.6532105407
 21
3040.2924349326
 31
0.0
  0
LINE
  5
48
100
AcDbEntity
  8
______
  6
CONTINUOUS
 62
         4
100
AcDbLine
 10
975.3936281175
 20
3039.2848995842
 30
0.0
 11
974.7840329943
 21
3039.7886672584
 31
0.0
  0
LINE
  5
49
100
AcDbEntity
  8
______
  6
CONTINUOUS
 62
         4
100
AcDbLine
 10
974.7840329943
 20
3039.7886672584
 30
0.0
 11
975.3936281175
 21
3040.2924349326
 31
0.0
  0
LINE
  5
4A
100
AcDbEntity
  8
______
  6
CONTINUOUS
 62
         4
100
AcDbLine
 10
975.3936281175
 20
3040.2924349326
 30
0.0
 11
969.0436154175
 21
3039.7886672584
 31
0.0
  0
LINE
  5
4B
100
AcDbEntity
  8
______
  6
CONTINUOUS
 62
         4
100
AcDbLine
 10
974.7840329943
 20
3039.7886672584
 30
0.0
 11
969.6532105407
 21
3039.2848995842
 31
0.0
  0
LINE
  5
4C
100
AcDbEntity
  8
______
  6
CONTINUOUS
 62
         4
100
AcDbLine
 10
969.6532105407
 20
3037.2698288874
 30
0.0
 11
969.0436154175
 21
3036.7660612132
 31
0.0
  0
LINE
  5
4D
100
AcDbEntity
  8
______
  6
CONTINUOUS
 62
         4
100
AcDbLine
 10
975.3936281175
 20
3037.2698288874
 30
0.0
 11
974.7840329943
 21
3036.7660612132
 31
0.0
  0
LINE
  5
4E
100
AcDbEntity
  8
______
  6
CONTINUOUS
 62
         4
100
AcDbLine
 10
974.7840329943
 20
3036.7660612132
 30
0.0
 11
975.3936281175
 21
3036.262293539
 31
0.0
  0
LINE
  5
4F
100
AcDbEntity
  8
______
  6
CONTINUOUS
 62
         4
100
AcDbLine
 10
975.3936281175
 20
3037.2698288874
 30
0.0
 11
969.0436154175
 21
3036.7660612132
 31
0.0
  0
LINE
  5
50
100
AcDbEntity
  8
______
  6
CONTINUOUS
 62
         4
100
AcDbLine
 10
974.7840329943
 20
3036.7660612132
 30
0.0
 11
970.1569782149
 21
3036.262293539
 31
0.0
  0
LINE
  5
51
100
AcDbEntity
  8
______
  6
CONTINUOUS
 62
         4
100
AcDbLine
 10
975.3936281175
 20
3036.262293539
 30
0.0
 11
970.1569782149
 21
3036.262293539
 31
0.0
  0
LINE
  5
52
100
AcDbEntity
  8
______
  6
CONTINUOUS
 62
         4
100
AcDbLine
 10
969.6532105407
 20
3040.2924349326
 30
0.0
 11
969.0436154175
 21
3040.7962026068
 31
0.0
  0
LINE
  5
53
100
AcDbEntity
  8
______
  6
CONTINUOUS
 62
         4
100
AcDbLine
 10
969.0436154175
 20
3040.7962026068
 30
0.0
 11
969.6532105407
 21
3041.299970281
 31
0.0
  0
LINE
  5
54
100
AcDbEntity
  8
______
  6
CONTINUOUS
 62
         4
100
AcDbLine
 10
975.3936281175
 20
3040.2924349326
 30
0.0
 11
974.7840329943
 21
3040.7962026068
 31
0.0
  0
LINE
  5
55
100
AcDbEntity
  8
______
  6
CONTINUOUS
 62
         4
100
AcDbLine
 10
974.7840329943
 20
3040.7962026068
 30
0.0
 11
975.3936281175
 21
3041.299970281
 31
0.0
  0
LINE
  5
56
100
AcDbEntity
  8
______
  6
CONTINUOUS
 62
         4
100
AcDbLine
 10
975.3936281175
 20
3041.299970281
 30
0.0
 11
969.0436154175
 21
3040.7962026068
 31
0.0
  0
LINE
  5
57
100
AcDbEntity
  8
______
  6
CONTINUOUS
 62
         4
100
AcDbLine
 10
974.7840329943
 20
3040.7962026068
 30
0.0
 11
969.6532105407
 21
3040.2924349326
 31
0.0
  0
LINE
  5
58
100
AcDbEntity
  8
______
  6
CONTINUOUS
 62
         4
100
AcDbLine
 10
969.6532105407
 20
3037.2698288874
 30
0.0
 11
969.0436154175
 21
3036.7660612132
 31
0.0
  0
LINE
  5
59
100
AcDbEntity
  8
______
  6
CONTINUOUS
 62
         4
100
AcDbLine
 10
975.3936281175
 20
3037.2698288874
 30
0.0
 11
974.7840329943
 21
3036.7660612132
 31
0.0
  0
LINE
  5
5A
100
AcDbEntity
  8
______
  6
CONTINUOUS
 62
         4
100
AcDbLine
 10
974.7840329943
 20
3036.7660612132
 30
0.0
 11
975.3936281175
 21
3036.262293539
 31
0.0
  0
LINE
  5
5B
100
AcDbEntity
  8
______
  6
CONTINUOUS
 62
         4
100
AcDbLine
 10
975.3936281175
 20
3037.2698288874
 30
0.0
 11
969.0436154175
 21
3036.7660612132
 31
0.0
  0
LINE
  5
5C
100
AcDbEntity
  8
______
  6
CONTINUOUS
 62
         4
100
AcDbLine
 10
974.7840329943
 20
3036.7660612132
 30
0.0
 11
970.1569782149
 21
3036.262293539
 31
0.0
  0
LINE
  5
5D
100
AcDbEntity
  8
______
  6
CONTINUOUS
 62
         4
100
AcDbLine
 10
975.3936281175
 20
3036.262293539
 30
0.0
 11
970.1569782149
 21
3036.262293539
 31
0.0
  0
LINE
  5
5E
100
AcDbEntity
  8
______
  6
CONTINUOUS
 62
         4
100
AcDbLine
 10
969.6532105407
 20
3041.299970281
 30
0.0
 11
969.0436154175
 21
3041.8037379552
 31
0.0
  0
LINE
  5
5F
100
AcDbEntity
  8
______
  6
CONTINUOUS
 62
         4
100
AcDbLine
 10
969.0436154175
 20
3041.8037379552
 30
0.0
 11
969.6532105407
 21
3042.3075056294
 31
0.0
  0
LINE
  5
60
100
AcDbEntity
  8
______
  6
CONTINUOUS
 62
         4
100
AcDbLine
 10
975.3936281175
 20
3041.299970281
 30
0.0
 11
974.7840329943
 21
3041.8037379552
 31
0.0
  0
LINE
  5
61
100
AcDbEntity
  8
______
  6
CONTINUOUS
 62
         4
100
AcDbLine
 10
974.7840329943
 20
3041.8037379552
 30
0.0
 11
975.3936281175
 21
3042.3075056294
 31
0.0
  0
LINE
  5
62
100
AcDbEntity
  8
______
  6
CONTINUOUS
 62
         4
100
AcDbLine
 10
975.3936281175
 20
3042.3075056294
 30
0.0
 11
969.0436154175
 21
3041.8037379552
 31
0.0
  0
LINE
  5
63
100
AcDbEntity
  8
______
  6
CONTINUOUS
 62
         4
100
AcDbLine
 10
974.7840329943
 20
3041.8037379552
 30
0.0
 11
969.6532105407
 21
3041.299970281
 31
0.0
  0
LINE
  5
64
100
AcDbEntity
  8
______
  6
CONTINUOUS
 62
         4
100
AcDbLine
 10
970.5422184147
 20
3043.8061086266
 30
0.0
 11
973.8950251203
 21
3043.8061086266
 31
0.0
  0
LINE
  5
65
100
AcDbEntity
  8
______
  6
CONTINUOUS
 62
         4
100
AcDbLine
 10
969.0436154175
 20
3042.3075056294
 30
0.0
 11
975.3936281175
 21
3042.3075056294
 31
0.0
  0
LINE
  5
66
100
AcDbEntity
  8
______
  6
CONTINUOUS
 62
         4
100
AcDbLine
 10
970.5422184147
 20
3043.8061086266
 30
0.0
 11
969.0436154175
 21
3042.3075056294
 31
0.0
  0
LINE
  5
67
100
AcDbEntity
  8
______
  6
CONTINUOUS
 62
         4
100
AcDbLine
 10
973.8950251203
 20
3043.8061086266
 30
0.0
 11
975.3936281175
 21
3042.3075056294
 31
0.0
  0
LINE
  5
68
100
AcDbEntity
  8
______
  6
DASHED
 62
         2
100
AcDbLine
 10
970.3855309966
 20
3038.9800989746
 30
0.0
 11
974.0517125384
 21
3038.9800989746
 31
0.0
  0
LINE
  5
69
100
AcDbEntity
  8
______
  6
DASHED
 62
         2
100
AcDbLine
 10
970.3855309966
 20
3035.8050926246
 30
0.0
 11
970.3855309966
 21
3038.9800989746
 31
0.0
  0
LINE
  5
6A
100
AcDbEntity
  8
______
  6
DASHED
 62
         2
100
AcDbLine
 10
974.0517125384
 20
3035.8050926246
 30
0.0
 11
974.0517125384
 21
3038.9800989746
 31
0.0
  0
LINE
  5
6B
100
AcDbEntity
  8
______
  6
DASHED
 62
         2
100
AcDbLine
 10
971.3020763821
 20
3035.8050926246
 30
0.0
 11
971.3020763821
 21
3038.9800989746
 31
0.0
  0
LINE
  5
6C
100
AcDbEntity
  8
______
  6
DASHED
 62
         2
100
AcDbLine
 10
973.1351671529
 20
3035.8050926246
 30
0.0
 11
973.1351671529
 21
3038.9800989746
 31
0.0
  0
DIMENSION
  5
70
100
AcDbEntity
  8
______
  6
CONTINUOUS
 62
         4
100
AcDbDimension
  2
*D0
 10
969.0436217675
 20
3050.6463980427
 30
0.0
 11
967.7328478344
 21
3052.6713980427
 31
0.0
  3
DIMSTYLE1
100
AcDbAlignedDimension
 13
969.0436217675
 23
3042.8811086266
 33
0.0
 14
975.3936217675
 24
3042.8811086266
 34
0.0
100
AcDbRotatedDimension
  0
DIMENSION
  5
80
100
AcDbEntity
  8
______
  6
CONTINUOUS
 62
         4
100
AcDbDimension
  2
*D1
 10
959.8757073599
 20
3035.8061086266
 30
0.0
 11
957.8507073599
 21
3035.5247757387
 31
0.0
  3
DIMSTYLE1
100
AcDbAlignedDimension
 13
969.9686217675
 23
3035.8061086266
 33
0.0
 14
969.9686217675
 24
3043.8061086266
 34
0.0
 50
90.0
100
AcDbRotatedDimension
  0
DIMENSION
  5
8E
100
AcDbEntity
  8
______
  6
CONTINUOUS
 62
         4
100
AcDbDimension
  2
*D2
 10
970.3711009061
 20
3026.8201205911
 30
0.0
 11
977.4703234802
 21
3028.8451205911
 31
0.0
  3
DIMSTYLE1
100
AcDbAlignedDimension
 13
970.3711009061
 23
3035.8061086266
 33
0.0
 14
974.0661426289
 24
3035.8061086266
 34
0.0
100
AcDbRotatedDimension
  0
LINE
  5
9C
100
AcDbEntity
  8
______
  6
CENTER
 62
         1
100
AcDbLine
 10
972.2186217675
 20
3033.3534201067
 30
0.0
 11
972.2186217675
 21
3045.0561086266
 31
0.0
  0
LINE
  5
9D
100
AcDbEntity
  8
______
  6
CONTINUOUS
 62
         7
100
AcDbLine
 10
646.8570703957
 20
3165.2067549247
 30
0.0
 11
651.1695179734
 21
3165.2067549247
 31
0.0
  0
LINE
  5
9E
100
AcDbEntity
  8
______
  6
CONTINUOUS
 62
         7
100
AcDbLine
 10
652.6620090615
 20
3166.0116935906
 30
0.0
 11
651.8570703957
 21
3165.2067549247
 31
0.0
  0
LINE
  5
9F
100
AcDbEntity
  8
______
  6
CONTINUOUS
 62
         7
100
AcDbLine
 10
646.8570703957
 20
3165.2067549247
 30
0.0
 11
651.8570703957
 21
3165.2067549247
 31
0.0
  0
LINE
  5
A0
100
AcDbEntity
  8
______
  6
CONTINUOUS
 62
         7
100
AcDbLine
 10
646.8570703957
 20
3165.2067549247
 30
0.0
 11
646.3570703957
 21
3165.7067549247
 31
0.0
  0
LINE
  5
A1
100
AcDbEntity
  8
______
  6
CONTINUOUS
 62
         7
100
AcDbLine
 10
623.8570703957
 20
3164.7067549247
 30
0.0
 11
623.8570703957
 21
3141.7067549247
 31
0.0
  0
LINE
  5
A2
100
AcDbEntity
  8
______
  6
CONTINUOUS
 62
         7
100
AcDbLine
 10
646.3570703957
 20
3165.7067549247
 30
0.0
 11
624.8570703957
 21
3165.7067549247
 31
0.0
  0
LINE
  5
A3
100
AcDbEntity
  8
______
  6
CONTINUOUS
 62
         7
100
AcDbLine
 10
646.3570703957
 20
3140.7067549247
 30
0.0
 11
624.8570703957
 21
3140.7067549247
 31
0.0
  0
LINE
  5
A4
100
AcDbEntity
  8
______
  6
CONTINUOUS
 62
         7
100
AcDbLine
 10
651.8570703957
 20
3165.2067549247
 30
0.0
 11
651.8570703957
 21
3141.2067549247
 31
0.0
  0
LINE
  5
A5
100
AcDbEntity
  8
______
  6
CONTINUOUS
 62
         7
100
AcDbLine
 10
745.554753127
 20
3026.2892549247
 30
0.0
 11
633.6395703957
 21
3026.2892549247
 31
0.0
  0
LINE
  5
A6
100
AcDbEntity
  8
______
  6
CONTINUOUS
 62
         7
100
AcDbLine
 10
717.2570703957
 20
3010.9817549247
 30
0.0
 11
652.6620090615
 21
3020.4018162589
 31
0.0
  0
LINE
  5
A7
100
AcDbEntity
  8
______
  6
CONTINUOUS
 62
         7
100
AcDbLine
 10
717.2570703957
 20
3055.4317549247
 30
0.0
 11
652.6620090615
 21
3046.0116935906
 31
0.0
  0
LINE
  5
A8
100
AcDbEntity
  8
______
  6
CONTINUOUS
 62
         7
100
AcDbLine
 10
718.8570703957
 20
3002.7067549247
 30
0.0
 11
718.8570703957
 21
3010.7067549247
 31
0.0
  0
LINE
  5
A9
100
AcDbEntity
  8
______
  6
CONTINUOUS
 62
         7
100
AcDbLine
 10
728.8570703957
 20
3002.7067549247
 30
0.0
 11
728.8570703957
 21
3015.5067549247
 31
0.0
  0
LINE
  5
AA
100
AcDbEntity
  8
______
  6
CONTINUOUS
 62
         7
100
AcDbLine
 10
727.8570703957
 20
3064.7067549247
 30
0.0
 11
719.8570703957
 21
3064.7067549247
 31
0.0
  0
LINE
  5
AB
100
AcDbEntity
  8
______
  6
CONTINUOUS
 62
         7
100
AcDbLine
 10
727.8570703957
 20
3001.7067549247
 30
0.0
 11
719.8570703957
 21
3001.7067549247
 31
0.0
  0
ARC
  5
AC
100
AcDbEntity
  8
______
  6
CONTINUOUS
 62
         7
100
AcDbCircle
 10
717.9659817981
 20
3056.099224947
 30
0.0
 40
0.9736896872
100
AcDbArc
 50
223.275406058
 51
336.2294438253
  0
ARC
  5
AD
100
AcDbEntity
  8
______
  6
CONTINUOUS
 62
         7
100
AcDbCircle
 10
717.9659817981
 20
3010.3142849025
 30
0.0
 40
0.9736896872
100
AcDbArc
 50
23.7705561747
 51
136.724593942
  0
ARC
  5
AE
100
AcDbEntity
  8
______
  6
CONTINUOUS
 62
         7
100
AcDbCircle
 10
719.8570703957
 20
3063.7067549247
 30
0.0
 40
1.0
100
AcDbArc
 50
90.0
 51
180.0
  0
ARC
  5
AF
100
AcDbEntity
  8
______
  6
CONTINUOUS
 62
         7
100
AcDbCircle
 10
727.8570703957
 20
3063.7067549247
 30
0.0
 40
1.0
100
AcDbArc
 50
0.0
 51
90.0
  0
ARC
  5
B0
100
AcDbEntity
  8
______
  6
CONTINUOUS
 62
         7
100
AcDbCircle
 10
719.8570703957
 20
3002.7067549247
 30
0.0
 40
1.0
100
AcDbArc
 50
180.0
 51
270.0
  0
ARC
  5
B1
100
AcDbEntity
  8
______
  6
CONTINUOUS
 62
         7
100
AcDbCircle
 10
727.8570703957
 20
3002.7067549247
 30
0.0
 40
1.0
100
AcDbArc
 50
270.0
 51
360.0
  0
LINE
  5
B2
100
AcDbEntity
  8
______
  6
CONTINUOUS
 62
         7
100
AcDbLine
 10
718.8570703957
 20
3055.7067549247
 30
0.0
 11
718.8570703957
 21
3063.7067549247
 31
0.0
  0
LINE
  5
B3
100
AcDbEntity
  8
______
  6
CONTINUOUS
 62
         7
100
AcDbLine
 10
728.8570703957
 20
3050.9067549247
 30
0.0
 11
728.8570703957
 21
3063.7067549247
 31
0.0
  0
LINE
  5
B4
100
AcDbEntity
  8
______
  6
CONTINUOUS
 62
         7
100
AcDbLine
 10
633.6395703957
 20
3040.1242549247
 30
0.0
 11
745.554753127
 21
3040.1242549247
 31
0.0
  0
LINE
  5
B5
100
AcDbEntity
  8
______
  6
CONTINUOUS
 62
         7
100
AcDbLine
 10
728.8570703957
 20
3159.6567549247
 30
0.0
 11
718.8570703957
 21
3159.6567549247
 31
0.0
  0
LINE
  5
B6
100
AcDbEntity
  8
______
  6
CONTINUOUS
 62
         7
100
AcDbLine
 10
728.8570703957
 20
3146.7567549247
 30
0.0
 11
718.8570703957
 21
3146.7567549247
 31
0.0
  0
LINE
  5
B7
100
AcDbEntity
  8
______
  6
CONTINUOUS
 62
         7
100
AcDbLine
 10
728.8570703957
 20
3145.1567549247
 30
0.0
 11
718.8570703957
 21
3145.1567549247
 31
0.0
  0
LINE
  5
B8
100
AcDbEntity
  8
______
  6
CONTINUOUS
 62
         7
100
AcDbLine
 10
728.8570703957
 20
3161.2567549247
 30
0.0
 11
718.8570703957
 21
3161.2567549247
 31
0.0
  0
LINE
  5
B9
100
AcDbEntity
  8
______
  6
CENTER
 62
         1
100
AcDbLine
 10
702.295301721
 20
3153.2067549247
 30
0.0
 11
619.7788030296
 21
3153.2067549247
 31
0.0
  0
LINE
  5
BA
100
AcDbEntity
  8
______
  6
CENTER
 62
         1
100
AcDbLine
 10
940.3570703957
 20
3153.2067549247
 30
0.0
 11
877.3570703957
 21
3153.2067549247
 31
0.0
  0
LINE
  5
BB
100
AcDbEntity
  8
______
  6
CENTER
 62
         1
100
AcDbLine
 10
908.8570703957
 20
3118.4317549247
 30
0.0
 11
908.8570703957
 21
3187.9817549247
 31
0.0
  0
ARC
  5
BC
100
AcDbEntity
  8
______
  6
CONTINUOUS
 62
         7
100
AcDbCircle
 10
908.8570703957
 20
3153.2067549247
 30
0.0
 40
31.5
100
AcDbArc
 50
196.2836386031
 51
343.7163613969
  0
ARC
  5
BD
100
AcDbEntity
  8
______
  6
CONTINUOUS
 62
         7
100
AcDbCircle
 10
908.8570703957
 20
3153.2067549247
 30
0.0
 40
31.5
100
AcDbArc
 50
16.2836386031
 51
163.7163613969
  0
LINE
  5
BE
100
AcDbEntity
  8
______
  6
CONTINUOUS
 62
         7
100
AcDbLine
 10
884.7570703957
 20
3161.2567549247
 30
0.0
 11
879.4030476729
 21
3161.2567549247
 31
0.0
  0
ARC
  5
BF
100
AcDbEntity
  8
______
  6
CONTINUOUS
 62
         2
100
AcDbCircle
 10
518.8570703957
 20
3153.2067549247
 30
0.0
 40
8.0
100
AcDbArc
 50
253.393602324
 51
547.5053532215
  0
CIRCLE
  5
C0
100
AcDbEntity
  8
______
  6
CONTINUOUS
 62
         7
100
AcDbCircle
 10
518.8570703957
 20
3153.2067549247
 30
0.0
 40
6.9175
  0
CIRCLE
  5
C1
100
AcDbEntity
  8
______
  6
CONTINUOUS
 62
         7
100
AcDbCircle
 10
518.8570703957
 20
3153.2067549247
 30
0.0
 40
8.5
  0
CIRCLE
  5
C2
100
AcDbEntity
  8
______
  6
CONTINUOUS
 62
         7
100
AcDbCircle
 10
518.8570703957
 20
3153.2067549247
 30
0.0
 40
10.75
  0
CIRCLE
  5
C3
100
AcDbEntity
  8
______
  6
CONTINUOUS
 62
         7
100
AcDbCircle
 10
518.8570703957
 20
3153.2067549247
 30
0.0
 40
22.225
  0
CIRCLE
  5
C4
100
AcDbEntity
  8
______
  6
CONTINUOUS
 62
         7
100
AcDbCircle
 10
518.8570703957
 20
3153.2067549247
 30
0.0
 40
12.65
  0
LINE
  5
C5
100
AcDbEntity
  8
______
  6
CENTER
 62
         1
100
AcDbLine
 10
553.312006624
 20
3153.2067549247
 30
0.0
 11
484.0492351567
 21
3153.2067549247
 31
0.0
  0
ARC
  5
C6
100
AcDbEntity
  8
______
  6
CONTINUOUS
 62
         7
100
AcDbCircle
 10
518.8570703957
 20
3153.2067549247
 30
0.0
 40
31.5
100
AcDbArc
 50
16.2836386031
 51
163.7163613969
  0
LINE
  5
C7
100
AcDbEntity
  8
______
  6
CONTINUOUS
 62
         7
100
AcDbLine
 10
541.3570703957
 20
3159.6567549247
 30
0.0
 11
541.3570703957
 21
3146.7567549247
 31
0.0
  0
LINE
  5
C8
100
AcDbEntity
  8
______
  6
CONTINUOUS
 62
         7
100
AcDbLine
 10
542.9570703957
 20
3145.1567549247
 30
0.0
 11
548.3110931185
 21
3145.1567549247
 31
0.0
  0
LINE
  5
C9
100
AcDbEntity
  8
______
  6
CONTINUOUS
 62
         7
100
AcDbLine
 10
542.9570703957
 20
3161.2567549247
 30
0.0
 11
548.3110931185
 21
3161.2567549247
 31
0.0
  0
LINE
  5
CA
100
AcDbEntity
  8
______
  6
CONTINUOUS
 62
         7
100
AcDbLine
 10
494.7570703957
 20
3145.1567549247
 30
0.0
 11
489.4030476729
 21
3145.1567549247
 31
0.0
  0
LINE
  5
CB
100
AcDbEntity
  8
______
  6
CONTINUOUS
 62
         7
100
AcDbLine
 10
494.7570703957
 20
3161.2567549247
 30
0.0
 11
489.4030476729
 21
3161.2567549247
 31
0.0
  0
LINE
  5
CC
100
AcDbEntity
  8
______
  6
CONTINUOUS
 62
         7
100
AcDbLine
 10
496.3570703957
 20
3159.6567549247
 30
0.0
 11
496.3570703957
 21
3146.7567549247
 31
0.0
  0
ARC
  5
CD
100
AcDbEntity
  8
______
  6
CONTINUOUS
 62
         7
100
AcDbCircle
 10
518.8570703957
 20
3153.2067549247
 30
0.0
 40
31.5
100
AcDbArc
 50
196.2836386031
 51
343.7163613969
  0
LINE
  5
CE
100
AcDbEntity
  8
______
  6
CENTER
 62
         1
100
AcDbLine
 10
518.8570703957
 20
3121.7067549247
 30
0.0
 11
518.8570703957
 21
3184.7067549247
 31
0.0
  0
LINE
  5
CF
100
AcDbEntity
  8
______
  6
CONTINUOUS
 62
         7
100
AcDbLine
 10
717.2570703957
 20
3130.9817549247
 30
0.0
 11
652.6620090615
 21
3140.4018162589
 31
0.0
  0
LINE
  5
D0
100
AcDbEntity
  8
______
  6
CONTINUOUS
 62
         7
100
AcDbLine
 10
717.2570703957
 20
3175.4317549247
 30
0.0
 11
652.6620090615
 21
3166.0116935906
 31
0.0
  0
LINE
  5
D1
100
AcDbEntity
  8
______
  6
CONTINUOUS
 62
         7
100
AcDbLine
 10
717.2570703957
 20
3130.9817549247
 30
0.0
 11
717.2570703957
 21
3175.4317549247
 31
0.0
  0
LINE
  5
D2
100
AcDbEntity
  8
______
  6
CONTINUOUS
 62
         7
100
AcDbLine
 10
718.8570703957
 20
3122.7067549247
 30
0.0
 11
718.8570703957
 21
3183.7067549247
 31
0.0
  0
LINE
  5
D3
100
AcDbEntity
  8
______
  6
CONTINUOUS
 62
         7
100
AcDbLine
 10
728.8570703957
 20
3122.7067549247
 30
0.0
 11
728.8570703957
 21
3183.7067549247
 31
0.0
  0
LINE
  5
D4
100
AcDbEntity
  8
______
  6
CONTINUOUS
 62
         7
100
AcDbLine
 10
727.8570703957
 20
3184.7067549247
 30
0.0
 11
719.8570703957
 21
3184.7067549247
 31
0.0
  0
LINE
  5
D5
100
AcDbEntity
  8
______
  6
CONTINUOUS
 62
         7
100
AcDbLine
 10
727.8570703957
 20
3121.7067549247
 30
0.0
 11
719.8570703957
 21
3121.7067549247
 31
0.0
  0
ARC
  5
D6
100
AcDbEntity
  8
______
  6
CONTINUOUS
 62
         7
100
AcDbCircle
 10
717.9659817981
 20
3176.099224947
 30
0.0
 40
0.9736896872
100
AcDbArc
 50
223.275406058
 51
336.2294438253
  0
ARC
  5
D7
100
AcDbEntity
  8
______
  6
CONTINUOUS
 62
         7
100
AcDbCircle
 10
717.9659817981
 20
3130.3142849025
 30
0.0
 40
0.9736896872
100
AcDbArc
 50
23.7705561747
 51
136.724593942
  0
ARC
  5
D8
100
AcDbEntity
  8
______
  6
CONTINUOUS
 62
         7
100
AcDbCircle
 10
719.8570703957
 20
3183.7067549247
 30
0.0
 40
1.0
100
AcDbArc
 50
90.0
 51
180.0
  0
ARC
  5
D9
100
AcDbEntity
  8
______
  6
CONTINUOUS
 62
         7
100
AcDbCircle
 10
727.8570703957
 20
3183.7067549247
 30
0.0
 40
1.0
100
AcDbArc
 50
0.0
 51
90.0
  0
ARC
  5
DA
100
AcDbEntity
  8
______
  6
CONTINUOUS
 62
         7
100
AcDbCircle
 10
719.8570703957
 20
3122.7067549247
 30
0.0
 40
1.0
100
AcDbArc
 50
180.0
 51
270.0
  0
ARC
  5
DB
100
AcDbEntity
  8
______
  6
CONTINUOUS
 62
         7
100
AcDbCircle
 10
727.8570703957
 20
3122.7067549247
 30
0.0
 40
1.0
100
AcDbArc
 50
270.0
 51
360.0
  0
LINE
  5
DC
100
AcDbEntity
  8
______
  6
CENTER
 62
         1
100
AcDbLine
 10
778.2037721414
 20
3033.2067549247
 30
0.0
 11
619.7788030296
 21
3033.2067549247
 31
0.0
  0
LINE
  5
DD
100
AcDbEntity
  8
______
  6
CONTINUOUS
 62
         7
100
AcDbLine
 10
884.7570703957
 20
3145.1567549247
 30
0.0
 11
879.4030476729
 21
3145.1567549247
 31
0.0
  0
LINE
  5
DE
100
AcDbEntity
  8
______
  6
CONTINUOUS
 62
         7
100
AcDbLine
 10
886.3570703957
 20
3146.7567549247
 30
0.0
 11
886.3570703957
 21
3159.6567549247
 31
0.0
  0
LINE
  5
DF
100
AcDbEntity
  8
______
  6
CONTINUOUS
 62
         7
100
AcDbLine
 10
884.7570703957
 20
3161.2567549247
 30
0.0
 11
879.4030476729
 21
3161.2567549247
 31
0.0
  0
LINE
  5
E0
100
AcDbEntity
  8
______
  6
CONTINUOUS
 62
         7
100
AcDbLine
 10
932.9570703957
 20
3161.2567549247
 30
0.0
 11
938.3110931185
 21
3161.2567549247
 31
0.0
  0
LINE
  5
E1
100
AcDbEntity
  8
______
  6
CONTINUOUS
 62
         7
100
AcDbLine
 10
931.3570703957
 20
3159.6567549247
 30
0.0
 11
931.3570703957
 21
3146.7567549247
 31
0.0
  0
LINE
  5
E2
100
AcDbEntity
  8
______
  6
CONTINUOUS
 62
         7
100
AcDbLine
 10
932.9570703957
 20
3145.1567549247
 30
0.0
 11
938.3110931185
 21
3145.1567549247
 31
0.0
  0
LINE
  5
E3
100
AcDbEntity
  8
______
  6
CENTER
 62
         1
100
AcDbLine
 10
778.2037721414
 20
3153.2067549247
 30
0.0
 11
707.5582230582
 21
3153.2067549247
 31
0.0
  0
LINE
  5
E4
100
AcDbEntity
  8
______
  6
CONTINUOUS
 62
         7
100
AcDbLine
 10
646.8570703957
 20
3141.2067549247
 30
0.0
 11
646.3570703957
 21
3140.7067549247
 31
0.0
  0
LINE
  5
E5
100
AcDbEntity
  8
______
  6
CONTINUOUS
 62
         7
100
AcDbLine
 10
646.8570703957
 20
3141.2067549247
 30
0.0
 11
651.1695179734
 21
3141.2067549247
 31
0.0
  0
LINE
  5
E6
100
AcDbEntity
  8
______
  6
CONTINUOUS
 62
         7
100
AcDbLine
 10
652.6620090615
 20
3140.4018162589
 30
0.0
 11
651.8570703957
 21
3141.2067549247
 31
0.0
  0
LINE
  5
E7
100
AcDbEntity
  8
______
  6
CONTINUOUS
 62
         7
100
AcDbLine
 10
646.8570703957
 20
3141.2067549247
 30
0.0
 11
651.8570703957
 21
3141.2067549247
 31
0.0
  0
LINE
  5
E8
100
AcDbEntity
  8
______
  6
CONTINUOUS
 62
         7
100
AcDbLine
 10
646.8570703957
 20
3141.2067549247
 30
0.0
 11
646.8570703957
 21
3165.2067549247
 31
0.0
  0
LINE
  5
E9
100
AcDbEntity
  8
______
  6
CONTINUOUS
 62
         7
100
AcDbLine
 10
646.8570703957
 20
3045.2067549247
 30
0.0
 11
646.3570703957
 21
3045.7067549247
 31
0.0
  0
LINE
  5
EA
100
AcDbEntity
  8
______
  6
CONTINUOUS
 62
         7
100
AcDbLine
 10
652.6620090615
 20
3046.0116935906
 30
0.0
 11
651.8570703957
 21
3045.2067549247
 31
0.0
  0
LINE
  5
EB
100
AcDbEntity
  8
______
  6
CONTINUOUS
 62
         7
100
AcDbLine
 10
646.8570703957
 20
3045.2067549247
 30
0.0
 11
651.8570703957
 21
3045.2067549247
 31
0.0
  0
LINE
  5
EC
100
AcDbEntity
  8
______
  6
CONTINUOUS
 62
         7
100
AcDbLine
 10
646.8570703957
 20
3021.2067549247
 30
0.0
 11
646.3570703957
 21
3020.7067549247
 31
0.0
  0
LINE
  5
ED
100
AcDbEntity
  8
______
  6
CONTINUOUS
 62
         7
100
AcDbLine
 10
646.8570703957
 20
3021.2067549247
 30
0.0
 11
651.8570703957
 21
3021.2067549247
 31
0.0
  0
LINE
  5
EE
100
AcDbEntity
  8
______
  6
CONTINUOUS
 62
         7
100
AcDbLine
 10
652.6620090615
 20
3020.4018162589
 30
0.0
 11
651.8570703957
 21
3021.2067549247
 31
0.0
  0
LINE
  5
EF
100
AcDbEntity
  8
______
  6
CONTINUOUS
 62
         4
100
AcDbLine
 10
646.3570703957
 20
3165.7067549247
 30
0.0
 11
646.3570703957
 21
3140.7067549247
 31
0.0
  0
LINE
  5
F0
100
AcDbEntity
  8
______
  6
CONTINUOUS
 62
         4
100
AcDbLine
 10
652.6620090615
 20
3140.4018162589
 30
0.0
 11
652.6620090615
 21
3166.0116935906
 31
0.0
  0
ARC
  5
F1
100
AcDbEntity
  8
______
  6
CONTINUOUS
 62
         7
100
AcDbCircle
 10
494.7570703957
 20
3146.7567549247
 30
0.0
 40
1.6
100
AcDbArc
 50
270.0
 51
360.0
  0
ARC
  5
F2
100
AcDbEntity
  8
______
  6
CONTINUOUS
 62
         7
100
AcDbCircle
 10
494.7570703957
 20
3159.6567549247
 30
0.0
 40
1.6
100
AcDbArc
 50
0.0
 51
90.0
  0
ARC
  5
F3
100
AcDbEntity
  8
______
  6
CONTINUOUS
 62
         7
100
AcDbCircle
 10
542.9570703957
 20
3159.6567549247
 30
0.0
 40
1.6
100
AcDbArc
 50
90.0
 51
180.0
  0
ARC
  5
F4
100
AcDbEntity
  8
______
  6
CONTINUOUS
 62
         7
100
AcDbCircle
 10
542.9570703957
 20
3146.7567549247
 30
0.0
 40
1.6
100
AcDbArc
 50
180.0
 51
270.0
  0
ARC
  5
F5
100
AcDbEntity
  8
______
  6
CONTINUOUS
 62
         7
100
AcDbCircle
 10
932.9570703957
 20
3159.6567549247
 30
0.0
 40
1.6
100
AcDbArc
 50
90.0
 51
180.0
  0
ARC
  5
F6
100
AcDbEntity
  8
______
  6
CONTINUOUS
 62
         7
100
AcDbCircle
 10
932.9570703957
 20
3146.7567549247
 30
0.0
 40
1.6
100
AcDbArc
 50
180.0
 51
270.0
  0
ARC
  5
F7
100
AcDbEntity
  8
______
  6
CONTINUOUS
 62
         7
100
AcDbCircle
 10
884.7570703957
 20
3146.7567549247
 30
0.0
 40
1.6
100
AcDbArc
 50
270.0
 51
360.0
  0
ARC
  5
F8
100
AcDbEntity
  8
______
  6
CONTINUOUS
 62
         7
100
AcDbCircle
 10
884.7570703957
 20
3159.6567549247
 30
0.0
 40
1.6
100
AcDbArc
 50
0.0
 51
90.0
  0
LINE
  5
F9
100
AcDbEntity
  8
______
  6
CONTINUOUS
 62
         7
100
AcDbLine
 10
878.6206802927
 20
3162.039122305
 30
0.0
 11
879.4030476729
 21
3161.2567549247
 31
0.0
  0
LINE
  5
FA
100
AcDbEntity
  8
______
  6
CONTINUOUS
 62
         7
100
AcDbLine
 10
878.6206802927
 20
3144.3743875445
 30
0.0
 11
879.4030476729
 21
3145.1567549247
 31
0.0
  0
LINE
  5
FB
100
AcDbEntity
  8
______
  6
CONTINUOUS
 62
         7
100
AcDbLine
 10
939.0934604987
 20
3162.039122305
 30
0.0
 11
938.3110931185
 21
3161.2567549247
 31
0.0
  0
LINE
  5
FC
100
AcDbEntity
  8
______
  6
CONTINUOUS
 62
         7
100
AcDbLine
 10
939.0934604987
 20
3144.3743875445
 30
0.0
 11
938.3110931185
 21
3145.1567549247
 31
0.0
  0
LINE
  5
FD
100
AcDbEntity
  8
______
  6
CONTINUOUS
 62
         7
100
AcDbLine
 10
488.6206802927
 20
3144.3743875445
 30
0.0
 11
489.4030476729
 21
3145.1567549247
 31
0.0
  0
LINE
  5
FE
100
AcDbEntity
  8
______
  6
CONTINUOUS
 62
         7
100
AcDbLine
 10
488.6206802927
 20
3162.039122305
 30
0.0
 11
489.4030476729
 21
3161.2567549247
 31
0.0
  0
LINE
  5
FF
100
AcDbEntity
  8
______
  6
CONTINUOUS
 62
         7
100
AcDbLine
 10
549.0934604987
 20
3162.039122305
 30
0.0
 11
548.3110931185
 21
3161.2567549247
 31
0.0
  0
LINE
  5
100
100
AcDbEntity
  8
______
  6
CONTINUOUS
 62
         7
100
AcDbLine
 10
549.0934604987
 20
3144.3743875445
 30
0.0
 11
548.3110931185
 21
3145.1567549247
 31
0.0
  0
ARC
  5
101
100
AcDbEntity
  8
______
  6
CONTINUOUS
 62
         7
100
AcDbCircle
 10
624.8570703957
 20
3164.7067549247
 30
0.0
 40
1.0
100
AcDbArc
 50
90.0
 51
180.0
  0
ARC
  5
102
100
AcDbEntity
  8
______
  6
CONTINUOUS
 62
         7
100
AcDbCircle
 10
624.8570703957
 20
3141.7067549247
 30
0.0
 40
1.0
100
AcDbArc
 50
180.0
 51
270.0
  0
ARC
  5
103
100
AcDbEntity
  8
______
  6
CONTINUOUS
 62
         7
100
AcDbCircle
 10
625.3570703957
 20
3023.2067549247
 30
0.0
 40
1.5
100
AcDbArc
 50
145.690467044
 51
180.0
  0
LINE
  5
104
100
AcDbEntity
  8
______
  6
CONTINUOUS
 62
         7
100
AcDbLine
 10
624.1180636115
 20
3024.0522501576
 30
0.0
 11
625.2443534373
 21
3024.7025138917
 31
0.0
  0
ARC
  5
105
100
AcDbEntity
  8
______
  6
CONTINUOUS
 62
         7
100
AcDbCircle
 10
625.3570703957
 20
3043.2067549247
 30
0.0
 40
1.5
100
AcDbArc
 50
265.690467044
 51
270.0
  0
LINE
  5
106
100
AcDbEntity
  8
______
  6
CONTINUOUS
 62
         7
100
AcDbLine
 10
624.1180636115
 20
3042.3612596919
 30
0.0
 11
625.2443534373
 21
3041.7109959578
 31
0.0
  0
LINE
  5
107
100
AcDbEntity
  8
______
  6
CONTINUOUS
 62
         7
100
AcDbLine
 10
632.0570703957
 20
3041.7067549247
 30
0.0
 11
633.6395703957
 21
3040.1242549247
 31
0.0
  0
LINE
  5
108
100
AcDbEntity
  8
______
  6
CONTINUOUS
 62
         7
100
AcDbLine
 10
655.8570703957
 20
3025.2067549247
 30
0.0
 11
655.8570703957
 21
3041.2067549247
 31
0.0
  0
LINE
  5
109
100
AcDbEntity
  8
______
  6
CONTINUOUS
 62
         7
100
AcDbLine
 10
632.0570703957
 20
3024.7067549247
 30
0.0
 11
632.0570703957
 21
3041.7067549247
 31
0.0
  0
LINE
  5
10A
100
AcDbEntity
  8
______
  6
CONTINUOUS
 62
         5
100
AcDbLine
 10
655.8570703957
 20
3041.2067549247
 30
0.0
 11
632.5570703957
 21
3041.2067549247
 31
0.0
  0
LINE
  5
10B
100
AcDbEntity
  8
______
  6
CONTINUOUS
 62
         5
100
AcDbLine
 10
655.8570703957
 20
3025.2067549247
 30
0.0
 11
632.5570703957
 21
3025.2067549247
 31
0.0
  0
LINE
  5
10C
100
AcDbEntity
  8
______
  6
CONTINUOUS
 62
         7
100
AcDbLine
 10
632.0570703957
 20
3041.7067549247
 30
0.0
 11
625.3570703957
 21
3041.7067549247
 31
0.0
  0
LINE
  5
10D
100
AcDbEntity
  8
______
  6
CONTINUOUS
 62
         7
100
AcDbLine
 10
632.0570703957
 20
3024.7067549247
 30
0.0
 11
625.3570703957
 21
3024.7067549247
 31
0.0
  0
LINE
  5
10E
100
AcDbEntity
  8
______
  6
CONTINUOUS
 62
         7
100
AcDbLine
 10
632.0570703957
 20
3024.7067549247
 30
0.0
 11
633.6395703957
 21
3026.2892549247
 31
0.0
  0
LINE
  5
10F
100
AcDbEntity
  8
______
  6
CONTINUOUS
 62
         7
100
AcDbLine
 10
633.6395703957
 20
3040.1242549247
 30
0.0
 11
633.6395703957
 21
3026.2892549247
 31
0.0
  0
ARC
  5
110
100
AcDbEntity
  8
______
  6
CONTINUOUS
 62
         7
100
AcDbCircle
 10
625.3570703957
 20
3043.2067549247
 30
0.0
 40
1.5
100
AcDbArc
 50
180.0
 51
214.309532956
  0
ARC
  5
111
100
AcDbEntity
  8
______
  6
CONTINUOUS
 62
         7
100
AcDbCircle
 10
625.3570703957
 20
3023.2067549247
 30
0.0
 40
1.5
100
AcDbArc
 50
90.0
 51
94.309532956
  0
LINE
  5
112
100
AcDbEntity
  8
______
  6
CONTINUOUS
 62
         4
100
AcDbLine
 10
625.3570703957
 20
3024.7067549247
 30
0.0
 11
625.3570703957
 21
3041.7067549247
 31
0.0
  0
LINE
  5
113
100
AcDbEntity
  8
______
  6
CONTINUOUS
 62
         7
100
AcDbLine
 10
646.3570703957
 20
3045.7067549247
 30
0.0
 11
624.8570703957
 21
3045.7067549247
 31
0.0
  0
ARC
  5
114
100
AcDbEntity
  8
______
  6
CONTINUOUS
 62
         7
100
AcDbCircle
 10
624.8570703957
 20
3044.7067549247
 30
0.0
 40
1.0
100
AcDbArc
 50
90.0
 51
180.0
  0
LINE
  5
115
100
AcDbEntity
  8
______
  6
CONTINUOUS
 62
         7
100
AcDbLine
 10
623.8570703957
 20
3044.7067549247
 30
0.0
 11
623.8570703957
 21
3021.7067549247
 31
0.0
  0
ARC
  5
116
100
AcDbEntity
  8
______
  6
CONTINUOUS
 62
         7
100
AcDbCircle
 10
624.8570703957
 20
3021.7067549247
 30
0.0
 40
1.0
100
AcDbArc
 50
180.0
 51
270.0
  0
LINE
  5
117
100
AcDbEntity
  8
______
  6
CONTINUOUS
 62
         7
100
AcDbLine
 10
646.3570703957
 20
3020.7067549247
 30
0.0
 11
624.8570703957
 21
3020.7067549247
 31
0.0
  0
DIMENSION
  5
11A
100
AcDbEntity
  8
______
  6
CONTINUOUS
 62
         4
100
AcDbDimension
  2
*D3
 10
789.134544774
 20
3162.2067549247
 30
0.0
 11
787.109544774
 21
3147.7981196215
 31
0.0
  3
DIMSTYLE1
100
AcDbAlignedDimension
 13
777.2570703957
 23
3162.2067549247
 33
0.0
 14
777.2570703957
 24
3144.2067549247
 34
0.0
 50
90.0
100
AcDbRotatedDimension
  0
LINE
  5
126
100
AcDbEntity
  8
______
  6
CONTINUOUS
 62
         7
100
AcDbLine
 10
768.8790054645
 20
3165.9067549247
 30
0.0
 11
733.8570703957
 21
3165.9067549247
 31
0.0
  0
LINE
  5
127
100
AcDbEntity
  8
______
  6
CONTINUOUS
 62
         7
100
AcDbLine
 10
768.8790054645
 20
3140.5067549247
 30
0.0
 11
733.8570703957
 21
3140.5067549247
 31
0.0
  0
LINE
  5
128
100
AcDbEntity
  8
______
  6
CONTINUOUS
 62
         7
100
AcDbLine
 10
777.2570703957
 20
3145.162360316
 30
0.0
 11
777.2570703957
 21
3161.2511495335
 31
0.0
  0
LINE
  5
129
100
AcDbEntity
  8
______
  6
CONTINUOUS
 62
         7
100
AcDbLine
 10
769.724241988
 20
3165.7193704988
 30
0.0
 11
776.3909977883
 21
3162.6106112141
 31
0.0
  0
LINE
  5
12A
100
AcDbEntity
  8
______
  6
CONTINUOUS
 62
         7
100
AcDbLine
 10
769.724241988
 20
3140.6941393507
 30
0.0
 11
776.3909977883
 21
3143.8028986354
 31
0.0
  0
ARC
  5
12B
100
AcDbEntity
  8
______
  6
CONTINUOUS
 62
         7
100
AcDbCircle
 10
775.7570703957
 20
3161.2511495335
 30
0.0
 40
1.5
100
AcDbArc
 50
0.0
 51
65.0
  0
ARC
  5
12C
100
AcDbEntity
  8
______
  6
CONTINUOUS
 62
         7
100
AcDbCircle
 10
775.7570703957
 20
3145.162360316
 30
0.0
 40
1.5
100
AcDbArc
 50
295.0
 51
360.0
  0
ARC
  5
12D
100
AcDbEntity
  8
______
  6
CONTINUOUS
 62
         7
100
AcDbCircle
 10
768.8790054645
 20
3163.9067549247
 30
0.0
 40
2.0
100
AcDbArc
 50
65.0
 51
90.0
  0
ARC
  5
12E
100
AcDbEntity
  8
______
  6
CONTINUOUS
 62
         7
100
AcDbCircle
 10
768.8790054645
 20
3142.5067549247
 30
0.0
 40
2.0
100
AcDbArc
 50
270.0
 51
295.0
  0
LINE
  5
12F
100
AcDbEntity
  8
______
  6
CONTINUOUS
 62
         4
100
AcDbLine
 10
769.3223947898
 20
3140.5067549247
 30
0.0
 11
769.3223947898
 21
3165.8569871946
 31
0.0
  0
DIMENSION
  5
132
100
AcDbEntity
  8
______
  6
CONTINUOUS
 62
         4
100
AcDbDimension
  2
*D4
 10
798.9774194394
 20
3165.9067549247
 30
0.0
 11
796.9524194394
 21
3144.6499335441
 31
0.0
  3
DIMSTYLE1
100
AcDbAlignedDimension
 13
768.8790054645
 23
3165.9067549247
 33
0.0
 14
768.8790054645
 24
3140.5067549247
 34
0.0
 50
90.0
100
AcDbRotatedDimension
  0
ARC
  5
13E
100
AcDbEntity
  8
______
  6
CONTINUOUS
 62
         7
100
AcDbCircle
 10
775.7570703957
 20
3041.2511495335
 30
0.0
 40
1.5
100
AcDbArc
 50
0.0
 51
65.0
  0
LINE
  5
13F
100
AcDbEntity
  8
______
  6
CONTINUOUS
 62
         7
100
AcDbLine
 10
777.2570703957
 20
3025.162360316
 30
0.0
 11
777.2570703957
 21
3041.2511495335
 31
0.0
  0
ARC
  5
140
100
AcDbEntity
  8
______
  6
CONTINUOUS
 62
         7
100
AcDbCircle
 10
775.7570703957
 20
3025.162360316
 30
0.0
 40
1.5
100
AcDbArc
 50
295.0
 51
360.0
  0
LINE
  5
141
100
AcDbEntity
  8
______
  6
CONTINUOUS
 62
         7
100
AcDbLine
 10
769.724241988
 20
3045.7193704988
 30
0.0
 11
776.3909977883
 21
3042.6106112141
 31
0.0
  0
ARC
  5
142
100
AcDbEntity
  8
______
  6
CONTINUOUS
 62
         7
100
AcDbCircle
 10
768.8790054645
 20
3043.9067549247
 30
0.0
 40
2.0
100
AcDbArc
 50
65.0
 51
90.0
  0
LINE
  5
143
100
AcDbEntity
  8
______
  6
CONTINUOUS
 62
         7
100
AcDbLine
 10
769.724241988
 20
3020.6941393507
 30
0.0
 11
776.3909977883
 21
3023.8028986354
 31
0.0
  0
ARC
  5
144
100
AcDbEntity
  8
______
  6
CONTINUOUS
 62
         7
100
AcDbCircle
 10
768.8790054645
 20
3022.5067549247
 30
0.0
 40
2.0
100
AcDbArc
 50
270.0
 51
295.0
  0
LINE
  5
145
100
AcDbEntity
  8
______
  6
CONTINUOUS
 62
         7
100
AcDbLine
 10
768.8790054645
 20
3045.9067549247
 30
0.0
 11
733.8570703957
 21
3045.9067549247
 31
0.0
  0
LINE
  5
146
100
AcDbEntity
  8
______
  6
CONTINUOUS
 62
         7
100
AcDbLine
 10
768.8790054645
 20
3020.5067549247
 30
0.0
 11
733.8570703957
 21
3020.5067549247
 31
0.0
  0
LINE
  5
147
100
AcDbEntity
  8
______
  6
CONTINUOUS
 62
         7
100
AcDbLine
 10
775.7570703957
 20
3037.1757549247
 30
0.0
 11
747.2570703957
 21
3037.1757549247
 31
0.0
  0
LINE
  5
148
100
AcDbEntity
  8
______
  6
CONTINUOUS
 62
         7
100
AcDbLine
 10
775.7570703957
 20
3029.2377549247
 30
0.0
 11
747.2570703957
 21
3029.2377549247
 31
0.0
  0
LINE
  5
149
100
AcDbEntity
  8
______
  6
CONTINUOUS
 62
         7
100
AcDbLine
 10
747.2570703957
 20
3029.2377549247
 30
0.0
 11
747.2570703957
 21
3037.1757549247
 31
0.0
  0
ARC
  5
14A
100
AcDbEntity
  8
______
  6
CONTINUOUS
 62
         7
100
AcDbCircle
 10
775.7570703957
 20
3038.6757549247
 30
0.0
 40
1.5
100
AcDbArc
 50
270.0
 51
285.022059707
  0
LINE
  5
14B
100
AcDbEntity
  8
______
  6
CONTINUOUS
 62
         4
100
AcDbLine
 10
775.7570703957
 20
3037.1757549247
 30
0.0
 11
775.7570703957
 21
3029.2377549247
 31
0.0
  0
LINE
  5
14C
100
AcDbEntity
  8
______
  6
CONTINUOUS
 62
         7
100
AcDbLine
 10
776.8173221193
 20
3037.614686462
 30
0.0
 11
776.1458567778
 21
3037.2270157663
 31
0.0
  0
ARC
  5
14D
100
AcDbEntity
  8
______
  6
CONTINUOUS
 62
         7
100
AcDbCircle
 10
775.7570703957
 20
3038.6757549247
 30
0.0
 40
1.5
100
AcDbArc
 50
314.9779402929
 51
360.0
  0
LINE
  5
14E
100
AcDbEntity
  8
______
  6
CONTINUOUS
 62
         7
100
AcDbLine
 10
776.8173221193
 20
3028.7988233875
 30
0.0
 11
776.1458567778
 21
3029.1864940832
 31
0.0
  0
ARC
  5
14F
100
AcDbEntity
  8
______
  6
CONTINUOUS
 62
         7
100
AcDbCircle
 10
775.7570703957
 20
3027.7377549247
 30
0.0
 40
1.5
100
AcDbArc
 50
0.0
 51
45.022059707
  0
ARC
  5
150
100
AcDbEntity
  8
______
  6
CONTINUOUS
 62
         7
100
AcDbCircle
 10
775.7570703957
 20
3027.7377549247
 30
0.0
 40
1.5
100
AcDbArc
 50
74.977940293
 51
90.0
  0
LINE
  5
151
100
AcDbEntity
  8
______
  6
CONTINUOUS
 62
         7
100
AcDbLine
 10
745.554753127
 20
3040.1242549247
 30
0.0
 11
747.2570703957
 21
3037.1757549247
 31
0.0
  0
LINE
  5
152
100
AcDbEntity
  8
______
  6
CONTINUOUS
 62
         7
100
AcDbLine
 10
745.554753127
 20
3026.2892549247
 30
0.0
 11
747.2570703957
 21
3029.2377549247
 31
0.0
  0
LINE
  5
153
100
AcDbEntity
  8
______
  6
CENTER
 62
         1
100
AcDbLine
 10
759.2570703957
 20
3018.8126739931
 30
0.0
 11
759.2570703957
 21
3030.0319117633
 31
0.0
  0
LINE
  5
154
100
AcDbEntity
  8
______
  6
CONTINUOUS
 62
         7
100
AcDbLine
 10
761.9570703957
 20
3021.2967549247
 30
0.0
 11
761.9570703957
 21
3029.2377549247
 31
0.0
  0
LINE
  5
155
100
AcDbEntity
  8
______
  6
CONTINUOUS
 62
         7
100
AcDbLine
 10
756.5570703957
 20
3021.2967549247
 30
0.0
 11
756.5570703957
 21
3029.2377549247
 31
0.0
  0
LINE
  5
156
100
AcDbEntity
  8
______
  6
CONTINUOUS
 62
         4
100
AcDbLine
 10
756.0570703957
 20
3020.7967549247
 30
0.0
 11
756.0570703957
 21
3029.2377549247
 31
0.0
  0
LINE
  5
157
100
AcDbEntity
  8
______
  6
CONTINUOUS
 62
         4
100
AcDbLine
 10
762.4570703957
 20
3020.7967549247
 30
0.0
 11
762.4570703957
 21
3029.2377549247
 31
0.0
  0
LINE
  5
158
100
AcDbEntity
  8
______
  6
CONTINUOUS
 62
         7
100
AcDbLine
 10
761.9570703957
 20
3021.2967549247
 30
0.0
 11
756.5570703957
 21
3021.2967549247
 31
0.0
  0
LINE
  5
159
100
AcDbEntity
  8
______
  6
CONTINUOUS
 62
         7
100
AcDbLine
 10
762.7470703957
 20
3020.5067549247
 30
0.0
 11
761.9570703957
 21
3021.2967549247
 31
0.0
  0
LINE
  5
15A
100
AcDbEntity
  8
______
  6
CONTINUOUS
 62
         7
100
AcDbLine
 10
756.5570703957
 20
3021.2967549247
 30
0.0
 11
755.7670703957
 21
3020.5067549247
 31
0.0
  0
DIMENSION
  5
15D
100
AcDbEntity
  8
______
  6
CONTINUOUS
 62
         4
100
AcDbDimension
  2
*D5
 10
777.2570703957
 20
2997.8019985175
 30
0.0
 11
758.1944914539
 21
2999.8269985175
 31
0.0
  3
DIMSTYLE1
100
AcDbAlignedDimension
 13
777.2570703957
 23
3025.162360316
 33
0.0
 14
747.2570703957
 24
3029.2377549247
 34
0.0
100
AcDbRotatedDimension
  0
LINE
  5
169
100
AcDbEntity
  8
______
  6
CENTER
 62
         1
100
AcDbLine
 10
759.2570703957
 20
3019.9330664048
 30
0.0
 11
759.2570703957
 21
3031.6357549247
 31
0.0
  0
ARC
  5
16A
100
AcDbEntity
  8
______
  6
CONTINUOUS
 62
         7
100
AcDbCircle
 10
733.8570703957
 20
3050.9067549247
 30
0.0
 40
5.0
100
AcDbArc
 50
180.0
 51
270.0
  0
ARC
  5
16B
100
AcDbEntity
  8
______
  6
CONTINUOUS
 62
         7
100
AcDbCircle
 10
733.8570703957
 20
3015.5067549247
 30
0.0
 40
5.0
100
AcDbArc
 50
90.0
 51
180.0
  0
LINE
  5
16C
100
AcDbEntity
  8
______
  6
CONTINUOUS
 62
         7
100
AcDbLine
 10
745.554753127
 20
3040.1242549247
 30
0.0
 11
745.554753127
 21
3026.2892549247
 31
0.0
  0
ARC
  5
16D
100
AcDbEntity
  8
______
  6
CONTINUOUS
 62
         7
100
AcDbCircle
 10
733.8570703957
 20
3170.9067549247
 30
0.0
 40
5.0
100
AcDbArc
 50
180.0
 51
270.0
  0
ARC
  5
16E
100
AcDbEntity
  8
______
  6
CONTINUOUS
 62
         7
100
AcDbCircle
 10
733.8570703957
 20
3135.5067549247
 30
0.0
 40
5.0
100
AcDbArc
 50
90.0
 51
180.0
  0
CIRCLE
  5
16F
100
AcDbEntity
  8
______
  6
CONTINUOUS
 62
         7
100
AcDbCircle
 10
908.8570703957
 20
3153.2067549247
 30
0.0
 40
12.7
  0
CIRCLE
  5
170
100
AcDbEntity
  8
______
  6
CONTINUOUS
 62
         7
100
AcDbCircle
 10
908.8570703957
 20
3153.2067549247
 30
0.0
 40
9.0
  0
CIRCLE
  5
171
100
AcDbEntity
  8
______
  6
CONTINUOUS
 62
         7
100
AcDbCircle
 10
908.8570703957
 20
3153.2067549247
 30
0.0
 40
3.969
  0
LINE
  5
172
100
AcDbEntity
  8
______
  6
DASHED
 62
         2
100
AcDbLine
 10
912.0570703957
 20
3140.9165148945
 30
0.0
 11
912.0570703957
 21
3150.8587853764
 31
0.0
  0
LINE
  5
173
100
AcDbEntity
  8
______
  6
DASHED
 62
         2
100
AcDbLine
 10
905.6570703957
 20
3140.9165148945
 30
0.0
 11
905.6570703957
 21
3150.8587853764
 31
0.0
  0
LINE
  5
174
100
AcDbEntity
  8
______
  6
DASHED
 62
         2
100
AcDbLine
 10
911.5570703957
 20
3141.2970812788
 30
0.0
 11
911.5570703957
 21
3150.2976380484
 31
0.0
  0
LINE
  5
175
100
AcDbEntity
  8
______
  6
DASHED
 62
         2
100
AcDbLine
 10
906.1570703957
 20
3141.2970812788
 30
0.0
 11
906.1570703957
 21
3150.2976380484
 31
0.0
  0
LINE
  5
176
100
AcDbEntity
  8
______
  6
DASHED
 62
         2
100
AcDbLine
 10
911.5570703957
 20
3141.2970812788
 30
0.0
 11
906.1570703957
 21
3141.2970812788
 31
0.0
  0
LINE
  5
177
100
AcDbEntity
  8
______
  6
DASHED
 62
         2
100
AcDbLine
 10
906.1570703957
 20
3141.2970812788
 30
0.0
 11
905.7521421228
 21
3140.8921530059
 31
0.0
  0
LINE
  5
178
100
AcDbEntity
  8
______
  6
DASHED
 62
         2
100
AcDbLine
 10
911.9619986686
 20
3140.8921530059
 30
0.0
 11
911.5570703957
 21
3141.2970812788
 31
0.0
  0
DIMENSION
  5
17B
100
AcDbEntity
  8
______
  6
CONTINUOUS
 62
         4
100
AcDbDimension
  2
*D6
 10
777.2570703957
 20
3207.9098623757
 30
0.0
 11
741.8881737889
 21
3209.9348623757
 31
0.0
  3
DIMSTYLE1
100
AcDbAlignedDimension
 13
777.2570703957
 23
3161.2511495335
 33
0.0
 14
717.2570703957
 24
3175.4317549247
 34
0.0
100
AcDbRotatedDimension
  0
DIMENSION
  5
189
100
AcDbEntity
  8
______
  6
CONTINUOUS
 62
         4
100
AcDbDimension
  2
*D7
 10
777.2570703957
 20
3220.148712729
 30
0.0
 11
692.4477298121
 21
3222.173712729
 31
0.0
  3
DIMSTYLE1
100
AcDbAlignedDimension
 13
777.2570703957
 23
3161.2511495335
 33
0.0
 14
623.8570703957
 24
3164.7067549247
 34
0.0
100
AcDbRotatedDimension
  0
INSERT
  5
1BC
100
AcDbEntity
  8
0
  6
CONTINUOUS
100
AcDbBlockReference
  2
*X8
 10
0.0
 20
0.0
 30
0.0
  0
INSERT
  5
1C4
100
AcDbEntity
  8
0
  6
CONTINUOUS
100
AcDbBlockReference
  2
*X9
 10
0.0
 20
0.0
 30
0.0
  0
INSERT
  5
1CD
100
AcDbEntity
  8
0
  6
CONTINUOUS
100
AcDbBlockReference
  2
*X10
 10
0.0
 20
0.0
 30
0.0
  0
INSERT
  5
1D7
100
AcDbEntity
  8
0
  6
CONTINUOUS
100
AcDbBlockReference
  2
*X11
 10
0.0
 20
0.0
 30
0.0
  0
INSERT
  5
1FF
100
AcDbEntity
  8
0
  6
CONTINUOUS
100
AcDbBlockReference
  2
*X12
 10
0.0
 20
0.0
 30
0.0
  0
INSERT
  5
209
100
AcDbEntity
  8
0
  6
CONTINUOUS
100
AcDbBlockReference
  2
*X13
 10
0.0
 20
0.0
 30
0.0
  0
INSERT
  5
213
100
AcDbEntity
  8
0
  6
CONTINUOUS
100
AcDbBlockReference
  2
*X14
 10
0.0
 20
0.0
 30
0.0
  0
INSERT
  5
21A
100
AcDbEntity
  8
0
  6
CONTINUOUS
100
AcDbBlockReference
  2
*X15
 10
0.0
 20
0.0
 30
0.0
  0
INSERT
  5
220
100
AcDbEntity
  8
0
  6
CONTINUOUS
100
AcDbBlockReference
  2
*X16
 10
0.0
 20
0.0
 30
0.0
  0
INSERT
  5
227
100
AcDbEntity
  8
0
  6
CONTINUOUS
100
AcDbBlockReference
  2
*X17
 10
0.0
 20
0.0
 30
0.0
  0
TEXT
  5
229
100
AcDbEntity
  8
______
  6
CONTINUOUS
 62
         2
100
AcDbText
 10
893.4288481784
 20
3227.3925916035
 30
0.0
 40
4.5
  1
534002
 41
0.98
  7
BOX
100
AcDbText
  0
ENDSEC
  0
SECTION
  2
OBJECTS
  0
DICTIONARY
  5
19
100
AcDbDictionary
  3
ACAD_GROUP
350
1A
  3
ACAD_MLINESTYLE
350
1B
  0
DICTIONARY
  5
1A
102
{ACAD_REACTORS
330
19
102
}
100
AcDbDictionary
  0
DICTIONARY
  5
1B
102
{ACAD_REACTORS
330
19
102
}
100
AcDbDictionary
  3
STANDARD
350
1C
  0
MLINESTYLE
  5
1C
102
{ACAD_REACTORS
330
1B
102
}
100
AcDbMlineStyle
  2
STANDARD
 70
         0
  3

 62
         0
 51
90.0
 52
90.0
 71
         2
 49
0.5
 62
       256
  6
BYLAYER
 49
-0.5
 62
       256
  6
BYLAYER
  0
ENDSEC
  0
EOF
