  0
SECTION
  2
HEADER
  9
$ACADVER
  1
AC1014
  9
$ACADMAINTVER
 70
         0
  9
$DWGCODEPAGE
  3
BIG5
  9
$INSBASE
 10
0.0
 20
0.0
 30
0.0
  9
$EXTMIN
 10
2251.7027670718
 20
429.0578695632
 30
0.0
  9
$EXTMAX
 10
3039.6103724233
 20
826.2964454686
 30
0.0
  9
$LIMMIN
 10
0.0
 20
0.0
  9
$LIMMAX
 10
0.0
 20
0.0
  9
$ORTHOMODE
 70
         0
  9
$REGENMODE
 70
         1
  9
$FILLMODE
 70
         1
  9
$QTEXTMODE
 70
         0
  9
$MIRRTEXT
 70
         1
  9
$DRAGMODE
 70
         2
  9
$LTSCALE
 40
1.0
  9
$OSMODE
 70
         0
  9
$ATTMODE
 70
         1
  9
$TEXTSIZE
 40
1.5
  9
$TRACEWID
 40
0.05
  9
$TEXTSTYLE
  7
STANDARD
  9
$CLAYER
  8
0
  9
$CELTYPE
  6
CONTINUOUS
  9
$CECOLOR
 62
         4
  9
$CELTSCALE
 40
1.0
  9
$DELOBJ
 70
         1
  9
$DISPSILH
 70
         0
  9
$DIMSCALE
 40
1.0
  9
$DIMASZ
 40
0.18
  9
$DIMEXO
 40
0.0625
  9
$DIMDLI
 40
0.38
  9
$DIMRND
 40
0.0
  9
$DIMDLE
 40
0.0
  9
$DIMEXE
 40
0.25
  9
$DIMTP
 40
0.01
  9
$DIMTM
 40
-0.01
  9
$DIMTXT
 40
3.5
  9
$DIMCEN
 40
0.09
  9
$DIMTSZ
 40
0.0
  9
$DIMTOL
 70
         0
  9
$DIMLIM
 70
         0
  9
$DIMTIH
 70
         1
  9
$DIMTOH
 70
         1
  9
$DIMSE1
 70
         0
  9
$DIMSE2
 70
         0
  9
$DIMTAD
 70
         0
  9
$DIMZIN
 70
         0
  9
$DIMBLK
  1

  9
$DIMASO
 70
         1
  9
$DIMSHO
 70
         1
  9
$DIMPOST
  1

  9
$DIMAPOST
  1

  9
$DIMALT
 70
         0
  9
$DIMALTD
 70
         2
  9
$DIMALTF
 40
25.4
  9
$DIMLFAC
 40
1.0
  9
$DIMTOFL
 70
         0
  9
$DIMTVP
 40
0.0
  9
$DIMTIX
 70
         0
  9
$DIMSOXD
 70
         0
  9
$DIMSAH
 70
         0
  9
$DIMBLK1
  1

  9
$DIMBLK2
  1

  9
$DIMSTYLE
  2
STANDARD
  9
$DIMCLRD
 70
         0
  9
$DIMCLRE
 70
         0
  9
$DIMCLRT
 70
         4
  9
$DIMTFAC
 40
1.0
  9
$DIMGAP
 40
0.09
  9
$DIMJUST
 70
         0
  9
$DIMSD1
 70
         0
  9
$DIMSD2
 70
         0
  9
$DIMTOLJ
 70
         1
  9
$DIMTZIN
 70
         0
  9
$DIMALTZ
 70
         0
  9
$DIMALTTZ
 70
         0
  9
$DIMFIT
 70
         3
  9
$DIMUPT
 70
         0
  9
$DIMUNIT
 70
         2
  9
$DIMDEC
 70
         4
  9
$DIMTDEC
 70
         4
  9
$DIMALTU
 70
         2
  9
$DIMALTTD
 70
         2
  9
$DIMTXSTY
  7
STANDARD
  9
$DIMAUNIT
 70
         0
  9
$LUNITS
 70
         2
  9
$LUPREC
 70
        10
  9
$SKETCHINC
 40
0.1
  9
$FILLETRAD
 40
0.0
  9
$AUNITS
 70
         0
  9
$AUPREC
 70
         0
  9
$MENU
  1
acad
  9
$ELEVATION
 40
0.0
  9
$PELEVATION
 40
0.0
  9
$THICKNESS
 40
0.0
  9
$LIMCHECK
 70
         0
  9
$BLIPMODE
 70
         1
  9
$CHAMFERA
 40
0.0
  9
$CHAMFERB
 40
0.0
  9
$CHAMFERC
 40
0.0
  9
$CHAMFERD
 40
0.0
  9
$SKPOLY
 70
         0
  9
$TDCREATE
 40
0.000000000
  9
$TDUPDATE
 40
0.000000000
  9
$TDINDWG
 40
0.0000000000
  9
$TDUSRTIMER
 40
0.0000000000
  9
$USRTIMER
 70
         1
  9
$ANGBASE
 50
0.0
  9
$ANGDIR
 70
         0
  9
$PDMODE
 70
         2
  9
$PDSIZE
 40
0.0
  9
$PLINEWID
 40
0.0
  9
$COORDS
 70
         1
  9
$SPLFRAME
 70
         0
  9
$SPLINETYPE
 70
         6
  9
$SPLINESEGS
 70
         8
  9
$ATTDIA
 70
         0
  9
$ATTREQ
 70
         1
  9
$HANDLING
 70
         1
  9
$HANDSEED
  5
20C
  9
$SURFTAB1
 70
         6
  9
$SURFTAB2
 70
         6
  9
$SURFTYPE
 70
         6
  9
$SURFU
 70
         6
  9
$SURFV
 70
         6
  9
$UCSNAME
  2

  9
$UCSORG
 10
0.0
 20
0.0
 30
0.0
  9
$UCSXDIR
 10
1.0
 20
0.0
 30
0.0
  9
$UCSYDIR
 10
0.0
 20
1.0
 30
0.0
  9
$PUCSNAME
  2

  9
$PUCSORG
 10
0.0
 20
0.0
 30
0.0
  9
$PUCSXDIR
 10
1.0
 20
0.0
 30
0.0
  9
$PUCSYDIR
 10
0.0
 20
1.0
 30
0.0
  9
$USERI1
 70
         0
  9
$USERI2
 70
         0
  9
$USERI3
 70
         0
  9
$USERI4
 70
         0
  9
$USERI5
 70
         0
  9
$USERR1
 40
0.0
  9
$USERR2
 40
0.0
  9
$USERR3
 40
0.0
  9
$USERR4
 40
0.0
  9
$USERR5
 40
0.0
  9
$WORLDVIEW
 70
         1
  9
$SHADEDGE
 70
         3
  9
$SHADEDIF
 70
        70
  9
$TILEMODE
 70
         1
  9
$MAXACTVP
 70
        16
  9
$PINSBASE
 10
0.0
 20
0.0
 30
0.0
  9
$PLIMCHECK
 70
         0
  9
$PEXTMIN
 10
1.0000000000E+20
 20
1.0000000000E+20
 30
1.0000000000E+20
  9
$PEXTMAX
 10
-1.0000000000E+20
 20
-1.0000000000E+20
 30
-1.0000000000E+20
  9
$PLIMMIN
 10
0.0
 20
0.0
  9
$PLIMMAX
 10
12.0
 20
9.0
  9
$UNITMODE
 70
         0
  9
$VISRETAIN
 70
         0
  9
$PLINEGEN
 70
         1
  9
$PSLTSCALE
 70
         0
  9
$TREEDEPTH
 70
      3020
  9
$PICKSTYLE
 70
         1
  9
$CMLSTYLE
  2
STANDARD
  9
$CMLJUST
 70
         0
  9
$CMLSCALE
 40
1.0
  9
$PROXYGRAPHICS
 70
         0
  9
$MEASUREMENT
 70
         0
  0
ENDSEC
  0
SECTION
  2
CLASSES
  0
CLASS
  1
LWPOLYLINE
  2
AcDbPolyline
  3
"AutoCAD"
 90
        0
280
         0
281
         1
  0
CLASS
  1
IMAGE
  2
AcDbRasterImage
  3
ISM
 90
      127
280
         0
281
         1
  0
CLASS
  1
OLE2FRAME
  2
AcDbOle2Frame
  3
""
 90
        0
280
         0
281
         1
  0
CLASS
  1
HATCH
  2
AcDbHatch
  3
"ACAD_SEDONA"
 90
        0
280
         0
281
         1
  0
CLASS
  1
DICTIONARYVAR
  2
AcDbDictionaryVar
  3
"AutoCAD"
 90
        0
280
         0
281
         0
  0
CLASS
  1
RASTERVARIABLES
  2
AcDbRasterVariables
  3
ISM
 90
        0
280
         0
281
         0
  0
CLASS
  1
IMAGEDEF
  2
AcDbRasterImageDef
  3
ISM
 90
        0
280
         0
281
         0
  0
CLASS
  1
IMAGEDEF_REACTOR
  2
AcDbRasterImageDefReactor
  3
ISM
 90
        1
280
         0
281
         0
  0
CLASS
  1
IDBUFFER
  2
AcDbIdBuffer
  3
"Acad"
 90
        0
280
         0
281
         0
  0
CLASS
  1
SPATIAL_FILTER
  2
AcDbSpatialFilter
  3
"Acad"
 90
        0
280
         0
281
         0
  0
CLASS
  1
XRECORD
  2
AcDbXrecord
  3
"<Built In>"
 90
        0
280
         0
281
         0
  0
CLASS
  1
SORTENTSTABLE
  2
AcDbSortentsTable
  3
"AutoCAD"
 90
        0
280
         0
281
         0
  0
CLASS
  1
LAYER_INDEX
  2
AcDbLayerIndex
  3
"Acad"
 90
        0
280
         0
281
         0
  0
CLASS
  1
SPATIAL_INDEX
  2
AcDbSpatialIndex
  3
"Acad"
 90
        0
280
         0
281
         0
  0
CLASS
  1
OBJECT_PTR
  2
CAseDLPNTableRecord
  3
"ASE-LPNTableRecord"
 90
        1
280
         0
281
         0
  0
CLASS
  1
LAYOUT
  2
AcDbLayout
  3
"AutoCAD 2000"
 90
        1
280
         0
281
         0
  0
CLASS
  1
PLOTSETTINGS
  2
AcDbPlotSettings
  3
"AutoCAD 2000"
 90
        1
280
         0
281
         0
  0
CLASS
  1
ACDBDICTIONARYWDFLT
  2
AcDbDictionaryWithDefault
  3
"AutoCAD 2000"
 90
        1
280
         0
281
         0
  0
CLASS
  1
ACDBPLACEHOLDER
  2
AcDbPlaceHolder
  3
"AutoCAD 2000"
 90
        1
280
         0
281
         0
  0
CLASS
  1
VBA_PROJECT
  2
AcDbVbaProject
  3
"acadvba"
 90
        1
280
         0
281
         0
  0
CLASS
  1
WIPEOUT
  2
AcDbWipeout
  3
WipeOut|AutoCAD Express Tool|expresstools@autodesk.com
 90
      127
280
         0
281
         1
  0
CLASS
  1
WIPEOUTVARIABLES
  2
AcDbWipeoutVariables
  3
WipeOut|AutoCAD Express Tool|expresstools@autodesk.com
 90
        0
280
         0
281
         0
  0
CLASS
  1
RTEXT
  2
RText
  3
RText|AutoCAD Express Tool|expresstools@autodesk.com
 90
        0
280
         0
281
         1
  0
CLASS
  1
ARCALIGNEDTEXT
  2
AcDbArcAlignedText
  3
ATEXT|AutoCAD Express Tool|expresstools@autodesk.com
 90
        0
280
         0
281
         1
  0
ENDSEC
  0
SECTION
  2
TABLES
  0
TABLE
  2
VPORT
  5
7
100
AcDbSymbolTable
 70
         1
  0
VPORT
  5
15
100
AcDbSymbolTableRecord
100
AcDbViewportTableRecord
  2
*ACTIVE
 70
         0
 10
0.0
 20
0.0
 11
1.0
 21
1.0
 12
2645.6565697476
 22
627.6771575159
 13
0.0
 23
0.0
 14
1.0
 24
1.0
 15
0.0
 25
0.0
 16
0.0
 26
0.0
 36
1.0
 17
0.0
 27
0.0
 37
0.0
 40
397.2385759054
 41
1.9834619625
 42
50.0
 43
0.0
 44
0.0
 50
0.0
 51
0.0
 71
         0
 72
       100
 73
         1
 74
         1
 75
         0
 76
         0
 77
         0
 78
         0
  0
ENDTAB
  0
TABLE
  2
LTYPE
  5
4
100
AcDbSymbolTable
 70
         6
  0
LTYPE
  5
11
100
AcDbSymbolTableRecord
100
AcDbLinetypeTableRecord
  2
BYBLOCK
 70
        64
  3

 72
        65
 73
         0
 40
0.0
  0
LTYPE
  5
12
100
AcDbSymbolTableRecord
100
AcDbLinetypeTableRecord
  2
BYLAYER
 70
        64
  3

 72
        65
 73
         0
 40
0.0
  0
LTYPE
  5
13
100
AcDbSymbolTableRecord
100
AcDbLinetypeTableRecord
  2
CONTINUOUS
 70
        64
  3
Solid line
 72
        65
 73
         0
 40
0.0
  0
LTYPE
  5
1D
100
AcDbSymbolTableRecord
100
AcDbLinetypeTableRecord
  2
DASHED
 70
        64
  3
_ _ _ _ _ _ _ _ _ _ _ _ _ _ _ _
 72
        65
 73
         2
 40
0.2
 49
0.1
 74
         0
 49
-0.1
 74
         0
  0
LTYPE
  5
1E
100
AcDbSymbolTableRecord
100
AcDbLinetypeTableRecord
  2
CENTER
 70
        64
  3
___ _ ___ _ ___ _ ___ _ ___ _ ___ _ ___ _ ___ _
 72
        65
 73
         4
 40
0.95
 49
0.625
 74
         0
 49
-0.125
 74
         0
 49
0.075
 74
         0
 49
-0.125
 74
         0
  0
LTYPE
  5
1F
100
AcDbSymbolTableRecord
100
AcDbLinetypeTableRecord
  2
PHANTOM
 70
        64
  3
______  __  __  ______  __  __  ______  __  __  
 72
        65
 73
         6
 40
1.025
 49
0.625
 74
         0
 49
-0.125
 74
         0
 49
0.075
 74
         0
 49
-0.125
 74
         0
 49
0.075
 74
         0
 49
-0.125
 74
         0
  0
ENDTAB
  0
TABLE
  2
LAYER
  5
2
100
AcDbSymbolTable
 70
        10
  0
LAYER
  5
14
100
AcDbSymbolTableRecord
100
AcDbLayerTableRecord
  2
0
 70
         0
 62
         7
  6
CONTINUOUS
  0
LAYER
  5
21
100
AcDbSymbolTableRecord
100
AcDbLayerTableRecord
  2
______
 70
         0
 62
         7
  6
CONTINUOUS
  0
LAYER
  5
22
100
AcDbSymbolTableRecord
100
AcDbLayerTableRecord
  2
____
 70
         1
 62
         7
  6
CONTINUOUS
  0
LAYER
  5
23
100
AcDbSymbolTableRecord
100
AcDbLayerTableRecord
  2
____
 70
         1
 62
         7
  6
CONTINUOUS
  0
LAYER
  5
24
100
AcDbSymbolTableRecord
100
AcDbLayerTableRecord
  2
____
 70
         1
 62
         7
  6
CONTINUOUS
  0
LAYER
  5
25
100
AcDbSymbolTableRecord
100
AcDbLayerTableRecord
  2
___G__
 70
         1
 62
         7
  6
CONTINUOUS
  0
LAYER
  5
26
100
AcDbSymbolTableRecord
100
AcDbLayerTableRecord
  2
______
 70
         1
 62
         7
  6
CONTINUOUS
  0
LAYER
  5
27
100
AcDbSymbolTableRecord
100
AcDbLayerTableRecord
  2
______
 70
         1
 62
         7
  6
CONTINUOUS
  0
LAYER
  5
28
100
AcDbSymbolTableRecord
100
AcDbLayerTableRecord
  2
_____I
 70
         1
 62
         7
  6
CONTINUOUS
  0
LAYER
  5
66
100
AcDbSymbolTableRecord
100
AcDbLayerTableRecord
  2
DEFPOINTS
 70
         0
 62
        -7
  6
CONTINUOUS
  0
ENDTAB
  0
TABLE
  2
STYLE
  5
3
100
AcDbSymbolTable
 70
         8
  0
STYLE
  5
17
100
AcDbSymbolTableRecord
100
AcDbTextStyleTableRecord
  2
STANDARD
 70
         0
 40
0.0
 41
1.0
 50
0.0
 71
         0
 42
0.0
  3
txt
  4

  0
STYLE
  5
6F
100
AcDbSymbolTableRecord
100
AcDbTextStyleTableRecord
  2
BOX
 70
         0
 40
1.0
 41
1.0
 50
0.0
 71
         0
 42
0.2
  3
txt.shx
  4

  0
STYLE
  5
7E
100
AcDbSymbolTableRecord
100
AcDbTextStyleTableRecord
  2
BOX
 70
         0
 40
1.0
 41
1.0
 50
0.0
 71
         0
 42
0.2
  3
txt.shx
  4

  0
STYLE
  5
8C
100
AcDbSymbolTableRecord
100
AcDbTextStyleTableRecord
  2
BOX
 70
         0
 40
1.0
 41
1.0
 50
0.0
 71
         0
 42
0.2
  3
txt.shx
  4

  0
STYLE
  5
C2
100
AcDbSymbolTableRecord
100
AcDbTextStyleTableRecord
  2
BOX
 70
         0
 40
1.0
 41
1.0
 50
0.0
 71
         0
 42
0.2
  3
txt.shx
  4

  0
STYLE
  5
D0
100
AcDbSymbolTableRecord
100
AcDbTextStyleTableRecord
  2
BOX
 70
         0
 40
1.0
 41
1.0
 50
0.0
 71
         0
 42
0.2
  3
txt.shx
  4

  0
STYLE
  5
181
100
AcDbSymbolTableRecord
100
AcDbTextStyleTableRecord
  2
BOX
 70
         0
 40
1.0
 41
1.0
 50
0.0
 71
         0
 42
0.2
  3
txt.shx
  4

  0
STYLE
  5
20A
100
AcDbSymbolTableRecord
100
AcDbTextStyleTableRecord
  2
BOX
 70
         0
 40
1.0
 41
1.0
 50
0.0
 71
         0
 42
0.2
  3
txt.shx
  4

  0
ENDTAB
  0
TABLE
  2
VIEW
  5
5
100
AcDbSymbolTable
 70
         0
  0
ENDTAB
  0
TABLE
  2
UCS
  5
6
100
AcDbSymbolTable
 70
         1
  0
UCS
  5
20
100
AcDbSymbolTableRecord
100
AcDbUCSTableRecord
  2
CK_VIEW_1
 70
         0
 10
0.0
 20
0.0
 30
1.0
 11
1.0
 21
0.0
 31
0.0
 12
0.0
 22
1.0
 32
0.0
  0
ENDTAB
  0
TABLE
  2
APPID
  5
8
100
AcDbSymbolTable
 70
         1
  0
APPID
  5
16
100
AcDbSymbolTableRecord
100
AcDbRegAppTableRecord
  2
ACAD
 70
         0
  0
ENDTAB
  0
TABLE
  2
DIMSTYLE
  5
9
100
AcDbSymbolTable
 70
         2
  0
DIMSTYLE
105
18
100
AcDbSymbolTableRecord
100
AcDbDimStyleTableRecord
  2
STANDARD
 70
         0
  3

  4

  5

  6

  7

 40
1.0
 41
0.18
 42
0.0625
 43
0.38
 44
0.18
 45
0.0
 46
0.0
 47
0.0
 48
0.0
 71
         0
 72
         0
 73
         1
 74
         1
 75
         0
 76
         0
 77
         0
 78
         0
140
0.18
141
0.09
142
0.0
143
25.4
144
1.0
145
0.0
146
1.0
147
0.09
170
         0
171
         2
172
         0
173
         0
174
         0
175
         0
176
         0
177
         0
178
         0
270
         2
271
         4
272
         4
273
         2
274
         2
275
         0
280
         0
281
         0
282
         0
283
         1
284
         0
285
         0
286
         0
287
         0
288
         0
340
17
  0
DIMSTYLE
105
62
100
AcDbSymbolTableRecord
100
AcDbDimStyleTableRecord
  2
DIMSTYLE1
 70
         0
  3

  4

  5

  6

  7

 40
1.0
 41
3.5
 42
0.0625
 43
0.38
 44
3.5
 45
0.0
 46
0.0
 47
0.0
 48
0.0
 71
         0
 72
         0
 73
         1
 74
         1
 75
         0
 76
         0
 77
         0
 78
         0
140
3.5
141
0.09
142
0.0
143
25.4
144
1.0
145
0.0
146
1.0
147
0.09
170
         0
171
         2
172
         0
173
         0
174
         0
175
         0
176
         0
177
         0
178
         0
270
         2
271
         4
272
         4
273
         2
274
         2
275
         0
280
         0
281
         0
282
         0
283
         1
284
         0
285
         0
286
         0
287
         0
288
         0
340
17
  0
ENDTAB
  0
TABLE
  2
BLOCK_RECORD
  5
1
100
AcDbSymbolTable
 70
         7
  0
BLOCK_RECORD
  5
A
100
AcDbSymbolTableRecord
100
AcDbBlockTableRecord
  2
*MODEL_SPACE
  0
BLOCK_RECORD
  5
B
100
AcDbSymbolTableRecord
100
AcDbBlockTableRecord
  2
*PAPER_SPACE
  0
BLOCK_RECORD
  5
63
100
AcDbSymbolTableRecord
100
AcDbBlockTableRecord
  2
*D0
  0
BLOCK_RECORD
  5
73
100
AcDbSymbolTableRecord
100
AcDbBlockTableRecord
  2
*D1
  0
BLOCK_RECORD
  5
81
100
AcDbSymbolTableRecord
100
AcDbBlockTableRecord
  2
*D2
  0
BLOCK_RECORD
  5
B7
100
AcDbSymbolTableRecord
100
AcDbBlockTableRecord
  2
*D3
  0
BLOCK_RECORD
  5
C5
100
AcDbSymbolTableRecord
100
AcDbBlockTableRecord
  2
*D4
  0
BLOCK_RECORD
  5
176
100
AcDbSymbolTableRecord
100
AcDbBlockTableRecord
  2
*D5
  0
BLOCK_RECORD
  5
188
100
AcDbSymbolTableRecord
100
AcDbBlockTableRecord
  2
*X6
  0
ENDTAB
  0
ENDSEC
  0
SECTION
  2
BLOCKS
  0
BLOCK
  5
D
100
AcDbEntity
  8
0
100
AcDbBlockBegin
  2
*MODEL_SPACE
 70
         0
 10
0.0
 20
0.0
 30
0.0
  3
*MODEL_SPACE
  1

  0
ENDBLK
  5
E
100
AcDbEntity
  8
0
100
AcDbBlockEnd
  0
BLOCK
  5
F
100
AcDbEntity
 67
         1
  8
0
100
AcDbBlockBegin
  2
*PAPER_SPACE
 70
         0
 10
0.0
 20
0.0
 30
0.0
  3
*PAPER_SPACE
  1

  0
ENDBLK
  5
10
100
AcDbEntity
 67
         1
  8
0
100
AcDbBlockEnd
  0
BLOCK
  5
64
100
AcDbEntity
  8
0
100
AcDbBlockBegin
  2
*D0
 70
        65
 10
0.0
 20
0.0
 30
0.0
  3
*D0
  1

  0
POINT
  5
67
100
AcDbEntity
  8
DEFPOINTS
  6
CONTINUOUS
 62
         0
100
AcDbPoint
 10
2868.6848365909
 20
542.0443371226
 30
0.0
  0
POINT
  5
68
100
AcDbEntity
  8
DEFPOINTS
  6
CONTINUOUS
 62
         0
100
AcDbPoint
 10
2868.6848365909
 20
554.7906522669
 30
0.0
  0
POINT
  5
69
100
AcDbEntity
  8
DEFPOINTS
  6
CONTINUOUS
 62
         0
100
AcDbPoint
 10
2875.1511596058
 20
554.7906522669
 30
0.0
  0
LINE
  5
6A
100
AcDbEntity
  8
______
  6
CONTINUOUS
 62
         4
100
AcDbLine
 10
2868.6848365909
 20
553.0406522669
 30
0.0
 11
2868.6848365909
 21
541.1693371226
 31
0.0
  0
LINE
  5
6B
100
AcDbEntity
  8
______
  6
CONTINUOUS
 62
         4
100
AcDbLine
 10
2875.1511596058
 20
553.0406522669
 30
0.0
 11
2875.1511596058
 21
541.1693371226
 31
0.0
  0
LINE
  5
6C
100
AcDbEntity
  8
______
  6
CONTINUOUS
 62
         4
100
AcDbLine
 10
2868.6848365909
 20
542.0443371226
 30
0.0
 11
2875.1511596058
 21
542.0443371226
 31
0.0
  0
SOLID
  5
6D
100
AcDbEntity
  8
______
  6
CONTINUOUS
 62
         4
100
AcDbTrace
 10
2868.6848365909
 20
542.0443371226
 30
0.0
 11
2872.1848365909
 21
542.5693371226
 31
0.0
 12
2872.1848365909
 22
541.5193371226
 32
0.0
 13
2868.6848365909
 23
542.0443371226
 33
0.0
  0
SOLID
  5
6E
100
AcDbEntity
  8
______
  6
CONTINUOUS
 62
         4
100
AcDbTrace
 10
2875.1511596058
 20
542.0443371226
 30
0.0
 11
2871.6511596058
 21
541.5193371226
 31
0.0
 12
2871.6511596058
 22
542.5693371226
 32
0.0
 13
2875.1511596058
 23
542.0443371226
 33
0.0
  0
TEXT
  5
70
100
AcDbEntity
  8
______
  6
CONTINUOUS
 62
         4
100
AcDbText
 10
2861.4179980984
 20
544.6693371226
 30
0.0
 40
3.5
  1
5.6Hex
  7
BOX
100
AcDbText
  0
ENDBLK
  5
71
100
AcDbEntity
  8
0
  6
CONTINUOUS
100
AcDbBlockEnd
  0
BLOCK
  5
74
100
AcDbEntity
  8
0
100
AcDbBlockBegin
  2
*D1
 70
        65
 10
0.0
 20
0.0
 30
0.0
  3
*D1
  1

  0
POINT
  5
76
100
AcDbEntity
  8
DEFPOINTS
  6
CONTINUOUS
 62
         0
100
AcDbPoint
 10
2866.3553869732
 20
570.4704908925
 30
0.0
  0
POINT
  5
77
100
AcDbEntity
  8
DEFPOINTS
  6
CONTINUOUS
 62
         0
100
AcDbPoint
 10
2866.3553869732
 20
562.5884678626
 30
0.0
  0
POINT
  5
78
100
AcDbEntity
  8
DEFPOINTS
  6
CONTINUOUS
 62
         0
100
AcDbPoint
 10
2877.4806092236
 20
562.5884678626
 30
0.0
  0
LINE
  5
79
100
AcDbEntity
  8
______
  6
CONTINUOUS
 62
         4
100
AcDbLine
 10
2866.3553869732
 20
564.3384678626
 30
0.0
 11
2866.3553869732
 21
571.3454908925
 31
0.0
  0
LINE
  5
7A
100
AcDbEntity
  8
______
  6
CONTINUOUS
 62
         4
100
AcDbLine
 10
2877.4806092236
 20
564.3384678626
 30
0.0
 11
2877.4806092236
 21
571.3454908925
 31
0.0
  0
LINE
  5
7B
100
AcDbEntity
  8
______
  6
CONTINUOUS
 62
         4
100
AcDbLine
 10
2866.3553869732
 20
570.4704908925
 30
0.0
 11
2877.4806092236
 21
570.4704908925
 31
0.0
  0
SOLID
  5
7C
100
AcDbEntity
  8
______
  6
CONTINUOUS
 62
         4
100
AcDbTrace
 10
2866.3553869732
 20
570.4704908925
 30
0.0
 11
2869.8553869732
 21
570.9954908925
 31
0.0
 12
2869.8553869732
 22
569.9454908925
 32
0.0
 13
2866.3553869732
 23
570.4704908925
 33
0.0
  0
SOLID
  5
7D
100
AcDbEntity
  8
______
  6
CONTINUOUS
 62
         4
100
AcDbTrace
 10
2877.4806092236
 20
570.4704908925
 30
0.0
 11
2873.9806092236
 21
569.9454908925
 31
0.0
 12
2873.9806092236
 22
570.9954908925
 32
0.0
 13
2877.4806092236
 23
570.4704908925
 33
0.0
  0
TEXT
  5
7F
100
AcDbEntity
  8
______
  6
CONTINUOUS
 62
         4
100
AcDbText
 10
2852.6679980984
 20
573.0954908925
 30
0.0
 40
3.5
  1
7/16"-20UNF
  7
BOX
100
AcDbText
  0
ENDBLK
  5
80
100
AcDbEntity
  8
0
  6
CONTINUOUS
100
AcDbBlockEnd
  0
BLOCK
  5
82
100
AcDbEntity
  8
0
100
AcDbBlockBegin
  2
*D2
 70
        65
 10
0.0
 20
0.0
 30
0.0
  3
*D2
  1

  0
POINT
  5
84
100
AcDbEntity
  8
DEFPOINTS
  6
CONTINUOUS
 62
         0
100
AcDbPoint
 10
2862.4831103083
 20
564.950672587
 30
0.0
  0
POINT
  5
85
100
AcDbEntity
  8
DEFPOINTS
  6
CONTINUOUS
 62
         0
100
AcDbPoint
 10
2868.7175916976
 20
564.950672587
 30
0.0
  0
POINT
  5
86
100
AcDbEntity
  8
DEFPOINTS
  6
CONTINUOUS
 62
         0
100
AcDbPoint
 10
2867.2020468665
 20
554.7906522669
 30
0.0
  0
LINE
  5
87
100
AcDbEntity
  8
______
  6
CONTINUOUS
 62
         4
100
AcDbLine
 10
2866.9675916976
 20
564.950672587
 30
0.0
 11
2861.6081103083
 21
564.950672587
 31
0.0
  0
LINE
  5
88
100
AcDbEntity
  8
______
  6
CONTINUOUS
 62
         4
100
AcDbLine
 10
2865.4520468665
 20
554.7906522669
 30
0.0
 11
2861.6081103083
 21
554.7906522669
 31
0.0
  0
LINE
  5
89
100
AcDbEntity
  8
______
  6
CONTINUOUS
 62
         4
100
AcDbLine
 10
2862.4831103083
 20
564.950672587
 30
0.0
 11
2862.4831103083
 21
554.7906522669
 31
0.0
  0
SOLID
  5
8A
100
AcDbEntity
  8
______
  6
CONTINUOUS
 62
         4
100
AcDbTrace
 10
2862.4831103083
 20
564.950672587
 30
0.0
 11
2863.0081103083
 21
561.450672587
 31
0.0
 12
2861.9581103083
 22
561.450672587
 32
0.0
 13
2862.4831103083
 23
564.950672587
 33
0.0
  0
SOLID
  5
8B
100
AcDbEntity
  8
______
  6
CONTINUOUS
 62
         4
100
AcDbTrace
 10
2862.4831103083
 20
554.7906522669
 30
0.0
 11
2861.9581103083
 21
558.2906522669
 31
0.0
 12
2863.0081103083
 22
558.2906522669
 32
0.0
 13
2862.4831103083
 23
554.7906522669
 33
0.0
  0
TEXT
  5
8D
100
AcDbEntity
  8
______
  6
CONTINUOUS
 62
         4
100
AcDbText
 10
2859.8581103083
 20
556.370662427
 30
0.0
 40
3.5
  1
10
 50
90.0
  7
BOX
100
AcDbText
  0
ENDBLK
  5
8E
100
AcDbEntity
  8
0
  6
CONTINUOUS
100
AcDbBlockEnd
  0
BLOCK
  5
B8
100
AcDbEntity
  8
0
100
AcDbBlockBegin
  2
*D3
 70
        65
 10
0.0
 20
0.0
 30
0.0
  3
*D3
  1

  0
POINT
  5
BA
100
AcDbEntity
  8
DEFPOINTS
  6
CONTINUOUS
 62
         0
100
AcDbPoint
 10
2517.7957952478
 20
802.1151465639
 30
0.0
  0
POINT
  5
BB
100
AcDbEntity
  8
DEFPOINTS
  6
CONTINUOUS
 62
         0
100
AcDbPoint
 10
2517.7957952478
 20
723.5171119828
 30
0.0
  0
POINT
  5
BC
100
AcDbEntity
  8
DEFPOINTS
  6
CONTINUOUS
 62
         0
100
AcDbPoint
 10
2759.5957952478
 20
717.4115065916
 30
0.0
  0
LINE
  5
BD
100
AcDbEntity
  8
______
  6
CONTINUOUS
 62
         4
100
AcDbLine
 10
2517.7957952478
 20
725.2671119828
 30
0.0
 11
2517.7957952478
 21
802.9901465639
 31
0.0
  0
LINE
  5
BE
100
AcDbEntity
  8
______
  6
CONTINUOUS
 62
         4
100
AcDbLine
 10
2759.5957952478
 20
719.1615065916
 30
0.0
 11
2759.5957952478
 21
802.9901465639
 31
0.0
  0
LINE
  5
BF
100
AcDbEntity
  8
______
  6
CONTINUOUS
 62
         4
100
AcDbLine
 10
2517.7957952478
 20
802.1151465639
 30
0.0
 11
2759.5957952478
 21
802.1151465639
 31
0.0
  0
SOLID
  5
C0
100
AcDbEntity
  8
______
  6
CONTINUOUS
 62
         4
100
AcDbTrace
 10
2517.7957952478
 20
802.1151465639
 30
0.0
 11
2521.2957952478
 21
802.6401465639
 31
0.0
 12
2521.2957952478
 22
801.5901465639
 32
0.0
 13
2517.7957952478
 23
802.1151465639
 33
0.0
  0
SOLID
  5
C1
100
AcDbEntity
  8
______
  6
CONTINUOUS
 62
         4
100
AcDbTrace
 10
2759.5957952478
 20
802.1151465639
 30
0.0
 11
2756.0957952478
 21
801.5901465639
 31
0.0
 12
2756.0957952478
 22
802.6401465639
 32
0.0
 13
2759.5957952478
 23
802.1151465639
 33
0.0
  0
TEXT
  5
C3
100
AcDbEntity
  8
______
  6
CONTINUOUS
 62
         4
100
AcDbText
 10
2624.4366727016
 20
804.7401465639
 30
0.0
 40
3.5
  1
241.8
  7
BOX
100
AcDbText
  0
ENDBLK
  5
C4
100
AcDbEntity
  8
0
  6
CONTINUOUS
100
AcDbBlockEnd
  0
BLOCK
  5
C6
100
AcDbEntity
  8
0
100
AcDbBlockBegin
  2
*D4
 70
        65
 10
0.0
 20
0.0
 30
0.0
  3
*D4
  1

  0
POINT
  5
C8
100
AcDbEntity
  8
DEFPOINTS
  6
CONTINUOUS
 62
         0
100
AcDbPoint
 10
2644.5957952478
 20
789.908769119
 30
0.0
  0
POINT
  5
C9
100
AcDbEntity
  8
DEFPOINTS
  6
CONTINUOUS
 62
         0
100
AcDbPoint
 10
2644.5957952478
 20
740.7921119828
 30
0.0
  0
POINT
  5
CA
100
AcDbEntity
  8
DEFPOINTS
  6
CONTINUOUS
 62
         0
100
AcDbPoint
 10
2759.5957952478
 20
717.4115065916
 30
0.0
  0
LINE
  5
CB
100
AcDbEntity
  8
______
  6
CONTINUOUS
 62
         4
100
AcDbLine
 10
2644.5957952478
 20
742.5421119828
 30
0.0
 11
2644.5957952478
 21
790.783769119
 31
0.0
  0
LINE
  5
CC
100
AcDbEntity
  8
______
  6
CONTINUOUS
 62
         4
100
AcDbLine
 10
2759.5957952478
 20
719.1615065916
 30
0.0
 11
2759.5957952478
 21
790.783769119
 31
0.0
  0
LINE
  5
CD
100
AcDbEntity
  8
______
  6
CONTINUOUS
 62
         4
100
AcDbLine
 10
2644.5957952478
 20
789.908769119
 30
0.0
 11
2759.5957952478
 21
789.908769119
 31
0.0
  0
SOLID
  5
CE
100
AcDbEntity
  8
______
  6
CONTINUOUS
 62
         4
100
AcDbTrace
 10
2644.5957952478
 20
789.908769119
 30
0.0
 11
2648.0957952478
 21
790.433769119
 31
0.0
 12
2648.0957952478
 22
789.383769119
 32
0.0
 13
2644.5957952478
 23
789.908769119
 33
0.0
  0
SOLID
  5
CF
100
AcDbEntity
  8
______
  6
CONTINUOUS
 62
         4
100
AcDbTrace
 10
2759.5957952478
 20
789.908769119
 30
0.0
 11
2756.0957952478
 21
789.383769119
 31
0.0
 12
2756.0957952478
 22
790.433769119
 32
0.0
 13
2759.5957952478
 23
789.908769119
 33
0.0
  0
TEXT
  5
D1
100
AcDbEntity
  8
______
  6
CONTINUOUS
 62
         4
100
AcDbText
 10
2696.8457952478
 20
792.533769119
 30
0.0
 40
3.5
  1
115
  7
BOX
100
AcDbText
  0
ENDBLK
  5
D2
100
AcDbEntity
  8
0
  6
CONTINUOUS
100
AcDbBlockEnd
  0
BLOCK
  5
177
100
AcDbEntity
  8
0
100
AcDbBlockBegin
  2
*D5
 70
        65
 10
0.0
 20
0.0
 30
0.0
  3
*D5
  1

  0
POINT
  5
179
100
AcDbEntity
  8
DEFPOINTS
  6
CONTINUOUS
 62
         0
100
AcDbPoint
 10
2801.4493453521
 20
754.6171119828
 30
0.0
  0
POINT
  5
17A
100
AcDbEntity
  8
DEFPOINTS
  6
CONTINUOUS
 62
         0
100
AcDbPoint
 10
2657.7957952478
 20
754.6171119828
 30
0.0
  0
POINT
  5
17B
100
AcDbEntity
  8
DEFPOINTS
  6
CONTINUOUS
 62
         0
100
AcDbPoint
 10
2657.7957952478
 20
657.1171119828
 30
0.0
  0
LINE
  5
17C
100
AcDbEntity
  8
______
  6
CONTINUOUS
 62
         4
100
AcDbLine
 10
2659.5457952478
 20
754.6171119828
 30
0.0
 11
2802.3243453521
 21
754.6171119828
 31
0.0
  0
LINE
  5
17D
100
AcDbEntity
  8
______
  6
CONTINUOUS
 62
         4
100
AcDbLine
 10
2659.5457952478
 20
657.1171119828
 30
0.0
 11
2802.3243453521
 21
657.1171119828
 31
0.0
  0
LINE
  5
17E
100
AcDbEntity
  8
______
  6
CONTINUOUS
 62
         4
100
AcDbLine
 10
2801.4493453521
 20
754.6171119828
 30
0.0
 11
2801.4493453521
 21
657.1171119828
 31
0.0
  0
SOLID
  5
17F
100
AcDbEntity
  8
______
  6
CONTINUOUS
 62
         4
100
AcDbTrace
 10
2801.4493453521
 20
754.6171119828
 30
0.0
 11
2801.9743453521
 21
751.1171119828
 31
0.0
 12
2800.9243453521
 22
751.1171119828
 32
0.0
 13
2801.4493453521
 23
754.6171119828
 33
0.0
  0
SOLID
  5
180
100
AcDbEntity
  8
______
  6
CONTINUOUS
 62
         4
100
AcDbTrace
 10
2801.4493453521
 20
657.1171119828
 30
0.0
 11
2800.9243453521
 21
660.6171119828
 31
0.0
 12
2801.9743453521
 22
660.6171119828
 32
0.0
 13
2801.4493453521
 23
657.1171119828
 33
0.0
  0
TEXT
  5
182
100
AcDbEntity
  8
______
  6
CONTINUOUS
 62
         4
100
AcDbText
 10
2798.8243453521
 20
691.6336441598
 30
0.0
 40
3.5
  1
崷97.5
 50
90.0
  7
BOX
100
AcDbText
  0
ENDBLK
  5
183
100
AcDbEntity
  8
0
  6
CONTINUOUS
100
AcDbBlockEnd
  0
BLOCK
  5
189
100
AcDbEntity
  8
0
100
AcDbBlockBegin
  2
*X6
 70
        65
 10
0.0
 20
0.0
 30
0.0
  3
*X6
  1

  0
LINE
  5
18A
100
AcDbEntity
  8
______
  6
CONTINUOUS
 62
         4
100
AcDbLine
 10
2755.8815513374
 20
481.6351316031
 30
0.0
 11
2759.5957952478
 21
485.3493755135
 31
0.0
  0
LINE
  5
18B
100
AcDbEntity
  8
______
  6
CONTINUOUS
 62
         4
100
AcDbLine
 10
2748.37089103
 20
478.3671119828
 30
0.0
 11
2759.109077392
 21
489.1052983448
 31
0.0
  0
LINE
  5
18C
100
AcDbEntity
  8
______
  6
CONTINUOUS
 62
         4
100
AcDbLine
 10
2744.1282503429
 20
478.3671119828
 30
0.0
 11
2755.2782503429
 21
489.5171119828
 31
0.0
  0
LINE
  5
18D
100
AcDbEntity
  8
______
  6
CONTINUOUS
 62
         4
100
AcDbLine
 10
2742.0957952478
 20
480.5772975749
 30
0.0
 11
2751.0356096557
 21
489.5171119828
 31
0.0
  0
LINE
  5
18E
100
AcDbEntity
  8
______
  6
CONTINUOUS
 62
         4
100
AcDbLine
 10
2742.0957952478
 20
484.819938262
 30
0.0
 11
2746.7929689686
 21
489.5171119828
 31
0.0
  0
LINE
  5
18F
100
AcDbEntity
  8
______
  6
CONTINUOUS
 62
         4
100
AcDbLine
 10
2742.0957952478
 20
489.0625789491
 30
0.0
 11
2742.5503282815
 21
489.5171119828
 31
0.0
  0
LINE
  5
190
100
AcDbEntity
  8
______
  6
CONTINUOUS
 62
         4
100
AcDbLine
 10
2755.2503282815
 20
502.2171119828
 30
0.0
 11
2759.5957952478
 21
506.5625789491
 31
0.0
  0
LINE
  5
191
100
AcDbEntity
  8
______
  6
CONTINUOUS
 62
         4
100
AcDbLine
 10
2727.1576875944
 20
478.3671119828
 30
0.0
 11
2732.0957952478
 21
483.3052196362
 31
0.0
  0
LINE
  5
192
100
AcDbEntity
  8
______
  6
CONTINUOUS
 62
         4
100
AcDbLine
 10
2751.0076875944
 20
502.2171119828
 30
0.0
 11
2757.9330421142
 21
509.1424665026
 31
0.0
  0
LINE
  5
193
100
AcDbEntity
  8
______
  6
CONTINUOUS
 62
         4
100
AcDbLine
 10
2722.9150469073
 20
478.3671119828
 30
0.0
 11
2732.0957952478
 21
487.5478603233
 31
0.0
  0
LINE
  5
194
100
AcDbEntity
  8
______
  6
CONTINUOUS
 62
         4
100
AcDbLine
 10
2746.7650469073
 20
502.2171119828
 30
0.0
 11
2755.0396243083
 21
510.4916893838
 31
0.0
  0
LINE
  5
195
100
AcDbEntity
  8
______
  6
CONTINUOUS
 62
         4
100
AcDbLine
 10
2718.5838746384
 20
478.2785804011
 30
0.0
 11
2729.8224062201
 21
489.5171119828
 31
0.0
  0
LINE
  5
196
100
AcDbEntity
  8
______
  6
CONTINUOUS
 62
         4
100
AcDbLine
 10
2742.5224062202
 20
502.2171119828
 30
0.0
 11
2752.1462065023
 21
511.8409122649
 31
0.0
  0
LINE
  5
197
100
AcDbEntity
  8
______
  6
CONTINUOUS
 62
         4
100
AcDbLine
 10
2713.9344631544
 20
477.8718096042
 30
0.0
 11
2725.579765533
 21
489.5171119828
 31
0.0
  0
LINE
  5
198
100
AcDbEntity
  8
______
  6
CONTINUOUS
 62
         4
100
AcDbLine
 10
2738.279765533
 20
502.2171119828
 30
0.0
 11
2749.252674089
 21
513.1900205387
 31
0.0
  0
LINE
  5
199
100
AcDbEntity
  8
______
  6
CONTINUOUS
 62
         4
100
AcDbLine
 10
2709.2850516704
 20
477.4650388072
 30
0.0
 11
2721.3371248459
 21
489.5171119828
 31
0.0
  0
LINE
  5
19A
100
AcDbEntity
  8
______
  6
CONTINUOUS
 62
         4
100
AcDbLine
 10
2734.0371248459
 20
502.2171119828
 30
0.0
 11
2742.1102080492
 21
510.290195186
 31
0.0
  0
LINE
  5
19B
100
AcDbEntity
  8
______
  6
CONTINUOUS
 62
         4
100
AcDbLine
 10
2704.6356401863
 20
477.0582680103
 30
0.0
 11
2717.0944841588
 21
489.5171119828
 31
0.0
  0
LINE
  5
19C
100
AcDbEntity
  8
______
  6
CONTINUOUS
 62
         4
100
AcDbLine
 10
2729.7944841588
 20
502.2171119828
 30
0.0
 11
2736.5352093503
 21
508.9578371743
 31
0.0
  0
LINE
  5
19D
100
AcDbEntity
  8
______
  6
CONTINUOUS
 62
         4
100
AcDbLine
 10
2699.9862287023
 20
476.6514972134
 30
0.0
 11
2708.6988999569
 21
485.364168468
 31
0.0
  0
LINE
  5
19E
100
AcDbEntity
  8
______
  6
CONTINUOUS
 62
         4
100
AcDbLine
 10
2725.5518434717
 20
502.2171119828
 30
0.0
 11
2733.1068676481
 21
509.7721361592
 31
0.0
  0
LINE
  5
19F
100
AcDbEntity
  8
______
  6
CONTINUOUS
 62
         4
100
AcDbLine
 10
2695.3368172182
 20
476.2447264165
 30
0.0
 11
2704.4562592698
 21
485.364168468
 31
0.0
  0
LINE
  5
1A0
100
AcDbEntity
  8
______
  6
CONTINUOUS
 62
         4
100
AcDbLine
 10
2721.3092027846
 20
502.2171119828
 30
0.0
 11
2730.5095154875
 21
511.4174246857
 31
0.0
  0
LINE
  5
1A1
100
AcDbEntity
  8
______
  6
CONTINUOUS
 62
         4
100
AcDbLine
 10
2690.6874057342
 20
475.8379556195
 30
0.0
 11
2700.2136185827
 21
485.364168468
 31
0.0
  0
LINE
  5
1A2
100
AcDbEntity
  8
______
  6
CONTINUOUS
 62
         4
100
AcDbLine
 10
2717.0665620974
 20
502.2171119828
 30
0.0
 11
2728.2165620974
 21
513.3671119828
 31
0.0
  0
LINE
  5
1A3
100
AcDbEntity
  8
______
  6
CONTINUOUS
 62
         4
100
AcDbLine
 10
2657.7209778956
 20
447.114168468
 30
0.0
 11
2659.8041123372
 21
449.1973029097
 31
0.0
  0
LINE
  5
1A4
100
AcDbEntity
  8
______
  6
CONTINUOUS
 62
         4
100
AcDbLine
 10
2686.0379942502
 20
475.4311848226
 30
0.0
 11
2695.9709778956
 21
485.364168468
 31
0.0
  0
LINE
  5
1A5
100
AcDbEntity
  8
______
  6
CONTINUOUS
 62
         4
100
AcDbLine
 10
2713.947244411
 20
503.3404349835
 30
0.0
 11
2723.9739214103
 21
513.3671119828
 31
0.0
  0
LINE
  5
1A6
100
AcDbEntity
  8
______
  6
CONTINUOUS
 62
         4
100
AcDbLine
 10
2653.4783372084
 20
447.114168468
 30
0.0
 11
2659.8041123372
 21
453.4399435968
 31
0.0
  0
LINE
  5
1A7
100
AcDbEntity
  8
______
  6
CONTINUOUS
 62
         4
100
AcDbLine
 10
2681.3885827661
 20
475.0244140257
 30
0.0
 11
2691.7283372084
 21
485.364168468
 31
0.0
  0
LINE
  5
1A8
100
AcDbEntity
  8
______
  6
CONTINUOUS
 62
         4
100
AcDbLine
 10
2712.3943301404
 20
506.0301614
 30
0.0
 11
2719.7312807232
 21
513.3671119828
 31
0.0
  0
LINE
  5
1A9
100
AcDbEntity
  8
______
  6
CONTINUOUS
 62
         4
100
AcDbLine
 10
2649.3002152554
 20
447.1786872021
 30
0.0
 11
2659.8041123372
 21
457.6825842839
 31
0.0
  0
LINE
  5
1AA
100
AcDbEntity
  8
______
  6
CONTINUOUS
 62
         4
100
AcDbLine
 10
2676.7391712821
 20
474.6176432288
 30
0.0
 11
2687.4856965213
 21
485.364168468
 31
0.0
  0
LINE
  5
1AB
100
AcDbEntity
  8
______
  6
CONTINUOUS
 62
         4
100
AcDbLine
 10
2708.4856965213
 20
506.364168468
 30
0.0
 11
2715.8190614303
 21
513.697533377
 31
0.0
  0
LINE
  5
1AC
100
AcDbEntity
  8
______
  6
CONTINUOUS
 62
         4
100
AcDbLine
 10
2647.8041123372
 20
449.9252249711
 30
0.0
 11
2659.8041123372
 21
461.9252249711
 31
0.0
  0
LINE
  5
1AD
100
AcDbEntity
  8
______
  6
CONTINUOUS
 62
         4
100
AcDbLine
 10
2672.089759798
 20
474.2108724319
 30
0.0
 11
2683.2430558342
 21
485.364168468
 31
0.0
  0
LINE
  5
1AE
100
AcDbEntity
  8
______
  6
CONTINUOUS
 62
         4
100
AcDbLine
 10
2704.2430558342
 20
506.364168468
 30
0.0
 11
2711.9177419688
 21
514.0388546026
 31
0.0
  0
LINE
  5
1AF
100
AcDbEntity
  8
______
  6
CONTINUOUS
 62
         4
100
AcDbLine
 10
2647.8041123372
 20
454.1678656582
 30
0.0
 11
2659.8041123372
 21
466.1678656582
 31
0.0
  0
LINE
  5
1B0
100
AcDbEntity
  8
______
  6
CONTINUOUS
 62
         4
100
AcDbLine
 10
2667.440348314
 20
473.8041016349
 30
0.0
 11
2679.0004151471
 21
485.364168468
 31
0.0
  0
LINE
  5
1B1
100
AcDbEntity
  8
______
  6
CONTINUOUS
 62
         4
100
AcDbLine
 10
2700.0004151471
 20
506.364168468
 30
0.0
 11
2708.0164225074
 21
514.3801758283
 31
0.0
  0
LINE
  5
1B2
100
AcDbEntity
  8
______
  6
CONTINUOUS
 62
         4
100
AcDbLine
 10
2647.8041123372
 20
458.4105063453
 30
0.0
 11
2660.5109850383
 21
471.1173790464
 31
0.0
  0
LINE
  5
1B3
100
AcDbEntity
  8
______
  6
CONTINUOUS
 62
         4
100
AcDbLine
 10
2662.2410949757
 20
472.8474889838
 30
0.0
 11
2674.75777446
 21
485.364168468
 31
0.0
  0
LINE
  5
1B4
100
AcDbEntity
  8
______
  6
CONTINUOUS
 62
         4
100
AcDbLine
 10
2695.75777446
 20
506.364168468
 30
0.0
 11
2704.1151030459
 21
514.721497054
 31
0.0
  0
LINE
  5
1B5
100
AcDbEntity
  8
______
  6
CONTINUOUS
 62
         4
100
AcDbLine
 10
2646.238389926
 20
461.0874246212
 30
0.0
 11
2670.5151337728
 21
485.364168468
 31
0.0
  0
LINE
  5
1B6
100
AcDbEntity
  8
______
  6
CONTINUOUS
 62
         4
100
AcDbLine
 10
2691.5151337728
 20
506.364168468
 30
0.0
 11
2700.2137835845
 21
515.0628182797
 31
0.0
  0
LINE
  5
1B7
100
AcDbEntity
  8
______
  6
CONTINUOUS
 62
         4
100
AcDbLine
 10
2642.198333853
 20
461.2900092353
 30
0.0
 11
2666.2724930857
 21
485.364168468
 31
0.0
  0
LINE
  5
1B8
100
AcDbEntity
  8
______
  6
CONTINUOUS
 62
         4
100
AcDbLine
 10
2687.2724930857
 20
506.364168468
 30
0.0
 11
2696.312464123
 21
515.4041395053
 31
0.0
  0
LINE
  5
1B9
100
AcDbEntity
  8
______
  6
CONTINUOUS
 62
         4
100
AcDbLine
 10
2638.4956630267
 20
461.8299790962
 30
0.0
 11
2662.0298523986
 21
485.364168468
 31
0.0
  0
LINE
  5
1BA
100
AcDbEntity
  8
______
  6
CONTINUOUS
 62
         4
100
AcDbLine
 10
2683.0298523986
 20
506.364168468
 30
0.0
 11
2692.4111446616
 21
515.745460731
 31
0.0
  0
LINE
  5
1BB
100
AcDbEntity
  8
______
  6
CONTINUOUS
 62
         4
100
AcDbLine
 10
2634.7929922005
 20
462.3699489571
 30
0.0
 11
2657.7872117115
 21
485.364168468
 31
0.0
  0
LINE
  5
1BC
100
AcDbEntity
  8
______
  6
CONTINUOUS
 62
         4
100
AcDbLine
 10
2678.7872117115
 20
506.364168468
 30
0.0
 11
2688.5098252001
 21
516.0867819567
 31
0.0
  0
LINE
  5
1BD
100
AcDbEntity
  8
______
  6
CONTINUOUS
 62
         4
100
AcDbLine
 10
2631.0903213743
 20
462.909918818
 30
0.0
 11
2653.5445710244
 21
485.364168468
 31
0.0
  0
LINE
  5
1BE
100
AcDbEntity
  8
______
  6
CONTINUOUS
 62
         4
100
AcDbLine
 10
2674.5445710244
 20
506.364168468
 30
0.0
 11
2684.6085057387
 21
516.4281031823
 31
0.0
  0
LINE
  5
1BF
100
AcDbEntity
  8
______
  6
CONTINUOUS
 62
         4
100
AcDbLine
 10
2627.3876505481
 20
463.4498886789
 30
0.0
 11
2649.3019303372
 21
485.364168468
 31
0.0
  0
LINE
  5
1C0
100
AcDbEntity
  8
______
  6
CONTINUOUS
 62
         4
100
AcDbLine
 10
2670.3019303372
 20
506.364168468
 30
0.0
 11
2680.7071862772
 21
516.769424408
 31
0.0
  0
LINE
  5
1C1
100
AcDbEntity
  8
______
  6
CONTINUOUS
 62
         4
100
AcDbLine
 10
2623.6849797218
 20
463.9898585397
 30
0.0
 11
2645.0592896501
 21
485.364168468
 31
0.0
  0
LINE
  5
1C2
100
AcDbEntity
  8
______
  6
CONTINUOUS
 62
         4
100
AcDbLine
 10
2666.0592896501
 20
506.364168468
 30
0.0
 11
2676.8058668158
 21
517.1107456337
 31
0.0
  0
LINE
  5
1C3
100
AcDbEntity
  8
______
  6
CONTINUOUS
 62
         4
100
AcDbLine
 10
2619.9823088956
 20
464.5298284006
 30
0.0
 11
2640.816648963
 21
485.364168468
 31
0.0
  0
LINE
  5
1C4
100
AcDbEntity
  8
______
  6
CONTINUOUS
 62
         4
100
AcDbLine
 10
2661.816648963
 20
506.364168468
 30
0.0
 11
2672.9045473543
 21
517.4520668593
 31
0.0
  0
LINE
  5
1C5
100
AcDbEntity
  8
______
  6
CONTINUOUS
 62
         4
100
AcDbLine
 10
2616.2796380694
 20
465.0697982615
 30
0.0
 11
2636.5740082759
 21
485.364168468
 31
0.0
  0
LINE
  5
1C6
100
AcDbEntity
  8
______
  6
CONTINUOUS
 62
         4
100
AcDbLine
 10
2657.5740082759
 20
506.364168468
 30
0.0
 11
2669.0032278929
 21
517.793388085
 31
0.0
  0
LINE
  5
1C7
100
AcDbEntity
  8
______
  6
CONTINUOUS
 62
         4
100
AcDbLine
 10
2612.5769672432
 20
465.6097681224
 30
0.0
 11
2632.3313675888
 21
485.364168468
 31
0.0
  0
LINE
  5
1C8
100
AcDbEntity
  8
______
  6
CONTINUOUS
 62
         4
100
AcDbLine
 10
2653.3313675888
 20
506.364168468
 30
0.0
 11
2665.1019084314
 21
518.1347093107
 31
0.0
  0
LINE
  5
1C9
100
AcDbEntity
  8
______
  6
CONTINUOUS
 62
         4
100
AcDbLine
 10
2608.874296417
 20
466.1497379833
 30
0.0
 11
2628.0887269016
 21
485.364168468
 31
0.0
  0
LINE
  5
1CA
100
AcDbEntity
  8
______
  6
CONTINUOUS
 62
         4
100
AcDbLine
 10
2649.0887269016
 20
506.364168468
 30
0.0
 11
2661.861798864
 21
519.1372404303
 31
0.0
  0
LINE
  5
1CB
100
AcDbEntity
  8
______
  6
CONTINUOUS
 62
         4
100
AcDbLine
 10
2605.1716255907
 20
466.6897078442
 30
0.0
 11
2623.8460862145
 21
485.364168468
 31
0.0
  0
LINE
  5
1CC
100
AcDbEntity
  8
______
  6
CONTINUOUS
 62
         4
100
AcDbLine
 10
2644.8460862145
 20
506.364168468
 30
0.0
 11
2660.06570181
 21
521.5837840635
 31
0.0
  0
LINE
  5
1CD
100
AcDbEntity
  8
______
  6
CONTINUOUS
 62
         4
100
AcDbLine
 10
2601.4689547645
 20
467.2296777051
 30
0.0
 11
2619.6034455274
 21
485.364168468
 31
0.0
  0
LINE
  5
1CE
100
AcDbEntity
  8
______
  6
CONTINUOUS
 62
         4
100
AcDbLine
 10
2640.6034455274
 20
506.364168468
 30
0.0
 11
2659.8041123372
 21
525.5648352778
 31
0.0
  0
LINE
  5
1CF
100
AcDbEntity
  8
______
  6
CONTINUOUS
 62
         4
100
AcDbLine
 10
2597.7662839383
 20
467.769647566
 30
0.0
 11
2615.3608048403
 21
485.364168468
 31
0.0
  0
LINE
  5
1D0
100
AcDbEntity
  8
______
  6
CONTINUOUS
 62
         4
100
AcDbLine
 10
2636.3608048403
 20
506.364168468
 30
0.0
 11
2659.8041123372
 21
529.807475965
 31
0.0
  0
LINE
  5
1D1
100
AcDbEntity
  8
______
  6
CONTINUOUS
 62
         4
100
AcDbLine
 10
2594.0636131121
 20
468.3096174269
 30
0.0
 11
2611.1181641532
 21
485.364168468
 31
0.0
  0
LINE
  5
1D2
100
AcDbEntity
  8
______
  6
CONTINUOUS
 62
         4
100
AcDbLine
 10
2632.1181641532
 20
506.364168468
 30
0.0
 11
2659.8041123372
 21
534.0501166521
 31
0.0
  0
LINE
  5
1D3
100
AcDbEntity
  8
______
  6
CONTINUOUS
 62
         4
100
AcDbLine
 10
2590.3609422859
 20
468.8495872878
 30
0.0
 11
2606.8755234661
 21
485.364168468
 31
0.0
  0
LINE
  5
1D4
100
AcDbEntity
  8
______
  6
CONTINUOUS
 62
         4
100
AcDbLine
 10
2627.8755234661
 20
506.364168468
 30
0.0
 11
2659.8041123372
 21
538.2927573392
 31
0.0
  0
LINE
  5
1D5
100
AcDbEntity
  8
______
  6
CONTINUOUS
 62
         4
100
AcDbLine
 10
2586.6582714596
 20
469.3895571487
 30
0.0
 11
2602.6328827789
 21
485.364168468
 31
0.0
  0
LINE
  5
1D6
100
AcDbEntity
  8
______
  6
CONTINUOUS
 62
         4
100
AcDbLine
 10
2623.6328827789
 20
506.364168468
 30
0.0
 11
2659.8041123372
 21
542.5353980263
 31
0.0
  0
LINE
  5
1D7
100
AcDbEntity
  8
______
  6
CONTINUOUS
 62
         4
100
AcDbLine
 10
2582.9556006334
 20
469.9295270096
 30
0.0
 11
2598.3902420918
 21
485.364168468
 31
0.0
  0
LINE
  5
1D8
100
AcDbEntity
  8
______
  6
CONTINUOUS
 62
         4
100
AcDbLine
 10
2619.3902420918
 20
506.364168468
 30
0.0
 11
2643.6805577946
 21
530.6544841709
 31
0.0
  0
LINE
  5
1D9
100
AcDbEntity
  8
______
  6
CONTINUOUS
 62
         4
100
AcDbLine
 10
2647.8041123372
 20
534.7780387134
 30
0.0
 11
2657.6402420918
 21
544.614168468
 31
0.0
  0
LINE
  5
1DA
100
AcDbEntity
  8
______
  6
CONTINUOUS
 62
         4
100
AcDbLine
 10
2579.2529298072
 20
470.4694968705
 30
0.0
 11
2594.1476014047
 21
485.364168468
 31
0.0
  0
LINE
  5
1DB
100
AcDbEntity
  8
______
  6
CONTINUOUS
 62
         4
100
AcDbLine
 10
2615.1476014047
 20
506.364168468
 30
0.0
 11
2638.7135684806
 21
529.9301355439
 31
0.0
  0
LINE
  5
1DC
100
AcDbEntity
  8
______
  6
CONTINUOUS
 62
         4
100
AcDbLine
 10
2647.8041123372
 20
539.0206794006
 30
0.0
 11
2653.3976014047
 21
544.614168468
 31
0.0
  0
LINE
  5
1DD
100
AcDbEntity
  8
______
  6
CONTINUOUS
 62
         4
100
AcDbLine
 10
2575.550258981
 20
471.0094667314
 30
0.0
 11
2589.9049607176
 21
485.364168468
 31
0.0
  0
LINE
  5
1DE
100
AcDbEntity
  8
______
  6
CONTINUOUS
 62
         4
100
AcDbLine
 10
2610.9049607176
 20
506.364168468
 30
0.0
 11
2633.7465791665
 21
529.205786917
 31
0.0
  0
LINE
  5
1DF
100
AcDbEntity
  8
______
  6
CONTINUOUS
 62
         4
100
AcDbLine
 10
2647.9840580475
 20
543.443265798
 30
0.0
 11
2648.9750150073
 21
544.4342227577
 31
0.0
  0
LINE
  5
1E0
100
AcDbEntity
  8
______
  6
CONTINUOUS
 62
         4
100
AcDbLine
 10
2571.8475881547
 20
471.5494365923
 30
0.0
 11
2585.6623200305
 21
485.364168468
 31
0.0
  0
LINE
  5
1E1
100
AcDbEntity
  8
______
  6
CONTINUOUS
 62
         4
100
AcDbLine
 10
2606.6623200305
 20
506.364168468
 30
0.0
 11
2628.7795898525
 21
528.48143829
 31
0.0
  0
LINE
  5
1E2
100
AcDbEntity
  8
______
  6
CONTINUOUS
 62
         4
100
AcDbLine
 10
2568.1449173285
 20
472.0894064532
 30
0.0
 11
2581.4196793433
 21
485.364168468
 31
0.0
  0
LINE
  5
1E3
100
AcDbEntity
  8
______
  6
CONTINUOUS
 62
         4
100
AcDbLine
 10
2602.4196793433
 20
506.364168468
 30
0.0
 11
2623.8126005384
 21
527.7570896631
 31
0.0
  0
LINE
  5
1E4
100
AcDbEntity
  8
______
  6
CONTINUOUS
 62
         4
100
AcDbLine
 10
2564.4422465023
 20
472.6293763141
 30
0.0
 11
2577.1770386562
 21
485.364168468
 31
0.0
  0
LINE
  5
1E5
100
AcDbEntity
  8
______
  6
CONTINUOUS
 62
         4
100
AcDbLine
 10
2598.1770386562
 20
506.364168468
 30
0.0
 11
2618.8456112243
 21
527.0327410361
 31
0.0
  0
LINE
  5
1E6
100
AcDbEntity
  8
______
  6
CONTINUOUS
 62
         4
100
AcDbLine
 10
2560.7395756761
 20
473.169346175
 30
0.0
 11
2572.9343979691
 21
485.364168468
 31
0.0
  0
LINE
  5
1E7
100
AcDbEntity
  8
______
  6
CONTINUOUS
 62
         4
100
AcDbLine
 10
2593.9343979691
 20
506.364168468
 30
0.0
 11
2613.8786219103
 21
526.3083924092
 31
0.0
  0
LINE
  5
1E8
100
AcDbEntity
  8
______
  6
CONTINUOUS
 62
         4
100
AcDbLine
 10
2557.0369048499
 20
473.7093160359
 30
0.0
 11
2568.691757282
 21
485.364168468
 31
0.0
  0
LINE
  5
1E9
100
AcDbEntity
  8
______
  6
CONTINUOUS
 62
         4
100
AcDbLine
 10
2589.691757282
 20
506.364168468
 30
0.0
 11
2608.9116325962
 21
525.5840437823
 31
0.0
  0
LINE
  5
1EA
100
AcDbEntity
  8
______
  6
CONTINUOUS
 62
         4
100
AcDbLine
 10
2553.3342340236
 20
474.2492858968
 30
0.0
 11
2564.4491165949
 21
485.364168468
 31
0.0
  0
LINE
  5
1EB
100
AcDbEntity
  8
______
  6
CONTINUOUS
 62
         4
100
AcDbLine
 10
2585.4491165949
 20
506.364168468
 30
0.0
 11
2603.9446432822
 21
524.8596951553
 31
0.0
  0
LINE
  5
1EC
100
AcDbEntity
  8
______
  6
CONTINUOUS
 62
         4
100
AcDbLine
 10
2549.6315631974
 20
474.7892557577
 30
0.0
 11
2560.2064759077
 21
485.364168468
 31
0.0
  0
LINE
  5
1ED
100
AcDbEntity
  8
______
  6
CONTINUOUS
 62
         4
100
AcDbLine
 10
2581.2064759077
 20
506.364168468
 30
0.0
 11
2598.9776539681
 21
524.1353465284
 31
0.0
  0
LINE
  5
1EE
100
AcDbEntity
  8
______
  6
CONTINUOUS
 62
         4
100
AcDbLine
 10
2545.9288923712
 20
475.3292256186
 30
0.0
 11
2555.9638352206
 21
485.364168468
 31
0.0
  0
LINE
  5
1EF
100
AcDbEntity
  8
______
  6
CONTINUOUS
 62
         4
100
AcDbLine
 10
2576.9638352206
 20
506.364168468
 30
0.0
 11
2594.010664654
 21
523.4109979014
 31
0.0
  0
LINE
  5
1F0
100
AcDbEntity
  8
______
  6
CONTINUOUS
 62
         4
100
AcDbLine
 10
2542.9933481131
 20
476.6363220477
 30
0.0
 11
2551.7211945335
 21
485.364168468
 31
0.0
  0
LINE
  5
1F1
100
AcDbEntity
  8
______
  6
CONTINUOUS
 62
         4
100
AcDbLine
 10
2572.7211945335
 20
506.364168468
 30
0.0
 11
2589.04367534
 21
522.6866492745
 31
0.0
  0
LINE
  5
1F2
100
AcDbEntity
  8
______
  6
CONTINUOUS
 62
         4
100
AcDbLine
 10
2538.9814973611
 20
476.8671119828
 30
0.0
 11
2547.4785538464
 21
485.364168468
 31
0.0
  0
LINE
  5
1F3
100
AcDbEntity
  8
______
  6
CONTINUOUS
 62
         4
100
AcDbLine
 10
2568.4785538464
 20
506.364168468
 30
0.0
 11
2584.0766860259
 21
521.9623006475
 31
0.0
  0
LINE
  5
1F4
100
AcDbEntity
  8
______
  6
CONTINUOUS
 62
         4
100
AcDbLine
 10
2534.088856674
 20
476.2171119828
 30
0.0
 11
2543.2359131593
 21
485.364168468
 31
0.0
  0
LINE
  5
1F5
100
AcDbEntity
  8
______
  6
CONTINUOUS
 62
         4
100
AcDbLine
 10
2564.2359131593
 20
506.364168468
 30
0.0
 11
2579.1096967118
 21
521.2379520206
 31
0.0
  0
LINE
  5
1F6
100
AcDbEntity
  8
______
  6
CONTINUOUS
 62
         4
100
AcDbLine
 10
2529.8462159869
 20
476.2171119828
 30
0.0
 11
2538.9932724721
 21
485.364168468
 31
0.0
  0
LINE
  5
1F7
100
AcDbEntity
  8
______
  6
CONTINUOUS
 62
         4
100
AcDbLine
 10
2559.9932724721
 20
506.364168468
 30
0.0
 11
2574.1427073978
 21
520.5136033937
 31
0.0
  0
LINE
  5
1F8
100
AcDbEntity
  8
______
  6
CONTINUOUS
 62
         4
100
AcDbLine
 10
2525.6035752998
 20
476.2171119828
 30
0.0
 11
2534.750631785
 21
485.364168468
 31
0.0
  0
LINE
  5
1F9
100
AcDbEntity
  8
______
  6
CONTINUOUS
 62
         4
100
AcDbLine
 10
2555.750631785
 20
506.364168468
 30
0.0
 11
2569.1757180837
 21
519.7892547667
 31
0.0
  0
LINE
  5
1FA
100
AcDbEntity
  8
______
  6
CONTINUOUS
 62
         4
100
AcDbLine
 10
2521.3609346127
 20
476.2171119828
 30
0.0
 11
2527.7582245346
 21
482.6144019048
 31
0.0
  0
LINE
  5
1FB
100
AcDbEntity
  8
______
  6
CONTINUOUS
 62
         4
100
AcDbLine
 10
2551.5079910979
 20
506.364168468
 30
0.0
 11
2564.2087287697
 21
519.0649061398
 31
0.0
  0
LINE
  5
1FC
100
AcDbEntity
  8
______
  6
CONTINUOUS
 62
         4
100
AcDbLine
 10
2518.0891924621
 20
477.1880105194
 30
0.0
 11
2523.7712374403
 21
482.8700554975
 31
0.0
  0
LINE
  5
1FD
100
AcDbEntity
  8
______
  6
CONTINUOUS
 62
         4
100
AcDbLine
 10
2547.2653504108
 20
506.364168468
 30
0.0
 11
2559.2417394556
 21
518.3405575128
 31
0.0
  0
LINE
  5
1FE
100
AcDbEntity
  8
______
  6
CONTINUOUS
 62
         4
100
AcDbLine
 10
2517.8166472163
 20
481.1581059607
 30
0.0
 11
2519.5077447847
 21
482.8492035291
 31
0.0
  0
LINE
  5
1FF
100
AcDbEntity
  8
______
  6
CONTINUOUS
 62
         4
100
AcDbLine
 10
2543.0227097237
 20
506.364168468
 30
0.0
 11
2554.2747501415
 21
517.6162088859
 31
0.0
  0
LINE
  5
200
100
AcDbEntity
  8
______
  6
CONTINUOUS
 62
         4
100
AcDbLine
 10
2538.7800690365
 20
506.364168468
 30
0.0
 11
2549.3077608275
 21
516.891860259
 31
0.0
  0
LINE
  5
201
100
AcDbEntity
  8
______
  6
CONTINUOUS
 62
         4
100
AcDbLine
 10
2534.5374283494
 20
506.364168468
 30
0.0
 11
2544.3407715134
 21
516.167511632
 31
0.0
  0
LINE
  5
202
100
AcDbEntity
  8
______
  6
CONTINUOUS
 62
         4
100
AcDbLine
 10
2531.2257667927
 20
507.2951475984
 30
0.0
 11
2538.7977311771
 21
514.8671119828
 31
0.0
  0
LINE
  5
203
100
AcDbEntity
  8
______
  6
CONTINUOUS
 62
         4
100
AcDbLine
 10
2528.8372004401
 20
509.149221933
 30
0.0
 11
2534.6796014136
 21
514.9916229064
 31
0.0
  0
LINE
  5
204
100
AcDbEntity
  8
______
  6
CONTINUOUS
 62
         4
100
AcDbLine
 10
2524.3095062881
 20
508.864168468
 30
0.0
 11
2530.9624498028
 21
515.5171119828
 31
0.0
  0
LINE
  5
205
100
AcDbEntity
  8
______
  6
CONTINUOUS
 62
         4
100
AcDbLine
 10
2520.066865601
 20
508.864168468
 30
0.0
 11
2526.7198091157
 21
515.5171119828
 31
0.0
  0
LINE
  5
206
100
AcDbEntity
  8
______
  6
CONTINUOUS
 62
         4
100
AcDbLine
 10
2517.8041123372
 20
510.8440558914
 30
0.0
 11
2522.4771684286
 21
515.5171119828
 31
0.0
  0
ENDBLK
  5
207
100
AcDbEntity
  8
0
  6
CONTINUOUS
100
AcDbBlockEnd
  0
ENDSEC
  0
SECTION
  2
ENTITIES
  0
CIRCLE
  5
29
100
AcDbEntity
  8
______
  6
CONTINUOUS
 62
         7
100
AcDbCircle
 10
2914.1132154648
 20
705.8671119828
 30
0.0
 40
22.3325044585
  0
LINE
  5
2A
100
AcDbEntity
  8
______
  6
CONTINUOUS
 62
         7
100
AcDbLine
 10
2876.6339493303
 20
554.7906522669
 30
0.0
 11
2867.2020468665
 21
554.7906522669
 31
0.0
  0
LINE
  5
2B
100
AcDbEntity
  8
______
  6
CONTINUOUS
 62
         7
100
AcDbLine
 10
2877.4806092236
 20
555.4256535369
 30
0.0
 11
2866.3553869732
 21
555.4256535369
 31
0.0
  0
LINE
  5
2C
100
AcDbEntity
  8
______
  6
CONTINUOUS
 62
         7
100
AcDbLine
 10
2876.6339493303
 20
554.7906522669
 30
0.0
 11
2877.4806092236
 21
555.4256535369
 31
0.0
  0
LINE
  5
2D
100
AcDbEntity
  8
______
  6
CONTINUOUS
 62
         7
100
AcDbLine
 10
2867.2020468665
 20
554.7906522669
 30
0.0
 11
2866.3553869732
 21
555.4256535369
 31
0.0
  0
LINE
  5
2E
100
AcDbEntity
  8
______
  6
CONTINUOUS
 62
         7
100
AcDbLine
 10
2866.3553869732
 20
555.4256535369
 30
0.0
 11
2866.3553869732
 21
556.1419349695
 31
0.0
  0
LINE
  5
2F
100
AcDbEntity
  8
______
  6
CONTINUOUS
 62
         7
100
AcDbLine
 10
2867.2020468665
 20
556.8582164021
 30
0.0
 11
2866.3553869732
 21
557.5744978346
 31
0.0
  0
LINE
  5
30
100
AcDbEntity
  8
______
  6
CONTINUOUS
 62
         7
100
AcDbLine
 10
2866.3553869732
 20
557.5744978346
 30
0.0
 11
2867.2020468665
 21
558.2907792672
 31
0.0
  0
LINE
  5
31
100
AcDbEntity
  8
______
  6
CONTINUOUS
 62
         7
100
AcDbLine
 10
2877.4806092236
 20
556.8582164021
 30
0.0
 11
2876.6339493303
 21
557.5744978346
 31
0.0
  0
LINE
  5
32
100
AcDbEntity
  8
______
  6
CONTINUOUS
 62
         7
100
AcDbLine
 10
2876.6339493303
 20
557.5744978346
 30
0.0
 11
2877.4806092236
 21
558.2907792672
 31
0.0
  0
LINE
  5
33
100
AcDbEntity
  8
______
  6
CONTINUOUS
 62
         7
100
AcDbLine
 10
2877.4806092236
 20
558.2907792672
 30
0.0
 11
2866.3553869732
 21
557.5744978346
 31
0.0
  0
LINE
  5
34
100
AcDbEntity
  8
______
  6
CONTINUOUS
 62
         7
100
AcDbLine
 10
2876.6339493303
 20
557.5744978346
 30
0.0
 11
2867.2020468665
 21
556.8582164021
 31
0.0
  0
LINE
  5
35
100
AcDbEntity
  8
______
  6
CONTINUOUS
 62
         4
100
AcDbLine
 10
2867.2020468665
 20
556.8582164021
 30
0.0
 11
2866.3553869732
 21
556.1419349695
 31
0.0
  0
LINE
  5
36
100
AcDbEntity
  8
______
  6
CONTINUOUS
 62
         4
100
AcDbLine
 10
2877.4806092236
 20
556.8582164021
 30
0.0
 11
2876.6339493303
 21
556.1419349695
 31
0.0
  0
LINE
  5
37
100
AcDbEntity
  8
______
  6
CONTINUOUS
 62
         4
100
AcDbLine
 10
2876.6339493303
 20
556.1419349695
 30
0.0
 11
2877.4806092236
 21
555.4256535369
 31
0.0
  0
LINE
  5
38
100
AcDbEntity
  8
______
  6
CONTINUOUS
 62
         4
100
AcDbLine
 10
2877.4806092236
 20
556.8582164021
 30
0.0
 11
2866.3553869732
 21
556.1419349695
 31
0.0
  0
LINE
  5
39
100
AcDbEntity
  8
______
  6
CONTINUOUS
 62
         4
100
AcDbLine
 10
2876.6339493303
 20
556.1419349695
 30
0.0
 11
2867.918328299
 21
555.4256535369
 31
0.0
  0
LINE
  5
3A
100
AcDbEntity
  8
______
  6
CONTINUOUS
 62
         4
100
AcDbLine
 10
2877.4806092236
 20
555.4256535369
 30
0.0
 11
2867.918328299
 21
555.4256535369
 31
0.0
  0
LINE
  5
3B
100
AcDbEntity
  8
______
  6
CONTINUOUS
 62
         7
100
AcDbLine
 10
2867.2020468665
 20
558.2907792672
 30
0.0
 11
2866.3553869732
 21
559.0070606997
 31
0.0
  0
LINE
  5
3C
100
AcDbEntity
  8
______
  6
CONTINUOUS
 62
         7
100
AcDbLine
 10
2866.3553869732
 20
559.0070606997
 30
0.0
 11
2867.2020468665
 21
559.7233421323
 31
0.0
  0
LINE
  5
3D
100
AcDbEntity
  8
______
  6
CONTINUOUS
 62
         7
100
AcDbLine
 10
2877.4806092236
 20
558.2907792672
 30
0.0
 11
2876.6339493303
 21
559.0070606997
 31
0.0
  0
LINE
  5
3E
100
AcDbEntity
  8
______
  6
CONTINUOUS
 62
         7
100
AcDbLine
 10
2876.6339493303
 20
559.0070606997
 30
0.0
 11
2877.4806092236
 21
559.7233421323
 31
0.0
  0
LINE
  5
3F
100
AcDbEntity
  8
______
  6
CONTINUOUS
 62
         7
100
AcDbLine
 10
2877.4806092236
 20
559.7233421323
 30
0.0
 11
2866.3553869732
 21
559.0070606997
 31
0.0
  0
LINE
  5
40
100
AcDbEntity
  8
______
  6
CONTINUOUS
 62
         7
100
AcDbLine
 10
2876.6339493303
 20
559.0070606997
 30
0.0
 11
2867.2020468665
 21
558.2907792672
 31
0.0
  0
LINE
  5
41
100
AcDbEntity
  8
______
  6
CONTINUOUS
 62
         4
100
AcDbLine
 10
2867.2020468665
 20
556.8582164021
 30
0.0
 11
2866.3553869732
 21
556.1419349695
 31
0.0
  0
LINE
  5
42
100
AcDbEntity
  8
______
  6
CONTINUOUS
 62
         4
100
AcDbLine
 10
2877.4806092236
 20
556.8582164021
 30
0.0
 11
2876.6339493303
 21
556.1419349695
 31
0.0
  0
LINE
  5
43
100
AcDbEntity
  8
______
  6
CONTINUOUS
 62
         4
100
AcDbLine
 10
2876.6339493303
 20
556.1419349695
 30
0.0
 11
2877.4806092236
 21
555.4256535369
 31
0.0
  0
LINE
  5
44
100
AcDbEntity
  8
______
  6
CONTINUOUS
 62
         4
100
AcDbLine
 10
2877.4806092236
 20
556.8582164021
 30
0.0
 11
2866.3553869732
 21
556.1419349695
 31
0.0
  0
LINE
  5
45
100
AcDbEntity
  8
______
  6
CONTINUOUS
 62
         4
100
AcDbLine
 10
2876.6339493303
 20
556.1419349695
 30
0.0
 11
2867.918328299
 21
555.4256535369
 31
0.0
  0
LINE
  5
46
100
AcDbEntity
  8
______
  6
CONTINUOUS
 62
         4
100
AcDbLine
 10
2877.4806092236
 20
555.4256535369
 30
0.0
 11
2867.918328299
 21
555.4256535369
 31
0.0
  0
LINE
  5
47
100
AcDbEntity
  8
______
  6
CONTINUOUS
 62
         7
100
AcDbLine
 10
2867.2020468665
 20
559.7233421323
 30
0.0
 11
2866.3553869732
 21
560.4396235649
 31
0.0
  0
LINE
  5
48
100
AcDbEntity
  8
______
  6
CONTINUOUS
 62
         7
100
AcDbLine
 10
2866.3553869732
 20
560.4396235649
 30
0.0
 11
2867.2020468665
 21
561.1559049974
 31
0.0
  0
LINE
  5
49
100
AcDbEntity
  8
______
  6
CONTINUOUS
 62
         7
100
AcDbLine
 10
2877.4806092236
 20
559.7233421323
 30
0.0
 11
2876.6339493303
 21
560.4396235649
 31
0.0
  0
LINE
  5
4A
100
AcDbEntity
  8
______
  6
CONTINUOUS
 62
         7
100
AcDbLine
 10
2876.6339493303
 20
560.4396235649
 30
0.0
 11
2877.4806092236
 21
561.1559049974
 31
0.0
  0
LINE
  5
4B
100
AcDbEntity
  8
______
  6
CONTINUOUS
 62
         7
100
AcDbLine
 10
2877.4806092236
 20
561.1559049974
 30
0.0
 11
2866.3553869732
 21
560.4396235649
 31
0.0
  0
LINE
  5
4C
100
AcDbEntity
  8
______
  6
CONTINUOUS
 62
         7
100
AcDbLine
 10
2876.6339493303
 20
560.4396235649
 30
0.0
 11
2867.2020468665
 21
559.7233421323
 31
0.0
  0
LINE
  5
4D
100
AcDbEntity
  8
______
  6
CONTINUOUS
 62
         7
100
AcDbLine
 10
2867.2020468665
 20
556.8582164021
 30
0.0
 11
2866.3553869732
 21
556.1419349695
 31
0.0
  0
LINE
  5
4E
100
AcDbEntity
  8
______
  6
CONTINUOUS
 62
         7
100
AcDbLine
 10
2877.4806092236
 20
556.8582164021
 30
0.0
 11
2876.6339493303
 21
556.1419349695
 31
0.0
  0
LINE
  5
4F
100
AcDbEntity
  8
______
  6
CONTINUOUS
 62
         7
100
AcDbLine
 10
2876.6339493303
 20
556.1419349695
 30
0.0
 11
2877.4806092236
 21
555.4256535369
 31
0.0
  0
LINE
  5
50
100
AcDbEntity
  8
______
  6
CONTINUOUS
 62
         7
100
AcDbLine
 10
2877.4806092236
 20
556.8582164021
 30
0.0
 11
2866.3553869732
 21
556.1419349695
 31
0.0
  0
LINE
  5
51
100
AcDbEntity
  8
______
  6
CONTINUOUS
 62
         7
100
AcDbLine
 10
2876.6339493303
 20
556.1419349695
 30
0.0
 11
2867.918328299
 21
555.4256535369
 31
0.0
  0
LINE
  5
52
100
AcDbEntity
  8
______
  6
CONTINUOUS
 62
         7
100
AcDbLine
 10
2877.4806092236
 20
555.4256535369
 30
0.0
 11
2867.918328299
 21
555.4256535369
 31
0.0
  0
LINE
  5
53
100
AcDbEntity
  8
______
  6
CONTINUOUS
 62
         7
100
AcDbLine
 10
2867.2020468665
 20
561.1559049974
 30
0.0
 11
2866.3553869732
 21
561.87218643
 31
0.0
  0
LINE
  5
54
100
AcDbEntity
  8
______
  6
CONTINUOUS
 62
         7
100
AcDbLine
 10
2866.3553869732
 20
561.87218643
 30
0.0
 11
2867.2020468665
 21
562.5884678626
 31
0.0
  0
LINE
  5
55
100
AcDbEntity
  8
______
  6
CONTINUOUS
 62
         7
100
AcDbLine
 10
2877.4806092236
 20
561.1559049974
 30
0.0
 11
2876.6339493303
 21
561.87218643
 31
0.0
  0
LINE
  5
56
100
AcDbEntity
  8
______
  6
CONTINUOUS
 62
         7
100
AcDbLine
 10
2876.6339493303
 20
561.87218643
 30
0.0
 11
2877.4806092236
 21
562.5884678626
 31
0.0
  0
LINE
  5
57
100
AcDbEntity
  8
______
  6
CONTINUOUS
 62
         7
100
AcDbLine
 10
2877.4806092236
 20
562.5884678626
 30
0.0
 11
2866.3553869732
 21
561.87218643
 31
0.0
  0
LINE
  5
58
100
AcDbEntity
  8
______
  6
CONTINUOUS
 62
         7
100
AcDbLine
 10
2876.6339493303
 20
561.87218643
 30
0.0
 11
2867.2020468665
 21
561.1559049974
 31
0.0
  0
LINE
  5
59
100
AcDbEntity
  8
______
  6
CONTINUOUS
 62
         7
100
AcDbLine
 10
2868.7175916976
 20
564.950672587
 30
0.0
 11
2875.1184044992
 21
564.950672587
 31
0.0
  0
LINE
  5
5A
100
AcDbEntity
  8
______
  6
CONTINUOUS
 62
         7
100
AcDbLine
 10
2866.3553869732
 20
562.5884678626
 30
0.0
 11
2877.4806092236
 21
562.5884678626
 31
0.0
  0
LINE
  5
5B
100
AcDbEntity
  8
______
  6
CONTINUOUS
 62
         7
100
AcDbLine
 10
2868.7175916976
 20
564.950672587
 30
0.0
 11
2866.3553869732
 21
562.5884678626
 31
0.0
  0
LINE
  5
5C
100
AcDbEntity
  8
______
  6
CONTINUOUS
 62
         7
100
AcDbLine
 10
2875.1184044992
 20
564.950672587
 30
0.0
 11
2877.4806092236
 21
562.5884678626
 31
0.0
  0
LINE
  5
5D
100
AcDbEntity
  8
______
  6
DASHED
 62
         2
100
AcDbLine
 10
2868.7064230678
 20
560.3532633922
 30
0.0
 11
2875.1295731289
 21
560.3532633922
 31
0.0
  0
LINE
  5
5E
100
AcDbEntity
  8
______
  6
DASHED
 62
         2
100
AcDbLine
 10
2868.7064230678
 20
554.7906522669
 30
0.0
 11
2868.7064230678
 21
560.3532633922
 31
0.0
  0
LINE
  5
5F
100
AcDbEntity
  8
______
  6
DASHED
 62
         2
100
AcDbLine
 10
2875.1295731289
 20
554.7906522669
 30
0.0
 11
2875.1295731289
 21
560.3532633922
 31
0.0
  0
LINE
  5
60
100
AcDbEntity
  8
______
  6
DASHED
 62
         2
100
AcDbLine
 10
2870.3122105831
 20
554.7906522669
 30
0.0
 11
2870.3122105831
 21
560.3532633922
 31
0.0
  0
LINE
  5
61
100
AcDbEntity
  8
______
  6
DASHED
 62
         2
100
AcDbLine
 10
2873.5237856137
 20
554.7906522669
 30
0.0
 11
2873.5237856137
 21
560.3532633922
 31
0.0
  0
DIMENSION
  5
65
100
AcDbEntity
  8
______
  6
CONTINUOUS
 62
         4
100
AcDbDimension
  2
*D0
 10
2868.6848365909
 20
542.0443371226
 30
0.0
 11
2861.4179980984
 21
544.6693371226
 31
0.0
  3
DIMSTYLE1
100
AcDbAlignedDimension
 13
2868.6848365909
 23
554.7906522669
 33
0.0
 14
2875.1511596058
 24
554.7906522669
 34
0.0
100
AcDbRotatedDimension
  0
LINE
  5
72
100
AcDbEntity
  8
______
  6
CENTER
 62
         1
100
AcDbLine
 10
2871.9179980984
 20
552.0119458259
 30
0.0
 11
2871.9179980984
 21
566.0406522669
 31
0.0
  0
DIMENSION
  5
75
100
AcDbEntity
  8
______
  6
CONTINUOUS
 62
         4
100
AcDbDimension
  2
*D1
 10
2866.3553869732
 20
570.4704908925
 30
0.0
 11
2852.6679980984
 21
573.0954908925
 31
0.0
  3
DIMSTYLE1
100
AcDbAlignedDimension
 13
2866.3553869732
 23
562.5884678626
 33
0.0
 14
2877.4806092236
 24
562.5884678626
 34
0.0
100
AcDbRotatedDimension
  0
DIMENSION
  5
83
100
AcDbEntity
  8
______
  6
CONTINUOUS
 62
         4
100
AcDbDimension
  2
*D2
 10
2862.4831103083
 20
564.950672587
 30
0.0
 11
2859.8581103083
 21
556.370662427
 31
0.0
  3
DIMSTYLE1
100
AcDbAlignedDimension
 13
2868.7175916976
 23
564.950672587
 33
0.0
 14
2867.2020468665
 24
554.7906522669
 34
0.0
 50
90.0
100
AcDbRotatedDimension
  0
LINE
  5
8F
100
AcDbEntity
  8
______
  6
CONTINUOUS
 62
         7
100
AcDbLine
 10
2712.2014910697
 20
506.364168468
 30
0.0
 11
2712.1980921917
 21
485.364168468
 31
0.0
  0
ARC
  5
90
100
AcDbEntity
  8
______
  6
CONTINUOUS
 62
         7
100
AcDbCircle
 10
2664.8041123372
 20
468.5543616849
 30
0.0
 40
5.0
100
AcDbArc
 50
95.0
 51
180.0
  0
ARC
  5
91
100
AcDbEntity
  8
______
  6
CONTINUOUS
 62
         7
100
AcDbCircle
 10
2664.8041123372
 20
523.1798622807
 30
0.0
 40
5.0
100
AcDbArc
 50
180.0
 51
265.0
  0
ARC
  5
92
100
AcDbEntity
  8
______
  6
CONTINUOUS
 62
         7
100
AcDbCircle
 10
2719.6831171336
 20
476.3671119828
 30
0.0
 40
2.0
100
AcDbArc
 50
90.0
 51
95.0
  0
ARC
  5
93
100
AcDbEntity
  8
______
  6
CONTINUOUS
 62
         7
100
AcDbCircle
 10
2719.6831171336
 20
515.3671119828
 30
0.0
 40
2.0
100
AcDbArc
 50
265.0
 51
270.0
  0
LINE
  5
94
100
AcDbEntity
  8
______
  6
CONTINUOUS
 62
         7
100
AcDbLine
 10
2719.5088056481
 20
513.3747225866
 30
0.0
 11
2664.3683336235
 21
518.1988887902
 31
0.0
  0
LINE
  5
95
100
AcDbEntity
  8
______
  6
CONTINUOUS
 62
         7
100
AcDbLine
 10
2719.5088056481
 20
478.359501379
 30
0.0
 11
2664.3683336235
 21
473.5353351753
 31
0.0
  0
LINE
  5
96
100
AcDbEntity
  8
______
  6
CONTINUOUS
 62
         7
100
AcDbLine
 10
2730.8657952478
 20
478.3671119828
 30
0.0
 11
2732.0957952478
 21
479.5971119828
 31
0.0
  0
LINE
  5
97
100
AcDbEntity
  8
______
  6
CONTINUOUS
 62
         7
100
AcDbLine
 10
2743.3257952478
 20
478.3671119828
 30
0.0
 11
2742.0957952478
 21
479.5971119828
 31
0.0
  0
LINE
  5
98
100
AcDbEntity
  8
______
  6
CONTINUOUS
 62
         7
100
AcDbLine
 10
2742.0957952478
 20
479.5971119828
 30
0.0
 11
2742.0957952478
 21
489.5171119828
 31
0.0
  0
LINE
  5
99
100
AcDbEntity
  8
______
  6
CONTINUOUS
 62
         7
100
AcDbLine
 10
2732.0957952478
 20
479.5971119828
 30
0.0
 11
2732.0957952478
 21
489.5171119828
 31
0.0
  0
LINE
  5
9A
100
AcDbEntity
  8
______
  6
CONTINUOUS
 62
         4
100
AcDbLine
 10
2758.4845816299
 20
489.5171119828
 30
0.0
 11
2758.4845816299
 21
502.2171119828
 31
0.0
  0
LINE
  5
9B
100
AcDbEntity
  8
______
  6
CONTINUOUS
 62
         7
100
AcDbLine
 10
2714.5957952478
 20
489.5171119828
 30
0.0
 11
2758.0957952478
 21
489.5171119828
 31
0.0
  0
LINE
  5
9C
100
AcDbEntity
  8
______
  6
CONTINUOUS
 62
         7
100
AcDbLine
 10
2758.4845816299
 20
489.4658511412
 30
0.0
 11
2759.1560469714
 21
489.0781804455
 31
0.0
  0
ARC
  5
9D
100
AcDbEntity
  8
______
  6
CONTINUOUS
 62
         7
100
AcDbCircle
 10
2758.0957952478
 20
488.0171119828
 30
0.0
 40
1.5
100
AcDbArc
 50
0.0
 51
45.022059707
  0
ARC
  5
9E
100
AcDbEntity
  8
______
  6
CONTINUOUS
 62
         7
100
AcDbCircle
 10
2758.0957952478
 20
488.0171119828
 30
0.0
 40
1.5
100
AcDbArc
 50
74.977940293
 51
90.0
  0
LINE
  5
9F
100
AcDbEntity
  8
______
  6
CONTINUOUS
 62
         7
100
AcDbLine
 10
2758.4845816299
 20
502.2683728244
 30
0.0
 11
2759.1560469714
 21
502.6560435201
 31
0.0
  0
ARC
  5
A0
100
AcDbEntity
  8
______
  6
CONTINUOUS
 62
         7
100
AcDbCircle
 10
2758.0957952478
 20
503.7171119828
 30
0.0
 40
1.5
100
AcDbArc
 50
314.977940293
 51
360.0
  0
ARC
  5
A1
100
AcDbEntity
  8
______
  6
CONTINUOUS
 62
         7
100
AcDbCircle
 10
2758.0957952478
 20
503.7171119828
 30
0.0
 40
1.5
100
AcDbArc
 50
270.0
 51
285.022059707
  0
LINE
  5
A2
100
AcDbEntity
  8
______
  6
CONTINUOUS
 62
         7
100
AcDbLine
 10
2758.0957952478
 20
502.2171119828
 30
0.0
 11
2714.5957952478
 21
502.2171119828
 31
0.0
  0
LINE
  5
A3
100
AcDbEntity
  8
______
  6
CENTER
 62
         1
100
AcDbLine
 10
2737.0957952478
 20
475.9076018236
 30
0.0
 11
2737.0957952478
 21
491.6536493934
 31
0.0
  0
LINE
  5
A4
100
AcDbEntity
  8
______
  6
CONTINUOUS
 62
         7
100
AcDbLine
 10
2748.42987132
 20
513.3671119828
 30
0.0
 11
2719.6831171336
 21
513.3671119828
 31
0.0
  0
LINE
  5
A5
100
AcDbEntity
  8
______
  6
CONTINUOUS
 62
         7
100
AcDbLine
 10
2748.42987132
 20
478.3671119828
 30
0.0
 11
2719.6831171336
 21
478.3671119828
 31
0.0
  0
ARC
  5
A6
100
AcDbEntity
  8
______
  6
CONTINUOUS
 62
         7
100
AcDbCircle
 10
2758.0957952478
 20
484.322717374
 30
0.0
 40
1.5
100
AcDbArc
 50
295.0
 51
360.0
  0
LINE
  5
A7
100
AcDbEntity
  8
______
  6
CONTINUOUS
 62
         7
100
AcDbLine
 10
2749.2751078435
 20
478.5544964087
 30
0.0
 11
2758.7297226404
 21
482.9632556934
 31
0.0
  0
LINE
  5
A8
100
AcDbEntity
  8
______
  6
CONTINUOUS
 62
         7
100
AcDbLine
 10
2759.5957952478
 20
484.322717374
 30
0.0
 11
2759.5957952478
 21
507.4115065916
 31
0.0
  0
ARC
  5
A9
100
AcDbEntity
  8
______
  6
CONTINUOUS
 62
         7
100
AcDbCircle
 10
2758.0957952478
 20
507.4115065916
 30
0.0
 40
1.5
100
AcDbArc
 50
0.0
 51
65.0
  0
LINE
  5
AA
100
AcDbEntity
  8
______
  6
CONTINUOUS
 62
         7
100
AcDbLine
 10
2758.7297226404
 20
508.7709682721
 30
0.0
 11
2749.2751078435
 21
513.1797275569
 31
0.0
  0
ARC
  5
AB
100
AcDbEntity
  8
______
  6
CONTINUOUS
 62
         7
100
AcDbCircle
 10
2748.42987132
 20
480.3671119828
 30
0.0
 40
2.0
100
AcDbArc
 50
270.0
 51
295.0
  0
ARC
  5
AC
100
AcDbEntity
  8
______
  6
CONTINUOUS
 62
         7
100
AcDbCircle
 10
2748.42987132
 20
511.3671119828
 30
0.0
 40
2.0
100
AcDbArc
 50
65.0
 51
90.0
  0
LINE
  5
AD
100
AcDbEntity
  8
______
  6
CONTINUOUS
 62
         7
100
AcDbLine
 10
2714.5957952478
 20
502.2171119828
 30
0.0
 11
2714.5957952478
 21
489.5171119828
 31
0.0
  0
LINE
  5
AE
100
AcDbEntity
  8
______
  6
CONTINUOUS
 62
         4
100
AcDbLine
 10
2731.5457952478
 20
479.0471119828
 30
0.0
 11
2731.5457952478
 21
489.5171119828
 31
0.0
  0
LINE
  5
AF
100
AcDbEntity
  8
______
  6
CONTINUOUS
 62
         4
100
AcDbLine
 10
2742.6457952478
 20
489.5171119828
 30
0.0
 11
2742.6457952478
 21
479.0471119828
 31
0.0
  0
LINE
  5
B0
100
AcDbEntity
  8
______
  6
CONTINUOUS
 62
         7
100
AcDbLine
 10
2742.0957952478
 20
479.5971119828
 30
0.0
 11
2732.0957952478
 21
479.5971119828
 31
0.0
  0
LINE
  5
B1
100
AcDbEntity
  8
______
  6
CONTINUOUS
 62
         7
100
AcDbLine
 10
2714.5957952478
 20
502.2171119828
 30
0.0
 11
2712.2014910697
 21
506.364168468
 31
0.0
  0
LINE
  5
B2
100
AcDbEntity
  8
______
  6
CONTINUOUS
 62
         7
100
AcDbLine
 10
2714.5957952478
 20
489.5171119828
 30
0.0
 11
2712.1980921917
 21
485.364168468
 31
0.0
  0
LINE
  5
B3
100
AcDbEntity
  8
______
  6
CENTER
 62
         1
100
AcDbLine
 10
2737.0957952478
 20
500.5264802413
 30
0.0
 11
2737.0957952478
 21
517.033960048
 31
0.0
  0
ARC
  5
B4
100
AcDbEntity
  8
______
  6
CONTINUOUS
 62
         7
100
AcDbCircle
 10
2737.0957952478
 20
518.9421119828
 30
0.0
 40
10.0
100
AcDbArc
 50
213.883081796
 51
326.116918204
  0
ARC
  5
B5
100
AcDbEntity
  8
______
  6
CONTINUOUS
 62
         7
100
AcDbCircle
 10
2664.7957952478
 20
678.5536340338
 30
0.0
 40
5.0
100
AcDbArc
 50
95.0
 51
180.0
  0
ARC
  5
B6
100
AcDbEntity
  8
______
  6
CONTINUOUS
 62
         7
100
AcDbCircle
 10
2664.7957952478
 20
733.1805899317
 30
0.0
 40
5.0
100
AcDbArc
 50
180.0
 51
265.0
  0
DIMENSION
  5
B9
100
AcDbEntity
  8
______
  6
CONTINUOUS
 62
         4
100
AcDbDimension
  2
*D3
 10
2517.7957952478
 20
802.1151465639
 30
0.0
 11
2624.4366727016
 21
804.7401465639
 31
0.0
  3
DIMSTYLE1
100
AcDbAlignedDimension
 13
2517.7957952478
 23
723.5171119828
 33
0.0
 14
2759.5957952478
 24
717.4115065916
 34
0.0
100
AcDbRotatedDimension
  0
DIMENSION
  5
C7
100
AcDbEntity
  8
______
  6
CONTINUOUS
 62
         4
100
AcDbDimension
  2
*D4
 10
2644.5957952478
 20
789.908769119
 30
0.0
 11
2696.8457952478
 21
792.533769119
 31
0.0
  3
DIMSTYLE1
100
AcDbAlignedDimension
 13
2644.5957952478
 23
740.7921119828
 33
0.0
 14
2759.5957952478
 24
717.4115065916
 34
0.0
100
AcDbRotatedDimension
  0
ARC
  5
D3
100
AcDbEntity
  8
______
  6
CONTINUOUS
 62
         7
100
AcDbCircle
 10
2719.6831171336
 20
686.3671119828
 30
0.0
 40
2.0
100
AcDbArc
 50
90.0
 51
95.0
  0
ARC
  5
D4
100
AcDbEntity
  8
______
  6
CONTINUOUS
 62
         7
100
AcDbCircle
 10
2719.6831171336
 20
725.3671119828
 30
0.0
 40
2.0
100
AcDbArc
 50
265.0
 51
270.0
  0
LINE
  5
D5
100
AcDbEntity
  8
______
  6
CONTINUOUS
 62
         7
100
AcDbLine
 10
2719.5088056481
 20
688.359501379
 30
0.0
 11
2664.3600165341
 21
683.5346075243
 31
0.0
  0
LINE
  5
D6
100
AcDbEntity
  8
______
  6
CONTINUOUS
 62
         7
100
AcDbLine
 10
2719.5088056481
 20
723.3747225866
 30
0.0
 11
2664.3600165341
 21
728.1996164413
 31
0.0
  0
LINE
  5
D7
100
AcDbEntity
  8
______
  6
CONTINUOUS
 62
         4
100
AcDbLine
 10
2719.5957952478
 20
688.3652047955
 30
0.0
 11
2719.5957952478
 21
723.3690191701
 31
0.0
  0
LINE
  5
D8
100
AcDbEntity
  8
______
  6
CONTINUOUS
 62
         7
100
AcDbLine
 10
2748.42987132
 20
688.3671119828
 30
0.0
 11
2719.6831171336
 21
688.3671119828
 31
0.0
  0
LINE
  5
D9
100
AcDbEntity
  8
______
  6
CONTINUOUS
 62
         7
100
AcDbLine
 10
2748.42987132
 20
723.3671119828
 30
0.0
 11
2719.6831171336
 21
723.3671119828
 31
0.0
  0
LINE
  5
DA
100
AcDbEntity
  8
______
  6
CONTINUOUS
 62
         7
100
AcDbLine
 10
2758.7297226404
 20
718.7709682721
 30
0.0
 11
2749.2751078435
 21
723.1797275569
 31
0.0
  0
LINE
  5
DB
100
AcDbEntity
  8
______
  6
CONTINUOUS
 62
         7
100
AcDbLine
 10
2749.2751078435
 20
688.5544964087
 30
0.0
 11
2758.7297226404
 21
692.9632556934
 31
0.0
  0
LINE
  5
DC
100
AcDbEntity
  8
______
  6
CONTINUOUS
 62
         7
100
AcDbLine
 10
2759.5957952478
 20
694.322717374
 30
0.0
 11
2759.5957952478
 21
717.4115065916
 31
0.0
  0
ARC
  5
DD
100
AcDbEntity
  8
______
  6
CONTINUOUS
 62
         7
100
AcDbCircle
 10
2748.42987132
 20
721.3671119828
 30
0.0
 40
2.0
100
AcDbArc
 50
65.0
 51
90.0
  0
ARC
  5
DE
100
AcDbEntity
  8
______
  6
CONTINUOUS
 62
         7
100
AcDbCircle
 10
2748.42987132
 20
690.3671119828
 30
0.0
 40
2.0
100
AcDbArc
 50
270.0
 51
295.0
  0
ARC
  5
DF
100
AcDbEntity
  8
______
  6
CONTINUOUS
 62
         7
100
AcDbCircle
 10
2758.0957952478
 20
717.4115065916
 30
0.0
 40
1.5
100
AcDbArc
 50
0.0
 51
65.0
  0
ARC
  5
E0
100
AcDbEntity
  8
______
  6
CONTINUOUS
 62
         7
100
AcDbCircle
 10
2758.0957952478
 20
694.322717374
 30
0.0
 40
1.5
100
AcDbArc
 50
295.0
 51
360.0
  0
LINE
  5
E1
100
AcDbEntity
  8
______
  6
CONTINUOUS
 62
         4
100
AcDbLine
 10
2748.8732606453
 20
688.416879713
 30
0.0
 11
2748.8732606453
 21
723.3173442526
 31
0.0
  0
ARC
  5
E2
100
AcDbEntity
  8
______
  6
DASHED
 62
         2
100
AcDbCircle
 10
2914.1132154648
 20
728.9421119828
 30
0.0
 40
10.0
100
AcDbArc
 50
224.9782055522
 51
315.0217944478
  0
CIRCLE
  5
E3
100
AcDbEntity
  8
______
  6
CONTINUOUS
 62
         7
100
AcDbCircle
 10
2914.1132154648
 20
705.8671119828
 30
0.0
 40
12.5
  0
CIRCLE
  5
E4
100
AcDbEntity
  8
______
  6
CONTINUOUS
 62
         7
100
AcDbCircle
 10
2914.1132154648
 20
705.8671119828
 30
0.0
 40
17.5
  0
CIRCLE
  5
E5
100
AcDbEntity
  8
______
  6
CONTINUOUS
 62
         7
100
AcDbCircle
 10
2914.1132154648
 20
705.8671119828
 30
0.0
 40
7.85
  0
CIRCLE
  5
E6
100
AcDbEntity
  8
______
  6
CONTINUOUS
 62
         7
100
AcDbCircle
 10
2914.1132154648
 20
705.8671119828
 30
0.0
 40
6.35
  0
CIRCLE
  5
E7
100
AcDbEntity
  8
______
  6
CONTINUOUS
 62
         4
100
AcDbCircle
 10
2914.1132154648
 20
705.8671119828
 30
0.0
 40
6.85
  0
LINE
  5
E8
100
AcDbEntity
  8
______
  6
DASHED
 62
         2
100
AcDbLine
 10
2919.1132154648
 20
689.7721737485
 30
0.0
 11
2919.1132154648
 21
701.9527154776
 31
0.0
  0
LINE
  5
E9
100
AcDbEntity
  8
______
  6
DASHED
 62
         2
100
AcDbLine
 10
2909.1132154648
 20
689.7721737485
 30
0.0
 11
2909.1132154648
 21
701.9527154776
 31
0.0
  0
LINE
  5
EA
100
AcDbEntity
  8
______
  6
DASHED
 62
         2
100
AcDbLine
 10
2908.5582154648
 20
689.2721737485
 30
0.0
 11
2908.5582154648
 21
702.7906732949
 31
0.0
  0
LINE
  5
EB
100
AcDbEntity
  8
______
  6
DASHED
 62
         2
100
AcDbLine
 10
2919.6682154648
 20
689.2721737485
 30
0.0
 11
2919.6682154648
 21
702.7906732949
 31
0.0
  0
LINE
  5
EC
100
AcDbEntity
  8
______
  6
DASHED
 62
         2
100
AcDbLine
 10
2919.1132154648
 20
689.7721737485
 30
0.0
 11
2909.1132154648
 21
689.7721737485
 31
0.0
  0
LINE
  5
ED
100
AcDbEntity
  8
______
  6
DASHED
 62
         2
100
AcDbLine
 10
2919.6269662801
 20
689.2584229332
 30
0.0
 11
2919.1132154648
 21
689.7721737485
 31
0.0
  0
LINE
  5
EE
100
AcDbEntity
  8
______
  6
DASHED
 62
         2
100
AcDbLine
 10
2908.5994646494
 20
689.2584229332
 30
0.0
 11
2909.1132154648
 21
689.7721737485
 31
0.0
  0
LINE
  5
EF
100
AcDbEntity
  8
______
  6
CONTINUOUS
 62
         7
100
AcDbLine
 10
2430.9190715826
 20
692.2372061477
 30
0.0
 11
2430.1391657476
 21
693.0171119828
 31
0.0
  0
LINE
  5
F0
100
AcDbEntity
  8
______
  6
CONTINUOUS
 62
         7
100
AcDbLine
 10
2430.9190715826
 20
719.4970178179
 30
0.0
 11
2430.1391657476
 21
718.7171119828
 31
0.0
  0
LINE
  5
F1
100
AcDbEntity
  8
______
  6
CONTINUOUS
 62
         7
100
AcDbLine
 10
2337.3073593469
 20
692.2372061477
 30
0.0
 11
2338.087265182
 21
693.0171119828
 31
0.0
  0
LINE
  5
F2
100
AcDbEntity
  8
______
  6
CONTINUOUS
 62
         7
100
AcDbLine
 10
2337.3073593469
 20
719.4970178179
 30
0.0
 11
2338.087265182
 21
718.7171119828
 31
0.0
  0
ARC
  5
F3
100
AcDbEntity
  8
______
  6
CONTINUOUS
 62
         7
100
AcDbCircle
 10
2519.7957952478
 20
723.5171119828
 30
0.0
 40
2.0
100
AcDbArc
 50
90.0
 51
180.0
  0
ARC
  5
F4
100
AcDbEntity
  8
______
  6
CONTINUOUS
 62
         7
100
AcDbCircle
 10
2519.7957952478
 20
688.2171119828
 30
0.0
 40
2.0
100
AcDbArc
 50
180.0
 51
270.0
  0
ARC
  5
F5
100
AcDbEntity
  8
______
  6
CONTINUOUS
 62
         7
100
AcDbCircle
 10
2519.8041123372
 20
478.2171119828
 30
0.0
 40
2.0
100
AcDbArc
 50
180.0
 51
270.0
  0
ARC
  5
F6
100
AcDbEntity
  8
______
  6
CONTINUOUS
 62
         7
100
AcDbCircle
 10
2519.8041123372
 20
513.5171119828
 30
0.0
 40
2.0
100
AcDbArc
 50
90.0
 51
180.0
  0
LINE
  5
F7
100
AcDbEntity
  8
______
  6
CONTINUOUS
 62
         7
100
AcDbLine
 10
2532.3760390431
 20
485.3700554975
 30
0.0
 11
2532.3760390431
 21
506.364168468
 31
0.0
  0
LINE
  5
F8
100
AcDbEntity
  8
______
  6
CONTINUOUS
 62
         7
100
AcDbLine
 10
2529.0815838413
 20
482.7036701809
 30
0.0
 11
2532.3760390431
 21
485.3700554975
 31
0.0
  0
LINE
  5
F9
100
AcDbEntity
  8
______
  6
CONTINUOUS
 62
         7
100
AcDbLine
 10
2529.0815838413
 20
509.0305537847
 30
0.0
 11
2532.3760390431
 21
506.364168468
 31
0.0
  0
LINE
  5
FA
100
AcDbEntity
  8
______
  6
CONTINUOUS
 62
         7
100
AcDbLine
 10
2534.762558178
 20
476.8255578236
 30
0.0
 11
2534.1541123372
 21
476.2171119828
 31
0.0
  0
LINE
  5
FB
100
AcDbEntity
  8
______
  6
CONTINUOUS
 62
         7
100
AcDbLine
 10
2534.8041123372
 20
514.8671119828
 30
0.0
 11
2534.1541123372
 21
515.5171119828
 31
0.0
  0
LINE
  5
FC
100
AcDbEntity
  8
______
  6
CONTINUOUS
 62
         7
100
AcDbLine
 10
2517.8041123372
 20
478.2171119828
 30
0.0
 11
2517.8041123372
 21
513.5171119828
 31
0.0
  0
LINE
  5
FD
100
AcDbEntity
  8
______
  6
CONTINUOUS
 62
         7
100
AcDbLine
 10
2534.1541123372
 20
515.5171119828
 30
0.0
 11
2519.8041123372
 21
515.5171119828
 31
0.0
  0
LINE
  5
FE
100
AcDbEntity
  8
______
  6
CONTINUOUS
 62
         7
100
AcDbLine
 10
2534.1541123372
 20
476.2171119828
 30
0.0
 11
2519.8041123372
 21
476.2171119828
 31
0.0
  0
LINE
  5
FF
100
AcDbEntity
  8
______
  6
CONTINUOUS
 62
         7
100
AcDbLine
 10
2544.0189725903
 20
475.6106975705
 30
0.0
 11
2542.8041123372
 21
476.8255578236
 31
0.0
  0
LINE
  5
100
100
AcDbEntity
  8
______
  6
CONTINUOUS
 62
         7
100
AcDbLine
 10
2544.0676213164
 20
516.130620962
 30
0.0
 11
2542.8041123372
 21
514.8671119828
 31
0.0
  0
LINE
  5
101
100
AcDbEntity
  8
______
  6
CONTINUOUS
 62
         7
100
AcDbLine
 10
2542.7957952478
 20
476.8671119828
 30
0.0
 11
2534.7957952478
 21
476.8671119828
 31
0.0
  0
LINE
  5
102
100
AcDbEntity
  8
______
  6
CONTINUOUS
 62
         7
100
AcDbLine
 10
2542.7957952478
 20
514.8671119828
 30
0.0
 11
2534.7957952478
 21
514.8671119828
 31
0.0
  0
LINE
  5
103
100
AcDbEntity
  8
______
  6
CONTINUOUS
 62
         7
100
AcDbLine
 10
2526.8041123372
 20
482.8700554975
 30
0.0
 11
2519.7957952478
 21
482.8700554975
 31
0.0
  0
ARC
  5
104
100
AcDbEntity
  8
______
  6
CONTINUOUS
 62
         7
100
AcDbCircle
 10
2519.7957952478
 20
480.8700554975
 30
0.0
 40
2.0
100
AcDbArc
 50
90.0
 51
180.0
  0
ARC
  5
105
100
AcDbEntity
  8
______
  6
CONTINUOUS
 62
         7
100
AcDbCircle
 10
2528.0027190781
 20
483.1700554975
 30
0.0
 40
0.6
100
AcDbArc
 50
255.0
 51
270.0
  0
ARC
  5
106
100
AcDbEntity
  8
______
  6
CONTINUOUS
 62
         7
100
AcDbCircle
 10
2528.7041123372
 20
483.1700554975
 30
0.0
 40
0.6
100
AcDbArc
 50
270.0
 51
360.0
  0
LINE
  5
107
100
AcDbEntity
  8
______
  6
CONTINUOUS
 62
         7
100
AcDbLine
 10
2528.7041123372
 20
482.5700554975
 30
0.0
 11
2528.0027190781
 21
482.5700554975
 31
0.0
  0
LINE
  5
108
100
AcDbEntity
  8
______
  6
CONTINUOUS
 62
         7
100
AcDbLine
 10
2527.847427651
 20
482.5905000018
 30
0.0
 11
2526.8041123372
 21
482.8700554975
 31
0.0
  0
LINE
  5
109
100
AcDbEntity
  8
______
  6
CONTINUOUS
 62
         7
100
AcDbLine
 10
2529.3041123372
 20
485.3700554975
 30
0.0
 11
2529.3041123372
 21
483.1700554975
 31
0.0
  0
LINE
  5
10A
100
AcDbEntity
  8
______
  6
CONTINUOUS
 62
         7
100
AcDbLine
 10
2529.3041123372
 20
506.364168468
 30
0.0
 11
2529.3041123372
 21
508.564168468
 31
0.0
  0
LINE
  5
10B
100
AcDbEntity
  8
______
  6
CONTINUOUS
 62
         4
100
AcDbLine
 10
2519.7957952478
 20
482.864168468
 30
0.0
 11
2519.7957952478
 21
508.864168468
 31
0.0
  0
LINE
  5
10C
100
AcDbEntity
  8
______
  6
CONTINUOUS
 62
         7
100
AcDbLine
 10
2564.8041123372
 20
483.864168468
 30
0.0
 11
2564.8041123372
 21
507.864168468
 31
0.0
  0
LINE
  5
10D
100
AcDbEntity
  8
______
  6
CONTINUOUS
 62
         4
100
AcDbLine
 10
2564.8041123372
 20
483.864168468
 30
0.0
 11
2530.515438729
 21
483.864168468
 31
0.0
  0
LINE
  5
10E
100
AcDbEntity
  8
______
  6
CONTINUOUS
 62
         4
100
AcDbLine
 10
2564.8041123372
 20
507.864168468
 30
0.0
 11
2530.5227124546
 21
507.864168468
 31
0.0
  0
LINE
  5
10F
100
AcDbEntity
  8
______
  6
CONTINUOUS
 62
         7
100
AcDbLine
 10
2527.847427651
 20
509.1437239638
 30
0.0
 11
2526.8041123372
 21
508.864168468
 31
0.0
  0
LINE
  5
110
100
AcDbEntity
  8
______
  6
CONTINUOUS
 62
         7
100
AcDbLine
 10
2528.7041123372
 20
509.164168468
 30
0.0
 11
2528.0027190781
 21
509.164168468
 31
0.0
  0
ARC
  5
111
100
AcDbEntity
  8
______
  6
CONTINUOUS
 62
         7
100
AcDbCircle
 10
2528.7041123372
 20
508.564168468
 30
0.0
 40
0.6
100
AcDbArc
 50
0.0
 51
90.0
  0
ARC
  5
112
100
AcDbEntity
  8
______
  6
CONTINUOUS
 62
         7
100
AcDbCircle
 10
2528.0027190781
 20
508.564168468
 30
0.0
 40
0.6
100
AcDbArc
 50
90.0
 51
105.0
  0
LINE
  5
113
100
AcDbEntity
  8
______
  6
CONTINUOUS
 62
         7
100
AcDbLine
 10
2526.8041123372
 20
482.864168468
 30
0.0
 11
2526.8041123372
 21
508.864168468
 31
0.0
  0
ARC
  5
114
100
AcDbEntity
  8
______
  6
CONTINUOUS
 62
         7
100
AcDbCircle
 10
2519.7957952478
 20
510.864168468
 30
0.0
 40
2.0
100
AcDbArc
 50
180.0
 51
270.0
  0
LINE
  5
115
100
AcDbEntity
  8
______
  6
CONTINUOUS
 62
         7
100
AcDbLine
 10
2529.3041123372
 20
485.364168468
 30
0.0
 11
2529.3041123372
 21
506.364168468
 31
0.0
  0
LINE
  5
116
100
AcDbEntity
  8
______
  6
CONTINUOUS
 62
         7
100
AcDbLine
 10
2526.8041123372
 20
508.864168468
 30
0.0
 11
2519.7957952478
 21
508.864168468
 31
0.0
  0
LINE
  5
117
100
AcDbEntity
  8
______
  6
CONTINUOUS
 62
         7
100
AcDbLine
 10
2542.7957952478
 20
686.8255578236
 30
0.0
 11
2542.7957952478
 21
724.8671119828
 31
0.0
  0
LINE
  5
118
100
AcDbEntity
  8
______
  6
CONTINUOUS
 62
         7
100
AcDbLine
 10
2534.1457952478
 20
686.2171119828
 30
0.0
 11
2519.7957952478
 21
686.2171119828
 31
0.0
  0
LINE
  5
119
100
AcDbEntity
  8
______
  6
CONTINUOUS
 62
         7
100
AcDbLine
 10
2542.7957952478
 20
724.8671119828
 30
0.0
 11
2534.7957952478
 21
724.8671119828
 31
0.0
  0
LINE
  5
11A
100
AcDbEntity
  8
______
  6
CONTINUOUS
 62
         7
100
AcDbLine
 10
2534.1457952478
 20
725.5171119828
 30
0.0
 11
2519.7957952478
 21
725.5171119828
 31
0.0
  0
LINE
  5
11B
100
AcDbEntity
  8
______
  6
CONTINUOUS
 62
         7
100
AcDbLine
 10
2517.7957952478
 20
688.2171119828
 30
0.0
 11
2517.7957952478
 21
723.5171119828
 31
0.0
  0
LINE
  5
11C
100
AcDbEntity
  8
______
  6
CONTINUOUS
 62
         7
100
AcDbLine
 10
2534.7957952478
 20
724.8671119828
 30
0.0
 11
2534.1457952478
 21
725.5171119828
 31
0.0
  0
LINE
  5
11D
100
AcDbEntity
  8
______
  6
CONTINUOUS
 62
         7
100
AcDbLine
 10
2544.059304227
 20
726.130620962
 30
0.0
 11
2542.7957952478
 21
724.8671119828
 31
0.0
  0
LINE
  5
11E
100
AcDbEntity
  8
______
  6
CONTINUOUS
 62
         7
100
AcDbLine
 10
2544.0106555009
 20
685.6106975705
 30
0.0
 11
2542.7957952478
 21
686.8255578236
 31
0.0
  0
LINE
  5
11F
100
AcDbEntity
  8
______
  6
CONTINUOUS
 62
         7
100
AcDbLine
 10
2534.7542410886
 20
686.8255578236
 30
0.0
 11
2534.1457952478
 21
686.2171119828
 31
0.0
  0
LINE
  5
120
100
AcDbEntity
  8
______
  6
CONTINUOUS
 62
         7
100
AcDbLine
 10
2542.7957952478
 20
686.8255578236
 30
0.0
 11
2534.7542410886
 21
686.8255578236
 31
0.0
  0
LINE
  5
121
100
AcDbEntity
  8
______
  6
CONTINUOUS
 62
         4
100
AcDbLine
 10
2544.059304227
 20
726.130620962
 30
0.0
 11
2544.0106555009
 21
685.6106975705
 31
0.0
  0
LINE
  5
122
100
AcDbEntity
  8
______
  6
CONTINUOUS
 62
         4
100
AcDbLine
 10
2534.1457952478
 20
725.5171119828
 30
0.0
 11
2534.1457952478
 21
686.2171119828
 31
0.0
  0
LINE
  5
123
100
AcDbEntity
  8
______
  6
CONTINUOUS
 62
         7
100
AcDbLine
 10
2534.7957952478
 20
724.8671119828
 30
0.0
 11
2534.7542410886
 21
686.8255578236
 31
0.0
  0
ARC
  5
124
100
AcDbEntity
  8
______
  6
CONTINUOUS
 62
         7
100
AcDbCircle
 10
2951.4132154648
 20
716.7171119828
 30
0.0
 40
2.0
100
AcDbArc
 50
90.0
 51
180.0
  0
ARC
  5
125
100
AcDbEntity
  8
______
  6
CONTINUOUS
 62
         7
100
AcDbCircle
 10
2951.4132154648
 20
695.0171119828
 30
0.0
 40
2.0
100
AcDbArc
 50
180.0
 51
270.0
  0
ARC
  5
126
100
AcDbEntity
  8
______
  6
CONTINUOUS
 62
         7
100
AcDbCircle
 10
2876.8132154648
 20
695.0171119828
 30
0.0
 40
2.0
100
AcDbArc
 50
270.0
 51
360.0
  0
ARC
  5
127
100
AcDbEntity
  8
______
  6
CONTINUOUS
 62
         7
100
AcDbCircle
 10
2876.8132154648
 20
716.7171119828
 30
0.0
 40
2.0
100
AcDbArc
 50
0.0
 51
90.0
  0
ARC
  5
128
100
AcDbEntity
  8
______
  6
CONTINUOUS
 62
         7
100
AcDbCircle
 10
2421.4132154648
 20
695.0171119828
 30
0.0
 40
2.0
100
AcDbArc
 50
180.0
 51
270.0
  0
ARC
  5
129
100
AcDbEntity
  8
______
  6
CONTINUOUS
 62
         7
100
AcDbCircle
 10
2421.4132154648
 20
716.7171119828
 30
0.0
 40
2.0
100
AcDbArc
 50
90.0
 51
180.0
  0
ARC
  5
12A
100
AcDbEntity
  8
______
  6
CONTINUOUS
 62
         7
100
AcDbCircle
 10
2346.8132154648
 20
695.0171119828
 30
0.0
 40
2.0
100
AcDbArc
 50
270.0
 51
360.0
  0
ARC
  5
12B
100
AcDbEntity
  8
______
  6
CONTINUOUS
 62
         7
100
AcDbCircle
 10
2346.8132154648
 20
716.7171119828
 30
0.0
 40
2.0
100
AcDbArc
 50
0.0
 51
90.0
  0
LINE
  5
12C
100
AcDbEntity
  8
______
  6
CONTINUOUS
 62
         7
100
AcDbLine
 10
2659.8041123372
 20
523.1798622807
 30
0.0
 11
2659.8041123372
 21
542.614168468
 31
0.0
  0
ARC
  5
12D
100
AcDbEntity
  8
______
  6
CONTINUOUS
 62
         7
100
AcDbCircle
 10
2649.8041123372
 20
449.114168468
 30
0.0
 40
2.0
100
AcDbArc
 50
180.0
 51
270.0
  0
ARC
  5
12E
100
AcDbEntity
  8
______
  6
CONTINUOUS
 62
         7
100
AcDbCircle
 10
2657.8041123372
 20
449.114168468
 30
0.0
 40
2.0
100
AcDbArc
 50
270.0
 51
360.0
  0
ARC
  5
12F
100
AcDbEntity
  8
______
  6
CONTINUOUS
 62
         7
100
AcDbCircle
 10
2657.8041123372
 20
542.614168468
 30
0.0
 40
2.0
100
AcDbArc
 50
0.0
 51
90.0
  0
ARC
  5
130
100
AcDbEntity
  8
______
  6
CONTINUOUS
 62
         7
100
AcDbCircle
 10
2649.8041123372
 20
542.614168468
 30
0.0
 40
2.0
100
AcDbArc
 50
90.0
 51
180.0
  0
LINE
  5
131
100
AcDbEntity
  8
______
  6
CONTINUOUS
 62
         7
100
AcDbLine
 10
2659.8041123372
 20
449.114168468
 30
0.0
 11
2659.8041123372
 21
468.5543616849
 31
0.0
  0
LINE
  5
132
100
AcDbEntity
  8
______
  6
CONTINUOUS
 62
         7
100
AcDbLine
 10
2647.8041123372
 20
531.1912512403
 30
0.0
 11
2647.8041123372
 21
542.614168468
 31
0.0
  0
LINE
  5
133
100
AcDbEntity
  8
______
  6
CONTINUOUS
 62
         7
100
AcDbLine
 10
2657.8041123372
 20
544.614168468
 30
0.0
 11
2649.8041123372
 21
544.614168468
 31
0.0
  0
LINE
  5
134
100
AcDbEntity
  8
______
  6
CONTINUOUS
 62
         7
100
AcDbLine
 10
2657.8041123372
 20
447.114168468
 30
0.0
 11
2649.8041123372
 21
447.114168468
 31
0.0
  0
LINE
  5
135
100
AcDbEntity
  8
______
  6
CONTINUOUS
 62
         7
100
AcDbLine
 10
2645.3041123372
 20
530.8912512403
 30
0.0
 11
2544.0676177818
 21
516.1276769318
 31
0.0
  0
LINE
  5
136
100
AcDbEntity
  8
______
  6
CONTINUOUS
 62
         7
100
AcDbLine
 10
2645.3041123372
 20
460.8370856958
 30
0.0
 11
2544.0189690569
 21
475.607754571
 31
0.0
  0
ARC
  5
137
100
AcDbEntity
  8
______
  6
CONTINUOUS
 62
         7
100
AcDbCircle
 10
2646.5027190781
 20
531.1912512403
 30
0.0
 40
0.6
100
AcDbArc
 50
255.0
 51
270.0
  0
ARC
  5
138
100
AcDbEntity
  8
______
  6
CONTINUOUS
 62
         7
100
AcDbCircle
 10
2647.2041123372
 20
531.1912512403
 30
0.0
 40
0.6
100
AcDbArc
 50
270.0
 51
360.0
  0
LINE
  5
139
100
AcDbEntity
  8
______
  6
CONTINUOUS
 62
         7
100
AcDbLine
 10
2646.347427651
 20
530.6116957445
 30
0.0
 11
2645.3041123372
 21
530.8912512403
 31
0.0
  0
LINE
  5
13A
100
AcDbEntity
  8
______
  6
CONTINUOUS
 62
         7
100
AcDbLine
 10
2647.2041123372
 20
530.5912512403
 30
0.0
 11
2646.5027190781
 21
530.5912512403
 31
0.0
  0
ARC
  5
13B
100
AcDbEntity
  8
______
  6
CONTINUOUS
 62
         7
100
AcDbCircle
 10
2646.5027190781
 20
460.5370856958
 30
0.0
 40
0.6
100
AcDbArc
 50
90.0
 51
105.0
  0
ARC
  5
13C
100
AcDbEntity
  8
______
  6
CONTINUOUS
 62
         7
100
AcDbCircle
 10
2647.2041123372
 20
460.5370856958
 30
0.0
 40
0.6
100
AcDbArc
 50
0.0
 51
90.0
  0
LINE
  5
13D
100
AcDbEntity
  8
______
  6
CONTINUOUS
 62
         7
100
AcDbLine
 10
2647.2041123372
 20
461.1370856958
 30
0.0
 11
2646.5027190781
 21
461.1370856958
 31
0.0
  0
LINE
  5
13E
100
AcDbEntity
  8
______
  6
CONTINUOUS
 62
         7
100
AcDbLine
 10
2646.347427651
 20
461.1166411916
 30
0.0
 11
2645.3041123372
 21
460.8370856958
 31
0.0
  0
LINE
  5
13F
100
AcDbEntity
  8
______
  6
CONTINUOUS
 62
         7
100
AcDbLine
 10
2647.8041123372
 20
460.5370856958
 30
0.0
 11
2647.8041123372
 21
449.114168468
 31
0.0
  0
LINE
  5
140
100
AcDbEntity
  8
______
  6
CONTINUOUS
 62
         7
100
AcDbLine
 10
2712.2014910697
 20
506.364168468
 30
0.0
 11
2532.3760390431
 21
506.364168468
 31
0.0
  0
LINE
  5
141
100
AcDbEntity
  8
______
  6
CONTINUOUS
 62
         7
100
AcDbLine
 10
2712.1980921917
 20
485.364168468
 30
0.0
 11
2532.3687653176
 21
485.364168468
 31
0.0
  0
ARC
  5
142
100
AcDbEntity
  8
______
  6
CONTINUOUS
 62
         7
100
AcDbCircle
 10
2657.7957952478
 20
659.1171119828
 30
0.0
 40
2.0
100
AcDbArc
 50
270.0
 51
360.0
  0
ARC
  5
143
100
AcDbEntity
  8
______
  6
CONTINUOUS
 62
         7
100
AcDbCircle
 10
2649.7957952478
 20
659.1171119828
 30
0.0
 40
2.0
100
AcDbArc
 50
180.0
 51
270.0
  0
ARC
  5
144
100
AcDbEntity
  8
______
  6
CONTINUOUS
 62
         7
100
AcDbCircle
 10
2657.7957952478
 20
752.6171119828
 30
0.0
 40
2.0
100
AcDbArc
 50
0.0
 51
90.0
  0
ARC
  5
145
100
AcDbEntity
  8
______
  6
CONTINUOUS
 62
         7
100
AcDbCircle
 10
2649.7957952478
 20
752.6171119828
 30
0.0
 40
2.0
100
AcDbArc
 50
90.0
 51
180.0
  0
LINE
  5
146
100
AcDbEntity
  8
______
  6
CENTER
 62
         1
100
AcDbLine
 10
2623.5086170405
 20
705.8671119828
 30
0.0
 11
2512.6242267385
 21
705.8671119828
 31
0.0
  0
LINE
  5
147
100
AcDbEntity
  8
______
  6
CENTER
 62
         1
100
AcDbLine
 10
2762.175487674
 20
705.8671119828
 30
0.0
 11
2635.6205337494
 21
705.8671119828
 31
0.0
  0
LINE
  5
148
100
AcDbEntity
  8
______
  6
CONTINUOUS
 62
         7
100
AcDbLine
 10
2659.7957952478
 20
659.1171119828
 30
0.0
 11
2659.7957952478
 21
752.6171119828
 31
0.0
  0
LINE
  5
149
100
AcDbEntity
  8
______
  6
CONTINUOUS
 62
         7
100
AcDbLine
 10
2647.7957952478
 20
659.1171119828
 30
0.0
 11
2647.7957952478
 21
752.6171119828
 31
0.0
  0
LINE
  5
14A
100
AcDbEntity
  8
______
  6
CONTINUOUS
 62
         7
100
AcDbLine
 10
2657.7957952478
 20
754.6171119828
 30
0.0
 11
2649.7957952478
 21
754.6171119828
 31
0.0
  0
LINE
  5
14B
100
AcDbEntity
  8
______
  6
CONTINUOUS
 62
         7
100
AcDbLine
 10
2657.7957952478
 20
657.1171119828
 30
0.0
 11
2649.7957952478
 21
657.1171119828
 31
0.0
  0
LINE
  5
14C
100
AcDbEntity
  8
______
  6
CENTER
 62
         1
100
AcDbLine
 10
2644.5957952478
 20
670.9421119828
 30
0.0
 11
2644.5957952478
 21
740.7921119828
 31
0.0
  0
LINE
  5
14D
100
AcDbEntity
  8
______
  6
CONTINUOUS
 62
         7
100
AcDbLine
 10
2645.2957952478
 20
740.894194755
 30
0.0
 11
2544.059304227
 21
726.130620962
 31
0.0
  0
LINE
  5
14E
100
AcDbEntity
  8
______
  6
CONTINUOUS
 62
         7
100
AcDbLine
 10
2645.2957952478
 20
670.8400292105
 30
0.0
 11
2544.0106555009
 21
685.6106975705
 31
0.0
  0
LINE
  5
14F
100
AcDbEntity
  8
______
  6
CONTINUOUS
 62
         7
100
AcDbLine
 10
2659.7957952478
 20
718.7171119828
 30
0.0
 11
2647.7957952478
 21
718.7171119828
 31
0.0
  0
LINE
  5
150
100
AcDbEntity
  8
______
  6
CONTINUOUS
 62
         7
100
AcDbLine
 10
2659.7957952478
 20
693.0171119828
 30
0.0
 11
2647.7957952478
 21
693.0171119828
 31
0.0
  0
LINE
  5
151
100
AcDbEntity
  8
______
  6
CENTER
 62
         1
100
AcDbLine
 10
2962.8632154648
 20
705.8671119828
 30
0.0
 11
2865.3632154648
 21
705.8671119828
 31
0.0
  0
LINE
  5
152
100
AcDbEntity
  8
______
  6
CENTER
 62
         1
100
AcDbLine
 10
2914.1132154648
 20
653.702489108
 30
0.0
 11
2914.1132154648
 21
758.0317348576
 31
0.0
  0
ARC
  5
153
100
AcDbEntity
  8
______
  6
CONTINUOUS
 62
         7
100
AcDbCircle
 10
2914.1132154648
 20
705.8671119828
 30
0.0
 40
48.75
100
AcDbArc
 50
196.5052120024
 51
343.4947879976
  0
LINE
  5
154
100
AcDbEntity
  8
______
  6
CONTINUOUS
 62
         7
100
AcDbLine
 10
2959.8544178455
 20
718.7171119828
 30
0.0
 11
2951.4132154648
 21
718.7171119828
 31
0.0
  0
LINE
  5
155
100
AcDbEntity
  8
______
  6
CONTINUOUS
 62
         7
100
AcDbLine
 10
2959.8544178455
 20
693.0171119828
 30
0.0
 11
2951.4132154648
 21
693.0171119828
 31
0.0
  0
LINE
  5
156
100
AcDbEntity
  8
______
  6
CONTINUOUS
 62
         7
100
AcDbLine
 10
2949.4132154648
 20
695.0171119828
 30
0.0
 11
2949.4132154648
 21
716.7171119828
 31
0.0
  0
LINE
  5
157
100
AcDbEntity
  8
______
  6
CONTINUOUS
 62
         7
100
AcDbLine
 10
2878.8132154648
 20
695.0171119828
 30
0.0
 11
2878.8132154648
 21
716.7171119828
 31
0.0
  0
LINE
  5
158
100
AcDbEntity
  8
______
  6
CONTINUOUS
 62
         7
100
AcDbLine
 10
2876.8132154648
 20
718.7171119828
 30
0.0
 11
2868.372013084
 21
718.7171119828
 31
0.0
  0
LINE
  5
159
100
AcDbEntity
  8
______
  6
CONTINUOUS
 62
         7
100
AcDbLine
 10
2876.8132154648
 20
693.0171119828
 30
0.0
 11
2868.372013084
 21
693.0171119828
 31
0.0
  0
ARC
  5
15A
100
AcDbEntity
  8
______
  6
CONTINUOUS
 62
         7
100
AcDbCircle
 10
2914.1132154648
 20
705.8671119828
 30
0.0
 40
48.75
100
AcDbArc
 50
16.5052120024
 51
163.4947879976
  0
LINE
  5
15B
100
AcDbEntity
  8
______
  6
CENTER
 62
         1
100
AcDbLine
 10
2762.175487674
 20
495.8671119828
 30
0.0
 11
2514.5849863312
 21
495.8671119828
 31
0.0
  0
LINE
  5
15C
100
AcDbEntity
  8
______
  6
CONTINUOUS
 62
         7
100
AcDbLine
 10
2645.2957952478
 20
670.8400292105
 30
0.0
 11
2645.2957952478
 21
740.894194755
 31
0.0
  0
LINE
  5
15D
100
AcDbEntity
  8
______
  6
CONTINUOUS
 62
         7
100
AcDbLine
 10
2647.1957952478
 20
740.594194755
 30
0.0
 11
2646.4944019887
 21
740.594194755
 31
0.0
  0
LINE
  5
15E
100
AcDbEntity
  8
______
  6
CONTINUOUS
 62
         7
100
AcDbLine
 10
2646.3391105616
 20
740.6146392592
 30
0.0
 11
2645.2957952478
 21
740.894194755
 31
0.0
  0
ARC
  5
15F
100
AcDbEntity
  8
______
  6
CONTINUOUS
 62
         7
100
AcDbCircle
 10
2647.1957952478
 20
741.194194755
 30
0.0
 40
0.6
100
AcDbArc
 50
270.0
 51
360.0
  0
ARC
  5
160
100
AcDbEntity
  8
______
  6
CONTINUOUS
 62
         7
100
AcDbCircle
 10
2646.4944019887
 20
741.194194755
 30
0.0
 40
0.6
100
AcDbArc
 50
255.0
 51
270.0
  0
ARC
  5
161
100
AcDbEntity
  8
______
  6
CONTINUOUS
 62
         7
100
AcDbCircle
 10
2646.4944019887
 20
670.5400292105
 30
0.0
 40
0.6
100
AcDbArc
 50
90.0
 51
105.0
  0
ARC
  5
162
100
AcDbEntity
  8
______
  6
CONTINUOUS
 62
         7
100
AcDbCircle
 10
2647.1957952478
 20
670.5400292105
 30
0.0
 40
0.6
100
AcDbArc
 50
0.0
 51
90.0
  0
LINE
  5
163
100
AcDbEntity
  8
______
  6
CONTINUOUS
 62
         7
100
AcDbLine
 10
2646.3391105616
 20
671.1195847063
 30
0.0
 11
2645.2957952478
 21
670.8400292105
 31
0.0
  0
LINE
  5
164
100
AcDbEntity
  8
______
  6
CONTINUOUS
 62
         7
100
AcDbLine
 10
2647.1957952478
 20
671.1400292105
 30
0.0
 11
2646.4944019887
 21
671.1400292105
 31
0.0
  0
ARC
  5
165
100
AcDbEntity
  8
______
  6
CONTINUOUS
 62
         7
100
AcDbCircle
 10
2384.1132154648
 20
705.8671119828
 30
0.0
 40
48.75
100
AcDbArc
 50
16.2356055887
 51
163.7643944113
  0
LINE
  5
166
100
AcDbEntity
  8
______
  6
CONTINUOUS
 62
         7
100
AcDbLine
 10
2346.8132154648
 20
693.0171119828
 30
0.0
 11
2338.087265182
 21
693.0171119828
 31
0.0
  0
LINE
  5
167
100
AcDbEntity
  8
______
  6
CONTINUOUS
 62
         7
100
AcDbLine
 10
2346.8132154648
 20
718.7171119828
 30
0.0
 11
2338.087265182
 21
718.7171119828
 31
0.0
  0
LINE
  5
168
100
AcDbEntity
  8
______
  6
CONTINUOUS
 62
         7
100
AcDbLine
 10
2348.8132154648
 20
695.0171119828
 30
0.0
 11
2348.8132154648
 21
716.7171119828
 31
0.0
  0
LINE
  5
169
100
AcDbEntity
  8
______
  6
CONTINUOUS
 62
         7
100
AcDbLine
 10
2419.4132154648
 20
695.0171119828
 30
0.0
 11
2419.4132154648
 21
716.7171119828
 31
0.0
  0
LINE
  5
16A
100
AcDbEntity
  8
______
  6
CONTINUOUS
 62
         7
100
AcDbLine
 10
2430.1391657476
 20
693.0171119828
 30
0.0
 11
2421.4132154648
 21
693.0171119828
 31
0.0
  0
LINE
  5
16B
100
AcDbEntity
  8
______
  6
CONTINUOUS
 62
         7
100
AcDbLine
 10
2430.1391657476
 20
718.7171119828
 30
0.0
 11
2421.4132154648
 21
718.7171119828
 31
0.0
  0
ARC
  5
16C
100
AcDbEntity
  8
______
  6
CONTINUOUS
 62
         7
100
AcDbCircle
 10
2384.1132154648
 20
705.8671119828
 30
0.0
 40
48.75
100
AcDbArc
 50
196.2356055887
 51
343.7643944113
  0
LINE
  5
16D
100
AcDbEntity
  8
______
  6
CENTER
 62
         1
100
AcDbLine
 10
2384.1132154648
 20
646.9254607729
 30
0.0
 11
2384.1132154648
 21
769.2110441959
 31
0.0
  0
LINE
  5
16E
100
AcDbEntity
  8
______
  6
CENTER
 62
         1
100
AcDbLine
 10
2439.3221863339
 20
705.8671119828
 30
0.0
 11
2328.4499240304
 21
705.8671119828
 31
0.0
  0
CIRCLE
  5
16F
100
AcDbEntity
  8
______
  6
CONTINUOUS
 62
         7
100
AcDbCircle
 10
2384.1132154648
 20
705.8671119828
 30
0.0
 40
19.895
  0
CIRCLE
  5
170
100
AcDbEntity
  8
______
  6
CONTINUOUS
 62
         7
100
AcDbCircle
 10
2384.1132154648
 20
705.8671119828
 30
0.0
 40
35.0270827722
  0
LINE
  5
171
100
AcDbEntity
  8
______
  6
CONTINUOUS
 62
         7
100
AcDbLine
 10
2659.7957952478
 20
716.7171119828
 30
0.0
 11
2647.7957952478
 21
716.7171119828
 31
0.0
  0
LINE
  5
172
100
AcDbEntity
  8
______
  6
CONTINUOUS
 62
         7
100
AcDbLine
 10
2659.7957952478
 20
695.0171119828
 30
0.0
 11
2647.7957952478
 21
695.0171119828
 31
0.0
  0
CIRCLE
  5
173
100
AcDbEntity
  8
______
  6
CONTINUOUS
 62
         7
100
AcDbCircle
 10
2384.1132154648
 20
705.8671119828
 30
0.0
 40
13.0
  0
ARC
  5
174
100
AcDbEntity
  8
______
  6
CONTINUOUS
 62
         4
100
AcDbCircle
 10
2384.1132154648
 20
705.8671119828
 30
0.0
 40
12.0
100
AcDbArc
 50
270.0
 51
540.0
  0
CIRCLE
  5
175
100
AcDbEntity
  8
______
  6
CONTINUOUS
 62
         7
100
AcDbCircle
 10
2384.1132154648
 20
705.8671119828
 30
0.0
 40
10.5
  0
DIMENSION
  5
178
100
AcDbEntity
  8
______
  6
CONTINUOUS
 62
         4
100
AcDbDimension
  2
*D5
 10
2801.4493453521
 20
754.6171119828
 30
0.0
 11
2798.8243453521
 21
691.6336441598
 31
0.0
  3
DIMSTYLE1
100
AcDbAlignedDimension
 13
2657.7957952478
 23
754.6171119828
 33
0.0
 14
2657.7957952478
 24
657.1171119828
 34
0.0
 50
90.0
100
AcDbRotatedDimension
  0
LINE
  5
184
100
AcDbEntity
  8
______
  6
CONTINUOUS
 62
         7
100
AcDbLine
 10
2867.372013084
 20
719.7171119828
 30
0.0
 11
2868.372013084
 21
718.7171119828
 31
0.0
  0
LINE
  5
185
100
AcDbEntity
  8
______
  6
CONTINUOUS
 62
         7
100
AcDbLine
 10
2867.372013084
 20
692.0171119828
 30
0.0
 11
2868.372013084
 21
693.0171119828
 31
0.0
  0
LINE
  5
186
100
AcDbEntity
  8
______
  6
CONTINUOUS
 62
         7
100
AcDbLine
 10
2960.8544178455
 20
719.7171119828
 30
0.0
 11
2959.8544178455
 21
718.7171119828
 31
0.0
  0
LINE
  5
187
100
AcDbEntity
  8
______
  6
CONTINUOUS
 62
         7
100
AcDbLine
 10
2960.8544178455
 20
692.0171119828
 30
0.0
 11
2959.8544178455
 21
693.0171119828
 31
0.0
  0
INSERT
  5
209
100
AcDbEntity
  8
0
  6
CONTINUOUS
100
AcDbBlockReference
  2
*X6
 10
0.0
 20
0.0
 30
0.0
  0
TEXT
  5
20B
100
AcDbEntity
  8
______
  6
CONTINUOUS
 62
         2
100
AcDbText
 10
2898.6849932474
 20
780.0529486616
 30
0.0
 40
4.5
  1
534028
 41
0.98
  7
BOX
100
AcDbText
  0
ENDSEC
  0
SECTION
  2
OBJECTS
  0
DICTIONARY
  5
19
100
AcDbDictionary
  3
ACAD_GROUP
350
1A
  3
ACAD_MLINESTYLE
350
1B
  0
DICTIONARY
  5
1A
102
{ACAD_REACTORS
330
19
102
}
100
AcDbDictionary
  0
DICTIONARY
  5
1B
102
{ACAD_REACTORS
330
19
102
}
100
AcDbDictionary
  3
STANDARD
350
1C
  0
MLINESTYLE
  5
1C
102
{ACAD_REACTORS
330
1B
102
}
100
AcDbMlineStyle
  2
STANDARD
 70
         0
  3

 62
         0
 51
90.0
 52
90.0
 71
         2
 49
0.5
 62
       256
  6
BYLAYER
 49
-0.5
 62
       256
  6
BYLAYER
  0
ENDSEC
  0
EOF
