  0
SECTION
  2
HEADER
  9
$ACADVER
  1
AC1014
  9
$ACADMAINTVER
 70
         0
  9
$DWGCODEPAGE
  3
BIG5
  9
$INSBASE
 10
0.0
 20
0.0
 30
0.0
  9
$EXTMIN
 10
4491.0386651642
 20
-846.2887284544
 30
0.0
  9
$EXTMAX
 10
5354.3053584316
 20
-411.056437852
 30
0.0
  9
$LIMMIN
 10
0.0
 20
0.0
  9
$LIMMAX
 10
0.0
 20
0.0
  9
$ORTHOMODE
 70
         0
  9
$REGENMODE
 70
         1
  9
$FILLMODE
 70
         1
  9
$QTEXTMODE
 70
         0
  9
$MIRRTEXT
 70
         1
  9
$DRAGMODE
 70
         2
  9
$LTSCALE
 40
1.0
  9
$OSMODE
 70
         0
  9
$ATTMODE
 70
         1
  9
$TEXTSIZE
 40
1.7
  9
$TRACEWID
 40
0.05
  9
$TEXTSTYLE
  7
STANDARD
  9
$CLAYER
  8
0
  9
$CELTYPE
  6
CONTINUOUS
  9
$CECOLOR
 62
         4
  9
$CELTSCALE
 40
1.0
  9
$DELOBJ
 70
         1
  9
$DISPSILH
 70
         0
  9
$DIMSCALE
 40
1.0
  9
$DIMASZ
 40
0.18
  9
$DIMEXO
 40
0.0625
  9
$DIMDLI
 40
0.38
  9
$DIMRND
 40
0.0
  9
$DIMDLE
 40
0.0
  9
$DIMEXE
 40
0.25
  9
$DIMTP
 40
0.01
  9
$DIMTM
 40
-0.01
  9
$DIMTXT
 40
3.5
  9
$DIMCEN
 40
0.09
  9
$DIMTSZ
 40
0.0
  9
$DIMTOL
 70
         0
  9
$DIMLIM
 70
         0
  9
$DIMTIH
 70
         1
  9
$DIMTOH
 70
         1
  9
$DIMSE1
 70
         0
  9
$DIMSE2
 70
         0
  9
$DIMTAD
 70
         0
  9
$DIMZIN
 70
         0
  9
$DIMBLK
  1

  9
$DIMASO
 70
         1
  9
$DIMSHO
 70
         1
  9
$DIMPOST
  1

  9
$DIMAPOST
  1

  9
$DIMALT
 70
         0
  9
$DIMALTD
 70
         2
  9
$DIMALTF
 40
25.4
  9
$DIMLFAC
 40
1.0
  9
$DIMTOFL
 70
         0
  9
$DIMTVP
 40
0.0
  9
$DIMTIX
 70
         0
  9
$DIMSOXD
 70
         0
  9
$DIMSAH
 70
         0
  9
$DIMBLK1
  1

  9
$DIMBLK2
  1

  9
$DIMSTYLE
  2
STANDARD
  9
$DIMCLRD
 70
         0
  9
$DIMCLRE
 70
         0
  9
$DIMCLRT
 70
         4
  9
$DIMTFAC
 40
1.0
  9
$DIMGAP
 40
0.09
  9
$DIMJUST
 70
         0
  9
$DIMSD1
 70
         0
  9
$DIMSD2
 70
         0
  9
$DIMTOLJ
 70
         1
  9
$DIMTZIN
 70
         0
  9
$DIMALTZ
 70
         0
  9
$DIMALTTZ
 70
         0
  9
$DIMFIT
 70
         3
  9
$DIMUPT
 70
         0
  9
$DIMUNIT
 70
         2
  9
$DIMDEC
 70
         4
  9
$DIMTDEC
 70
         4
  9
$DIMALTU
 70
         2
  9
$DIMALTTD
 70
         2
  9
$DIMTXSTY
  7
STANDARD
  9
$DIMAUNIT
 70
         0
  9
$LUNITS
 70
         2
  9
$LUPREC
 70
        10
  9
$SKETCHINC
 40
0.1
  9
$FILLETRAD
 40
0.0
  9
$AUNITS
 70
         0
  9
$AUPREC
 70
         0
  9
$MENU
  1
acad
  9
$ELEVATION
 40
0.0
  9
$PELEVATION
 40
0.0
  9
$THICKNESS
 40
0.0
  9
$LIMCHECK
 70
         0
  9
$BLIPMODE
 70
         1
  9
$CHAMFERA
 40
0.0
  9
$CHAMFERB
 40
0.0
  9
$CHAMFERC
 40
0.0
  9
$CHAMFERD
 40
0.0
  9
$SKPOLY
 70
         0
  9
$TDCREATE
 40
0.000000000
  9
$TDUPDATE
 40
0.000000000
  9
$TDINDWG
 40
0.0000000000
  9
$TDUSRTIMER
 40
0.0000000000
  9
$USRTIMER
 70
         1
  9
$ANGBASE
 50
0.0
  9
$ANGDIR
 70
         0
  9
$PDMODE
 70
         2
  9
$PDSIZE
 40
0.0
  9
$PLINEWID
 40
0.0
  9
$COORDS
 70
         1
  9
$SPLFRAME
 70
         0
  9
$SPLINETYPE
 70
         6
  9
$SPLINESEGS
 70
         8
  9
$ATTDIA
 70
         0
  9
$ATTREQ
 70
         1
  9
$HANDLING
 70
         1
  9
$HANDSEED
  5
1CA
  9
$SURFTAB1
 70
         6
  9
$SURFTAB2
 70
         6
  9
$SURFTYPE
 70
         6
  9
$SURFU
 70
         6
  9
$SURFV
 70
         6
  9
$UCSNAME
  2

  9
$UCSORG
 10
0.0
 20
0.0
 30
0.0
  9
$UCSXDIR
 10
1.0
 20
0.0
 30
0.0
  9
$UCSYDIR
 10
0.0
 20
1.0
 30
0.0
  9
$PUCSNAME
  2

  9
$PUCSORG
 10
0.0
 20
0.0
 30
0.0
  9
$PUCSXDIR
 10
1.0
 20
0.0
 30
0.0
  9
$PUCSYDIR
 10
0.0
 20
1.0
 30
0.0
  9
$USERI1
 70
         0
  9
$USERI2
 70
         0
  9
$USERI3
 70
         0
  9
$USERI4
 70
         0
  9
$USERI5
 70
         0
  9
$USERR1
 40
0.0
  9
$USERR2
 40
0.0
  9
$USERR3
 40
0.0
  9
$USERR4
 40
0.0
  9
$USERR5
 40
0.0
  9
$WORLDVIEW
 70
         1
  9
$SHADEDGE
 70
         3
  9
$SHADEDIF
 70
        70
  9
$TILEMODE
 70
         1
  9
$MAXACTVP
 70
        16
  9
$PINSBASE
 10
0.0
 20
0.0
 30
0.0
  9
$PLIMCHECK
 70
         0
  9
$PEXTMIN
 10
1.0000000000E+20
 20
1.0000000000E+20
 30
1.0000000000E+20
  9
$PEXTMAX
 10
-1.0000000000E+20
 20
-1.0000000000E+20
 30
-1.0000000000E+20
  9
$PLIMMIN
 10
0.0
 20
0.0
  9
$PLIMMAX
 10
12.0
 20
9.0
  9
$UNITMODE
 70
         0
  9
$VISRETAIN
 70
         0
  9
$PLINEGEN
 70
         1
  9
$PSLTSCALE
 70
         0
  9
$TREEDEPTH
 70
      3020
  9
$PICKSTYLE
 70
         1
  9
$CMLSTYLE
  2
STANDARD
  9
$CMLJUST
 70
         0
  9
$CMLSCALE
 40
1.0
  9
$PROXYGRAPHICS
 70
         0
  9
$MEASUREMENT
 70
         0
  0
ENDSEC
  0
SECTION
  2
CLASSES
  0
CLASS
  1
LWPOLYLINE
  2
AcDbPolyline
  3
"AutoCAD"
 90
        0
280
         0
281
         1
  0
CLASS
  1
IMAGE
  2
AcDbRasterImage
  3
ISM
 90
      127
280
         0
281
         1
  0
CLASS
  1
OLE2FRAME
  2
AcDbOle2Frame
  3
""
 90
        0
280
         0
281
         1
  0
CLASS
  1
HATCH
  2
AcDbHatch
  3
"ACAD_SEDONA"
 90
        0
280
         0
281
         1
  0
CLASS
  1
DICTIONARYVAR
  2
AcDbDictionaryVar
  3
"AutoCAD"
 90
        0
280
         0
281
         0
  0
CLASS
  1
RASTERVARIABLES
  2
AcDbRasterVariables
  3
ISM
 90
        0
280
         0
281
         0
  0
CLASS
  1
IMAGEDEF
  2
AcDbRasterImageDef
  3
ISM
 90
        0
280
         0
281
         0
  0
CLASS
  1
IMAGEDEF_REACTOR
  2
AcDbRasterImageDefReactor
  3
ISM
 90
        1
280
         0
281
         0
  0
CLASS
  1
IDBUFFER
  2
AcDbIdBuffer
  3
"Acad"
 90
        0
280
         0
281
         0
  0
CLASS
  1
SPATIAL_FILTER
  2
AcDbSpatialFilter
  3
"Acad"
 90
        0
280
         0
281
         0
  0
CLASS
  1
XRECORD
  2
AcDbXrecord
  3
"<Built In>"
 90
        0
280
         0
281
         0
  0
CLASS
  1
SORTENTSTABLE
  2
AcDbSortentsTable
  3
"AutoCAD"
 90
        0
280
         0
281
         0
  0
CLASS
  1
LAYER_INDEX
  2
AcDbLayerIndex
  3
"Acad"
 90
        0
280
         0
281
         0
  0
CLASS
  1
SPATIAL_INDEX
  2
AcDbSpatialIndex
  3
"Acad"
 90
        0
280
         0
281
         0
  0
CLASS
  1
OBJECT_PTR
  2
CAseDLPNTableRecord
  3
"ASE-LPNTableRecord"
 90
        1
280
         0
281
         0
  0
CLASS
  1
LAYOUT
  2
AcDbLayout
  3
"AutoCAD 2000"
 90
        1
280
         0
281
         0
  0
CLASS
  1
PLOTSETTINGS
  2
AcDbPlotSettings
  3
"AutoCAD 2000"
 90
        1
280
         0
281
         0
  0
CLASS
  1
ACDBDICTIONARYWDFLT
  2
AcDbDictionaryWithDefault
  3
"AutoCAD 2000"
 90
        1
280
         0
281
         0
  0
CLASS
  1
ACDBPLACEHOLDER
  2
AcDbPlaceHolder
  3
"AutoCAD 2000"
 90
        1
280
         0
281
         0
  0
CLASS
  1
VBA_PROJECT
  2
AcDbVbaProject
  3
"acadvba"
 90
        1
280
         0
281
         0
  0
CLASS
  1
WIPEOUT
  2
AcDbWipeout
  3
WipeOut|AutoCAD Express Tool|expresstools@autodesk.com
 90
      127
280
         0
281
         1
  0
CLASS
  1
WIPEOUTVARIABLES
  2
AcDbWipeoutVariables
  3
WipeOut|AutoCAD Express Tool|expresstools@autodesk.com
 90
        0
280
         0
281
         0
  0
CLASS
  1
RTEXT
  2
RText
  3
RText|AutoCAD Express Tool|expresstools@autodesk.com
 90
        0
280
         0
281
         1
  0
CLASS
  1
ARCALIGNEDTEXT
  2
AcDbArcAlignedText
  3
ATEXT|AutoCAD Express Tool|expresstools@autodesk.com
 90
        0
280
         0
281
         1
  0
ENDSEC
  0
SECTION
  2
TABLES
  0
TABLE
  2
VPORT
  5
7
100
AcDbSymbolTable
 70
         1
  0
VPORT
  5
15
100
AcDbSymbolTableRecord
100
AcDbViewportTableRecord
  2
*ACTIVE
 70
         0
 10
0.0
 20
0.0
 11
1.0
 21
1.0
 12
4922.6720117979
 22
-628.6725831532
 13
0.0
 23
0.0
 14
1.0
 24
1.0
 15
0.0
 25
0.0
 16
0.0
 26
0.0
 36
1.0
 17
0.0
 27
0.0
 37
0.0
 40
435.2322906023
 41
1.9834619625
 42
50.0
 43
0.0
 44
0.0
 50
0.0
 51
0.0
 71
         0
 72
       100
 73
         1
 74
         1
 75
         0
 76
         0
 77
         0
 78
         0
  0
ENDTAB
  0
TABLE
  2
LTYPE
  5
4
100
AcDbSymbolTable
 70
         6
  0
LTYPE
  5
11
100
AcDbSymbolTableRecord
100
AcDbLinetypeTableRecord
  2
BYBLOCK
 70
        64
  3

 72
        65
 73
         0
 40
0.0
  0
LTYPE
  5
12
100
AcDbSymbolTableRecord
100
AcDbLinetypeTableRecord
  2
BYLAYER
 70
        64
  3

 72
        65
 73
         0
 40
0.0
  0
LTYPE
  5
13
100
AcDbSymbolTableRecord
100
AcDbLinetypeTableRecord
  2
CONTINUOUS
 70
        64
  3
Solid line
 72
        65
 73
         0
 40
0.0
  0
LTYPE
  5
1D
100
AcDbSymbolTableRecord
100
AcDbLinetypeTableRecord
  2
DASHED
 70
        64
  3
_ _ _ _ _ _ _ _ _ _ _ _ _ _ _ _
 72
        65
 73
         2
 40
0.2
 49
0.1
 74
         0
 49
-0.1
 74
         0
  0
LTYPE
  5
1E
100
AcDbSymbolTableRecord
100
AcDbLinetypeTableRecord
  2
CENTER
 70
        64
  3
___ _ ___ _ ___ _ ___ _ ___ _ ___ _ ___ _ ___ _
 72
        65
 73
         4
 40
0.95
 49
0.625
 74
         0
 49
-0.125
 74
         0
 49
0.075
 74
         0
 49
-0.125
 74
         0
  0
LTYPE
  5
1F
100
AcDbSymbolTableRecord
100
AcDbLinetypeTableRecord
  2
PHANTOM
 70
        64
  3
______  __  __  ______  __  __  ______  __  __  
 72
        65
 73
         6
 40
1.025
 49
0.625
 74
         0
 49
-0.125
 74
         0
 49
0.075
 74
         0
 49
-0.125
 74
         0
 49
0.075
 74
         0
 49
-0.125
 74
         0
  0
ENDTAB
  0
TABLE
  2
LAYER
  5
2
100
AcDbSymbolTable
 70
         9
  0
LAYER
  5
14
100
AcDbSymbolTableRecord
100
AcDbLayerTableRecord
  2
0
 70
         0
 62
         7
  6
CONTINUOUS
  0
LAYER
  5
21
100
AcDbSymbolTableRecord
100
AcDbLayerTableRecord
  2
____
 70
         0
 62
         7
  6
CONTINUOUS
  0
LAYER
  5
22
100
AcDbSymbolTableRecord
100
AcDbLayerTableRecord
  2
____
 70
         1
 62
         7
  6
CONTINUOUS
  0
LAYER
  5
23
100
AcDbSymbolTableRecord
100
AcDbLayerTableRecord
  2
____
 70
         1
 62
         7
  6
CONTINUOUS
  0
LAYER
  5
24
100
AcDbSymbolTableRecord
100
AcDbLayerTableRecord
  2
____
 70
         1
 62
         7
  6
CONTINUOUS
  0
LAYER
  5
25
100
AcDbSymbolTableRecord
100
AcDbLayerTableRecord
  2
___G
 70
         1
 62
         7
  6
CONTINUOUS
  0
LAYER
  5
26
100
AcDbSymbolTableRecord
100
AcDbLayerTableRecord
  2
______
 70
         1
 62
         7
  6
CONTINUOUS
  0
LAYER
  5
27
100
AcDbSymbolTableRecord
100
AcDbLayerTableRecord
  2
____
 70
         1
 62
         7
  6
CONTINUOUS
  0
LAYER
  5
34
100
AcDbSymbolTableRecord
100
AcDbLayerTableRecord
  2
DEFPOINTS
 70
         0
 62
        -7
  6
CONTINUOUS
  0
ENDTAB
  0
TABLE
  2
STYLE
  5
3
100
AcDbSymbolTable
 70
         5
  0
STYLE
  5
17
100
AcDbSymbolTableRecord
100
AcDbTextStyleTableRecord
  2
STANDARD
 70
         0
 40
0.0
 41
1.0
 50
0.0
 71
         0
 42
0.0
  3
txt
  4

  0
STYLE
  5
3D
100
AcDbSymbolTableRecord
100
AcDbTextStyleTableRecord
  2
BOX
 70
         0
 40
1.0
 41
1.0
 50
0.0
 71
         0
 42
0.2
  3
txt.shx
  4

  0
STYLE
  5
4B
100
AcDbSymbolTableRecord
100
AcDbTextStyleTableRecord
  2
BOX
 70
         0
 40
1.0
 41
1.0
 50
0.0
 71
         0
 42
0.2
  3
txt.shx
  4

  0
STYLE
  5
AE
100
AcDbSymbolTableRecord
100
AcDbTextStyleTableRecord
  2
BOX
 70
         0
 40
1.0
 41
1.0
 50
0.0
 71
         0
 42
0.2
  3
txt.shx
  4

  0
STYLE
  5
1C8
100
AcDbSymbolTableRecord
100
AcDbTextStyleTableRecord
  2
BOX
 70
         0
 40
1.0
 41
1.0
 50
0.0
 71
         0
 42
0.2
  3
txt.shx
  4

  0
ENDTAB
  0
TABLE
  2
VIEW
  5
5
100
AcDbSymbolTable
 70
         0
  0
ENDTAB
  0
TABLE
  2
UCS
  5
6
100
AcDbSymbolTable
 70
         1
  0
UCS
  5
20
100
AcDbSymbolTableRecord
100
AcDbUCSTableRecord
  2
CK_VIEW_1
 70
         0
 10
0.0
 20
0.0
 30
1.0
 11
1.0
 21
0.0
 31
0.0
 12
0.0
 22
1.0
 32
0.0
  0
ENDTAB
  0
TABLE
  2
APPID
  5
8
100
AcDbSymbolTable
 70
         1
  0
APPID
  5
16
100
AcDbSymbolTableRecord
100
AcDbRegAppTableRecord
  2
ACAD
 70
         0
  0
ENDTAB
  0
TABLE
  2
DIMSTYLE
  5
9
100
AcDbSymbolTable
 70
         2
  0
DIMSTYLE
105
18
100
AcDbSymbolTableRecord
100
AcDbDimStyleTableRecord
  2
STANDARD
 70
         0
  3

  4

  5

  6

  7

 40
1.0
 41
0.18
 42
0.0625
 43
0.38
 44
0.18
 45
0.0
 46
0.0
 47
0.0
 48
0.0
 71
         0
 72
         0
 73
         1
 74
         1
 75
         0
 76
         0
 77
         0
 78
         0
140
0.18
141
0.09
142
0.0
143
25.4
144
1.0
145
0.0
146
1.0
147
0.09
170
         0
171
         2
172
         0
173
         0
174
         0
175
         0
176
         0
177
         0
178
         0
270
         2
271
         4
272
         4
273
         2
274
         2
275
         0
280
         0
281
         0
282
         0
283
         1
284
         0
285
         0
286
         0
287
         0
288
         0
340
17
  0
DIMSTYLE
105
30
100
AcDbSymbolTableRecord
100
AcDbDimStyleTableRecord
  2
DIMSTYLE1
 70
         0
  3

  4

  5

  6

  7

 40
1.0
 41
3.5
 42
0.0625
 43
0.38
 44
3.5
 45
0.0
 46
0.0
 47
0.0
 48
0.0
 71
         0
 72
         0
 73
         1
 74
         1
 75
         0
 76
         0
 77
         0
 78
         0
140
3.5
141
0.09
142
0.0
143
25.4
144
1.0
145
0.0
146
1.0
147
0.09
170
         0
171
         2
172
         0
173
         0
174
         0
175
         0
176
         0
177
         0
178
         0
270
         2
271
         4
272
         4
273
         2
274
         2
275
         0
280
         0
281
         0
282
         0
283
         1
284
         0
285
         0
286
         0
287
         0
288
         0
340
17
  0
ENDTAB
  0
TABLE
  2
BLOCK_RECORD
  5
1
100
AcDbSymbolTable
 70
         4
  0
BLOCK_RECORD
  5
A
100
AcDbSymbolTableRecord
100
AcDbBlockTableRecord
  2
*MODEL_SPACE
  0
BLOCK_RECORD
  5
B
100
AcDbSymbolTableRecord
100
AcDbBlockTableRecord
  2
*PAPER_SPACE
  0
BLOCK_RECORD
  5
31
100
AcDbSymbolTableRecord
100
AcDbBlockTableRecord
  2
*D0
  0
BLOCK_RECORD
  5
40
100
AcDbSymbolTableRecord
100
AcDbBlockTableRecord
  2
*D1
  0
BLOCK_RECORD
  5
A3
100
AcDbSymbolTableRecord
100
AcDbBlockTableRecord
  2
*D2
  0
BLOCK_RECORD
  5
14F
100
AcDbSymbolTableRecord
100
AcDbBlockTableRecord
  2
*X3
  0
ENDTAB
  0
ENDSEC
  0
SECTION
  2
BLOCKS
  0
BLOCK
  5
D
100
AcDbEntity
  8
0
100
AcDbBlockBegin
  2
*MODEL_SPACE
 70
         0
 10
0.0
 20
0.0
 30
0.0
  3
*MODEL_SPACE
  1

  0
ENDBLK
  5
E
100
AcDbEntity
  8
0
100
AcDbBlockEnd
  0
BLOCK
  5
F
100
AcDbEntity
 67
         1
  8
0
100
AcDbBlockBegin
  2
*PAPER_SPACE
 70
         0
 10
0.0
 20
0.0
 30
0.0
  3
*PAPER_SPACE
  1

  0
ENDBLK
  5
10
100
AcDbEntity
 67
         1
  8
0
100
AcDbBlockEnd
  0
BLOCK
  5
32
100
AcDbEntity
  8
0
100
AcDbBlockBegin
  2
*D0
 70
        65
 10
0.0
 20
0.0
 30
0.0
  3
*D0
  1

  0
POINT
  5
35
100
AcDbEntity
  8
DEFPOINTS
  6
CONTINUOUS
 62
         0
100
AcDbPoint
 10
4774.5525250864
 20
-436.9647237885
 30
0.0
  0
POINT
  5
36
100
AcDbEntity
  8
DEFPOINTS
  6
CONTINUOUS
 62
         0
100
AcDbPoint
 10
4774.5525250864
 20
-534.8554425179
 30
0.0
  0
POINT
  5
37
100
AcDbEntity
  8
DEFPOINTS
  6
CONTINUOUS
 62
         0
100
AcDbPoint
 10
5004.8525250864
 20
-522.7554425179
 30
0.0
  0
LINE
  5
38
100
AcDbEntity
  8
____
  6
CONTINUOUS
 62
         4
100
AcDbLine
 10
4774.5525250864
 20
-533.1054425179
 30
0.0
 11
4774.5525250864
 21
-436.0897237885
 31
0.0
  0
LINE
  5
39
100
AcDbEntity
  8
____
  6
CONTINUOUS
 62
         4
100
AcDbLine
 10
5004.8525250864
 20
-521.0054425179
 30
0.0
 11
5004.8525250864
 21
-436.0897237885
 31
0.0
  0
LINE
  5
3A
100
AcDbEntity
  8
____
  6
CONTINUOUS
 62
         4
100
AcDbLine
 10
4774.5525250864
 20
-436.9647237885
 30
0.0
 11
5004.8525250864
 21
-436.9647237885
 31
0.0
  0
SOLID
  5
3B
100
AcDbEntity
  8
____
  6
CONTINUOUS
 62
         4
100
AcDbTrace
 10
4774.5525250864
 20
-436.9647237885
 30
0.0
 11
4778.0525250864
 21
-436.4397237885
 31
0.0
 12
4778.0525250864
 22
-437.4897237885
 32
0.0
 13
4774.5525250864
 23
-436.9647237885
 33
0.0
  0
SOLID
  5
3C
100
AcDbEntity
  8
____
  6
CONTINUOUS
 62
         4
100
AcDbTrace
 10
5004.8525250864
 20
-436.9647237885
 30
0.0
 11
5001.3525250864
 21
-437.4897237885
 31
0.0
 12
5001.3525250864
 22
-436.4397237885
 32
0.0
 13
5004.8525250864
 23
-436.9647237885
 33
0.0
  0
TEXT
  5
3E
100
AcDbEntity
  8
____
  6
CONTINUOUS
 62
         4
100
AcDbText
 10
4878.3374299409
 20
-434.3397237885
 30
0.0
 40
3.5
  1
231.3
  7
BOX
100
AcDbText
  0
ENDBLK
  5
3F
100
AcDbEntity
  8
0
  6
CONTINUOUS
100
AcDbBlockEnd
  0
BLOCK
  5
41
100
AcDbEntity
  8
0
100
AcDbBlockBegin
  2
*D1
 70
        65
 10
0.0
 20
0.0
 30
0.0
  3
*D1
  1

  0
POINT
  5
43
100
AcDbEntity
  8
DEFPOINTS
  6
CONTINUOUS
 62
         0
100
AcDbPoint
 10
4901.3525250864
 20
-450.6066824785
 30
0.0
  0
POINT
  5
44
100
AcDbEntity
  8
DEFPOINTS
  6
CONTINUOUS
 62
         0
100
AcDbPoint
 10
4901.3525250864
 20
-517.5804425179
 30
0.0
  0
POINT
  5
45
100
AcDbEntity
  8
DEFPOINTS
  6
CONTINUOUS
 62
         0
100
AcDbPoint
 10
4976.3525250864
 20
-490.5054425179
 30
0.0
  0
LINE
  5
46
100
AcDbEntity
  8
____
  6
CONTINUOUS
 62
         4
100
AcDbLine
 10
4901.3525250864
 20
-515.8304425179
 30
0.0
 11
4901.3525250864
 21
-449.7316824785
 31
0.0
  0
LINE
  5
47
100
AcDbEntity
  8
____
  6
CONTINUOUS
 62
         4
100
AcDbLine
 10
4976.3525250864
 20
-488.7554425179
 30
0.0
 11
4976.3525250864
 21
-449.7316824785
 31
0.0
  0
LINE
  5
48
100
AcDbEntity
  8
____
  6
CONTINUOUS
 62
         4
100
AcDbLine
 10
4901.3525250864
 20
-450.6066824785
 30
0.0
 11
4976.3525250864
 21
-450.6066824785
 31
0.0
  0
SOLID
  5
49
100
AcDbEntity
  8
____
  6
CONTINUOUS
 62
         4
100
AcDbTrace
 10
4901.3525250864
 20
-450.6066824785
 30
0.0
 11
4904.8525250864
 21
-450.0816824785
 31
0.0
 12
4904.8525250864
 22
-451.1316824785
 32
0.0
 13
4901.3525250864
 23
-450.6066824785
 33
0.0
  0
SOLID
  5
4A
100
AcDbEntity
  8
____
  6
CONTINUOUS
 62
         4
100
AcDbTrace
 10
4976.3525250864
 20
-450.6066824785
 30
0.0
 11
4972.8525250864
 21
-451.1316824785
 31
0.0
 12
4972.8525250864
 22
-450.0816824785
 32
0.0
 13
4976.3525250864
 23
-450.6066824785
 33
0.0
  0
TEXT
  5
4C
100
AcDbEntity
  8
____
  6
CONTINUOUS
 62
         4
100
AcDbText
 10
4934.3658317313
 20
-447.9816824785
 30
0.0
 40
3.5
  1
75
  7
BOX
100
AcDbText
  0
ENDBLK
  5
4D
100
AcDbEntity
  8
0
  6
CONTINUOUS
100
AcDbBlockEnd
  0
BLOCK
  5
A4
100
AcDbEntity
  8
0
100
AcDbBlockBegin
  2
*D2
 70
        65
 10
0.0
 20
0.0
 30
0.0
  3
*D2
  1

  0
POINT
  5
A6
100
AcDbEntity
  8
DEFPOINTS
  6
CONTINUOUS
 62
         0
100
AcDbPoint
 10
5073.9187167956
 20
-488.5054425179
 30
0.0
  0
POINT
  5
A7
100
AcDbEntity
  8
DEFPOINTS
  6
CONTINUOUS
 62
         0
100
AcDbPoint
 10
4974.3525250864
 20
-488.5054425179
 30
0.0
  0
POINT
  5
A8
100
AcDbEntity
  8
DEFPOINTS
  6
CONTINUOUS
 62
         0
100
AcDbPoint
 10
4974.3525250864
 20
-616.5054425179
 30
0.0
  0
LINE
  5
A9
100
AcDbEntity
  8
____
  6
CONTINUOUS
 62
         4
100
AcDbLine
 10
4976.1025250864
 20
-488.5054425179
 30
0.0
 11
5074.7937167956
 21
-488.5054425179
 31
0.0
  0
LINE
  5
AA
100
AcDbEntity
  8
____
  6
CONTINUOUS
 62
         4
100
AcDbLine
 10
4976.1025250864
 20
-616.5054425179
 30
0.0
 11
5074.7937167956
 21
-616.5054425179
 31
0.0
  0
LINE
  5
AB
100
AcDbEntity
  8
____
  6
CONTINUOUS
 62
         4
100
AcDbLine
 10
5073.9187167956
 20
-488.5054425179
 30
0.0
 11
5073.9187167956
 21
-616.5054425179
 31
0.0
  0
SOLID
  5
AC
100
AcDbEntity
  8
____
  6
CONTINUOUS
 62
         4
100
AcDbTrace
 10
5073.9187167956
 20
-488.5054425179
 30
0.0
 11
5074.4437167956
 21
-492.0054425179
 31
0.0
 12
5073.3937167956
 22
-492.0054425179
 32
0.0
 13
5073.9187167956
 23
-488.5054425179
 33
0.0
  0
SOLID
  5
AD
100
AcDbEntity
  8
____
  6
CONTINUOUS
 62
         4
100
AcDbTrace
 10
5073.9187167956
 20
-616.5054425179
 30
0.0
 11
5073.3937167956
 21
-613.0054425179
 31
0.0
 12
5074.4437167956
 22
-613.0054425179
 32
0.0
 13
5073.9187167956
 23
-616.5054425179
 33
0.0
  0
TEXT
  5
AF
100
AcDbEntity
  8
____
  6
CONTINUOUS
 62
         4
100
AcDbText
 10
5071.2937167956
 20
-564.5009250519
 30
0.0
 40
3.5
  1
崷128
 50
90.0
  7
BOX
100
AcDbText
  0
ENDBLK
  5
B0
100
AcDbEntity
  8
0
  6
CONTINUOUS
100
AcDbBlockEnd
  0
BLOCK
  5
150
100
AcDbEntity
  8
0
100
AcDbBlockBegin
  2
*X3
 70
        65
 10
0.0
 20
0.0
 30
0.0
  3
*X3
  1

  0
LINE
  5
151
100
AcDbEntity
  8
____
  6
CONTINUOUS
 62
         4
100
AcDbLine
 10
4999.8673292172
 20
-794.2554425179
 30
0.0
 11
5004.8525250864
 21
-789.2702466487
 31
0.0
  0
LINE
  5
152
100
AcDbEntity
  8
____
  6
CONTINUOUS
 62
         4
100
AcDbLine
 10
4963.3746885301
 20
-826.5054425179
 30
0.0
 11
4963.8525250864
 21
-826.0276059616
 31
0.0
  0
LINE
  5
153
100
AcDbEntity
  8
____
  6
CONTINUOUS
 62
         4
100
AcDbLine
 10
4995.6246885301
 20
-794.2554425179
 30
0.0
 11
5004.8525250864
 21
-785.0276059616
 31
0.0
  0
LINE
  5
154
100
AcDbEntity
  8
____
  6
CONTINUOUS
 62
         4
100
AcDbLine
 10
4959.132047843
 20
-826.5054425179
 30
0.0
 11
4963.8525250864
 21
-821.7849652745
 31
0.0
  0
LINE
  5
155
100
AcDbEntity
  8
____
  6
CONTINUOUS
 62
         4
100
AcDbLine
 10
4991.382047843
 20
-794.2554425179
 30
0.0
 11
5004.8525250864
 21
-780.7849652745
 31
0.0
  0
LINE
  5
156
100
AcDbEntity
  8
____
  6
CONTINUOUS
 62
         4
100
AcDbLine
 10
4954.8894071559
 20
-826.5054425179
 30
0.0
 11
4962.5144071559
 21
-818.8804425179
 31
0.0
  0
LINE
  5
157
100
AcDbEntity
  8
____
  6
CONTINUOUS
 62
         4
100
AcDbLine
 10
4987.1394071559
 20
-794.2554425179
 30
0.0
 11
5004.8525250864
 21
-776.5423245874
 31
0.0
  0
LINE
  5
158
100
AcDbEntity
  8
____
  6
CONTINUOUS
 62
         4
100
AcDbLine
 10
4950.6467664688
 20
-826.5054425179
 30
0.0
 11
4958.2717664688
 21
-818.8804425179
 31
0.0
  0
LINE
  5
159
100
AcDbEntity
  8
____
  6
CONTINUOUS
 62
         4
100
AcDbLine
 10
4982.8967664688
 20
-794.2554425179
 30
0.0
 11
5004.8525250864
 21
-772.2996839003
 31
0.0
  0
LINE
  5
15A
100
AcDbEntity
  8
____
  6
CONTINUOUS
 62
         4
100
AcDbLine
 10
4946.4041257816
 20
-826.5054425179
 30
0.0
 11
4954.0291257817
 21
-818.8804425179
 31
0.0
  0
LINE
  5
15B
100
AcDbEntity
  8
____
  6
CONTINUOUS
 62
         4
100
AcDbLine
 10
4960.7791257817
 20
-812.1304425179
 30
0.0
 11
4963.8525250864
 21
-809.0570432131
 31
0.0
  0
LINE
  5
15C
100
AcDbEntity
  8
____
  6
CONTINUOUS
 62
         4
100
AcDbLine
 10
4973.4041257816
 20
-799.5054425179
 30
0.0
 11
4976.3525250864
 21
-796.5570432131
 31
0.0
  0
LINE
  5
15D
100
AcDbEntity
  8
____
  6
CONTINUOUS
 62
         4
100
AcDbLine
 10
4978.6541257817
 20
-794.2554425179
 30
0.0
 11
5004.8525250864
 21
-768.0570432131
 31
0.0
  0
LINE
  5
15E
100
AcDbEntity
  8
____
  6
CONTINUOUS
 62
         4
100
AcDbLine
 10
4942.1614850945
 20
-826.5054425179
 30
0.0
 11
4949.7864850945
 21
-818.8804425179
 31
0.0
  0
LINE
  5
15F
100
AcDbEntity
  8
____
  6
CONTINUOUS
 62
         4
100
AcDbLine
 10
4956.5364850945
 20
-812.1304425179
 30
0.0
 11
4963.8525250864
 21
-804.814402526
 31
0.0
  0
LINE
  5
160
100
AcDbEntity
  8
____
  6
CONTINUOUS
 62
         4
100
AcDbLine
 10
4969.1614850945
 20
-799.5054425179
 30
0.0
 11
5004.8525250864
 21
-763.814402526
 31
0.0
  0
LINE
  5
161
100
AcDbEntity
  8
____
  6
CONTINUOUS
 62
         4
100
AcDbLine
 10
4937.9188444074
 20
-826.5054425179
 30
0.0
 11
4947.6414639049
 21
-816.7828230204
 31
0.0
  0
LINE
  5
162
100
AcDbEntity
  8
____
  6
CONTINUOUS
 62
         4
100
AcDbLine
 10
4952.2938444074
 20
-812.1304425179
 30
0.0
 11
4963.8525250864
 21
-800.5717618389
 31
0.0
  0
LINE
  5
163
100
AcDbEntity
  8
____
  6
CONTINUOUS
 62
         4
100
AcDbLine
 10
4964.9188444074
 20
-799.5054425179
 30
0.0
 11
5004.8525250864
 21
-759.5717618389
 31
0.0
  0
LINE
  5
164
100
AcDbEntity
  8
____
  6
CONTINUOUS
 62
         4
100
AcDbLine
 10
4933.8189106381
 20
-826.3627356001
 30
0.0
 11
5004.8525250864
 21
-755.3291211518
 31
0.0
  0
LINE
  5
165
100
AcDbEntity
  8
____
  6
CONTINUOUS
 62
         4
100
AcDbLine
 10
4932.5608421758
 20
-823.3781633753
 30
0.0
 11
5004.8525250864
 21
-751.0864804647
 31
0.0
  0
LINE
  5
166
100
AcDbEntity
  8
____
  6
CONTINUOUS
 62
         4
100
AcDbLine
 10
4932.5608421758
 20
-819.1355226881
 30
0.0
 11
5004.8525250864
 21
-746.8438397775
 31
0.0
  0
LINE
  5
167
100
AcDbEntity
  8
____
  6
CONTINUOUS
 62
         4
100
AcDbLine
 10
4932.5608421758
 20
-814.892882001
 30
0.0
 11
5004.8525250864
 21
-742.6011990904
 31
0.0
  0
LINE
  5
168
100
AcDbEntity
  8
____
  6
CONTINUOUS
 62
         4
100
AcDbLine
 10
4932.5608421758
 20
-810.6502413139
 30
0.0
 11
5004.8525250864
 21
-738.3585584033
 31
0.0
  0
LINE
  5
169
100
AcDbEntity
  8
____
  6
CONTINUOUS
 62
         4
100
AcDbLine
 10
4932.5608421758
 20
-806.4076006268
 30
0.0
 11
5004.8525250864
 21
-734.1159177162
 31
0.0
  0
LINE
  5
16A
100
AcDbEntity
  8
____
  6
CONTINUOUS
 62
         4
100
AcDbLine
 10
4932.5502302946
 20
-802.1755718209
 30
0.0
 11
5003.7551112047
 21
-730.9706909108
 31
0.0
  0
LINE
  5
16B
100
AcDbEntity
  8
____
  6
CONTINUOUS
 62
         4
100
AcDbLine
 10
4928.9777189105
 20
-801.5054425179
 30
0.0
 11
4999.7277189105
 21
-730.7554425179
 31
0.0
  0
LINE
  5
16C
100
AcDbEntity
  8
____
  6
CONTINUOUS
 62
         4
100
AcDbLine
 10
4915.0405058038
 20
-811.2000149375
 30
0.0
 11
4916.5024710806
 21
-809.7380496606
 31
0.0
  0
LINE
  5
16D
100
AcDbEntity
  8
____
  6
CONTINUOUS
 62
         4
100
AcDbLine
 10
4924.7350782233
 20
-801.5054425179
 30
0.0
 11
4995.4850782233
 21
-730.7554425179
 31
0.0
  0
LINE
  5
16E
100
AcDbEntity
  8
____
  6
CONTINUOUS
 62
         4
100
AcDbLine
 10
4910.7394940215
 20
-811.2583860327
 30
0.0
 11
4916.5608421758
 21
-805.4370378783
 31
0.0
  0
LINE
  5
16F
100
AcDbEntity
  8
____
  6
CONTINUOUS
 62
         4
100
AcDbLine
 10
4920.4924375362
 20
-801.5054425179
 30
0.0
 11
4991.2424375362
 21
-730.7554425179
 31
0.0
  0
LINE
  5
170
100
AcDbEntity
  8
____
  6
CONTINUOUS
 62
         4
100
AcDbLine
 10
4906.4978457189
 20
-811.2573936481
 30
0.0
 11
4986.9997968491
 21
-730.7554425179
 31
0.0
  0
LINE
  5
171
100
AcDbEntity
  8
____
  6
CONTINUOUS
 62
         4
100
AcDbLine
 10
4904.5608421758
 20
-808.9517565041
 30
0.0
 11
4982.757156162
 21
-730.7554425179
 31
0.0
  0
LINE
  5
172
100
AcDbEntity
  8
____
  6
CONTINUOUS
 62
         4
100
AcDbLine
 10
4904.5608421758
 20
-804.7091158169
 30
0.0
 11
4978.5145154749
 21
-730.7554425179
 31
0.0
  0
LINE
  5
173
100
AcDbEntity
  8
____
  6
CONTINUOUS
 62
         4
100
AcDbLine
 10
4904.5608421758
 20
-800.4664751298
 30
0.0
 11
4976.3525250864
 21
-728.6747922192
 31
0.0
  0
LINE
  5
174
100
AcDbEntity
  8
____
  6
CONTINUOUS
 62
         4
100
AcDbLine
 10
4903.5492078136
 20
-797.2354688049
 30
0.0
 11
4975.2792341006
 21
-725.5054425179
 31
0.0
  0
LINE
  5
175
100
AcDbEntity
  8
____
  6
CONTINUOUS
 62
         4
100
AcDbLine
 10
4899.3952911772
 20
-797.1467447542
 30
0.0
 11
4971.0365934135
 21
-725.5054425179
 31
0.0
  0
LINE
  5
176
100
AcDbEntity
  8
____
  6
CONTINUOUS
 62
         4
100
AcDbLine
 10
4895.692620351
 20
-796.6067748933
 30
0.0
 11
4966.7939527264
 21
-725.5054425179
 31
0.0
  0
LINE
  5
177
100
AcDbEntity
  8
____
  6
CONTINUOUS
 62
         4
100
AcDbLine
 10
4891.9899495248
 20
-796.0668050324
 30
0.0
 11
4963.8525250864
 21
-724.2042294708
 31
0.0
  0
LINE
  5
178
100
AcDbEntity
  8
____
  6
CONTINUOUS
 62
         4
100
AcDbLine
 10
4888.2872786985
 20
-795.5268351715
 30
0.0
 11
4963.8525250864
 21
-719.9615887836
 31
0.0
  0
LINE
  5
179
100
AcDbEntity
  8
____
  6
CONTINUOUS
 62
         4
100
AcDbLine
 10
4884.5846078723
 20
-794.9868653106
 30
0.0
 11
4963.8525250864
 21
-715.7189480965
 31
0.0
  0
LINE
  5
17A
100
AcDbEntity
  8
____
  6
CONTINUOUS
 62
         4
100
AcDbLine
 10
4880.8819370461
 20
-794.4468954497
 30
0.0
 11
4962.4483899779
 21
-712.8804425179
 31
0.0
  0
LINE
  5
17B
100
AcDbEntity
  8
____
  6
CONTINUOUS
 62
         4
100
AcDbLine
 10
4877.1792662199
 20
-793.9069255888
 30
0.0
 11
4958.2057492908
 21
-712.8804425179
 31
0.0
  0
LINE
  5
17C
100
AcDbEntity
  8
____
  6
CONTINUOUS
 62
         4
100
AcDbLine
 10
4873.4765953936
 20
-793.3669557279
 30
0.0
 11
4953.9631086037
 21
-712.8804425179
 31
0.0
  0
LINE
  5
17D
100
AcDbEntity
  8
____
  6
CONTINUOUS
 62
         4
100
AcDbLine
 10
4960.7131086037
 20
-706.1304425179
 30
0.0
 11
4963.8525250864
 21
-702.9910260352
 31
0.0
  0
LINE
  5
17E
100
AcDbEntity
  8
____
  6
CONTINUOUS
 62
         4
100
AcDbLine
 10
4869.7739245674
 20
-792.826985867
 30
0.0
 11
4949.7204679165
 21
-712.8804425179
 31
0.0
  0
LINE
  5
17F
100
AcDbEntity
  8
____
  6
CONTINUOUS
 62
         4
100
AcDbLine
 10
4956.4704679165
 20
-706.1304425179
 30
0.0
 11
4963.8525250864
 21
-698.748385348
 31
0.0
  0
LINE
  5
180
100
AcDbEntity
  8
____
  6
CONTINUOUS
 62
         4
100
AcDbLine
 10
4866.0712537412
 20
-792.2870160061
 30
0.0
 11
4947.6172999407
 21
-710.7409698067
 31
0.0
  0
LINE
  5
181
100
AcDbEntity
  8
____
  6
CONTINUOUS
 62
         4
100
AcDbLine
 10
4952.2278272294
 20
-706.1304425179
 30
0.0
 11
4959.8528272294
 21
-698.5054425179
 31
0.0
  0
LINE
  5
182
100
AcDbEntity
  8
____
  6
CONTINUOUS
 62
         4
100
AcDbLine
 10
4862.368582915
 20
-791.7470461452
 30
0.0
 11
4930.6101865423
 21
-723.5054425179
 31
0.0
  0
LINE
  5
183
100
AcDbEntity
  8
____
  6
CONTINUOUS
 62
         4
100
AcDbLine
 10
4932.5608421758
 20
-721.5547868844
 30
0.0
 11
4955.6101865423
 21
-698.5054425179
 31
0.0
  0
LINE
  5
184
100
AcDbEntity
  8
____
  6
CONTINUOUS
 62
         4
100
AcDbLine
 10
4858.6659120888
 20
-791.2070762843
 30
0.0
 11
4926.3675458552
 21
-723.5054425179
 31
0.0
  0
LINE
  5
185
100
AcDbEntity
  8
____
  6
CONTINUOUS
 62
         4
100
AcDbLine
 10
4932.5608421758
 20
-717.3121461973
 30
0.0
 11
4951.3675458552
 21
-698.5054425179
 31
0.0
  0
LINE
  5
186
100
AcDbEntity
  8
____
  6
CONTINUOUS
 62
         4
100
AcDbLine
 10
4854.9632412625
 20
-790.6671064234
 30
0.0
 11
4922.1249051681
 21
-723.5054425179
 31
0.0
  0
LINE
  5
187
100
AcDbEntity
  8
____
  6
CONTINUOUS
 62
         4
100
AcDbLine
 10
4932.5608421758
 20
-713.0695055102
 30
0.0
 11
4947.1249051681
 21
-698.5054425179
 31
0.0
  0
LINE
  5
188
100
AcDbEntity
  8
____
  6
CONTINUOUS
 62
         4
100
AcDbLine
 10
4851.2605704363
 20
-790.1271365625
 30
0.0
 11
4917.882264481
 21
-723.5054425179
 31
0.0
  0
LINE
  5
189
100
AcDbEntity
  8
____
  6
CONTINUOUS
 62
         4
100
AcDbLine
 10
4932.5608421758
 20
-708.826864823
 30
0.0
 11
4942.882264481
 21
-698.5054425179
 31
0.0
  0
LINE
  5
18A
100
AcDbEntity
  8
____
  6
CONTINUOUS
 62
         4
100
AcDbLine
 10
4847.5578996101
 20
-789.5871667016
 30
0.0
 11
4916.5608421758
 21
-720.5842241359
 31
0.0
  0
LINE
  5
18B
100
AcDbEntity
  8
____
  6
CONTINUOUS
 62
         4
100
AcDbLine
 10
4932.5608421758
 20
-704.5842241359
 30
0.0
 11
4938.6396237938
 21
-698.5054425179
 31
0.0
  0
LINE
  5
18C
100
AcDbEntity
  8
____
  6
CONTINUOUS
 62
         4
100
AcDbLine
 10
4843.8552287839
 20
-789.0471968407
 30
0.0
 11
4916.5608421758
 21
-716.3415834488
 31
0.0
  0
LINE
  5
18D
100
AcDbEntity
  8
____
  6
CONTINUOUS
 62
         4
100
AcDbLine
 10
4932.5681829985
 20
-700.3342426261
 30
0.0
 11
4934.3896422841
 21
-698.5127833406
 31
0.0
  0
LINE
  5
18E
100
AcDbEntity
  8
____
  6
CONTINUOUS
 62
         4
100
AcDbLine
 10
4840.1525579576
 20
-788.5072269798
 30
0.0
 11
4901.027835732
 21
-727.6319492054
 31
0.0
  0
LINE
  5
18F
100
AcDbEntity
  8
____
  6
CONTINUOUS
 62
         4
100
AcDbLine
 10
4904.5608421758
 20
-724.0989427617
 30
0.0
 11
4914.8763550175
 21
-713.78342992
 31
0.0
  0
LINE
  5
190
100
AcDbEntity
  8
____
  6
CONTINUOUS
 62
         4
100
AcDbLine
 10
4836.4498871314
 20
-787.967257119
 30
0.0
 11
4896.060846418
 21
-728.3562978324
 31
0.0
  0
LINE
  5
191
100
AcDbEntity
  8
____
  6
CONTINUOUS
 62
         4
100
AcDbLine
 10
4904.5608421758
 20
-719.8563020746
 30
0.0
 11
4910.6587582177
 21
-713.7583860327
 31
0.0
  0
LINE
  5
192
100
AcDbEntity
  8
____
  6
CONTINUOUS
 62
         4
100
AcDbLine
 10
4832.7472163052
 20
-787.4272872581
 30
0.0
 11
4891.0938571039
 21
-729.0806464593
 31
0.0
  0
LINE
  5
193
100
AcDbEntity
  8
____
  6
CONTINUOUS
 62
         4
100
AcDbLine
 10
4904.5665042304
 20
-715.6079993329
 30
0.0
 11
4906.410455476
 21
-713.7640480872
 31
0.0
  0
LINE
  5
194
100
AcDbEntity
  8
____
  6
CONTINUOUS
 62
         4
100
AcDbLine
 10
4829.044545479
 20
-786.8873173972
 30
0.0
 11
4886.1268677899
 21
-729.8049950863
 31
0.0
  0
LINE
  5
195
100
AcDbEntity
  8
____
  6
CONTINUOUS
 62
         4
100
AcDbLine
 10
4825.3418746528
 20
-786.3473475363
 30
0.0
 11
4881.1598784758
 21
-730.5293437132
 31
0.0
  0
LINE
  5
196
100
AcDbEntity
  8
____
  6
CONTINUOUS
 62
         4
100
AcDbLine
 10
4821.6392038265
 20
-785.8073776754
 30
0.0
 11
4834.4381954692
 21
-773.0083860327
 31
0.0
  0
LINE
  5
197
100
AcDbEntity
  8
____
  6
CONTINUOUS
 62
         4
100
AcDbLine
 10
4838.2774187984
 20
-769.1691627035
 30
0.0
 11
4876.1928891617
 21
-731.2536923402
 31
0.0
  0
LINE
  5
198
100
AcDbEntity
  8
____
  6
CONTINUOUS
 62
         4
100
AcDbLine
 10
4817.9365330003
 20
-785.2674078145
 30
0.0
 11
4830.1955547821
 21
-773.0083860327
 31
0.0
  0
LINE
  5
199
100
AcDbEntity
  8
____
  6
CONTINUOUS
 62
         4
100
AcDbLine
 10
4841.6005314687
 20
-761.6034093461
 30
0.0
 11
4871.2258998477
 21
-731.9780409671
 31
0.0
  0
LINE
  5
19A
100
AcDbEntity
  8
____
  6
CONTINUOUS
 62
         4
100
AcDbLine
 10
4814.2338621741
 20
-784.7274379536
 30
0.0
 11
4825.952914095
 21
-773.0083860327
 31
0.0
  0
LINE
  5
19B
100
AcDbEntity
  8
____
  6
CONTINUOUS
 62
         4
100
AcDbLine
 10
4840.0476171981
 20
-758.9136829296
 30
0.0
 11
4866.2589105336
 21
-732.702389594
 31
0.0
  0
LINE
  5
19C
100
AcDbEntity
  8
____
  6
CONTINUOUS
 62
         4
100
AcDbLine
 10
4810.5311913479
 20
-784.1874680927
 30
0.0
 11
4821.7102734079
 21
-773.0083860327
 31
0.0
  0
LINE
  5
19D
100
AcDbEntity
  8
____
  6
CONTINUOUS
 62
         4
100
AcDbLine
 10
4838.4947029275
 20
-756.2239565131
 30
0.0
 11
4861.2919212196
 21
-733.426738221
 31
0.0
  0
LINE
  5
19E
100
AcDbEntity
  8
____
  6
CONTINUOUS
 62
         4
100
AcDbLine
 10
4806.8285205216
 20
-783.6474982318
 30
0.0
 11
4817.4676327208
 21
-773.0083860327
 31
0.0
  0
LINE
  5
19F
100
AcDbEntity
  8
____
  6
CONTINUOUS
 62
         4
100
AcDbLine
 10
4836.9417886569
 20
-753.5342300966
 30
0.0
 11
4856.3249319055
 21
-734.1510868479
 31
0.0
  0
LINE
  5
1A0
100
AcDbEntity
  8
____
  6
CONTINUOUS
 62
         4
100
AcDbLine
 10
4803.1258496954
 20
-783.1075283709
 30
0.0
 11
4813.2249920336
 21
-773.0083860327
 31
0.0
  0
LINE
  5
1A1
100
AcDbEntity
  8
____
  6
CONTINUOUS
 62
         4
100
AcDbLine
 10
4834.2249920336
 20
-752.0083860327
 30
0.0
 11
4851.3579425914
 21
-734.8754354749
 31
0.0
  0
LINE
  5
1A2
100
AcDbEntity
  8
____
  6
CONTINUOUS
 62
         4
100
AcDbLine
 10
4800.0022914389
 20
-781.9884459402
 30
0.0
 11
4808.9823513465
 21
-773.0083860327
 31
0.0
  0
LINE
  5
1A3
100
AcDbEntity
  8
____
  6
CONTINUOUS
 62
         4
100
AcDbLine
 10
4829.9823513465
 20
-752.0083860327
 30
0.0
 11
4846.3909532774
 21
-735.5997841018
 31
0.0
  0
LINE
  5
1A4
100
AcDbEntity
  8
____
  6
CONTINUOUS
 62
         4
100
AcDbLine
 10
4796.2426541742
 20
-781.5054425179
 30
0.0
 11
4804.7397106594
 21
-773.0083860327
 31
0.0
  0
LINE
  5
1A5
100
AcDbEntity
  8
____
  6
CONTINUOUS
 62
         4
100
AcDbLine
 10
4825.7397106594
 20
-752.0083860327
 30
0.0
 11
4841.4239639633
 21
-736.3241327287
 31
0.0
  0
LINE
  5
1A6
100
AcDbEntity
  8
____
  6
CONTINUOUS
 62
         4
100
AcDbLine
 10
4792.000013487
 20
-781.5054425179
 30
0.0
 11
4800.4970699723
 21
-773.0083860327
 31
0.0
  0
LINE
  5
1A7
100
AcDbEntity
  8
____
  6
CONTINUOUS
 62
         4
100
AcDbLine
 10
4821.4970699723
 20
-752.0083860327
 30
0.0
 11
4836.4569746493
 21
-737.0484813557
 31
0.0
  0
LINE
  5
1A8
100
AcDbEntity
  8
____
  6
CONTINUOUS
 62
         4
100
AcDbLine
 10
4787.1073727999
 20
-782.1554425179
 30
0.0
 11
4796.2544292852
 21
-773.0083860327
 31
0.0
  0
LINE
  5
1A9
100
AcDbEntity
  8
____
  6
CONTINUOUS
 62
         4
100
AcDbLine
 10
4817.2544292852
 20
-752.0083860327
 30
0.0
 11
4831.4899853352
 21
-737.7728299826
 31
0.0
  0
LINE
  5
1AA
100
AcDbEntity
  8
____
  6
CONTINUOUS
 62
         4
100
AcDbLine
 10
4782.8647321128
 20
-782.1554425179
 30
0.0
 11
4792.011788598
 21
-773.0083860327
 31
0.0
  0
LINE
  5
1AB
100
AcDbEntity
  8
____
  6
CONTINUOUS
 62
         4
100
AcDbLine
 10
4813.011788598
 20
-752.0083860327
 30
0.0
 11
4826.5229960211
 21
-738.4971786096
 31
0.0
  0
LINE
  5
1AC
100
AcDbEntity
  8
____
  6
CONTINUOUS
 62
         4
100
AcDbLine
 10
4778.6220914257
 20
-782.1554425179
 30
0.0
 11
4784.9750349404
 21
-775.8024990031
 31
0.0
  0
LINE
  5
1AD
100
AcDbEntity
  8
____
  6
CONTINUOUS
 62
         4
100
AcDbLine
 10
4808.7691479109
 20
-752.0083860327
 30
0.0
 11
4821.5560067071
 21
-739.2215272365
 31
0.0
  0
LINE
  5
1AE
100
AcDbEntity
  8
____
  6
CONTINUOUS
 62
         4
100
AcDbLine
 10
4775.0588441201
 20
-781.4760491363
 30
0.0
 11
4781.0323942533
 21
-775.5024990031
 31
0.0
  0
LINE
  5
1AF
100
AcDbEntity
  8
____
  6
CONTINUOUS
 62
         4
100
AcDbLine
 10
4804.5265072238
 20
-752.0083860327
 30
0.0
 11
4816.589017393
 21
-739.9458758635
 31
0.0
  0
LINE
  5
1B0
100
AcDbEntity
  8
____
  6
CONTINUOUS
 62
         4
100
AcDbLine
 10
4774.5532664834
 20
-777.738986086
 30
0.0
 11
4776.7897535662
 21
-775.5024990031
 31
0.0
  0
LINE
  5
1B1
100
AcDbEntity
  8
____
  6
CONTINUOUS
 62
         4
100
AcDbLine
 10
4800.2838665367
 20
-752.0083860327
 30
0.0
 11
4811.6220280789
 21
-740.6702244904
 31
0.0
  0
LINE
  5
1B2
100
AcDbEntity
  8
____
  6
CONTINUOUS
 62
         4
100
AcDbLine
 10
4796.0412258496
 20
-752.0083860327
 30
0.0
 11
4806.6550387649
 21
-741.3945731173
 31
0.0
  0
LINE
  5
1B3
100
AcDbEntity
  8
____
  6
CONTINUOUS
 62
         4
100
AcDbLine
 10
4791.7985851625
 20
-752.0083860327
 30
0.0
 11
4801.6880494508
 21
-742.1189217443
 31
0.0
  0
LINE
  5
1B4
100
AcDbEntity
  8
____
  6
CONTINUOUS
 62
         4
100
AcDbLine
 10
4788.2612848432
 20
-751.3030456648
 30
0.0
 11
4796.0588879901
 21
-743.5054425179
 31
0.0
  0
LINE
  5
1B5
100
AcDbEntity
  8
____
  6
CONTINUOUS
 62
         4
100
AcDbLine
 10
4785.9164494735
 20
-749.4052403474
 30
0.0
 11
4791.816247303
 21
-743.5054425179
 31
0.0
  0
LINE
  5
1B6
100
AcDbEntity
  8
____
  6
CONTINUOUS
 62
         4
100
AcDbLine
 10
4781.5706631011
 20
-749.5083860327
 30
0.0
 11
4788.2236066159
 21
-742.8554425179
 31
0.0
  0
LINE
  5
1B7
100
AcDbEntity
  8
____
  6
CONTINUOUS
 62
         4
100
AcDbLine
 10
4777.328022414
 20
-749.5083860327
 30
0.0
 11
4783.9809659287
 21
-742.8554425179
 31
0.0
  0
LINE
  5
1B8
100
AcDbEntity
  8
____
  6
CONTINUOUS
 62
         4
100
AcDbLine
 10
4774.6098741741
 20
-747.9838935854
 30
0.0
 11
4779.7383252416
 21
-742.8554425179
 31
0.0
  0
ENDBLK
  5
1B9
100
AcDbEntity
  8
0
  6
CONTINUOUS
100
AcDbBlockEnd
  0
ENDSEC
  0
SECTION
  2
ENTITIES
  0
LINE
  5
28
100
AcDbEntity
  8
____
  6
CONTINUOUS
 62
         7
100
AcDbLine
 10
5001.9144053018
 20
-761.7276671498
 30
0.0
 11
5001.9144053018
 21
-763.3276671498
 31
0.0
  0
LINE
  5
29
100
AcDbEntity
  8
____
  6
CONTINUOUS
 62
         7
100
AcDbLine
 10
5001.9144053018
 20
-763.3276671498
 30
0.0
 11
5001.4525250864
 21
-762.5276671498
 31
0.0
  0
LINE
  5
2A
100
AcDbEntity
  8
____
  6
CONTINUOUS
 62
         7
100
AcDbLine
 10
5001.9144053018
 20
-761.7276671498
 30
0.0
 11
5001.4525250864
 21
-762.5276671498
 31
0.0
  0
LINE
  5
2B
100
AcDbEntity
  8
____
  6
CONTINUOUS
 62
         7
100
AcDbLine
 10
5002.8606666577
 20
-761.7276671498
 30
0.0
 11
5002.8606666577
 21
-763.3276671498
 31
0.0
  0
LINE
  5
2C
100
AcDbEntity
  8
____
  6
CONTINUOUS
 62
         7
100
AcDbLine
 10
5004.8525250864
 20
-764.4776671498
 30
0.0
 11
5002.8606666577
 21
-763.3276671498
 31
0.0
  0
LINE
  5
2D
100
AcDbEntity
  8
____
  6
CONTINUOUS
 62
         7
100
AcDbLine
 10
5004.8525250864
 20
-760.5776671498
 30
0.0
 11
5002.8606666577
 21
-761.7276671498
 31
0.0
  0
LINE
  5
2E
100
AcDbEntity
  8
____
  6
CONTINUOUS
 62
         7
100
AcDbLine
 10
5001.9144053018
 20
-763.3276671498
 30
0.0
 11
5002.8606666577
 21
-763.3276671498
 31
0.0
  0
LINE
  5
2F
100
AcDbEntity
  8
____
  6
CONTINUOUS
 62
         7
100
AcDbLine
 10
5001.9144053018
 20
-761.7276671498
 30
0.0
 11
5002.8606666577
 21
-761.7276671498
 31
0.0
  0
DIMENSION
  5
33
100
AcDbEntity
  8
____
  6
CONTINUOUS
 62
         4
100
AcDbDimension
  2
*D0
 10
4774.5525250864
 20
-436.9647237885
 30
0.0
 11
4878.3374299409
 21
-434.3397237885
 31
0.0
  3
DIMSTYLE1
100
AcDbAlignedDimension
 13
4774.5525250864
 23
-534.8554425179
 33
0.0
 14
5004.8525250864
 24
-522.7554425179
 34
0.0
100
AcDbRotatedDimension
  0
DIMENSION
  5
42
100
AcDbEntity
  8
____
  6
CONTINUOUS
 62
         4
100
AcDbDimension
  2
*D1
 10
4901.3525250864
 20
-450.6066824785
 30
0.0
 11
4934.3658317313
 21
-447.9816824785
 31
0.0
  3
DIMSTYLE1
100
AcDbAlignedDimension
 13
4901.3525250864
 23
-517.5804425179
 33
0.0
 14
4976.3525250864
 24
-490.5054425179
 34
0.0
100
AcDbRotatedDimension
  0
LINE
  5
4E
100
AcDbEntity
  8
____
  6
CENTER
 62
         1
100
AcDbLine
 10
5260.1373697268
 20
-552.5054425179
 30
0.0
 11
5123.7922488428
 21
-552.5054425179
 31
0.0
  0
LINE
  5
4F
100
AcDbEntity
  8
____
  6
CENTER
 62
         1
100
AcDbLine
 10
5192.8699453033
 20
-628.1510189099
 30
0.0
 11
5192.8699453033
 21
-476.6505027112
 31
0.0
  0
CIRCLE
  5
50
100
AcDbEntity
  8
____
  6
CONTINUOUS
 62
         7
100
AcDbCircle
 10
5192.8699453033
 20
-552.5054425179
 30
0.0
 40
31.75
  0
LINE
  5
51
100
AcDbEntity
  8
____
  6
CONTINUOUS
 62
         7
100
AcDbLine
 10
5205.5699453033
 20
-506.6063516839
 30
0.0
 11
5205.5699453033
 21
-489.7781757195
 31
0.0
  0
LINE
  5
52
100
AcDbEntity
  8
____
  6
CONTINUOUS
 62
         7
100
AcDbLine
 10
5180.1699453033
 20
-506.6063516839
 30
0.0
 11
5180.1699453033
 21
-489.7781757195
 31
0.0
  0
LINE
  5
53
100
AcDbEntity
  8
____
  6
CONTINUOUS
 62
         7
100
AcDbLine
 10
5198.2262624656
 20
-515.5054425179
 30
0.0
 11
5187.5136281411
 21
-515.5054425179
 31
0.0
  0
LINE
  5
54
100
AcDbEntity
  8
____
  6
CENTER
 62
         1
100
AcDbLine
 10
5199.9020959118
 20
-499.5054425179
 30
0.0
 11
5186.7511438031
 21
-499.5054425179
 31
0.0
  0
ARC
  5
55
100
AcDbEntity
  8
____
  6
CONTINUOUS
 62
         7
100
AcDbCircle
 10
5203.1699453033
 20
-512.1054425179
 30
0.0
 40
6.0
100
AcDbArc
 50
214.5181078411
 51
426.4218215218
  0
ARC
  5
56
100
AcDbEntity
  8
____
  6
CONTINUOUS
 62
         7
100
AcDbCircle
 10
5182.5699453033
 20
-512.1054425179
 30
0.0
 40
6.0
100
AcDbArc
 50
113.5781784782
 51
325.4818921589
  0
CIRCLE
  5
57
100
AcDbEntity
  8
____
  6
CONTINUOUS
 62
         7
100
AcDbCircle
 10
5192.8699453033
 20
-499.5054425179
 30
0.0
 40
3.375
  0
ARC
  5
58
100
AcDbEntity
  8
____
  6
CONTINUOUS
 62
         4
100
AcDbCircle
 10
5192.8699453033
 20
-499.5054425179
 30
0.0
 40
4.0
100
AcDbArc
 50
180.0
 51
450.0
  0
LINE
  5
59
100
AcDbEntity
  8
____
  6
CONTINUOUS
 62
         7
100
AcDbLine
 10
5198.2262624656
 20
-589.5054425179
 30
0.0
 11
5187.5136281411
 21
-589.5054425179
 31
0.0
  0
LINE
  5
5A
100
AcDbEntity
  8
____
  6
CONTINUOUS
 62
         7
100
AcDbLine
 10
5205.5699453033
 20
-598.4045333518
 30
0.0
 11
5205.5699453033
 21
-615.2327093163
 31
0.0
  0
LINE
  5
5B
100
AcDbEntity
  8
____
  6
CONTINUOUS
 62
         7
100
AcDbLine
 10
5180.1699453033
 20
-598.4045333518
 30
0.0
 11
5180.1699453033
 21
-615.2327093163
 31
0.0
  0
ARC
  5
5C
100
AcDbEntity
  8
____
  6
CONTINUOUS
 62
         7
100
AcDbCircle
 10
5203.1699453033
 20
-592.9054425179
 30
0.0
 40
6.0
100
AcDbArc
 50
293.5781784782
 51
505.4818921589
  0
ARC
  5
5D
100
AcDbEntity
  8
____
  6
CONTINUOUS
 62
         7
100
AcDbCircle
 10
5182.5699453033
 20
-592.9054425179
 30
0.0
 40
6.0
100
AcDbArc
 50
34.5181078411
 51
246.4218215218
  0
CIRCLE
  5
5E
100
AcDbEntity
  8
____
  6
CONTINUOUS
 62
         7
100
AcDbCircle
 10
5192.8699453033
 20
-605.5054425179
 30
0.0
 40
3.375
  0
ARC
  5
5F
100
AcDbEntity
  8
____
  6
CONTINUOUS
 62
         4
100
AcDbCircle
 10
5192.8699453033
 20
-605.5054425179
 30
0.0
 40
4.0
100
AcDbArc
 50
270.0
 51
540.0
  0
LINE
  5
60
100
AcDbEntity
  8
____
  6
CENTER
 62
         1
100
AcDbLine
 10
5199.9020959118
 20
-605.5054425179
 30
0.0
 11
5186.7511438031
 21
-605.5054425179
 31
0.0
  0
LINE
  5
61
100
AcDbEntity
  8
____
  6
CENTER
 62
         1
100
AcDbLine
 10
5243.2399710183
 20
-502.135416803
 30
0.0
 11
5136.1698946663
 21
-609.2054931549
 31
0.0
  0
LINE
  5
62
100
AcDbEntity
  8
____
  6
CENTER
 62
         1
100
AcDbLine
 10
5249.6098020912
 20
-609.2452993058
 30
0.0
 11
5136.1300885155
 21
-495.76558573
 31
0.0
  0
CIRCLE
  5
63
100
AcDbEntity
  8
____
  6
CONTINUOUS
 62
         7
100
AcDbCircle
 10
5192.8699453033
 20
-552.5054425179
 30
0.0
 40
64.0
  0
CIRCLE
  5
64
100
AcDbEntity
  8
____
  6
DASHED
 62
         2
100
AcDbCircle
 10
5192.8699453033
 20
-552.5054425179
 30
0.0
 40
39.0
  0
LINE
  5
65
100
AcDbEntity
  8
____
  6
CONTINUOUS
 62
         7
100
AcDbLine
 10
4932.5608421758
 20
-722.7054425179
 30
0.0
 11
4932.5608421758
 21
-700.5054425179
 31
0.0
  0
ARC
  5
66
100
AcDbEntity
  8
____
  6
CONTINUOUS
 62
         7
100
AcDbCircle
 10
4934.5608421758
 20
-824.5054425179
 30
0.0
 40
2.0
100
AcDbArc
 50
180.0
 51
270.0
  0
ARC
  5
67
100
AcDbEntity
  8
____
  6
CONTINUOUS
 62
         7
100
AcDbCircle
 10
4934.5608421758
 20
-700.5054425179
 30
0.0
 40
2.0
100
AcDbArc
 50
90.0
 51
180.0
  0
LINE
  5
68
100
AcDbEntity
  8
____
  6
CONTINUOUS
 62
         7
100
AcDbLine
 10
4932.5608421758
 20
-824.5054425179
 30
0.0
 11
4932.5608421758
 21
-802.3054425179
 31
0.0
  0
ARC
  5
69
100
AcDbEntity
  8
____
  6
CONTINUOUS
 62
         7
100
AcDbCircle
 10
4934.5525250864
 20
-614.5054425179
 30
0.0
 40
2.0
100
AcDbArc
 50
180.0
 51
270.0
  0
ARC
  5
6A
100
AcDbEntity
  8
____
  6
CONTINUOUS
 62
         7
100
AcDbCircle
 10
4934.5525250864
 20
-490.5054425179
 30
0.0
 40
2.0
100
AcDbArc
 50
90.0
 51
180.0
  0
LINE
  5
6B
100
AcDbEntity
  8
____
  6
CONTINUOUS
 62
         7
100
AcDbLine
 10
4974.3525250864
 20
-698.5054425179
 30
0.0
 11
4934.5608421758
 21
-698.5054425179
 31
0.0
  0
ARC
  5
6C
100
AcDbEntity
  8
____
  6
CONTINUOUS
 62
         7
100
AcDbCircle
 10
4974.3525250864
 20
-700.5054425179
 30
0.0
 40
2.0
100
AcDbArc
 50
0.0
 51
90.0
  0
LINE
  5
6D
100
AcDbEntity
  8
____
  6
CONTINUOUS
 62
         7
100
AcDbLine
 10
5002.8525250864
 20
-730.7554425179
 30
0.0
 11
4978.3525250864
 21
-730.7554425179
 31
0.0
  0
ARC
  5
6E
100
AcDbEntity
  8
____
  6
CONTINUOUS
 62
         7
100
AcDbCircle
 10
5002.8525250864
 20
-732.7554425179
 30
0.0
 40
2.0
100
AcDbArc
 50
0.0
 51
90.0
  0
LINE
  5
6F
100
AcDbEntity
  8
____
  6
CONTINUOUS
 62
         7
100
AcDbLine
 10
5004.8525250864
 20
-732.7554425179
 30
0.0
 11
5004.8525250864
 21
-792.2554425179
 31
0.0
  0
LINE
  5
70
100
AcDbEntity
  8
____
  6
CONTINUOUS
 62
         7
100
AcDbLine
 10
5002.8525250864
 20
-794.2554425179
 30
0.0
 11
4978.3525250864
 21
-794.2554425179
 31
0.0
  0
ARC
  5
71
100
AcDbEntity
  8
____
  6
CONTINUOUS
 62
         7
100
AcDbCircle
 10
5002.8525250864
 20
-792.2554425179
 30
0.0
 40
2.0
100
AcDbArc
 50
270.0
 51
360.0
  0
LINE
  5
72
100
AcDbEntity
  8
____
  6
CONTINUOUS
 62
         7
100
AcDbLine
 10
4976.3525250864
 20
-700.5054425179
 30
0.0
 11
4976.3525250864
 21
-730.005947034
 31
0.0
  0
LINE
  5
73
100
AcDbEntity
  8
____
  6
CONTINUOUS
 62
         7
100
AcDbLine
 10
4974.3525250864
 20
-826.5054425179
 30
0.0
 11
4934.5608421758
 21
-826.5054425179
 31
0.0
  0
ARC
  5
74
100
AcDbEntity
  8
____
  6
CONTINUOUS
 62
         7
100
AcDbCircle
 10
4974.3525250864
 20
-824.5054425179
 30
0.0
 40
2.0
100
AcDbArc
 50
270.0
 51
360.0
  0
LINE
  5
75
100
AcDbEntity
  8
____
  6
CONTINUOUS
 62
         7
100
AcDbLine
 10
4977.8989352479
 20
-730.9554425179
 30
0.0
 11
4976.5525250864
 21
-730.9554425179
 31
0.0
  0
LINE
  5
76
100
AcDbEntity
  8
____
  6
CONTINUOUS
 62
         7
100
AcDbLine
 10
4978.0989352479
 20
-730.9018526794
 30
0.0
 11
4978.3525250864
 21
-730.7554425179
 31
0.0
  0
ARC
  5
77
100
AcDbEntity
  8
____
  6
CONTINUOUS
 62
         7
100
AcDbCircle
 10
4977.8989352479
 20
-730.5554425179
 30
0.0
 40
0.4
100
AcDbArc
 50
270.0
 51
300.0
  0
ARC
  5
78
100
AcDbEntity
  8
____
  6
CONTINUOUS
 62
         7
100
AcDbCircle
 10
4976.5525250864
 20
-730.5554425179
 30
0.0
 40
0.4
100
AcDbArc
 50
180.0
 51
270.0
  0
LINE
  5
79
100
AcDbEntity
  8
____
  6
CONTINUOUS
 62
         7
100
AcDbLine
 10
4976.1525250864
 20
-730.5554425179
 30
0.0
 11
4976.3525250864
 21
-730.005947034
 31
0.0
  0
LINE
  5
7A
100
AcDbEntity
  8
____
  6
CONTINUOUS
 62
         7
100
AcDbLine
 10
4978.0989352479
 20
-794.1090323564
 30
0.0
 11
4978.3525250864
 21
-794.2554425179
 31
0.0
  0
ARC
  5
7B
100
AcDbEntity
  8
____
  6
CONTINUOUS
 62
         7
100
AcDbCircle
 10
4977.8989352479
 20
-794.4554425179
 30
0.0
 40
0.4
100
AcDbArc
 50
60.0
 51
90.0
  0
LINE
  5
7C
100
AcDbEntity
  8
____
  6
CONTINUOUS
 62
         7
100
AcDbLine
 10
4977.8989352479
 20
-794.0554425179
 30
0.0
 11
4976.5525250864
 21
-794.0554425179
 31
0.0
  0
ARC
  5
7D
100
AcDbEntity
  8
____
  6
CONTINUOUS
 62
         7
100
AcDbCircle
 10
4976.5525250864
 20
-794.4554425179
 30
0.0
 40
0.4
100
AcDbArc
 50
90.0
 51
180.0
  0
LINE
  5
7E
100
AcDbEntity
  8
____
  6
CONTINUOUS
 62
         7
100
AcDbLine
 10
4976.1525250864
 20
-794.4554425179
 30
0.0
 11
4976.3525250864
 21
-795.0049380018
 31
0.0
  0
LINE
  5
7F
100
AcDbEntity
  8
____
  6
CONTINUOUS
 62
         7
100
AcDbLine
 10
4976.3525250864
 20
-795.0049380018
 30
0.0
 11
4976.3525250864
 21
-824.5054425179
 31
0.0
  0
LINE
  5
80
100
AcDbEntity
  8
____
  6
CONTINUOUS
 62
         7
100
AcDbLine
 10
4976.3525250864
 20
-725.5054425179
 30
0.0
 11
4963.8525250864
 21
-725.5054425179
 31
0.0
  0
LINE
  5
81
100
AcDbEntity
  8
____
  6
CONTINUOUS
 62
         7
100
AcDbLine
 10
4963.8525250864
 20
-698.5054425179
 30
0.0
 11
4963.8525250864
 21
-725.5054425179
 31
0.0
  0
LINE
  5
82
100
AcDbEntity
  8
____
  6
CONTINUOUS
 62
         7
100
AcDbLine
 10
4952.8525250864
 20
-705.5054425179
 30
0.0
 11
4952.8525250864
 21
-713.5054425179
 31
0.0
  0
LINE
  5
83
100
AcDbEntity
  8
____
  6
CONTINUOUS
 62
         7
100
AcDbLine
 10
4948.8525250864
 20
-706.1304425179
 30
0.0
 11
4948.8525250864
 21
-712.8804425179
 31
0.0
  0
LINE
  5
84
100
AcDbEntity
  8
____
  6
CONTINUOUS
 62
         7
100
AcDbLine
 10
4976.3525250864
 20
-725.5054425179
 30
0.0
 11
4963.8525250864
 21
-725.5054425179
 31
0.0
  0
LINE
  5
85
100
AcDbEntity
  8
____
  6
CONTINUOUS
 62
         7
100
AcDbLine
 10
4976.3525250864
 20
-725.5054425179
 30
0.0
 11
4963.8525250864
 21
-725.5054425179
 31
0.0
  0
LINE
  5
86
100
AcDbEntity
  8
____
  6
CENTER
 62
         1
100
AcDbLine
 10
4967.2911023829
 20
-709.5054425179
 30
0.0
 11
4946.9039679279
 21
-709.5054425179
 31
0.0
  0
LINE
  5
87
100
AcDbEntity
  8
____
  6
CONTINUOUS
 62
         7
100
AcDbLine
 10
4963.8525250864
 20
-706.1304425179
 30
0.0
 11
4948.8525250864
 21
-706.1304425179
 31
0.0
  0
LINE
  5
88
100
AcDbEntity
  8
____
  6
CONTINUOUS
 62
         7
100
AcDbLine
 10
4963.8525250864
 20
-712.8804425179
 30
0.0
 11
4948.8525250864
 21
-712.8804425179
 31
0.0
  0
LINE
  5
89
100
AcDbEntity
  8
____
  6
CONTINUOUS
 62
         4
100
AcDbLine
 10
4963.8525250864
 20
-705.5054425179
 30
0.0
 11
4952.8525250864
 21
-705.5054425179
 31
0.0
  0
LINE
  5
8A
100
AcDbEntity
  8
____
  6
CONTINUOUS
 62
         4
100
AcDbLine
 10
4963.8525250864
 20
-713.5054425179
 30
0.0
 11
4952.8525250864
 21
-713.5054425179
 31
0.0
  0
LINE
  5
8B
100
AcDbEntity
  8
____
  6
CONTINUOUS
 62
         7
100
AcDbLine
 10
4948.8525250864
 20
-712.8804425179
 30
0.0
 11
4946.9039679279
 21
-709.5054425179
 31
0.0
  0
LINE
  5
8C
100
AcDbEntity
  8
____
  6
CONTINUOUS
 62
         7
100
AcDbLine
 10
4948.8525250864
 20
-706.1304425179
 30
0.0
 11
4946.9039679279
 21
-709.5054425179
 31
0.0
  0
LINE
  5
8D
100
AcDbEntity
  8
____
  6
CONTINUOUS
 62
         7
100
AcDbLine
 10
4948.8525250864
 20
-818.8804425179
 30
0.0
 11
4946.9039679279
 21
-815.5054425179
 31
0.0
  0
LINE
  5
8E
100
AcDbEntity
  8
____
  6
CONTINUOUS
 62
         7
100
AcDbLine
 10
4948.8525250864
 20
-812.1304425179
 30
0.0
 11
4946.9039679279
 21
-815.5054425179
 31
0.0
  0
LINE
  5
8F
100
AcDbEntity
  8
____
  6
CONTINUOUS
 62
         4
100
AcDbLine
 10
4963.8525250864
 20
-811.5054425179
 30
0.0
 11
4952.8525250864
 21
-811.5054425179
 31
0.0
  0
LINE
  5
90
100
AcDbEntity
  8
____
  6
CONTINUOUS
 62
         4
100
AcDbLine
 10
4963.8525250864
 20
-819.5054425179
 30
0.0
 11
4952.8525250864
 21
-819.5054425179
 31
0.0
  0
LINE
  5
91
100
AcDbEntity
  8
____
  6
CONTINUOUS
 62
         7
100
AcDbLine
 10
4963.8525250864
 20
-812.1304425179
 30
0.0
 11
4948.8525250864
 21
-812.1304425179
 31
0.0
  0
LINE
  5
92
100
AcDbEntity
  8
____
  6
CONTINUOUS
 62
         7
100
AcDbLine
 10
4963.8525250864
 20
-818.8804425179
 30
0.0
 11
4948.8525250864
 21
-818.8804425179
 31
0.0
  0
LINE
  5
93
100
AcDbEntity
  8
____
  6
CONTINUOUS
 62
         7
100
AcDbLine
 10
4948.8525250864
 20
-818.8804425179
 30
0.0
 11
4948.8525250864
 21
-812.1304425179
 31
0.0
  0
LINE
  5
94
100
AcDbEntity
  8
____
  6
CONTINUOUS
 62
         7
100
AcDbLine
 10
4952.8525250864
 20
-819.5054425179
 30
0.0
 11
4952.8525250864
 21
-811.5054425179
 31
0.0
  0
LINE
  5
95
100
AcDbEntity
  8
____
  6
CONTINUOUS
 62
         7
100
AcDbLine
 10
4963.8525250864
 20
-826.5054425179
 30
0.0
 11
4963.8525250864
 21
-799.5054425179
 31
0.0
  0
LINE
  5
96
100
AcDbEntity
  8
____
  6
CENTER
 62
         1
100
AcDbLine
 10
4967.2911023829
 20
-815.5054425179
 30
0.0
 11
4946.9039679279
 21
-815.5054425179
 31
0.0
  0
LINE
  5
97
100
AcDbEntity
  8
____
  6
CONTINUOUS
 62
         7
100
AcDbLine
 10
4976.3525250864
 20
-799.5054425179
 30
0.0
 11
4963.8525250864
 21
-799.5054425179
 31
0.0
  0
LINE
  5
98
100
AcDbEntity
  8
____
  6
CONTINUOUS
 62
         7
100
AcDbLine
 10
4974.3525250864
 20
-488.5054425179
 30
0.0
 11
4934.5525250864
 21
-488.5054425179
 31
0.0
  0
LINE
  5
99
100
AcDbEntity
  8
____
  6
CONTINUOUS
 62
         7
100
AcDbLine
 10
4974.3525250864
 20
-616.5054425179
 30
0.0
 11
4934.5525250864
 21
-616.5054425179
 31
0.0
  0
LINE
  5
9A
100
AcDbEntity
  8
____
  6
CONTINUOUS
 62
         7
100
AcDbLine
 10
4976.3525250864
 20
-490.5054425179
 30
0.0
 11
4976.3525250864
 21
-614.5054425179
 31
0.0
  0
LINE
  5
9B
100
AcDbEntity
  8
____
  6
CONTINUOUS
 62
         7
100
AcDbLine
 10
5004.8525250864
 20
-522.7554425179
 30
0.0
 11
5004.8525250864
 21
-582.2554425179
 31
0.0
  0
LINE
  5
9C
100
AcDbEntity
  8
____
  6
CONTINUOUS
 62
         7
100
AcDbLine
 10
5002.8525250864
 20
-520.7554425179
 30
0.0
 11
4976.3525250864
 21
-520.7554425179
 31
0.0
  0
LINE
  5
9D
100
AcDbEntity
  8
____
  6
CONTINUOUS
 62
         7
100
AcDbLine
 10
5002.8525250864
 20
-584.2554425179
 30
0.0
 11
4976.3525250864
 21
-584.2554425179
 31
0.0
  0
ARC
  5
9E
100
AcDbEntity
  8
____
  6
CONTINUOUS
 62
         7
100
AcDbCircle
 10
4974.3525250864
 20
-490.5054425179
 30
0.0
 40
2.0
100
AcDbArc
 50
0.0
 51
90.0
  0
ARC
  5
9F
100
AcDbEntity
  8
____
  6
CONTINUOUS
 62
         7
100
AcDbCircle
 10
5002.8525250864
 20
-522.7554425179
 30
0.0
 40
2.0
100
AcDbArc
 50
0.0
 51
90.0
  0
ARC
  5
A0
100
AcDbEntity
  8
____
  6
CONTINUOUS
 62
         7
100
AcDbCircle
 10
5002.8525250864
 20
-582.2554425179
 30
0.0
 40
2.0
100
AcDbArc
 50
270.0
 51
360.0
  0
ARC
  5
A1
100
AcDbEntity
  8
____
  6
CONTINUOUS
 62
         7
100
AcDbCircle
 10
4974.3525250864
 20
-614.5054425179
 30
0.0
 40
2.0
100
AcDbArc
 50
270.0
 51
360.0
  0
LINE
  5
A2
100
AcDbEntity
  8
____
  6
CONTINUOUS
 62
         7
100
AcDbLine
 10
4978.3525250864
 20
-584.2554425179
 30
0.0
 11
4978.3525250864
 21
-520.7554425179
 31
0.0
  0
DIMENSION
  5
A5
100
AcDbEntity
  8
____
  6
CONTINUOUS
 62
         4
100
AcDbDimension
  2
*D2
 10
5073.9187167956
 20
-488.5054425179
 30
0.0
 11
5071.2937167956
 21
-564.5009250519
 31
0.0
  3
DIMSTYLE1
100
AcDbAlignedDimension
 13
4974.3525250864
 23
-488.5054425179
 33
0.0
 14
4974.3525250864
 24
-616.5054425179
 34
0.0
 50
90.0
100
AcDbRotatedDimension
  0
LINE
  5
B1
100
AcDbEntity
  8
____
  6
CONTINUOUS
 62
         7
100
AcDbLine
 10
4916.5525250864
 20
-541.6554425179
 30
0.0
 11
4916.5525250864
 21
-505.7554425179
 31
0.0
  0
LINE
  5
B2
100
AcDbEntity
  8
____
  6
CONTINUOUS
 62
         7
100
AcDbLine
 10
4931.7608421758
 20
-801.5054425179
 30
0.0
 11
4917.3608421758
 21
-801.5054425179
 31
0.0
  0
ARC
  5
B3
100
AcDbEntity
  8
____
  6
CONTINUOUS
 62
         7
100
AcDbCircle
 10
4917.3608421758
 20
-802.3054425179
 30
0.0
 40
0.8
100
AcDbArc
 50
90.0
 51
180.0
  0
ARC
  5
B4
100
AcDbEntity
  8
____
  6
CONTINUOUS
 62
         7
100
AcDbCircle
 10
4931.7608421758
 20
-802.3054425179
 30
0.0
 40
0.8
100
AcDbArc
 50
0.0
 51
90.0
  0
LINE
  5
B5
100
AcDbEntity
  8
____
  6
CONTINUOUS
 62
         7
100
AcDbLine
 10
4931.7608421758
 20
-723.5054425179
 30
0.0
 11
4917.3608421758
 21
-723.5054425179
 31
0.0
  0
ARC
  5
B6
100
AcDbEntity
  8
____
  6
CONTINUOUS
 62
         7
100
AcDbCircle
 10
4917.3608421758
 20
-722.7054425179
 30
0.0
 40
0.8
100
AcDbArc
 50
180.0
 51
270.0
  0
ARC
  5
B7
100
AcDbEntity
  8
____
  6
CONTINUOUS
 62
         7
100
AcDbCircle
 10
4931.7608421758
 20
-722.7054425179
 30
0.0
 40
0.8
100
AcDbArc
 50
270.0
 51
360.0
  0
LINE
  5
B8
100
AcDbEntity
  8
____
  6
CONTINUOUS
 62
         7
100
AcDbLine
 10
4931.7525250864
 20
-513.5054425179
 30
0.0
 11
4917.3525250864
 21
-513.5054425179
 31
0.0
  0
LINE
  5
B9
100
AcDbEntity
  8
____
  6
CONTINUOUS
 62
         7
100
AcDbLine
 10
4931.7525250864
 20
-591.5054425179
 30
0.0
 11
4917.3525250864
 21
-591.5054425179
 31
0.0
  0
ARC
  5
BA
100
AcDbEntity
  8
____
  6
CONTINUOUS
 62
         7
100
AcDbCircle
 10
4917.3525250864
 20
-592.3054425179
 30
0.0
 40
0.8
100
AcDbArc
 50
90.0
 51
180.0
  0
ARC
  5
BB
100
AcDbEntity
  8
____
  6
CONTINUOUS
 62
         7
100
AcDbCircle
 10
4917.3525250864
 20
-512.7054425179
 30
0.0
 40
0.8
100
AcDbArc
 50
180.0
 51
270.0
  0
LINE
  5
BC
100
AcDbEntity
  8
____
  6
CONTINUOUS
 62
         7
100
AcDbLine
 10
4932.5525250864
 20
-614.5054425179
 30
0.0
 11
4932.5525250864
 21
-490.5054425179
 31
0.0
  0
ARC
  5
BD
100
AcDbEntity
  8
____
  6
CONTINUOUS
 62
         7
100
AcDbCircle
 10
4931.7525250864
 20
-512.7054425179
 30
0.0
 40
0.8
100
AcDbArc
 50
270.0
 51
360.0
  0
ARC
  5
BE
100
AcDbEntity
  8
____
  6
CONTINUOUS
 62
         7
100
AcDbCircle
 10
4931.7525250864
 20
-592.3054425179
 30
0.0
 40
0.8
100
AcDbArc
 50
0.0
 51
90.0
  0
LINE
  5
BF
100
AcDbEntity
  8
____
  6
CONTINUOUS
 62
         7
100
AcDbLine
 10
4918.7025250864
 20
-563.3554425179
 30
0.0
 11
4904.5525250864
 21
-563.3554425179
 31
0.0
  0
LINE
  5
C0
100
AcDbEntity
  8
____
  6
CONTINUOUS
 62
         7
100
AcDbLine
 10
4918.7025250864
 20
-541.6554425179
 30
0.0
 11
4904.5525250864
 21
-541.6554425179
 31
0.0
  0
ARC
  5
C1
100
AcDbEntity
  8
____
  6
CONTINUOUS
 62
         7
100
AcDbCircle
 10
4918.7025250864
 20
-552.5054425179
 30
0.0
 40
10.85
100
AcDbArc
 50
270.0
 51
450.0
  0
LINE
  5
C2
100
AcDbEntity
  8
____
  6
DASHED
 62
         2
100
AcDbLine
 10
5239.6111476841
 20
-566.3554425179
 30
0.0
 11
5238.6111476841
 21
-565.3554425179
 31
0.0
  0
LINE
  5
C3
100
AcDbEntity
  8
____
  6
DASHED
 62
         2
100
AcDbLine
 10
5239.6111476841
 20
-538.6554425179
 30
0.0
 11
5238.6111476841
 21
-539.6554425179
 31
0.0
  0
LINE
  5
C4
100
AcDbEntity
  8
____
  6
DASHED
 62
         2
100
AcDbLine
 10
5146.1287429226
 20
-566.3554425179
 30
0.0
 11
5147.1287429226
 21
-565.3554425179
 31
0.0
  0
LINE
  5
C5
100
AcDbEntity
  8
____
  6
DASHED
 62
         2
100
AcDbLine
 10
5146.1287429226
 20
-538.6554425179
 30
0.0
 11
5147.1287429226
 21
-539.6554425179
 31
0.0
  0
CIRCLE
  5
C6
100
AcDbEntity
  8
____
  6
CONTINUOUS
 62
         7
100
AcDbCircle
 10
4640.8699453033
 20
-552.5054425179
 30
0.0
 40
10.5
  0
ARC
  5
C7
100
AcDbEntity
  8
____
  6
CONTINUOUS
 62
         4
100
AcDbCircle
 10
4640.8699453033
 20
-552.5054425179
 30
0.0
 40
12.0
100
AcDbArc
 50
270.0
 51
540.0
  0
CIRCLE
  5
C8
100
AcDbEntity
  8
____
  6
CONTINUOUS
 62
         7
100
AcDbCircle
 10
4640.8699453033
 20
-552.5054425179
 30
0.0
 40
13.0
  0
LINE
  5
C9
100
AcDbEntity
  8
____
  6
CONTINUOUS
 62
         7
100
AcDbLine
 10
4916.5525250864
 20
-563.3554425179
 30
0.0
 11
4904.5525250864
 21
-563.3554425179
 31
0.0
  0
LINE
  5
CA
100
AcDbEntity
  8
____
  6
CONTINUOUS
 62
         7
100
AcDbLine
 10
4916.5525250864
 20
-541.6554425179
 30
0.0
 11
4904.5525250864
 21
-541.6554425179
 31
0.0
  0
CIRCLE
  5
CB
100
AcDbEntity
  8
____
  6
CONTINUOUS
 62
         7
100
AcDbCircle
 10
4640.8699453033
 20
-552.5054425179
 30
0.0
 40
35.0270827722
  0
CIRCLE
  5
CC
100
AcDbEntity
  8
____
  6
CONTINUOUS
 62
         7
100
AcDbCircle
 10
4640.8699453033
 20
-552.5054425179
 30
0.0
 40
19.895
  0
LINE
  5
CD
100
AcDbEntity
  8
____
  6
CENTER
 62
         1
100
AcDbLine
 10
4696.0789161725
 20
-552.5054425179
 30
0.0
 11
4585.206653869
 21
-552.5054425179
 31
0.0
  0
LINE
  5
CE
100
AcDbEntity
  8
____
  6
CENTER
 62
         1
100
AcDbLine
 10
4640.8699453033
 20
-611.4470937278
 30
0.0
 11
4640.8699453033
 21
-489.1615103048
 31
0.0
  0
ARC
  5
CF
100
AcDbEntity
  8
____
  6
CONTINUOUS
 62
         7
100
AcDbCircle
 10
4640.8699453033
 20
-552.5054425179
 30
0.0
 40
48.75
100
AcDbArc
 50
196.2356055887
 51
343.7643944113
  0
LINE
  5
D0
100
AcDbEntity
  8
____
  6
CONTINUOUS
 62
         7
100
AcDbLine
 10
4686.8958955861
 20
-539.6554425179
 30
0.0
 11
4678.1699453033
 21
-539.6554425179
 31
0.0
  0
LINE
  5
D1
100
AcDbEntity
  8
____
  6
CONTINUOUS
 62
         7
100
AcDbLine
 10
4686.8958955861
 20
-565.3554425179
 30
0.0
 11
4678.1699453033
 21
-565.3554425179
 31
0.0
  0
LINE
  5
D2
100
AcDbEntity
  8
____
  6
CONTINUOUS
 62
         7
100
AcDbLine
 10
4676.1699453033
 20
-563.3554425179
 30
0.0
 11
4676.1699453033
 21
-541.6554425179
 31
0.0
  0
LINE
  5
D3
100
AcDbEntity
  8
____
  6
CONTINUOUS
 62
         7
100
AcDbLine
 10
4605.5699453033
 20
-563.3554425179
 30
0.0
 11
4605.5699453033
 21
-541.6554425179
 31
0.0
  0
LINE
  5
D4
100
AcDbEntity
  8
____
  6
CONTINUOUS
 62
         7
100
AcDbLine
 10
4603.5699453033
 20
-539.6554425179
 30
0.0
 11
4594.8439950205
 21
-539.6554425179
 31
0.0
  0
LINE
  5
D5
100
AcDbEntity
  8
____
  6
CONTINUOUS
 62
         7
100
AcDbLine
 10
4603.5699453033
 20
-565.3554425179
 30
0.0
 11
4594.8439950205
 21
-565.3554425179
 31
0.0
  0
ARC
  5
D6
100
AcDbEntity
  8
____
  6
CONTINUOUS
 62
         7
100
AcDbCircle
 10
4640.8699453033
 20
-552.5054425179
 30
0.0
 40
48.75
100
AcDbArc
 50
16.2356055887
 51
163.7643944113
  0
LINE
  5
D7
100
AcDbEntity
  8
____
  6
CONTINUOUS
 62
         7
100
AcDbLine
 10
4903.9525250864
 20
-587.2325252901
 30
0.0
 11
4903.2511318272
 21
-587.2325252901
 31
0.0
  0
LINE
  5
D8
100
AcDbEntity
  8
____
  6
CONTINUOUS
 62
         7
100
AcDbLine
 10
4903.0958404002
 20
-587.2529697944
 30
0.0
 11
4902.0525250864
 21
-587.5325252901
 31
0.0
  0
ARC
  5
D9
100
AcDbEntity
  8
____
  6
CONTINUOUS
 62
         7
100
AcDbCircle
 10
4903.9525250864
 20
-587.8325252901
 30
0.0
 40
0.6
100
AcDbArc
 50
0.0
 51
90.0
  0
ARC
  5
DA
100
AcDbEntity
  8
____
  6
CONTINUOUS
 62
         7
100
AcDbCircle
 10
4903.2511318272
 20
-587.8325252901
 30
0.0
 40
0.6
100
AcDbArc
 50
90.0
 51
105.0
  0
ARC
  5
DB
100
AcDbEntity
  8
____
  6
CONTINUOUS
 62
         7
100
AcDbCircle
 10
4903.2511318272
 20
-517.1783597457
 30
0.0
 40
0.6
100
AcDbArc
 50
255.0
 51
270.0
  0
ARC
  5
DC
100
AcDbEntity
  8
____
  6
CONTINUOUS
 62
         7
100
AcDbCircle
 10
4903.9525250864
 20
-517.1783597457
 30
0.0
 40
0.6
100
AcDbArc
 50
270.0
 51
360.0
  0
LINE
  5
DD
100
AcDbEntity
  8
____
  6
CONTINUOUS
 62
         7
100
AcDbLine
 10
4903.0958404002
 20
-517.7579152414
 30
0.0
 11
4902.0525250864
 21
-517.4783597457
 31
0.0
  0
LINE
  5
DE
100
AcDbEntity
  8
____
  6
CONTINUOUS
 62
         7
100
AcDbLine
 10
4903.9525250864
 20
-517.7783597457
 30
0.0
 11
4903.2511318272
 21
-517.7783597457
 31
0.0
  0
LINE
  5
DF
100
AcDbEntity
  8
____
  6
CONTINUOUS
 62
         7
100
AcDbLine
 10
4902.0525250864
 20
-587.5325252901
 30
0.0
 11
4902.0525250864
 21
-517.4783597457
 31
0.0
  0
LINE
  5
E0
100
AcDbEntity
  8
____
  6
CENTER
 62
         1
100
AcDbLine
 10
5017.0883066478
 20
-762.5054425179
 30
0.0
 11
4771.3417161697
 21
-762.5054425179
 31
0.0
  0
ARC
  5
E1
100
AcDbEntity
  8
____
  6
DASHED
 62
         2
100
AcDbCircle
 10
5192.8699453033
 20
-552.5054425179
 30
0.0
 40
48.75
100
AcDbArc
 50
16.5052120024
 51
163.4947879976
  0
LINE
  5
E2
100
AcDbEntity
  8
____
  6
DASHED
 62
         2
100
AcDbLine
 10
5155.5699453033
 20
-565.3554425179
 30
0.0
 11
5147.1287429226
 21
-565.3554425179
 31
0.0
  0
LINE
  5
E3
100
AcDbEntity
  8
____
  6
DASHED
 62
         2
100
AcDbLine
 10
5155.5699453033
 20
-539.6554425179
 30
0.0
 11
5147.1287429226
 21
-539.6554425179
 31
0.0
  0
LINE
  5
E4
100
AcDbEntity
  8
____
  6
DASHED
 62
         2
100
AcDbLine
 10
5157.5699453033
 20
-563.3554425179
 30
0.0
 11
5157.5699453033
 21
-541.6554425179
 31
0.0
  0
LINE
  5
E5
100
AcDbEntity
  8
____
  6
DASHED
 62
         2
100
AcDbLine
 10
5228.1699453033
 20
-563.3554425179
 30
0.0
 11
5228.1699453033
 21
-541.6554425179
 31
0.0
  0
LINE
  5
E6
100
AcDbEntity
  8
____
  6
DASHED
 62
         2
100
AcDbLine
 10
5238.6111476841
 20
-565.3554425179
 30
0.0
 11
5230.1699453033
 21
-565.3554425179
 31
0.0
  0
LINE
  5
E7
100
AcDbEntity
  8
____
  6
DASHED
 62
         2
100
AcDbLine
 10
5238.6111476841
 20
-539.6554425179
 30
0.0
 11
5230.1699453033
 21
-539.6554425179
 31
0.0
  0
ARC
  5
E8
100
AcDbEntity
  8
____
  6
DASHED
 62
         2
100
AcDbCircle
 10
5192.8699453033
 20
-552.5054425179
 30
0.0
 40
48.75
100
AcDbArc
 50
196.5052120024
 51
343.4947879976
  0
LINE
  5
E9
100
AcDbEntity
  8
____
  6
CENTER
 62
         1
100
AcDbLine
 10
5192.8699453033
 20
-611.4470937278
 30
0.0
 11
5192.8699453033
 21
-489.1615103048
 31
0.0
  0
LINE
  5
EA
100
AcDbEntity
  8
____
  6
CONTINUOUS
 62
         7
100
AcDbLine
 10
4916.5525250864
 20
-565.3554425179
 30
0.0
 11
4904.5525250864
 21
-565.3554425179
 31
0.0
  0
LINE
  5
EB
100
AcDbEntity
  8
____
  6
CONTINUOUS
 62
         7
100
AcDbLine
 10
4916.5525250864
 20
-539.6554425179
 30
0.0
 11
4904.5525250864
 21
-539.6554425179
 31
0.0
  0
LINE
  5
EC
100
AcDbEntity
  8
____
  6
CONTINUOUS
 62
         7
100
AcDbLine
 10
4902.0525250864
 20
-587.5325252901
 30
0.0
 11
4800.7673853395
 21
-572.7618569302
 31
0.0
  0
LINE
  5
ED
100
AcDbEntity
  8
____
  6
CONTINUOUS
 62
         7
100
AcDbLine
 10
4902.0525250864
 20
-517.4783597457
 30
0.0
 11
4800.8160340656
 21
-532.2419335387
 31
0.0
  0
LINE
  5
EE
100
AcDbEntity
  8
____
  6
CENTER
 62
         1
100
AcDbLine
 10
4901.3525250864
 20
-587.4304425179
 30
0.0
 11
4901.3525250864
 21
-517.5804425179
 31
0.0
  0
LINE
  5
EF
100
AcDbEntity
  8
____
  6
CONTINUOUS
 62
         7
100
AcDbLine
 10
4914.5525250864
 20
-601.2554425179
 30
0.0
 11
4906.5525250864
 21
-601.2554425179
 31
0.0
  0
LINE
  5
F0
100
AcDbEntity
  8
____
  6
CONTINUOUS
 62
         7
100
AcDbLine
 10
4914.5525250864
 20
-503.7554425179
 30
0.0
 11
4906.5525250864
 21
-503.7554425179
 31
0.0
  0
LINE
  5
F1
100
AcDbEntity
  8
____
  6
CONTINUOUS
 62
         7
100
AcDbLine
 10
4904.5525250864
 20
-599.2554425179
 30
0.0
 11
4904.5525250864
 21
-505.7554425179
 31
0.0
  0
LINE
  5
F2
100
AcDbEntity
  8
____
  6
CONTINUOUS
 62
         7
100
AcDbLine
 10
4916.5525250864
 20
-599.2554425179
 30
0.0
 11
4916.5525250864
 21
-563.3554425179
 31
0.0
  0
LINE
  5
F3
100
AcDbEntity
  8
____
  6
CENTER
 62
         1
100
AcDbLine
 10
5008.9390598156
 20
-552.5054425179
 30
0.0
 11
4892.377263588
 21
-552.5054425179
 31
0.0
  0
LINE
  5
F4
100
AcDbEntity
  8
____
  6
CENTER
 62
         1
100
AcDbLine
 10
4880.2653468791
 20
-552.5054425179
 30
0.0
 11
4769.3809565771
 21
-552.5054425179
 31
0.0
  0
ARC
  5
F5
100
AcDbEntity
  8
____
  6
CONTINUOUS
 62
         7
100
AcDbCircle
 10
4906.5525250864
 20
-505.7554425179
 30
0.0
 40
2.0
100
AcDbArc
 50
90.0
 51
180.0
  0
ARC
  5
F6
100
AcDbEntity
  8
____
  6
CONTINUOUS
 62
         7
100
AcDbCircle
 10
4914.5525250864
 20
-505.7554425179
 30
0.0
 40
2.0
100
AcDbArc
 50
0.0
 51
90.0
  0
ARC
  5
F7
100
AcDbEntity
  8
____
  6
CONTINUOUS
 62
         7
100
AcDbCircle
 10
4906.5525250864
 20
-599.2554425179
 30
0.0
 40
2.0
100
AcDbArc
 50
180.0
 51
270.0
  0
ARC
  5
F8
100
AcDbEntity
  8
____
  6
CONTINUOUS
 62
         7
100
AcDbCircle
 10
4914.5525250864
 20
-599.2554425179
 30
0.0
 40
2.0
100
AcDbArc
 50
270.0
 51
360.0
  0
LINE
  5
F9
100
AcDbEntity
  8
____
  6
CONTINUOUS
 62
         7
100
AcDbLine
 10
4836.0608421758
 20
-773.0083860327
 30
0.0
 11
4789.1254951562
 21
-773.0083860327
 31
0.0
  0
LINE
  5
FA
100
AcDbEntity
  8
____
  6
CONTINUOUS
 62
         7
100
AcDbLine
 10
4836.0608421758
 20
-752.0083860327
 30
0.0
 11
4789.1327688817
 21
-752.0083860327
 31
0.0
  0
LINE
  5
FB
100
AcDbEntity
  8
____
  6
CONTINUOUS
 62
         7
100
AcDbLine
 10
4904.5608421758
 20
-797.8354688049
 30
0.0
 11
4904.5608421758
 21
-809.2583860327
 31
0.0
  0
LINE
  5
FC
100
AcDbEntity
  8
____
  6
CONTINUOUS
 62
         7
100
AcDbLine
 10
4903.1041574896
 20
-797.2559133091
 30
0.0
 11
4902.0608421758
 21
-797.5354688049
 31
0.0
  0
LINE
  5
FD
100
AcDbEntity
  8
____
  6
CONTINUOUS
 62
         7
100
AcDbLine
 10
4903.9608421758
 20
-797.2354688049
 30
0.0
 11
4903.2594489166
 21
-797.2354688049
 31
0.0
  0
ARC
  5
FE
100
AcDbEntity
  8
____
  6
CONTINUOUS
 62
         7
100
AcDbCircle
 10
4903.9608421758
 20
-797.8354688049
 30
0.0
 40
0.6
100
AcDbArc
 50
0.0
 51
90.0
  0
ARC
  5
FF
100
AcDbEntity
  8
____
  6
CONTINUOUS
 62
         7
100
AcDbCircle
 10
4903.2594489166
 20
-797.8354688049
 30
0.0
 40
0.6
100
AcDbArc
 50
90.0
 51
105.0
  0
LINE
  5
100
100
AcDbEntity
  8
____
  6
CONTINUOUS
 62
         7
100
AcDbLine
 10
4903.9608421758
 20
-727.7813032604
 30
0.0
 11
4903.2594489166
 21
-727.7813032604
 31
0.0
  0
LINE
  5
101
100
AcDbEntity
  8
____
  6
CONTINUOUS
 62
         7
100
AcDbLine
 10
4903.1041574896
 20
-727.7608587562
 30
0.0
 11
4902.0608421758
 21
-727.4813032604
 31
0.0
  0
ARC
  5
102
100
AcDbEntity
  8
____
  6
CONTINUOUS
 62
         7
100
AcDbCircle
 10
4903.9608421758
 20
-727.1813032604
 30
0.0
 40
0.6
100
AcDbArc
 50
270.0
 51
360.0
  0
ARC
  5
103
100
AcDbEntity
  8
____
  6
CONTINUOUS
 62
         7
100
AcDbCircle
 10
4903.2594489166
 20
-727.1813032604
 30
0.0
 40
0.6
100
AcDbArc
 50
255.0
 51
270.0
  0
LINE
  5
104
100
AcDbEntity
  8
____
  6
CONTINUOUS
 62
         7
100
AcDbLine
 10
4902.0608421758
 20
-797.5354688049
 30
0.0
 11
4800.7756988955
 21
-782.7647999297
 31
0.0
  0
LINE
  5
105
100
AcDbEntity
  8
____
  6
CONTINUOUS
 62
         7
100
AcDbLine
 10
4902.0608421758
 20
-727.4813032604
 30
0.0
 11
4800.8243476204
 21
-742.2448775689
 31
0.0
  0
LINE
  5
106
100
AcDbEntity
  8
____
  6
CONTINUOUS
 62
         7
100
AcDbLine
 10
4914.5608421758
 20
-811.2583860327
 30
0.0
 11
4906.5608421758
 21
-811.2583860327
 31
0.0
  0
LINE
  5
107
100
AcDbEntity
  8
____
  6
CONTINUOUS
 62
         7
100
AcDbLine
 10
4914.5608421758
 20
-713.7583860327
 30
0.0
 11
4906.5608421758
 21
-713.7583860327
 31
0.0
  0
LINE
  5
108
100
AcDbEntity
  8
____
  6
CONTINUOUS
 62
         7
100
AcDbLine
 10
4904.5608421758
 20
-727.1813032604
 30
0.0
 11
4904.5608421758
 21
-715.7583860327
 31
0.0
  0
LINE
  5
109
100
AcDbEntity
  8
____
  6
CONTINUOUS
 62
         7
100
AcDbLine
 10
4916.5608421758
 20
-809.2583860327
 30
0.0
 11
4916.5608421758
 21
-802.3083860327
 31
0.0
  0
ARC
  5
10A
100
AcDbEntity
  8
____
  6
CONTINUOUS
 62
         7
100
AcDbCircle
 10
4906.5608421758
 20
-715.7583860327
 30
0.0
 40
2.0
100
AcDbArc
 50
90.0
 51
180.0
  0
ARC
  5
10B
100
AcDbEntity
  8
____
  6
CONTINUOUS
 62
         7
100
AcDbCircle
 10
4914.5608421758
 20
-715.7583860327
 30
0.0
 40
2.0
100
AcDbArc
 50
0.0
 51
90.0
  0
ARC
  5
10C
100
AcDbEntity
  8
____
  6
CONTINUOUS
 62
         7
100
AcDbCircle
 10
4914.5608421758
 20
-809.2583860327
 30
0.0
 40
2.0
100
AcDbArc
 50
270.0
 51
360.0
  0
ARC
  5
10D
100
AcDbEntity
  8
____
  6
CONTINUOUS
 62
         7
100
AcDbCircle
 10
4906.5608421758
 20
-809.2583860327
 30
0.0
 40
2.0
100
AcDbArc
 50
180.0
 51
270.0
  0
LINE
  5
10E
100
AcDbEntity
  8
____
  6
CONTINUOUS
 62
         7
100
AcDbLine
 10
4916.5608421758
 20
-722.7083860327
 30
0.0
 11
4916.5608421758
 21
-715.7583860327
 31
0.0
  0
ARC
  5
10F
100
AcDbEntity
  8
____
  6
CONTINUOUS
 62
         7
100
AcDbCircle
 10
4603.5699453033
 20
-541.6554425179
 30
0.0
 40
2.0
100
AcDbArc
 50
0.0
 51
90.0
  0
ARC
  5
110
100
AcDbEntity
  8
____
  6
CONTINUOUS
 62
         7
100
AcDbCircle
 10
4603.5699453033
 20
-563.3554425179
 30
0.0
 40
2.0
100
AcDbArc
 50
270.0
 51
360.0
  0
ARC
  5
111
100
AcDbEntity
  8
____
  6
CONTINUOUS
 62
         7
100
AcDbCircle
 10
4678.1699453033
 20
-541.6554425179
 30
0.0
 40
2.0
100
AcDbArc
 50
90.0
 51
180.0
  0
ARC
  5
112
100
AcDbEntity
  8
____
  6
CONTINUOUS
 62
         7
100
AcDbCircle
 10
4678.1699453033
 20
-563.3554425179
 30
0.0
 40
2.0
100
AcDbArc
 50
180.0
 51
270.0
  0
ARC
  5
113
100
AcDbEntity
  8
____
  6
DASHED
 62
         2
100
AcDbCircle
 10
5155.5699453033
 20
-541.6554425179
 30
0.0
 40
2.0
100
AcDbArc
 50
0.0
 51
90.0
  0
ARC
  5
114
100
AcDbEntity
  8
____
  6
DASHED
 62
         2
100
AcDbCircle
 10
5155.5699453033
 20
-563.3554425179
 30
0.0
 40
2.0
100
AcDbArc
 50
270.0
 51
360.0
  0
ARC
  5
115
100
AcDbEntity
  8
____
  6
DASHED
 62
         2
100
AcDbCircle
 10
5230.1699453033
 20
-563.3554425179
 30
0.0
 40
2.0
100
AcDbArc
 50
180.0
 51
270.0
  0
ARC
  5
116
100
AcDbEntity
  8
____
  6
DASHED
 62
         2
100
AcDbCircle
 10
5230.1699453033
 20
-541.6554425179
 30
0.0
 40
2.0
100
AcDbArc
 50
90.0
 51
180.0
  0
LINE
  5
117
100
AcDbEntity
  8
____
  6
CONTINUOUS
 62
         7
100
AcDbLine
 10
4791.5525250864
 20
-533.5054425179
 30
0.0
 11
4791.5109709272
 21
-571.5469966771
 31
0.0
  0
LINE
  5
118
100
AcDbEntity
  8
____
  6
CONTINUOUS
 62
         4
100
AcDbLine
 10
4790.9025250864
 20
-532.8554425179
 30
0.0
 11
4790.9025250864
 21
-572.1554425179
 31
0.0
  0
LINE
  5
119
100
AcDbEntity
  8
____
  6
CONTINUOUS
 62
         4
100
AcDbLine
 10
4800.8160340656
 20
-532.2419335387
 30
0.0
 11
4800.7673853395
 21
-572.7618569302
 31
0.0
  0
LINE
  5
11A
100
AcDbEntity
  8
____
  6
CONTINUOUS
 62
         7
100
AcDbLine
 10
4799.5525250864
 20
-571.5469966771
 30
0.0
 11
4791.5109709272
 21
-571.5469966771
 31
0.0
  0
LINE
  5
11B
100
AcDbEntity
  8
____
  6
CONTINUOUS
 62
         7
100
AcDbLine
 10
4791.5109709272
 20
-571.5469966771
 30
0.0
 11
4790.9025250864
 21
-572.1554425179
 31
0.0
  0
LINE
  5
11C
100
AcDbEntity
  8
____
  6
CONTINUOUS
 62
         7
100
AcDbLine
 10
4800.7673853395
 20
-572.7618569302
 30
0.0
 11
4799.5525250864
 21
-571.5469966771
 31
0.0
  0
LINE
  5
11D
100
AcDbEntity
  8
____
  6
CONTINUOUS
 62
         7
100
AcDbLine
 10
4800.8160340656
 20
-532.2419335387
 30
0.0
 11
4799.5525250864
 21
-533.5054425179
 31
0.0
  0
LINE
  5
11E
100
AcDbEntity
  8
____
  6
CONTINUOUS
 62
         7
100
AcDbLine
 10
4791.5525250864
 20
-533.5054425179
 30
0.0
 11
4790.9025250864
 21
-532.8554425179
 31
0.0
  0
LINE
  5
11F
100
AcDbEntity
  8
____
  6
CONTINUOUS
 62
         7
100
AcDbLine
 10
4774.5525250864
 20
-570.1554425179
 30
0.0
 11
4774.5525250864
 21
-534.8554425179
 31
0.0
  0
LINE
  5
120
100
AcDbEntity
  8
____
  6
CONTINUOUS
 62
         7
100
AcDbLine
 10
4790.9025250864
 20
-532.8554425179
 30
0.0
 11
4776.5525250864
 21
-532.8554425179
 31
0.0
  0
LINE
  5
121
100
AcDbEntity
  8
____
  6
CONTINUOUS
 62
         7
100
AcDbLine
 10
4799.5525250864
 20
-533.5054425179
 30
0.0
 11
4791.5525250864
 21
-533.5054425179
 31
0.0
  0
LINE
  5
122
100
AcDbEntity
  8
____
  6
CONTINUOUS
 62
         7
100
AcDbLine
 10
4790.9025250864
 20
-572.1554425179
 30
0.0
 11
4776.5525250864
 21
-572.1554425179
 31
0.0
  0
LINE
  5
123
100
AcDbEntity
  8
____
  6
CONTINUOUS
 62
         7
100
AcDbLine
 10
4799.5525250864
 20
-571.5469966771
 30
0.0
 11
4799.5525250864
 21
-533.5054425179
 31
0.0
  0
LINE
  5
124
100
AcDbEntity
  8
____
  6
CONTINUOUS
 62
         7
100
AcDbLine
 10
4783.5608421758
 20
-749.5083860327
 30
0.0
 11
4776.5525250864
 21
-749.5083860327
 31
0.0
  0
LINE
  5
125
100
AcDbEntity
  8
____
  6
CONTINUOUS
 62
         7
100
AcDbLine
 10
4786.0608421758
 20
-773.0083860327
 30
0.0
 11
4786.0608421758
 21
-752.0083860327
 31
0.0
  0
ARC
  5
126
100
AcDbEntity
  8
____
  6
CONTINUOUS
 62
         7
100
AcDbCircle
 10
4776.5525250864
 20
-747.5083860327
 30
0.0
 40
2.0
100
AcDbArc
 50
180.0
 51
270.0
  0
LINE
  5
127
100
AcDbEntity
  8
____
  6
CONTINUOUS
 62
         7
100
AcDbLine
 10
4783.5608421758
 20
-775.5083860327
 30
0.0
 11
4783.5608421758
 21
-749.5083860327
 31
0.0
  0
ARC
  5
128
100
AcDbEntity
  8
____
  6
CONTINUOUS
 62
         7
100
AcDbCircle
 10
4784.7594489166
 20
-749.8083860327
 30
0.0
 40
0.6
100
AcDbArc
 50
90.0
 51
105.0
  0
ARC
  5
129
100
AcDbEntity
  8
____
  6
CONTINUOUS
 62
         7
100
AcDbCircle
 10
4785.4608421758
 20
-749.8083860327
 30
0.0
 40
0.6
100
AcDbArc
 50
0.0
 51
90.0
  0
LINE
  5
12A
100
AcDbEntity
  8
____
  6
CONTINUOUS
 62
         7
100
AcDbLine
 10
4785.4608421758
 20
-749.2083860327
 30
0.0
 11
4784.7594489166
 21
-749.2083860327
 31
0.0
  0
LINE
  5
12B
100
AcDbEntity
  8
____
  6
CONTINUOUS
 62
         7
100
AcDbLine
 10
4784.6041574896
 20
-749.2288305369
 30
0.0
 11
4783.5608421758
 21
-749.5083860327
 31
0.0
  0
LINE
  5
12C
100
AcDbEntity
  8
____
  6
CONTINUOUS
 62
         4
100
AcDbLine
 10
4821.5608421758
 20
-750.5083860327
 30
0.0
 11
4787.2794422932
 21
-750.5083860327
 31
0.0
  0
LINE
  5
12D
100
AcDbEntity
  8
____
  6
CONTINUOUS
 62
         4
100
AcDbLine
 10
4821.5608421758
 20
-774.5083860327
 30
0.0
 11
4787.2721685676
 21
-774.5083860327
 31
0.0
  0
LINE
  5
12E
100
AcDbEntity
  8
____
  6
CONTINUOUS
 62
         7
100
AcDbLine
 10
4821.5608421758
 20
-774.5083860327
 30
0.0
 11
4821.5608421758
 21
-750.5083860327
 31
0.0
  0
LINE
  5
12F
100
AcDbEntity
  8
____
  6
CONTINUOUS
 62
         4
100
AcDbLine
 10
4776.5525250864
 20
-775.5083860327
 30
0.0
 11
4776.5525250864
 21
-749.5083860327
 31
0.0
  0
LINE
  5
130
100
AcDbEntity
  8
____
  6
CONTINUOUS
 62
         7
100
AcDbLine
 10
4786.0608421758
 20
-752.0083860327
 30
0.0
 11
4786.0608421758
 21
-749.8083860327
 31
0.0
  0
LINE
  5
131
100
AcDbEntity
  8
____
  6
CONTINUOUS
 62
         7
100
AcDbLine
 10
4786.0608421758
 20
-773.0024990031
 30
0.0
 11
4786.0608421758
 21
-775.2024990031
 31
0.0
  0
LINE
  5
132
100
AcDbEntity
  8
____
  6
CONTINUOUS
 62
         7
100
AcDbLine
 10
4784.6041574896
 20
-775.7820544989
 30
0.0
 11
4783.5608421758
 21
-775.5024990031
 31
0.0
  0
LINE
  5
133
100
AcDbEntity
  8
____
  6
CONTINUOUS
 62
         7
100
AcDbLine
 10
4785.4608421758
 20
-775.8024990031
 30
0.0
 11
4784.7594489166
 21
-775.8024990031
 31
0.0
  0
ARC
  5
134
100
AcDbEntity
  8
____
  6
CONTINUOUS
 62
         7
100
AcDbCircle
 10
4785.4608421758
 20
-775.2024990031
 30
0.0
 40
0.6
100
AcDbArc
 50
270.0
 51
360.0
  0
ARC
  5
135
100
AcDbEntity
  8
____
  6
CONTINUOUS
 62
         7
100
AcDbCircle
 10
4784.7594489166
 20
-775.2024990031
 30
0.0
 40
0.6
100
AcDbArc
 50
255.0
 51
270.0
  0
ARC
  5
136
100
AcDbEntity
  8
____
  6
CONTINUOUS
 62
         7
100
AcDbCircle
 10
4776.5525250864
 20
-777.5024990031
 30
0.0
 40
2.0
100
AcDbArc
 50
90.0
 51
180.0
  0
LINE
  5
137
100
AcDbEntity
  8
____
  6
CONTINUOUS
 62
         7
100
AcDbLine
 10
4783.5608421758
 20
-775.5024990031
 30
0.0
 11
4776.5525250864
 21
-775.5024990031
 31
0.0
  0
LINE
  5
138
100
AcDbEntity
  8
____
  6
CONTINUOUS
 62
         7
100
AcDbLine
 10
4799.5525250864
 20
-743.5054425179
 30
0.0
 11
4791.5525250864
 21
-743.5054425179
 31
0.0
  0
LINE
  5
139
100
AcDbEntity
  8
____
  6
CONTINUOUS
 62
         7
100
AcDbLine
 10
4799.5525250864
 20
-781.5054425179
 30
0.0
 11
4791.5525250864
 21
-781.5054425179
 31
0.0
  0
LINE
  5
13A
100
AcDbEntity
  8
____
  6
CONTINUOUS
 62
         7
100
AcDbLine
 10
4800.824351155
 20
-742.2419335387
 30
0.0
 11
4799.5608421758
 21
-743.5054425179
 31
0.0
  0
LINE
  5
13B
100
AcDbEntity
  8
____
  6
CONTINUOUS
 62
         7
100
AcDbLine
 10
4800.7757024289
 20
-782.7618569302
 30
0.0
 11
4799.5608421758
 21
-781.5469966771
 31
0.0
  0
LINE
  5
13C
100
AcDbEntity
  8
____
  6
CONTINUOUS
 62
         7
100
AcDbLine
 10
4790.9108421758
 20
-782.1554425179
 30
0.0
 11
4776.5608421758
 21
-782.1554425179
 31
0.0
  0
LINE
  5
13D
100
AcDbEntity
  8
____
  6
CONTINUOUS
 62
         7
100
AcDbLine
 10
4790.9108421758
 20
-742.8554425179
 30
0.0
 11
4776.5608421758
 21
-742.8554425179
 31
0.0
  0
LINE
  5
13E
100
AcDbEntity
  8
____
  6
CONTINUOUS
 62
         7
100
AcDbLine
 10
4774.5608421758
 20
-780.1554425179
 30
0.0
 11
4774.5608421758
 21
-744.8554425179
 31
0.0
  0
LINE
  5
13F
100
AcDbEntity
  8
____
  6
CONTINUOUS
 62
         7
100
AcDbLine
 10
4791.5608421758
 20
-743.5054425179
 30
0.0
 11
4790.9108421758
 21
-742.8554425179
 31
0.0
  0
LINE
  5
140
100
AcDbEntity
  8
____
  6
CONTINUOUS
 62
         7
100
AcDbLine
 10
4791.5192880166
 20
-781.5469966771
 30
0.0
 11
4790.9108421758
 21
-782.1554425179
 31
0.0
  0
LINE
  5
141
100
AcDbEntity
  8
____
  6
CONTINUOUS
 62
         7
100
AcDbLine
 10
4785.8383136799
 20
-749.342000716
 30
0.0
 11
4789.1327688817
 21
-752.0083860327
 31
0.0
  0
LINE
  5
142
100
AcDbEntity
  8
____
  6
CONTINUOUS
 62
         7
100
AcDbLine
 10
4785.8383136799
 20
-775.6688843198
 30
0.0
 11
4789.1327688817
 21
-773.0024990031
 31
0.0
  0
LINE
  5
143
100
AcDbEntity
  8
____
  6
CONTINUOUS
 62
         7
100
AcDbLine
 10
4789.1327688817
 20
-773.0024990031
 30
0.0
 11
4789.1327688817
 21
-752.0083860327
 31
0.0
  0
ARC
  5
144
100
AcDbEntity
  8
____
  6
CONTINUOUS
 62
         7
100
AcDbCircle
 10
4776.5608421758
 20
-744.8554425179
 30
0.0
 40
2.0
100
AcDbArc
 50
90.0
 51
180.0
  0
ARC
  5
145
100
AcDbEntity
  8
____
  6
CONTINUOUS
 62
         7
100
AcDbCircle
 10
4776.5608421758
 20
-780.1554425179
 30
0.0
 40
2.0
100
AcDbArc
 50
180.0
 51
270.0
  0
ARC
  5
146
100
AcDbEntity
  8
____
  6
CONTINUOUS
 62
         7
100
AcDbCircle
 10
4776.5525250864
 20
-570.1554425179
 30
0.0
 40
2.0
100
AcDbArc
 50
180.0
 51
270.0
  0
ARC
  5
147
100
AcDbEntity
  8
____
  6
CONTINUOUS
 62
         7
100
AcDbCircle
 10
4776.5525250864
 20
-534.8554425179
 30
0.0
 40
2.0
100
AcDbArc
 50
90.0
 51
180.0
  0
LINE
  5
148
100
AcDbEntity
  8
____
  6
CONTINUOUS
 62
         7
100
AcDbLine
 10
4594.0640891855
 20
-538.8755366828
 30
0.0
 11
4594.8439950205
 21
-539.6554425179
 31
0.0
  0
LINE
  5
149
100
AcDbEntity
  8
____
  6
CONTINUOUS
 62
         7
100
AcDbLine
 10
4594.0640891855
 20
-566.135348353
 30
0.0
 11
4594.8439950205
 21
-565.3554425179
 31
0.0
  0
LINE
  5
14A
100
AcDbEntity
  8
____
  6
CONTINUOUS
 62
         7
100
AcDbLine
 10
4687.6758014212
 20
-538.8755366828
 30
0.0
 11
4686.8958955861
 21
-539.6554425179
 31
0.0
  0
LINE
  5
14B
100
AcDbEntity
  8
____
  6
CONTINUOUS
 62
         7
100
AcDbLine
 10
4687.6758014212
 20
-566.135348353
 30
0.0
 11
4686.8958955861
 21
-565.3554425179
 31
0.0
  0
LINE
  5
14C
100
AcDbEntity
  8
____
  6
CONTINUOUS
 62
         7
100
AcDbLine
 10
4836.0608421758
 20
-773.0083860327
 30
0.0
 11
4836.0608421758
 21
-752.0083860327
 31
0.0
  0
LINE
  5
14D
100
AcDbEntity
  8
____
  6
CONTINUOUS
 62
         7
100
AcDbLine
 10
4836.0608421758
 20
-752.0083860327
 30
0.0
 11
4842.1213205633
 21
-762.5054425179
 31
0.0
  0
LINE
  5
14E
100
AcDbEntity
  8
____
  6
CONTINUOUS
 62
         7
100
AcDbLine
 10
4836.0608421758
 20
-773.0083860327
 30
0.0
 11
4842.1213205633
 21
-762.5113295474
 31
0.0
  0
INSERT
  5
1BB
100
AcDbEntity
  8
0
  6
CONTINUOUS
100
AcDbBlockReference
  2
*X3
 10
0.0
 20
0.0
 30
0.0
  0
ARC
  5
1BC
100
AcDbEntity
  8
____
  6
CONTINUOUS
 62
         4
100
AcDbCircle
 10
5156.9699453033
 20
-516.6054425179
 30
0.0
 40
7.95
100
AcDbArc
 50
225.0
 51
490.6987776953
  0
CIRCLE
  5
1BD
100
AcDbEntity
  8
____
  6
CONTINUOUS
 62
         7
100
AcDbCircle
 10
5156.9699453033
 20
-516.6054425179
 30
0.0
 40
6.7
  0
ARC
  5
1BE
100
AcDbEntity
  8
____
  6
CENTER
 62
         1
100
AcDbCircle
 10
5192.8699453033
 20
-552.5054425179
 30
0.0
 40
50.7702668892
100
AcDbArc
 50
112.6379146531
 51
153.2361781689
  0
ARC
  5
1BF
100
AcDbEntity
  8
____
  6
CONTINUOUS
 62
         4
100
AcDbCircle
 10
5228.7699453033
 20
-516.6054425179
 30
0.0
 40
7.95
100
AcDbArc
 50
225.0
 51
490.6987776953
  0
CIRCLE
  5
1C0
100
AcDbEntity
  8
____
  6
CONTINUOUS
 62
         7
100
AcDbCircle
 10
5228.7699453033
 20
-516.6054425179
 30
0.0
 40
6.7
  0
ARC
  5
1C1
100
AcDbEntity
  8
____
  6
CENTER
 62
         1
100
AcDbCircle
 10
5192.8699453033
 20
-552.5054425179
 30
0.0
 40
50.7702668892
100
AcDbArc
 50
22.6379146531
 51
63.2361781689
  0
ARC
  5
1C2
100
AcDbEntity
  8
____
  6
CONTINUOUS
 62
         4
100
AcDbCircle
 10
5228.7699453033
 20
-588.4054425179
 30
0.0
 40
7.95
100
AcDbArc
 50
225.0
 51
490.6987776953
  0
CIRCLE
  5
1C3
100
AcDbEntity
  8
____
  6
CONTINUOUS
 62
         7
100
AcDbCircle
 10
5228.7699453033
 20
-588.4054425179
 30
0.0
 40
6.7
  0
ARC
  5
1C4
100
AcDbEntity
  8
____
  6
CENTER
 62
         1
100
AcDbCircle
 10
5192.8699453033
 20
-552.5054425179
 30
0.0
 40
50.7702668892
100
AcDbArc
 50
292.6379146531
 51
333.2361781689
  0
ARC
  5
1C5
100
AcDbEntity
  8
____
  6
CONTINUOUS
 62
         4
100
AcDbCircle
 10
5156.9699453033
 20
-588.4054425179
 30
0.0
 40
7.95
100
AcDbArc
 50
225.0
 51
490.6987776953
  0
CIRCLE
  5
1C6
100
AcDbEntity
  8
____
  6
CONTINUOUS
 62
         7
100
AcDbCircle
 10
5156.9699453033
 20
-588.4054425179
 30
0.0
 40
6.7
  0
ARC
  5
1C7
100
AcDbEntity
  8
____
  6
CENTER
 62
         1
100
AcDbCircle
 10
5192.8699453033
 20
-552.5054425179
 30
0.0
 40
50.7702668892
100
AcDbArc
 50
202.6379146531
 51
243.2361781689
  0
TEXT
  5
1C9
100
AcDbEntity
  8
____
  6
CONTINUOUS
 62
         2
100
AcDbText
 10
5177.441723086
 20
-441.3196058391
 30
0.0
 40
4.5
  1
534152
 41
0.98
  7
BOX
100
AcDbText
  0
ENDSEC
  0
SECTION
  2
OBJECTS
  0
DICTIONARY
  5
19
100
AcDbDictionary
  3
ACAD_GROUP
350
1A
  3
ACAD_MLINESTYLE
350
1B
  0
DICTIONARY
  5
1A
102
{ACAD_REACTORS
330
19
102
}
100
AcDbDictionary
  0
DICTIONARY
  5
1B
102
{ACAD_REACTORS
330
19
102
}
100
AcDbDictionary
  3
STANDARD
350
1C
  0
MLINESTYLE
  5
1C
102
{ACAD_REACTORS
330
1B
102
}
100
AcDbMlineStyle
  2
STANDARD
 70
         0
  3

 62
         0
 51
90.0
 52
90.0
 71
         2
 49
0.5
 62
       256
  6
BYLAYER
 49
-0.5
 62
       256
  6
BYLAYER
  0
ENDSEC
  0
EOF
