  0
SECTION
  2
HEADER
  9
$ACADVER
  1
AC1014
  9
$ACADMAINTVER
 70
         0
  9
$DWGCODEPAGE
  3
BIG5
  9
$INSBASE
 10
0.0
 20
0.0
 30
0.0
  9
$EXTMIN
 10
392.2724574698
 20
2874.2814405319
 30
0.0
  9
$EXTMAX
 10
1109.5226305734
 20
3235.8967306958
 30
0.0
  9
$LIMMIN
 10
0.0
 20
0.0
  9
$LIMMAX
 10
0.0
 20
0.0
  9
$ORTHOMODE
 70
         0
  9
$REGENMODE
 70
         1
  9
$FILLMODE
 70
         1
  9
$QTEXTMODE
 70
         0
  9
$MIRRTEXT
 70
         1
  9
$DRAGMODE
 70
         2
  9
$LTSCALE
 40
1.0
  9
$OSMODE
 70
         0
  9
$ATTMODE
 70
         1
  9
$TEXTSIZE
 40
1.7
  9
$TRACEWID
 40
0.05
  9
$TEXTSTYLE
  7
STANDARD
  9
$CLAYER
  8
0
  9
$CELTYPE
  6
CONTINUOUS
  9
$CECOLOR
 62
         4
  9
$CELTSCALE
 40
1.0
  9
$DELOBJ
 70
         1
  9
$DISPSILH
 70
         0
  9
$DIMSCALE
 40
1.0
  9
$DIMASZ
 40
0.18
  9
$DIMEXO
 40
0.0625
  9
$DIMDLI
 40
0.38
  9
$DIMRND
 40
0.0
  9
$DIMDLE
 40
0.0
  9
$DIMEXE
 40
0.25
  9
$DIMTP
 40
0.01
  9
$DIMTM
 40
-0.01
  9
$DIMTXT
 40
2.7
  9
$DIMCEN
 40
0.09
  9
$DIMTSZ
 40
0.0
  9
$DIMTOL
 70
         0
  9
$DIMLIM
 70
         0
  9
$DIMTIH
 70
         1
  9
$DIMTOH
 70
         1
  9
$DIMSE1
 70
         0
  9
$DIMSE2
 70
         0
  9
$DIMTAD
 70
         0
  9
$DIMZIN
 70
         0
  9
$DIMBLK
  1

  9
$DIMASO
 70
         1
  9
$DIMSHO
 70
         1
  9
$DIMPOST
  1

  9
$DIMAPOST
  1

  9
$DIMALT
 70
         0
  9
$DIMALTD
 70
         2
  9
$DIMALTF
 40
25.4
  9
$DIMLFAC
 40
1.0
  9
$DIMTOFL
 70
         0
  9
$DIMTVP
 40
0.0
  9
$DIMTIX
 70
         0
  9
$DIMSOXD
 70
         0
  9
$DIMSAH
 70
         0
  9
$DIMBLK1
  1

  9
$DIMBLK2
  1

  9
$DIMSTYLE
  2
STANDARD
  9
$DIMCLRD
 70
         0
  9
$DIMCLRE
 70
         0
  9
$DIMCLRT
 70
         4
  9
$DIMTFAC
 40
0.63
  9
$DIMGAP
 40
0.09
  9
$DIMJUST
 70
         0
  9
$DIMSD1
 70
         0
  9
$DIMSD2
 70
         0
  9
$DIMTOLJ
 70
         1
  9
$DIMTZIN
 70
         0
  9
$DIMALTZ
 70
         0
  9
$DIMALTTZ
 70
         0
  9
$DIMFIT
 70
         3
  9
$DIMUPT
 70
         0
  9
$DIMUNIT
 70
         2
  9
$DIMDEC
 70
         4
  9
$DIMTDEC
 70
         4
  9
$DIMALTU
 70
         2
  9
$DIMALTTD
 70
         2
  9
$DIMTXSTY
  7
STANDARD
  9
$DIMAUNIT
 70
         0
  9
$LUNITS
 70
         2
  9
$LUPREC
 70
        10
  9
$SKETCHINC
 40
0.1
  9
$FILLETRAD
 40
0.0
  9
$AUNITS
 70
         0
  9
$AUPREC
 70
         0
  9
$MENU
  1
acad
  9
$ELEVATION
 40
0.0
  9
$PELEVATION
 40
0.0
  9
$THICKNESS
 40
0.0
  9
$LIMCHECK
 70
         0
  9
$BLIPMODE
 70
         1
  9
$CHAMFERA
 40
0.0
  9
$CHAMFERB
 40
0.0
  9
$CHAMFERC
 40
0.0
  9
$CHAMFERD
 40
0.0
  9
$SKPOLY
 70
         0
  9
$TDCREATE
 40
0.000000000
  9
$TDUPDATE
 40
0.000000000
  9
$TDINDWG
 40
0.0000000000
  9
$TDUSRTIMER
 40
0.0000000000
  9
$USRTIMER
 70
         1
  9
$ANGBASE
 50
0.0
  9
$ANGDIR
 70
         0
  9
$PDMODE
 70
         2
  9
$PDSIZE
 40
0.0
  9
$PLINEWID
 40
0.0
  9
$COORDS
 70
         1
  9
$SPLFRAME
 70
         0
  9
$SPLINETYPE
 70
         6
  9
$SPLINESEGS
 70
         8
  9
$ATTDIA
 70
         0
  9
$ATTREQ
 70
         1
  9
$HANDLING
 70
         1
  9
$HANDSEED
  5
1A1
  9
$SURFTAB1
 70
         6
  9
$SURFTAB2
 70
         6
  9
$SURFTYPE
 70
         6
  9
$SURFU
 70
         6
  9
$SURFV
 70
         6
  9
$UCSNAME
  2

  9
$UCSORG
 10
0.0
 20
0.0
 30
0.0
  9
$UCSXDIR
 10
1.0
 20
0.0
 30
0.0
  9
$UCSYDIR
 10
0.0
 20
1.0
 30
0.0
  9
$PUCSNAME
  2

  9
$PUCSORG
 10
0.0
 20
0.0
 30
0.0
  9
$PUCSXDIR
 10
1.0
 20
0.0
 30
0.0
  9
$PUCSYDIR
 10
0.0
 20
1.0
 30
0.0
  9
$USERI1
 70
         0
  9
$USERI2
 70
         0
  9
$USERI3
 70
         0
  9
$USERI4
 70
         0
  9
$USERI5
 70
         0
  9
$USERR1
 40
0.0
  9
$USERR2
 40
0.0
  9
$USERR3
 40
0.0
  9
$USERR4
 40
0.0
  9
$USERR5
 40
0.0
  9
$WORLDVIEW
 70
         1
  9
$SHADEDGE
 70
         3
  9
$SHADEDIF
 70
        70
  9
$TILEMODE
 70
         1
  9
$MAXACTVP
 70
        16
  9
$PINSBASE
 10
0.0
 20
0.0
 30
0.0
  9
$PLIMCHECK
 70
         0
  9
$PEXTMIN
 10
1.0000000000E+20
 20
1.0000000000E+20
 30
1.0000000000E+20
  9
$PEXTMAX
 10
-1.0000000000E+20
 20
-1.0000000000E+20
 30
-1.0000000000E+20
  9
$PLIMMIN
 10
0.0
 20
0.0
  9
$PLIMMAX
 10
12.0
 20
9.0
  9
$UNITMODE
 70
         0
  9
$VISRETAIN
 70
         0
  9
$PLINEGEN
 70
         1
  9
$PSLTSCALE
 70
         0
  9
$TREEDEPTH
 70
      3020
  9
$PICKSTYLE
 70
         1
  9
$CMLSTYLE
  2
STANDARD
  9
$CMLJUST
 70
         0
  9
$CMLSCALE
 40
1.0
  9
$PROXYGRAPHICS
 70
         0
  9
$MEASUREMENT
 70
         0
  0
ENDSEC
  0
SECTION
  2
CLASSES
  0
CLASS
  1
LWPOLYLINE
  2
AcDbPolyline
  3
"AutoCAD"
 90
        0
280
         0
281
         1
  0
CLASS
  1
IMAGE
  2
AcDbRasterImage
  3
ISM
 90
      127
280
         0
281
         1
  0
CLASS
  1
OLE2FRAME
  2
AcDbOle2Frame
  3
""
 90
        0
280
         0
281
         1
  0
CLASS
  1
HATCH
  2
AcDbHatch
  3
"ACAD_SEDONA"
 90
        0
280
         0
281
         1
  0
CLASS
  1
DICTIONARYVAR
  2
AcDbDictionaryVar
  3
"AutoCAD"
 90
        0
280
         0
281
         0
  0
CLASS
  1
RASTERVARIABLES
  2
AcDbRasterVariables
  3
ISM
 90
        0
280
         0
281
         0
  0
CLASS
  1
IMAGEDEF
  2
AcDbRasterImageDef
  3
ISM
 90
        0
280
         0
281
         0
  0
CLASS
  1
IMAGEDEF_REACTOR
  2
AcDbRasterImageDefReactor
  3
ISM
 90
        1
280
         0
281
         0
  0
CLASS
  1
IDBUFFER
  2
AcDbIdBuffer
  3
"Acad"
 90
        0
280
         0
281
         0
  0
CLASS
  1
SPATIAL_FILTER
  2
AcDbSpatialFilter
  3
"Acad"
 90
        0
280
         0
281
         0
  0
CLASS
  1
XRECORD
  2
AcDbXrecord
  3
"<Built In>"
 90
        0
280
         0
281
         0
  0
CLASS
  1
SORTENTSTABLE
  2
AcDbSortentsTable
  3
"AutoCAD"
 90
        0
280
         0
281
         0
  0
CLASS
  1
LAYER_INDEX
  2
AcDbLayerIndex
  3
"Acad"
 90
        0
280
         0
281
         0
  0
CLASS
  1
SPATIAL_INDEX
  2
AcDbSpatialIndex
  3
"Acad"
 90
        0
280
         0
281
         0
  0
CLASS
  1
OBJECT_PTR
  2
CAseDLPNTableRecord
  3
"ASE-LPNTableRecord"
 90
        1
280
         0
281
         0
  0
CLASS
  1
LAYOUT
  2
AcDbLayout
  3
"AutoCAD 2000"
 90
        1
280
         0
281
         0
  0
CLASS
  1
PLOTSETTINGS
  2
AcDbPlotSettings
  3
"AutoCAD 2000"
 90
        1
280
         0
281
         0
  0
CLASS
  1
ACDBDICTIONARYWDFLT
  2
AcDbDictionaryWithDefault
  3
"AutoCAD 2000"
 90
        1
280
         0
281
         0
  0
CLASS
  1
ACDBPLACEHOLDER
  2
AcDbPlaceHolder
  3
"AutoCAD 2000"
 90
        1
280
         0
281
         0
  0
CLASS
  1
VBA_PROJECT
  2
AcDbVbaProject
  3
"acadvba"
 90
        1
280
         0
281
         0
  0
CLASS
  1
WIPEOUT
  2
AcDbWipeout
  3
WipeOut|AutoCAD Express Tool|expresstools@autodesk.com
 90
      127
280
         0
281
         1
  0
CLASS
  1
WIPEOUTVARIABLES
  2
AcDbWipeoutVariables
  3
WipeOut|AutoCAD Express Tool|expresstools@autodesk.com
 90
        0
280
         0
281
         0
  0
CLASS
  1
RTEXT
  2
RText
  3
RText|AutoCAD Express Tool|expresstools@autodesk.com
 90
        0
280
         0
281
         1
  0
CLASS
  1
ARCALIGNEDTEXT
  2
AcDbArcAlignedText
  3
ATEXT|AutoCAD Express Tool|expresstools@autodesk.com
 90
        0
280
         0
281
         1
  0
ENDSEC
  0
SECTION
  2
TABLES
  0
TABLE
  2
VPORT
  5
7
100
AcDbSymbolTable
 70
         1
  0
VPORT
  5
15
100
AcDbSymbolTableRecord
100
AcDbViewportTableRecord
  2
*ACTIVE
 70
         0
 10
0.0
 20
0.0
 11
1.0
 21
1.0
 12
750.8975440216
 22
3055.0890856139
 13
0.0
 23
0.0
 14
1.0
 24
1.0
 15
0.0
 25
0.0
 16
0.0
 26
0.0
 36
1.0
 17
0.0
 27
0.0
 37
0.0
 40
361.6152901639
 41
1.9834619625
 42
50.0
 43
0.0
 44
0.0
 50
0.0
 51
0.0
 71
         0
 72
       100
 73
         1
 74
         1
 75
         0
 76
         0
 77
         0
 78
         0
  0
ENDTAB
  0
TABLE
  2
LTYPE
  5
4
100
AcDbSymbolTable
 70
         6
  0
LTYPE
  5
11
100
AcDbSymbolTableRecord
100
AcDbLinetypeTableRecord
  2
BYBLOCK
 70
        64
  3

 72
        65
 73
         0
 40
0.0
  0
LTYPE
  5
12
100
AcDbSymbolTableRecord
100
AcDbLinetypeTableRecord
  2
BYLAYER
 70
        64
  3

 72
        65
 73
         0
 40
0.0
  0
LTYPE
  5
13
100
AcDbSymbolTableRecord
100
AcDbLinetypeTableRecord
  2
CONTINUOUS
 70
        64
  3
Solid line
 72
        65
 73
         0
 40
0.0
  0
LTYPE
  5
1D
100
AcDbSymbolTableRecord
100
AcDbLinetypeTableRecord
  2
DASHED
 70
        64
  3
_ _ _ _ _ _ _ _ _ _ _ _ _ _ _ _
 72
        65
 73
         2
 40
0.2
 49
0.1
 74
         0
 49
-0.1
 74
         0
  0
LTYPE
  5
1E
100
AcDbSymbolTableRecord
100
AcDbLinetypeTableRecord
  2
CENTER
 70
        64
  3
___ _ ___ _ ___ _ ___ _ ___ _ ___ _ ___ _ ___ _
 72
        65
 73
         4
 40
0.95
 49
0.625
 74
         0
 49
-0.125
 74
         0
 49
0.075
 74
         0
 49
-0.125
 74
         0
  0
LTYPE
  5
1F
100
AcDbSymbolTableRecord
100
AcDbLinetypeTableRecord
  2
PHANTOM
 70
        64
  3
______  __  __  ______  __  __  ______  __  __  
 72
        65
 73
         6
 40
1.025
 49
0.625
 74
         0
 49
-0.125
 74
         0
 49
0.075
 74
         0
 49
-0.125
 74
         0
 49
0.075
 74
         0
 49
-0.125
 74
         0
  0
ENDTAB
  0
TABLE
  2
LAYER
  5
2
100
AcDbSymbolTable
 70
         9
  0
LAYER
  5
14
100
AcDbSymbolTableRecord
100
AcDbLayerTableRecord
  2
0
 70
         0
 62
         7
  6
CONTINUOUS
  0
LAYER
  5
21
100
AcDbSymbolTableRecord
100
AcDbLayerTableRecord
  2
____
 70
         0
 62
         7
  6
CONTINUOUS
  0
LAYER
  5
22
100
AcDbSymbolTableRecord
100
AcDbLayerTableRecord
  2
____
 70
         1
 62
         7
  6
CONTINUOUS
  0
LAYER
  5
23
100
AcDbSymbolTableRecord
100
AcDbLayerTableRecord
  2
____
 70
         1
 62
         7
  6
CONTINUOUS
  0
LAYER
  5
24
100
AcDbSymbolTableRecord
100
AcDbLayerTableRecord
  2
____
 70
         1
 62
         7
  6
CONTINUOUS
  0
LAYER
  5
25
100
AcDbSymbolTableRecord
100
AcDbLayerTableRecord
  2
___G
 70
         1
 62
         7
  6
CONTINUOUS
  0
LAYER
  5
26
100
AcDbSymbolTableRecord
100
AcDbLayerTableRecord
  2
____
 70
         1
 62
         7
  6
CONTINUOUS
  0
LAYER
  5
27
100
AcDbSymbolTableRecord
100
AcDbLayerTableRecord
  2
____
 70
         1
 62
         7
  6
CONTINUOUS
  0
LAYER
  5
BD
100
AcDbSymbolTableRecord
100
AcDbLayerTableRecord
  2
DEFPOINTS
 70
         0
 62
        -7
  6
CONTINUOUS
  0
ENDTAB
  0
TABLE
  2
STYLE
  5
3
100
AcDbSymbolTable
 70
         9
  0
STYLE
  5
17
100
AcDbSymbolTableRecord
100
AcDbTextStyleTableRecord
  2
STANDARD
 70
         0
 40
0.0
 41
1.0
 50
0.0
 71
         0
 42
0.0
  3
txt
  4

  0
STYLE
  5
65
100
AcDbSymbolTableRecord
100
AcDbTextStyleTableRecord
  2
STSL
 70
         0
 40
1.0
 41
1.0
 50
0.0
 71
         0
 42
0.2
  3

  4
Stsl
  0
STYLE
  5
67
100
AcDbSymbolTableRecord
100
AcDbTextStyleTableRecord
  2
STSL
 70
         0
 40
1.0
 41
1.0
 50
0.0
 71
         0
 42
0.2
  3

  4
Stsl
  0
STYLE
  5
C6
100
AcDbSymbolTableRecord
100
AcDbTextStyleTableRecord
  2
BOX
 70
         0
 40
1.0
 41
1.0
 50
0.0
 71
         0
 42
0.2
  3
txt.shx
  4

  0
STYLE
  5
D4
100
AcDbSymbolTableRecord
100
AcDbTextStyleTableRecord
  2
BOX
 70
         0
 40
1.0
 41
1.0
 50
0.0
 71
         0
 42
0.2
  3
txt.shx
  4

  0
STYLE
  5
E4
100
AcDbSymbolTableRecord
100
AcDbTextStyleTableRecord
  2
BOX
 70
         0
 40
1.0
 41
1.0
 50
0.0
 71
         0
 42
0.2
  3
txt.shx
  4

  0
STYLE
  5
F2
100
AcDbSymbolTableRecord
100
AcDbTextStyleTableRecord
  2
BOX
 70
         0
 40
1.0
 41
1.0
 50
0.0
 71
         0
 42
0.2
  3
txt.shx
  4

  0
STYLE
  5
10E
100
AcDbSymbolTableRecord
100
AcDbTextStyleTableRecord
  2
BOX
 70
         0
 40
1.0
 41
1.0
 50
0.0
 71
         0
 42
0.2
  3
txt.shx
  4

  0
STYLE
  5
19F
100
AcDbSymbolTableRecord
100
AcDbTextStyleTableRecord
  2
BOX
 70
         0
 40
1.0
 41
1.0
 50
0.0
 71
         0
 42
0.2
  3
txt.shx
  4

  0
ENDTAB
  0
TABLE
  2
VIEW
  5
5
100
AcDbSymbolTable
 70
         0
  0
ENDTAB
  0
TABLE
  2
UCS
  5
6
100
AcDbSymbolTable
 70
         1
  0
UCS
  5
20
100
AcDbSymbolTableRecord
100
AcDbUCSTableRecord
  2
CK_VIEW_1
 70
         0
 10
0.0
 20
0.0
 30
1.0
 11
1.0
 21
0.0
 31
0.0
 12
0.0
 22
1.0
 32
0.0
  0
ENDTAB
  0
TABLE
  2
APPID
  5
8
100
AcDbSymbolTable
 70
         1
  0
APPID
  5
16
100
AcDbSymbolTableRecord
100
AcDbRegAppTableRecord
  2
ACAD
 70
         0
  0
ENDTAB
  0
TABLE
  2
DIMSTYLE
  5
9
100
AcDbSymbolTable
 70
         2
  0
DIMSTYLE
105
18
100
AcDbSymbolTableRecord
100
AcDbDimStyleTableRecord
  2
STANDARD
 70
         0
  3

  4

  5

  6

  7

 40
1.0
 41
0.18
 42
0.0625
 43
0.38
 44
0.18
 45
0.0
 46
0.0
 47
0.0
 48
0.0
 71
         0
 72
         0
 73
         1
 74
         1
 75
         0
 76
         0
 77
         0
 78
         0
140
0.18
141
0.09
142
0.0
143
25.4
144
1.0
145
0.0
146
1.0
147
0.09
170
         0
171
         2
172
         0
173
         0
174
         0
175
         0
176
         0
177
         0
178
         0
270
         2
271
         4
272
         4
273
         2
274
         2
275
         0
280
         0
281
         0
282
         0
283
         1
284
         0
285
         0
286
         0
287
         0
288
         0
340
17
  0
DIMSTYLE
105
B9
100
AcDbSymbolTableRecord
100
AcDbDimStyleTableRecord
  2
DIMSTYLE1
 70
         0
  3

  4

  5

  6

  7

 40
1.0
 41
2.7
 42
0.0625
 43
0.38
 44
2.7
 45
0.0
 46
0.0
 47
0.0
 48
0.0
 71
         0
 72
         0
 73
         1
 74
         1
 75
         0
 76
         0
 77
         0
 78
         0
140
2.7
141
0.09
142
0.0
143
25.4
144
1.0
145
0.0
146
1.0
147
0.09
170
         0
171
         2
172
         0
173
         0
174
         0
175
         0
176
         0
177
         0
178
         0
270
         2
271
         4
272
         4
273
         2
274
         2
275
         0
280
         0
281
         0
282
         0
283
         1
284
         0
285
         0
286
         0
287
         0
288
         0
340
17
  0
ENDTAB
  0
TABLE
  2
BLOCK_RECORD
  5
1
100
AcDbSymbolTable
 70
        13
  0
BLOCK_RECORD
  5
A
100
AcDbSymbolTableRecord
100
AcDbBlockTableRecord
  2
*MODEL_SPACE
  0
BLOCK_RECORD
  5
B
100
AcDbSymbolTableRecord
100
AcDbBlockTableRecord
  2
*PAPER_SPACE
  0
BLOCK_RECORD
  5
BA
100
AcDbSymbolTableRecord
100
AcDbBlockTableRecord
  2
*D0
  0
BLOCK_RECORD
  5
C9
100
AcDbSymbolTableRecord
100
AcDbBlockTableRecord
  2
*D1
  0
BLOCK_RECORD
  5
D9
100
AcDbSymbolTableRecord
100
AcDbBlockTableRecord
  2
*D2
  0
BLOCK_RECORD
  5
E7
100
AcDbSymbolTableRecord
100
AcDbBlockTableRecord
  2
*D3
  0
BLOCK_RECORD
  5
102
100
AcDbSymbolTableRecord
100
AcDbBlockTableRecord
  2
*D4
  0
BLOCK_RECORD
  5
11B
100
AcDbSymbolTableRecord
100
AcDbBlockTableRecord
  2
*X5
  0
BLOCK_RECORD
  5
13D
100
AcDbSymbolTableRecord
100
AcDbBlockTableRecord
  2
*X6
  0
BLOCK_RECORD
  5
149
100
AcDbSymbolTableRecord
100
AcDbBlockTableRecord
  2
*X7
  0
BLOCK_RECORD
  5
152
100
AcDbSymbolTableRecord
100
AcDbBlockTableRecord
  2
*X8
  0
BLOCK_RECORD
  5
15C
100
AcDbSymbolTableRecord
100
AcDbBlockTableRecord
  2
*X9
  0
BLOCK_RECORD
  5
167
100
AcDbSymbolTableRecord
100
AcDbBlockTableRecord
  2
*X10
  0
BLOCK_RECORD
  5
171
100
AcDbSymbolTableRecord
100
AcDbBlockTableRecord
  2
*X11
  0
BLOCK_RECORD
  5
18C
100
AcDbSymbolTableRecord
100
AcDbBlockTableRecord
  2
*X12
  0
ENDTAB
  0
ENDSEC
  0
SECTION
  2
BLOCKS
  0
BLOCK
  5
D
100
AcDbEntity
  8
0
100
AcDbBlockBegin
  2
*MODEL_SPACE
 70
         0
 10
0.0
 20
0.0
 30
0.0
  3
*MODEL_SPACE
  1

  0
ENDBLK
  5
E
100
AcDbEntity
  8
0
100
AcDbBlockEnd
  0
BLOCK
  5
F
100
AcDbEntity
 67
         1
  8
0
100
AcDbBlockBegin
  2
*PAPER_SPACE
 70
         0
 10
0.0
 20
0.0
 30
0.0
  3
*PAPER_SPACE
  1

  0
ENDBLK
  5
10
100
AcDbEntity
 67
         1
  8
0
100
AcDbBlockEnd
  0
BLOCK
  5
BB
100
AcDbEntity
  8
0
100
AcDbBlockBegin
  2
*D0
 70
        65
 10
0.0
 20
0.0
 30
0.0
  3
*D0
  1

  0
POINT
  5
BE
100
AcDbEntity
  8
DEFPOINTS
  6
CONTINUOUS
 62
         0
100
AcDbPoint
 10
801.0067590038
 20
3147.8733353732
 30
0.0
  0
POINT
  5
BF
100
AcDbEntity
  8
DEFPOINTS
  6
CONTINUOUS
 62
         0
100
AcDbPoint
 10
760.5007567506
 20
3147.8733353732
 30
0.0
  0
POINT
  5
C0
100
AcDbEntity
  8
DEFPOINTS
  6
CONTINUOUS
 62
         0
100
AcDbPoint
 10
760.5007567506
 20
3133.6743353732
 30
0.0
  0
LINE
  5
C1
100
AcDbEntity
  8
____
  6
CONTINUOUS
 62
         4
100
AcDbLine
 10
761.8507567506
 20
3147.8733353732
 30
0.0
 11
801.6817590038
 21
3147.8733353732
 31
0.0
  0
LINE
  5
C2
100
AcDbEntity
  8
____
  6
CONTINUOUS
 62
         4
100
AcDbLine
 10
761.8507567506
 20
3133.6743353732
 30
0.0
 11
801.6817590038
 21
3133.6743353732
 31
0.0
  0
LINE
  5
C3
100
AcDbEntity
  8
____
  6
CONTINUOUS
 62
         4
100
AcDbLine
 10
801.0067590038
 20
3147.8733353732
 30
0.0
 11
801.0067590038
 21
3133.6743353732
 31
0.0
  0
SOLID
  5
C4
100
AcDbEntity
  8
____
  6
CONTINUOUS
 62
         4
100
AcDbTrace
 10
801.0067590038
 20
3147.8733353732
 30
0.0
 11
801.4117590038
 21
3145.1733353732
 31
0.0
 12
800.6017590038
 22
3145.1733353732
 32
0.0
 13
801.0067590038
 23
3147.8733353732
 33
0.0
  0
SOLID
  5
C5
100
AcDbEntity
  8
____
  6
CONTINUOUS
 62
         4
100
AcDbTrace
 10
801.0067590038
 20
3133.6743353732
 30
0.0
 11
800.6017590038
 21
3136.3743353732
 31
0.0
 12
801.4117590038
 22
3136.3743353732
 32
0.0
 13
801.0067590038
 23
3133.6743353732
 33
0.0
  0
TEXT
  5
C7
100
AcDbEntity
  8
____
  6
CONTINUOUS
 62
         4
100
AcDbText
 10
798.9817590038
 20
3131.340452837
 30
0.0
 40
2.7
  1
崷14.199
 50
90.0
  7
BOX
100
AcDbText
  0
ENDBLK
  5
C8
100
AcDbEntity
  8
0
  6
CONTINUOUS
100
AcDbBlockEnd
  0
BLOCK
  5
CA
100
AcDbEntity
  8
0
100
AcDbBlockBegin
  2
*D1
 70
        65
 10
0.0
 20
0.0
 30
0.0
  3
*D1
  1

  0
POINT
  5
CC
100
AcDbEntity
  8
DEFPOINTS
  6
CONTINUOUS
 62
         0
100
AcDbPoint
 10
812.6549661512
 20
3155.7738353732
 30
0.0
  0
POINT
  5
CD
100
AcDbEntity
  8
DEFPOINTS
  6
CONTINUOUS
 62
         0
100
AcDbPoint
 10
755.8929507529
 20
3155.7738353732
 30
0.0
  0
POINT
  5
CE
100
AcDbEntity
  8
DEFPOINTS
  6
CONTINUOUS
 62
         0
100
AcDbPoint
 10
755.8929507529
 20
3125.7738353732
 30
0.0
  0
LINE
  5
CF
100
AcDbEntity
  8
____
  6
CONTINUOUS
 62
         4
100
AcDbLine
 10
757.2429507529
 20
3155.7738353732
 30
0.0
 11
813.3299661512
 21
3155.7738353732
 31
0.0
  0
LINE
  5
D0
100
AcDbEntity
  8
____
  6
CONTINUOUS
 62
         4
100
AcDbLine
 10
757.2429507529
 20
3125.7738353732
 30
0.0
 11
813.3299661512
 21
3125.7738353732
 31
0.0
  0
LINE
  5
D1
100
AcDbEntity
  8
____
  6
CONTINUOUS
 62
         4
100
AcDbLine
 10
812.6549661512
 20
3155.7738353732
 30
0.0
 11
812.6549661512
 21
3125.7738353732
 31
0.0
  0
SOLID
  5
D2
100
AcDbEntity
  8
____
  6
CONTINUOUS
 62
         4
100
AcDbTrace
 10
812.6549661512
 20
3155.7738353732
 30
0.0
 11
813.0599661512
 21
3153.0738353732
 31
0.0
 12
812.2499661512
 22
3153.0738353732
 32
0.0
 13
812.6549661512
 23
3155.7738353732
 33
0.0
  0
SOLID
  5
D3
100
AcDbEntity
  8
____
  6
CONTINUOUS
 62
         4
100
AcDbTrace
 10
812.6549661512
 20
3125.7738353732
 30
0.0
 11
812.2499661512
 21
3128.4738353732
 31
0.0
 12
813.0599661512
 22
3128.4738353732
 32
0.0
 13
812.6549661512
 23
3125.7738353732
 33
0.0
  0
TEXT
  5
D5
100
AcDbEntity
  8
____
  6
CONTINUOUS
 62
         4
100
AcDbText
 10
810.6299661512
 20
3135.7275652589
 30
0.0
 40
2.7
  1
崷30
 50
90.0
  7
BOX
100
AcDbText
  0
ENDBLK
  5
D6
100
AcDbEntity
  8
0
  6
CONTINUOUS
100
AcDbBlockEnd
  0
BLOCK
  5
DA
100
AcDbEntity
  8
0
100
AcDbBlockBegin
  2
*D2
 70
        65
 10
0.0
 20
0.0
 30
0.0
  3
*D2
  1

  0
POINT
  5
DC
100
AcDbEntity
  8
DEFPOINTS
  6
CONTINUOUS
 62
         0
100
AcDbPoint
 10
739.4957567506
 20
3196.0695104897
 30
0.0
  0
POINT
  5
DD
100
AcDbEntity
  8
DEFPOINTS
  6
CONTINUOUS
 62
         0
100
AcDbPoint
 10
739.4957567506
 20
3162.9988353732
 30
0.0
  0
POINT
  5
DE
100
AcDbEntity
  8
DEFPOINTS
  6
CONTINUOUS
 62
         0
100
AcDbPoint
 10
756.5007567506
 20
3154.7738353732
 30
0.0
  0
LINE
  5
DF
100
AcDbEntity
  8
____
  6
CONTINUOUS
 62
         4
100
AcDbLine
 10
739.4957567506
 20
3164.3488353732
 30
0.0
 11
739.4957567506
 21
3196.7445104897
 31
0.0
  0
LINE
  5
E0
100
AcDbEntity
  8
____
  6
CONTINUOUS
 62
         4
100
AcDbLine
 10
756.5007567506
 20
3156.1238353732
 30
0.0
 11
756.5007567506
 21
3196.7445104897
 31
0.0
  0
LINE
  5
E1
100
AcDbEntity
  8
____
  6
CONTINUOUS
 62
         4
100
AcDbLine
 10
739.4957567506
 20
3196.0695104897
 30
0.0
 11
756.5007567506
 21
3196.0695104897
 31
0.0
  0
SOLID
  5
E2
100
AcDbEntity
  8
____
  6
CONTINUOUS
 62
         4
100
AcDbTrace
 10
739.4957567506
 20
3196.0695104897
 30
0.0
 11
742.1957567506
 21
3196.4745104897
 31
0.0
 12
742.1957567506
 22
3195.6645104897
 32
0.0
 13
739.4957567506
 23
3196.0695104897
 33
0.0
  0
SOLID
  5
E3
100
AcDbEntity
  8
____
  6
CONTINUOUS
 62
         4
100
AcDbTrace
 10
756.5007567506
 20
3196.0695104897
 30
0.0
 11
753.8007567506
 21
3195.6645104897
 31
0.0
 12
753.8007567506
 22
3196.4745104897
 32
0.0
 13
756.5007567506
 23
3196.0695104897
 33
0.0
  0
TEXT
  5
E5
100
AcDbEntity
  8
____
  6
CONTINUOUS
 62
         4
100
AcDbText
 10
745.2982567506
 20
3198.0945104897
 30
0.0
 40
2.7
  1
17
  7
BOX
100
AcDbText
  0
ENDBLK
  5
E6
100
AcDbEntity
  8
0
  6
CONTINUOUS
100
AcDbBlockEnd
  0
BLOCK
  5
E8
100
AcDbEntity
  8
0
100
AcDbBlockBegin
  2
*D3
 70
        65
 10
0.0
 20
0.0
 30
0.0
  3
*D3
  1

  0
POINT
  5
EA
100
AcDbEntity
  8
DEFPOINTS
  6
CONTINUOUS
 62
         0
100
AcDbPoint
 10
646.0957567506
 20
3206.7234744961
 30
0.0
  0
POINT
  5
EB
100
AcDbEntity
  8
DEFPOINTS
  6
CONTINUOUS
 62
         0
100
AcDbPoint
 10
646.0957567506
 20
3152.2738353732
 30
0.0
  0
POINT
  5
EC
100
AcDbEntity
  8
DEFPOINTS
  6
CONTINUOUS
 62
         0
100
AcDbPoint
 10
782.7257567506
 20
3152.2738353732
 30
0.0
  0
LINE
  5
ED
100
AcDbEntity
  8
____
  6
CONTINUOUS
 62
         4
100
AcDbLine
 10
646.0957567506
 20
3153.6238353732
 30
0.0
 11
646.0957567506
 21
3207.3984744961
 31
0.0
  0
LINE
  5
EE
100
AcDbEntity
  8
____
  6
CONTINUOUS
 62
         4
100
AcDbLine
 10
782.7257567506
 20
3153.6238353732
 30
0.0
 11
782.7257567506
 21
3207.3984744961
 31
0.0
  0
LINE
  5
EF
100
AcDbEntity
  8
____
  6
CONTINUOUS
 62
         4
100
AcDbLine
 10
646.0957567506
 20
3206.7234744961
 30
0.0
 11
782.7257567506
 21
3206.7234744961
 31
0.0
  0
SOLID
  5
F0
100
AcDbEntity
  8
____
  6
CONTINUOUS
 62
         4
100
AcDbTrace
 10
646.0957567506
 20
3206.7234744961
 30
0.0
 11
648.7957567506
 21
3207.1284744961
 31
0.0
 12
648.7957567506
 22
3206.3184744961
 32
0.0
 13
646.0957567506
 23
3206.7234744961
 33
0.0
  0
SOLID
  5
F1
100
AcDbEntity
  8
____
  6
CONTINUOUS
 62
         4
100
AcDbTrace
 10
782.7257567506
 20
3206.7234744961
 30
0.0
 11
780.0257567506
 21
3206.3184744961
 31
0.0
 12
780.0257567506
 22
3207.1284744961
 32
0.0
 13
782.7257567506
 23
3206.7234744961
 33
0.0
  0
TEXT
  5
F3
100
AcDbEntity
  8
____
  6
CONTINUOUS
 62
         4
100
AcDbText
 10
706.3107567506
 20
3208.7484744961
 30
0.0
 40
2.7
  1
136.63
  7
BOX
100
AcDbText
  0
ENDBLK
  5
F4
100
AcDbEntity
  8
0
  6
CONTINUOUS
100
AcDbBlockEnd
  0
BLOCK
  5
103
100
AcDbEntity
  8
0
100
AcDbBlockBegin
  2
*D4
 70
        65
 10
0.0
 20
0.0
 30
0.0
  3
*D4
  1

  0
POINT
  5
105
100
AcDbEntity
  8
DEFPOINTS
  6
CONTINUOUS
 62
         0
100
AcDbPoint
 10
808.506269381
 20
3026.9660836969
 30
0.0
  0
POINT
  5
106
100
AcDbEntity
  8
DEFPOINTS
  6
CONTINUOUS
 62
         0
100
AcDbPoint
 10
782.7257567506
 20
3026.9660836969
 30
0.0
  0
POINT
  5
107
100
AcDbEntity
  8
DEFPOINTS
  6
CONTINUOUS
 62
         0
100
AcDbPoint
 10
782.7257567506
 20
3014.5800836969
 30
0.0
  0
LINE
  5
108
100
AcDbEntity
  8
____
  6
CONTINUOUS
 62
         4
100
AcDbLine
 10
784.0757567506
 20
3026.9660836969
 30
0.0
 11
809.181269381
 21
3026.9660836969
 31
0.0
  0
LINE
  5
109
100
AcDbEntity
  8
____
  6
CONTINUOUS
 62
         4
100
AcDbLine
 10
784.0757567506
 20
3014.5800836969
 30
0.0
 11
809.181269381
 21
3014.5800836969
 31
0.0
  0
LINE
  5
10A
100
AcDbEntity
  8
____
  6
CONTINUOUS
 62
         4
100
AcDbLine
 10
808.506269381
 20
3026.9660836969
 30
0.0
 11
808.506269381
 21
3014.5800836969
 31
0.0
  0
SOLID
  5
10B
100
AcDbEntity
  8
____
  6
CONTINUOUS
 62
         4
100
AcDbTrace
 10
808.506269381
 20
3026.9660836969
 30
0.0
 11
808.911269381
 21
3024.2660836969
 31
0.0
 12
808.101269381
 22
3024.2660836969
 32
0.0
 13
808.506269381
 23
3026.9660836969
 33
0.0
  0
LINE
  5
10C
100
AcDbEntity
  8
____
  6
CONTINUOUS
 62
         4
100
AcDbLine
 10
808.506269381
 20
3026.9660836969
 30
0.0
 11
808.506269381
 21
3014.8673575477
 31
0.0
  0
SOLID
  5
10D
100
AcDbEntity
  8
____
  6
CONTINUOUS
 62
         4
100
AcDbTrace
 10
808.506269381
 20
3014.5800836969
 30
0.0
 11
808.101269381
 21
3017.2800836969
 31
0.0
 12
808.911269381
 22
3017.2800836969
 32
0.0
 13
808.506269381
 23
3014.5800836969
 33
0.0
  0
TEXT
  5
10F
100
AcDbEntity
  8
____
  6
CONTINUOUS
 62
         4
100
AcDbText
 10
806.481269381
 20
3016.2173575477
 30
0.0
 40
2.7
  1
崷12.386
 50
90.0
  7
BOX
100
AcDbText
  0
ENDBLK
  5
110
100
AcDbEntity
  8
0
  6
CONTINUOUS
100
AcDbBlockEnd
  0
BLOCK
  5
11C
100
AcDbEntity
  8
0
100
AcDbBlockBegin
  2
*X5
 70
        65
 10
0.0
 20
0.0
 30
0.0
  3
*X5
  1

  0
LINE
  5
11D
100
AcDbEntity
  8
____
  6
CONTINUOUS
 62
         4
100
AcDbLine
 10
759.4463491386
 20
3020.7738353732
 30
0.0
 11
760.5007567506
 21
3021.8282429852
 31
0.0
  0
LINE
  5
11E
100
AcDbEntity
  8
____
  6
CONTINUOUS
 62
         4
100
AcDbLine
 10
755.2037084515
 20
3020.7738353732
 30
0.0
 11
760.5007567506
 21
3026.0708836723
 31
0.0
  0
LINE
  5
11F
100
AcDbEntity
  8
____
  6
CONTINUOUS
 62
         4
100
AcDbLine
 10
750.9610677644
 20
3020.7738353732
 30
0.0
 11
758.1988881032
 21
3028.011655712
 31
0.0
  0
LINE
  5
120
100
AcDbEntity
  8
____
  6
CONTINUOUS
 62
         4
100
AcDbLine
 10
746.7184270773
 20
3020.7738353732
 30
0.0
 11
756.7007567506
 21
3030.7561650466
 31
0.0
  0
LINE
  5
121
100
AcDbEntity
  8
____
  6
CONTINUOUS
 62
         4
100
AcDbLine
 10
742.4757863901
 20
3020.7738353732
 30
0.0
 11
756.6796080009
 21
3034.977656984
 31
0.0
  0
LINE
  5
122
100
AcDbEntity
  8
____
  6
CONTINUOUS
 62
         4
100
AcDbLine
 10
738.233145703
 20
3020.7738353732
 30
0.0
 11
753.2323940267
 21
3035.7730836969
 31
0.0
  0
LINE
  5
123
100
AcDbEntity
  8
____
  6
CONTINUOUS
 62
         4
100
AcDbLine
 10
733.9905050159
 20
3020.7738353732
 30
0.0
 11
751.0957567506
 21
3037.8790871079
 31
0.0
  0
LINE
  5
124
100
AcDbEntity
  8
____
  6
CONTINUOUS
 62
         4
100
AcDbLine
 10
729.7478643288
 20
3020.7738353732
 30
0.0
 11
751.0957567506
 21
3042.1217277951
 31
0.0
  0
LINE
  5
125
100
AcDbEntity
  8
____
  6
CONTINUOUS
 62
         4
100
AcDbLine
 10
725.5052236417
 20
3020.7738353732
 30
0.0
 11
751.0957567506
 21
3046.3643684822
 31
0.0
  0
LINE
  5
126
100
AcDbEntity
  8
____
  6
CONTINUOUS
 62
         4
100
AcDbLine
 10
721.2625829545
 20
3020.7738353732
 30
0.0
 11
751.0957567506
 21
3050.6070091693
 31
0.0
  0
LINE
  5
127
100
AcDbEntity
  8
____
  6
CONTINUOUS
 62
         4
100
AcDbLine
 10
717.0199422674
 20
3020.7738353732
 30
0.0
 11
739.202120558
 21
3042.9560136638
 31
0.0
  0
LINE
  5
128
100
AcDbEntity
  8
____
  6
CONTINUOUS
 62
         4
100
AcDbLine
 10
741.0957567506
 20
3044.8496498564
 30
0.0
 11
748.5199422674
 21
3052.2738353732
 31
0.0
  0
LINE
  5
129
100
AcDbEntity
  8
____
  6
CONTINUOUS
 62
         4
100
AcDbLine
 10
712.7773015803
 20
3020.7738353732
 30
0.0
 11
734.235131244
 21
3042.2316650369
 31
0.0
  0
LINE
  5
12A
100
AcDbEntity
  8
____
  6
CONTINUOUS
 62
         4
100
AcDbLine
 10
741.0957567506
 20
3049.0922905435
 30
0.0
 11
744.2773015803
 21
3052.2738353732
 31
0.0
  0
LINE
  5
12B
100
AcDbEntity
  8
____
  6
CONTINUOUS
 62
         4
100
AcDbLine
 10
708.5346608932
 20
3020.7738353732
 30
0.0
 11
729.2681419299
 21
3041.5073164099
 31
0.0
  0
LINE
  5
12C
100
AcDbEntity
  8
____
  6
CONTINUOUS
 62
         4
100
AcDbLine
 10
704.2920202061
 20
3020.7738353732
 30
0.0
 11
724.3011526159
 21
3040.782967783
 31
0.0
  0
LINE
  5
12D
100
AcDbEntity
  8
____
  6
CONTINUOUS
 62
         4
100
AcDbLine
 10
700.049379519
 20
3020.7738353732
 30
0.0
 11
719.3341633018
 21
3040.058619156
 31
0.0
  0
LINE
  5
12E
100
AcDbEntity
  8
____
  6
CONTINUOUS
 62
         4
100
AcDbLine
 10
695.8067388318
 20
3020.7738353732
 30
0.0
 11
714.3671739877
 21
3039.3342705291
 31
0.0
  0
LINE
  5
12F
100
AcDbEntity
  8
____
  6
CONTINUOUS
 62
         4
100
AcDbLine
 10
691.8972385405
 20
3021.106975769
 30
0.0
 11
709.4001846737
 21
3038.6099219022
 31
0.0
  0
LINE
  5
130
100
AcDbEntity
  8
____
  6
CONTINUOUS
 62
         4
100
AcDbLine
 10
690.3443242699
 20
3023.7967021855
 30
0.0
 11
704.4331953596
 21
3037.8855732752
 31
0.0
  0
LINE
  5
131
100
AcDbEntity
  8
____
  6
CONTINUOUS
 62
         4
100
AcDbLine
 10
688.7914099993
 20
3026.486428602
 30
0.0
 11
699.4662060456
 21
3037.1612246483
 31
0.0
  0
LINE
  5
132
100
AcDbEntity
  8
____
  6
CONTINUOUS
 62
         4
100
AcDbLine
 10
685.7536760834
 20
3027.6913353732
 30
0.0
 11
694.4992167315
 21
3036.4368760213
 31
0.0
  0
LINE
  5
133
100
AcDbEntity
  8
____
  6
CONTINUOUS
 62
         4
100
AcDbLine
 10
681.5110353962
 20
3027.6913353732
 30
0.0
 11
689.5322274174
 21
3035.7125273944
 31
0.0
  0
LINE
  5
134
100
AcDbEntity
  8
____
  6
CONTINUOUS
 62
         4
100
AcDbLine
 10
678.0957567506
 20
3028.5186974147
 30
0.0
 11
684.5652381034
 21
3034.9881787675
 31
0.0
  0
LINE
  5
135
100
AcDbEntity
  8
____
  6
CONTINUOUS
 62
         4
100
AcDbLine
 10
674.108254022
 20
3028.7738353732
 30
0.0
 11
679.5982487893
 21
3034.2638301405
 31
0.0
  0
LINE
  5
136
100
AcDbEntity
  8
____
  6
CONTINUOUS
 62
         4
100
AcDbLine
 10
669.8656133349
 20
3028.7738353732
 30
0.0
 11
673.8656133349
 21
3032.7738353732
 31
0.0
  0
LINE
  5
137
100
AcDbEntity
  8
____
  6
CONTINUOUS
 62
         4
100
AcDbLine
 10
665.6229726478
 20
3028.7738353732
 30
0.0
 11
669.6229726478
 21
3032.7738353732
 31
0.0
  0
LINE
  5
138
100
AcDbEntity
  8
____
  6
CONTINUOUS
 62
         4
100
AcDbLine
 10
661.3803319606
 20
3028.7738353732
 30
0.0
 11
665.8803319606
 21
3033.2738353732
 31
0.0
  0
LINE
  5
139
100
AcDbEntity
  8
____
  6
CONTINUOUS
 62
         4
100
AcDbLine
 10
658.6666351924
 20
3030.3027792921
 30
0.0
 11
661.6376912735
 21
3033.2738353732
 31
0.0
  0
ENDBLK
  5
13A
100
AcDbEntity
  8
0
  6
CONTINUOUS
100
AcDbBlockEnd
  0
BLOCK
  5
13E
100
AcDbEntity
  8
0
100
AcDbBlockBegin
  2
*X6
 70
        65
 10
0.0
 20
0.0
 30
0.0
  3
*X6
  1

  0
LINE
  5
13F
100
AcDbEntity
  8
____
  6
CONTINUOUS
 62
         4
100
AcDbLine
 10
780.6595525742
 20
3020.7738353732
 30
0.0
 11
782.7257567506
 21
3022.8400395496
 31
0.0
  0
LINE
  5
140
100
AcDbEntity
  8
____
  6
CONTINUOUS
 62
         4
100
AcDbLine
 10
776.4169118871
 20
3020.7738353732
 30
0.0
 11
782.1788544344
 21
3026.5357779206
 31
0.0
  0
LINE
  5
141
100
AcDbEntity
  8
____
  6
CONTINUOUS
 62
         4
100
AcDbLine
 10
772.1742712
 20
3020.7738353732
 30
0.0
 11
778.5373536047
 21
3027.1369177779
 31
0.0
  0
LINE
  5
142
100
AcDbEntity
  8
____
  6
CONTINUOUS
 62
         4
100
AcDbLine
 10
767.9316305129
 20
3020.7738353732
 30
0.0
 11
774.4609776986
 21
3027.303182559
 31
0.0
  0
LINE
  5
143
100
AcDbEntity
  8
____
  6
CONTINUOUS
 62
         4
100
AcDbLine
 10
763.6889898257
 20
3020.7738353732
 30
0.0
 11
770.3846017926
 21
3027.46944734
 31
0.0
  0
LINE
  5
144
100
AcDbEntity
  8
____
  6
CONTINUOUS
 62
         4
100
AcDbLine
 10
760.5007567506
 20
3021.8282429852
 30
0.0
 11
766.3082258865
 21
3027.6357121211
 31
0.0
  0
LINE
  5
145
100
AcDbEntity
  8
____
  6
CONTINUOUS
 62
         4
100
AcDbLine
 10
760.5007567506
 20
3026.0708836723
 30
0.0
 11
762.2318499804
 21
3027.8019769021
 31
0.0
  0
ENDBLK
  5
146
100
AcDbEntity
  8
0
  6
CONTINUOUS
100
AcDbBlockEnd
  0
BLOCK
  5
14A
100
AcDbEntity
  8
0
100
AcDbBlockBegin
  2
*X7
 70
        65
 10
0.0
 20
0.0
 30
0.0
  3
*X7
  1

  0
LINE
  5
14B
100
AcDbEntity
  8
____
  6
CONTINUOUS
 62
         4
100
AcDbLine
 10
657.1376912735
 20
3028.7738353732
 30
0.0
 11
658.6666351924
 21
3030.3027792921
 31
0.0
  0
LINE
  5
14C
100
AcDbEntity
  8
____
  6
CONTINUOUS
 62
         4
100
AcDbLine
 10
653.3950505864
 20
3029.2738353732
 30
0.0
 11
657.3950505864
 21
3033.2738353732
 31
0.0
  0
LINE
  5
14D
100
AcDbEntity
  8
____
  6
CONTINUOUS
 62
         4
100
AcDbLine
 10
649.1524098993
 20
3029.2738353732
 30
0.0
 11
653.1524098993
 21
3033.2738353732
 31
0.0
  0
LINE
  5
14E
100
AcDbEntity
  8
____
  6
CONTINUOUS
 62
         4
100
AcDbLine
 10
646.1233550046
 20
3030.4874211656
 30
0.0
 11
648.9097692122
 21
3033.2738353732
 31
0.0
  0
ENDBLK
  5
14F
100
AcDbEntity
  8
0
  6
CONTINUOUS
100
AcDbBlockEnd
  0
BLOCK
  5
153
100
AcDbEntity
  8
0
100
AcDbBlockBegin
  2
*X8
 70
        65
 10
0.0
 20
0.0
 30
0.0
  3
*X8
  1

  0
LINE
  5
154
100
AcDbEntity
  8
____
  6
CONTINUOUS
 62
         4
100
AcDbLine
 10
677.2683947091
 20
3027.6913353732
 30
0.0
 11
678.0957567506
 21
3028.5186974147
 31
0.0
  0
LINE
  5
155
100
AcDbEntity
  8
____
  6
CONTINUOUS
 62
         4
100
AcDbLine
 10
673.025754022
 20
3027.6913353732
 30
0.0
 11
674.108254022
 21
3028.7738353732
 31
0.0
  0
LINE
  5
156
100
AcDbEntity
  8
____
  6
CONTINUOUS
 62
         4
100
AcDbLine
 10
668.7831133349
 20
3027.6913353732
 30
0.0
 11
669.8656133349
 21
3028.7738353732
 31
0.0
  0
LINE
  5
157
100
AcDbEntity
  8
____
  6
CONTINUOUS
 62
         4
100
AcDbLine
 10
664.5404726478
 20
3027.6913353732
 30
0.0
 11
665.6229726478
 21
3028.7738353732
 31
0.0
  0
LINE
  5
158
100
AcDbEntity
  8
____
  6
CONTINUOUS
 62
         4
100
AcDbLine
 10
660.2978319606
 20
3027.6913353732
 30
0.0
 11
661.3803319606
 21
3028.7738353732
 31
0.0
  0
ENDBLK
  5
159
100
AcDbEntity
  8
0
  6
CONTINUOUS
100
AcDbBlockEnd
  0
BLOCK
  5
15D
100
AcDbEntity
  8
0
100
AcDbBlockBegin
  2
*X9
 70
        65
 10
0.0
 20
0.0
 30
0.0
  3
*X9
  1

  0
LINE
  5
15E
100
AcDbEntity
  8
____
  6
CONTINUOUS
 62
         4
100
AcDbLine
 10
778.5376183002
 20
3014.409260412
 30
0.0
 11
782.7257567506
 21
3018.5973988625
 31
0.0
  0
LINE
  5
15F
100
AcDbEntity
  8
____
  6
CONTINUOUS
 62
         4
100
AcDbLine
 10
774.114573092
 20
3014.2288558909
 30
0.0
 11
780.6588008979
 21
3020.7730836969
 31
0.0
  0
LINE
  5
160
100
AcDbEntity
  8
____
  6
CONTINUOUS
 62
         4
100
AcDbLine
 10
769.6915278837
 20
3014.0484513698
 30
0.0
 11
776.4161602108
 21
3020.7730836969
 31
0.0
  0
LINE
  5
161
100
AcDbEntity
  8
____
  6
CONTINUOUS
 62
         4
100
AcDbLine
 10
765.2684826755
 20
3013.8680468488
 30
0.0
 11
772.1735195236
 21
3020.7730836969
 31
0.0
  0
LINE
  5
162
100
AcDbEntity
  8
____
  6
CONTINUOUS
 62
         4
100
AcDbLine
 10
760.8454374673
 20
3013.6876423277
 30
0.0
 11
767.9308788365
 21
3020.7730836969
 31
0.0
  0
LINE
  5
163
100
AcDbEntity
  8
____
  6
CONTINUOUS
 62
         4
100
AcDbLine
 10
760.5007567506
 20
3017.5856022981
 30
0.0
 11
763.6882381494
 21
3020.7730836969
 31
0.0
  0
ENDBLK
  5
164
100
AcDbEntity
  8
0
  6
CONTINUOUS
100
AcDbBlockEnd
  0
BLOCK
  5
168
100
AcDbEntity
  8
0
100
AcDbBlockBegin
  2
*X10
 70
        65
 10
0.0
 20
0.0
 30
0.0
  3
*X10
  1

  0
LINE
  5
169
100
AcDbEntity
  8
____
  6
CONTINUOUS
 62
         4
100
AcDbLine
 10
675.0788167705
 20
3012.7738353732
 30
0.0
 11
676.1613167705
 21
3013.8563353732
 31
0.0
  0
LINE
  5
16A
100
AcDbEntity
  8
____
  6
CONTINUOUS
 62
         4
100
AcDbLine
 10
670.8361760834
 20
3012.7738353732
 30
0.0
 11
671.9186760834
 21
3013.8563353732
 31
0.0
  0
LINE
  5
16B
100
AcDbEntity
  8
____
  6
CONTINUOUS
 62
         4
100
AcDbLine
 10
666.5935353962
 20
3012.7738353732
 30
0.0
 11
667.6760353962
 21
3013.8563353732
 31
0.0
  0
LINE
  5
16C
100
AcDbEntity
  8
____
  6
CONTINUOUS
 62
         4
100
AcDbLine
 10
662.3508947091
 20
3012.7738353732
 30
0.0
 11
663.4333947091
 21
3013.8563353732
 31
0.0
  0
LINE
  5
16D
100
AcDbEntity
  8
____
  6
CONTINUOUS
 62
         4
100
AcDbLine
 10
658.108254022
 20
3012.7738353732
 30
0.0
 11
659.190754022
 21
3013.8563353732
 31
0.0
  0
ENDBLK
  5
16E
100
AcDbEntity
  8
0
  6
CONTINUOUS
100
AcDbBlockEnd
  0
BLOCK
  5
172
100
AcDbEntity
  8
0
100
AcDbBlockBegin
  2
*X11
 70
        65
 10
0.0
 20
0.0
 30
0.0
  3
*X11
  1

  0
LINE
  5
173
100
AcDbEntity
  8
____
  6
CONTINUOUS
 62
         4
100
AcDbLine
 10
726.4028053311
 20
3000.458213627
 30
0.0
 11
726.9735883897
 21
3001.0289966856
 31
0.0
  0
LINE
  5
174
100
AcDbEntity
  8
____
  6
CONTINUOUS
 62
         4
100
AcDbLine
 10
722.7001345049
 20
3000.9981834879
 30
0.0
 11
726.9735883897
 21
3005.2716373727
 31
0.0
  0
LINE
  5
175
100
AcDbEntity
  8
____
  6
CONTINUOUS
 62
         4
100
AcDbLine
 10
718.9974636787
 20
3001.5381533488
 30
0.0
 11
726.9735883897
 21
3009.5142780599
 31
0.0
  0
LINE
  5
176
100
AcDbEntity
  8
____
  6
CONTINUOUS
 62
         4
100
AcDbLine
 10
715.2947928524
 20
3002.0781232097
 30
0.0
 11
726.9735883897
 21
3013.756918747
 31
0.0
  0
LINE
  5
177
100
AcDbEntity
  8
____
  6
CONTINUOUS
 62
         4
100
AcDbLine
 10
711.5921220262
 20
3002.6180930706
 30
0.0
 11
726.9735883897
 21
3017.9995594341
 31
0.0
  0
LINE
  5
178
100
AcDbEntity
  8
____
  6
CONTINUOUS
 62
         4
100
AcDbLine
 10
707.8894512
 20
3003.1580629315
 30
0.0
 11
725.5052236417
 21
3020.7738353732
 31
0.0
  0
LINE
  5
179
100
AcDbEntity
  8
____
  6
CONTINUOUS
 62
         4
100
AcDbLine
 10
704.1867803738
 20
3003.6980327924
 30
0.0
 11
721.2625829545
 21
3020.7738353732
 31
0.0
  0
LINE
  5
17A
100
AcDbEntity
  8
____
  6
CONTINUOUS
 62
         4
100
AcDbLine
 10
700.4841095476
 20
3004.2380026533
 30
0.0
 11
717.0199422674
 21
3020.7738353732
 31
0.0
  0
LINE
  5
17B
100
AcDbEntity
  8
____
  6
CONTINUOUS
 62
         4
100
AcDbLine
 10
696.7814387213
 20
3004.7779725142
 30
0.0
 11
712.7773015803
 21
3020.7738353732
 31
0.0
  0
LINE
  5
17C
100
AcDbEntity
  8
____
  6
CONTINUOUS
 62
         4
100
AcDbLine
 10
693.0787678951
 20
3005.3179423751
 30
0.0
 11
708.5346608932
 21
3020.7738353732
 31
0.0
  0
LINE
  5
17D
100
AcDbEntity
  8
____
  6
CONTINUOUS
 62
         4
100
AcDbLine
 10
689.3760970689
 20
3005.857912236
 30
0.0
 11
704.2920202061
 21
3020.7738353732
 31
0.0
  0
LINE
  5
17E
100
AcDbEntity
  8
____
  6
CONTINUOUS
 62
         4
100
AcDbLine
 10
685.6734262427
 20
3006.3978820969
 30
0.0
 11
700.049379519
 21
3020.7738353732
 31
0.0
  0
LINE
  5
17F
100
AcDbEntity
  8
____
  6
CONTINUOUS
 62
         4
100
AcDbLine
 10
681.9707554164
 20
3006.9378519578
 30
0.0
 11
695.8067388318
 21
3020.7738353732
 31
0.0
  0
LINE
  5
180
100
AcDbEntity
  8
____
  6
CONTINUOUS
 62
         4
100
AcDbLine
 10
678.2680845902
 20
3007.4778218187
 30
0.0
 11
684.6465981447
 21
3013.8563353732
 31
0.0
  0
LINE
  5
181
100
AcDbEntity
  8
____
  6
CONTINUOUS
 62
         4
100
AcDbLine
 10
674.7086071041
 20
3008.1609850197
 30
0.0
 11
680.4039574576
 21
3013.8563353732
 31
0.0
  0
LINE
  5
182
100
AcDbEntity
  8
____
  6
CONTINUOUS
 62
         4
100
AcDbLine
 10
671.0788167705
 20
3008.7738353732
 30
0.0
 11
675.0788167705
 21
3012.7738353732
 31
0.0
  0
LINE
  5
183
100
AcDbEntity
  8
____
  6
CONTINUOUS
 62
         4
100
AcDbLine
 10
666.3361760834
 20
3008.2738353732
 30
0.0
 11
670.8361760834
 21
3012.7738353732
 31
0.0
  0
LINE
  5
184
100
AcDbEntity
  8
____
  6
CONTINUOUS
 62
         4
100
AcDbLine
 10
662.0935353962
 20
3008.2738353732
 30
0.0
 11
666.5935353962
 21
3012.7738353732
 31
0.0
  0
LINE
  5
185
100
AcDbEntity
  8
____
  6
CONTINUOUS
 62
         4
100
AcDbLine
 10
657.8508947091
 20
3008.2738353732
 30
0.0
 11
662.3508947091
 21
3012.7738353732
 31
0.0
  0
LINE
  5
186
100
AcDbEntity
  8
____
  6
CONTINUOUS
 62
         4
100
AcDbLine
 10
653.608254022
 20
3008.2738353732
 30
0.0
 11
658.108254022
 21
3012.7738353732
 31
0.0
  0
LINE
  5
187
100
AcDbEntity
  8
____
  6
CONTINUOUS
 62
         4
100
AcDbLine
 10
649.3656133349
 20
3008.2738353732
 30
0.0
 11
653.3656133349
 21
3012.2738353732
 31
0.0
  0
LINE
  5
188
100
AcDbEntity
  8
____
  6
CONTINUOUS
 62
         4
100
AcDbLine
 10
646.0961174174
 20
3009.2469801428
 30
0.0
 11
649.1229726478
 21
3012.2738353732
 31
0.0
  0
ENDBLK
  5
189
100
AcDbEntity
  8
0
  6
CONTINUOUS
100
AcDbBlockEnd
  0
BLOCK
  5
18D
100
AcDbEntity
  8
0
100
AcDbBlockBegin
  2
*X12
 70
        65
 10
0.0
 20
0.0
 30
0.0
  3
*X12
  1

  0
LINE
  5
18E
100
AcDbEntity
  8
____
  6
CONTINUOUS
 62
         4
100
AcDbLine
 10
749.1595525742
 20
2989.2738353732
 30
0.0
 11
751.0957567506
 21
2991.2100395496
 31
0.0
  0
LINE
  5
18F
100
AcDbEntity
  8
____
  6
CONTINUOUS
 62
         4
100
AcDbLine
 10
744.9169118871
 20
2989.2738353732
 30
0.0
 11
751.0957567506
 21
2995.4526802367
 31
0.0
  0
LINE
  5
190
100
AcDbEntity
  8
____
  6
CONTINUOUS
 62
         4
100
AcDbLine
 10
741.2100417665
 20
2989.8096059397
 30
0.0
 11
751.0957567506
 21
2999.6953209239
 31
0.0
  0
LINE
  5
191
100
AcDbEntity
  8
____
  6
CONTINUOUS
 62
         4
100
AcDbLine
 10
741.0957567506
 20
2993.937961611
 30
0.0
 11
751.1031936788
 21
3003.9453985392
 31
0.0
  0
LINE
  5
192
100
AcDbEntity
  8
____
  6
CONTINUOUS
 62
         4
100
AcDbLine
 10
752.9234419083
 20
3005.7656467687
 30
0.0
 11
756.7007567506
 21
3009.542961611
 31
0.0
  0
LINE
  5
193
100
AcDbEntity
  8
____
  6
CONTINUOUS
 62
         4
100
AcDbLine
 10
741.0957567506
 20
2998.1806022981
 30
0.0
 11
760.5007567506
 21
3017.5856022981
 31
0.0
  0
LINE
  5
194
100
AcDbEntity
  8
____
  6
CONTINUOUS
 62
         4
100
AcDbLine
 10
737.5108178098
 20
2998.8383040444
 30
0.0
 11
759.4463491386
 21
3020.7738353732
 31
0.0
  0
LINE
  5
195
100
AcDbEntity
  8
____
  6
CONTINUOUS
 62
         4
100
AcDbLine
 10
733.8081469836
 20
2999.3782739053
 30
0.0
 11
755.2037084515
 21
3020.7738353732
 31
0.0
  0
LINE
  5
196
100
AcDbEntity
  8
____
  6
CONTINUOUS
 62
         4
100
AcDbLine
 10
730.1054761573
 20
2999.9182437661
 30
0.0
 11
750.9610677644
 21
3020.7738353732
 31
0.0
  0
LINE
  5
197
100
AcDbEntity
  8
____
  6
CONTINUOUS
 62
         4
100
AcDbLine
 10
726.9735883897
 20
3001.0289966856
 30
0.0
 11
746.7184270773
 21
3020.7738353732
 31
0.0
  0
LINE
  5
198
100
AcDbEntity
  8
____
  6
CONTINUOUS
 62
         4
100
AcDbLine
 10
726.9735883897
 20
3005.2716373727
 30
0.0
 11
742.4757863901
 21
3020.7738353732
 31
0.0
  0
LINE
  5
199
100
AcDbEntity
  8
____
  6
CONTINUOUS
 62
         4
100
AcDbLine
 10
726.9735883897
 20
3009.5142780599
 30
0.0
 11
738.233145703
 21
3020.7738353732
 31
0.0
  0
LINE
  5
19A
100
AcDbEntity
  8
____
  6
CONTINUOUS
 62
         4
100
AcDbLine
 10
726.9735883897
 20
3013.756918747
 30
0.0
 11
733.9905050159
 21
3020.7738353732
 31
0.0
  0
LINE
  5
19B
100
AcDbEntity
  8
____
  6
CONTINUOUS
 62
         4
100
AcDbLine
 10
726.9735883897
 20
3017.9995594341
 30
0.0
 11
729.7478643288
 21
3020.7738353732
 31
0.0
  0
ENDBLK
  5
19C
100
AcDbEntity
  8
0
  6
CONTINUOUS
100
AcDbBlockEnd
  0
ENDSEC
  0
SECTION
  2
ENTITIES
  0
LINE
  5
28
100
AcDbEntity
  8
____
  6
CONTINUOUS
 62
         7
100
AcDbLine
 10
688.0957567506
 20
3027.6913353732
 30
0.0
 11
655.8782567506
 21
3027.6913353732
 31
0.0
  0
LINE
  5
29
100
AcDbEntity
  8
____
  6
CONTINUOUS
 62
         7
100
AcDbLine
 10
668.5957567506
 20
3008.2738353732
 30
0.0
 11
647.0957567506
 21
3008.2738353732
 31
0.0
  0
ARC
  5
2A
100
AcDbEntity
  8
____
  6
CONTINUOUS
 62
         7
100
AcDbCircle
 10
647.0957567506
 20
3009.2738353732
 30
0.0
 40
1.0
100
AcDbArc
 50
180.0
 51
270.0
  0
LINE
  5
2B
100
AcDbEntity
  8
____
  6
CONTINUOUS
 62
         7
100
AcDbLine
 10
646.0957567506
 20
3032.2738353732
 30
0.0
 11
646.0957567506
 21
3009.2738353732
 31
0.0
  0
ARC
  5
2C
100
AcDbEntity
  8
____
  6
CONTINUOUS
 62
         7
100
AcDbCircle
 10
647.0957567506
 20
3032.2738353732
 30
0.0
 40
1.0
100
AcDbArc
 50
90.0
 51
180.0
  0
LINE
  5
2D
100
AcDbEntity
  8
____
  6
CONTINUOUS
 62
         7
100
AcDbLine
 10
668.5957567506
 20
3033.2738353732
 30
0.0
 11
647.0957567506
 21
3033.2738353732
 31
0.0
  0
LINE
  5
2E
100
AcDbEntity
  8
____
  6
CONTINUOUS
 62
         4
100
AcDbLine
 10
647.5957567506
 20
3012.2738353732
 30
0.0
 11
647.5957567506
 21
3029.2738353732
 31
0.0
  0
ARC
  5
2F
100
AcDbEntity
  8
____
  6
CONTINUOUS
 62
         7
100
AcDbCircle
 10
647.5957567506
 20
3010.7738353732
 30
0.0
 40
1.5
100
AcDbArc
 50
90.0
 51
94.309532956
  0
ARC
  5
30
100
AcDbEntity
  8
____
  6
CONTINUOUS
 62
         7
100
AcDbCircle
 10
647.5957567506
 20
3030.7738353732
 30
0.0
 40
1.5
100
AcDbArc
 50
180.0
 51
214.309532956
  0
LINE
  5
31
100
AcDbEntity
  8
____
  6
CONTINUOUS
 62
         7
100
AcDbLine
 10
655.8782567506
 20
3027.6913353732
 30
0.0
 11
655.8782567506
 21
3013.8563353732
 31
0.0
  0
LINE
  5
32
100
AcDbEntity
  8
____
  6
CONTINUOUS
 62
         7
100
AcDbLine
 10
654.2957567506
 20
3012.2738353732
 30
0.0
 11
655.8782567506
 21
3013.8563353732
 31
0.0
  0
LINE
  5
33
100
AcDbEntity
  8
____
  6
CONTINUOUS
 62
         7
100
AcDbLine
 10
654.2957567506
 20
3012.2738353732
 30
0.0
 11
647.5957567506
 21
3012.2738353732
 31
0.0
  0
LINE
  5
34
100
AcDbEntity
  8
____
  6
CONTINUOUS
 62
         7
100
AcDbLine
 10
654.2957567506
 20
3029.2738353732
 30
0.0
 11
647.5957567506
 21
3029.2738353732
 31
0.0
  0
LINE
  5
35
100
AcDbEntity
  8
____
  6
CONTINUOUS
 62
         5
100
AcDbLine
 10
678.0957567506
 20
3012.7738353732
 30
0.0
 11
654.7957567506
 21
3012.7738353732
 31
0.0
  0
LINE
  5
36
100
AcDbEntity
  8
____
  6
CONTINUOUS
 62
         5
100
AcDbLine
 10
678.0957567506
 20
3028.7738353732
 30
0.0
 11
654.7957567506
 21
3028.7738353732
 31
0.0
  0
LINE
  5
37
100
AcDbEntity
  8
____
  6
CONTINUOUS
 62
         7
100
AcDbLine
 10
654.2957567506
 20
3012.2738353732
 30
0.0
 11
654.2957567506
 21
3029.2738353732
 31
0.0
  0
LINE
  5
38
100
AcDbEntity
  8
____
  6
CONTINUOUS
 62
         7
100
AcDbLine
 10
678.0957567506
 20
3012.7738353732
 30
0.0
 11
678.0957567506
 21
3028.7738353732
 31
0.0
  0
LINE
  5
39
100
AcDbEntity
  8
____
  6
CONTINUOUS
 62
         7
100
AcDbLine
 10
654.2957567506
 20
3029.2738353732
 30
0.0
 11
655.8782567506
 21
3027.6913353732
 31
0.0
  0
LINE
  5
3A
100
AcDbEntity
  8
____
  6
CONTINUOUS
 62
         7
100
AcDbLine
 10
646.3567499665
 20
3029.9283401403
 30
0.0
 11
647.4830397923
 21
3029.2780764062
 31
0.0
  0
ARC
  5
3B
100
AcDbEntity
  8
____
  6
CONTINUOUS
 62
         7
100
AcDbCircle
 10
647.5957567506
 20
3030.7738353732
 30
0.0
 40
1.5
100
AcDbArc
 50
265.690467044
 51
270.0
  0
LINE
  5
3C
100
AcDbEntity
  8
____
  6
CONTINUOUS
 62
         7
100
AcDbLine
 10
646.3567499665
 20
3011.6193306061
 30
0.0
 11
647.4830397923
 21
3012.2695943402
 31
0.0
  0
ARC
  5
3D
100
AcDbEntity
  8
____
  6
CONTINUOUS
 62
         7
100
AcDbCircle
 10
647.5957567506
 20
3010.7738353732
 30
0.0
 40
1.5
100
AcDbArc
 50
145.690467044
 51
180.0
  0
ARC
  5
3E
100
AcDbEntity
  8
____
  6
CONTINUOUS
 62
         7
100
AcDbCircle
 10
647.0957567506
 20
3129.2738353732
 30
0.0
 40
1.0
100
AcDbArc
 50
180.0
 51
270.0
  0
ARC
  5
3F
100
AcDbEntity
  8
____
  6
CONTINUOUS
 62
         7
100
AcDbCircle
 10
647.0957567506
 20
3152.2738353732
 30
0.0
 40
1.0
100
AcDbArc
 50
90.0
 51
180.0
  0
LINE
  5
40
100
AcDbEntity
  8
____
  6
CONTINUOUS
 62
         7
100
AcDbLine
 10
571.3321468536
 20
3131.941467993
 30
0.0
 11
570.5497794734
 21
3132.7238353732
 31
0.0
  0
LINE
  5
41
100
AcDbEntity
  8
____
  6
CONTINUOUS
 62
         7
100
AcDbLine
 10
571.3321468536
 20
3149.6062027534
 30
0.0
 11
570.5497794734
 21
3148.8238353732
 31
0.0
  0
LINE
  5
42
100
AcDbEntity
  8
____
  6
CONTINUOUS
 62
         7
100
AcDbLine
 10
510.8593666476
 20
3149.6062027534
 30
0.0
 11
511.6417340279
 21
3148.8238353732
 31
0.0
  0
LINE
  5
43
100
AcDbEntity
  8
____
  6
CONTINUOUS
 62
         7
100
AcDbLine
 10
510.8593666476
 20
3131.941467993
 30
0.0
 11
511.6417340279
 21
3132.7238353732
 31
0.0
  0
LINE
  5
44
100
AcDbEntity
  8
____
  6
CONTINUOUS
 62
         7
100
AcDbLine
 10
921.3321468536
 20
3131.941467993
 30
0.0
 11
920.5497794734
 21
3132.7238353732
 31
0.0
  0
LINE
  5
45
100
AcDbEntity
  8
____
  6
CONTINUOUS
 62
         7
100
AcDbLine
 10
921.3321468536
 20
3149.6062027534
 30
0.0
 11
920.5497794734
 21
3148.8238353732
 31
0.0
  0
LINE
  5
46
100
AcDbEntity
  8
____
  6
CONTINUOUS
 62
         7
100
AcDbLine
 10
860.8593666476
 20
3131.941467993
 30
0.0
 11
861.6417340279
 21
3132.7238353732
 31
0.0
  0
LINE
  5
47
100
AcDbEntity
  8
____
  6
CONTINUOUS
 62
         7
100
AcDbLine
 10
860.8593666476
 20
3149.6062027534
 30
0.0
 11
861.6417340279
 21
3148.8238353732
 31
0.0
  0
ARC
  5
48
100
AcDbEntity
  8
____
  6
CONTINUOUS
 62
         7
100
AcDbCircle
 10
866.9957567506
 20
3147.2238353732
 30
0.0
 40
1.6
100
AcDbArc
 50
0.0
 51
90.0
  0
ARC
  5
49
100
AcDbEntity
  8
____
  6
CONTINUOUS
 62
         7
100
AcDbCircle
 10
866.9957567506
 20
3134.3238353732
 30
0.0
 40
1.6
100
AcDbArc
 50
270.0
 51
360.0
  0
ARC
  5
4A
100
AcDbEntity
  8
____
  6
CONTINUOUS
 62
         7
100
AcDbCircle
 10
915.1957567506
 20
3134.3238353732
 30
0.0
 40
1.6
100
AcDbArc
 50
180.0
 51
270.0
  0
ARC
  5
4B
100
AcDbEntity
  8
____
  6
CONTINUOUS
 62
         7
100
AcDbCircle
 10
915.1957567506
 20
3147.2238353732
 30
0.0
 40
1.6
100
AcDbArc
 50
90.0
 51
180.0
  0
ARC
  5
4C
100
AcDbEntity
  8
____
  6
CONTINUOUS
 62
         7
100
AcDbCircle
 10
565.1957567506
 20
3134.3238353732
 30
0.0
 40
1.6
100
AcDbArc
 50
180.0
 51
270.0
  0
ARC
  5
4D
100
AcDbEntity
  8
____
  6
CONTINUOUS
 62
         7
100
AcDbCircle
 10
565.1957567506
 20
3147.2238353732
 30
0.0
 40
1.6
100
AcDbArc
 50
90.0
 51
180.0
  0
ARC
  5
4E
100
AcDbEntity
  8
____
  6
CONTINUOUS
 62
         7
100
AcDbCircle
 10
516.9957567506
 20
3147.2238353732
 30
0.0
 40
1.6
100
AcDbArc
 50
0.0
 51
90.0
  0
ARC
  5
4F
100
AcDbEntity
  8
____
  6
CONTINUOUS
 62
         7
100
AcDbCircle
 10
516.9957567506
 20
3134.3238353732
 30
0.0
 40
1.6
100
AcDbArc
 50
270.0
 51
360.0
  0
LINE
  5
50
100
AcDbEntity
  8
____
  6
CONTINUOUS
 62
         4
100
AcDbLine
 10
674.9006954165
 20
3127.9688967074
 30
0.0
 11
674.9006954165
 21
3153.578774039
 31
0.0
  0
LINE
  5
51
100
AcDbEntity
  8
____
  6
CONTINUOUS
 62
         4
100
AcDbLine
 10
668.5957567506
 20
3153.2738353732
 30
0.0
 11
668.5957567506
 21
3128.2738353732
 31
0.0
  0
LINE
  5
52
100
AcDbEntity
  8
____
  6
CONTINUOUS
 62
         7
100
AcDbLine
 10
674.9006954165
 20
3007.9688967074
 30
0.0
 11
674.0957567506
 21
3008.7738353732
 31
0.0
  0
LINE
  5
53
100
AcDbEntity
  8
____
  6
CONTINUOUS
 62
         7
100
AcDbLine
 10
669.0957567506
 20
3008.7738353732
 30
0.0
 11
674.0957567506
 21
3008.7738353732
 31
0.0
  0
LINE
  5
54
100
AcDbEntity
  8
____
  6
CONTINUOUS
 62
         7
100
AcDbLine
 10
669.0957567506
 20
3008.7738353732
 30
0.0
 11
668.5957567506
 21
3008.2738353732
 31
0.0
  0
LINE
  5
55
100
AcDbEntity
  8
____
  6
CONTINUOUS
 62
         7
100
AcDbLine
 10
669.0957567506
 20
3032.7738353732
 30
0.0
 11
674.0957567506
 21
3032.7738353732
 31
0.0
  0
LINE
  5
56
100
AcDbEntity
  8
____
  6
CONTINUOUS
 62
         7
100
AcDbLine
 10
674.9006954165
 20
3033.578774039
 30
0.0
 11
674.0957567506
 21
3032.7738353732
 31
0.0
  0
LINE
  5
57
100
AcDbEntity
  8
____
  6
CONTINUOUS
 62
         7
100
AcDbLine
 10
669.0957567506
 20
3032.7738353732
 30
0.0
 11
668.5957567506
 21
3033.2738353732
 31
0.0
  0
LINE
  5
58
100
AcDbEntity
  8
____
  6
CONTINUOUS
 62
         7
100
AcDbLine
 10
669.0957567506
 20
3128.7738353732
 30
0.0
 11
669.0957567506
 21
3152.7738353732
 31
0.0
  0
LINE
  5
59
100
AcDbEntity
  8
____
  6
CONTINUOUS
 62
         7
100
AcDbLine
 10
669.0957567506
 20
3128.7738353732
 30
0.0
 11
674.0957567506
 21
3128.7738353732
 31
0.0
  0
LINE
  5
5A
100
AcDbEntity
  8
____
  6
CONTINUOUS
 62
         7
100
AcDbLine
 10
674.9006954165
 20
3127.9688967074
 30
0.0
 11
674.0957567506
 21
3128.7738353732
 31
0.0
  0
LINE
  5
5B
100
AcDbEntity
  8
____
  6
CONTINUOUS
 62
         7
100
AcDbLine
 10
669.0957567506
 20
3128.7738353732
 30
0.0
 11
673.4082043284
 21
3128.7738353732
 31
0.0
  0
LINE
  5
5C
100
AcDbEntity
  8
____
  6
CONTINUOUS
 62
         7
100
AcDbLine
 10
669.0957567506
 20
3128.7738353732
 30
0.0
 11
668.5957567506
 21
3128.2738353732
 31
0.0
  0
LINE
  5
5D
100
AcDbEntity
  8
____
  6
CENTER
 62
         1
100
AcDbLine
 10
787.95824506
 20
3140.7738353732
 30
0.0
 11
733.0264293246
 21
3140.7738353732
 31
0.0
  0
LINE
  5
5E
100
AcDbEntity
  8
____
  6
CONTINUOUS
 62
         7
100
AcDbLine
 10
915.1957567506
 20
3132.7238353732
 30
0.0
 11
920.5497794734
 21
3132.7238353732
 31
0.0
  0
LINE
  5
5F
100
AcDbEntity
  8
____
  6
CONTINUOUS
 62
         7
100
AcDbLine
 10
913.5957567506
 20
3147.2238353732
 30
0.0
 11
913.5957567506
 21
3134.3238353732
 31
0.0
  0
LINE
  5
60
100
AcDbEntity
  8
____
  6
CONTINUOUS
 62
         7
100
AcDbLine
 10
915.1957567506
 20
3148.8238353732
 30
0.0
 11
920.5497794734
 21
3148.8238353732
 31
0.0
  0
LINE
  5
61
100
AcDbEntity
  8
____
  6
CONTINUOUS
 62
         7
100
AcDbLine
 10
866.9957567506
 20
3148.8238353732
 30
0.0
 11
861.6417340279
 21
3148.8238353732
 31
0.0
  0
LINE
  5
62
100
AcDbEntity
  8
____
  6
CONTINUOUS
 62
         7
100
AcDbLine
 10
868.5957567506
 20
3134.3238353732
 30
0.0
 11
868.5957567506
 21
3147.2238353732
 31
0.0
  0
LINE
  5
63
100
AcDbEntity
  8
____
  6
CONTINUOUS
 62
         7
100
AcDbLine
 10
866.9957567506
 20
3132.7238353732
 30
0.0
 11
861.6417340279
 21
3132.7238353732
 31
0.0
  0
LINE
  5
64
100
AcDbEntity
  8
____
  6
CENTER
 62
         1
100
AcDbLine
 10
792.4723613939
 20
3020.7738353732
 30
0.0
 11
642.0174893845
 21
3020.7738353732
 31
0.0
  0
TEXT
  5
66
100
AcDbEntity
  8
____
  6
CONTINUOUS
 62
         4
100
AcDbText
 10
903.44264044
 20
2954.9636778956
 30
0.0
 40
4.0
  1
垂直度
 41
0.6
  7
STSL
100
AcDbText
  0
TEXT
  5
68
100
AcDbEntity
  8
____
  6
CONTINUOUS
 62
         4
100
AcDbText
 10
885.3093975676
 20
2909.2188692401
 30
0.0
 40
4.0
  1

 41
0.6
  7
STSL
100
AcDbText
  0
ARC
  5
69
100
AcDbEntity
  8
____
  6
CONTINUOUS
 62
         7
100
AcDbCircle
 10
750.0957567506
 20
3110.2738353732
 30
0.0
 40
1.0
100
AcDbArc
 50
270.0
 51
360.0
  0
ARC
  5
6A
100
AcDbEntity
  8
____
  6
CONTINUOUS
 62
         7
100
AcDbCircle
 10
742.0957567506
 20
3110.2738353732
 30
0.0
 40
1.0
100
AcDbArc
 50
180.0
 51
270.0
  0
ARC
  5
6B
100
AcDbEntity
  8
____
  6
CONTINUOUS
 62
         7
100
AcDbCircle
 10
750.0957567506
 20
3171.2738353732
 30
0.0
 40
1.0
100
AcDbArc
 50
0.0
 51
90.0
  0
ARC
  5
6C
100
AcDbEntity
  8
____
  6
CONTINUOUS
 62
         7
100
AcDbCircle
 10
742.0957567506
 20
3171.2738353732
 30
0.0
 40
1.0
100
AcDbArc
 50
90.0
 51
180.0
  0
ARC
  5
6D
100
AcDbEntity
  8
____
  6
CONTINUOUS
 62
         7
100
AcDbCircle
 10
740.2046681531
 20
3117.881365351
 30
0.0
 40
0.9736896872
100
AcDbArc
 50
23.7705561747
 51
136.724593942
  0
ARC
  5
6E
100
AcDbEntity
  8
____
  6
CONTINUOUS
 62
         7
100
AcDbCircle
 10
740.2046681531
 20
3163.6663053954
 30
0.0
 40
0.9736896872
100
AcDbArc
 50
223.275406058
 51
336.2294438253
  0
LINE
  5
6F
100
AcDbEntity
  8
____
  6
CONTINUOUS
 62
         7
100
AcDbLine
 10
750.0957567506
 20
3109.2738353732
 30
0.0
 11
742.0957567506
 21
3109.2738353732
 31
0.0
  0
LINE
  5
70
100
AcDbEntity
  8
____
  6
CONTINUOUS
 62
         7
100
AcDbLine
 10
750.0957567506
 20
3172.2738353732
 30
0.0
 11
742.0957567506
 21
3172.2738353732
 31
0.0
  0
LINE
  5
71
100
AcDbEntity
  8
____
  6
CONTINUOUS
 62
         7
100
AcDbLine
 10
751.0957567506
 20
3110.2738353732
 30
0.0
 11
751.0957567506
 21
3171.2738353732
 31
0.0
  0
LINE
  5
72
100
AcDbEntity
  8
____
  6
CONTINUOUS
 62
         7
100
AcDbLine
 10
741.0957567506
 20
3110.2738353732
 30
0.0
 11
741.0957567506
 21
3171.2738353732
 31
0.0
  0
LINE
  5
73
100
AcDbEntity
  8
____
  6
CONTINUOUS
 62
         7
100
AcDbLine
 10
739.4957567506
 20
3118.5488353732
 30
0.0
 11
739.4957567506
 21
3162.9988353732
 31
0.0
  0
LINE
  5
74
100
AcDbEntity
  8
____
  6
CONTINUOUS
 62
         7
100
AcDbLine
 10
739.4957567506
 20
3162.9988353732
 30
0.0
 11
674.9006954165
 21
3153.578774039
 31
0.0
  0
LINE
  5
75
100
AcDbEntity
  8
____
  6
CONTINUOUS
 62
         7
100
AcDbLine
 10
739.4957567506
 20
3118.5488353732
 30
0.0
 11
674.9006954165
 21
3127.9688967074
 31
0.0
  0
LINE
  5
76
100
AcDbEntity
  8
____
  6
CENTER
 62
         1
100
AcDbLine
 10
541.0957567506
 20
3109.2738353732
 30
0.0
 11
541.0957567506
 21
3172.2738353732
 31
0.0
  0
ARC
  5
77
100
AcDbEntity
  8
____
  6
CONTINUOUS
 62
         7
100
AcDbCircle
 10
541.0957567506
 20
3140.7738353732
 30
0.0
 40
31.5
100
AcDbArc
 50
196.2836386031
 51
343.7163613969
  0
LINE
  5
78
100
AcDbEntity
  8
____
  6
CONTINUOUS
 62
         7
100
AcDbLine
 10
518.5957567506
 20
3147.2238353732
 30
0.0
 11
518.5957567506
 21
3134.3238353732
 31
0.0
  0
LINE
  5
79
100
AcDbEntity
  8
____
  6
CONTINUOUS
 62
         7
100
AcDbLine
 10
516.9957567506
 20
3148.8238353732
 30
0.0
 11
511.6417340279
 21
3148.8238353732
 31
0.0
  0
LINE
  5
7A
100
AcDbEntity
  8
____
  6
CONTINUOUS
 62
         7
100
AcDbLine
 10
516.9957567506
 20
3132.7238353732
 30
0.0
 11
511.6417340279
 21
3132.7238353732
 31
0.0
  0
LINE
  5
7B
100
AcDbEntity
  8
____
  6
CONTINUOUS
 62
         7
100
AcDbLine
 10
565.1957567506
 20
3148.8238353732
 30
0.0
 11
570.5497794734
 21
3148.8238353732
 31
0.0
  0
LINE
  5
7C
100
AcDbEntity
  8
____
  6
CONTINUOUS
 62
         7
100
AcDbLine
 10
565.1957567506
 20
3132.7238353732
 30
0.0
 11
570.5497794734
 21
3132.7238353732
 31
0.0
  0
LINE
  5
7D
100
AcDbEntity
  8
____
  6
CONTINUOUS
 62
         7
100
AcDbLine
 10
563.5957567506
 20
3147.2238353732
 30
0.0
 11
563.5957567506
 21
3134.3238353732
 31
0.0
  0
ARC
  5
7E
100
AcDbEntity
  8
____
  6
CONTINUOUS
 62
         7
100
AcDbCircle
 10
541.0957567506
 20
3140.7738353732
 30
0.0
 40
31.5
100
AcDbArc
 50
16.2836386031
 51
163.7163613969
  0
LINE
  5
7F
100
AcDbEntity
  8
____
  6
CENTER
 62
         1
100
AcDbLine
 10
575.5506929789
 20
3140.7738353732
 30
0.0
 11
506.2879215116
 21
3140.7738353732
 31
0.0
  0
CIRCLE
  5
80
100
AcDbEntity
  8
____
  6
CONTINUOUS
 62
         7
100
AcDbCircle
 10
541.0957567506
 20
3140.7738353732
 30
0.0
 40
12.65
  0
CIRCLE
  5
81
100
AcDbEntity
  8
____
  6
CONTINUOUS
 62
         7
100
AcDbCircle
 10
541.0957567506
 20
3140.7738353732
 30
0.0
 40
22.225
  0
CIRCLE
  5
82
100
AcDbEntity
  8
____
  6
CONTINUOUS
 62
         7
100
AcDbCircle
 10
541.0957567506
 20
3140.7738353732
 30
0.0
 40
10.75
  0
CIRCLE
  5
83
100
AcDbEntity
  8
____
  6
CONTINUOUS
 62
         7
100
AcDbCircle
 10
541.0957567506
 20
3140.7738353732
 30
0.0
 40
8.5
  0
CIRCLE
  5
84
100
AcDbEntity
  8
____
  6
CONTINUOUS
 62
         7
100
AcDbCircle
 10
541.0957567506
 20
3140.7738353732
 30
0.0
 40
6.9175
  0
ARC
  5
85
100
AcDbEntity
  8
____
  6
CONTINUOUS
 62
         2
100
AcDbCircle
 10
541.0957567506
 20
3140.7738353732
 30
0.0
 40
8.0
100
AcDbArc
 50
253.393602324
 51
547.5053532215
  0
LINE
  5
86
100
AcDbEntity
  8
____
  6
CONTINUOUS
 62
         7
100
AcDbLine
 10
866.9957567506
 20
3148.8238353732
 30
0.0
 11
861.6417340279
 21
3148.8238353732
 31
0.0
  0
ARC
  5
87
100
AcDbEntity
  8
____
  6
CONTINUOUS
 62
         7
100
AcDbCircle
 10
891.0957567506
 20
3140.7738353732
 30
0.0
 40
31.5
100
AcDbArc
 50
16.2836386031
 51
163.7163613969
  0
ARC
  5
88
100
AcDbEntity
  8
____
  6
CONTINUOUS
 62
         7
100
AcDbCircle
 10
891.0957567506
 20
3140.7738353732
 30
0.0
 40
31.5
100
AcDbArc
 50
196.2836386031
 51
343.7163613969
  0
LINE
  5
89
100
AcDbEntity
  8
____
  6
CENTER
 62
         1
100
AcDbLine
 10
891.0957567506
 20
3106.3188991449
 30
0.0
 11
891.0957567506
 21
3175.2287716015
 31
0.0
  0
LINE
  5
8A
100
AcDbEntity
  8
____
  6
CENTER
 62
         1
100
AcDbLine
 10
925.5506929789
 20
3140.7738353732
 30
0.0
 11
856.2879215116
 21
3140.7738353732
 31
0.0
  0
LINE
  5
8B
100
AcDbEntity
  8
____
  6
CENTER
 62
         1
100
AcDbLine
 10
723.2182577417
 20
3140.7738353732
 30
0.0
 11
642.0174893845
 21
3140.7738353732
 31
0.0
  0
LINE
  5
8C
100
AcDbEntity
  8
____
  6
CONTINUOUS
 62
         7
100
AcDbLine
 10
751.0957567506
 20
3148.8238353732
 30
0.0
 11
741.0957567506
 21
3148.8238353732
 31
0.0
  0
LINE
  5
8D
100
AcDbEntity
  8
____
  6
CONTINUOUS
 62
         7
100
AcDbLine
 10
751.0957567506
 20
3132.7238353732
 30
0.0
 11
741.0957567506
 21
3132.7238353732
 31
0.0
  0
LINE
  5
8E
100
AcDbEntity
  8
____
  6
CONTINUOUS
 62
         7
100
AcDbLine
 10
751.0957567506
 20
3134.3238353732
 30
0.0
 11
741.0957567506
 21
3134.3238353732
 31
0.0
  0
LINE
  5
8F
100
AcDbEntity
  8
____
  6
CONTINUOUS
 62
         7
100
AcDbLine
 10
751.0957567506
 20
3147.2238353732
 30
0.0
 11
741.0957567506
 21
3147.2238353732
 31
0.0
  0
LINE
  5
90
100
AcDbEntity
  8
____
  6
CONTINUOUS
 62
         7
100
AcDbLine
 10
751.0957567506
 20
3037.7730836969
 30
0.0
 11
751.0957567506
 21
3051.2738353732
 31
0.0
  0
LINE
  5
91
100
AcDbEntity
  8
____
  6
CONTINUOUS
 62
         7
100
AcDbLine
 10
741.0957567506
 20
3043.2738353732
 30
0.0
 11
741.0957567506
 21
3051.2738353732
 31
0.0
  0
ARC
  5
92
100
AcDbEntity
  8
____
  6
CONTINUOUS
 62
         7
100
AcDbCircle
 10
750.0957567506
 20
2990.2738353732
 30
0.0
 40
1.0
100
AcDbArc
 50
270.0
 51
360.0
  0
ARC
  5
93
100
AcDbEntity
  8
____
  6
CONTINUOUS
 62
         7
100
AcDbCircle
 10
742.0957567506
 20
2990.2738353732
 30
0.0
 40
1.0
100
AcDbArc
 50
180.0
 51
270.0
  0
ARC
  5
94
100
AcDbEntity
  8
____
  6
CONTINUOUS
 62
         7
100
AcDbCircle
 10
750.0957567506
 20
3051.2738353732
 30
0.0
 40
1.0
100
AcDbArc
 50
0.0
 51
90.0
  0
ARC
  5
95
100
AcDbEntity
  8
____
  6
CONTINUOUS
 62
         7
100
AcDbCircle
 10
742.0957567506
 20
3051.2738353732
 30
0.0
 40
1.0
100
AcDbArc
 50
90.0
 51
180.0
  0
ARC
  5
96
100
AcDbEntity
  8
____
  6
CONTINUOUS
 62
         7
100
AcDbCircle
 10
740.2046681531
 20
2997.881365351
 30
0.0
 40
0.9736896872
100
AcDbArc
 50
23.7705561747
 51
136.724593942
  0
ARC
  5
97
100
AcDbEntity
  8
____
  6
CONTINUOUS
 62
         7
100
AcDbCircle
 10
740.2046681531
 20
3043.6663053954
 30
0.0
 40
0.9736896872
100
AcDbArc
 50
223.275406058
 51
336.2294438253
  0
LINE
  5
98
100
AcDbEntity
  8
____
  6
CONTINUOUS
 62
         7
100
AcDbLine
 10
750.0957567506
 20
2989.2738353732
 30
0.0
 11
742.0957567506
 21
2989.2738353732
 31
0.0
  0
LINE
  5
99
100
AcDbEntity
  8
____
  6
CONTINUOUS
 62
         7
100
AcDbLine
 10
750.0957567506
 20
3052.2738353732
 30
0.0
 11
742.0957567506
 21
3052.2738353732
 31
0.0
  0
LINE
  5
9A
100
AcDbEntity
  8
____
  6
CONTINUOUS
 62
         7
100
AcDbLine
 10
751.0957567506
 20
2990.2738353732
 30
0.0
 11
751.0957567506
 21
3003.7730836969
 31
0.0
  0
LINE
  5
9B
100
AcDbEntity
  8
____
  6
CONTINUOUS
 62
         7
100
AcDbLine
 10
741.0957567506
 20
2990.2738353732
 30
0.0
 11
741.0957567506
 21
2998.2738353732
 31
0.0
  0
LINE
  5
9C
100
AcDbEntity
  8
____
  6
CONTINUOUS
 62
         7
100
AcDbLine
 10
739.4957567506
 20
3042.9988353732
 30
0.0
 11
674.9006954165
 21
3033.578774039
 31
0.0
  0
LINE
  5
9D
100
AcDbEntity
  8
____
  6
CONTINUOUS
 62
         7
100
AcDbLine
 10
739.4957567506
 20
2998.5488353732
 30
0.0
 11
674.9006954165
 21
3007.9688967074
 31
0.0
  0
LINE
  5
9E
100
AcDbEntity
  8
____
  6
CONTINUOUS
 62
         7
100
AcDbLine
 10
688.0957567506
 20
3013.8563353732
 30
0.0
 11
655.8782567506
 21
3013.8563353732
 31
0.0
  0
LINE
  5
9F
100
AcDbEntity
  8
____
  6
CONTINUOUS
 62
         7
100
AcDbLine
 10
674.0957567506
 20
3152.7738353732
 30
0.0
 11
674.0957567506
 21
3128.7738353732
 31
0.0
  0
LINE
  5
A0
100
AcDbEntity
  8
____
  6
CONTINUOUS
 62
         7
100
AcDbLine
 10
668.5957567506
 20
3128.2738353732
 30
0.0
 11
647.0957567506
 21
3128.2738353732
 31
0.0
  0
LINE
  5
A1
100
AcDbEntity
  8
____
  6
CONTINUOUS
 62
         7
100
AcDbLine
 10
668.5957567506
 20
3153.2738353732
 30
0.0
 11
647.0957567506
 21
3153.2738353732
 31
0.0
  0
LINE
  5
A2
100
AcDbEntity
  8
____
  6
CONTINUOUS
 62
         7
100
AcDbLine
 10
646.0957567506
 20
3152.2738353732
 30
0.0
 11
646.0957567506
 21
3129.2738353732
 31
0.0
  0
LINE
  5
A3
100
AcDbEntity
  8
____
  6
CONTINUOUS
 62
         7
100
AcDbLine
 10
669.0957567506
 20
3152.7738353732
 30
0.0
 11
668.5957567506
 21
3153.2738353732
 31
0.0
  0
LINE
  5
A4
100
AcDbEntity
  8
____
  6
CONTINUOUS
 62
         7
100
AcDbLine
 10
669.0957567506
 20
3152.7738353732
 30
0.0
 11
674.0957567506
 21
3152.7738353732
 31
0.0
  0
LINE
  5
A5
100
AcDbEntity
  8
____
  6
CONTINUOUS
 62
         7
100
AcDbLine
 10
674.9006954165
 20
3153.578774039
 30
0.0
 11
674.0957567506
 21
3152.7738353732
 31
0.0
  0
LINE
  5
A6
100
AcDbEntity
  8
____
  6
CONTINUOUS
 62
         7
100
AcDbLine
 10
669.0957567506
 20
3152.7738353732
 30
0.0
 11
673.4082043284
 21
3152.7738353732
 31
0.0
  0
CIRCLE
  5
A7
100
AcDbEntity
  8
____
  6
CONTINUOUS
 62
         7
100
AcDbCircle
 10
891.0957567506
 20
3140.7738353732
 30
0.0
 40
15.0
  0
CIRCLE
  5
A8
100
AcDbEntity
  8
____
  6
CONTINUOUS
 62
         7
100
AcDbCircle
 10
891.0957567506
 20
3140.7738353732
 30
0.0
 40
7.0546111261
  0
CIRCLE
  5
A9
100
AcDbEntity
  8
____
  6
CONTINUOUS
 62
         7
100
AcDbCircle
 10
891.0957567506
 20
3140.8187242471
 30
0.0
 40
5.1945741206
  0
LINE
  5
AA
100
AcDbEntity
  8
____
  6
CENTER
 62
         1
100
AcDbLine
 10
891.0957567506
 20
3130.7014603757
 30
0.0
 11
891.0957567506
 21
3151.1124163016
 31
0.0
  0
LINE
  5
AB
100
AcDbEntity
  8
____
  6
CENTER
 62
         1
100
AcDbLine
 10
902.2290054375
 20
3140.8187242471
 30
0.0
 11
880.7215932015
 21
3140.8187242471
 31
0.0
  0
LINE
  5
AC
100
AcDbEntity
  8
____
  6
CONTINUOUS
 62
         7
100
AcDbLine
 10
755.5007567506
 20
3125.7738353732
 30
0.0
 11
753.0957567506
 21
3125.7738353732
 31
0.0
  0
LINE
  5
AD
100
AcDbEntity
  8
____
  6
CONTINUOUS
 62
         7
100
AcDbLine
 10
755.5007567506
 20
3155.7738353732
 30
0.0
 11
753.0957567506
 21
3155.7738353732
 31
0.0
  0
ARC
  5
AE
100
AcDbEntity
  8
____
  6
CONTINUOUS
 62
         7
100
AcDbCircle
 10
758.5007567506
 20
3131.5910976493
 30
0.0
 40
2.0
100
AcDbArc
 50
92.3356513357
 51
180.0
  0
ARC
  5
AF
100
AcDbEntity
  8
____
  6
CONTINUOUS
 62
         7
100
AcDbCircle
 10
758.5007567506
 20
3149.9565730972
 30
0.0
 40
2.0
100
AcDbArc
 50
180.0
 51
267.6643486643
  0
LINE
  5
B0
100
AcDbEntity
  8
____
  6
CONTINUOUS
 62
         7
100
AcDbLine
 10
756.5007567506
 20
3126.7738353732
 30
0.0
 11
756.5007567506
 21
3154.7738353732
 31
0.0
  0
LINE
  5
B1
100
AcDbEntity
  8
____
  6
CENTER
 62
         1
100
AcDbLine
 10
760.5007567506
 20
3131.3924858429
 30
0.0
 11
760.5007567506
 21
3150.3920200546
 31
0.0
  0
LINE
  5
B2
100
AcDbEntity
  8
____
  6
CONTINUOUS
 62
         7
100
AcDbLine
 10
781.7265846411
 20
3147.00909236
 30
0.0
 11
782.7257567506
 21
3145.9684094938
 31
0.0
  0
LINE
  5
B3
100
AcDbEntity
  8
____
  6
CONTINUOUS
 62
         7
100
AcDbLine
 10
781.7265846411
 20
3147.0075890073
 30
0.0
 11
782.7257567506
 21
3145.9669061411
 31
0.0
  0
LINE
  5
B4
100
AcDbEntity
  8
____
  6
CONTINUOUS
 62
         7
100
AcDbLine
 10
781.7265846411
 20
3147.0075890073
 30
0.0
 11
781.7265846411
 21
3134.5400817391
 31
0.0
  0
LINE
  5
B5
100
AcDbEntity
  8
____
  6
CONTINUOUS
 62
         7
100
AcDbLine
 10
781.7265846411
 20
3134.5400817391
 30
0.0
 11
782.7257567506
 21
3135.5807646053
 31
0.0
  0
LINE
  5
B6
100
AcDbEntity
  8
____
  6
CONTINUOUS
 62
         7
100
AcDbLine
 10
781.7265846411
 20
3134.5400817391
 30
0.0
 11
758.4192497174
 21
3133.58943611
 31
0.0
  0
LINE
  5
B7
100
AcDbEntity
  8
____
  6
CONTINUOUS
 62
         7
100
AcDbLine
 10
782.7257567506
 20
3135.5807646053
 30
0.0
 11
782.7257567506
 21
3145.9684094938
 31
0.0
  0
LINE
  5
B8
100
AcDbEntity
  8
____
  6
CONTINUOUS
 62
         7
100
AcDbLine
 10
758.4192497174
 20
3147.9582346364
 30
0.0
 11
781.7265846411
 21
3147.0075890073
 31
0.0
  0
DIMENSION
  5
BC
100
AcDbEntity
  8
____
  6
CONTINUOUS
 62
         4
100
AcDbDimension
  2
*D0
 10
801.0067590038
 20
3147.8733353732
 30
0.0
 11
798.9817590038
 21
3131.340452837
 31
0.0
  3
DIMSTYLE1
100
AcDbAlignedDimension
 13
760.5007567506
 23
3147.8733353732
 33
0.0
 14
760.5007567506
 24
3133.6743353732
 34
0.0
 50
90.0
100
AcDbRotatedDimension
  0
DIMENSION
  5
CB
100
AcDbEntity
  8
____
  6
CONTINUOUS
 62
         4
100
AcDbDimension
  2
*D1
 10
812.6549661512
 20
3155.7738353732
 30
0.0
 11
810.6299661512
 21
3135.7275652589
 31
0.0
  3
DIMSTYLE1
100
AcDbAlignedDimension
 13
755.8929507529
 23
3155.7738353732
 33
0.0
 14
755.8929507529
 24
3125.7738353732
 34
0.0
 50
90.0
100
AcDbRotatedDimension
  0
ARC
  5
D7
100
AcDbEntity
  8
____
  6
CONTINUOUS
 62
         7
100
AcDbCircle
 10
755.5007567506
 20
3154.7738353732
 30
0.0
 40
1.0
100
AcDbArc
 50
0.0
 51
90.0
  0
ARC
  5
D8
100
AcDbEntity
  8
____
  6
CONTINUOUS
 62
         7
100
AcDbCircle
 10
755.5007567506
 20
3126.7738353732
 30
0.0
 40
1.0
100
AcDbArc
 50
270.0
 51
360.0
  0
DIMENSION
  5
DB
100
AcDbEntity
  8
____
  6
CONTINUOUS
 62
         4
100
AcDbDimension
  2
*D2
 10
739.4957567506
 20
3196.0695104897
 30
0.0
 11
745.2982567506
 21
3198.0945104897
 31
0.0
  3
DIMSTYLE1
100
AcDbAlignedDimension
 13
739.4957567506
 23
3162.9988353732
 33
0.0
 14
756.5007567506
 24
3154.7738353732
 34
0.0
100
AcDbRotatedDimension
  0
DIMENSION
  5
E9
100
AcDbEntity
  8
____
  6
CONTINUOUS
 62
         4
100
AcDbDimension
  2
*D3
 10
646.0957567506
 20
3206.7234744961
 30
0.0
 11
706.3107567506
 21
3208.7484744961
 31
0.0
  3
DIMSTYLE1
100
AcDbAlignedDimension
 13
646.0957567506
 23
3152.2738353732
 33
0.0
 14
782.7257567506
 24
3152.2738353732
 34
0.0
100
AcDbRotatedDimension
  0
LINE
  5
F5
100
AcDbEntity
  8
____
  6
CENTER
 62
         1
100
AcDbLine
 10
760.5007567506
 20
3011.3917341665
 30
0.0
 11
760.5007567506
 21
3030.3912683782
 31
0.0
  0
LINE
  5
F6
100
AcDbEntity
  8
____
  6
CONTINUOUS
 62
         7
100
AcDbLine
 10
781.7265846411
 20
3027.0083406836
 30
0.0
 11
782.7257567506
 21
3025.9676578175
 31
0.0
  0
LINE
  5
F7
100
AcDbEntity
  8
____
  6
CONTINUOUS
 62
         7
100
AcDbLine
 10
781.7265846411
 20
3014.5393300628
 30
0.0
 11
782.7257567506
 21
3015.5800129289
 31
0.0
  0
LINE
  5
F8
100
AcDbEntity
  8
____
  6
CONTINUOUS
 62
         7
100
AcDbLine
 10
781.7265846411
 20
3027.0068373309
 30
0.0
 11
782.7257567506
 21
3025.9661544648
 31
0.0
  0
LINE
  5
F9
100
AcDbEntity
  8
____
  6
CONTINUOUS
 62
         7
100
AcDbLine
 10
782.7257567506
 20
3015.5800129289
 30
0.0
 11
782.7257567506
 21
3025.9676578175
 31
0.0
  0
LINE
  5
FA
100
AcDbEntity
  8
____
  6
CENTER
 62
         1
100
AcDbLine
 10
784.3815747007
 20
3020.7730836969
 30
0.0
 11
754.8747094371
 21
3020.7730836969
 31
0.0
  0
LINE
  5
FB
100
AcDbEntity
  8
____
  6
CONTINUOUS
 62
         7
100
AcDbLine
 10
781.7265846411
 20
3014.5393300628
 30
0.0
 11
758.5961970055
 21
3013.5959016537
 31
0.0
  0
LINE
  5
FC
100
AcDbEntity
  8
____
  6
CONTINUOUS
 62
         7
100
AcDbLine
 10
758.6192497174
 20
3027.9493254798
 30
0.0
 11
781.7265846411
 21
3027.0068373309
 31
0.0
  0
ARC
  5
FD
100
AcDbEntity
  8
____
  6
CONTINUOUS
 62
         7
100
AcDbCircle
 10
758.7007567506
 20
3011.5985034532
 30
0.0
 40
2.0
100
AcDbArc
 50
92.3356513357
 51
180.0
  0
ARC
  5
FE
100
AcDbEntity
  8
____
  6
CONTINUOUS
 62
         7
100
AcDbCircle
 10
758.7007567506
 20
3029.9476639405
 30
0.0
 40
2.0
100
AcDbArc
 50
180.0
 51
267.6643486643
  0
LINE
  5
FF
100
AcDbEntity
  8
____
  6
CONTINUOUS
 62
         7
100
AcDbLine
 10
755.7007567506
 20
3035.7730836969
 30
0.0
 11
753.0957567506
 21
3035.7730836969
 31
0.0
  0
LINE
  5
100
100
AcDbEntity
  8
____
  6
CONTINUOUS
 62
         7
100
AcDbLine
 10
755.7007567506
 20
3005.7730836969
 30
0.0
 11
753.0957567506
 21
3005.7730836969
 31
0.0
  0
LINE
  5
101
100
AcDbEntity
  8
____
  6
CONTINUOUS
 62
         7
100
AcDbLine
 10
756.7007567506
 20
3006.7730836969
 30
0.0
 11
756.7007567506
 21
3011.5985034532
 31
0.0
  0
DIMENSION
  5
104
100
AcDbEntity
  8
____
  6
CONTINUOUS
 62
         4
100
AcDbDimension
  2
*D4
 10
808.506269381
 20
3026.9660836969
 30
0.0
 11
806.481269381
 21
3016.2173575477
 31
0.0
  3
DIMSTYLE1
100
AcDbAlignedDimension
 13
782.7257567506
 23
3026.9660836969
 33
0.0
 14
782.7257567506
 24
3014.5800836969
 34
0.0
 50
90.0
100
AcDbRotatedDimension
  0
ARC
  5
111
100
AcDbEntity
  8
____
  6
CONTINUOUS
 62
         7
100
AcDbCircle
 10
755.7007567506
 20
3034.7730836969
 30
0.0
 40
1.0
100
AcDbArc
 50
0.0
 51
90.0
  0
ARC
  5
112
100
AcDbEntity
  8
____
  6
CONTINUOUS
 62
         7
100
AcDbCircle
 10
755.7007567506
 20
3006.7730836969
 30
0.0
 40
1.0
100
AcDbArc
 50
270.0
 51
360.0
  0
LINE
  5
113
100
AcDbEntity
  8
____
  6
CONTINUOUS
 62
         7
100
AcDbLine
 10
756.7007567506
 20
3029.9476639405
 30
0.0
 11
756.7007567506
 21
3034.7730836969
 31
0.0
  0
ARC
  5
114
100
AcDbEntity
  8
____
  6
CONTINUOUS
 62
         7
100
AcDbCircle
 10
753.0957567506
 20
3157.7738353732
 30
0.0
 40
2.0
100
AcDbArc
 50
180.0
 51
270.0
  0
ARC
  5
115
100
AcDbEntity
  8
____
  6
CONTINUOUS
 62
         7
100
AcDbCircle
 10
753.0957567506
 20
3123.7738353732
 30
0.0
 40
2.0
100
AcDbArc
 50
90.0
 51
180.0
  0
ARC
  5
116
100
AcDbEntity
  8
____
  6
CONTINUOUS
 62
         7
100
AcDbCircle
 10
753.0957567506
 20
3037.7730836969
 30
0.0
 40
2.0
100
AcDbArc
 50
180.0
 51
270.0
  0
ARC
  5
117
100
AcDbEntity
  8
____
  6
CONTINUOUS
 62
         7
100
AcDbCircle
 10
753.0957567506
 20
3003.7730836969
 30
0.0
 40
2.0
100
AcDbArc
 50
90.0
 51
180.0
  0
LINE
  5
118
100
AcDbEntity
  8
____
  6
CONTINUOUS
 62
         7
100
AcDbLine
 10
688.0957567506
 20
3013.8563353732
 30
0.0
 11
688.0957567506
 21
3027.6913353732
 31
0.0
  0
LINE
  5
119
100
AcDbEntity
  8
____
  6
CONTINUOUS
 62
         7
100
AcDbLine
 10
688.0957567506
 20
3027.6913353732
 30
0.0
 11
692.0895772378
 21
3020.7738353732
 31
0.0
  0
LINE
  5
11A
100
AcDbEntity
  8
____
  6
CONTINUOUS
 62
         7
100
AcDbLine
 10
692.0895772378
 20
3020.7738353732
 30
0.0
 11
688.0957567506
 21
3013.8563353732
 31
0.0
  0
INSERT
  5
13C
100
AcDbEntity
  8
0
  6
CONTINUOUS
100
AcDbBlockReference
  2
*X5
 10
0.0
 20
0.0
 30
0.0
  0
INSERT
  5
148
100
AcDbEntity
  8
0
  6
CONTINUOUS
100
AcDbBlockReference
  2
*X6
 10
0.0
 20
0.0
 30
0.0
  0
INSERT
  5
151
100
AcDbEntity
  8
0
  6
CONTINUOUS
100
AcDbBlockReference
  2
*X7
 10
0.0
 20
0.0
 30
0.0
  0
INSERT
  5
15B
100
AcDbEntity
  8
0
  6
CONTINUOUS
100
AcDbBlockReference
  2
*X8
 10
0.0
 20
0.0
 30
0.0
  0
INSERT
  5
166
100
AcDbEntity
  8
0
  6
CONTINUOUS
100
AcDbBlockReference
  2
*X9
 10
0.0
 20
0.0
 30
0.0
  0
INSERT
  5
170
100
AcDbEntity
  8
0
  6
CONTINUOUS
100
AcDbBlockReference
  2
*X10
 10
0.0
 20
0.0
 30
0.0
  0
INSERT
  5
18B
100
AcDbEntity
  8
0
  6
CONTINUOUS
100
AcDbBlockReference
  2
*X11
 10
0.0
 20
0.0
 30
0.0
  0
INSERT
  5
19E
100
AcDbEntity
  8
0
  6
CONTINUOUS
100
AcDbBlockReference
  2
*X12
 10
0.0
 20
0.0
 30
0.0
  0
TEXT
  5
1A0
100
AcDbEntity
  8
____
  6
CONTINUOUS
 62
         2
100
AcDbText
 10
875.6675345333
 20
3214.959672052
 30
0.0
 40
4.5
  1
534442
 41
0.98
  7
BOX
100
AcDbText
  0
ENDSEC
  0
SECTION
  2
OBJECTS
  0
DICTIONARY
  5
19
100
AcDbDictionary
  3
ACAD_GROUP
350
1A
  3
ACAD_MLINESTYLE
350
1B
  0
DICTIONARY
  5
1A
102
{ACAD_REACTORS
330
19
102
}
100
AcDbDictionary
  0
DICTIONARY
  5
1B
102
{ACAD_REACTORS
330
19
102
}
100
AcDbDictionary
  3
STANDARD
350
1C
  0
MLINESTYLE
  5
1C
102
{ACAD_REACTORS
330
1B
102
}
100
AcDbMlineStyle
  2
STANDARD
 70
         0
  3

 62
         0
 51
90.0
 52
90.0
 71
         2
 49
0.5
 62
       256
  6
BYLAYER
 49
-0.5
 62
       256
  6
BYLAYER
  0
ENDSEC
  0
EOF
