  0
SECTION
  2
HEADER
  9
$ACADVER
  1
AC1014
  9
$ACADMAINTVER
 70
         0
  9
$DWGCODEPAGE
  3
BIG5
  9
$INSBASE
 10
0.0
 20
0.0
 30
0.0
  9
$EXTMIN
 10
615.7874721868
 20
2942.1956704651
 30
0.0
  9
$EXTMAX
 10
1237.2215274284
 20
3255.5034459538
 30
0.0
  9
$LIMMIN
 10
0.0
 20
0.0
  9
$LIMMAX
 10
0.0
 20
0.0
  9
$ORTHOMODE
 70
         0
  9
$REGENMODE
 70
         1
  9
$FILLMODE
 70
         1
  9
$QTEXTMODE
 70
         0
  9
$MIRRTEXT
 70
         1
  9
$DRAGMODE
 70
         2
  9
$LTSCALE
 40
1.0
  9
$OSMODE
 70
         0
  9
$ATTMODE
 70
         1
  9
$TEXTSIZE
 40
2.8
  9
$TRACEWID
 40
0.05
  9
$TEXTSTYLE
  7
STANDARD
  9
$CLAYER
  8
0
  9
$CELTYPE
  6
CONTINUOUS
  9
$CECOLOR
 62
         4
  9
$CELTSCALE
 40
1.0
  9
$DELOBJ
 70
         1
  9
$DISPSILH
 70
         0
  9
$DIMSCALE
 40
1.0
  9
$DIMASZ
 40
0.18
  9
$DIMEXO
 40
0.0625
  9
$DIMDLI
 40
0.38
  9
$DIMRND
 40
0.0
  9
$DIMDLE
 40
0.0
  9
$DIMEXE
 40
0.25
  9
$DIMTP
 40
0.01
  9
$DIMTM
 40
-0.01
  9
$DIMTXT
 40
2.7
  9
$DIMCEN
 40
0.09
  9
$DIMTSZ
 40
0.0
  9
$DIMTOL
 70
         0
  9
$DIMLIM
 70
         0
  9
$DIMTIH
 70
         1
  9
$DIMTOH
 70
         1
  9
$DIMSE1
 70
         0
  9
$DIMSE2
 70
         0
  9
$DIMTAD
 70
         0
  9
$DIMZIN
 70
         0
  9
$DIMBLK
  1

  9
$DIMASO
 70
         1
  9
$DIMSHO
 70
         1
  9
$DIMPOST
  1

  9
$DIMAPOST
  1

  9
$DIMALT
 70
         0
  9
$DIMALTD
 70
         2
  9
$DIMALTF
 40
25.4
  9
$DIMLFAC
 40
1.0
  9
$DIMTOFL
 70
         0
  9
$DIMTVP
 40
0.0
  9
$DIMTIX
 70
         0
  9
$DIMSOXD
 70
         0
  9
$DIMSAH
 70
         0
  9
$DIMBLK1
  1

  9
$DIMBLK2
  1

  9
$DIMSTYLE
  2
STANDARD
  9
$DIMCLRD
 70
         0
  9
$DIMCLRE
 70
         0
  9
$DIMCLRT
 70
         4
  9
$DIMTFAC
 40
1.0
  9
$DIMGAP
 40
0.09
  9
$DIMJUST
 70
         0
  9
$DIMSD1
 70
         0
  9
$DIMSD2
 70
         0
  9
$DIMTOLJ
 70
         1
  9
$DIMTZIN
 70
         0
  9
$DIMALTZ
 70
         0
  9
$DIMALTTZ
 70
         0
  9
$DIMFIT
 70
         3
  9
$DIMUPT
 70
         0
  9
$DIMUNIT
 70
         2
  9
$DIMDEC
 70
         4
  9
$DIMTDEC
 70
         4
  9
$DIMALTU
 70
         2
  9
$DIMALTTD
 70
         2
  9
$DIMTXSTY
  7
STANDARD
  9
$DIMAUNIT
 70
         0
  9
$LUNITS
 70
         2
  9
$LUPREC
 70
        10
  9
$SKETCHINC
 40
0.1
  9
$FILLETRAD
 40
0.0
  9
$AUNITS
 70
         0
  9
$AUPREC
 70
         0
  9
$MENU
  1
acad
  9
$ELEVATION
 40
0.0
  9
$PELEVATION
 40
0.0
  9
$THICKNESS
 40
0.0
  9
$LIMCHECK
 70
         0
  9
$BLIPMODE
 70
         1
  9
$CHAMFERA
 40
0.0
  9
$CHAMFERB
 40
0.0
  9
$CHAMFERC
 40
0.0
  9
$CHAMFERD
 40
0.0
  9
$SKPOLY
 70
         0
  9
$TDCREATE
 40
0.000000000
  9
$TDUPDATE
 40
0.000000000
  9
$TDINDWG
 40
0.0000000000
  9
$TDUSRTIMER
 40
0.0000000000
  9
$USRTIMER
 70
         1
  9
$ANGBASE
 50
0.0
  9
$ANGDIR
 70
         0
  9
$PDMODE
 70
         2
  9
$PDSIZE
 40
0.0
  9
$PLINEWID
 40
0.0
  9
$COORDS
 70
         1
  9
$SPLFRAME
 70
         0
  9
$SPLINETYPE
 70
         6
  9
$SPLINESEGS
 70
         8
  9
$ATTDIA
 70
         0
  9
$ATTREQ
 70
         1
  9
$HANDLING
 70
         1
  9
$HANDSEED
  5
2C3
  9
$SURFTAB1
 70
         6
  9
$SURFTAB2
 70
         6
  9
$SURFTYPE
 70
         6
  9
$SURFU
 70
         6
  9
$SURFV
 70
         6
  9
$UCSNAME
  2

  9
$UCSORG
 10
0.0
 20
0.0
 30
0.0
  9
$UCSXDIR
 10
1.0
 20
0.0
 30
0.0
  9
$UCSYDIR
 10
0.0
 20
1.0
 30
0.0
  9
$PUCSNAME
  2

  9
$PUCSORG
 10
0.0
 20
0.0
 30
0.0
  9
$PUCSXDIR
 10
1.0
 20
0.0
 30
0.0
  9
$PUCSYDIR
 10
0.0
 20
1.0
 30
0.0
  9
$USERI1
 70
         0
  9
$USERI2
 70
         0
  9
$USERI3
 70
         0
  9
$USERI4
 70
         0
  9
$USERI5
 70
         0
  9
$USERR1
 40
0.0
  9
$USERR2
 40
0.0
  9
$USERR3
 40
0.0
  9
$USERR4
 40
0.0
  9
$USERR5
 40
0.0
  9
$WORLDVIEW
 70
         1
  9
$SHADEDGE
 70
         3
  9
$SHADEDIF
 70
        70
  9
$TILEMODE
 70
         1
  9
$MAXACTVP
 70
        16
  9
$PINSBASE
 10
0.0
 20
0.0
 30
0.0
  9
$PLIMCHECK
 70
         0
  9
$PEXTMIN
 10
1.0000000000E+20
 20
1.0000000000E+20
 30
1.0000000000E+20
  9
$PEXTMAX
 10
-1.0000000000E+20
 20
-1.0000000000E+20
 30
-1.0000000000E+20
  9
$PLIMMIN
 10
0.0
 20
0.0
  9
$PLIMMAX
 10
12.0
 20
9.0
  9
$UNITMODE
 70
         0
  9
$VISRETAIN
 70
         0
  9
$PLINEGEN
 70
         1
  9
$PSLTSCALE
 70
         0
  9
$TREEDEPTH
 70
      3020
  9
$PICKSTYLE
 70
         1
  9
$CMLSTYLE
  2
STANDARD
  9
$CMLJUST
 70
         0
  9
$CMLSCALE
 40
1.0
  9
$PROXYGRAPHICS
 70
         0
  9
$MEASUREMENT
 70
         0
  0
ENDSEC
  0
SECTION
  2
CLASSES
  0
CLASS
  1
LWPOLYLINE
  2
AcDbPolyline
  3
"AutoCAD"
 90
        0
280
         0
281
         1
  0
CLASS
  1
IMAGE
  2
AcDbRasterImage
  3
ISM
 90
      127
280
         0
281
         1
  0
CLASS
  1
OLE2FRAME
  2
AcDbOle2Frame
  3
""
 90
        0
280
         0
281
         1
  0
CLASS
  1
HATCH
  2
AcDbHatch
  3
"ACAD_SEDONA"
 90
        0
280
         0
281
         1
  0
CLASS
  1
DICTIONARYVAR
  2
AcDbDictionaryVar
  3
"AutoCAD"
 90
        0
280
         0
281
         0
  0
CLASS
  1
RASTERVARIABLES
  2
AcDbRasterVariables
  3
ISM
 90
        0
280
         0
281
         0
  0
CLASS
  1
IMAGEDEF
  2
AcDbRasterImageDef
  3
ISM
 90
        0
280
         0
281
         0
  0
CLASS
  1
IMAGEDEF_REACTOR
  2
AcDbRasterImageDefReactor
  3
ISM
 90
        1
280
         0
281
         0
  0
CLASS
  1
IDBUFFER
  2
AcDbIdBuffer
  3
"Acad"
 90
        0
280
         0
281
         0
  0
CLASS
  1
SPATIAL_FILTER
  2
AcDbSpatialFilter
  3
"Acad"
 90
        0
280
         0
281
         0
  0
CLASS
  1
XRECORD
  2
AcDbXrecord
  3
"<Built In>"
 90
        0
280
         0
281
         0
  0
CLASS
  1
SORTENTSTABLE
  2
AcDbSortentsTable
  3
"AutoCAD"
 90
        0
280
         0
281
         0
  0
CLASS
  1
LAYER_INDEX
  2
AcDbLayerIndex
  3
"Acad"
 90
        0
280
         0
281
         0
  0
CLASS
  1
SPATIAL_INDEX
  2
AcDbSpatialIndex
  3
"Acad"
 90
        0
280
         0
281
         0
  0
CLASS
  1
OBJECT_PTR
  2
CAseDLPNTableRecord
  3
"ASE-LPNTableRecord"
 90
        1
280
         0
281
         0
  0
CLASS
  1
LAYOUT
  2
AcDbLayout
  3
"AutoCAD 2000"
 90
        1
280
         0
281
         0
  0
CLASS
  1
PLOTSETTINGS
  2
AcDbPlotSettings
  3
"AutoCAD 2000"
 90
        1
280
         0
281
         0
  0
CLASS
  1
ACDBDICTIONARYWDFLT
  2
AcDbDictionaryWithDefault
  3
"AutoCAD 2000"
 90
        1
280
         0
281
         0
  0
CLASS
  1
ACDBPLACEHOLDER
  2
AcDbPlaceHolder
  3
"AutoCAD 2000"
 90
        1
280
         0
281
         0
  0
CLASS
  1
VBA_PROJECT
  2
AcDbVbaProject
  3
"acadvba"
 90
        1
280
         0
281
         0
  0
CLASS
  1
WIPEOUT
  2
AcDbWipeout
  3
WipeOut|AutoCAD Express Tool|expresstools@autodesk.com
 90
      127
280
         0
281
         1
  0
CLASS
  1
WIPEOUTVARIABLES
  2
AcDbWipeoutVariables
  3
WipeOut|AutoCAD Express Tool|expresstools@autodesk.com
 90
        0
280
         0
281
         0
  0
CLASS
  1
RTEXT
  2
RText
  3
RText|AutoCAD Express Tool|expresstools@autodesk.com
 90
        0
280
         0
281
         1
  0
CLASS
  1
ARCALIGNEDTEXT
  2
AcDbArcAlignedText
  3
ATEXT|AutoCAD Express Tool|expresstools@autodesk.com
 90
        0
280
         0
281
         1
  0
ENDSEC
  0
SECTION
  2
TABLES
  0
TABLE
  2
VPORT
  5
7
100
AcDbSymbolTable
 70
         1
  0
VPORT
  5
15
100
AcDbSymbolTableRecord
100
AcDbViewportTableRecord
  2
*ACTIVE
 70
         0
 10
0.0
 20
0.0
 11
1.0
 21
1.0
 12
926.5044998076
 22
3098.8495582095
 13
0.0
 23
0.0
 14
1.0
 24
1.0
 15
0.0
 25
0.0
 16
0.0
 26
0.0
 36
1.0
 17
0.0
 27
0.0
 37
0.0
 40
313.3077754887
 41
1.9834619625
 42
50.0
 43
0.0
 44
0.0
 50
0.0
 51
0.0
 71
         0
 72
       100
 73
         1
 74
         1
 75
         0
 76
         0
 77
         0
 78
         0
  0
ENDTAB
  0
TABLE
  2
LTYPE
  5
4
100
AcDbSymbolTable
 70
         6
  0
LTYPE
  5
11
100
AcDbSymbolTableRecord
100
AcDbLinetypeTableRecord
  2
BYBLOCK
 70
        64
  3

 72
        65
 73
         0
 40
0.0
  0
LTYPE
  5
12
100
AcDbSymbolTableRecord
100
AcDbLinetypeTableRecord
  2
BYLAYER
 70
        64
  3

 72
        65
 73
         0
 40
0.0
  0
LTYPE
  5
13
100
AcDbSymbolTableRecord
100
AcDbLinetypeTableRecord
  2
CONTINUOUS
 70
        64
  3
Solid line
 72
        65
 73
         0
 40
0.0
  0
LTYPE
  5
1D
100
AcDbSymbolTableRecord
100
AcDbLinetypeTableRecord
  2
DASHED
 70
        64
  3
_ _ _ _ _ _ _ _ _ _ _ _ _ _ _ _
 72
        65
 73
         2
 40
0.2
 49
0.1
 74
         0
 49
-0.1
 74
         0
  0
LTYPE
  5
1E
100
AcDbSymbolTableRecord
100
AcDbLinetypeTableRecord
  2
CENTER
 70
        64
  3
___ _ ___ _ ___ _ ___ _ ___ _ ___ _ ___ _ ___ _
 72
        65
 73
         4
 40
0.95
 49
0.625
 74
         0
 49
-0.125
 74
         0
 49
0.075
 74
         0
 49
-0.125
 74
         0
  0
LTYPE
  5
1F
100
AcDbSymbolTableRecord
100
AcDbLinetypeTableRecord
  2
PHANTOM
 70
        64
  3
______  __  __  ______  __  __  ______  __  __  
 72
        65
 73
         6
 40
1.025
 49
0.625
 74
         0
 49
-0.125
 74
         0
 49
0.075
 74
         0
 49
-0.125
 74
         0
 49
0.075
 74
         0
 49
-0.125
 74
         0
  0
ENDTAB
  0
TABLE
  2
LAYER
  5
2
100
AcDbSymbolTable
 70
         7
  0
LAYER
  5
14
100
AcDbSymbolTableRecord
100
AcDbLayerTableRecord
  2
0
 70
         0
 62
         7
  6
CONTINUOUS
  0
LAYER
  5
21
100
AcDbSymbolTableRecord
100
AcDbLayerTableRecord
  2
____
 70
         0
 62
         7
  6
CONTINUOUS
  0
LAYER
  5
22
100
AcDbSymbolTableRecord
100
AcDbLayerTableRecord
  2
____
 70
         1
 62
         7
  6
CONTINUOUS
  0
LAYER
  5
23
100
AcDbSymbolTableRecord
100
AcDbLayerTableRecord
  2
____
 70
         1
 62
         7
  6
CONTINUOUS
  0
LAYER
  5
24
100
AcDbSymbolTableRecord
100
AcDbLayerTableRecord
  2
____
 70
         1
 62
         7
  6
CONTINUOUS
  0
LAYER
  5
25
100
AcDbSymbolTableRecord
100
AcDbLayerTableRecord
  2
____
 70
         1
 62
         7
  6
CONTINUOUS
  0
LAYER
  5
5A
100
AcDbSymbolTableRecord
100
AcDbLayerTableRecord
  2
DEFPOINTS
 70
         0
 62
        -7
  6
CONTINUOUS
  0
ENDTAB
  0
TABLE
  2
STYLE
  5
3
100
AcDbSymbolTable
 70
        14
  0
STYLE
  5
17
100
AcDbSymbolTableRecord
100
AcDbTextStyleTableRecord
  2
STANDARD
 70
         0
 40
0.0
 41
1.0
 50
0.0
 71
         0
 42
0.0
  3
txt
  4

  0
STYLE
  5
63
100
AcDbSymbolTableRecord
100
AcDbTextStyleTableRecord
  2
BOX
 70
         0
 40
1.0
 41
1.0
 50
0.0
 71
         0
 42
0.2
  3
txt.shx
  4

  0
STYLE
  5
71
100
AcDbSymbolTableRecord
100
AcDbTextStyleTableRecord
  2
BOX
 70
         0
 40
1.0
 41
1.0
 50
0.0
 71
         0
 42
0.2
  3
txt.shx
  4

  0
STYLE
  5
9C
100
AcDbSymbolTableRecord
100
AcDbTextStyleTableRecord
  2
BOX
 70
         0
 40
1.0
 41
1.0
 50
0.0
 71
         0
 42
0.2
  3
txt.shx
  4

  0
STYLE
  5
DF
100
AcDbSymbolTableRecord
100
AcDbTextStyleTableRecord
  2
BOX
 70
         0
 40
1.0
 41
1.0
 50
0.0
 71
         0
 42
0.2
  3
txt.shx
  4

  0
STYLE
  5
EF
100
AcDbSymbolTableRecord
100
AcDbTextStyleTableRecord
  2
BOX
 70
         0
 40
1.0
 41
1.0
 50
0.0
 71
         0
 42
0.2
  3
txt.shx
  4

  0
STYLE
  5
105
100
AcDbSymbolTableRecord
100
AcDbTextStyleTableRecord
  2
BOX
 70
         0
 40
1.0
 41
1.0
 50
0.0
 71
         0
 42
0.2
  3
txt.shx
  4

  0
STYLE
  5
113
100
AcDbSymbolTableRecord
100
AcDbTextStyleTableRecord
  2
BOX
 70
         0
 40
1.0
 41
1.0
 50
0.0
 71
         0
 42
0.2
  3
txt.shx
  4

  0
STYLE
  5
121
100
AcDbSymbolTableRecord
100
AcDbTextStyleTableRecord
  2
BOX
 70
         0
 40
1.0
 41
1.0
 50
0.0
 71
         0
 42
0.2
  3
txt.shx
  4

  0
STYLE
  5
163
100
AcDbSymbolTableRecord
100
AcDbTextStyleTableRecord
  2
BOX
 70
         0
 40
1.0
 41
1.0
 50
0.0
 71
         0
 42
0.2
  3
txt.shx
  4

  0
STYLE
  5
2A1
100
AcDbSymbolTableRecord
100
AcDbTextStyleTableRecord
  2
BOX
 70
         0
 40
1.0
 41
1.0
 50
0.0
 71
         0
 42
0.2
  3
txt.shx
  4

  0
STYLE
  5
2B0
100
AcDbSymbolTableRecord
100
AcDbTextStyleTableRecord
  2
BOX
 70
         0
 40
1.0
 41
1.0
 50
0.0
 71
         0
 42
0.2
  3
txt.shx
  4

  0
STYLE
  5
2BE
100
AcDbSymbolTableRecord
100
AcDbTextStyleTableRecord
  2
BOX
 70
         0
 40
1.0
 41
1.0
 50
0.0
 71
         0
 42
0.2
  3
txt.shx
  4

  0
STYLE
  5
2C1
100
AcDbSymbolTableRecord
100
AcDbTextStyleTableRecord
  2
BOX
 70
         0
 40
1.0
 41
1.0
 50
0.0
 71
         0
 42
0.2
  3
txt.shx
  4

  0
ENDTAB
  0
TABLE
  2
VIEW
  5
5
100
AcDbSymbolTable
 70
         0
  0
ENDTAB
  0
TABLE
  2
UCS
  5
6
100
AcDbSymbolTable
 70
         1
  0
UCS
  5
20
100
AcDbSymbolTableRecord
100
AcDbUCSTableRecord
  2
CK_VIEW_1
 70
         0
 10
0.0
 20
0.0
 30
1.0
 11
1.0
 21
0.0
 31
0.0
 12
0.0
 22
1.0
 32
0.0
  0
ENDTAB
  0
TABLE
  2
APPID
  5
8
100
AcDbSymbolTable
 70
         1
  0
APPID
  5
16
100
AcDbSymbolTableRecord
100
AcDbRegAppTableRecord
  2
ACAD
 70
         0
  0
ENDTAB
  0
TABLE
  2
DIMSTYLE
  5
9
100
AcDbSymbolTable
 70
         2
  0
DIMSTYLE
105
18
100
AcDbSymbolTableRecord
100
AcDbDimStyleTableRecord
  2
STANDARD
 70
         0
  3

  4

  5

  6

  7

 40
1.0
 41
0.18
 42
0.0625
 43
0.38
 44
0.18
 45
0.0
 46
0.0
 47
0.0
 48
0.0
 71
         0
 72
         0
 73
         1
 74
         1
 75
         0
 76
         0
 77
         0
 78
         0
140
0.18
141
0.09
142
0.0
143
25.4
144
1.0
145
0.0
146
1.0
147
0.09
170
         0
171
         2
172
         0
173
         0
174
         0
175
         0
176
         0
177
         0
178
         0
270
         2
271
         4
272
         4
273
         2
274
         2
275
         0
280
         0
281
         0
282
         0
283
         1
284
         0
285
         0
286
         0
287
         0
288
         0
340
17
  0
DIMSTYLE
105
56
100
AcDbSymbolTableRecord
100
AcDbDimStyleTableRecord
  2
DIMSTYLE1
 70
         0
  3

  4

  5

  6

  7

 40
1.0
 41
2.7
 42
0.0625
 43
0.38
 44
2.7
 45
0.0
 46
0.0
 47
0.0
 48
0.0
 71
         0
 72
         0
 73
         1
 74
         1
 75
         0
 76
         0
 77
         0
 78
         0
140
2.7
141
0.09
142
0.0
143
25.4
144
1.0
145
0.0
146
1.0
147
0.09
170
         0
171
         2
172
         0
173
         0
174
         0
175
         0
176
         0
177
         0
178
         0
270
         2
271
         4
272
         4
273
         2
274
         2
275
         0
280
         0
281
         0
282
         0
283
         1
284
         0
285
         0
286
         0
287
         0
288
         0
340
17
  0
ENDTAB
  0
TABLE
  2
BLOCK_RECORD
  5
1
100
AcDbSymbolTable
 70
        16
  0
BLOCK_RECORD
  5
A
100
AcDbSymbolTableRecord
100
AcDbBlockTableRecord
  2
*MODEL_SPACE
  0
BLOCK_RECORD
  5
B
100
AcDbSymbolTableRecord
100
AcDbBlockTableRecord
  2
*PAPER_SPACE
  0
BLOCK_RECORD
  5
26
100
AcDbSymbolTableRecord
100
AcDbBlockTableRecord
  2
*X0
  0
BLOCK_RECORD
  5
3D
100
AcDbSymbolTableRecord
100
AcDbBlockTableRecord
  2
*X1
  0
BLOCK_RECORD
  5
57
100
AcDbSymbolTableRecord
100
AcDbBlockTableRecord
  2
*D2
  0
BLOCK_RECORD
  5
66
100
AcDbSymbolTableRecord
100
AcDbBlockTableRecord
  2
*D3
  0
BLOCK_RECORD
  5
91
100
AcDbSymbolTableRecord
100
AcDbBlockTableRecord
  2
*D4
  0
BLOCK_RECORD
  5
D4
100
AcDbSymbolTableRecord
100
AcDbBlockTableRecord
  2
*D5
  0
BLOCK_RECORD
  5
E4
100
AcDbSymbolTableRecord
100
AcDbBlockTableRecord
  2
*D6
  0
BLOCK_RECORD
  5
F6
100
AcDbSymbolTableRecord
100
AcDbBlockTableRecord
  2
*D7
  0
BLOCK_RECORD
  5
108
100
AcDbSymbolTableRecord
100
AcDbBlockTableRecord
  2
*D8
  0
BLOCK_RECORD
  5
116
100
AcDbSymbolTableRecord
100
AcDbBlockTableRecord
  2
*D9
  0
BLOCK_RECORD
  5
158
100
AcDbSymbolTableRecord
100
AcDbBlockTableRecord
  2
*D10
  0
BLOCK_RECORD
  5
1CD
100
AcDbSymbolTableRecord
100
AcDbBlockTableRecord
  2
*X11
  0
BLOCK_RECORD
  5
238
100
AcDbSymbolTableRecord
100
AcDbBlockTableRecord
  2
*X12
  0
BLOCK_RECORD
  5
294
100
AcDbSymbolTableRecord
100
AcDbBlockTableRecord
  2
*D13
  0
BLOCK_RECORD
  5
2A4
100
AcDbSymbolTableRecord
100
AcDbBlockTableRecord
  2
*D14
  0
BLOCK_RECORD
  5
2B3
100
AcDbSymbolTableRecord
100
AcDbBlockTableRecord
  2
*D15
  0
ENDTAB
  0
ENDSEC
  0
SECTION
  2
BLOCKS
  0
BLOCK
  5
D
100
AcDbEntity
  8
0
100
AcDbBlockBegin
  2
*MODEL_SPACE
 70
         0
 10
0.0
 20
0.0
 30
0.0
  3
*MODEL_SPACE
  1

  0
ENDBLK
  5
E
100
AcDbEntity
  8
0
100
AcDbBlockEnd
  0
BLOCK
  5
F
100
AcDbEntity
 67
         1
  8
0
100
AcDbBlockBegin
  2
*PAPER_SPACE
 70
         0
 10
0.0
 20
0.0
 30
0.0
  3
*PAPER_SPACE
  1

  0
ENDBLK
  5
10
100
AcDbEntity
 67
         1
  8
0
100
AcDbBlockEnd
  0
BLOCK
  5
27
100
AcDbEntity
  8
0
100
AcDbBlockBegin
  2
*X0
 70
        65
 10
0.0
 20
0.0
 30
0.0
  3
*X0
  1

  0
LINE
  5
28
100
AcDbEntity
  8
____
  6
CONTINUOUS
 62
         4
100
AcDbLine
 10
988.2787654514
 20
3092.6285462626
 30
0.0
 11
993.4511363617
 21
3097.8009171728
 31
0.0
  0
LINE
  5
29
100
AcDbEntity
  8
____
  6
CONTINUOUS
 62
         4
100
AcDbLine
 10
983.926894488
 20
3092.5193159863
 30
0.0
 11
992.1334588514
 21
3100.7258803497
 31
0.0
  0
LINE
  5
2A
100
AcDbEntity
  8
____
  6
CONTINUOUS
 62
         4
100
AcDbLine
 10
979.5750235246
 20
3092.41008571
 30
0.0
 11
988.0108085845
 21
3100.8458707699
 31
0.0
  0
LINE
  5
2B
100
AcDbEntity
  8
____
  6
CONTINUOUS
 62
         4
100
AcDbLine
 10
975.2231525612
 20
3092.3008554338
 30
0.0
 11
983.7681678974
 21
3100.8458707699
 31
0.0
  0
LINE
  5
2C
100
AcDbEntity
  8
____
  6
CONTINUOUS
 62
         4
100
AcDbLine
 10
970.8712815978
 20
3092.1916251575
 30
0.0
 11
979.5255272102
 21
3100.8458707699
 31
0.0
  0
LINE
  5
2D
100
AcDbEntity
  8
____
  6
CONTINUOUS
 62
         4
100
AcDbLine
 10
966.5194106344
 20
3092.0823948812
 30
0.0
 11
975.2828865231
 21
3100.8458707699
 31
0.0
  0
LINE
  5
2E
100
AcDbEntity
  8
____
  6
CONTINUOUS
 62
         4
100
AcDbLine
 10
962.167539671
 20
3091.9731646049
 30
0.0
 11
971.040245836
 21
3100.8458707699
 31
0.0
  0
LINE
  5
2F
100
AcDbEntity
  8
____
  6
CONTINUOUS
 62
         4
100
AcDbLine
 10
957.8156687076
 20
3091.8639343286
 30
0.0
 11
966.7976051489
 21
3100.8458707699
 31
0.0
  0
LINE
  5
30
100
AcDbEntity
  8
____
  6
CONTINUOUS
 62
         4
100
AcDbLine
 10
953.4637977442
 20
3091.7547040524
 30
0.0
 11
962.5549644618
 21
3100.8458707699
 31
0.0
  0
LINE
  5
31
100
AcDbEntity
  8
____
  6
CONTINUOUS
 62
         4
100
AcDbLine
 10
949.1119267808
 20
3091.6454737761
 30
0.0
 11
958.3123237746
 21
3100.8458707699
 31
0.0
  0
LINE
  5
32
100
AcDbEntity
  8
____
  6
CONTINUOUS
 62
         4
100
AcDbLine
 10
944.7600558174
 20
3091.5362434998
 30
0.0
 11
954.0696830875
 21
3100.8458707699
 31
0.0
  0
LINE
  5
33
100
AcDbEntity
  8
____
  6
CONTINUOUS
 62
         4
100
AcDbLine
 10
940.408184854
 20
3091.4270132235
 30
0.0
 11
949.8270424004
 21
3100.8458707699
 31
0.0
  0
LINE
  5
34
100
AcDbEntity
  8
____
  6
CONTINUOUS
 62
         4
100
AcDbLine
 10
936.0563138906
 20
3091.3177829472
 30
0.0
 11
945.5844017133
 21
3100.8458707699
 31
0.0
  0
LINE
  5
35
100
AcDbEntity
  8
____
  6
CONTINUOUS
 62
         4
100
AcDbLine
 10
931.7044429272
 20
3091.2085526709
 30
0.0
 11
941.3417610262
 21
3100.8458707699
 31
0.0
  0
LINE
  5
36
100
AcDbEntity
  8
____
  6
CONTINUOUS
 62
         4
100
AcDbLine
 10
927.3525719638
 20
3091.0993223947
 30
0.0
 11
937.0991203391
 21
3100.8458707699
 31
0.0
  0
LINE
  5
37
100
AcDbEntity
  8
____
  6
CONTINUOUS
 62
         4
100
AcDbLine
 10
923.8564796519
 20
3091.8458707699
 30
0.0
 11
932.8564796519
 21
3100.8458707699
 31
0.0
  0
LINE
  5
38
100
AcDbEntity
  8
____
  6
CONTINUOUS
 62
         4
100
AcDbLine
 10
919.6138389648
 20
3091.8458707699
 30
0.0
 11
924.3735146282
 21
3096.6055464333
 31
0.0
  0
LINE
  5
39
100
AcDbEntity
  8
____
  6
CONTINUOUS
 62
         4
100
AcDbLine
 10
915.4447497833
 20
3091.9194222755
 30
0.0
 11
919.3936978942
 21
3095.8683703864
 31
0.0
  0
ENDBLK
  5
3A
100
AcDbEntity
  8
0
  6
CONTINUOUS
100
AcDbBlockEnd
  0
BLOCK
  5
3E
100
AcDbEntity
  8
0
100
AcDbBlockBegin
  2
*X1
 70
        65
 10
0.0
 20
0.0
 30
0.0
  3
*X1
  1

  0
LINE
  5
3F
100
AcDbEntity
  8
____
  6
CONTINUOUS
 62
         4
100
AcDbLine
 10
990.4372154557
 20
3060.8458707699
 30
0.0
 11
993.4511363617
 21
3063.8597916759
 31
0.0
  0
LINE
  5
40
100
AcDbEntity
  8
____
  6
CONTINUOUS
 62
         4
100
AcDbLine
 10
986.1945747686
 20
3060.8458707699
 30
0.0
 11
993.3529718859
 21
3068.0042678873
 31
0.0
  0
LINE
  5
41
100
AcDbEntity
  8
____
  6
CONTINUOUS
 62
         4
100
AcDbLine
 10
981.9519340814
 20
3060.8458707699
 30
0.0
 11
990.1229697742
 21
3069.0169064627
 31
0.0
  0
LINE
  5
42
100
AcDbEntity
  8
____
  6
CONTINUOUS
 62
         4
100
AcDbLine
 10
977.7092933943
 20
3060.8458707699
 30
0.0
 11
985.9842103464
 21
3069.1207877219
 31
0.0
  0
LINE
  5
43
100
AcDbEntity
  8
____
  6
CONTINUOUS
 62
         4
100
AcDbLine
 10
973.4666527072
 20
3060.8458707699
 30
0.0
 11
981.8454509185
 21
3069.2246689812
 31
0.0
  0
LINE
  5
44
100
AcDbEntity
  8
____
  6
CONTINUOUS
 62
         4
100
AcDbLine
 10
969.2240120201
 20
3060.8458707699
 30
0.0
 11
977.7066914906
 21
3069.3285502404
 31
0.0
  0
LINE
  5
45
100
AcDbEntity
  8
____
  6
CONTINUOUS
 62
         4
100
AcDbLine
 10
964.981371333
 20
3060.8458707699
 30
0.0
 11
973.5679320628
 21
3069.4324314997
 31
0.0
  0
LINE
  5
46
100
AcDbEntity
  8
____
  6
CONTINUOUS
 62
         4
100
AcDbLine
 10
960.7387306458
 20
3060.8458707699
 30
0.0
 11
969.4291726349
 21
3069.5363127589
 31
0.0
  0
LINE
  5
47
100
AcDbEntity
  8
____
  6
CONTINUOUS
 62
         4
100
AcDbLine
 10
956.4960899587
 20
3060.8458707699
 30
0.0
 11
965.290413207
 21
3069.6401940182
 31
0.0
  0
LINE
  5
48
100
AcDbEntity
  8
____
  6
CONTINUOUS
 62
         4
100
AcDbLine
 10
952.2534492716
 20
3060.8458707699
 30
0.0
 11
961.1516537791
 21
3069.7440752774
 31
0.0
  0
LINE
  5
49
100
AcDbEntity
  8
____
  6
CONTINUOUS
 62
         4
100
AcDbLine
 10
948.0108085845
 20
3060.8458707699
 30
0.0
 11
957.0128943513
 21
3069.8479565367
 31
0.0
  0
LINE
  5
4A
100
AcDbEntity
  8
____
  6
CONTINUOUS
 62
         4
100
AcDbLine
 10
943.7681678974
 20
3060.8458707699
 30
0.0
 11
952.8741349234
 21
3069.9518377959
 31
0.0
  0
LINE
  5
4B
100
AcDbEntity
  8
____
  6
CONTINUOUS
 62
         4
100
AcDbLine
 10
939.5255272102
 20
3060.8458707699
 30
0.0
 11
948.7353754955
 21
3070.0557190552
 31
0.0
  0
LINE
  5
4C
100
AcDbEntity
  8
____
  6
CONTINUOUS
 62
         4
100
AcDbLine
 10
935.2828865231
 20
3060.8458707699
 30
0.0
 11
944.5966160677
 21
3070.1596003144
 31
0.0
  0
LINE
  5
4D
100
AcDbEntity
  8
____
  6
CONTINUOUS
 62
         4
100
AcDbLine
 10
931.040245836
 20
3060.8458707699
 30
0.0
 11
940.4578566398
 21
3070.2634815737
 31
0.0
  0
LINE
  5
4E
100
AcDbEntity
  8
____
  6
CONTINUOUS
 62
         4
100
AcDbLine
 10
928.4770004436
 20
3062.5252660646
 30
0.0
 11
936.3190972119
 21
3070.3673628329
 31
0.0
  0
LINE
  5
4F
100
AcDbEntity
  8
____
  6
CONTINUOUS
 62
         4
100
AcDbLine
 10
926.5314587196
 20
3064.8223650278
 30
0.0
 11
932.1803377841
 21
3070.4712440922
 31
0.0
  0
LINE
  5
50
100
AcDbEntity
  8
____
  6
CONTINUOUS
 62
         4
100
AcDbLine
 10
922.7874392387
 20
3065.320986234
 30
0.0
 11
928.0415783562
 21
3070.5751253514
 31
0.0
  0
LINE
  5
51
100
AcDbEntity
  8
____
  6
CONTINUOUS
 62
         4
100
AcDbLine
 10
919.0918646771
 20
3065.8680523594
 30
0.0
 11
923.0696830875
 21
3069.8458707699
 31
0.0
  0
LINE
  5
52
100
AcDbEntity
  8
____
  6
CONTINUOUS
 62
         4
100
AcDbLine
 10
915.9209209167
 20
3066.9397492862
 30
0.0
 11
918.8270424004
 21
3069.8458707699
 31
0.0
  0
ENDBLK
  5
53
100
AcDbEntity
  8
0
  6
CONTINUOUS
100
AcDbBlockEnd
  0
BLOCK
  5
58
100
AcDbEntity
  8
0
100
AcDbBlockBegin
  2
*D2
 70
        65
 10
0.0
 20
0.0
 30
0.0
  3
*D2
  1

  0
POINT
  5
5B
100
AcDbEntity
  8
DEFPOINTS
  6
CONTINUOUS
 62
         0
100
AcDbPoint
 10
993.4511363617
 20
3232.0943214527
 30
0.0
  0
POINT
  5
5C
100
AcDbEntity
  8
DEFPOINTS
  6
CONTINUOUS
 62
         0
100
AcDbPoint
 10
993.4511363617
 20
3180.5763467528
 30
0.0
  0
POINT
  5
5D
100
AcDbEntity
  8
DEFPOINTS
  6
CONTINUOUS
 62
         0
100
AcDbPoint
 10
822.4511363617
 20
3173.6263467528
 30
0.0
  0
LINE
  5
5E
100
AcDbEntity
  8
____
  6
CONTINUOUS
 62
         4
100
AcDbLine
 10
993.4511363617
 20
3181.9263467528
 30
0.0
 11
993.4511363617
 21
3232.7693214527
 31
0.0
  0
LINE
  5
5F
100
AcDbEntity
  8
____
  6
CONTINUOUS
 62
         4
100
AcDbLine
 10
822.4511363617
 20
3174.9763467528
 30
0.0
 11
822.4511363617
 21
3232.7693214527
 31
0.0
  0
LINE
  5
60
100
AcDbEntity
  8
____
  6
CONTINUOUS
 62
         4
100
AcDbLine
 10
993.4511363617
 20
3232.0943214527
 30
0.0
 11
822.4511363617
 21
3232.0943214527
 31
0.0
  0
SOLID
  5
61
100
AcDbEntity
  8
____
  6
CONTINUOUS
 62
         4
100
AcDbTrace
 10
993.4511363617
 20
3232.0943214527
 30
0.0
 11
990.7511363617
 21
3231.6893214527
 31
0.0
 12
990.7511363617
 22
3232.4993214527
 32
0.0
 13
993.4511363617
 23
3232.0943214527
 33
0.0
  0
SOLID
  5
62
100
AcDbEntity
  8
____
  6
CONTINUOUS
 62
         4
100
AcDbTrace
 10
822.4511363617
 20
3232.0943214527
 30
0.0
 11
825.1511363617
 21
3232.4993214527
 31
0.0
 12
825.1511363617
 22
3231.6893214527
 32
0.0
 13
822.4511363617
 23
3232.0943214527
 33
0.0
  0
TEXT
  5
64
100
AcDbEntity
  8
____
  6
CONTINUOUS
 62
         4
100
AcDbText
 10
903.9011363617
 20
3234.1193214527
 30
0.0
 40
2.7
  1
171
  7
BOX
100
AcDbText
  0
ENDBLK
  5
65
100
AcDbEntity
  8
0
  6
CONTINUOUS
100
AcDbBlockEnd
  0
BLOCK
  5
67
100
AcDbEntity
  8
0
100
AcDbBlockBegin
  2
*D3
 70
        65
 10
0.0
 20
0.0
 30
0.0
  3
*D3
  1

  0
POINT
  5
69
100
AcDbEntity
  8
DEFPOINTS
  6
CONTINUOUS
 62
         0
100
AcDbPoint
 10
928.4511363617
 20
3219.6527554505
 30
0.0
  0
POINT
  5
6A
100
AcDbEntity
  8
DEFPOINTS
  6
CONTINUOUS
 62
         0
100
AcDbPoint
 10
928.4511363617
 20
3180.5763467528
 30
0.0
  0
POINT
  5
6B
100
AcDbEntity
  8
DEFPOINTS
  6
CONTINUOUS
 62
         0
100
AcDbPoint
 10
993.4511363617
 20
3180.5763467528
 30
0.0
  0
LINE
  5
6C
100
AcDbEntity
  8
____
  6
CONTINUOUS
 62
         4
100
AcDbLine
 10
928.4511363617
 20
3181.9263467528
 30
0.0
 11
928.4511363617
 21
3220.3277554505
 31
0.0
  0
LINE
  5
6D
100
AcDbEntity
  8
____
  6
CONTINUOUS
 62
         4
100
AcDbLine
 10
993.4511363617
 20
3181.9263467528
 30
0.0
 11
993.4511363617
 21
3220.3277554505
 31
0.0
  0
LINE
  5
6E
100
AcDbEntity
  8
____
  6
CONTINUOUS
 62
         4
100
AcDbLine
 10
928.4511363617
 20
3219.6527554505
 30
0.0
 11
993.4511363617
 21
3219.6527554505
 31
0.0
  0
SOLID
  5
6F
100
AcDbEntity
  8
____
  6
CONTINUOUS
 62
         4
100
AcDbTrace
 10
928.4511363617
 20
3219.6527554505
 30
0.0
 11
931.1511363617
 21
3220.0577554505
 31
0.0
 12
931.1511363617
 22
3219.2477554505
 32
0.0
 13
928.4511363617
 23
3219.6527554505
 33
0.0
  0
SOLID
  5
70
100
AcDbEntity
  8
____
  6
CONTINUOUS
 62
         4
100
AcDbTrace
 10
993.4511363617
 20
3219.6527554505
 30
0.0
 11
990.7511363617
 21
3219.2477554505
 31
0.0
 12
990.7511363617
 22
3220.0577554505
 32
0.0
 13
993.4511363617
 23
3219.6527554505
 33
0.0
  0
TEXT
  5
72
100
AcDbEntity
  8
____
  6
CONTINUOUS
 62
         4
100
AcDbText
 10
956.0894482364
 20
3221.6777554505
 30
0.0
 40
2.7
  1
65
  7
BOX
100
AcDbText
  0
ENDBLK
  5
73
100
AcDbEntity
  8
0
  6
CONTINUOUS
100
AcDbBlockEnd
  0
BLOCK
  5
92
100
AcDbEntity
  8
0
100
AcDbBlockBegin
  2
*D4
 70
        65
 10
0.0
 20
0.0
 30
0.0
  3
*D4
  1

  0
POINT
  5
94
100
AcDbEntity
  8
DEFPOINTS
  6
CONTINUOUS
 62
         0
100
AcDbPoint
 10
1012.9239745047
 20
3142.5763467528
 30
0.0
  0
POINT
  5
95
100
AcDbEntity
  8
DEFPOINTS
  6
CONTINUOUS
 62
         0
100
AcDbPoint
 10
991.4511363617
 20
3142.5763467528
 30
0.0
  0
POINT
  5
96
100
AcDbEntity
  8
DEFPOINTS
  6
CONTINUOUS
 62
         0
100
AcDbPoint
 10
991.4511363617
 20
3182.5763467528
 30
0.0
  0
LINE
  5
97
100
AcDbEntity
  8
____
  6
CONTINUOUS
 62
         4
100
AcDbLine
 10
992.8011363617
 20
3142.5763467528
 30
0.0
 11
1013.5989745047
 21
3142.5763467528
 31
0.0
  0
LINE
  5
98
100
AcDbEntity
  8
____
  6
CONTINUOUS
 62
         4
100
AcDbLine
 10
992.8011363617
 20
3182.5763467528
 30
0.0
 11
1013.5989745047
 21
3182.5763467528
 31
0.0
  0
LINE
  5
99
100
AcDbEntity
  8
____
  6
CONTINUOUS
 62
         4
100
AcDbLine
 10
1012.9239745047
 20
3142.5763467528
 30
0.0
 11
1012.9239745047
 21
3182.5763467528
 31
0.0
  0
SOLID
  5
9A
100
AcDbEntity
  8
____
  6
CONTINUOUS
 62
         4
100
AcDbTrace
 10
1012.9239745047
 20
3142.5763467528
 30
0.0
 11
1012.5189745047
 21
3145.2763467528
 31
0.0
 12
1013.3289745047
 22
3145.2763467528
 32
0.0
 13
1012.9239745047
 23
3142.5763467528
 33
0.0
  0
SOLID
  5
9B
100
AcDbEntity
  8
____
  6
CONTINUOUS
 62
         4
100
AcDbTrace
 10
1012.9239745047
 20
3182.5763467528
 30
0.0
 11
1013.3289745047
 21
3179.8763467528
 31
0.0
 12
1012.5189745047
 22
3179.8763467528
 32
0.0
 13
1012.9239745047
 23
3182.5763467528
 33
0.0
  0
TEXT
  5
9D
100
AcDbEntity
  8
____
  6
CONTINUOUS
 62
         4
100
AcDbText
 10
1010.8989745047
 20
3155.2352912018
 30
0.0
 40
2.7
  1
崷40
 50
90.0
  7
BOX
100
AcDbText
  0
ENDBLK
  5
9E
100
AcDbEntity
  8
0
  6
CONTINUOUS
100
AcDbBlockEnd
  0
BLOCK
  5
D5
100
AcDbEntity
  8
0
100
AcDbBlockBegin
  2
*D5
 70
        65
 10
0.0
 20
0.0
 30
0.0
  3
*D5
  1

  0
POINT
  5
D7
100
AcDbEntity
  8
DEFPOINTS
  6
CONTINUOUS
 62
         0
100
AcDbPoint
 10
1026.9523204824
 20
3002.7583707699
 30
0.0
  0
POINT
  5
D8
100
AcDbEntity
  8
DEFPOINTS
  6
CONTINUOUS
 62
         0
100
AcDbPoint
 10
993.4511363617
 20
3002.7583707699
 30
0.0
  0
POINT
  5
D9
100
AcDbEntity
  8
DEFPOINTS
  6
CONTINUOUS
 62
         0
100
AcDbPoint
 10
993.4511363617
 20
2978.9333707699
 30
0.0
  0
LINE
  5
DA
100
AcDbEntity
  8
____
  6
CONTINUOUS
 62
         4
100
AcDbLine
 10
994.8011363617
 20
3002.7583707699
 30
0.0
 11
1027.6273204824
 21
3002.7583707699
 31
0.0
  0
LINE
  5
DB
100
AcDbEntity
  8
____
  6
CONTINUOUS
 62
         4
100
AcDbLine
 10
994.8011363617
 20
2978.9333707699
 30
0.0
 11
1027.6273204824
 21
2978.9333707699
 31
0.0
  0
LINE
  5
DC
100
AcDbEntity
  8
____
  6
CONTINUOUS
 62
         4
100
AcDbLine
 10
1026.9523204824
 20
3002.7583707699
 30
0.0
 11
1026.9523204824
 21
2978.9333707699
 31
0.0
  0
SOLID
  5
DD
100
AcDbEntity
  8
____
  6
CONTINUOUS
 62
         4
100
AcDbTrace
 10
1026.9523204824
 20
3002.7583707699
 30
0.0
 11
1027.3573204824
 21
3000.0583707699
 31
0.0
 12
1026.5473204824
 22
3000.0583707699
 32
0.0
 13
1026.9523204824
 23
3002.7583707699
 33
0.0
  0
SOLID
  5
DE
100
AcDbEntity
  8
____
  6
CONTINUOUS
 62
         4
100
AcDbTrace
 10
1026.9523204824
 20
2978.9333707699
 30
0.0
 11
1026.5473204824
 21
2981.6333707699
 31
0.0
 12
1027.3573204824
 22
2981.6333707699
 32
0.0
 13
1026.9523204824
 23
2978.9333707699
 33
0.0
  0
TEXT
  5
E0
100
AcDbEntity
  8
____
  6
CONTINUOUS
 62
         4
100
AcDbText
 10
1024.9273204824
 20
2980.6127737386
 30
0.0
 40
2.7
  1
崷23.825
 50
90.0
  7
BOX
100
AcDbText
  0
ENDBLK
  5
E1
100
AcDbEntity
  8
0
  6
CONTINUOUS
100
AcDbBlockEnd
  0
BLOCK
  5
E5
100
AcDbEntity
  8
0
100
AcDbBlockBegin
  2
*D6
 70
        65
 10
0.0
 20
0.0
 30
0.0
  3
*D6
  1

  0
POINT
  5
E7
100
AcDbEntity
  8
DEFPOINTS
  6
CONTINUOUS
 62
         0
100
AcDbPoint
 10
909.4511363617
 20
3031.3333534958
 30
0.0
  0
POINT
  5
E8
100
AcDbEntity
  8
DEFPOINTS
  6
CONTINUOUS
 62
         0
100
AcDbPoint
 10
909.4511363617
 20
3000.4511986459
 30
0.0
  0
POINT
  5
E9
100
AcDbEntity
  8
DEFPOINTS
  6
CONTINUOUS
 62
         0
100
AcDbPoint
 10
993.4511363617
 20
3008.8458707699
 30
0.0
  0
LINE
  5
EA
100
AcDbEntity
  8
____
  6
CONTINUOUS
 62
         4
100
AcDbLine
 10
909.4511363617
 20
3001.8011986459
 30
0.0
 11
909.4511363617
 21
3032.0083534958
 31
0.0
  0
LINE
  5
EB
100
AcDbEntity
  8
____
  6
CONTINUOUS
 62
         4
100
AcDbLine
 10
993.4511363617
 20
3010.1958707699
 30
0.0
 11
993.4511363617
 21
3032.0083534958
 31
0.0
  0
LINE
  5
EC
100
AcDbEntity
  8
____
  6
CONTINUOUS
 62
         4
100
AcDbLine
 10
909.4511363617
 20
3031.3333534958
 30
0.0
 11
993.4511363617
 21
3031.3333534958
 31
0.0
  0
SOLID
  5
ED
100
AcDbEntity
  8
____
  6
CONTINUOUS
 62
         4
100
AcDbTrace
 10
909.4511363617
 20
3031.3333534958
 30
0.0
 11
912.1511363617
 21
3031.7383534958
 31
0.0
 12
912.1511363617
 22
3030.9283534958
 32
0.0
 13
909.4511363617
 23
3031.3333534958
 33
0.0
  0
SOLID
  5
EE
100
AcDbEntity
  8
____
  6
CONTINUOUS
 62
         4
100
AcDbTrace
 10
993.4511363617
 20
3031.3333534958
 30
0.0
 11
990.7511363617
 21
3030.9283534958
 31
0.0
 12
990.7511363617
 22
3031.7383534958
 32
0.0
 13
993.4511363617
 23
3031.3333534958
 33
0.0
  0
TEXT
  5
F0
100
AcDbEntity
  8
____
  6
CONTINUOUS
 62
         4
100
AcDbText
 10
946.936658897
 20
3033.3583534958
 30
0.0
 40
2.7
  1
84 
  7
BOX
100
AcDbText
  0
ENDBLK
  5
F1
100
AcDbEntity
  8
0
  6
CONTINUOUS
100
AcDbBlockEnd
  0
BLOCK
  5
F7
100
AcDbEntity
  8
0
100
AcDbBlockBegin
  2
*D7
 70
        65
 10
0.0
 20
0.0
 30
0.0
  3
*D7
  1

  0
POINT
  5
F9
100
AcDbEntity
  8
DEFPOINTS
  6
CONTINUOUS
 62
         0
100
AcDbPoint
 10
921.4511363617
 20
2980.7405428939
 30
0.0
  0
POINT
  5
FA
100
AcDbEntity
  8
DEFPOINTS
  6
CONTINUOUS
 62
         0
100
AcDbPoint
 10
936.296042236
 20
2980.7405428939
 30
0.0
  0
POINT
  5
FB
100
AcDbEntity
  8
DEFPOINTS
  6
CONTINUOUS
 62
         0
100
AcDbPoint
 10
921.4511363617
 20
2980.7405428939
 30
0.0
  0
POINT
  5
FC
100
AcDbEntity
  8
DEFPOINTS
  6
CONTINUOUS
 62
         0
100
AcDbPoint
 10
952.4511363617
 20
2979.9624548961
 30
0.0
  0
LINE
  5
FD
100
AcDbEntity
  8
____
  6
CONTINUOUS
 62
         4
100
AcDbLine
 10
953.8007113188
 20
2979.9285810871
 30
0.0
 11
1042.0029201096
 21
2977.7147397954
 31
0.0
  0
LINE
  5
FE
100
AcDbEntity
  8
____
  6
CONTINUOUS
 62
         4
100
AcDbLine
 10
937.646042236
 20
2980.7405428939
 30
0.0
 11
1042.040887374
 21
2980.7405428939
 31
0.0
  0
ARC
  5
FF
100
AcDbEntity
  8
____
  6
CONTINUOUS
 62
         4
100
AcDbCircle
 10
921.4511363617
 20
2980.7405428939
 30
0.0
 40
119.9147510123
100
AcDbArc
 50
357.7311975904
 51
358.5622
  0
SOLID
  5
100
100
AcDbEntity
  8
____
  6
CONTINUOUS
 62
         4
100
AcDbTrace
 10
1041.328132631
 20
2977.7316766999
 30
0.0
 11
1041.6347359969
 21
2975.0187411356
 31
0.0
 12
1040.8252711356
 22
2975.048179855
 32
0.0
 13
1041.328132631
 23
2977.7316766999
 33
0.0
  0
ARC
  5
101
100
AcDbEntity
  8
____
  6
CONTINUOUS
 62
         4
100
AcDbCircle
 10
921.4511363617
 20
2980.7405428939
 30
0.0
 40
119.9147510123
100
AcDbArc
 50
0.0
 51
2.5801430329
  0
SOLID
  5
102
100
AcDbEntity
  8
____
  6
CONTINUOUS
 62
         4
100
AcDbTrace
 10
1041.365887374
 20
2980.7405428939
 30
0.0
 11
1040.9305177281
 21
2983.4358125041
 31
0.0
 12
1041.7404664001
 22
2983.444931097
 32
0.0
 13
1041.365887374
 23
2980.7405428939
 33
0.0
  0
ARC
  5
103
100
AcDbEntity
  8
____
  6
CONTINUOUS
 62
         4
100
AcDbCircle
 10
921.4511363617
 20
2980.7405428939
 30
0.0
 40
119.9147510123
100
AcDbArc
 50
358.5622
 51
360.0
  0
SOLID
  5
104
100
AcDbEntity
  8
____
  6
CONTINUOUS
 62
         4
100
AcDbTrace
 10
921.4511363617
 20
2980.7405428939
 30
0.0
 11
922.524889804
 21
2983.2507378156
 31
0.0
 12
923.2141216589
 22
2982.8252270047
 32
0.0
 13
921.4511363617
 23
2980.7405428939
 33
0.0
  0
TEXT
  5
106
100
AcDbEntity
  8
____
  6
CONTINUOUS
 62
         4
100
AcDbText
 10
1042.7141300631
 20
2977.339736161
 30
0.0
 40
2.7
  1
1%%d 26'16"
  7
BOX
100
AcDbText
  0
ENDBLK
  5
107
100
AcDbEntity
  8
0
  6
CONTINUOUS
100
AcDbBlockEnd
  0
BLOCK
  5
109
100
AcDbEntity
  8
0
100
AcDbBlockBegin
  2
*D8
 70
        65
 10
0.0
 20
0.0
 30
0.0
  3
*D8
  1

  0
POINT
  5
10B
100
AcDbEntity
  8
DEFPOINTS
  6
CONTINUOUS
 62
         0
100
AcDbPoint
 10
915.4511363617
 20
2957.6830127026
 30
0.0
  0
POINT
  5
10C
100
AcDbEntity
  8
DEFPOINTS
  6
CONTINUOUS
 62
         0
100
AcDbPoint
 10
915.4511363617
 20
2990.8458707699
 30
0.0
  0
POINT
  5
10D
100
AcDbEntity
  8
DEFPOINTS
  6
CONTINUOUS
 62
         0
100
AcDbPoint
 10
993.4511363617
 20
2972.8458707699
 30
0.0
  0
LINE
  5
10E
100
AcDbEntity
  8
____
  6
CONTINUOUS
 62
         4
100
AcDbLine
 10
915.4511363617
 20
2989.4958707699
 30
0.0
 11
915.4511363617
 21
2957.0080127026
 31
0.0
  0
LINE
  5
10F
100
AcDbEntity
  8
____
  6
CONTINUOUS
 62
         4
100
AcDbLine
 10
993.4511363617
 20
2971.4958707699
 30
0.0
 11
993.4511363617
 21
2957.0080127026
 31
0.0
  0
LINE
  5
110
100
AcDbEntity
  8
____
  6
CONTINUOUS
 62
         4
100
AcDbLine
 10
915.4511363617
 20
2957.6830127026
 30
0.0
 11
993.4511363617
 21
2957.6830127026
 31
0.0
  0
SOLID
  5
111
100
AcDbEntity
  8
____
  6
CONTINUOUS
 62
         4
100
AcDbTrace
 10
915.4511363617
 20
2957.6830127026
 30
0.0
 11
918.1511363617
 21
2958.0880127026
 31
0.0
 12
918.1511363617
 22
2957.2780127026
 32
0.0
 13
915.4511363617
 23
2957.6830127026
 33
0.0
  0
SOLID
  5
112
100
AcDbEntity
  8
____
  6
CONTINUOUS
 62
         4
100
AcDbTrace
 10
993.4511363617
 20
2957.6830127026
 30
0.0
 11
990.7511363617
 21
2957.2780127026
 31
0.0
 12
990.7511363617
 22
2958.0880127026
 32
0.0
 13
993.4511363617
 23
2957.6830127026
 33
0.0
  0
TEXT
  5
114
100
AcDbEntity
  8
____
  6
CONTINUOUS
 62
         4
100
AcDbText
 10
947.496190376
 20
2959.7080127026
 30
0.0
 40
2.7
  1
78
  7
BOX
100
AcDbText
  0
ENDBLK
  5
115
100
AcDbEntity
  8
0
  6
CONTINUOUS
100
AcDbBlockEnd
  0
BLOCK
  5
117
100
AcDbEntity
  8
0
100
AcDbBlockBegin
  2
*D9
 70
        65
 10
0.0
 20
0.0
 30
0.0
  3
*D9
  1

  0
POINT
  5
119
100
AcDbEntity
  8
DEFPOINTS
  6
CONTINUOUS
 62
         0
100
AcDbPoint
 10
888.4511363617
 20
2957.6830127026
 30
0.0
  0
POINT
  5
11A
100
AcDbEntity
  8
DEFPOINTS
  6
CONTINUOUS
 62
         0
100
AcDbPoint
 10
888.4511363617
 20
2990.8458707699
 30
0.0
  0
POINT
  5
11B
100
AcDbEntity
  8
DEFPOINTS
  6
CONTINUOUS
 62
         0
100
AcDbPoint
 10
915.4511363617
 20
2990.8458707699
 30
0.0
  0
LINE
  5
11C
100
AcDbEntity
  8
____
  6
CONTINUOUS
 62
         4
100
AcDbLine
 10
888.4511363617
 20
2989.4958707699
 30
0.0
 11
888.4511363617
 21
2957.0080127026
 31
0.0
  0
LINE
  5
11D
100
AcDbEntity
  8
____
  6
CONTINUOUS
 62
         4
100
AcDbLine
 10
915.4511363617
 20
2989.4958707699
 30
0.0
 11
915.4511363617
 21
2957.0080127026
 31
0.0
  0
LINE
  5
11E
100
AcDbEntity
  8
____
  6
CONTINUOUS
 62
         4
100
AcDbLine
 10
888.4511363617
 20
2957.6830127026
 30
0.0
 11
915.4511363617
 21
2957.6830127026
 31
0.0
  0
SOLID
  5
11F
100
AcDbEntity
  8
____
  6
CONTINUOUS
 62
         4
100
AcDbTrace
 10
888.4511363617
 20
2957.6830127026
 30
0.0
 11
891.1511363617
 21
2958.0880127026
 31
0.0
 12
891.1511363617
 22
2957.2780127026
 32
0.0
 13
888.4511363617
 23
2957.6830127026
 33
0.0
  0
SOLID
  5
120
100
AcDbEntity
  8
____
  6
CONTINUOUS
 62
         4
100
AcDbTrace
 10
915.4511363617
 20
2957.6830127026
 30
0.0
 11
912.7511363617
 21
2957.2780127026
 31
0.0
 12
912.7511363617
 22
2958.0880127026
 32
0.0
 13
915.4511363617
 23
2957.6830127026
 33
0.0
  0
TEXT
  5
122
100
AcDbEntity
  8
____
  6
CONTINUOUS
 62
         4
100
AcDbText
 10
899.3588525515
 20
2959.7080127026
 30
0.0
 40
2.7
  1
27
  7
BOX
100
AcDbText
  0
ENDBLK
  5
123
100
AcDbEntity
  8
0
  6
CONTINUOUS
100
AcDbBlockEnd
  0
BLOCK
  5
159
100
AcDbEntity
  8
0
100
AcDbBlockBegin
  2
*D10
 70
        65
 10
0.0
 20
0.0
 30
0.0
  3
*D10
  1

  0
POINT
  5
15B
100
AcDbEntity
  8
DEFPOINTS
  6
CONTINUOUS
 62
         0
100
AcDbPoint
 10
916.2991927852
 20
3178.3363467528
 30
0.0
  0
POINT
  5
15C
100
AcDbEntity
  8
DEFPOINTS
  6
CONTINUOUS
 62
         0
100
AcDbPoint
 10
925.4511363617
 20
3178.3363467528
 30
0.0
  0
POINT
  5
15D
100
AcDbEntity
  8
DEFPOINTS
  6
CONTINUOUS
 62
         0
100
AcDbPoint
 10
925.4511363617
 20
3146.8163467528
 30
0.0
  0
LINE
  5
15E
100
AcDbEntity
  8
____
  6
CONTINUOUS
 62
         4
100
AcDbLine
 10
924.1011363617
 20
3178.3363467528
 30
0.0
 11
915.6241927852
 21
3178.3363467528
 31
0.0
  0
LINE
  5
15F
100
AcDbEntity
  8
____
  6
CONTINUOUS
 62
         4
100
AcDbLine
 10
924.1011363617
 20
3146.8163467528
 30
0.0
 11
915.6241927852
 21
3146.8163467528
 31
0.0
  0
LINE
  5
160
100
AcDbEntity
  8
____
  6
CONTINUOUS
 62
         4
100
AcDbLine
 10
916.2991927852
 20
3178.3363467528
 30
0.0
 11
916.2991927852
 21
3146.8163467528
 31
0.0
  0
SOLID
  5
161
100
AcDbEntity
  8
____
  6
CONTINUOUS
 62
         4
100
AcDbTrace
 10
916.2991927852
 20
3178.3363467528
 30
0.0
 11
916.7041927852
 21
3175.6363467528
 31
0.0
 12
915.8941927852
 22
3175.6363467528
 32
0.0
 13
916.2991927852
 23
3178.3363467528
 33
0.0
  0
SOLID
  5
162
100
AcDbEntity
  8
____
  6
CONTINUOUS
 62
         4
100
AcDbTrace
 10
916.2991927852
 20
3146.8163467528
 30
0.0
 11
915.8941927852
 21
3149.5163467528
 31
0.0
 12
916.7041927852
 22
3149.5163467528
 32
0.0
 13
916.2991927852
 23
3146.8163467528
 33
0.0
  0
TEXT
  5
164
100
AcDbEntity
  8
____
  6
CONTINUOUS
 62
         4
100
AcDbText
 10
914.2741927852
 20
3152.4029356528
 30
0.0
 40
2.7
  1
崷31.52
 50
90.0
  7
BOX
100
AcDbText
  0
ENDBLK
  5
165
100
AcDbEntity
  8
0
  6
CONTINUOUS
100
AcDbBlockEnd
  0
BLOCK
  5
1CE
100
AcDbEntity
  8
0
100
AcDbBlockBegin
  2
*X11
 70
        65
 10
0.0
 20
0.0
 30
0.0
  3
*X11
  1

  0
LINE
  5
1CF
100
AcDbEntity
  8
____
  6
CONTINUOUS
 62
         4
100
AcDbLine
 10
883.9622826125
 20
3069.0958707699
 30
0.0
 11
888.4447497833
 21
3073.5783379407
 31
0.0
  0
LINE
  5
1D0
100
AcDbEntity
  8
____
  6
CONTINUOUS
 62
         4
100
AcDbLine
 10
879.7196419254
 20
3069.0958707699
 30
0.0
 11
886.6051419254
 21
3075.9813707699
 31
0.0
  0
LINE
  5
1D1
100
AcDbEntity
  8
____
  6
CONTINUOUS
 62
         4
100
AcDbLine
 10
875.4770012383
 20
3069.0958707699
 30
0.0
 11
882.3625012383
 21
3075.9813707699
 31
0.0
  0
LINE
  5
1D2
100
AcDbEntity
  8
____
  6
CONTINUOUS
 62
         4
100
AcDbLine
 10
871.2343605511
 20
3069.0958707699
 30
0.0
 11
878.1198605511
 21
3075.9813707699
 31
0.0
  0
LINE
  5
1D3
100
AcDbEntity
  8
____
  6
CONTINUOUS
 62
         4
100
AcDbLine
 10
866.991719864
 20
3069.0958707699
 30
0.0
 11
873.877219864
 21
3075.9813707699
 31
0.0
  0
LINE
  5
1D4
100
AcDbEntity
  8
____
  6
CONTINUOUS
 62
         4
100
AcDbLine
 10
883.606219864
 20
3085.7103707699
 30
0.0
 11
888.4447497833
 21
3090.5489006892
 31
0.0
  0
LINE
  5
1D5
100
AcDbEntity
  8
____
  6
CONTINUOUS
 62
         4
100
AcDbLine
 10
862.7490791769
 20
3069.0958707699
 30
0.0
 11
869.6345791769
 21
3075.9813707699
 31
0.0
  0
LINE
  5
1D6
100
AcDbEntity
  8
____
  6
CONTINUOUS
 62
         4
100
AcDbLine
 10
879.3635791769
 20
3085.7103707699
 30
0.0
 11
886.2490791769
 21
3092.5958707699
 31
0.0
  0
LINE
  5
1D7
100
AcDbEntity
  8
____
  6
CONTINUOUS
 62
         4
100
AcDbLine
 10
858.5064384898
 20
3069.0958707699
 30
0.0
 11
865.3919384898
 21
3075.9813707699
 31
0.0
  0
LINE
  5
1D8
100
AcDbEntity
  8
____
  6
CONTINUOUS
 62
         4
100
AcDbLine
 10
875.1209384898
 20
3085.7103707699
 30
0.0
 11
882.0064384898
 21
3092.5958707699
 31
0.0
  0
LINE
  5
1D9
100
AcDbEntity
  8
____
  6
CONTINUOUS
 62
         4
100
AcDbLine
 10
854.2637978027
 20
3069.0958707699
 30
0.0
 11
861.1492978027
 21
3075.9813707699
 31
0.0
  0
LINE
  5
1DA
100
AcDbEntity
  8
____
  6
CONTINUOUS
 62
         4
100
AcDbLine
 10
870.8782978027
 20
3085.7103707699
 30
0.0
 11
877.7637978027
 21
3092.5958707699
 31
0.0
  0
LINE
  5
1DB
100
AcDbEntity
  8
____
  6
CONTINUOUS
 62
         4
100
AcDbLine
 10
849.7211571155
 20
3068.7958707699
 30
0.0
 11
856.9066571156
 21
3075.9813707699
 31
0.0
  0
LINE
  5
1DC
100
AcDbEntity
  8
____
  6
CONTINUOUS
 62
         4
100
AcDbLine
 10
866.6356571155
 20
3085.7103707699
 30
0.0
 11
873.5211571155
 21
3092.5958707699
 31
0.0
  0
LINE
  5
1DD
100
AcDbEntity
  8
____
  6
CONTINUOUS
 62
         4
100
AcDbLine
 10
845.4785164284
 20
3068.7958707699
 30
0.0
 11
852.6640164284
 21
3075.9813707699
 31
0.0
  0
LINE
  5
1DE
100
AcDbEntity
  8
____
  6
CONTINUOUS
 62
         4
100
AcDbLine
 10
862.3930164284
 20
3085.7103707699
 30
0.0
 11
869.2785164284
 21
3092.5958707699
 31
0.0
  0
LINE
  5
1DF
100
AcDbEntity
  8
____
  6
CONTINUOUS
 62
         4
100
AcDbLine
 10
841.2358757413
 20
3068.7958707699
 30
0.0
 11
848.4213757413
 21
3075.9813707699
 31
0.0
  0
LINE
  5
1E0
100
AcDbEntity
  8
____
  6
CONTINUOUS
 62
         4
100
AcDbLine
 10
858.1503757413
 20
3085.7103707699
 30
0.0
 11
865.0358757413
 21
3092.5958707699
 31
0.0
  0
LINE
  5
1E1
100
AcDbEntity
  8
____
  6
CONTINUOUS
 62
         4
100
AcDbLine
 10
836.9932350542
 20
3068.7958707699
 30
0.0
 11
844.1787350542
 21
3075.9813707699
 31
0.0
  0
LINE
  5
1E2
100
AcDbEntity
  8
____
  6
CONTINUOUS
 62
         4
100
AcDbLine
 10
853.9077350542
 20
3085.7103707699
 30
0.0
 11
860.7932350542
 21
3092.5958707699
 31
0.0
  0
LINE
  5
1E3
100
AcDbEntity
  8
____
  6
CONTINUOUS
 62
         4
100
AcDbLine
 10
832.7505943671
 20
3068.7958707699
 30
0.0
 11
839.9360943671
 21
3075.9813707699
 31
0.0
  0
LINE
  5
1E4
100
AcDbEntity
  8
____
  6
CONTINUOUS
 62
         4
100
AcDbLine
 10
849.6650943671
 20
3085.7103707699
 30
0.0
 11
856.5505943671
 21
3092.5958707699
 31
0.0
  0
LINE
  5
1E5
100
AcDbEntity
  8
____
  6
CONTINUOUS
 62
         4
100
AcDbLine
 10
828.50795368
 20
3068.7958707699
 30
0.0
 11
835.69345368
 21
3075.9813707699
 31
0.0
  0
LINE
  5
1E6
100
AcDbEntity
  8
____
  6
CONTINUOUS
 62
         4
100
AcDbLine
 10
845.42245368
 20
3085.7103707699
 30
0.0
 11
852.30795368
 21
3092.5958707699
 31
0.0
  0
LINE
  5
1E7
100
AcDbEntity
  8
____
  6
CONTINUOUS
 62
         4
100
AcDbLine
 10
824.2653129928
 20
3068.7958707699
 30
0.0
 11
831.4508129928
 21
3075.9813707699
 31
0.0
  0
LINE
  5
1E8
100
AcDbEntity
  8
____
  6
CONTINUOUS
 62
         4
100
AcDbLine
 10
841.1798129928
 20
3085.7103707699
 30
0.0
 11
848.3653129928
 21
3092.8958707699
 31
0.0
  0
LINE
  5
1E9
100
AcDbEntity
  8
____
  6
CONTINUOUS
 62
         4
100
AcDbLine
 10
822.4511363617
 20
3071.2243348258
 30
0.0
 11
826.0726723057
 21
3074.8458707699
 31
0.0
  0
LINE
  5
1EA
100
AcDbEntity
  8
____
  6
CONTINUOUS
 62
         4
100
AcDbLine
 10
826.4949227957
 20
3075.2681212599
 30
0.0
 11
827.2081723057
 21
3075.9813707699
 31
0.0
  0
LINE
  5
1EB
100
AcDbEntity
  8
____
  6
CONTINUOUS
 62
         4
100
AcDbLine
 10
836.9371723057
 20
3085.7103707699
 30
0.0
 11
844.1226723057
 21
3092.8958707699
 31
0.0
  0
LINE
  5
1EC
100
AcDbEntity
  8
____
  6
CONTINUOUS
 62
         4
100
AcDbLine
 10
832.6945316186
 20
3085.7103707699
 30
0.0
 11
839.8800316186
 21
3092.8958707699
 31
0.0
  0
LINE
  5
1ED
100
AcDbEntity
  8
____
  6
CONTINUOUS
 62
         4
100
AcDbLine
 10
828.4518909315
 20
3085.7103707699
 30
0.0
 11
835.6373909315
 21
3092.8958707699
 31
0.0
  0
LINE
  5
1EE
100
AcDbEntity
  8
____
  6
CONTINUOUS
 62
         4
100
AcDbLine
 10
825.3447502444
 20
3086.8458707699
 30
0.0
 11
831.3947502444
 21
3092.8958707699
 31
0.0
  0
LINE
  5
1EF
100
AcDbEntity
  8
____
  6
CONTINUOUS
 62
         4
100
AcDbLine
 10
822.4511363617
 20
3088.1948975743
 30
0.0
 11
827.1521095572
 21
3092.8958707699
 31
0.0
  0
ENDBLK
  5
1F0
100
AcDbEntity
  8
0
  6
CONTINUOUS
100
AcDbBlockEnd
  0
BLOCK
  5
239
100
AcDbEntity
  8
0
100
AcDbBlockBegin
  2
*X12
 70
        65
 10
0.0
 20
0.0
 30
0.0
  3
*X12
  1

  0
LINE
  5
23A
100
AcDbEntity
  8
____
  6
CONTINUOUS
 62
         4
100
AcDbLine
 10
991.5409593265
 20
2970.8478888293
 30
0.0
 11
993.4491183023
 21
2972.7560478051
 31
0.0
  0
LINE
  5
23B
100
AcDbEntity
  8
____
  6
CONTINUOUS
 62
         4
100
AcDbLine
 10
987.29630058
 20
2970.8458707699
 30
0.0
 11
993.4511363617
 21
2977.0007065516
 31
0.0
  0
LINE
  5
23C
100
AcDbEntity
  8
____
  6
CONTINUOUS
 62
         4
100
AcDbLine
 10
983.0536598929
 20
2970.8458707699
 30
0.0
 11
991.1977197767
 21
2978.9899306537
 31
0.0
  0
LINE
  5
23D
100
AcDbEntity
  8
____
  6
CONTINUOUS
 62
         4
100
AcDbLine
 10
978.8110192057
 20
2970.8458707699
 30
0.0
 11
987.0589603488
 21
2979.093811913
 31
0.0
  0
LINE
  5
23E
100
AcDbEntity
  8
____
  6
CONTINUOUS
 62
         4
100
AcDbLine
 10
974.5683785186
 20
2970.8458707699
 30
0.0
 11
982.920200921
 21
2979.1976931722
 31
0.0
  0
LINE
  5
23F
100
AcDbEntity
  8
____
  6
CONTINUOUS
 62
         4
100
AcDbLine
 10
970.3257378315
 20
2970.8458707699
 30
0.0
 11
978.7814414931
 21
2979.3015744315
 31
0.0
  0
LINE
  5
240
100
AcDbEntity
  8
____
  6
CONTINUOUS
 62
         4
100
AcDbLine
 10
966.0830971444
 20
2970.8458707699
 30
0.0
 11
974.6426820652
 21
2979.4054556907
 31
0.0
  0
LINE
  5
241
100
AcDbEntity
  8
____
  6
CONTINUOUS
 62
         4
100
AcDbLine
 10
961.8404564573
 20
2970.8458707699
 30
0.0
 11
970.5039226373
 21
2979.50933695
 31
0.0
  0
LINE
  5
242
100
AcDbEntity
  8
____
  6
CONTINUOUS
 62
         4
100
AcDbLine
 10
957.5978157701
 20
2970.8458707699
 30
0.0
 11
966.3651632095
 21
2979.6132182092
 31
0.0
  0
LINE
  5
243
100
AcDbEntity
  8
____
  6
CONTINUOUS
 62
         4
100
AcDbLine
 10
989.4088561006
 20
3002.6569111004
 30
0.0
 11
993.4511363617
 21
3006.6991913614
 31
0.0
  0
LINE
  5
244
100
AcDbEntity
  8
____
  6
CONTINUOUS
 62
         4
100
AcDbLine
 10
953.355175083
 20
2970.8458707699
 30
0.0
 11
962.2264037816
 21
2979.7170994685
 31
0.0
  0
LINE
  5
245
100
AcDbEntity
  8
____
  6
CONTINUOUS
 62
         4
100
AcDbLine
 10
985.0569851372
 20
3002.5476808241
 30
0.0
 11
992.8165551203
 21
3010.3072508072
 31
0.0
  0
LINE
  5
246
100
AcDbEntity
  8
____
  6
CONTINUOUS
 62
         4
100
AcDbLine
 10
949.1125343959
 20
2970.8458707699
 30
0.0
 11
958.0876443537
 21
2979.8209807277
 31
0.0
  0
LINE
  5
247
100
AcDbEntity
  8
____
  6
CONTINUOUS
 62
         4
100
AcDbLine
 10
980.7051141738
 20
3002.4384505478
 30
0.0
 11
989.1125343959
 21
3010.8458707699
 31
0.0
  0
LINE
  5
248
100
AcDbEntity
  8
____
  6
CONTINUOUS
 62
         4
100
AcDbLine
 10
944.8698937088
 20
2970.8458707699
 30
0.0
 11
953.9488849259
 21
2979.924861987
 31
0.0
  0
LINE
  5
249
100
AcDbEntity
  8
____
  6
CONTINUOUS
 62
         4
100
AcDbLine
 10
976.3532432104
 20
3002.3292202715
 30
0.0
 11
984.8698937088
 21
3010.8458707699
 31
0.0
  0
LINE
  5
24A
100
AcDbEntity
  8
____
  6
CONTINUOUS
 62
         4
100
AcDbLine
 10
940.6272530217
 20
2970.8458707699
 30
0.0
 11
949.810125498
 21
2980.0287432462
 31
0.0
  0
LINE
  5
24B
100
AcDbEntity
  8
____
  6
CONTINUOUS
 62
         4
100
AcDbLine
 10
972.001372247
 20
3002.2199899952
 30
0.0
 11
980.6272530217
 21
3010.8458707699
 31
0.0
  0
LINE
  5
24C
100
AcDbEntity
  8
____
  6
CONTINUOUS
 62
         4
100
AcDbLine
 10
936.3846123345
 20
2970.8458707699
 30
0.0
 11
945.6713660701
 21
2980.1326245055
 31
0.0
  0
LINE
  5
24D
100
AcDbEntity
  8
____
  6
CONTINUOUS
 62
         4
100
AcDbLine
 10
967.6495012836
 20
3002.110759719
 30
0.0
 11
976.3846123345
 21
3010.8458707699
 31
0.0
  0
LINE
  5
24E
100
AcDbEntity
  8
____
  6
CONTINUOUS
 62
         4
100
AcDbLine
 10
932.1419716474
 20
2970.8458707699
 30
0.0
 11
941.5326066423
 21
2980.2365057647
 31
0.0
  0
LINE
  5
24F
100
AcDbEntity
  8
____
  6
CONTINUOUS
 62
         4
100
AcDbLine
 10
963.2976303202
 20
3002.0015294427
 30
0.0
 11
972.1419716474
 21
3010.8458707699
 31
0.0
  0
LINE
  5
250
100
AcDbEntity
  8
____
  6
CONTINUOUS
 62
         4
100
AcDbLine
 10
928.7881944763
 20
2971.7347342859
 30
0.0
 11
937.3938472144
 21
2980.340387024
 31
0.0
  0
LINE
  5
251
100
AcDbEntity
  8
____
  6
CONTINUOUS
 62
         4
100
AcDbLine
 10
958.9457593568
 20
3001.8922991664
 30
0.0
 11
967.8993309603
 21
3010.8458707699
 31
0.0
  0
LINE
  5
252
100
AcDbEntity
  8
____
  6
CONTINUOUS
 62
         4
100
AcDbLine
 10
927.8331845311
 20
2975.0223650278
 30
0.0
 11
933.2550877865
 21
2980.4442682832
 31
0.0
  0
LINE
  5
253
100
AcDbEntity
  8
____
  6
CONTINUOUS
 62
         4
100
AcDbLine
 10
954.5938883934
 20
3001.7830688901
 30
0.0
 11
963.6566902732
 21
3010.8458707699
 31
0.0
  0
LINE
  5
254
100
AcDbEntity
  8
____
  6
CONTINUOUS
 62
         4
100
AcDbLine
 10
923.7471033213
 20
2975.1789245051
 30
0.0
 11
929.1163283587
 21
2980.5481495425
 31
0.0
  0
LINE
  5
255
100
AcDbEntity
  8
____
  6
CONTINUOUS
 62
         4
100
AcDbLine
 10
950.24201743
 20
3001.6738386138
 30
0.0
 11
959.4140495861
 21
3010.8458707699
 31
0.0
  0
LINE
  5
256
100
AcDbEntity
  8
____
  6
CONTINUOUS
 62
         4
100
AcDbLine
 10
920.0515287596
 20
2975.7259906306
 30
0.0
 11
924.566081023
 21
2980.2405428939
 31
0.0
  0
LINE
  5
257
100
AcDbEntity
  8
____
  6
CONTINUOUS
 62
         4
100
AcDbLine
 10
945.8901464666
 20
3001.5646083375
 30
0.0
 11
955.1714088989
 21
3010.8458707699
 31
0.0
  0
LINE
  5
258
100
AcDbEntity
  8
____
  6
CONTINUOUS
 62
         4
100
AcDbLine
 10
916.355954198
 20
2976.273056756
 30
0.0
 11
920.3234403358
 21
2980.2405428939
 31
0.0
  0
LINE
  5
259
100
AcDbEntity
  8
____
  6
CONTINUOUS
 62
         4
100
AcDbLine
 10
941.5382755032
 20
3001.4553780613
 30
0.0
 11
950.9287682118
 21
3010.8458707699
 31
0.0
  0
LINE
  5
25A
100
AcDbEntity
  8
____
  6
CONTINUOUS
 62
         4
100
AcDbLine
 10
912.6603796363
 20
2976.8201228815
 30
0.0
 11
916.0807996487
 21
2980.2405428939
 31
0.0
  0
LINE
  5
25B
100
AcDbEntity
  8
____
  6
CONTINUOUS
 62
         4
100
AcDbLine
 10
937.1864045398
 20
3001.346147785
 30
0.0
 11
946.6861275247
 21
3010.8458707699
 31
0.0
  0
LINE
  5
25C
100
AcDbEntity
  8
____
  6
CONTINUOUS
 62
         4
100
AcDbLine
 10
908.9648050747
 20
2977.367189007
 30
0.0
 11
911.8381589616
 21
2980.2405428939
 31
0.0
  0
LINE
  5
25D
100
AcDbEntity
  8
____
  6
CONTINUOUS
 62
         4
100
AcDbLine
 10
932.8345335764
 20
3001.2369175087
 30
0.0
 11
942.4434868376
 21
3010.8458707699
 31
0.0
  0
LINE
  5
25E
100
AcDbEntity
  8
____
  6
CONTINUOUS
 62
         4
100
AcDbLine
 10
905.2692305131
 20
2977.9142551325
 30
0.0
 11
909.4511363617
 21
2982.0961609811
 31
0.0
  0
LINE
  5
25F
100
AcDbEntity
  8
____
  6
CONTINUOUS
 62
         4
100
AcDbLine
 10
928.482662613
 20
3001.1276872324
 30
0.0
 11
938.2008461505
 21
3010.8458707699
 31
0.0
  0
LINE
  5
260
100
AcDbEntity
  8
____
  6
CONTINUOUS
 62
         4
100
AcDbLine
 10
901.5736559514
 20
2978.4613212579
 30
0.0
 11
907.7082054634
 21
2984.5958707699
 31
0.0
  0
LINE
  5
261
100
AcDbEntity
  8
____
  6
CONTINUOUS
 62
         4
100
AcDbLine
 10
924.5635333393
 20
3001.4511986459
 30
0.0
 11
933.9582054634
 21
3010.8458707699
 31
0.0
  0
LINE
  5
262
100
AcDbEntity
  8
____
  6
CONTINUOUS
 62
         4
100
AcDbLine
 10
897.9655647762
 20
2979.0958707699
 30
0.0
 11
903.4655647762
 21
2984.5958707699
 31
0.0
  0
LINE
  5
263
100
AcDbEntity
  8
____
  6
CONTINUOUS
 62
         4
100
AcDbLine
 10
920.3208926522
 20
3001.4511986459
 30
0.0
 11
925.666669773
 21
3006.7969757667
 31
0.0
  0
LINE
  5
264
100
AcDbEntity
  8
____
  6
CONTINUOUS
 62
         4
100
AcDbLine
 10
928.723959382
 20
3009.8542653757
 30
0.0
 11
929.4427417559
 21
3010.5730477495
 31
0.0
  0
LINE
  5
265
100
AcDbEntity
  8
____
  6
CONTINUOUS
 62
         4
100
AcDbLine
 10
893.7229240891
 20
2979.0958707699
 30
0.0
 11
899.2229240891
 21
2984.5958707699
 31
0.0
  0
LINE
  5
266
100
AcDbEntity
  8
____
  6
CONTINUOUS
 62
         4
100
AcDbLine
 10
916.0782519651
 20
3001.4511986459
 30
0.0
 11
920.686853039
 21
3006.0597997198
 31
0.0
  0
LINE
  5
267
100
AcDbEntity
  8
____
  6
CONTINUOUS
 62
         4
100
AcDbLine
 10
889.480283402
 20
2979.0958707699
 30
0.0
 11
894.980283402
 21
2984.5958707699
 31
0.0
  0
LINE
  5
268
100
AcDbEntity
  8
____
  6
CONTINUOUS
 62
         4
100
AcDbLine
 10
907.480283402
 20
2997.0958707699
 30
0.0
 11
909.4511363617
 21
2999.0667237296
 31
0.0
  0
LINE
  5
269
100
AcDbEntity
  8
____
  6
CONTINUOUS
 62
         4
100
AcDbLine
 10
911.835611278
 20
3001.4511986459
 30
0.0
 11
915.707036305
 21
3005.3226236729
 31
0.0
  0
LINE
  5
26A
100
AcDbEntity
  8
____
  6
CONTINUOUS
 62
         4
100
AcDbLine
 10
885.2376427149
 20
2979.0958707699
 30
0.0
 11
890.7376427149
 21
2984.5958707699
 31
0.0
  0
LINE
  5
26B
100
AcDbEntity
  8
____
  6
CONTINUOUS
 62
         4
100
AcDbLine
 10
903.2376427149
 20
2997.0958707699
 30
0.0
 11
910.7272195711
 21
3004.5854476261
 31
0.0
  0
LINE
  5
26C
100
AcDbEntity
  8
____
  6
CONTINUOUS
 62
         4
100
AcDbLine
 10
880.9950020278
 20
2979.0958707699
 30
0.0
 11
887.101166906
 21
2985.2020356482
 31
0.0
  0
LINE
  5
26D
100
AcDbEntity
  8
____
  6
CONTINUOUS
 62
         4
100
AcDbLine
 10
898.9950020278
 20
2997.0958707699
 30
0.0
 11
905.7474028371
 21
3003.8482715792
 31
0.0
  0
LINE
  5
26E
100
AcDbEntity
  8
____
  6
CONTINUOUS
 62
         4
100
AcDbLine
 10
876.7523613406
 20
2979.0958707699
 30
0.0
 11
883.6378613406
 21
2985.9813707699
 31
0.0
  0
LINE
  5
26F
100
AcDbEntity
  8
____
  6
CONTINUOUS
 62
         4
100
AcDbLine
 10
894.7523613406
 20
2997.0958707699
 30
0.0
 11
900.2523613406
 21
3002.5958707699
 31
0.0
  0
LINE
  5
270
100
AcDbEntity
  8
____
  6
CONTINUOUS
 62
         4
100
AcDbLine
 10
900.4511363617
 20
3002.7946457909
 30
0.0
 11
900.7675861031
 21
3003.1110955323
 31
0.0
  0
LINE
  5
271
100
AcDbEntity
  8
____
  6
CONTINUOUS
 62
         4
100
AcDbLine
 10
872.5097206535
 20
2979.0958707699
 30
0.0
 11
879.3952206535
 21
2985.9813707699
 31
0.0
  0
LINE
  5
272
100
AcDbEntity
  8
____
  6
CONTINUOUS
 62
         4
100
AcDbLine
 10
890.5097206535
 20
2997.0958707699
 30
0.0
 11
894.9526705812
 21
3001.5388206975
 31
0.0
  0
LINE
  5
273
100
AcDbEntity
  8
____
  6
CONTINUOUS
 62
         4
100
AcDbLine
 10
868.2670799664
 20
2979.0958707699
 30
0.0
 11
875.1525799664
 21
2985.9813707699
 31
0.0
  0
LINE
  5
274
100
AcDbEntity
  8
____
  6
CONTINUOUS
 62
         4
100
AcDbLine
 10
884.8815799664
 20
2995.7103707699
 30
0.0
 11
890.4670799664
 21
3001.2958707699
 31
0.0
  0
LINE
  5
275
100
AcDbEntity
  8
____
  6
CONTINUOUS
 62
         4
100
AcDbLine
 10
864.0244392793
 20
2979.0958707699
 30
0.0
 11
870.9099392793
 21
2985.9813707699
 31
0.0
  0
LINE
  5
276
100
AcDbEntity
  8
____
  6
CONTINUOUS
 62
         4
100
AcDbLine
 10
880.6389392793
 20
2995.7103707699
 30
0.0
 11
886.2244392793
 21
3001.2958707699
 31
0.0
  0
LINE
  5
277
100
AcDbEntity
  8
____
  6
CONTINUOUS
 62
         4
100
AcDbLine
 10
859.7817985922
 20
2979.0958707699
 30
0.0
 11
866.6672985922
 21
2985.9813707699
 31
0.0
  0
LINE
  5
278
100
AcDbEntity
  8
____
  6
CONTINUOUS
 62
         4
100
AcDbLine
 10
876.3962985922
 20
2995.7103707699
 30
0.0
 11
881.9817985922
 21
3001.2958707699
 31
0.0
  0
LINE
  5
279
100
AcDbEntity
  8
____
  6
CONTINUOUS
 62
         4
100
AcDbLine
 10
855.539157905
 20
2979.0958707699
 30
0.0
 11
862.424657905
 21
2985.9813707699
 31
0.0
  0
LINE
  5
27A
100
AcDbEntity
  8
____
  6
CONTINUOUS
 62
         4
100
AcDbLine
 10
872.153657905
 20
2995.7103707699
 30
0.0
 11
877.739157905
 21
3001.2958707699
 31
0.0
  0
LINE
  5
27B
100
AcDbEntity
  8
____
  6
CONTINUOUS
 62
         4
100
AcDbLine
 10
851.2965172179
 20
2979.0958707699
 30
0.0
 11
858.1820172179
 21
2985.9813707699
 31
0.0
  0
LINE
  5
27C
100
AcDbEntity
  8
____
  6
CONTINUOUS
 62
         4
100
AcDbLine
 10
867.9110172179
 20
2995.7103707699
 30
0.0
 11
873.4965172179
 21
3001.2958707699
 31
0.0
  0
LINE
  5
27D
100
AcDbEntity
  8
____
  6
CONTINUOUS
 62
         4
100
AcDbLine
 10
846.7538765308
 20
2978.7958707699
 30
0.0
 11
853.9393765308
 21
2985.9813707699
 31
0.0
  0
LINE
  5
27E
100
AcDbEntity
  8
____
  6
CONTINUOUS
 62
         4
100
AcDbLine
 10
863.6683765308
 20
2995.7103707699
 30
0.0
 11
869.2538765308
 21
3001.2958707699
 31
0.0
  0
LINE
  5
27F
100
AcDbEntity
  8
____
  6
CONTINUOUS
 62
         4
100
AcDbLine
 10
842.5112358437
 20
2978.7958707699
 30
0.0
 11
849.6967358437
 21
2985.9813707699
 31
0.0
  0
LINE
  5
280
100
AcDbEntity
  8
____
  6
CONTINUOUS
 62
         4
100
AcDbLine
 10
859.4257358437
 20
2995.7103707699
 30
0.0
 11
865.0112358437
 21
3001.2958707699
 31
0.0
  0
LINE
  5
281
100
AcDbEntity
  8
____
  6
CONTINUOUS
 62
         4
100
AcDbLine
 10
838.2685951566
 20
2978.7958707699
 30
0.0
 11
845.4540951566
 21
2985.9813707699
 31
0.0
  0
LINE
  5
282
100
AcDbEntity
  8
____
  6
CONTINUOUS
 62
         4
100
AcDbLine
 10
855.1830951566
 20
2995.7103707699
 30
0.0
 11
860.7685951566
 21
3001.2958707699
 31
0.0
  0
LINE
  5
283
100
AcDbEntity
  8
____
  6
CONTINUOUS
 62
         4
100
AcDbLine
 10
834.0259544694
 20
2978.7958707699
 30
0.0
 11
841.2114544694
 21
2985.9813707699
 31
0.0
  0
LINE
  5
284
100
AcDbEntity
  8
____
  6
CONTINUOUS
 62
         4
100
AcDbLine
 10
850.9404544694
 20
2995.7103707699
 30
0.0
 11
856.5259544694
 21
3001.2958707699
 31
0.0
  0
LINE
  5
285
100
AcDbEntity
  8
____
  6
CONTINUOUS
 62
         4
100
AcDbLine
 10
829.7833137823
 20
2978.7958707699
 30
0.0
 11
836.9688137823
 21
2985.9813707699
 31
0.0
  0
LINE
  5
286
100
AcDbEntity
  8
____
  6
CONTINUOUS
 62
         4
100
AcDbLine
 10
846.6978137823
 20
2995.7103707699
 30
0.0
 11
852.2833137823
 21
3001.2958707699
 31
0.0
  0
LINE
  5
287
100
AcDbEntity
  8
____
  6
CONTINUOUS
 62
         4
100
AcDbLine
 10
825.5406730952
 20
2978.7958707699
 30
0.0
 11
832.7261730952
 21
2985.9813707699
 31
0.0
  0
LINE
  5
288
100
AcDbEntity
  8
____
  6
CONTINUOUS
 62
         4
100
AcDbLine
 10
842.4551730952
 20
2995.7103707699
 30
0.0
 11
848.0406730952
 21
3001.2958707699
 31
0.0
  0
LINE
  5
289
100
AcDbEntity
  8
____
  6
CONTINUOUS
 62
         4
100
AcDbLine
 10
822.4511363617
 20
2979.9489747235
 30
0.0
 11
828.4835324081
 21
2985.9813707699
 31
0.0
  0
LINE
  5
28A
100
AcDbEntity
  8
____
  6
CONTINUOUS
 62
         4
100
AcDbLine
 10
838.2125324081
 20
2995.7103707699
 30
0.0
 11
843.7980324081
 21
3001.2958707699
 31
0.0
  0
LINE
  5
28B
100
AcDbEntity
  8
____
  6
CONTINUOUS
 62
         4
100
AcDbLine
 10
822.5609098591
 20
2984.301388908
 30
0.0
 11
822.9956182235
 21
2984.7360972724
 31
0.0
  0
LINE
  5
28C
100
AcDbEntity
  8
____
  6
CONTINUOUS
 62
         4
100
AcDbLine
 10
833.969891721
 20
2995.7103707699
 30
0.0
 11
839.555391721
 21
3001.2958707699
 31
0.0
  0
LINE
  5
28D
100
AcDbEntity
  8
____
  6
CONTINUOUS
 62
         4
100
AcDbLine
 10
829.7272510338
 20
2995.7103707699
 30
0.0
 11
835.3127510338
 21
3001.2958707699
 31
0.0
  0
LINE
  5
28E
100
AcDbEntity
  8
____
  6
CONTINUOUS
 62
         4
100
AcDbLine
 10
826.3861902135
 20
2996.6119506367
 30
0.0
 11
831.0701103467
 21
3001.2958707699
 31
0.0
  0
LINE
  5
28F
100
AcDbEntity
  8
____
  6
CONTINUOUS
 62
         4
100
AcDbLine
 10
822.7081562099
 20
2997.1765573201
 30
0.0
 11
826.8274696596
 21
3001.2958707699
 31
0.0
  0
LINE
  5
290
100
AcDbEntity
  8
____
  6
CONTINUOUS
 62
         4
100
AcDbLine
 10
822.4511363617
 20
3001.1621781591
 30
0.0
 11
822.5848289725
 21
3001.2958707699
 31
0.0
  0
ENDBLK
  5
291
100
AcDbEntity
  8
0
  6
CONTINUOUS
100
AcDbBlockEnd
  0
BLOCK
  5
295
100
AcDbEntity
  8
0
100
AcDbBlockBegin
  2
*D13
 70
        65
 10
0.0
 20
0.0
 30
0.0
  3
*D13
  1

  0
POINT
  5
297
100
AcDbEntity
  8
DEFPOINTS
  6
CONTINUOUS
 62
         0
100
AcDbPoint
 10
924.4511363617
 20
3200.0096858714
 30
0.0
  0
POINT
  5
298
100
AcDbEntity
  8
DEFPOINTS
  6
CONTINUOUS
 62
         0
100
AcDbPoint
 10
924.4511363617
 20
3178.3363467528
 30
0.0
  0
POINT
  5
299
100
AcDbEntity
  8
DEFPOINTS
  6
CONTINUOUS
 62
         0
100
AcDbPoint
 10
928.4511363617
 20
3178.9546800862
 30
0.0
  0
LINE
  5
29A
100
AcDbEntity
  8
____
  6
CONTINUOUS
 62
         4
100
AcDbLine
 10
924.4511363617
 20
3179.6863467528
 30
0.0
 11
924.4511363617
 21
3200.6846858714
 31
0.0
  0
LINE
  5
29B
100
AcDbEntity
  8
____
  6
CONTINUOUS
 62
         4
100
AcDbLine
 10
928.4511363617
 20
3180.3046800862
 30
0.0
 11
928.4511363617
 21
3200.6846858714
 31
0.0
  0
LINE
  5
29C
100
AcDbEntity
  8
____
  6
CONTINUOUS
 62
         4
100
AcDbLine
 10
924.4511363617
 20
3200.0096858714
 30
0.0
 11
918.1826414189
 21
3200.0096858714
 31
0.0
  0
SOLID
  5
29D
100
AcDbEntity
  8
____
  6
CONTINUOUS
 62
         4
100
AcDbTrace
 10
924.4511363617
 20
3200.0096858714
 30
0.0
 11
921.7511363617
 21
3199.6046858714
 31
0.0
 12
921.7511363617
 22
3200.4146858714
 32
0.0
 13
924.4511363617
 23
3200.0096858714
 33
0.0
  0
LINE
  5
29E
100
AcDbEntity
  8
____
  6
CONTINUOUS
 62
         4
100
AcDbLine
 10
928.4511363617
 20
3200.0096858714
 30
0.0
 11
933.8511363617
 21
3200.0096858714
 31
0.0
  0
SOLID
  5
29F
100
AcDbEntity
  8
____
  6
CONTINUOUS
 62
         4
100
AcDbTrace
 10
928.4511363617
 20
3200.0096858714
 30
0.0
 11
931.1511363617
 21
3200.4146858714
 31
0.0
 12
931.1511363617
 22
3199.6046858714
 32
0.0
 13
928.4511363617
 23
3200.0096858714
 33
0.0
  0
LINE
  5
2A0
100
AcDbEntity
  8
____
  6
CONTINUOUS
 62
         4
100
AcDbLine
 10
924.4511363617
 20
3200.0096858714
 30
0.0
 11
928.4511363617
 21
3200.0096858714
 31
0.0
  0
TEXT
  5
2A2
100
AcDbEntity
  8
____
  6
CONTINUOUS
 62
         4
100
AcDbText
 10
919.5326414189
 20
3202.0346858714
 30
0.0
 40
2.7
  1
3.9
  7
BOX
100
AcDbText
  0
ENDBLK
  5
2A3
100
AcDbEntity
  8
0
  6
CONTINUOUS
100
AcDbBlockEnd
  0
BLOCK
  5
2A5
100
AcDbEntity
  8
0
100
AcDbBlockBegin
  2
*D14
 70
        65
 10
0.0
 20
0.0
 30
0.0
  3
*D14
  1

  0
POINT
  5
2A7
100
AcDbEntity
  8
DEFPOINTS
  6
CONTINUOUS
 62
         0
100
AcDbPoint
 10
883.6613549266
 20
2994.7958707699
 30
0.0
  0
POINT
  5
2A8
100
AcDbEntity
  8
DEFPOINTS
  6
CONTINUOUS
 62
         0
100
AcDbPoint
 10
892.4011363617
 20
2994.7958707699
 30
0.0
  0
POINT
  5
2A9
100
AcDbEntity
  8
DEFPOINTS
  6
CONTINUOUS
 62
         0
100
AcDbPoint
 10
892.4011363617
 20
2986.8958707699
 30
0.0
  0
LINE
  5
2AA
100
AcDbEntity
  8
____
  6
CONTINUOUS
 62
         4
100
AcDbLine
 10
891.0511363617
 20
2994.7958707699
 30
0.0
 11
882.9863549266
 21
2994.7958707699
 31
0.0
  0
LINE
  5
2AB
100
AcDbEntity
  8
____
  6
CONTINUOUS
 62
         4
100
AcDbLine
 10
891.0511363617
 20
2986.8958707699
 30
0.0
 11
882.9863549266
 21
2986.8958707699
 31
0.0
  0
LINE
  5
2AC
100
AcDbEntity
  8
____
  6
CONTINUOUS
 62
         4
100
AcDbLine
 10
883.6613549266
 20
2994.7958707699
 30
0.0
 11
883.6613549266
 21
2986.8958707699
 31
0.0
  0
SOLID
  5
2AD
100
AcDbEntity
  8
____
  6
CONTINUOUS
 62
         4
100
AcDbTrace
 10
883.6613549266
 20
2994.7958707699
 30
0.0
 11
884.0663549266
 21
2992.0958707699
 31
0.0
 12
883.2563549266
 22
2992.0958707699
 32
0.0
 13
883.6613549266
 23
2994.7958707699
 33
0.0
  0
LINE
  5
2AE
100
AcDbEntity
  8
____
  6
CONTINUOUS
 62
         4
100
AcDbLine
 10
883.6613549266
 20
2986.8958707699
 30
0.0
 11
883.6613549266
 21
2956.4369329874
 31
0.0
  0
SOLID
  5
2AF
100
AcDbEntity
  8
____
  6
CONTINUOUS
 62
         4
100
AcDbTrace
 10
883.6613549266
 20
2986.8958707699
 30
0.0
 11
883.2563549266
 21
2989.5958707699
 31
0.0
 12
884.0663549266
 22
2989.5958707699
 32
0.0
 13
883.6613549266
 23
2986.8958707699
 33
0.0
  0
TEXT
  5
2B1
100
AcDbEntity
  8
____
  6
CONTINUOUS
 62
         4
100
AcDbText
 10
881.6363549266
 20
2957.7869329874
 30
0.0
 40
2.7
  1
7.9
 50
90.0
  7
BOX
100
AcDbText
  0
ENDBLK
  5
2B2
100
AcDbEntity
  8
0
  6
CONTINUOUS
100
AcDbBlockEnd
  0
BLOCK
  5
2B4
100
AcDbEntity
  8
0
100
AcDbBlockBegin
  2
*D15
 70
        65
 10
0.0
 20
0.0
 30
0.0
  3
*D15
  1

  0
POINT
  5
2B6
100
AcDbEntity
  8
DEFPOINTS
  6
CONTINUOUS
 62
         0
100
AcDbPoint
 10
909.4511363617
 20
3015.086854006
 30
0.0
  0
POINT
  5
2B7
100
AcDbEntity
  8
DEFPOINTS
  6
CONTINUOUS
 62
         0
100
AcDbPoint
 10
909.4511363617
 20
3000.4511986459
 30
0.0
  0
POINT
  5
2B8
100
AcDbEntity
  8
DEFPOINTS
  6
CONTINUOUS
 62
         0
100
AcDbPoint
 10
925.4511363617
 20
3001.4511986459
 30
0.0
  0
LINE
  5
2B9
100
AcDbEntity
  8
____
  6
CONTINUOUS
 62
         4
100
AcDbLine
 10
909.4511363617
 20
3001.8011986459
 30
0.0
 11
909.4511363617
 21
3015.761854006
 31
0.0
  0
LINE
  5
2BA
100
AcDbEntity
  8
____
  6
CONTINUOUS
 62
         4
100
AcDbLine
 10
925.4511363617
 20
3002.8011986459
 30
0.0
 11
925.4511363617
 21
3015.761854006
 31
0.0
  0
LINE
  5
2BB
100
AcDbEntity
  8
____
  6
CONTINUOUS
 62
         4
100
AcDbLine
 10
909.4511363617
 20
3015.086854006
 30
0.0
 11
925.4511363617
 21
3015.086854006
 31
0.0
  0
SOLID
  5
2BC
100
AcDbEntity
  8
____
  6
CONTINUOUS
 62
         4
100
AcDbTrace
 10
909.4511363617
 20
3015.086854006
 30
0.0
 11
912.1511363617
 21
3015.491854006
 31
0.0
 12
912.1511363617
 22
3014.681854006
 32
0.0
 13
909.4511363617
 23
3015.086854006
 33
0.0
  0
SOLID
  5
2BD
100
AcDbEntity
  8
____
  6
CONTINUOUS
 62
         4
100
AcDbTrace
 10
925.4511363617
 20
3015.086854006
 30
0.0
 11
922.7511363617
 21
3014.681854006
 31
0.0
 12
922.7511363617
 22
3015.491854006
 32
0.0
 13
925.4511363617
 23
3015.086854006
 33
0.0
  0
TEXT
  5
2BF
100
AcDbEntity
  8
____
  6
CONTINUOUS
 62
         4
100
AcDbText
 10
912.162324854
 20
3017.111854006
 30
0.0
 40
2.7
  1
16
  7
BOX
100
AcDbText
  0
ENDBLK
  5
2C0
100
AcDbEntity
  8
0
  6
CONTINUOUS
100
AcDbBlockEnd
  0
ENDSEC
  0
SECTION
  2
ENTITIES
  0
INSERT
  5
3C
100
AcDbEntity
  8
0
  6
CONTINUOUS
100
AcDbBlockReference
  2
*X0
 10
0.0
 20
0.0
 30
0.0
  0
INSERT
  5
55
100
AcDbEntity
  8
0
  6
CONTINUOUS
100
AcDbBlockReference
  2
*X1
 10
0.0
 20
0.0
 30
0.0
  0
DIMENSION
  5
59
100
AcDbEntity
  8
____
  6
CONTINUOUS
 62
         4
100
AcDbDimension
  2
*D2
 10
993.4511363617
 20
3232.0943214527
 30
0.0
 11
903.9011363617
 21
3234.1193214527
 31
0.0
  3
DIMSTYLE1
100
AcDbAlignedDimension
 13
993.4511363617
 23
3180.5763467528
 33
0.0
 14
822.4511363617
 24
3173.6263467528
 34
0.0
100
AcDbRotatedDimension
  0
DIMENSION
  5
68
100
AcDbEntity
  8
____
  6
CONTINUOUS
 62
         4
100
AcDbDimension
  2
*D3
 10
928.4511363617
 20
3219.6527554505
 30
0.0
 11
956.0894482364
 21
3221.6777554505
 31
0.0
  3
DIMSTYLE1
100
AcDbAlignedDimension
 13
928.4511363617
 23
3180.5763467528
 33
0.0
 14
993.4511363617
 24
3180.5763467528
 34
0.0
100
AcDbRotatedDimension
  0
LINE
  5
74
100
AcDbEntity
  8
____
  6
CONTINUOUS
 62
         7
100
AcDbLine
 10
888.4447497833
 20
3074.5958707699
 30
0.0
 11
887.4511363617
 21
3074.5958707699
 31
0.0
  0
LINE
  5
75
100
AcDbEntity
  8
____
  6
CONTINUOUS
 62
         7
100
AcDbLine
 10
888.4447497833
 20
3087.0958707699
 30
0.0
 11
887.4511363617
 21
3087.0958707699
 31
0.0
  0
LINE
  5
76
100
AcDbEntity
  8
____
  6
CONTINUOUS
 62
         7
100
AcDbLine
 10
887.4511363617
 20
3074.5958707699
 30
0.0
 11
887.4511363617
 21
3087.0958707699
 31
0.0
  0
LINE
  5
77
100
AcDbEntity
  8
____
  6
CONTINUOUS
 62
         7
100
AcDbLine
 10
915.4447497833
 20
3067.4159204195
 30
0.0
 11
900.7078442937
 21
3069.5650524701
 31
0.0
  0
LINE
  5
78
100
AcDbEntity
  8
____
  6
CONTINUOUS
 62
         7
100
AcDbLine
 10
900.4511363617
 20
3069.8619123644
 30
0.0
 11
900.4511363617
 21
3070.0958707699
 31
0.0
  0
ARC
  5
79
100
AcDbEntity
  8
____
  6
CONTINUOUS
 62
         7
100
AcDbCircle
 10
900.7511363617
 20
3069.8619123644
 30
0.0
 40
0.3
100
AcDbArc
 50
180.0
 51
261.7028550302
  0
LINE
  5
7A
100
AcDbEntity
  8
____
  6
CONTINUOUS
 62
         7
100
AcDbLine
 10
887.1032863687
 20
3069.0958707699
 30
0.0
 11
888.4447497833
 21
3070.0958707699
 31
0.0
  0
LINE
  5
7B
100
AcDbEntity
  8
____
  6
CONTINUOUS
 62
         7
100
AcDbLine
 10
900.4511363617
 20
3070.0958707699
 30
0.0
 11
888.4447497833
 21
3070.0958707699
 31
0.0
  0
ARC
  5
7C
100
AcDbEntity
  8
____
  6
CONTINUOUS
 62
         7
100
AcDbCircle
 10
900.7511363617
 20
3091.8298291754
 30
0.0
 40
0.3
100
AcDbArc
 50
98.2971449698
 51
180.0
  0
LINE
  5
7D
100
AcDbEntity
  8
____
  6
CONTINUOUS
 62
         7
100
AcDbLine
 10
900.4511363617
 20
3091.5958707699
 30
0.0
 11
888.4447497833
 21
3091.5958707699
 31
0.0
  0
LINE
  5
7E
100
AcDbEntity
  8
____
  6
CONTINUOUS
 62
         7
100
AcDbLine
 10
900.4511363617
 20
3091.8298291754
 30
0.0
 11
900.4511363617
 21
3091.5958707699
 31
0.0
  0
LINE
  5
7F
100
AcDbEntity
  8
____
  6
CONTINUOUS
 62
         7
100
AcDbLine
 10
886.6512175637
 20
2995.7103707699
 30
0.0
 11
886.6512175637
 21
2985.9813707699
 31
0.0
  0
LINE
  5
80
100
AcDbEntity
  8
____
  6
CONTINUOUS
 62
         7
100
AcDbLine
 10
886.6512175637
 20
2995.7103707699
 30
0.0
 11
887.4511363617
 21
2997.0958707699
 31
0.0
  0
LINE
  5
81
100
AcDbEntity
  8
____
  6
CONTINUOUS
 62
         7
100
AcDbLine
 10
886.6512175637
 20
2985.9813707699
 30
0.0
 11
887.4511363617
 21
2984.5958707699
 31
0.0
  0
LINE
  5
82
100
AcDbEntity
  8
____
  6
CONTINUOUS
 62
         7
100
AcDbLine
 10
887.4511363617
 20
2984.5958707699
 30
0.0
 11
887.4511363617
 21
2997.0958707699
 31
0.0
  0
LINE
  5
83
100
AcDbEntity
  8
____
  6
CONTINUOUS
 62
         7
100
AcDbLine
 10
928.4511363617
 20
2973.6223650278
 30
0.0
 11
928.4511363617
 21
2972.8458707699
 31
0.0
  0
LINE
  5
84
100
AcDbEntity
  8
____
  6
CONTINUOUS
 62
         7
100
AcDbLine
 10
928.4511363617
 20
3063.6223650278
 30
0.0
 11
928.4511363617
 21
3062.8458707699
 31
0.0
  0
ARC
  5
85
100
AcDbEntity
  8
____
  6
CONTINUOUS
 62
         7
100
AcDbCircle
 10
930.4511363617
 20
3180.5763467528
 30
0.0
 40
2.0
100
AcDbArc
 50
90.0
 51
180.0
  0
ARC
  5
86
100
AcDbEntity
  8
____
  6
CONTINUOUS
 62
         7
100
AcDbCircle
 10
930.4511363617
 20
3144.5763467528
 30
0.0
 40
2.0
100
AcDbArc
 50
180.0
 51
270.0
  0
ARC
  5
87
100
AcDbEntity
  8
____
  6
CONTINUOUS
 62
         7
100
AcDbCircle
 10
930.4511363617
 20
3098.8458707699
 30
0.0
 40
2.0
100
AcDbArc
 50
90.0
 51
180.0
  0
ARC
  5
88
100
AcDbEntity
  8
____
  6
CONTINUOUS
 62
         7
100
AcDbCircle
 10
930.4511363617
 20
3062.8458707699
 30
0.0
 40
2.0
100
AcDbArc
 50
180.0
 51
270.0
  0
ARC
  5
89
100
AcDbEntity
  8
____
  6
CONTINUOUS
 62
         7
100
AcDbCircle
 10
930.4511363617
 20
2972.8458707699
 30
0.0
 40
2.0
100
AcDbArc
 50
180.0
 51
270.0
  0
ARC
  5
8A
100
AcDbEntity
  8
____
  6
CONTINUOUS
 62
         7
100
AcDbCircle
 10
930.4511363617
 20
3008.8458707699
 30
0.0
 40
2.0
100
AcDbArc
 50
90.0
 51
180.0
  0
CIRCLE
  5
8B
100
AcDbEntity
  8
____
  6
CONTINUOUS
 62
         7
100
AcDbCircle
 10
1095.933032463
 20
3162.5763467528
 30
0.0
 40
20.0
  0
CIRCLE
  5
8C
100
AcDbEntity
  8
____
  6
CONTINUOUS
 62
         7
100
AcDbCircle
 10
1095.933032463
 20
3162.5763467528
 30
0.0
 40
11.9125
  0
CIRCLE
  5
8D
100
AcDbEntity
  8
____
  6
CONTINUOUS
 62
         7
100
AcDbCircle
 10
1095.933032463
 20
3162.5763467528
 30
0.0
 40
10.0
  0
ARC
  5
8E
100
AcDbEntity
  8
____
  6
CONTINUOUS
 62
         7
100
AcDbCircle
 10
991.4511363617
 20
3180.5763467528
 30
0.0
 40
2.0
100
AcDbArc
 50
0.0
 51
90.0
  0
LINE
  5
8F
100
AcDbEntity
  8
____
  6
CONTINUOUS
 62
         7
100
AcDbLine
 10
993.4511363617
 20
3180.5763467528
 30
0.0
 11
993.4511363617
 21
3144.5763467528
 31
0.0
  0
ARC
  5
90
100
AcDbEntity
  8
____
  6
CONTINUOUS
 62
         7
100
AcDbCircle
 10
991.4511363617
 20
3144.5763467528
 30
0.0
 40
2.0
100
AcDbArc
 50
270.0
 51
360.0
  0
DIMENSION
  5
93
100
AcDbEntity
  8
____
  6
CONTINUOUS
 62
         4
100
AcDbDimension
  2
*D4
 10
1012.9239745047
 20
3142.5763467528
 30
0.0
 11
1010.8989745047
 21
3155.2352912018
 31
0.0
  3
DIMSTYLE1
100
AcDbAlignedDimension
 13
991.4511363617
 23
3142.5763467528
 33
0.0
 14
991.4511363617
 24
3182.5763467528
 34
0.0
 50
90.0
100
AcDbRotatedDimension
  0
LINE
  5
9F
100
AcDbEntity
  8
____
  6
CENTER
 62
         1
100
AcDbLine
 10
1073.5132897845
 20
3162.5763467528
 30
0.0
 11
1118.933032463
 21
3162.5763467528
 31
0.0
  0
LINE
  5
A0
100
AcDbEntity
  8
____
  6
CENTER
 62
         1
100
AcDbLine
 10
1095.933032463
 20
3184.9960894313
 30
0.0
 11
1095.933032463
 21
3139.5763467528
 31
0.0
  0
LINE
  5
A1
100
AcDbEntity
  8
____
  6
CONTINUOUS
 62
         7
100
AcDbLine
 10
930.4511363617
 20
3182.5763467528
 30
0.0
 11
991.4511363617
 21
3182.5763467528
 31
0.0
  0
LINE
  5
A2
100
AcDbEntity
  8
____
  6
CONTINUOUS
 62
         7
100
AcDbLine
 10
930.4511363617
 20
3142.5763467528
 30
0.0
 11
991.4511363617
 21
3142.5763467528
 31
0.0
  0
LINE
  5
A3
100
AcDbEntity
  8
____
  6
CONTINUOUS
 62
         7
100
AcDbLine
 10
916.6278651819
 20
3066.2328050209
 30
0.0
 11
915.4447497833
 21
3067.4159204195
 31
0.0
  0
LINE
  5
A4
100
AcDbEntity
  8
____
  6
CONTINUOUS
 62
         7
100
AcDbLine
 10
887.1032863687
 20
3092.5958707699
 30
0.0
 11
888.4447497833
 21
3091.5958707699
 31
0.0
  0
LINE
  5
A5
100
AcDbEntity
  8
____
  6
CONTINUOUS
 62
         7
100
AcDbLine
 10
916.6278651819
 20
3095.4589365189
 30
0.0
 11
915.4447497833
 21
3094.2758211203
 31
0.0
  0
LINE
  5
A6
100
AcDbEntity
  8
____
  6
CONTINUOUS
 62
         7
100
AcDbLine
 10
915.4447497833
 20
3094.2758211203
 30
0.0
 11
900.7078442937
 21
3092.1266890697
 31
0.0
  0
LINE
  5
A7
100
AcDbEntity
  8
____
  6
CENTER
 62
         1
100
AcDbLine
 10
911.3511363617
 20
3056.1095190083
 30
0.0
 11
911.3511363617
 21
3103.721972776
 31
0.0
  0
LINE
  5
A8
100
AcDbEntity
  8
____
  6
CENTER
 62
         1
100
AcDbLine
 10
892.5511363617
 20
3058.8173362842
 30
0.0
 11
892.5511363617
 21
3101.6911098191
 31
0.0
  0
LINE
  5
A9
100
AcDbEntity
  8
____
  6
CONTINUOUS
 62
         7
100
AcDbLine
 10
909.4511363617
 20
3074.7958707699
 30
0.0
 11
909.4511363617
 21
3086.8958707699
 31
0.0
  0
LINE
  5
AA
100
AcDbEntity
  8
____
  6
CONTINUOUS
 62
         7
100
AcDbLine
 10
925.4511363617
 20
3091.8458707699
 30
0.0
 11
925.4511363617
 21
3069.8458707699
 31
0.0
  0
LINE
  5
AB
100
AcDbEntity
  8
____
  6
CONTINUOUS
 62
         7
100
AcDbLine
 10
888.4447497833
 20
3074.7958707699
 30
0.0
 11
888.4447497833
 21
3070.0958707699
 31
0.0
  0
LINE
  5
AC
100
AcDbEntity
  8
____
  6
CONTINUOUS
 62
         7
100
AcDbLine
 10
888.4447497833
 20
3086.8958707699
 30
0.0
 11
888.4447497833
 21
3091.5958707699
 31
0.0
  0
LINE
  5
AD
100
AcDbEntity
  8
____
  6
CONTINUOUS
 62
         7
100
AcDbLine
 10
888.4447497833
 20
3086.8958707699
 30
0.0
 11
909.4447497833
 21
3086.8958707699
 31
0.0
  0
LINE
  5
AE
100
AcDbEntity
  8
____
  6
CONTINUOUS
 62
         7
100
AcDbLine
 10
888.4447497833
 20
3074.7958707699
 30
0.0
 11
909.4447497833
 21
3074.7958707699
 31
0.0
  0
LINE
  5
AF
100
AcDbEntity
  8
____
  6
CONTINUOUS
 62
         7
100
AcDbLine
 10
915.4447497833
 20
3069.8458707699
 30
0.0
 11
925.4511363617
 21
3069.8458707699
 31
0.0
  0
ARC
  5
B0
100
AcDbEntity
  8
____
  6
CONTINUOUS
 62
         7
100
AcDbCircle
 10
910.0781194482
 20
3069.4522279394
 30
0.0
 40
5.3810478377
100
AcDbArc
 50
4.1951378696
 51
96.7595995881
  0
ARC
  5
B1
100
AcDbEntity
  8
____
  6
CONTINUOUS
 62
         7
100
AcDbCircle
 10
910.0781194482
 20
3092.2395136004
 30
0.0
 40
5.3810478377
100
AcDbArc
 50
263.2404004119
 51
355.8048621304
  0
LINE
  5
B2
100
AcDbEntity
  8
____
  6
CONTINUOUS
 62
         7
100
AcDbLine
 10
915.4447497833
 20
3067.4159204195
 30
0.0
 11
915.4447497833
 21
3069.8458707699
 31
0.0
  0
LINE
  5
B3
100
AcDbEntity
  8
____
  6
CONTINUOUS
 62
         7
100
AcDbLine
 10
915.4447497833
 20
3091.8458707699
 30
0.0
 11
925.4511363617
 21
3091.8458707699
 31
0.0
  0
ARC
  5
B4
100
AcDbEntity
  8
____
  6
CONTINUOUS
 62
         7
100
AcDbCircle
 10
991.4511363617
 20
3062.8458707699
 30
0.0
 40
2.0
100
AcDbArc
 50
270.0
 51
360.0
  0
ARC
  5
B5
100
AcDbEntity
  8
____
  6
CONTINUOUS
 62
         7
100
AcDbCircle
 10
991.4511363617
 20
3098.8458707699
 30
0.0
 40
2.0
100
AcDbArc
 50
0.0
 51
90.0
  0
LINE
  5
B6
100
AcDbEntity
  8
____
  6
CONTINUOUS
 62
         7
100
AcDbLine
 10
993.4511363617
 20
3098.8458707699
 30
0.0
 11
993.4511363617
 21
3062.8458707699
 31
0.0
  0
LINE
  5
B7
100
AcDbEntity
  8
____
  6
CONTINUOUS
 62
         7
100
AcDbLine
 10
930.4511363617
 20
3060.8458707699
 30
0.0
 11
991.4511363617
 21
3060.8458707699
 31
0.0
  0
LINE
  5
B8
100
AcDbEntity
  8
____
  6
CONTINUOUS
 62
         7
100
AcDbLine
 10
930.4511363617
 20
3100.8458707699
 30
0.0
 11
991.4511363617
 21
3100.8458707699
 31
0.0
  0
ARC
  5
B9
100
AcDbEntity
  8
____
  6
CONTINUOUS
 62
         7
100
AcDbCircle
 10
991.9511363617
 20
3067.4705477706
 30
0.0
 40
1.5
100
AcDbArc
 50
0.0
 51
88.5622
  0
ARC
  5
BA
100
AcDbEntity
  8
____
  6
CONTINUOUS
 62
         7
100
AcDbCircle
 10
991.9511363617
 20
3094.2211937692
 30
0.0
 40
1.5
100
AcDbArc
 50
271.4378
 51
360.0
  0
LINE
  5
BB
100
AcDbEntity
  8
____
  6
CONTINUOUS
 62
         7
100
AcDbLine
 10
991.9887739271
 20
3068.9700755008
 30
0.0
 11
925.4511363617
 21
3070.6401444426
 31
0.0
  0
LINE
  5
BC
100
AcDbEntity
  8
____
  6
CONTINUOUS
 62
         7
100
AcDbLine
 10
991.9887739271
 20
3092.721666039
 30
0.0
 11
925.4511363617
 21
3091.0515970972
 31
0.0
  0
LINE
  5
BD
100
AcDbEntity
  8
____
  6
CONTINUOUS
 62
         4
100
AcDbLine
 10
991.9887739271
 20
3092.721666039
 30
0.0
 11
991.9887739271
 21
3068.9700755008
 31
0.0
  0
LINE
  5
BE
100
AcDbEntity
  8
____
  6
CONTINUOUS
 62
         7
100
AcDbLine
 10
915.4447497833
 20
3091.8458707699
 30
0.0
 11
915.4447497833
 21
3094.2758211203
 31
0.0
  0
LINE
  5
BF
100
AcDbEntity
  8
____
  6
CONTINUOUS
 62
         7
100
AcDbLine
 10
925.4511363617
 20
2980.2405428939
 30
0.0
 11
925.4511363617
 21
3001.4511986459
 31
0.0
  0
LINE
  5
C0
100
AcDbEntity
  8
____
  6
CONTINUOUS
 62
         7
100
AcDbLine
 10
909.4511363617
 20
2994.7958707699
 30
0.0
 11
909.4511363617
 21
3000.4511986459
 31
0.0
  0
LINE
  5
C1
100
AcDbEntity
  8
____
  6
CONTINUOUS
 62
         7
100
AcDbLine
 10
993.4511363617
 20
2990.8458707699
 30
0.0
 11
993.4511363617
 21
3008.8458707699
 31
0.0
  0
LINE
  5
C2
100
AcDbEntity
  8
____
  6
CONTINUOUS
 62
         7
100
AcDbLine
 10
991.9887739271
 20
3002.721666039
 30
0.0
 11
925.4511363617
 21
3001.0515970972
 31
0.0
  0
LINE
  5
C3
100
AcDbEntity
  8
____
  6
CONTINUOUS
 62
         7
100
AcDbLine
 10
925.4511363617
 20
3001.4511986459
 30
0.0
 11
910.4511363617
 21
3001.4511986459
 31
0.0
  0
ARC
  5
C4
100
AcDbEntity
  8
____
  6
CONTINUOUS
 62
         7
100
AcDbCircle
 10
910.4511363617
 20
3000.4511986459
 30
0.0
 40
1.0
100
AcDbArc
 50
90.0
 51
180.0
  0
LINE
  5
C5
100
AcDbEntity
  8
____
  6
CONTINUOUS
 62
         7
100
AcDbLine
 10
892.4011363617
 20
2994.7958707699
 30
0.0
 11
911.5011363617
 21
2994.7958707699
 31
0.0
  0
ARC
  5
C6
100
AcDbEntity
  8
____
  6
CONTINUOUS
 62
         7
100
AcDbCircle
 10
911.5011363617
 20
2990.8458707699
 30
0.0
 40
3.95
100
AcDbArc
 50
0.0
 51
90.0
  0
ARC
  5
C7
100
AcDbEntity
  8
____
  6
CONTINUOUS
 62
         7
100
AcDbCircle
 10
892.4011363617
 20
2990.8458707699
 30
0.0
 40
3.95
100
AcDbArc
 50
90.0
 51
180.0
  0
LINE
  5
C8
100
AcDbEntity
  8
____
  6
CONTINUOUS
 62
         7
100
AcDbLine
 10
991.4511363617
 20
3010.8458707699
 30
0.0
 11
930.4511363617
 21
3010.8458707699
 31
0.0
  0
ARC
  5
C9
100
AcDbEntity
  8
____
  6
CONTINUOUS
 62
         7
100
AcDbCircle
 10
991.4511363617
 20
3008.8458707699
 30
0.0
 40
2.0
100
AcDbArc
 50
0.0
 51
90.0
  0
LINE
  5
CA
100
AcDbEntity
  8
____
  6
CONTINUOUS
 62
         7
100
AcDbLine
 10
925.4511363617
 20
2980.2405428939
 30
0.0
 11
910.4511363617
 21
2980.2405428939
 31
0.0
  0
ARC
  5
CB
100
AcDbEntity
  8
____
  6
CONTINUOUS
 62
         7
100
AcDbCircle
 10
910.4511363617
 20
2981.2405428939
 30
0.0
 40
1.0
100
AcDbArc
 50
180.0
 51
270.0
  0
LINE
  5
CC
100
AcDbEntity
  8
____
  6
CONTINUOUS
 62
         7
100
AcDbLine
 10
991.9887739271
 20
2978.9700755008
 30
0.0
 11
925.4511363617
 21
2980.6401444426
 31
0.0
  0
ARC
  5
CD
100
AcDbEntity
  8
____
  6
CONTINUOUS
 62
         7
100
AcDbCircle
 10
911.5011363617
 20
2990.8458707699
 30
0.0
 40
3.95
100
AcDbArc
 50
270.0
 51
360.0
  0
ARC
  5
CE
100
AcDbEntity
  8
____
  6
CONTINUOUS
 62
         7
100
AcDbCircle
 10
892.4011363617
 20
2990.8458707699
 30
0.0
 40
3.95
100
AcDbArc
 50
180.0
 51
270.0
  0
LINE
  5
CF
100
AcDbEntity
  8
____
  6
CONTINUOUS
 62
         7
100
AcDbLine
 10
892.4011363617
 20
2986.8958707699
 30
0.0
 11
911.5011363617
 21
2986.8958707699
 31
0.0
  0
LINE
  5
D0
100
AcDbEntity
  8
____
  6
CONTINUOUS
 62
         7
100
AcDbLine
 10
909.4511363617
 20
2986.8958707699
 30
0.0
 11
909.4511363617
 21
2981.2405428939
 31
0.0
  0
ARC
  5
D1
100
AcDbEntity
  8
____
  6
CONTINUOUS
 62
         7
100
AcDbCircle
 10
991.4511363617
 20
2972.8458707699
 30
0.0
 40
2.0
100
AcDbArc
 50
270.0
 51
360.0
  0
LINE
  5
D2
100
AcDbEntity
  8
____
  6
CONTINUOUS
 62
         7
100
AcDbLine
 10
991.4511363617
 20
2970.8458707699
 30
0.0
 11
930.4511363617
 21
2970.8458707699
 31
0.0
  0
LINE
  5
D3
100
AcDbEntity
  8
____
  6
CONTINUOUS
 62
         7
100
AcDbLine
 10
993.4511363617
 20
2990.8458707699
 30
0.0
 11
993.4511363617
 21
2972.8458707699
 31
0.0
  0
DIMENSION
  5
D6
100
AcDbEntity
  8
____
  6
CONTINUOUS
 62
         4
100
AcDbDimension
  2
*D5
 10
1026.9523204824
 20
3002.7583707699
 30
0.0
 11
1024.9273204824
 21
2980.6127737386
 31
0.0
  3
DIMSTYLE1
100
AcDbAlignedDimension
 13
993.4511363617
 23
3002.7583707699
 33
0.0
 14
993.4511363617
 24
2978.9333707699
 34
0.0
 50
90.0
100
AcDbRotatedDimension
  0
LINE
  5
E2
100
AcDbEntity
  8
____
  6
CONTINUOUS
 62
         7
100
AcDbLine
 10
909.4511363617
 20
2997.0958707699
 30
0.0
 11
887.4511363617
 21
2997.0958707699
 31
0.0
  0
LINE
  5
E3
100
AcDbEntity
  8
____
  6
CONTINUOUS
 62
         7
100
AcDbLine
 10
909.4511363617
 20
2984.5958707699
 30
0.0
 11
887.4511363617
 21
2984.5958707699
 31
0.0
  0
DIMENSION
  5
E6
100
AcDbEntity
  8
____
  6
CONTINUOUS
 62
         4
100
AcDbDimension
  2
*D6
 10
909.4511363617
 20
3031.3333534958
 30
0.0
 11
946.936658897
 21
3033.3583534958
 31
0.0
  3
DIMSTYLE1
100
AcDbAlignedDimension
 13
909.4511363617
 23
3000.4511986459
 33
0.0
 14
993.4511363617
 24
3008.8458707699
 34
0.0
100
AcDbRotatedDimension
  0
ARC
  5
F2
100
AcDbEntity
  8
____
  6
CONTINUOUS
 62
         7
100
AcDbCircle
 10
991.9511363617
 20
2977.4705477706
 30
0.0
 40
1.5
100
AcDbArc
 50
0.0
 51
88.5622
  0
ARC
  5
F3
100
AcDbEntity
  8
____
  6
CONTINUOUS
 62
         7
100
AcDbCircle
 10
991.9511363617
 20
3004.2211937692
 30
0.0
 40
1.5
100
AcDbArc
 50
271.4378
 51
360.0
  0
LINE
  5
F4
100
AcDbEntity
  8
____
  6
CONTINUOUS
 62
         4
100
AcDbLine
 10
991.9887739271
 20
3002.721666039
 30
0.0
 11
991.9887739271
 21
2978.9700755008
 31
0.0
  0
LINE
  5
F5
100
AcDbEntity
  8
____
  6
CONTINUOUS
 62
         4
100
AcDbLine
 10
939.2361762315
 20
2980.7405428939
 30
0.0
 11
925.4511363617
 21
2980.7405428939
 31
0.0
  0
DIMENSION
  5
F8
100
AcDbEntity
  8
____
  6
CONTINUOUS
 62
         4
100
AcDbDimension
  2
*D7
 10
921.4511363617
 20
2980.7405428939
 30
0.0
 11
1042.7141300631
 21
2977.339736161
 31
0.0
 70
         2
  3
DIMSTYLE1
100
AcDb2LineAngularDimension
 13
921.4511363617
 23
2980.7405428939
 33
0.0
 14
936.296042236
 24
2980.7405428939
 34
0.0
 15
952.4511363617
 25
2979.9624548961
 35
0.0
 16
1041.365887374
 26
2980.7405428939
 36
0.0
  0
DIMENSION
  5
10A
100
AcDbEntity
  8
____
  6
CONTINUOUS
 62
         4
100
AcDbDimension
  2
*D8
 10
915.4511363617
 20
2957.6830127026
 30
0.0
 11
947.496190376
 21
2959.7080127026
 31
0.0
  3
DIMSTYLE1
100
AcDbAlignedDimension
 13
915.4511363617
 23
2990.8458707699
 33
0.0
 14
993.4511363617
 24
2972.8458707699
 34
0.0
100
AcDbRotatedDimension
  0
DIMENSION
  5
118
100
AcDbEntity
  8
____
  6
CONTINUOUS
 62
         4
100
AcDbDimension
  2
*D9
 10
888.4511363617
 20
2957.6830127026
 30
0.0
 11
899.3588525515
 21
2959.7080127026
 31
0.0
  3
DIMSTYLE1
100
AcDbAlignedDimension
 13
888.4511363617
 23
2990.8458707699
 33
0.0
 14
915.4511363617
 24
2990.8458707699
 34
0.0
100
AcDbRotatedDimension
  0
LINE
  5
124
100
AcDbEntity
  8
____
  6
CENTER
 62
         1
100
AcDbLine
 10
997.2391419197
 20
2990.8458707699
 30
0.0
 11
818.002100986
 21
2990.8458707699
 31
0.0
  0
LINE
  5
125
100
AcDbEntity
  8
____
  6
CONTINUOUS
 62
         7
100
AcDbLine
 10
900.4511363617
 20
2979.0958707699
 30
0.0
 11
850.4511363617
 21
2979.0958707699
 31
0.0
  0
LINE
  5
126
100
AcDbEntity
  8
____
  6
CONTINUOUS
 62
         7
100
AcDbLine
 10
822.4511363617
 20
2979.7958707699
 30
0.0
 11
822.4511363617
 21
3001.8958707699
 31
0.0
  0
LINE
  5
127
100
AcDbEntity
  8
____
  6
CONTINUOUS
 62
         7
100
AcDbLine
 10
850.1511363617
 20
2978.7958707699
 30
0.0
 11
823.4511363617
 21
2978.7958707699
 31
0.0
  0
LINE
  5
128
100
AcDbEntity
  8
____
  6
CONTINUOUS
 62
         7
100
AcDbLine
 10
822.4511363617
 20
2979.7958707699
 30
0.0
 11
823.4511363617
 21
2978.7958707699
 31
0.0
  0
LINE
  5
129
100
AcDbEntity
  8
____
  6
CONTINUOUS
 62
         7
100
AcDbLine
 10
855.4511363617
 20
2985.7023707699
 30
0.0
 11
855.4511363617
 21
2995.9893707699
 31
0.0
  0
LINE
  5
12A
100
AcDbEntity
  8
____
  6
CONTINUOUS
 62
         4
100
AcDbLine
 10
855.4511363617
 20
2995.9893707699
 30
0.0
 11
826.7456368672
 21
2995.9893707699
 31
0.0
  0
LINE
  5
12B
100
AcDbEntity
  8
____
  6
CONTINUOUS
 62
         7
100
AcDbLine
 10
886.6512175637
 20
2995.7103707699
 30
0.0
 11
826.9067175923
 21
2995.7103707699
 31
0.0
  0
LINE
  5
12C
100
AcDbEntity
  8
____
  6
CONTINUOUS
 62
         7
100
AcDbLine
 10
886.6512175637
 20
2985.9813707699
 30
0.0
 11
826.9067175923
 21
2985.9813707699
 31
0.0
  0
LINE
  5
12D
100
AcDbEntity
  8
____
  6
CONTINUOUS
 62
         4
100
AcDbLine
 10
855.4511363617
 20
2985.7023707699
 30
0.0
 11
826.7456368672
 21
2985.7023707699
 31
0.0
  0
LINE
  5
12E
100
AcDbEntity
  8
____
  6
CONTINUOUS
 62
         7
100
AcDbLine
 10
850.1511363617
 20
2978.7958707699
 30
0.0
 11
850.4511363617
 21
2979.0958707699
 31
0.0
  0
LINE
  5
12F
100
AcDbEntity
  8
____
  6
CONTINUOUS
 62
         7
100
AcDbLine
 10
926.4511363616
 20
3006.869376512
 30
0.0
 11
926.1557557177
 21
3006.869376512
 31
0.0
  0
LINE
  5
130
100
AcDbEntity
  8
____
  6
CONTINUOUS
 62
         7
100
AcDbLine
 10
928.4511363617
 20
3008.8458707699
 30
0.0
 11
928.4511363617
 21
3008.069376512
 31
0.0
  0
LINE
  5
131
100
AcDbEntity
  8
____
  6
CONTINUOUS
 62
         7
100
AcDbLine
 10
926.4511363617
 20
2974.8223650278
 30
0.0
 11
926.1557557177
 21
2974.8223650278
 31
0.0
  0
LINE
  5
132
100
AcDbEntity
  8
____
  6
CONTINUOUS
 62
         7
100
AcDbLine
 10
926.1557557177
 20
3006.869376512
 30
0.0
 11
900.7072052696
 21
3003.1021571905
 31
0.0
  0
LINE
  5
133
100
AcDbEntity
  8
____
  6
CONTINUOUS
 62
         7
100
AcDbLine
 10
926.1557557177
 20
2974.8223650278
 30
0.0
 11
900.7072052696
 21
2978.5895843492
 31
0.0
  0
ARC
  5
134
100
AcDbEntity
  8
____
  6
CONTINUOUS
 62
         7
100
AcDbCircle
 10
900.7511363617
 20
2978.8863503499
 30
0.0
 40
0.3
100
AcDbArc
 50
180.0
 51
261.5795
  0
LINE
  5
135
100
AcDbEntity
  8
____
  6
CONTINUOUS
 62
         7
100
AcDbLine
 10
900.4511363617
 20
2979.0958707699
 30
0.0
 11
900.4511363617
 21
2978.8863503499
 31
0.0
  0
LINE
  5
136
100
AcDbEntity
  8
____
  6
CONTINUOUS
 62
         7
100
AcDbLine
 10
900.4511363617
 20
3069.0958707699
 30
0.0
 11
900.4511363617
 21
3068.8863503499
 31
0.0
  0
LINE
  5
137
100
AcDbEntity
  8
____
  6
CONTINUOUS
 62
         7
100
AcDbLine
 10
900.4511363617
 20
3092.8053911899
 30
0.0
 11
900.4511363617
 21
3092.5958707699
 31
0.0
  0
ARC
  5
138
100
AcDbEntity
  8
____
  6
CONTINUOUS
 62
         7
100
AcDbCircle
 10
900.7511363617
 20
3068.8863503499
 30
0.0
 40
0.3
100
AcDbArc
 50
180.0
 51
261.5795
  0
LINE
  5
139
100
AcDbEntity
  8
____
  6
CONTINUOUS
 62
         7
100
AcDbLine
 10
926.1557557177
 20
3064.8223650278
 30
0.0
 11
900.7072052696
 21
3068.5895843492
 31
0.0
  0
ARC
  5
13A
100
AcDbEntity
  8
____
  6
CONTINUOUS
 62
         7
100
AcDbCircle
 10
900.7511363617
 20
3092.8053911899
 30
0.0
 40
0.3
100
AcDbArc
 50
98.4205
 51
180.0
  0
LINE
  5
13B
100
AcDbEntity
  8
____
  6
CONTINUOUS
 62
         7
100
AcDbLine
 10
926.1557557177
 20
3096.869376512
 30
0.0
 11
900.7072052696
 21
3093.1021571905
 31
0.0
  0
ARC
  5
13C
100
AcDbEntity
  8
____
  6
CONTINUOUS
 62
         7
100
AcDbCircle
 10
900.7511363617
 20
3150.6168263329
 30
0.0
 40
0.3
100
AcDbArc
 50
180.0
 51
261.5795
  0
ARC
  5
13D
100
AcDbEntity
  8
____
  6
CONTINUOUS
 62
         7
100
AcDbCircle
 10
900.7511363617
 20
3174.5358671728
 30
0.0
 40
0.3
100
AcDbArc
 50
98.4205
 51
180.0
  0
LINE
  5
13E
100
AcDbEntity
  8
____
  6
CONTINUOUS
 62
         7
100
AcDbLine
 10
926.1557557177
 20
3146.5528410107
 30
0.0
 11
900.7072052696
 21
3150.3200603322
 31
0.0
  0
LINE
  5
13F
100
AcDbEntity
  8
____
  6
CONTINUOUS
 62
         7
100
AcDbLine
 10
926.1557557177
 20
3178.599852495
 30
0.0
 11
900.7072052696
 21
3174.8326331735
 31
0.0
  0
LINE
  5
140
100
AcDbEntity
  8
____
  6
CONTINUOUS
 62
         7
100
AcDbLine
 10
926.4511363617
 20
3064.8223650278
 30
0.0
 11
926.1557557177
 21
3064.8223650278
 31
0.0
  0
LINE
  5
141
100
AcDbEntity
  8
____
  6
CONTINUOUS
 62
         7
100
AcDbLine
 10
926.4511363616
 20
3096.869376512
 30
0.0
 11
926.1557557177
 21
3096.869376512
 31
0.0
  0
LINE
  5
142
100
AcDbEntity
  8
____
  6
CONTINUOUS
 62
         7
100
AcDbLine
 10
926.4511363617
 20
3146.5528410107
 30
0.0
 11
926.1557557177
 21
3146.5528410107
 31
0.0
  0
LINE
  5
143
100
AcDbEntity
  8
____
  6
CONTINUOUS
 62
         7
100
AcDbLine
 10
926.4511363617
 20
3178.599852495
 30
0.0
 11
926.1557557177
 21
3178.599852495
 31
0.0
  0
LINE
  5
144
100
AcDbEntity
  8
____
  6
CENTER
 62
         1
100
AcDbLine
 10
924.4511363617
 20
3143.3015301008
 30
0.0
 11
924.4511363617
 21
3181.8511634048
 31
0.0
  0
CIRCLE
  5
145
100
AcDbEntity
  8
____
  6
CONTINUOUS
 62
         7
100
AcDbCircle
 10
754.8305830171
 20
3162.5763467528
 30
0.0
 40
15.76
  0
CIRCLE
  5
146
100
AcDbEntity
  8
____
  6
CONTINUOUS
 62
         4
100
AcDbCircle
 10
754.8305830171
 20
3162.5763467528
 30
0.0
 40
4.8645
  0
CIRCLE
  5
147
100
AcDbEntity
  8
____
  6
CONTINUOUS
 62
         7
100
AcDbCircle
 10
754.8305830171
 20
3162.5763467528
 30
0.0
 40
5.1435
  0
LINE
  5
148
100
AcDbEntity
  8
____
  6
CONTINUOUS
 62
         7
100
AcDbLine
 10
752.7805830171
 20
3173.0263467528
 30
0.0
 11
752.7805830171
 21
3174.4506888399
 31
0.0
  0
LINE
  5
149
100
AcDbEntity
  8
____
  6
CONTINUOUS
 62
         7
100
AcDbLine
 10
756.8805830171
 20
3173.0263467528
 30
0.0
 11
756.8805830171
 21
3174.4506888399
 31
0.0
  0
LINE
  5
14A
100
AcDbEntity
  8
____
  6
CONTINUOUS
 62
         7
100
AcDbLine
 10
756.8805830171
 20
3173.0263467528
 30
0.0
 11
752.7805830171
 21
3173.0263467528
 31
0.0
  0
CIRCLE
  5
14B
100
AcDbEntity
  8
____
  6
CONTINUOUS
 62
         7
100
AcDbCircle
 10
754.8305830171
 20
3162.5763467528
 30
0.0
 40
12.05
  0
CIRCLE
  5
14C
100
AcDbEntity
  8
____
  6
CONTINUOUS
 62
         7
100
AcDbCircle
 10
754.8305830171
 20
3162.5763467528
 30
0.0
 40
6.0
  0
LINE
  5
14D
100
AcDbEntity
  8
____
  6
CENTER
 62
         1
100
AcDbLine
 10
754.8305830171
 20
3143.3918944864
 30
0.0
 11
754.8305830171
 21
3181.9415277904
 31
0.0
  0
LINE
  5
14E
100
AcDbEntity
  8
____
  6
CENTER
 62
         1
100
AcDbLine
 10
773.8990117666
 20
3162.5763467528
 30
0.0
 11
734.0759671522
 21
3162.5763467528
 31
0.0
  0
LINE
  5
14F
100
AcDbEntity
  8
____
  6
CONTINUOUS
 62
         4
100
AcDbLine
 10
900.8059909698
 20
3150.3054368117
 30
0.0
 11
900.8059909698
 21
3174.8472566939
 31
0.0
  0
LINE
  5
150
100
AcDbEntity
  8
____
  6
CONTINUOUS
 62
         4
100
AcDbLine
 10
850.1511363617
 20
3150.5263467528
 30
0.0
 11
850.1511363617
 21
3174.6263467528
 31
0.0
  0
LINE
  5
151
100
AcDbEntity
  8
____
  6
CONTINUOUS
 62
         4
100
AcDbLine
 10
823.4511363617
 20
3150.5263467528
 30
0.0
 11
823.4511363617
 21
3174.6263467528
 31
0.0
  0
LINE
  5
152
100
AcDbEntity
  8
____
  6
CONTINUOUS
 62
         7
100
AcDbLine
 10
850.1511363617
 20
3068.7958707699
 30
0.0
 11
850.4511363617
 21
3069.0958707699
 31
0.0
  0
LINE
  5
153
100
AcDbEntity
  8
____
  6
CONTINUOUS
 62
         7
100
AcDbLine
 10
850.1511363617
 20
3092.8958707699
 30
0.0
 11
850.4511363617
 21
3092.5958707699
 31
0.0
  0
LINE
  5
154
100
AcDbEntity
  8
____
  6
CONTINUOUS
 62
         7
100
AcDbLine
 10
850.1511363617
 20
3150.5263467528
 30
0.0
 11
850.4511363617
 21
3150.8263467528
 31
0.0
  0
LINE
  5
155
100
AcDbEntity
  8
____
  6
CONTINUOUS
 62
         7
100
AcDbLine
 10
850.1511363617
 20
3174.6263467528
 30
0.0
 11
850.4511363617
 21
3174.3263467528
 31
0.0
  0
LINE
  5
156
100
AcDbEntity
  8
____
  6
CENTER
 62
         1
100
AcDbLine
 10
997.2391419197
 20
3080.8458707699
 30
0.0
 11
818.002100986
 21
3080.8458707699
 31
0.0
  0
LINE
  5
157
100
AcDbEntity
  8
____
  6
CENTER
 62
         1
100
AcDbLine
 10
997.2391419197
 20
3162.5763467528
 30
0.0
 11
816.5135461273
 21
3162.5763467528
 31
0.0
  0
DIMENSION
  5
15A
100
AcDbEntity
  8
____
  6
CONTINUOUS
 62
         4
100
AcDbDimension
  2
*D10
 10
916.2991927852
 20
3178.3363467528
 30
0.0
 11
914.2741927852
 21
3152.4029356528
 31
0.0
  3
DIMSTYLE1
100
AcDbAlignedDimension
 13
925.4511363617
 23
3178.3363467528
 33
0.0
 14
925.4511363617
 24
3146.8163467528
 34
0.0
 50
90.0
100
AcDbRotatedDimension
  0
LINE
  5
166
100
AcDbEntity
  8
____
  6
CONTINUOUS
 62
         4
100
AcDbLine
 10
855.4511363617
 20
3075.7023707699
 30
0.0
 11
826.7456368672
 21
3075.7023707699
 31
0.0
  0
LINE
  5
167
100
AcDbEntity
  8
____
  6
CONTINUOUS
 62
         7
100
AcDbLine
 10
886.6512175637
 20
3075.9813707699
 30
0.0
 11
826.9067175923
 21
3075.9813707699
 31
0.0
  0
LINE
  5
168
100
AcDbEntity
  8
____
  6
CONTINUOUS
 62
         7
100
AcDbLine
 10
886.6512175637
 20
3085.7103707699
 30
0.0
 11
826.9067175923
 21
3085.7103707699
 31
0.0
  0
LINE
  5
169
100
AcDbEntity
  8
____
  6
CONTINUOUS
 62
         4
100
AcDbLine
 10
855.4511363617
 20
3085.9893707699
 30
0.0
 11
826.7456368672
 21
3085.9893707699
 31
0.0
  0
LINE
  5
16A
100
AcDbEntity
  8
____
  6
CONTINUOUS
 62
         7
100
AcDbLine
 10
887.4511363617
 20
3075.9813707699
 30
0.0
 11
887.4511363617
 21
3085.7103707699
 31
0.0
  0
LINE
  5
16B
100
AcDbEntity
  8
____
  6
CONTINUOUS
 62
         7
100
AcDbLine
 10
855.4511363617
 20
3075.7023707699
 30
0.0
 11
855.4511363617
 21
3085.9893707699
 31
0.0
  0
LINE
  5
16C
100
AcDbEntity
  8
____
  6
CONTINUOUS
 62
         7
100
AcDbLine
 10
822.4511363617
 20
3069.7958707699
 30
0.0
 11
823.4511363617
 21
3068.7958707699
 31
0.0
  0
LINE
  5
16D
100
AcDbEntity
  8
____
  6
CONTINUOUS
 62
         7
100
AcDbLine
 10
850.1511363617
 20
3068.7958707699
 30
0.0
 11
823.4511363617
 21
3068.7958707699
 31
0.0
  0
LINE
  5
16E
100
AcDbEntity
  8
____
  6
CONTINUOUS
 62
         7
100
AcDbLine
 10
822.4511363617
 20
3069.7958707699
 30
0.0
 11
822.4511363617
 21
3091.8958707699
 31
0.0
  0
LINE
  5
16F
100
AcDbEntity
  8
____
  6
CONTINUOUS
 62
         7
100
AcDbLine
 10
822.4511363617
 20
3091.8958707699
 30
0.0
 11
823.4511363617
 21
3092.8958707699
 31
0.0
  0
LINE
  5
170
100
AcDbEntity
  8
____
  6
CONTINUOUS
 62
         7
100
AcDbLine
 10
850.1511363617
 20
3092.8958707699
 30
0.0
 11
823.4511363617
 21
3092.8958707699
 31
0.0
  0
LINE
  5
171
100
AcDbEntity
  8
____
  6
CONTINUOUS
 62
         7
100
AcDbLine
 10
900.4511363617
 20
3069.0958707699
 30
0.0
 11
850.4511363617
 21
3069.0958707699
 31
0.0
  0
LINE
  5
172
100
AcDbEntity
  8
____
  6
CONTINUOUS
 62
         7
100
AcDbLine
 10
900.4511363617
 20
3092.5958707699
 30
0.0
 11
850.4511363617
 21
3092.5958707699
 31
0.0
  0
LINE
  5
173
100
AcDbEntity
  8
____
  6
CONTINUOUS
 62
         7
100
AcDbLine
 10
822.4511363617
 20
3151.5263467528
 30
0.0
 11
823.4511363617
 21
3150.5263467528
 31
0.0
  0
LINE
  5
174
100
AcDbEntity
  8
____
  6
CONTINUOUS
 62
         7
100
AcDbLine
 10
850.1511363617
 20
3150.5263467528
 30
0.0
 11
823.4511363617
 21
3150.5263467528
 31
0.0
  0
LINE
  5
175
100
AcDbEntity
  8
____
  6
CONTINUOUS
 62
         7
100
AcDbLine
 10
822.4511363617
 20
3151.5263467528
 30
0.0
 11
822.4511363617
 21
3173.6263467528
 31
0.0
  0
LINE
  5
176
100
AcDbEntity
  8
____
  6
CONTINUOUS
 62
         7
100
AcDbLine
 10
822.4511363617
 20
3173.6263467528
 30
0.0
 11
823.4511363617
 21
3174.6263467528
 31
0.0
  0
LINE
  5
177
100
AcDbEntity
  8
____
  6
CONTINUOUS
 62
         7
100
AcDbLine
 10
850.1511363617
 20
3174.6263467528
 30
0.0
 11
823.4511363617
 21
3174.6263467528
 31
0.0
  0
LINE
  5
178
100
AcDbEntity
  8
____
  6
CONTINUOUS
 62
         7
100
AcDbLine
 10
900.4511363617
 20
3150.8263467528
 30
0.0
 11
850.4511363617
 21
3150.8263467528
 31
0.0
  0
LINE
  5
179
100
AcDbEntity
  8
____
  6
CONTINUOUS
 62
         7
100
AcDbLine
 10
900.4511363617
 20
3174.3263467528
 30
0.0
 11
850.4511363617
 21
3174.3263467528
 31
0.0
  0
LINE
  5
17A
100
AcDbEntity
  8
____
  6
CONTINUOUS
 62
         7
100
AcDbLine
 10
850.4511363617
 20
3150.8263467528
 30
0.0
 11
850.4511363617
 21
3174.3263467528
 31
0.0
  0
LINE
  5
17B
100
AcDbEntity
  8
____
  6
CONTINUOUS
 62
         7
100
AcDbLine
 10
900.4511363617
 20
3174.5358671728
 30
0.0
 11
900.4511363617
 21
3150.6168263329
 31
0.0
  0
LINE
  5
17C
100
AcDbEntity
  8
____
  6
CONTINUOUS
 62
         7
100
AcDbLine
 10
928.4511363617
 20
3180.5763467528
 30
0.0
 11
928.4511363617
 21
3179.799852495
 31
0.0
  0
LINE
  5
17D
100
AcDbEntity
  8
____
  6
CONTINUOUS
 62
         7
100
AcDbLine
 10
926.1557557177
 20
3178.599852495
 30
0.0
 11
926.1557557177
 21
3146.5528410107
 31
0.0
  0
LINE
  5
17E
100
AcDbEntity
  8
____
  6
CONTINUOUS
 62
         7
100
AcDbLine
 10
886.6512175637
 20
3085.7103707699
 30
0.0
 11
887.4511363617
 21
3087.0958707699
 31
0.0
  0
LINE
  5
17F
100
AcDbEntity
  8
____
  6
CONTINUOUS
 62
         7
100
AcDbLine
 10
886.6512175637
 20
3085.7103707699
 30
0.0
 11
886.6512175637
 21
3075.9813707699
 31
0.0
  0
LINE
  5
180
100
AcDbEntity
  8
____
  6
CONTINUOUS
 62
         7
100
AcDbLine
 10
886.6512175637
 20
3075.9813707699
 30
0.0
 11
887.4511363617
 21
3074.5958707699
 31
0.0
  0
ARC
  5
181
100
AcDbEntity
  8
____
  6
CONTINUOUS
 62
         7
100
AcDbCircle
 10
892.4511363617
 20
3014.2958707699
 30
0.0
 40
13.0
100
AcDbArc
 50
270.0
 51
295.8419327632
  0
LINE
  5
182
100
AcDbEntity
  8
____
  6
CONTINUOUS
 62
         7
100
AcDbLine
 10
900.4511363617
 20
3002.8053911899
 30
0.0
 11
900.4511363617
 21
3002.5958707699
 31
0.0
  0
ARC
  5
183
100
AcDbEntity
  8
____
  6
CONTINUOUS
 62
         7
100
AcDbCircle
 10
900.7511363617
 20
3002.8053911899
 30
0.0
 40
0.3
100
AcDbArc
 50
98.4205
 51
180.0
  0
LINE
  5
184
100
AcDbEntity
  8
____
  6
CONTINUOUS
 62
         7
100
AcDbLine
 10
850.1511363617
 20
3002.8958707699
 30
0.0
 11
850.4511363617
 21
3002.5958707699
 31
0.0
  0
LINE
  5
185
100
AcDbEntity
  8
____
  6
CONTINUOUS
 62
         7
100
AcDbLine
 10
822.4511363617
 20
3001.8958707699
 30
0.0
 11
823.4511363617
 21
3002.8958707699
 31
0.0
  0
LINE
  5
186
100
AcDbEntity
  8
____
  6
CONTINUOUS
 62
         7
100
AcDbLine
 10
850.1511363617
 20
3002.8958707699
 30
0.0
 11
823.4511363617
 21
3002.8958707699
 31
0.0
  0
LINE
  5
187
100
AcDbEntity
  8
____
  6
CONTINUOUS
 62
         7
100
AcDbLine
 10
900.4511363617
 20
3002.5958707699
 30
0.0
 11
850.4511363617
 21
3002.5958707699
 31
0.0
  0
LINE
  5
188
100
AcDbEntity
  8
____
  6
CONTINUOUS
 62
         7
100
AcDbLine
 10
892.4511363617
 20
3001.2958707699
 30
0.0
 11
822.4511363617
 21
3001.2958707699
 31
0.0
  0
LINE
  5
189
100
AcDbEntity
  8
____
  6
CONTINUOUS
 62
         7
100
AcDbLine
 10
926.4511363617
 20
3146.5528410107
 30
0.0
 11
927.1212465947
 21
3146.7323965065
 31
0.0
  0
LINE
  5
18A
100
AcDbEntity
  8
____
  6
CONTINUOUS
 62
         7
100
AcDbLine
 10
926.4511363617
 20
3178.599852495
 30
0.0
 11
927.1212465947
 21
3178.4202969992
 31
0.0
  0
LINE
  5
18B
100
AcDbEntity
  8
____
  6
CONTINUOUS
 62
         7
100
AcDbLine
 10
927.9576724859
 20
3178.3998524949
 30
0.0
 11
927.2765380217
 21
3178.3998524949
 31
0.0
  0
ARC
  5
18C
100
AcDbEntity
  8
____
  6
CONTINUOUS
 62
         7
100
AcDbCircle
 10
927.2765380217
 20
3178.9998524949
 30
0.0
 40
0.6
100
AcDbArc
 50
255.0
 51
270.0
  0
LINE
  5
18D
100
AcDbEntity
  8
____
  6
CONTINUOUS
 62
         7
100
AcDbLine
 10
928.4511363617
 20
3179.799852495
 30
0.0
 11
928.5518333272
 21
3179.0833563555
 31
0.0
  0
ARC
  5
18E
100
AcDbEntity
  8
____
  6
CONTINUOUS
 62
         7
100
AcDbCircle
 10
927.9576724859
 20
3178.9998524949
 30
0.0
 40
0.6
100
AcDbArc
 50
270.0
 51
368.0
  0
LINE
  5
18F
100
AcDbEntity
  8
____
  6
CONTINUOUS
 62
         7
100
AcDbLine
 10
928.4511363617
 20
3145.3528410107
 30
0.0
 11
928.5518333272
 21
3146.0693371501
 31
0.0
  0
ARC
  5
190
100
AcDbEntity
  8
____
  6
CONTINUOUS
 62
         7
100
AcDbCircle
 10
927.9576724859
 20
3146.1528410107
 30
0.0
 40
0.6
100
AcDbArc
 50
352.0
 51
450.0
  0
LINE
  5
191
100
AcDbEntity
  8
____
  6
CONTINUOUS
 62
         7
100
AcDbLine
 10
927.9576724859
 20
3146.7528410107
 30
0.0
 11
927.2765380217
 21
3146.7528410107
 31
0.0
  0
ARC
  5
192
100
AcDbEntity
  8
____
  6
CONTINUOUS
 62
         7
100
AcDbCircle
 10
927.2765380217
 20
3146.1528410107
 30
0.0
 40
0.6
100
AcDbArc
 50
90.0
 51
105.0
  0
LINE
  5
193
100
AcDbEntity
  8
____
  6
CONTINUOUS
 62
         4
100
AcDbLine
 10
928.4511363617
 20
3146.4941523104
 30
0.0
 11
928.4511363617
 21
3178.6585411952
 31
0.0
  0
LINE
  5
194
100
AcDbEntity
  8
____
  6
CONTINUOUS
 62
         7
100
AcDbLine
 10
926.4511363616
 20
3096.869376512
 30
0.0
 11
927.1212465947
 21
3096.6898210162
 31
0.0
  0
LINE
  5
195
100
AcDbEntity
  8
____
  6
CONTINUOUS
 62
         7
100
AcDbLine
 10
926.4511363617
 20
3064.8223650278
 30
0.0
 11
927.1212465947
 21
3065.0019205235
 31
0.0
  0
LINE
  5
196
100
AcDbEntity
  8
____
  6
CONTINUOUS
 62
         7
100
AcDbLine
 10
927.9576724859
 20
3096.669376512
 30
0.0
 11
927.2765380217
 21
3096.669376512
 31
0.0
  0
ARC
  5
197
100
AcDbEntity
  8
____
  6
CONTINUOUS
 62
         7
100
AcDbCircle
 10
927.2765380217
 20
3097.269376512
 30
0.0
 40
0.6
100
AcDbArc
 50
255.0
 51
270.0
  0
LINE
  5
198
100
AcDbEntity
  8
____
  6
CONTINUOUS
 62
         7
100
AcDbLine
 10
928.4511363617
 20
3098.069376512
 30
0.0
 11
928.5518333272
 21
3097.3528803726
 31
0.0
  0
ARC
  5
199
100
AcDbEntity
  8
____
  6
CONTINUOUS
 62
         7
100
AcDbCircle
 10
927.9576724859
 20
3097.269376512
 30
0.0
 40
0.6
100
AcDbArc
 50
270.0
 51
368.0
  0
LINE
  5
19A
100
AcDbEntity
  8
____
  6
CONTINUOUS
 62
         7
100
AcDbLine
 10
928.4511363617
 20
3063.6223650278
 30
0.0
 11
928.5518333272
 21
3064.3388611672
 31
0.0
  0
ARC
  5
19B
100
AcDbEntity
  8
____
  6
CONTINUOUS
 62
         7
100
AcDbCircle
 10
927.9576724859
 20
3064.4223650278
 30
0.0
 40
0.6
100
AcDbArc
 50
352.0
 51
450.0
  0
LINE
  5
19C
100
AcDbEntity
  8
____
  6
CONTINUOUS
 62
         7
100
AcDbLine
 10
927.9576724859
 20
3065.0223650278
 30
0.0
 11
927.2765380217
 21
3065.0223650278
 31
0.0
  0
ARC
  5
19D
100
AcDbEntity
  8
____
  6
CONTINUOUS
 62
         7
100
AcDbCircle
 10
927.2765380217
 20
3064.4223650278
 30
0.0
 40
0.6
100
AcDbArc
 50
90.0
 51
105.0
  0
LINE
  5
19E
100
AcDbEntity
  8
____
  6
CONTINUOUS
 62
         7
100
AcDbLine
 10
926.4511363616
 20
3006.869376512
 30
0.0
 11
927.1212465947
 21
3006.6898210162
 31
0.0
  0
LINE
  5
19F
100
AcDbEntity
  8
____
  6
CONTINUOUS
 62
         7
100
AcDbLine
 10
926.4511363617
 20
2974.8223650278
 30
0.0
 11
927.1212465947
 21
2975.0019205235
 31
0.0
  0
LINE
  5
1A0
100
AcDbEntity
  8
____
  6
CONTINUOUS
 62
         7
100
AcDbLine
 10
927.9576724859
 20
3006.669376512
 30
0.0
 11
927.2765380217
 21
3006.669376512
 31
0.0
  0
ARC
  5
1A1
100
AcDbEntity
  8
____
  6
CONTINUOUS
 62
         7
100
AcDbCircle
 10
927.2765380217
 20
3007.269376512
 30
0.0
 40
0.6
100
AcDbArc
 50
255.0
 51
270.0
  0
LINE
  5
1A2
100
AcDbEntity
  8
____
  6
CONTINUOUS
 62
         7
100
AcDbLine
 10
928.4511363617
 20
3008.069376512
 30
0.0
 11
928.5518333272
 21
3007.3528803726
 31
0.0
  0
ARC
  5
1A3
100
AcDbEntity
  8
____
  6
CONTINUOUS
 62
         7
100
AcDbCircle
 10
927.9576724859
 20
3007.269376512
 30
0.0
 40
0.6
100
AcDbArc
 50
270.0
 51
368.0
  0
LINE
  5
1A4
100
AcDbEntity
  8
____
  6
CONTINUOUS
 62
         7
100
AcDbLine
 10
928.4511363617
 20
2973.6223650278
 30
0.0
 11
928.5518333272
 21
2974.3388611672
 31
0.0
  0
ARC
  5
1A5
100
AcDbEntity
  8
____
  6
CONTINUOUS
 62
         7
100
AcDbCircle
 10
927.9576724859
 20
2974.4223650278
 30
0.0
 40
0.6
100
AcDbArc
 50
352.0
 51
450.0
  0
LINE
  5
1A6
100
AcDbEntity
  8
____
  6
CONTINUOUS
 62
         7
100
AcDbLine
 10
927.9576724859
 20
2975.0223650278
 30
0.0
 11
927.2765380217
 21
2975.0223650278
 31
0.0
  0
ARC
  5
1A7
100
AcDbEntity
  8
____
  6
CONTINUOUS
 62
         7
100
AcDbCircle
 10
927.2765380217
 20
2974.4223650278
 30
0.0
 40
0.6
100
AcDbArc
 50
90.0
 51
105.0
  0
LINE
  5
1A8
100
AcDbEntity
  8
____
  6
CONTINUOUS
 62
         7
100
AcDbLine
 10
928.4511363617
 20
3178.6585411952
 30
0.0
 11
928.4511363617
 21
3146.4941523104
 31
0.0
  0
LINE
  5
1A9
100
AcDbEntity
  8
____
  6
CONTINUOUS
 62
         7
100
AcDbLine
 10
928.4511363617
 20
3145.3528410107
 30
0.0
 11
928.4511363617
 21
3144.5763467528
 31
0.0
  0
LINE
  5
1AA
100
AcDbEntity
  8
____
  6
CONTINUOUS
 62
         7
100
AcDbLine
 10
928.4511363617
 20
3098.8458707699
 30
0.0
 11
928.4511363617
 21
3098.069376512
 31
0.0
  0
ARC
  5
1AB
100
AcDbEntity
  8
____
  6
CONTINUOUS
 62
         7
100
AcDbCircle
 10
823.4511363617
 20
3087.8458707699
 30
0.0
 40
1.0
100
AcDbArc
 50
180.0
 51
270.0
  0
LINE
  5
1AC
100
AcDbEntity
  8
____
  6
CONTINUOUS
 62
         7
100
AcDbLine
 10
826.2511363617
 20
3086.8458707699
 30
0.0
 11
823.4511363617
 21
3086.8458707699
 31
0.0
  0
LINE
  5
1AD
100
AcDbEntity
  8
____
  6
CONTINUOUS
 62
         7
100
AcDbLine
 10
826.2511363617
 20
3086.8458707699
 30
0.0
 11
826.9067175923
 21
3085.7103707699
 31
0.0
  0
LINE
  5
1AE
100
AcDbEntity
  8
____
  6
CONTINUOUS
 62
         7
100
AcDbLine
 10
826.2511363617
 20
3074.8458707699
 30
0.0
 11
826.2511363617
 21
3086.8458707699
 31
0.0
  0
LINE
  5
1AF
100
AcDbEntity
  8
____
  6
CONTINUOUS
 62
         7
100
AcDbLine
 10
826.2511363617
 20
3074.8458707699
 30
0.0
 11
826.9067175923
 21
3075.9813707699
 31
0.0
  0
LINE
  5
1B0
100
AcDbEntity
  8
____
  6
CONTINUOUS
 62
         7
100
AcDbLine
 10
826.2511363617
 20
3074.8458707699
 30
0.0
 11
823.4511363617
 21
3074.8458707699
 31
0.0
  0
ARC
  5
1B1
100
AcDbEntity
  8
____
  6
CONTINUOUS
 62
         7
100
AcDbCircle
 10
823.4511363617
 20
3073.8458707699
 30
0.0
 40
1.0
100
AcDbArc
 50
90.0
 51
180.0
  0
LINE
  5
1B2
100
AcDbEntity
  8
____
  6
CONTINUOUS
 62
         7
100
AcDbLine
 10
826.9067175923
 20
3085.7103707699
 30
0.0
 11
826.9067175923
 21
3075.9813707699
 31
0.0
  0
LINE
  5
1B3
100
AcDbEntity
  8
____
  6
CONTINUOUS
 62
         7
100
AcDbLine
 10
886.6512175637
 20
3075.9813707699
 30
0.0
 11
887.4511363617
 21
3074.5958707699
 31
0.0
  0
LINE
  5
1B4
100
AcDbEntity
  8
____
  6
CONTINUOUS
 62
         7
100
AcDbLine
 10
886.6512175637
 20
3085.7103707699
 30
0.0
 11
887.4511363617
 21
3087.0958707699
 31
0.0
  0
LINE
  5
1B5
100
AcDbEntity
  8
____
  6
CONTINUOUS
 62
         7
100
AcDbLine
 10
850.1511363617
 20
3092.8958707699
 30
0.0
 11
823.4511363617
 21
3092.8958707699
 31
0.0
  0
LINE
  5
1B6
100
AcDbEntity
  8
____
  6
CONTINUOUS
 62
         7
100
AcDbLine
 10
822.4511363617
 20
3091.8958707699
 30
0.0
 11
823.4511363617
 21
3092.8958707699
 31
0.0
  0
LINE
  5
1B7
100
AcDbEntity
  8
____
  6
CONTINUOUS
 62
         7
100
AcDbLine
 10
850.1511363617
 20
3068.7958707699
 30
0.0
 11
823.4511363617
 21
3068.7958707699
 31
0.0
  0
LINE
  5
1B8
100
AcDbEntity
  8
____
  6
CONTINUOUS
 62
         7
100
AcDbLine
 10
822.4511363617
 20
3069.7958707699
 30
0.0
 11
823.4511363617
 21
3068.7958707699
 31
0.0
  0
LINE
  5
1B9
100
AcDbEntity
  8
____
  6
CONTINUOUS
 62
         7
100
AcDbLine
 10
850.1511363617
 20
3092.8958707699
 30
0.0
 11
850.4511363617
 21
3092.5958707699
 31
0.0
  0
LINE
  5
1BA
100
AcDbEntity
  8
____
  6
CONTINUOUS
 62
         7
100
AcDbLine
 10
850.1511363617
 20
3068.7958707699
 30
0.0
 11
850.4511363617
 21
3069.0958707699
 31
0.0
  0
LINE
  5
1BB
100
AcDbEntity
  8
____
  6
CONTINUOUS
 62
         7
100
AcDbLine
 10
887.1032863687
 20
3092.5958707699
 30
0.0
 11
888.4447497833
 21
3091.5958707699
 31
0.0
  0
LINE
  5
1BC
100
AcDbEntity
  8
____
  6
CONTINUOUS
 62
         7
100
AcDbLine
 10
887.1032863687
 20
3069.0958707699
 30
0.0
 11
888.4447497833
 21
3070.0958707699
 31
0.0
  0
LINE
  5
1BD
100
AcDbEntity
  8
____
  6
CONTINUOUS
 62
         7
100
AcDbLine
 10
888.4447497833
 20
3087.0958707699
 30
0.0
 11
887.4511363617
 21
3087.0958707699
 31
0.0
  0
LINE
  5
1BE
100
AcDbEntity
  8
____
  6
CONTINUOUS
 62
         7
100
AcDbLine
 10
888.4447497833
 20
3074.5958707699
 30
0.0
 11
887.4511363617
 21
3074.5958707699
 31
0.0
  0
ARC
  5
1BF
100
AcDbEntity
  8
____
  6
CONTINUOUS
 62
         7
100
AcDbCircle
 10
823.4511363617
 20
3087.8458707699
 30
0.0
 40
1.0
100
AcDbArc
 50
180.0
 51
270.0
  0
LINE
  5
1C0
100
AcDbEntity
  8
____
  6
CONTINUOUS
 62
         7
100
AcDbLine
 10
826.2511363617
 20
3086.8458707699
 30
0.0
 11
823.4511363617
 21
3086.8458707699
 31
0.0
  0
LINE
  5
1C1
100
AcDbEntity
  8
____
  6
CONTINUOUS
 62
         7
100
AcDbLine
 10
826.2511363617
 20
3074.8458707699
 30
0.0
 11
823.4511363617
 21
3074.8458707699
 31
0.0
  0
ARC
  5
1C2
100
AcDbEntity
  8
____
  6
CONTINUOUS
 62
         7
100
AcDbCircle
 10
823.4511363617
 20
3073.8458707699
 30
0.0
 40
1.0
100
AcDbArc
 50
90.0
 51
180.0
  0
LINE
  5
1C3
100
AcDbEntity
  8
____
  6
CONTINUOUS
 62
         7
100
AcDbLine
 10
886.6512175637
 20
3085.7103707699
 30
0.0
 11
826.9067175923
 21
3085.7103707699
 31
0.0
  0
LINE
  5
1C4
100
AcDbEntity
  8
____
  6
CONTINUOUS
 62
         7
100
AcDbLine
 10
826.2511363617
 20
3086.8458707699
 30
0.0
 11
826.9067175923
 21
3085.7103707699
 31
0.0
  0
LINE
  5
1C5
100
AcDbEntity
  8
____
  6
CONTINUOUS
 62
         7
100
AcDbLine
 10
886.6512175637
 20
3075.9813707699
 30
0.0
 11
826.9067175923
 21
3075.9813707699
 31
0.0
  0
LINE
  5
1C6
100
AcDbEntity
  8
____
  6
CONTINUOUS
 62
         7
100
AcDbLine
 10
826.2511363617
 20
3074.8458707699
 30
0.0
 11
826.9067175923
 21
3075.9813707699
 31
0.0
  0
LINE
  5
1C7
100
AcDbEntity
  8
____
  6
CONTINUOUS
 62
         7
100
AcDbLine
 10
887.1032863687
 20
3092.5958707699
 30
0.0
 11
850.4511363617
 21
3092.5958707699
 31
0.0
  0
LINE
  5
1C8
100
AcDbEntity
  8
____
  6
CONTINUOUS
 62
         7
100
AcDbLine
 10
887.1032863687
 20
3069.0958707699
 30
0.0
 11
850.4511363617
 21
3069.0958707699
 31
0.0
  0
LINE
  5
1C9
100
AcDbEntity
  8
____
  6
CONTINUOUS
 62
         7
100
AcDbLine
 10
888.4447497833
 20
3087.0958707699
 30
0.0
 11
888.4447497833
 21
3091.5958707699
 31
0.0
  0
LINE
  5
1CA
100
AcDbEntity
  8
____
  6
CONTINUOUS
 62
         7
100
AcDbLine
 10
888.4447497833
 20
3074.5958707699
 30
0.0
 11
888.4447497833
 21
3070.0958707699
 31
0.0
  0
LINE
  5
1CB
100
AcDbEntity
  8
____
  6
CONTINUOUS
 62
         7
100
AcDbLine
 10
822.4511363617
 20
3069.7958707699
 30
0.0
 11
822.4511363617
 21
3073.8458707699
 31
0.0
  0
LINE
  5
1CC
100
AcDbEntity
  8
____
  6
CONTINUOUS
 62
         7
100
AcDbLine
 10
822.4511363617
 20
3087.8458707699
 30
0.0
 11
822.4511363617
 21
3091.8958707699
 31
0.0
  0
INSERT
  5
1F2
100
AcDbEntity
  8
0
  6
CONTINUOUS
100
AcDbBlockReference
  2
*X11
 10
0.0
 20
0.0
 30
0.0
  0
ARC
  5
1F3
100
AcDbEntity
  8
____
  6
CONTINUOUS
 62
         7
100
AcDbCircle
 10
823.4511363617
 20
2997.8458707699
 30
0.0
 40
1.0
100
AcDbArc
 50
180.0
 51
270.0
  0
LINE
  5
1F4
100
AcDbEntity
  8
____
  6
CONTINUOUS
 62
         7
100
AcDbLine
 10
826.2511363617
 20
2996.8458707699
 30
0.0
 11
823.4511363617
 21
2996.8458707699
 31
0.0
  0
LINE
  5
1F5
100
AcDbEntity
  8
____
  6
CONTINUOUS
 62
         7
100
AcDbLine
 10
826.2511363617
 20
2984.8458707699
 30
0.0
 11
826.2511363617
 21
2996.8458707699
 31
0.0
  0
LINE
  5
1F6
100
AcDbEntity
  8
____
  6
CONTINUOUS
 62
         7
100
AcDbLine
 10
826.2511363617
 20
2996.8458707699
 30
0.0
 11
826.9067175923
 21
2995.7103707699
 31
0.0
  0
LINE
  5
1F7
100
AcDbEntity
  8
____
  6
CONTINUOUS
 62
         7
100
AcDbLine
 10
826.2511363617
 20
2984.8458707699
 30
0.0
 11
826.9067175923
 21
2985.9813707699
 31
0.0
  0
LINE
  5
1F8
100
AcDbEntity
  8
____
  6
CONTINUOUS
 62
         7
100
AcDbLine
 10
826.2511363617
 20
2984.8458707699
 30
0.0
 11
823.4511363617
 21
2984.8458707699
 31
0.0
  0
ARC
  5
1F9
100
AcDbEntity
  8
____
  6
CONTINUOUS
 62
         7
100
AcDbCircle
 10
823.4511363617
 20
2983.8458707699
 30
0.0
 40
1.0
100
AcDbArc
 50
90.0
 51
180.0
  0
LINE
  5
1FA
100
AcDbEntity
  8
____
  6
CONTINUOUS
 62
         7
100
AcDbLine
 10
826.9067175923
 20
2995.7103707699
 30
0.0
 11
826.9067175923
 21
2985.9813707699
 31
0.0
  0
ARC
  5
1FB
100
AcDbEntity
  8
____
  6
CONTINUOUS
 62
         7
100
AcDbCircle
 10
927.2765380217
 20
2974.4223650278
 30
0.0
 40
0.6
100
AcDbArc
 50
90.0
 51
105.0
  0
LINE
  5
1FC
100
AcDbEntity
  8
____
  6
CONTINUOUS
 62
         7
100
AcDbLine
 10
927.9576724859
 20
2975.0223650278
 30
0.0
 11
927.2765380217
 21
2975.0223650278
 31
0.0
  0
ARC
  5
1FD
100
AcDbEntity
  8
____
  6
CONTINUOUS
 62
         7
100
AcDbCircle
 10
927.9576724859
 20
2974.4223650278
 30
0.0
 40
0.6
100
AcDbArc
 50
352.0
 51
450.0
  0
LINE
  5
1FE
100
AcDbEntity
  8
____
  6
CONTINUOUS
 62
         7
100
AcDbLine
 10
928.4511363617
 20
2973.6223650278
 30
0.0
 11
928.5518333272
 21
2974.3388611672
 31
0.0
  0
ARC
  5
1FF
100
AcDbEntity
  8
____
  6
CONTINUOUS
 62
         7
100
AcDbCircle
 10
927.9576724859
 20
3007.269376512
 30
0.0
 40
0.6
100
AcDbArc
 50
270.0
 51
368.0
  0
LINE
  5
200
100
AcDbEntity
  8
____
  6
CONTINUOUS
 62
         7
100
AcDbLine
 10
928.4511363617
 20
3008.069376512
 30
0.0
 11
928.5518333272
 21
3007.3528803726
 31
0.0
  0
ARC
  5
201
100
AcDbEntity
  8
____
  6
CONTINUOUS
 62
         7
100
AcDbCircle
 10
927.2765380217
 20
3007.269376512
 30
0.0
 40
0.6
100
AcDbArc
 50
255.0
 51
270.0
  0
LINE
  5
202
100
AcDbEntity
  8
____
  6
CONTINUOUS
 62
         7
100
AcDbLine
 10
927.9576724859
 20
3006.669376512
 30
0.0
 11
927.2765380217
 21
3006.669376512
 31
0.0
  0
LINE
  5
203
100
AcDbEntity
  8
____
  6
CONTINUOUS
 62
         7
100
AcDbLine
 10
926.4511363617
 20
2974.8223650278
 30
0.0
 11
927.1212465947
 21
2975.0019205235
 31
0.0
  0
LINE
  5
204
100
AcDbEntity
  8
____
  6
CONTINUOUS
 62
         7
100
AcDbLine
 10
926.4511363616
 20
3006.869376512
 30
0.0
 11
927.1212465947
 21
3006.6898210162
 31
0.0
  0
LINE
  5
205
100
AcDbEntity
  8
____
  6
CONTINUOUS
 62
         7
100
AcDbLine
 10
892.4511363617
 20
3001.2958707699
 30
0.0
 11
822.4511363617
 21
3001.2958707699
 31
0.0
  0
ARC
  5
206
100
AcDbEntity
  8
____
  6
CONTINUOUS
 62
         7
100
AcDbCircle
 10
900.7511363617
 20
3002.8053911899
 30
0.0
 40
0.3
100
AcDbArc
 50
98.4205
 51
180.0
  0
LINE
  5
207
100
AcDbEntity
  8
____
  6
CONTINUOUS
 62
         7
100
AcDbLine
 10
900.4511363617
 20
3002.8053911899
 30
0.0
 11
900.4511363617
 21
3002.5958707699
 31
0.0
  0
ARC
  5
208
100
AcDbEntity
  8
____
  6
CONTINUOUS
 62
         7
100
AcDbCircle
 10
892.4511363617
 20
3014.2958707699
 30
0.0
 40
13.0
100
AcDbArc
 50
270.0
 51
295.8419327632
  0
LINE
  5
209
100
AcDbEntity
  8
____
  6
CONTINUOUS
 62
         7
100
AcDbLine
 10
900.4511363617
 20
2979.0958707699
 30
0.0
 11
900.4511363617
 21
2978.8863503499
 31
0.0
  0
ARC
  5
20A
100
AcDbEntity
  8
____
  6
CONTINUOUS
 62
         7
100
AcDbCircle
 10
900.7511363617
 20
2978.8863503499
 30
0.0
 40
0.3
100
AcDbArc
 50
180.0
 51
261.5795
  0
LINE
  5
20B
100
AcDbEntity
  8
____
  6
CONTINUOUS
 62
         7
100
AcDbLine
 10
926.1557557177
 20
2974.8223650278
 30
0.0
 11
900.7072052696
 21
2978.5895843492
 31
0.0
  0
LINE
  5
20C
100
AcDbEntity
  8
____
  6
CONTINUOUS
 62
         7
100
AcDbLine
 10
926.1557557177
 20
3006.869376512
 30
0.0
 11
900.7072052696
 21
3003.1021571905
 31
0.0
  0
LINE
  5
20D
100
AcDbEntity
  8
____
  6
CONTINUOUS
 62
         7
100
AcDbLine
 10
926.4511363617
 20
2974.8223650278
 30
0.0
 11
926.1557557177
 21
2974.8223650278
 31
0.0
  0
LINE
  5
20E
100
AcDbEntity
  8
____
  6
CONTINUOUS
 62
         7
100
AcDbLine
 10
928.4511363617
 20
3008.8458707699
 30
0.0
 11
928.4511363617
 21
3008.069376512
 31
0.0
  0
LINE
  5
20F
100
AcDbEntity
  8
____
  6
CONTINUOUS
 62
         7
100
AcDbLine
 10
926.4511363616
 20
3006.869376512
 30
0.0
 11
926.1557557177
 21
3006.869376512
 31
0.0
  0
LINE
  5
210
100
AcDbEntity
  8
____
  6
CONTINUOUS
 62
         7
100
AcDbLine
 10
850.1511363617
 20
2978.7958707699
 30
0.0
 11
850.4511363617
 21
2979.0958707699
 31
0.0
  0
LINE
  5
211
100
AcDbEntity
  8
____
  6
CONTINUOUS
 62
         7
100
AcDbLine
 10
822.4511363617
 20
2979.7958707699
 30
0.0
 11
823.4511363617
 21
2978.7958707699
 31
0.0
  0
LINE
  5
212
100
AcDbEntity
  8
____
  6
CONTINUOUS
 62
         7
100
AcDbLine
 10
850.1511363617
 20
2978.7958707699
 30
0.0
 11
823.4511363617
 21
2978.7958707699
 31
0.0
  0
LINE
  5
213
100
AcDbEntity
  8
____
  6
CONTINUOUS
 62
         7
100
AcDbLine
 10
900.4511363617
 20
2979.0958707699
 30
0.0
 11
850.4511363617
 21
2979.0958707699
 31
0.0
  0
ARC
  5
214
100
AcDbEntity
  8
____
  6
CONTINUOUS
 62
         7
100
AcDbCircle
 10
991.9511363617
 20
3004.2211937692
 30
0.0
 40
1.5
100
AcDbArc
 50
271.4378
 51
360.0
  0
ARC
  5
215
100
AcDbEntity
  8
____
  6
CONTINUOUS
 62
         7
100
AcDbCircle
 10
991.9511363617
 20
2977.4705477706
 30
0.0
 40
1.5
100
AcDbArc
 50
0.0
 51
88.5622
  0
LINE
  5
216
100
AcDbEntity
  8
____
  6
CONTINUOUS
 62
         7
100
AcDbLine
 10
909.4511363617
 20
2984.5958707699
 30
0.0
 11
887.4511363617
 21
2984.5958707699
 31
0.0
  0
LINE
  5
217
100
AcDbEntity
  8
____
  6
CONTINUOUS
 62
         7
100
AcDbLine
 10
909.4511363617
 20
2997.0958707699
 30
0.0
 11
887.4511363617
 21
2997.0958707699
 31
0.0
  0
LINE
  5
218
100
AcDbEntity
  8
____
  6
CONTINUOUS
 62
         7
100
AcDbLine
 10
991.4511363617
 20
2970.8458707699
 30
0.0
 11
930.4511363617
 21
2970.8458707699
 31
0.0
  0
ARC
  5
219
100
AcDbEntity
  8
____
  6
CONTINUOUS
 62
         7
100
AcDbCircle
 10
991.4511363617
 20
2972.8458707699
 30
0.0
 40
2.0
100
AcDbArc
 50
270.0
 51
360.0
  0
LINE
  5
21A
100
AcDbEntity
  8
____
  6
CONTINUOUS
 62
         7
100
AcDbLine
 10
991.9887739271
 20
2978.9700755008
 30
0.0
 11
925.4511363617
 21
2980.6401444426
 31
0.0
  0
ARC
  5
21B
100
AcDbEntity
  8
____
  6
CONTINUOUS
 62
         7
100
AcDbCircle
 10
910.4511363617
 20
2981.2405428939
 30
0.0
 40
1.0
100
AcDbArc
 50
180.0
 51
270.0
  0
LINE
  5
21C
100
AcDbEntity
  8
____
  6
CONTINUOUS
 62
         7
100
AcDbLine
 10
925.4511363617
 20
2980.2405428939
 30
0.0
 11
910.4511363617
 21
2980.2405428939
 31
0.0
  0
ARC
  5
21D
100
AcDbEntity
  8
____
  6
CONTINUOUS
 62
         7
100
AcDbCircle
 10
991.4511363617
 20
3008.8458707699
 30
0.0
 40
2.0
100
AcDbArc
 50
0.0
 51
90.0
  0
LINE
  5
21E
100
AcDbEntity
  8
____
  6
CONTINUOUS
 62
         7
100
AcDbLine
 10
991.4511363617
 20
3010.8458707699
 30
0.0
 11
930.4511363617
 21
3010.8458707699
 31
0.0
  0
ARC
  5
21F
100
AcDbEntity
  8
____
  6
CONTINUOUS
 62
         7
100
AcDbCircle
 10
910.4511363617
 20
3000.4511986459
 30
0.0
 40
1.0
100
AcDbArc
 50
90.0
 51
180.0
  0
LINE
  5
220
100
AcDbEntity
  8
____
  6
CONTINUOUS
 62
         7
100
AcDbLine
 10
925.4511363617
 20
3001.4511986459
 30
0.0
 11
910.4511363617
 21
3001.4511986459
 31
0.0
  0
LINE
  5
221
100
AcDbEntity
  8
____
  6
CONTINUOUS
 62
         7
100
AcDbLine
 10
991.9887739271
 20
3002.721666039
 30
0.0
 11
925.4511363617
 21
3001.0515970972
 31
0.0
  0
ARC
  5
222
100
AcDbEntity
  8
____
  6
CONTINUOUS
 62
         7
100
AcDbCircle
 10
930.4511363617
 20
3008.8458707699
 30
0.0
 40
2.0
100
AcDbArc
 50
90.0
 51
180.0
  0
ARC
  5
223
100
AcDbEntity
  8
____
  6
CONTINUOUS
 62
         7
100
AcDbCircle
 10
930.4511363617
 20
2972.8458707699
 30
0.0
 40
2.0
100
AcDbArc
 50
180.0
 51
270.0
  0
LINE
  5
224
100
AcDbEntity
  8
____
  6
CONTINUOUS
 62
         7
100
AcDbLine
 10
928.4511363617
 20
2973.6223650278
 30
0.0
 11
928.4511363617
 21
2972.8458707699
 31
0.0
  0
LINE
  5
225
100
AcDbEntity
  8
____
  6
CONTINUOUS
 62
         7
100
AcDbLine
 10
886.6512175637
 20
2985.9813707699
 30
0.0
 11
887.4511363617
 21
2984.5958707699
 31
0.0
  0
LINE
  5
226
100
AcDbEntity
  8
____
  6
CONTINUOUS
 62
         7
100
AcDbLine
 10
886.6512175637
 20
2995.7103707699
 30
0.0
 11
887.4511363617
 21
2997.0958707699
 31
0.0
  0
ARC
  5
227
100
AcDbEntity
  8
____
  6
CONTINUOUS
 62
         7
100
AcDbCircle
 10
823.4511363617
 20
2997.8458707699
 30
0.0
 40
1.0
100
AcDbArc
 50
180.0
 51
270.0
  0
LINE
  5
228
100
AcDbEntity
  8
____
  6
CONTINUOUS
 62
         7
100
AcDbLine
 10
826.2511363617
 20
2996.8458707699
 30
0.0
 11
823.4511363617
 21
2996.8458707699
 31
0.0
  0
LINE
  5
229
100
AcDbEntity
  8
____
  6
CONTINUOUS
 62
         7
100
AcDbLine
 10
826.2511363617
 20
2984.8458707699
 30
0.0
 11
823.4511363617
 21
2984.8458707699
 31
0.0
  0
ARC
  5
22A
100
AcDbEntity
  8
____
  6
CONTINUOUS
 62
         7
100
AcDbCircle
 10
823.4511363617
 20
2983.8458707699
 30
0.0
 40
1.0
100
AcDbArc
 50
90.0
 51
180.0
  0
LINE
  5
22B
100
AcDbEntity
  8
____
  6
CONTINUOUS
 62
         7
100
AcDbLine
 10
826.2511363617
 20
2996.8458707699
 30
0.0
 11
826.9067175923
 21
2995.7103707699
 31
0.0
  0
LINE
  5
22C
100
AcDbEntity
  8
____
  6
CONTINUOUS
 62
         7
100
AcDbLine
 10
826.2511363617
 20
2984.8458707699
 30
0.0
 11
826.9067175923
 21
2985.9813707699
 31
0.0
  0
LINE
  5
22D
100
AcDbEntity
  8
____
  6
CONTINUOUS
 62
         7
100
AcDbLine
 10
886.6512175637
 20
2985.9813707699
 30
0.0
 11
826.9067175923
 21
2985.9813707699
 31
0.0
  0
LINE
  5
22E
100
AcDbEntity
  8
____
  6
CONTINUOUS
 62
         7
100
AcDbLine
 10
886.6512175637
 20
2995.7103707699
 30
0.0
 11
826.9067175923
 21
2995.7103707699
 31
0.0
  0
LINE
  5
22F
100
AcDbEntity
  8
____
  6
CONTINUOUS
 62
         7
100
AcDbLine
 10
822.4511363617
 20
2979.7958707699
 30
0.0
 11
822.4511363617
 21
2983.8458707699
 31
0.0
  0
LINE
  5
230
100
AcDbEntity
  8
____
  6
CONTINUOUS
 62
         7
100
AcDbLine
 10
822.4511363617
 20
2997.8458707699
 30
0.0
 11
822.4511363617
 21
3001.2958707699
 31
0.0
  0
LINE
  5
231
100
AcDbEntity
  8
____
  6
CONTINUOUS
 62
         7
100
AcDbLine
 10
900.4511363617
 20
3002.5958707699
 30
0.0
 11
898.1177049883
 21
3002.5958707699
 31
0.0
  0
LINE
  5
232
100
AcDbEntity
  8
____
  6
CONTINUOUS
 62
         7
100
AcDbLine
 10
909.4511363617
 20
2997.0958707699
 30
0.0
 11
909.4511363617
 21
3000.4511986459
 31
0.0
  0
LINE
  5
233
100
AcDbEntity
  8
____
  6
CONTINUOUS
 62
         7
100
AcDbLine
 10
909.4511363617
 20
2984.5958707699
 30
0.0
 11
909.4511363617
 21
2981.2405428939
 31
0.0
  0
LINE
  5
234
100
AcDbEntity
  8
____
  6
CONTINUOUS
 62
         7
100
AcDbLine
 10
925.4511363617
 20
2980.2405428939
 30
0.0
 11
925.4511363617
 21
2980.6401444426
 31
0.0
  0
LINE
  5
235
100
AcDbEntity
  8
____
  6
CONTINUOUS
 62
         7
100
AcDbLine
 10
925.4511363617
 20
3001.0515970972
 30
0.0
 11
925.4511363617
 21
3001.4511986459
 31
0.0
  0
LINE
  5
236
100
AcDbEntity
  8
____
  6
CONTINUOUS
 62
         7
100
AcDbLine
 10
993.4511363617
 20
3004.2211937692
 30
0.0
 11
993.4511363617
 21
3008.8458707699
 31
0.0
  0
LINE
  5
237
100
AcDbEntity
  8
____
  6
CONTINUOUS
 62
         7
100
AcDbLine
 10
993.4511363617
 20
2977.4705477706
 30
0.0
 11
993.4511363617
 21
2972.8458707699
 31
0.0
  0
INSERT
  5
293
100
AcDbEntity
  8
0
  6
CONTINUOUS
100
AcDbBlockReference
  2
*X12
 10
0.0
 20
0.0
 30
0.0
  0
DIMENSION
  5
296
100
AcDbEntity
  8
____
  6
CONTINUOUS
 62
         4
100
AcDbDimension
  2
*D13
 10
924.4511363617
 20
3200.0096858714
 30
0.0
 11
919.5326414189
 21
3202.0346858714
 31
0.0
  3
DIMSTYLE1
100
AcDbAlignedDimension
 13
924.4511363617
 23
3178.3363467528
 33
0.0
 14
928.4511363617
 24
3178.9546800862
 34
0.0
100
AcDbRotatedDimension
  0
DIMENSION
  5
2A6
100
AcDbEntity
  8
____
  6
CONTINUOUS
 62
         4
100
AcDbDimension
  2
*D14
 10
883.6613549266
 20
2994.7958707699
 30
0.0
 11
881.6363549266
 21
2957.7869329874
 31
0.0
  3
DIMSTYLE1
100
AcDbAlignedDimension
 13
892.4011363617
 23
2994.7958707699
 33
0.0
 14
892.4011363617
 24
2986.8958707699
 34
0.0
 50
90.0
100
AcDbRotatedDimension
  0
DIMENSION
  5
2B5
100
AcDbEntity
  8
____
  6
CONTINUOUS
 62
         4
100
AcDbDimension
  2
*D15
 10
909.4511363617
 20
3015.086854006
 30
0.0
 11
912.162324854
 21
3017.111854006
 31
0.0
  3
DIMSTYLE1
100
AcDbAlignedDimension
 13
909.4511363617
 23
3000.4511986459
 33
0.0
 14
925.4511363617
 24
3001.4511986459
 34
0.0
100
AcDbRotatedDimension
  0
TEXT
  5
2C2
100
AcDbEntity
  8
____
  6
CONTINUOUS
 62
         2
100
AcDbText
 10
1080.5048102457
 20
3236.7621834316
 30
0.0
 40
4.5
  1
534490
 41
0.98
  7
BOX
100
AcDbText
  0
ENDSEC
  0
SECTION
  2
OBJECTS
  0
DICTIONARY
  5
19
100
AcDbDictionary
  3
ACAD_GROUP
350
1A
  3
ACAD_MLINESTYLE
350
1B
  0
DICTIONARY
  5
1A
102
{ACAD_REACTORS
330
19
102
}
100
AcDbDictionary
  0
DICTIONARY
  5
1B
102
{ACAD_REACTORS
330
19
102
}
100
AcDbDictionary
  3
STANDARD
350
1C
  0
MLINESTYLE
  5
1C
102
{ACAD_REACTORS
330
1B
102
}
100
AcDbMlineStyle
  2
STANDARD
 70
         0
  3

 62
         0
 51
90.0
 52
90.0
 71
         2
 49
0.5
 62
       256
  6
BYLAYER
 49
-0.5
 62
       256
  6
BYLAYER
  0
ENDSEC
  0
EOF
