  0
SECTION
  2
HEADER
  9
$ACADVER
  1
AC1014
  9
$ACADMAINTVER
 70
         0
  9
$DWGCODEPAGE
  3
BIG5
  9
$INSBASE
 10
0.0
 20
0.0
 30
0.0
  9
$EXTMIN
 10
1156.2343665638
 20
39.858669194
 30
0.0
  9
$EXTMAX
 10
1681.6194151779
 20
304.7415147153
 30
0.0
  9
$LIMMIN
 10
0.0
 20
0.0
  9
$LIMMAX
 10
0.0
 20
0.0
  9
$ORTHOMODE
 70
         0
  9
$REGENMODE
 70
         1
  9
$FILLMODE
 70
         1
  9
$QTEXTMODE
 70
         0
  9
$MIRRTEXT
 70
         1
  9
$DRAGMODE
 70
         2
  9
$LTSCALE
 40
1.0
  9
$OSMODE
 70
         0
  9
$ATTMODE
 70
         1
  9
$TEXTSIZE
 40
4.7
  9
$TRACEWID
 40
0.05
  9
$TEXTSTYLE
  7
STANDARD
  9
$CLAYER
  8
0
  9
$CELTYPE
  6
CONTINUOUS
  9
$CECOLOR
 62
         4
  9
$CELTSCALE
 40
1.0
  9
$DELOBJ
 70
         1
  9
$DISPSILH
 70
         0
  9
$DIMSCALE
 40
1.0
  9
$DIMASZ
 40
0.18
  9
$DIMEXO
 40
0.0625
  9
$DIMDLI
 40
0.38
  9
$DIMRND
 40
0.0
  9
$DIMDLE
 40
0.0
  9
$DIMEXE
 40
0.25
  9
$DIMTP
 40
0.1
  9
$DIMTM
 40
0.0
  9
$DIMTXT
 40
2.7
  9
$DIMCEN
 40
0.09
  9
$DIMTSZ
 40
0.0
  9
$DIMTOL
 70
         0
  9
$DIMLIM
 70
         0
  9
$DIMTIH
 70
         1
  9
$DIMTOH
 70
         1
  9
$DIMSE1
 70
         0
  9
$DIMSE2
 70
         0
  9
$DIMTAD
 70
         0
  9
$DIMZIN
 70
         0
  9
$DIMBLK
  1

  9
$DIMASO
 70
         1
  9
$DIMSHO
 70
         1
  9
$DIMPOST
  1

  9
$DIMAPOST
  1

  9
$DIMALT
 70
         0
  9
$DIMALTD
 70
         2
  9
$DIMALTF
 40
25.4
  9
$DIMLFAC
 40
1.0
  9
$DIMTOFL
 70
         0
  9
$DIMTVP
 40
0.0
  9
$DIMTIX
 70
         0
  9
$DIMSOXD
 70
         0
  9
$DIMSAH
 70
         0
  9
$DIMBLK1
  1

  9
$DIMBLK2
  1

  9
$DIMSTYLE
  2
STANDARD
  9
$DIMCLRD
 70
         0
  9
$DIMCLRE
 70
         0
  9
$DIMCLRT
 70
         4
  9
$DIMTFAC
 40
0.7
  9
$DIMGAP
 40
0.09
  9
$DIMJUST
 70
         0
  9
$DIMSD1
 70
         0
  9
$DIMSD2
 70
         0
  9
$DIMTOLJ
 70
         1
  9
$DIMTZIN
 70
         0
  9
$DIMALTZ
 70
         0
  9
$DIMALTTZ
 70
         0
  9
$DIMFIT
 70
         3
  9
$DIMUPT
 70
         0
  9
$DIMUNIT
 70
         2
  9
$DIMDEC
 70
         4
  9
$DIMTDEC
 70
         4
  9
$DIMALTU
 70
         2
  9
$DIMALTTD
 70
         2
  9
$DIMTXSTY
  7
STANDARD
  9
$DIMAUNIT
 70
         0
  9
$LUNITS
 70
         2
  9
$LUPREC
 70
        10
  9
$SKETCHINC
 40
0.1
  9
$FILLETRAD
 40
0.0
  9
$AUNITS
 70
         0
  9
$AUPREC
 70
         0
  9
$MENU
  1
acad
  9
$ELEVATION
 40
0.0
  9
$PELEVATION
 40
0.0
  9
$THICKNESS
 40
0.0
  9
$LIMCHECK
 70
         0
  9
$BLIPMODE
 70
         1
  9
$CHAMFERA
 40
0.0
  9
$CHAMFERB
 40
0.0
  9
$CHAMFERC
 40
0.0
  9
$CHAMFERD
 40
0.0
  9
$SKPOLY
 70
         0
  9
$TDCREATE
 40
0.000000000
  9
$TDUPDATE
 40
0.000000000
  9
$TDINDWG
 40
0.0000000000
  9
$TDUSRTIMER
 40
0.0000000000
  9
$USRTIMER
 70
         1
  9
$ANGBASE
 50
0.0
  9
$ANGDIR
 70
         0
  9
$PDMODE
 70
         2
  9
$PDSIZE
 40
0.0
  9
$PLINEWID
 40
0.0
  9
$COORDS
 70
         1
  9
$SPLFRAME
 70
         0
  9
$SPLINETYPE
 70
         6
  9
$SPLINESEGS
 70
         8
  9
$ATTDIA
 70
         0
  9
$ATTREQ
 70
         1
  9
$HANDLING
 70
         1
  9
$HANDSEED
  5
EC
  9
$SURFTAB1
 70
         6
  9
$SURFTAB2
 70
         6
  9
$SURFTYPE
 70
         6
  9
$SURFU
 70
         6
  9
$SURFV
 70
         6
  9
$UCSNAME
  2

  9
$UCSORG
 10
0.0
 20
0.0
 30
0.0
  9
$UCSXDIR
 10
1.0
 20
0.0
 30
0.0
  9
$UCSYDIR
 10
0.0
 20
1.0
 30
0.0
  9
$PUCSNAME
  2

  9
$PUCSORG
 10
0.0
 20
0.0
 30
0.0
  9
$PUCSXDIR
 10
1.0
 20
0.0
 30
0.0
  9
$PUCSYDIR
 10
0.0
 20
1.0
 30
0.0
  9
$USERI1
 70
         0
  9
$USERI2
 70
         0
  9
$USERI3
 70
         0
  9
$USERI4
 70
         0
  9
$USERI5
 70
         0
  9
$USERR1
 40
0.0
  9
$USERR2
 40
0.0
  9
$USERR3
 40
0.0
  9
$USERR4
 40
0.0
  9
$USERR5
 40
0.0
  9
$WORLDVIEW
 70
         1
  9
$SHADEDGE
 70
         3
  9
$SHADEDIF
 70
        70
  9
$TILEMODE
 70
         1
  9
$MAXACTVP
 70
        16
  9
$PINSBASE
 10
0.0
 20
0.0
 30
0.0
  9
$PLIMCHECK
 70
         0
  9
$PEXTMIN
 10
1.0000000000E+20
 20
1.0000000000E+20
 30
1.0000000000E+20
  9
$PEXTMAX
 10
-1.0000000000E+20
 20
-1.0000000000E+20
 30
-1.0000000000E+20
  9
$PLIMMIN
 10
0.0
 20
0.0
  9
$PLIMMAX
 10
12.0
 20
9.0
  9
$UNITMODE
 70
         0
  9
$VISRETAIN
 70
         0
  9
$PLINEGEN
 70
         1
  9
$PSLTSCALE
 70
         0
  9
$TREEDEPTH
 70
      3020
  9
$PICKSTYLE
 70
         1
  9
$CMLSTYLE
  2
STANDARD
  9
$CMLJUST
 70
         0
  9
$CMLSCALE
 40
1.0
  9
$PROXYGRAPHICS
 70
         0
  9
$MEASUREMENT
 70
         0
  0
ENDSEC
  0
SECTION
  2
CLASSES
  0
CLASS
  1
LWPOLYLINE
  2
AcDbPolyline
  3
"AutoCAD"
 90
        0
280
         0
281
         1
  0
CLASS
  1
IMAGE
  2
AcDbRasterImage
  3
ISM
 90
      127
280
         0
281
         1
  0
CLASS
  1
OLE2FRAME
  2
AcDbOle2Frame
  3
""
 90
        0
280
         0
281
         1
  0
CLASS
  1
HATCH
  2
AcDbHatch
  3
"ACAD_SEDONA"
 90
        0
280
         0
281
         1
  0
CLASS
  1
DICTIONARYVAR
  2
AcDbDictionaryVar
  3
"AutoCAD"
 90
        0
280
         0
281
         0
  0
CLASS
  1
RASTERVARIABLES
  2
AcDbRasterVariables
  3
ISM
 90
        0
280
         0
281
         0
  0
CLASS
  1
IMAGEDEF
  2
AcDbRasterImageDef
  3
ISM
 90
        0
280
         0
281
         0
  0
CLASS
  1
IMAGEDEF_REACTOR
  2
AcDbRasterImageDefReactor
  3
ISM
 90
        1
280
         0
281
         0
  0
CLASS
  1
IDBUFFER
  2
AcDbIdBuffer
  3
"Acad"
 90
        0
280
         0
281
         0
  0
CLASS
  1
SPATIAL_FILTER
  2
AcDbSpatialFilter
  3
"Acad"
 90
        0
280
         0
281
         0
  0
CLASS
  1
XRECORD
  2
AcDbXrecord
  3
"<Built In>"
 90
        0
280
         0
281
         0
  0
CLASS
  1
SORTENTSTABLE
  2
AcDbSortentsTable
  3
"AutoCAD"
 90
        0
280
         0
281
         0
  0
CLASS
  1
LAYER_INDEX
  2
AcDbLayerIndex
  3
"Acad"
 90
        0
280
         0
281
         0
  0
CLASS
  1
SPATIAL_INDEX
  2
AcDbSpatialIndex
  3
"Acad"
 90
        0
280
         0
281
         0
  0
CLASS
  1
OBJECT_PTR
  2
CAseDLPNTableRecord
  3
"ASE-LPNTableRecord"
 90
        1
280
         0
281
         0
  0
CLASS
  1
LAYOUT
  2
AcDbLayout
  3
"AutoCAD 2000"
 90
        1
280
         0
281
         0
  0
CLASS
  1
PLOTSETTINGS
  2
AcDbPlotSettings
  3
"AutoCAD 2000"
 90
        1
280
         0
281
         0
  0
CLASS
  1
ACDBDICTIONARYWDFLT
  2
AcDbDictionaryWithDefault
  3
"AutoCAD 2000"
 90
        1
280
         0
281
         0
  0
CLASS
  1
ACDBPLACEHOLDER
  2
AcDbPlaceHolder
  3
"AutoCAD 2000"
 90
        1
280
         0
281
         0
  0
CLASS
  1
VBA_PROJECT
  2
AcDbVbaProject
  3
"acadvba"
 90
        1
280
         0
281
         0
  0
CLASS
  1
WIPEOUT
  2
AcDbWipeout
  3
WipeOut|AutoCAD Express Tool|expresstools@autodesk.com
 90
      127
280
         0
281
         1
  0
CLASS
  1
WIPEOUTVARIABLES
  2
AcDbWipeoutVariables
  3
WipeOut|AutoCAD Express Tool|expresstools@autodesk.com
 90
        0
280
         0
281
         0
  0
CLASS
  1
RTEXT
  2
RText
  3
RText|AutoCAD Express Tool|expresstools@autodesk.com
 90
        0
280
         0
281
         1
  0
CLASS
  1
ARCALIGNEDTEXT
  2
AcDbArcAlignedText
  3
ATEXT|AutoCAD Express Tool|expresstools@autodesk.com
 90
        0
280
         0
281
         1
  0
ENDSEC
  0
SECTION
  2
TABLES
  0
TABLE
  2
VPORT
  5
7
100
AcDbSymbolTable
 70
         1
  0
VPORT
  5
15
100
AcDbSymbolTableRecord
100
AcDbViewportTableRecord
  2
*ACTIVE
 70
         0
 10
0.0
 20
0.0
 11
1.0
 21
1.0
 12
1418.9268908709
 22
172.3000919547
 13
0.0
 23
0.0
 14
1.0
 24
1.0
 15
0.0
 25
0.0
 16
0.0
 26
0.0
 36
1.0
 17
0.0
 27
0.0
 37
0.0
 40
264.8828455214
 41
1.9834619625
 42
50.0
 43
0.0
 44
0.0
 50
0.0
 51
0.0
 71
         0
 72
       100
 73
         1
 74
         1
 75
         0
 76
         0
 77
         0
 78
         0
  0
ENDTAB
  0
TABLE
  2
LTYPE
  5
4
100
AcDbSymbolTable
 70
         6
  0
LTYPE
  5
11
100
AcDbSymbolTableRecord
100
AcDbLinetypeTableRecord
  2
BYBLOCK
 70
        64
  3

 72
        65
 73
         0
 40
0.0
  0
LTYPE
  5
12
100
AcDbSymbolTableRecord
100
AcDbLinetypeTableRecord
  2
BYLAYER
 70
        64
  3

 72
        65
 73
         0
 40
0.0
  0
LTYPE
  5
13
100
AcDbSymbolTableRecord
100
AcDbLinetypeTableRecord
  2
CONTINUOUS
 70
        64
  3
Solid line
 72
        65
 73
         0
 40
0.0
  0
LTYPE
  5
1D
100
AcDbSymbolTableRecord
100
AcDbLinetypeTableRecord
  2
DASHED
 70
        64
  3
_ _ _ _ _ _ _ _ _ _ _ _ _ _ _ _
 72
        65
 73
         2
 40
0.2
 49
0.1
 74
         0
 49
-0.1
 74
         0
  0
LTYPE
  5
1E
100
AcDbSymbolTableRecord
100
AcDbLinetypeTableRecord
  2
CENTER
 70
        64
  3
___ _ ___ _ ___ _ ___ _ ___ _ ___ _ ___ _ ___ _
 72
        65
 73
         4
 40
0.95
 49
0.625
 74
         0
 49
-0.125
 74
         0
 49
0.075
 74
         0
 49
-0.125
 74
         0
  0
LTYPE
  5
1F
100
AcDbSymbolTableRecord
100
AcDbLinetypeTableRecord
  2
PHANTOM
 70
        64
  3
______  __  __  ______  __  __  ______  __  __  
 72
        65
 73
         6
 40
1.025
 49
0.625
 74
         0
 49
-0.125
 74
         0
 49
0.075
 74
         0
 49
-0.125
 74
         0
 49
0.075
 74
         0
 49
-0.125
 74
         0
  0
ENDTAB
  0
TABLE
  2
LAYER
  5
2
100
AcDbSymbolTable
 70
         6
  0
LAYER
  5
14
100
AcDbSymbolTableRecord
100
AcDbLayerTableRecord
  2
0
 70
         0
 62
         7
  6
CONTINUOUS
  0
LAYER
  5
21
100
AcDbSymbolTableRecord
100
AcDbLayerTableRecord
  2
_____U
 70
         1
 62
         7
  6
CONTINUOUS
  0
LAYER
  5
22
100
AcDbSymbolTableRecord
100
AcDbLayerTableRecord
  2
_____T______
 70
         1
 62
         7
  6
CONTINUOUS
  0
LAYER
  5
23
100
AcDbSymbolTableRecord
100
AcDbLayerTableRecord
  2
_Y__________
 70
         0
 62
         7
  6
CONTINUOUS
  0
LAYER
  5
24
100
AcDbSymbolTableRecord
100
AcDbLayerTableRecord
  2
L1_100
 70
         0
 62
         7
  6
CONTINUOUS
  0
LAYER
  5
29
100
AcDbSymbolTableRecord
100
AcDbLayerTableRecord
  2
DEFPOINTS
 70
         0
 62
        -7
  6
CONTINUOUS
  0
ENDTAB
  0
TABLE
  2
STYLE
  5
3
100
AcDbSymbolTable
 70
         6
  0
STYLE
  5
17
100
AcDbSymbolTableRecord
100
AcDbTextStyleTableRecord
  2
STANDARD
 70
         0
 40
0.0
 41
1.0
 50
0.0
 71
         0
 42
0.0
  3
txt
  4

  0
STYLE
  5
32
100
AcDbSymbolTableRecord
100
AcDbTextStyleTableRecord
  2
BOX
 70
         0
 40
1.0
 41
1.0
 50
0.0
 71
         0
 42
0.2
  3
txt.shx
  4

  0
STYLE
  5
9E
100
AcDbSymbolTableRecord
100
AcDbTextStyleTableRecord
  2
BOX
 70
         0
 40
1.0
 41
1.0
 50
0.0
 71
         0
 42
0.2
  3
txt.shx
  4

  0
STYLE
  5
CF
100
AcDbSymbolTableRecord
100
AcDbTextStyleTableRecord
  2
BOX
 70
         0
 40
1.0
 41
1.0
 50
0.0
 71
         0
 42
0.2
  3
txt.shx
  4

  0
STYLE
  5
E1
100
AcDbSymbolTableRecord
100
AcDbTextStyleTableRecord
  2
BOX
 70
         0
 40
1.0
 41
1.0
 50
0.0
 71
         0
 42
0.2
  3
txt.shx
  4

  0
STYLE
  5
EA
100
AcDbSymbolTableRecord
100
AcDbTextStyleTableRecord
  2
BOX
 70
         0
 40
1.0
 41
1.0
 50
0.0
 71
         0
 42
0.2
  3
txt.shx
  4

  0
ENDTAB
  0
TABLE
  2
VIEW
  5
5
100
AcDbSymbolTable
 70
         0
  0
ENDTAB
  0
TABLE
  2
UCS
  5
6
100
AcDbSymbolTable
 70
         1
  0
UCS
  5
20
100
AcDbSymbolTableRecord
100
AcDbUCSTableRecord
  2
CK_VIEW_1
 70
         0
 10
0.0
 20
0.0
 30
1.0
 11
1.0
 21
0.0
 31
0.0
 12
0.0
 22
1.0
 32
0.0
  0
ENDTAB
  0
TABLE
  2
APPID
  5
8
100
AcDbSymbolTable
 70
         1
  0
APPID
  5
16
100
AcDbSymbolTableRecord
100
AcDbRegAppTableRecord
  2
ACAD
 70
         0
  0
ENDTAB
  0
TABLE
  2
DIMSTYLE
  5
9
100
AcDbSymbolTable
 70
         2
  0
DIMSTYLE
105
18
100
AcDbSymbolTableRecord
100
AcDbDimStyleTableRecord
  2
STANDARD
 70
         0
  3

  4

  5

  6

  7

 40
1.0
 41
0.18
 42
0.0625
 43
0.38
 44
0.18
 45
0.0
 46
0.0
 47
0.0
 48
0.0
 71
         0
 72
         0
 73
         1
 74
         1
 75
         0
 76
         0
 77
         0
 78
         0
140
0.18
141
0.09
142
0.0
143
25.4
144
1.0
145
0.0
146
1.0
147
0.09
170
         0
171
         2
172
         0
173
         0
174
         0
175
         0
176
         0
177
         0
178
         0
270
         2
271
         4
272
         4
273
         2
274
         2
275
         0
280
         0
281
         0
282
         0
283
         1
284
         0
285
         0
286
         0
287
         0
288
         0
340
17
  0
DIMSTYLE
105
25
100
AcDbSymbolTableRecord
100
AcDbDimStyleTableRecord
  2
DIMSTYLE1
 70
         0
  3

  4

  5

  6

  7

 40
1.0
 41
2.7
 42
0.0625
 43
0.38
 44
2.7
 45
0.0
 46
0.0
 47
0.0
 48
0.0
 71
         0
 72
         0
 73
         1
 74
         1
 75
         0
 76
         0
 77
         0
 78
         0
140
2.7
141
0.09
142
0.0
143
25.4
144
1.0
145
0.0
146
1.0
147
0.09
170
         0
171
         2
172
         0
173
         0
174
         0
175
         0
176
         0
177
         0
178
         0
270
         2
271
         4
272
         4
273
         2
274
         2
275
         0
280
         0
281
         0
282
         0
283
         1
284
         0
285
         0
286
         0
287
         0
288
         0
340
17
  0
ENDTAB
  0
TABLE
  2
BLOCK_RECORD
  5
1
100
AcDbSymbolTable
 70
         4
  0
BLOCK_RECORD
  5
A
100
AcDbSymbolTableRecord
100
AcDbBlockTableRecord
  2
*MODEL_SPACE
  0
BLOCK_RECORD
  5
B
100
AcDbSymbolTableRecord
100
AcDbBlockTableRecord
  2
*PAPER_SPACE
  0
BLOCK_RECORD
  5
26
100
AcDbSymbolTableRecord
100
AcDbBlockTableRecord
  2
*D0
  0
BLOCK_RECORD
  5
93
100
AcDbSymbolTableRecord
100
AcDbBlockTableRecord
  2
*D1
  0
BLOCK_RECORD
  5
C4
100
AcDbSymbolTableRecord
100
AcDbBlockTableRecord
  2
*D2
  0
BLOCK_RECORD
  5
D6
100
AcDbSymbolTableRecord
100
AcDbBlockTableRecord
  2
*D3
  0
ENDTAB
  0
ENDSEC
  0
SECTION
  2
BLOCKS
  0
BLOCK
  5
D
100
AcDbEntity
  8
0
100
AcDbBlockBegin
  2
*MODEL_SPACE
 70
         0
 10
0.0
 20
0.0
 30
0.0
  3
*MODEL_SPACE
  1

  0
ENDBLK
  5
E
100
AcDbEntity
  8
0
100
AcDbBlockEnd
  0
BLOCK
  5
F
100
AcDbEntity
 67
         1
  8
0
100
AcDbBlockBegin
  2
*PAPER_SPACE
 70
         0
 10
0.0
 20
0.0
 30
0.0
  3
*PAPER_SPACE
  1

  0
ENDBLK
  5
10
100
AcDbEntity
 67
         1
  8
0
100
AcDbBlockEnd
  0
BLOCK
  5
27
100
AcDbEntity
  8
0
100
AcDbBlockBegin
  2
*D0
 70
        65
 10
0.0
 20
0.0
 30
0.0
  3
*D0
  1

  0
POINT
  5
2A
100
AcDbEntity
  8
DEFPOINTS
  6
CONTINUOUS
 62
         0
100
AcDbPoint
 10
1407.5033403763
 20
210.9542447375
 30
0.0
  0
POINT
  5
2B
100
AcDbEntity
  8
DEFPOINTS
  6
CONTINUOUS
 62
         0
100
AcDbPoint
 10
1407.5033403763
 20
172.4096417294
 30
0.0
  0
POINT
  5
2C
100
AcDbEntity
  8
DEFPOINTS
  6
CONTINUOUS
 62
         0
100
AcDbPoint
 10
1451.9533403763
 20
171.3846417294
 30
0.0
  0
LINE
  5
2D
100
AcDbEntity
  8
L1_100
  6
CONTINUOUS
 62
         4
100
AcDbLine
 10
1407.5033403763
 20
173.7596417294
 30
0.0
 11
1407.5033403763
 21
211.6292447375
 31
0.0
  0
LINE
  5
2E
100
AcDbEntity
  8
L1_100
  6
CONTINUOUS
 62
         4
100
AcDbLine
 10
1451.9533403763
 20
172.7346417294
 30
0.0
 11
1451.9533403763
 21
211.6292447375
 31
0.0
  0
LINE
  5
2F
100
AcDbEntity
  8
L1_100
  6
CONTINUOUS
 62
         4
100
AcDbLine
 10
1407.5033403763
 20
210.9542447375
 30
0.0
 11
1451.9533403763
 21
210.9542447375
 31
0.0
  0
SOLID
  5
30
100
AcDbEntity
  8
L1_100
  6
CONTINUOUS
 62
         4
100
AcDbTrace
 10
1407.5033403763
 20
210.9542447375
 30
0.0
 11
1410.2033403763
 21
211.3592447375
 31
0.0
 12
1410.2033403763
 22
210.5492447375
 32
0.0
 13
1407.5033403763
 23
210.9542447375
 33
0.0
  0
SOLID
  5
31
100
AcDbEntity
  8
L1_100
  6
CONTINUOUS
 62
         4
100
AcDbTrace
 10
1451.9533403763
 20
210.9542447375
 30
0.0
 11
1449.2533403763
 21
210.5492447375
 31
0.0
 12
1449.2533403763
 22
211.3592447375
 32
0.0
 13
1451.9533403763
 23
210.9542447375
 33
0.0
  0
TEXT
  5
33
100
AcDbEntity
  8
L1_100
  6
CONTINUOUS
 62
         4
100
AcDbText
 10
1424.0689276153
 20
212.9792447375
 30
0.0
 40
2.7
  1
44.45
  7
BOX
100
AcDbText
  0
ENDBLK
  5
34
100
AcDbEntity
  8
0
  6
CONTINUOUS
100
AcDbBlockEnd
  0
BLOCK
  5
94
100
AcDbEntity
  8
0
100
AcDbBlockBegin
  2
*D1
 70
        65
 10
0.0
 20
0.0
 30
0.0
  3
*D1
  1

  0
POINT
  5
96
100
AcDbEntity
  8
DEFPOINTS
  6
CONTINUOUS
 62
         0
100
AcDbPoint
 10
1314.1033403763
 20
219.4698938675
 30
0.0
  0
POINT
  5
97
100
AcDbEntity
  8
DEFPOINTS
  6
CONTINUOUS
 62
         0
100
AcDbPoint
 10
1314.1033403763
 20
161.6846417294
 30
0.0
  0
POINT
  5
98
100
AcDbEntity
  8
DEFPOINTS
  6
CONTINUOUS
 62
         0
100
AcDbPoint
 10
1463.1293403763
 20
150.1846417294
 30
0.0
  0
LINE
  5
99
100
AcDbEntity
  8
L1_100
  6
CONTINUOUS
 62
         4
100
AcDbLine
 10
1314.1033403763
 20
163.0346417294
 30
0.0
 11
1314.1033403763
 21
220.1448938675
 31
0.0
  0
LINE
  5
9A
100
AcDbEntity
  8
L1_100
  6
CONTINUOUS
 62
         4
100
AcDbLine
 10
1463.1293403763
 20
151.5346417294
 30
0.0
 11
1463.1293403763
 21
220.1448938675
 31
0.0
  0
LINE
  5
9B
100
AcDbEntity
  8
L1_100
  6
CONTINUOUS
 62
         4
100
AcDbLine
 10
1314.1033403763
 20
219.4698938675
 30
0.0
 11
1463.1293403763
 21
219.4698938675
 31
0.0
  0
SOLID
  5
9C
100
AcDbEntity
  8
L1_100
  6
CONTINUOUS
 62
         4
100
AcDbTrace
 10
1314.1033403763
 20
219.4698938675
 30
0.0
 11
1316.8033403763
 21
219.8748938675
 31
0.0
 12
1316.8033403763
 22
219.0648938675
 32
0.0
 13
1314.1033403763
 23
219.4698938675
 33
0.0
  0
SOLID
  5
9D
100
AcDbEntity
  8
L1_100
  6
CONTINUOUS
 62
         4
100
AcDbTrace
 10
1463.1293403763
 20
219.4698938675
 30
0.0
 11
1460.4293403763
 21
219.0648938675
 31
0.0
 12
1460.4293403763
 22
219.8748938675
 32
0.0
 13
1463.1293403763
 23
219.4698938675
 33
0.0
  0
TEXT
  5
9F
100
AcDbEntity
  8
L1_100
  6
CONTINUOUS
 62
         4
100
AcDbText
 10
1374.1729324779
 20
221.4948938675
 30
0.0
 40
2.7
  1
149.026
  7
BOX
100
AcDbText
  0
ENDBLK
  5
A0
100
AcDbEntity
  8
0
  6
CONTINUOUS
100
AcDbBlockEnd
  0
BLOCK
  5
C5
100
AcDbEntity
  8
0
100
AcDbBlockBegin
  2
*D2
 70
        65
 10
0.0
 20
0.0
 30
0.0
  3
*D2
  1

  0
POINT
  5
C7
100
AcDbEntity
  8
DEFPOINTS
  6
CONTINUOUS
 62
         0
100
AcDbPoint
 10
1507.725503233
 20
172.3846417294
 30
0.0
  0
POINT
  5
C8
100
AcDbEntity
  8
DEFPOINTS
  6
CONTINUOUS
 62
         0
100
AcDbPoint
 10
1451.3533403763
 20
172.3846417294
 30
0.0
  0
POINT
  5
C9
100
AcDbEntity
  8
DEFPOINTS
  6
CONTINUOUS
 62
         0
100
AcDbPoint
 10
1451.3533403763
 20
127.9846417294
 30
0.0
  0
LINE
  5
CA
100
AcDbEntity
  8
L1_100
  6
CONTINUOUS
 62
         4
100
AcDbLine
 10
1452.7033403763
 20
172.3846417294
 30
0.0
 11
1508.400503233
 21
172.3846417294
 31
0.0
  0
LINE
  5
CB
100
AcDbEntity
  8
L1_100
  6
CONTINUOUS
 62
         4
100
AcDbLine
 10
1452.7033403763
 20
127.9846417294
 30
0.0
 11
1508.400503233
 21
127.9846417294
 31
0.0
  0
LINE
  5
CC
100
AcDbEntity
  8
L1_100
  6
CONTINUOUS
 62
         4
100
AcDbLine
 10
1507.725503233
 20
172.3846417294
 30
0.0
 11
1507.725503233
 21
127.9846417294
 31
0.0
  0
SOLID
  5
CD
100
AcDbEntity
  8
L1_100
  6
CONTINUOUS
 62
         4
100
AcDbTrace
 10
1507.725503233
 20
172.3846417294
 30
0.0
 11
1508.130503233
 21
169.6846417294
 31
0.0
 12
1507.320503233
 22
169.6846417294
 32
0.0
 13
1507.725503233
 23
172.3846417294
 33
0.0
  0
SOLID
  5
CE
100
AcDbEntity
  8
L1_100
  6
CONTINUOUS
 62
         4
100
AcDbTrace
 10
1507.725503233
 20
127.9846417294
 30
0.0
 11
1507.320503233
 21
130.6846417294
 31
0.0
 12
1508.130503233
 22
130.6846417294
 32
0.0
 13
1507.725503233
 23
127.9846417294
 33
0.0
  0
TEXT
  5
D0
100
AcDbEntity
  8
L1_100
  6
CONTINUOUS
 62
         4
100
AcDbText
 10
1505.700503233
 20
141.15779518
 30
0.0
 40
2.7
  1
崷44.4
 50
90.0
  7
BOX
100
AcDbText
  0
ENDBLK
  5
D1
100
AcDbEntity
  8
0
  6
CONTINUOUS
100
AcDbBlockEnd
  0
BLOCK
  5
D7
100
AcDbEntity
  8
0
100
AcDbBlockBegin
  2
*D3
 70
        65
 10
0.0
 20
0.0
 30
0.0
  3
*D3
  1

  0
POINT
  5
D9
100
AcDbEntity
  8
DEFPOINTS
  6
CONTINUOUS
 62
         0
100
AcDbPoint
 10
1488.6650946157
 20
160.1846417294
 30
0.0
  0
POINT
  5
DA
100
AcDbEntity
  8
DEFPOINTS
  6
CONTINUOUS
 62
         0
100
AcDbPoint
 10
1455.9533403763
 20
160.1846417294
 30
0.0
  0
POINT
  5
DB
100
AcDbEntity
  8
DEFPOINTS
  6
CONTINUOUS
 62
         0
100
AcDbPoint
 10
1455.9533403763
 20
140.1846417294
 30
0.0
  0
LINE
  5
DC
100
AcDbEntity
  8
L1_100
  6
CONTINUOUS
 62
         4
100
AcDbLine
 10
1457.3033403763
 20
160.1846417294
 30
0.0
 11
1489.3400946157
 21
160.1846417294
 31
0.0
  0
LINE
  5
DD
100
AcDbEntity
  8
L1_100
  6
CONTINUOUS
 62
         4
100
AcDbLine
 10
1457.3033403763
 20
140.1846417294
 30
0.0
 11
1489.3400946157
 21
140.1846417294
 31
0.0
  0
LINE
  5
DE
100
AcDbEntity
  8
L1_100
  6
CONTINUOUS
 62
         4
100
AcDbLine
 10
1488.6650946157
 20
160.1846417294
 30
0.0
 11
1488.6650946157
 21
140.1846417294
 31
0.0
  0
SOLID
  5
DF
100
AcDbEntity
  8
L1_100
  6
CONTINUOUS
 62
         4
100
AcDbTrace
 10
1488.6650946157
 20
160.1846417294
 30
0.0
 11
1489.0700946157
 21
157.4846417294
 31
0.0
 12
1488.2600946157
 22
157.4846417294
 32
0.0
 13
1488.6650946157
 23
160.1846417294
 33
0.0
  0
SOLID
  5
E0
100
AcDbEntity
  8
L1_100
  6
CONTINUOUS
 62
         4
100
AcDbTrace
 10
1488.6650946157
 20
140.1846417294
 30
0.0
 11
1488.2600946157
 21
142.8846417294
 31
0.0
 12
1489.0700946157
 22
142.8846417294
 32
0.0
 13
1488.6650946157
 23
140.1846417294
 33
0.0
  0
TEXT
  5
E2
100
AcDbEntity
  8
L1_100
  6
CONTINUOUS
 62
         4
100
AcDbText
 10
1486.6400946157
 20
141.4374330321
 30
0.0
 40
2.7
  1
崷20
 50
90.0
  7
BOX
100
AcDbText
  0
ENDBLK
  5
E3
100
AcDbEntity
  8
0
  6
CONTINUOUS
100
AcDbBlockEnd
  0
ENDSEC
  0
SECTION
  2
ENTITIES
  0
DIMENSION
  5
28
100
AcDbEntity
  8
L1_100
  6
CONTINUOUS
 62
         4
100
AcDbDimension
  2
*D0
 10
1407.5033403763
 20
210.9542447375
 30
0.0
 11
1424.0689276153
 21
212.9792447375
 31
0.0
  3
DIMSTYLE1
100
AcDbAlignedDimension
 13
1407.5033403763
 23
172.4096417294
 33
0.0
 14
1451.9533403763
 24
171.3846417294
 34
0.0
100
AcDbRotatedDimension
  0
ARC
  5
35
100
AcDbEntity
  8
L1_100
  6
CONTINUOUS
 62
         7
100
AcDbCircle
 10
1422.1033403763
 20
124.9846417294
 30
0.0
 40
3.0
100
AcDbArc
 50
90.0
 51
180.0
  0
ARC
  5
36
100
AcDbEntity
  8
L1_100
  6
CONTINUOUS
 62
         7
100
AcDbCircle
 10
1422.1033403763
 20
175.3846417294
 30
0.0
 40
3.0
100
AcDbArc
 50
180.0
 51
270.0
  0
LINE
  5
37
100
AcDbEntity
  8
_Y__________
  6
CONTINUOUS
 62
         7
100
AcDbLine
 10
1419.1033403763
 20
119.6846417294
 30
0.0
 11
1419.1033403763
 21
180.6846417294
 31
0.0
  0
ARC
  5
38
100
AcDbEntity
  8
_Y__________
  6
CONTINUOUS
 62
         7
100
AcDbCircle
 10
1315.1033403763
 20
138.6846417294
 30
0.0
 40
1.0
100
AcDbArc
 50
180.0
 51
270.0
  0
ARC
  5
39
100
AcDbEntity
  8
_Y__________
  6
CONTINUOUS
 62
         7
100
AcDbCircle
 10
1315.1033403763
 20
161.6846417294
 30
0.0
 40
1.0
100
AcDbArc
 50
90.0
 51
180.0
  0
LINE
  5
3A
100
AcDbEntity
  8
_Y__________
  6
CONTINUOUS
 62
         4
100
AcDbLine
 10
1342.9082790421
 20
137.3797030636
 30
0.0
 11
1342.9082790421
 21
162.9895803952
 31
0.0
  0
LINE
  5
3B
100
AcDbEntity
  8
_Y__________
  6
CONTINUOUS
 62
         4
100
AcDbLine
 10
1336.6033403763
 20
162.6846417294
 30
0.0
 11
1336.6033403763
 21
137.6846417294
 31
0.0
  0
LINE
  5
3C
100
AcDbEntity
  8
_Y__________
  6
CONTINUOUS
 62
         7
100
AcDbLine
 10
1337.1033403763
 20
138.1846417294
 30
0.0
 11
1337.1033403763
 21
162.1846417294
 31
0.0
  0
LINE
  5
3D
100
AcDbEntity
  8
_Y__________
  6
CONTINUOUS
 62
         7
100
AcDbLine
 10
1337.1033403763
 20
138.1846417294
 30
0.0
 11
1342.1033403763
 21
138.1846417294
 31
0.0
  0
LINE
  5
3E
100
AcDbEntity
  8
_Y__________
  6
CONTINUOUS
 62
         7
100
AcDbLine
 10
1342.9082790421
 20
137.3797030636
 30
0.0
 11
1342.1033403763
 21
138.1846417294
 31
0.0
  0
LINE
  5
3F
100
AcDbEntity
  8
_Y__________
  6
CONTINUOUS
 62
         7
100
AcDbLine
 10
1337.1033403763
 20
138.1846417294
 30
0.0
 11
1341.415787954
 21
138.1846417294
 31
0.0
  0
LINE
  5
40
100
AcDbEntity
  8
_Y__________
  6
CONTINUOUS
 62
         7
100
AcDbLine
 10
1337.1033403763
 20
138.1846417294
 30
0.0
 11
1336.6033403763
 21
137.6846417294
 31
0.0
  0
LINE
  5
41
100
AcDbEntity
  8
_Y__________
  6
CENTER
 62
         1
100
AcDbLine
 10
1419.1033403763
 20
150.1846417294
 30
0.0
 11
1401.0340129502
 21
150.1846417294
 31
0.0
  0
ARC
  5
42
100
AcDbEntity
  8
_Y__________
  6
CONTINUOUS
 62
         7
100
AcDbCircle
 10
1408.2122517787
 20
127.2921717072
 30
0.0
 40
0.9736896872
100
AcDbArc
 50
23.7705561747
 51
136.724593942
  0
ARC
  5
43
100
AcDbEntity
  8
_Y__________
  6
CONTINUOUS
 62
         7
100
AcDbCircle
 10
1408.2122517787
 20
173.0771117516
 30
0.0
 40
0.9736896872
100
AcDbArc
 50
223.275406058
 51
336.2294438253
  0
LINE
  5
44
100
AcDbEntity
  8
_Y__________
  6
CONTINUOUS
 62
         7
100
AcDbLine
 10
1418.1033403763
 20
118.6846417294
 30
0.0
 11
1410.1033403763
 21
118.6846417294
 31
0.0
  0
LINE
  5
45
100
AcDbEntity
  8
_Y__________
  6
CONTINUOUS
 62
         7
100
AcDbLine
 10
1418.1033403763
 20
181.6846417294
 30
0.0
 11
1410.1033403763
 21
181.6846417294
 31
0.0
  0
LINE
  5
46
100
AcDbEntity
  8
_Y__________
  6
CONTINUOUS
 62
         7
100
AcDbLine
 10
1409.1033403763
 20
119.6846417294
 30
0.0
 11
1409.1033403763
 21
180.6846417294
 31
0.0
  0
LINE
  5
47
100
AcDbEntity
  8
_Y__________
  6
CONTINUOUS
 62
         7
100
AcDbLine
 10
1407.5033403763
 20
127.9596417294
 30
0.0
 11
1407.5033403763
 21
172.4096417294
 31
0.0
  0
LINE
  5
48
100
AcDbEntity
  8
_Y__________
  6
CONTINUOUS
 62
         7
100
AcDbLine
 10
1407.5033403763
 20
172.4096417294
 30
0.0
 11
1342.9082790421
 21
162.9895803952
 31
0.0
  0
LINE
  5
49
100
AcDbEntity
  8
_Y__________
  6
CONTINUOUS
 62
         7
100
AcDbLine
 10
1407.5033403763
 20
127.9596417294
 30
0.0
 11
1342.9082790421
 21
137.3797030636
 31
0.0
  0
LINE
  5
4A
100
AcDbEntity
  8
_Y__________
  6
CENTER
 62
         1
100
AcDbLine
 10
1391.2258413673
 20
150.1846417294
 30
0.0
 11
1310.0250730101
 21
150.1846417294
 31
0.0
  0
LINE
  5
4B
100
AcDbEntity
  8
_Y__________
  6
CONTINUOUS
 62
         4
100
AcDbLine
 10
1381.611646325
 20
168.633774109
 30
0.0
 11
1385.0394903877
 21
169.1336591773
 31
0.0
  0
LINE
  5
4C
100
AcDbEntity
  8
_Y__________
  6
CONTINUOUS
 62
         7
100
AcDbLine
 10
1342.1033403763
 20
162.1846417294
 30
0.0
 11
1342.1033403763
 21
138.1846417294
 31
0.0
  0
LINE
  5
4D
100
AcDbEntity
  8
_Y__________
  6
CONTINUOUS
 62
         7
100
AcDbLine
 10
1336.6033403763
 20
137.6846417294
 30
0.0
 11
1315.1033403763
 21
137.6846417294
 31
0.0
  0
LINE
  5
4E
100
AcDbEntity
  8
_Y__________
  6
CONTINUOUS
 62
         7
100
AcDbLine
 10
1336.6033403763
 20
162.6846417294
 30
0.0
 11
1315.1033403763
 21
162.6846417294
 31
0.0
  0
LINE
  5
4F
100
AcDbEntity
  8
_Y__________
  6
CONTINUOUS
 62
         7
100
AcDbLine
 10
1314.1033403763
 20
161.6846417294
 30
0.0
 11
1314.1033403763
 21
138.6846417294
 31
0.0
  0
LINE
  5
50
100
AcDbEntity
  8
_Y__________
  6
CONTINUOUS
 62
         7
100
AcDbLine
 10
1337.1033403763
 20
162.1846417294
 30
0.0
 11
1336.6033403763
 21
162.6846417294
 31
0.0
  0
LINE
  5
51
100
AcDbEntity
  8
_Y__________
  6
CONTINUOUS
 62
         7
100
AcDbLine
 10
1337.1033403763
 20
162.1846417294
 30
0.0
 11
1342.1033403763
 21
162.1846417294
 31
0.0
  0
LINE
  5
52
100
AcDbEntity
  8
_Y__________
  6
CONTINUOUS
 62
         7
100
AcDbLine
 10
1342.9082790421
 20
162.9895803952
 30
0.0
 11
1342.1033403763
 21
162.1846417294
 31
0.0
  0
LINE
  5
53
100
AcDbEntity
  8
_Y__________
  6
CONTINUOUS
 62
         7
100
AcDbLine
 10
1337.1033403763
 20
162.1846417294
 30
0.0
 11
1341.415787954
 21
162.1846417294
 31
0.0
  0
ARC
  5
54
100
AcDbEntity
  8
_Y__________
  6
CONTINUOUS
 62
         2
100
AcDbCircle
 10
1214.9233403763
 20
150.1846417294
 30
0.0
 40
8.0
100
AcDbArc
 50
253.393602324
 51
547.5053532215
  0
CIRCLE
  5
55
100
AcDbEntity
  8
_Y__________
  6
CONTINUOUS
 62
         7
100
AcDbCircle
 10
1214.9233403763
 20
150.1846417294
 30
0.0
 40
6.9175
  0
CIRCLE
  5
56
100
AcDbEntity
  8
_Y__________
  6
CONTINUOUS
 62
         7
100
AcDbCircle
 10
1214.9233403763
 20
150.1846417294
 30
0.0
 40
8.5
  0
CIRCLE
  5
57
100
AcDbEntity
  8
_Y__________
  6
CONTINUOUS
 62
         7
100
AcDbCircle
 10
1214.9233403763
 20
150.1846417294
 30
0.0
 40
10.75
  0
CIRCLE
  5
58
100
AcDbEntity
  8
_Y__________
  6
CONTINUOUS
 62
         7
100
AcDbCircle
 10
1214.9233403763
 20
150.1846417294
 30
0.0
 40
22.225
  0
CIRCLE
  5
59
100
AcDbEntity
  8
_Y__________
  6
CONTINUOUS
 62
         7
100
AcDbCircle
 10
1214.9233403763
 20
150.1846417294
 30
0.0
 40
12.65
  0
LINE
  5
5A
100
AcDbEntity
  8
_Y__________
  6
CENTER
 62
         1
100
AcDbLine
 10
1249.3782766045
 20
150.1846417294
 30
0.0
 11
1180.1155051372
 21
150.1846417294
 31
0.0
  0
ARC
  5
5B
100
AcDbEntity
  8
_Y__________
  6
CONTINUOUS
 62
         7
100
AcDbCircle
 10
1214.9233403763
 20
150.1846417294
 30
0.0
 40
31.5
100
AcDbArc
 50
16.2836386031
 51
163.7163613969
  0
LINE
  5
5C
100
AcDbEntity
  8
_Y__________
  6
CONTINUOUS
 62
         7
100
AcDbLine
 10
1237.4233403763
 20
156.6346417294
 30
0.0
 11
1237.4233403763
 21
143.7346417294
 31
0.0
  0
LINE
  5
5D
100
AcDbEntity
  8
_Y__________
  6
CONTINUOUS
 62
         7
100
AcDbLine
 10
1239.0233403763
 20
142.1346417294
 30
0.0
 11
1244.377363099
 21
142.1346417294
 31
0.0
  0
LINE
  5
5E
100
AcDbEntity
  8
_Y__________
  6
CONTINUOUS
 62
         7
100
AcDbLine
 10
1239.0233403763
 20
158.2346417294
 30
0.0
 11
1244.377363099
 21
158.2346417294
 31
0.0
  0
LINE
  5
5F
100
AcDbEntity
  8
_Y__________
  6
CONTINUOUS
 62
         7
100
AcDbLine
 10
1190.8233403763
 20
142.1346417294
 30
0.0
 11
1185.4693176535
 21
142.1346417294
 31
0.0
  0
LINE
  5
60
100
AcDbEntity
  8
_Y__________
  6
CONTINUOUS
 62
         7
100
AcDbLine
 10
1190.8233403763
 20
158.2346417294
 30
0.0
 11
1185.4693176535
 21
158.2346417294
 31
0.0
  0
LINE
  5
61
100
AcDbEntity
  8
_Y__________
  6
CONTINUOUS
 62
         7
100
AcDbLine
 10
1192.4233403763
 20
156.6346417294
 30
0.0
 11
1192.4233403763
 21
143.7346417294
 31
0.0
  0
ARC
  5
62
100
AcDbEntity
  8
_Y__________
  6
CONTINUOUS
 62
         7
100
AcDbCircle
 10
1214.9233403763
 20
150.1846417294
 30
0.0
 40
31.5
100
AcDbArc
 50
196.2836386031
 51
343.7163613969
  0
LINE
  5
63
100
AcDbEntity
  8
_Y__________
  6
CENTER
 62
         1
100
AcDbLine
 10
1214.9233403763
 20
118.6846417294
 30
0.0
 11
1214.9233403763
 21
181.6846417294
 31
0.0
  0
ARC
  5
64
100
AcDbEntity
  8
_Y__________
  6
CONTINUOUS
 62
         7
100
AcDbCircle
 10
1190.8233403763
 20
143.7346417294
 30
0.0
 40
1.6
100
AcDbArc
 50
270.0
 51
360.0
  0
ARC
  5
65
100
AcDbEntity
  8
_Y__________
  6
CONTINUOUS
 62
         7
100
AcDbCircle
 10
1190.8233403763
 20
156.6346417294
 30
0.0
 40
1.6
100
AcDbArc
 50
0.0
 51
90.0
  0
ARC
  5
66
100
AcDbEntity
  8
_Y__________
  6
CONTINUOUS
 62
         7
100
AcDbCircle
 10
1239.0233403763
 20
156.6346417294
 30
0.0
 40
1.6
100
AcDbArc
 50
90.0
 51
180.0
  0
ARC
  5
67
100
AcDbEntity
  8
_Y__________
  6
CONTINUOUS
 62
         7
100
AcDbCircle
 10
1239.0233403763
 20
143.7346417294
 30
0.0
 40
1.6
100
AcDbArc
 50
180.0
 51
270.0
  0
LINE
  5
68
100
AcDbEntity
  8
_Y__________
  6
CONTINUOUS
 62
         7
100
AcDbLine
 10
1184.6869502733
 20
141.3522743492
 30
0.0
 11
1185.4693176535
 21
142.1346417294
 31
0.0
  0
LINE
  5
69
100
AcDbEntity
  8
_Y__________
  6
CONTINUOUS
 62
         7
100
AcDbLine
 10
1184.6869502733
 20
159.0170091096
 30
0.0
 11
1185.4693176535
 21
158.2346417294
 31
0.0
  0
LINE
  5
6A
100
AcDbEntity
  8
_Y__________
  6
CONTINUOUS
 62
         7
100
AcDbLine
 10
1245.1597304793
 20
159.0170091096
 30
0.0
 11
1244.377363099
 21
158.2346417294
 31
0.0
  0
LINE
  5
6B
100
AcDbEntity
  8
_Y__________
  6
CONTINUOUS
 62
         7
100
AcDbLine
 10
1245.1597304793
 20
141.3522743492
 30
0.0
 11
1244.377363099
 21
142.1346417294
 31
0.0
  0
LINE
  5
6C
100
AcDbEntity
  8
_Y__________
  6
CENTER
 62
         1
100
AcDbLine
 10
1657.7382766045
 20
150.1846417294
 30
0.0
 11
1588.4755051372
 21
150.1846417294
 31
0.0
  0
LINE
  5
6D
100
AcDbEntity
  8
_Y__________
  6
CENTER
 62
         1
100
AcDbLine
 10
1623.2833403763
 20
115.7297055011
 30
0.0
 11
1623.2833403763
 21
184.6395779577
 31
0.0
  0
ARC
  5
6E
100
AcDbEntity
  8
_Y__________
  6
CONTINUOUS
 62
         7
100
AcDbCircle
 10
1623.2833403763
 20
150.1846417294
 30
0.0
 40
31.5
100
AcDbArc
 50
196.2836386031
 51
343.7163613969
  0
ARC
  5
6F
100
AcDbEntity
  8
_Y__________
  6
CONTINUOUS
 62
         7
100
AcDbCircle
 10
1623.2833403763
 20
150.1846417294
 30
0.0
 40
31.5
100
AcDbArc
 50
16.2836386031
 51
163.7163613969
  0
LINE
  5
70
100
AcDbEntity
  8
_Y__________
  6
CONTINUOUS
 62
         7
100
AcDbLine
 10
1599.1833403763
 20
158.2346417294
 30
0.0
 11
1593.8293176535
 21
158.2346417294
 31
0.0
  0
LINE
  5
71
100
AcDbEntity
  8
_Y__________
  6
CONTINUOUS
 62
         7
100
AcDbLine
 10
1599.1833403763
 20
142.1346417294
 30
0.0
 11
1593.8293176535
 21
142.1346417294
 31
0.0
  0
LINE
  5
72
100
AcDbEntity
  8
_Y__________
  6
CONTINUOUS
 62
         7
100
AcDbLine
 10
1600.7833403763
 20
143.7346417294
 30
0.0
 11
1600.7833403763
 21
156.6346417294
 31
0.0
  0
LINE
  5
73
100
AcDbEntity
  8
_Y__________
  6
CONTINUOUS
 62
         7
100
AcDbLine
 10
1599.1833403763
 20
158.2346417294
 30
0.0
 11
1593.8293176535
 21
158.2346417294
 31
0.0
  0
LINE
  5
74
100
AcDbEntity
  8
_Y__________
  6
CONTINUOUS
 62
         7
100
AcDbLine
 10
1647.3833403763
 20
158.2346417294
 30
0.0
 11
1652.737363099
 21
158.2346417294
 31
0.0
  0
LINE
  5
75
100
AcDbEntity
  8
_Y__________
  6
CONTINUOUS
 62
         7
100
AcDbLine
 10
1645.7833403763
 20
156.6346417294
 30
0.0
 11
1645.7833403763
 21
143.7346417294
 31
0.0
  0
LINE
  5
76
100
AcDbEntity
  8
_Y__________
  6
CONTINUOUS
 62
         7
100
AcDbLine
 10
1647.3833403763
 20
142.1346417294
 30
0.0
 11
1652.737363099
 21
142.1346417294
 31
0.0
  0
LINE
  5
77
100
AcDbEntity
  8
_Y__________
  6
CENTER
 62
         1
100
AcDbLine
 10
1623.2833403763
 20
151.1846417294
 30
0.0
 11
1623.2833403763
 21
169.6846417294
 31
0.0
  0
ARC
  5
78
100
AcDbEntity
  8
_Y__________
  6
CONTINUOUS
 62
         7
100
AcDbCircle
 10
1647.3833403763
 20
156.6346417294
 30
0.0
 40
1.6
100
AcDbArc
 50
90.0
 51
180.0
  0
ARC
  5
79
100
AcDbEntity
  8
_Y__________
  6
CONTINUOUS
 62
         7
100
AcDbCircle
 10
1647.3833403763
 20
143.7346417294
 30
0.0
 40
1.6
100
AcDbArc
 50
180.0
 51
270.0
  0
ARC
  5
7A
100
AcDbEntity
  8
_Y__________
  6
CONTINUOUS
 62
         7
100
AcDbCircle
 10
1599.1833403763
 20
143.7346417294
 30
0.0
 40
1.6
100
AcDbArc
 50
270.0
 51
360.0
  0
ARC
  5
7B
100
AcDbEntity
  8
_Y__________
  6
CONTINUOUS
 62
         7
100
AcDbCircle
 10
1599.1833403763
 20
156.6346417294
 30
0.0
 40
1.6
100
AcDbArc
 50
0.0
 51
90.0
  0
LINE
  5
7C
100
AcDbEntity
  8
_Y__________
  6
CONTINUOUS
 62
         7
100
AcDbLine
 10
1593.0469502733
 20
159.0170091096
 30
0.0
 11
1593.8293176535
 21
158.2346417294
 31
0.0
  0
LINE
  5
7D
100
AcDbEntity
  8
_Y__________
  6
CONTINUOUS
 62
         7
100
AcDbLine
 10
1593.0469502733
 20
141.3522743492
 30
0.0
 11
1593.8293176535
 21
142.1346417294
 31
0.0
  0
LINE
  5
7E
100
AcDbEntity
  8
_Y__________
  6
CONTINUOUS
 62
         7
100
AcDbLine
 10
1653.5197304793
 20
159.0170091096
 30
0.0
 11
1652.737363099
 21
158.2346417294
 31
0.0
  0
LINE
  5
7F
100
AcDbEntity
  8
_Y__________
  6
CONTINUOUS
 62
         7
100
AcDbLine
 10
1653.5197304793
 20
141.3522743492
 30
0.0
 11
1652.737363099
 21
142.1346417294
 31
0.0
  0
ARC
  5
80
100
AcDbEntity
  8
_Y__________
  6
CONTINUOUS
 62
         7
100
AcDbCircle
 10
1410.1033403763
 20
180.6846417294
 30
0.0
 40
1.0
100
AcDbArc
 50
90.0
 51
180.0
  0
ARC
  5
81
100
AcDbEntity
  8
_Y__________
  6
CONTINUOUS
 62
         7
100
AcDbCircle
 10
1410.1033403763
 20
119.6846417294
 30
0.0
 40
1.0
100
AcDbArc
 50
180.0
 51
270.0
  0
ARC
  5
82
100
AcDbEntity
  8
_Y__________
  6
CONTINUOUS
 62
         7
100
AcDbCircle
 10
1418.1033403763
 20
180.6846417294
 30
0.0
 40
1.0
100
AcDbArc
 50
0.0
 51
90.0
  0
ARC
  5
83
100
AcDbEntity
  8
_Y__________
  6
CONTINUOUS
 62
         7
100
AcDbCircle
 10
1418.1033403763
 20
119.6846417294
 30
0.0
 40
1.0
100
AcDbArc
 50
270.0
 51
360.0
  0
LINE
  5
84
100
AcDbEntity
  8
_Y__________
  6
CONTINUOUS
 62
         7
100
AcDbLine
 10
1419.1033403763
 20
179.6846417294
 30
0.0
 11
1419.1033403763
 21
180.6846417294
 31
0.0
  0
LINE
  5
85
100
AcDbEntity
  8
_Y__________
  6
CONTINUOUS
 62
         7
100
AcDbLine
 10
1418.1033403763
 20
181.6846417294
 30
0.0
 11
1417.1033403763
 21
181.6846417294
 31
0.0
  0
LINE
  5
86
100
AcDbEntity
  8
_Y__________
  6
CONTINUOUS
 62
         7
100
AcDbLine
 10
1409.1033403763
 20
179.6846417294
 30
0.0
 11
1409.1033403763
 21
180.6846417294
 31
0.0
  0
LINE
  5
87
100
AcDbEntity
  8
_Y__________
  6
CONTINUOUS
 62
         7
100
AcDbLine
 10
1419.1033403763
 20
119.6846417294
 30
0.0
 11
1419.1033403763
 21
120.6846417294
 31
0.0
  0
LINE
  5
88
100
AcDbEntity
  8
_Y__________
  6
CONTINUOUS
 62
         7
100
AcDbLine
 10
1409.1033403763
 20
119.6846417294
 30
0.0
 11
1409.1033403763
 21
120.6846417294
 31
0.0
  0
LINE
  5
89
100
AcDbEntity
  8
_Y__________
  6
CONTINUOUS
 62
         7
100
AcDbLine
 10
1411.1033403763
 20
181.6846417294
 30
0.0
 11
1410.1033403763
 21
181.6846417294
 31
0.0
  0
LINE
  5
8A
100
AcDbEntity
  8
_Y__________
  6
CONTINUOUS
 62
         7
100
AcDbLine
 10
1411.1033403763
 20
118.6846417294
 30
0.0
 11
1410.1033403763
 21
118.6846417294
 31
0.0
  0
LINE
  5
8B
100
AcDbEntity
  8
_Y__________
  6
CONTINUOUS
 62
         7
100
AcDbLine
 10
1418.1033403763
 20
118.6846417294
 30
0.0
 11
1417.1033403763
 21
118.6846417294
 31
0.0
  0
LINE
  5
8C
100
AcDbEntity
  8
_Y__________
  6
CONTINUOUS
 62
         4
100
AcDbLine
 10
1419.1033403763
 20
159.2346417294
 30
0.0
 11
1409.1033403763
 21
159.2346417294
 31
0.0
  0
LINE
  5
8D
100
AcDbEntity
  8
_Y__________
  6
CONTINUOUS
 62
         7
100
AcDbLine
 10
1419.1033403763
 20
158.2346417294
 30
0.0
 11
1409.1033403763
 21
158.2346417294
 31
0.0
  0
LINE
  5
8E
100
AcDbEntity
  8
_Y__________
  6
CONTINUOUS
 62
         7
100
AcDbLine
 10
1419.1033403763
 20
142.1346417294
 30
0.0
 11
1409.1033403763
 21
142.1346417294
 31
0.0
  0
LINE
  5
8F
100
AcDbEntity
  8
_Y__________
  6
CONTINUOUS
 62
         4
100
AcDbLine
 10
1419.1033403763
 20
141.1346417294
 30
0.0
 11
1409.1033403763
 21
141.1346417294
 31
0.0
  0
LINE
  5
90
100
AcDbEntity
  8
L1_100
  6
CONTINUOUS
 62
         7
100
AcDbLine
 10
1409.1033403763
 20
119.6846417294
 30
0.0
 11
1409.1033403763
 21
180.6846417294
 31
0.0
  0
LINE
  5
91
100
AcDbEntity
  8
L1_100
  6
CONTINUOUS
 62
         7
100
AcDbLine
 10
1407.5033403763
 20
127.9596417294
 30
0.0
 11
1407.5033403763
 21
172.4096417294
 31
0.0
  0
LINE
  5
92
100
AcDbEntity
  8
L1_100
  6
CONTINUOUS
 62
         7
100
AcDbLine
 10
1314.1033403763
 20
161.6846417294
 30
0.0
 11
1314.1033403763
 21
138.6846417294
 31
0.0
  0
DIMENSION
  5
95
100
AcDbEntity
  8
L1_100
  6
CONTINUOUS
 62
         4
100
AcDbDimension
  2
*D1
 10
1314.1033403763
 20
219.4698938675
 30
0.0
 11
1374.1729324779
 21
221.4948938675
 31
0.0
  3
DIMSTYLE1
100
AcDbAlignedDimension
 13
1314.1033403763
 23
161.6846417294
 33
0.0
 14
1463.1293403763
 24
150.1846417294
 34
0.0
100
AcDbRotatedDimension
  0
CIRCLE
  5
A1
100
AcDbEntity
  8
L1_100
  6
CONTINUOUS
 62
         7
100
AcDbCircle
 10
1623.2833403763
 20
150.1846417294
 30
0.0
 40
1.95
  0
CIRCLE
  5
A2
100
AcDbEntity
  8
L1_100
  6
CONTINUOUS
 62
         7
100
AcDbCircle
 10
1623.2833403763
 20
150.1846417294
 30
0.0
 40
0.8
  0
ARC
  5
A3
100
AcDbEntity
  8
L1_100
  6
CONTINUOUS
 62
         4
100
AcDbCircle
 10
1623.2833403763
 20
150.1846417294
 30
0.0
 40
10.3125
100
AcDbArc
 50
270.0
 51
531.4424501721
  0
CIRCLE
  5
A4
100
AcDbEntity
  8
L1_100
  6
CONTINUOUS
 62
         7
100
AcDbCircle
 10
1623.2833403763
 20
150.1846417294
 30
0.0
 40
22.2
  0
CIRCLE
  5
A5
100
AcDbEntity
  8
L1_100
  6
CONTINUOUS
 62
         7
100
AcDbCircle
 10
1623.2833403763
 20
150.1846417294
 30
0.0
 40
11.1125
  0
CIRCLE
  5
A6
100
AcDbEntity
  8
L1_100
  6
CONTINUOUS
 62
         4
100
AcDbCircle
 10
1623.2833403763
 20
150.1846417294
 30
0.0
 40
11.1125
  0
LINE
  5
A7
100
AcDbEntity
  8
L1_100
  6
CENTER
 62
         1
100
AcDbLine
 10
1623.2833403763
 20
123.3034389253
 30
0.0
 11
1623.2833403763
 21
177.0612738353
 31
0.0
  0
LINE
  5
A8
100
AcDbEntity
  8
L1_100
  6
CENTER
 62
         1
100
AcDbLine
 10
1654.0799631421
 20
150.1846417294
 30
0.0
 11
1593.2663962541
 21
150.1846417294
 31
0.0
  0
CIRCLE
  5
A9
100
AcDbEntity
  8
L1_100
  6
CONTINUOUS
 62
         7
100
AcDbCircle
 10
1623.2833403763
 20
150.1846417294
 30
0.0
 40
13.0
  0
LINE
  5
AA
100
AcDbEntity
  8
L1_100
  6
DASHED
 62
         2
100
AcDbLine
 10
1461.1807832177
 20
151.1846417294
 30
0.0
 11
1461.1807832177
 21
149.1846417294
 31
0.0
  0
LINE
  5
AB
100
AcDbEntity
  8
L1_100
  6
DASHED
 62
         2
100
AcDbLine
 10
1460.0066906454
 20
149.1846417294
 30
0.0
 11
1460.0066906454
 21
151.1846417294
 31
0.0
  0
LINE
  5
AC
100
AcDbEntity
  8
L1_100
  6
DASHED
 62
         2
100
AcDbLine
 10
1460.0066906454
 20
149.1846417294
 30
0.0
 11
1459.4293403763
 21
150.1846417294
 31
0.0
  0
LINE
  5
AD
100
AcDbEntity
  8
L1_100
  6
DASHED
 62
         2
100
AcDbLine
 10
1463.1293403763
 20
148.0596417294
 30
0.0
 11
1461.1807832177
 21
149.1846417294
 31
0.0
  0
LINE
  5
AE
100
AcDbEntity
  8
L1_100
  6
DASHED
 62
         2
100
AcDbLine
 10
1461.1807832177
 20
149.1846417294
 30
0.0
 11
1460.0066906454
 21
149.1846417294
 31
0.0
  0
LINE
  5
AF
100
AcDbEntity
  8
L1_100
  6
DASHED
 62
         2
100
AcDbLine
 10
1461.1807832177
 20
151.1846417294
 30
0.0
 11
1460.0066906454
 21
151.1846417294
 31
0.0
  0
LINE
  5
B0
100
AcDbEntity
  8
L1_100
  6
DASHED
 62
         2
100
AcDbLine
 10
1463.1293403763
 20
152.3096417294
 30
0.0
 11
1461.1807832177
 21
151.1846417294
 31
0.0
  0
LINE
  5
B1
100
AcDbEntity
  8
L1_100
  6
DASHED
 62
         2
100
AcDbLine
 10
1460.0066906454
 20
151.1846417294
 30
0.0
 11
1459.4293403763
 21
150.1846417294
 31
0.0
  0
LINE
  5
B2
100
AcDbEntity
  8
L1_100
  6
DASHED
 62
         2
100
AcDbLine
 10
1451.9533403763
 20
136.3186163256
 30
0.0
 11
1451.4533403763
 21
137.1846417294
 31
0.0
  0
ARC
  5
B3
100
AcDbEntity
  8
L1_100
  6
DASHED
 62
         2
100
AcDbCircle
 10
1451.9533403763
 20
139.6846417294
 30
0.0
 40
0.5
100
AcDbArc
 50
90.0
 51
180.0
  0
LINE
  5
B4
100
AcDbEntity
  8
L1_100
  6
DASHED
 62
         2
100
AcDbLine
 10
1451.4533403763
 20
137.1846417294
 30
0.0
 11
1451.4533403763
 21
150.1846417294
 31
0.0
  0
LINE
  5
B5
100
AcDbEntity
  8
L1_100
  6
DASHED
 62
         2
100
AcDbLine
 10
1451.9533403763
 20
164.0506671332
 30
0.0
 11
1451.4533403763
 21
163.1846417294
 31
0.0
  0
ARC
  5
B6
100
AcDbEntity
  8
L1_100
  6
DASHED
 62
         2
100
AcDbCircle
 10
1451.9533403763
 20
160.6846417294
 30
0.0
 40
0.5
100
AcDbArc
 50
180.0
 51
270.0
  0
LINE
  5
B7
100
AcDbEntity
  8
L1_100
  6
DASHED
 62
         2
100
AcDbLine
 10
1451.4533403763
 20
163.1846417294
 30
0.0
 11
1451.4533403763
 21
150.1846417294
 31
0.0
  0
LINE
  5
B8
100
AcDbEntity
  8
L1_100
  6
CONTINUOUS
 62
         4
100
AcDbLine
 10
1463.1091362734
 20
139.8721417294
 30
0.0
 11
1455.9533403763
 21
139.8721417294
 31
0.0
  0
LINE
  5
B9
100
AcDbEntity
  8
L1_100
  6
CONTINUOUS
 62
         4
100
AcDbLine
 10
1455.9533403763
 20
160.4971417294
 30
0.0
 11
1463.1091362734
 21
160.4971417294
 31
0.0
  0
LINE
  5
BA
100
AcDbEntity
  8
L1_100
  6
CONTINUOUS
 62
         7
100
AcDbLine
 10
1454.9661326698
 20
140.1846417294
 30
0.0
 11
1451.9533403763
 21
140.1846417294
 31
0.0
  0
LINE
  5
BB
100
AcDbEntity
  8
L1_100
  6
CONTINUOUS
 62
         7
100
AcDbLine
 10
1454.9661326698
 20
160.1846417294
 30
0.0
 11
1451.9533403763
 21
160.1846417294
 31
0.0
  0
LINE
  5
BC
100
AcDbEntity
  8
L1_100
  6
CONTINUOUS
 62
         7
100
AcDbLine
 10
1455.9533403763
 20
161.2971417294
 30
0.0
 11
1455.9533403763
 21
139.0721417294
 31
0.0
  0
LINE
  5
BD
100
AcDbEntity
  8
L1_100
  6
CENTER
 62
         1
100
AcDbLine
 10
1465.8475940272
 20
150.1846417294
 30
0.0
 11
1401.7345664325
 21
150.1846417294
 31
0.0
  0
LINE
  5
BE
100
AcDbEntity
  8
L1_100
  6
CONTINUOUS
 62
         7
100
AcDbLine
 10
1451.9533403763
 20
171.3846417294
 30
0.0
 11
1451.9533403763
 21
128.9846417294
 31
0.0
  0
LINE
  5
BF
100
AcDbEntity
  8
L1_100
  6
CONTINUOUS
 62
         7
100
AcDbLine
 10
1422.1033403763
 20
172.3846417294
 30
0.0
 11
1450.9533403763
 21
172.3846417294
 31
0.0
  0
LINE
  5
C0
100
AcDbEntity
  8
L1_100
  6
CONTINUOUS
 62
         7
100
AcDbLine
 10
1450.9533403763
 20
127.9846417294
 30
0.0
 11
1422.1033403763
 21
127.9846417294
 31
0.0
  0
LINE
  5
C1
100
AcDbEntity
  8
L1_100
  6
CONTINUOUS
 62
         7
100
AcDbLine
 10
1455.9533403763
 20
161.2971417294
 30
0.0
 11
1462.1293403763
 21
161.2971417294
 31
0.0
  0
LINE
  5
C2
100
AcDbEntity
  8
L1_100
  6
CONTINUOUS
 62
         7
100
AcDbLine
 10
1462.1293403763
 20
139.0721417294
 30
0.0
 11
1455.9533403763
 21
139.0721417294
 31
0.0
  0
LINE
  5
C3
100
AcDbEntity
  8
L1_100
  6
CONTINUOUS
 62
         7
100
AcDbLine
 10
1463.1293403763
 20
160.2971417294
 30
0.0
 11
1463.1293403763
 21
140.0721417294
 31
0.0
  0
DIMENSION
  5
C6
100
AcDbEntity
  8
L1_100
  6
CONTINUOUS
 62
         4
100
AcDbDimension
  2
*D2
 10
1507.725503233
 20
172.3846417294
 30
0.0
 11
1505.700503233
 21
141.15779518
 31
0.0
  3
DIMSTYLE1
100
AcDbAlignedDimension
 13
1451.3533403763
 23
172.3846417294
 33
0.0
 14
1451.3533403763
 24
127.9846417294
 34
0.0
 50
90.0
100
AcDbRotatedDimension
  0
ARC
  5
D2
100
AcDbEntity
  8
L1_100
  6
CONTINUOUS
 62
         7
100
AcDbCircle
 10
1450.9533403763
 20
171.3846417294
 30
0.0
 40
1.0
100
AcDbArc
 50
0.0
 51
90.0
  0
ARC
  5
D3
100
AcDbEntity
  8
L1_100
  6
CONTINUOUS
 62
         7
100
AcDbCircle
 10
1462.1293403763
 20
160.2971417294
 30
0.0
 40
1.0
100
AcDbArc
 50
0.0
 51
90.0
  0
ARC
  5
D4
100
AcDbEntity
  8
L1_100
  6
CONTINUOUS
 62
         7
100
AcDbCircle
 10
1462.1293403763
 20
140.0721417294
 30
0.0
 40
1.0
100
AcDbArc
 50
270.0
 51
360.0
  0
ARC
  5
D5
100
AcDbEntity
  8
L1_100
  6
CONTINUOUS
 62
         7
100
AcDbCircle
 10
1450.9533403763
 20
128.9846417294
 30
0.0
 40
1.0
100
AcDbArc
 50
270.0
 51
360.0
  0
DIMENSION
  5
D8
100
AcDbEntity
  8
L1_100
  6
CONTINUOUS
 62
         4
100
AcDbDimension
  2
*D3
 10
1488.6650946157
 20
160.1846417294
 30
0.0
 11
1486.6400946157
 21
141.4374330321
 31
0.0
  3
DIMSTYLE1
100
AcDbAlignedDimension
 13
1455.9533403763
 23
160.1846417294
 33
0.0
 14
1455.9533403763
 24
140.1846417294
 34
0.0
 50
90.0
100
AcDbRotatedDimension
  0
LINE
  5
E4
100
AcDbEntity
  8
L1_100
  6
CONTINUOUS
 62
         7
100
AcDbLine
 10
1455.9533403763
 20
161.2971417294
 30
0.0
 11
1455.2937934875
 21
160.3552111548
 31
0.0
  0
ARC
  5
E5
100
AcDbEntity
  8
L1_100
  6
CONTINUOUS
 62
         7
100
AcDbCircle
 10
1454.9661326698
 20
160.5846417294
 30
0.0
 40
0.4
100
AcDbArc
 50
270.0
 51
325.0
  0
ARC
  5
E6
100
AcDbEntity
  8
L1_100
  6
CONTINUOUS
 62
         7
100
AcDbCircle
 10
1454.9661326698
 20
139.7846417294
 30
0.0
 40
0.4
100
AcDbArc
 50
35.0
 51
90.0
  0
LINE
  5
E7
100
AcDbEntity
  8
L1_100
  6
CONTINUOUS
 62
         7
100
AcDbLine
 10
1455.9533403763
 20
139.0721417294
 30
0.0
 11
1455.2937934875
 21
140.0140723039
 31
0.0
  0
LINE
  5
E8
100
AcDbEntity
  8
L1_100
  6
CONTINUOUS
 62
         4
100
AcDbLine
 10
1455.17435949
 20
160.1846417294
 30
0.0
 11
1455.17435949
 21
140.1846417294
 31
0.0
  0
LINE
  5
E9
100
AcDbEntity
  8
L1_100
  6
CONTINUOUS
 62
         4
100
AcDbLine
 10
1451.9533403763
 20
173.7831904882
 30
0.0
 11
1451.9533403763
 21
198.043111238
 31
0.0
  0
TEXT
  5
EB
100
AcDbEntity
  8
L1_100
  6
CONTINUOUS
 62
         2
100
AcDbText
 10
1607.8551181589
 20
224.3704784082
 30
0.0
 40
4.5
  1
534492
 41
0.98
  7
BOX
100
AcDbText
  0
ENDSEC
  0
SECTION
  2
OBJECTS
  0
DICTIONARY
  5
19
100
AcDbDictionary
  3
ACAD_GROUP
350
1A
  3
ACAD_MLINESTYLE
350
1B
  0
DICTIONARY
  5
1A
102
{ACAD_REACTORS
330
19
102
}
100
AcDbDictionary
  0
DICTIONARY
  5
1B
102
{ACAD_REACTORS
330
19
102
}
100
AcDbDictionary
  3
STANDARD
350
1C
  0
MLINESTYLE
  5
1C
102
{ACAD_REACTORS
330
1B
102
}
100
AcDbMlineStyle
  2
STANDARD
 70
         0
  3

 62
         0
 51
90.0
 52
90.0
 71
         2
 49
0.5
 62
       256
  6
BYLAYER
 49
-0.5
 62
       256
  6
BYLAYER
  0
ENDSEC
  0
EOF
