  0
SECTION
  2
HEADER
  9
$ACADVER
  1
AC1014
  9
$ACADMAINTVER
 70
         0
  9
$DWGCODEPAGE
  3
BIG5
  9
$INSBASE
 10
0.0
 20
0.0
 30
0.0
  9
$EXTMIN
 10
1116.4641937868
 20
-195.0266365491
 30
0.0
  9
$EXTMAX
 10
1968.8388855148
 20
234.7142447167
 30
0.0
  9
$LIMMIN
 10
0.0
 20
0.0
  9
$LIMMAX
 10
0.0
 20
0.0
  9
$ORTHOMODE
 70
         0
  9
$REGENMODE
 70
         1
  9
$FILLMODE
 70
         1
  9
$QTEXTMODE
 70
         0
  9
$MIRRTEXT
 70
         1
  9
$DRAGMODE
 70
         2
  9
$LTSCALE
 40
1.0
  9
$OSMODE
 70
         0
  9
$ATTMODE
 70
         1
  9
$TEXTSIZE
 40
6.5
  9
$TRACEWID
 40
0.05
  9
$TEXTSTYLE
  7
STANDARD
  9
$CLAYER
  8
0
  9
$CELTYPE
  6
CONTINUOUS
  9
$CECOLOR
 62
         4
  9
$CELTSCALE
 40
1.0
  9
$DELOBJ
 70
         1
  9
$DISPSILH
 70
         0
  9
$DIMSCALE
 40
1.0
  9
$DIMASZ
 40
0.18
  9
$DIMEXO
 40
0.0625
  9
$DIMDLI
 40
0.38
  9
$DIMRND
 40
0.0
  9
$DIMDLE
 40
0.0
  9
$DIMEXE
 40
0.25
  9
$DIMTP
 40
0.01
  9
$DIMTM
 40
-0.01
  9
$DIMTXT
 40
3.5
  9
$DIMCEN
 40
0.09
  9
$DIMTSZ
 40
0.0
  9
$DIMTOL
 70
         0
  9
$DIMLIM
 70
         0
  9
$DIMTIH
 70
         1
  9
$DIMTOH
 70
         1
  9
$DIMSE1
 70
         0
  9
$DIMSE2
 70
         0
  9
$DIMTAD
 70
         0
  9
$DIMZIN
 70
         0
  9
$DIMBLK
  1

  9
$DIMASO
 70
         1
  9
$DIMSHO
 70
         1
  9
$DIMPOST
  1

  9
$DIMAPOST
  1

  9
$DIMALT
 70
         0
  9
$DIMALTD
 70
         2
  9
$DIMALTF
 40
25.4
  9
$DIMLFAC
 40
1.0
  9
$DIMTOFL
 70
         0
  9
$DIMTVP
 40
0.0
  9
$DIMTIX
 70
         0
  9
$DIMSOXD
 70
         0
  9
$DIMSAH
 70
         0
  9
$DIMBLK1
  1

  9
$DIMBLK2
  1

  9
$DIMSTYLE
  2
STANDARD
  9
$DIMCLRD
 70
         0
  9
$DIMCLRE
 70
         0
  9
$DIMCLRT
 70
         4
  9
$DIMTFAC
 40
1.0
  9
$DIMGAP
 40
0.09
  9
$DIMJUST
 70
         0
  9
$DIMSD1
 70
         0
  9
$DIMSD2
 70
         0
  9
$DIMTOLJ
 70
         1
  9
$DIMTZIN
 70
         0
  9
$DIMALTZ
 70
         0
  9
$DIMALTTZ
 70
         0
  9
$DIMFIT
 70
         3
  9
$DIMUPT
 70
         0
  9
$DIMUNIT
 70
         2
  9
$DIMDEC
 70
         4
  9
$DIMTDEC
 70
         4
  9
$DIMALTU
 70
         2
  9
$DIMALTTD
 70
         2
  9
$DIMTXSTY
  7
STANDARD
  9
$DIMAUNIT
 70
         0
  9
$LUNITS
 70
         2
  9
$LUPREC
 70
        10
  9
$SKETCHINC
 40
0.1
  9
$FILLETRAD
 40
0.0
  9
$AUNITS
 70
         0
  9
$AUPREC
 70
         0
  9
$MENU
  1
acad
  9
$ELEVATION
 40
0.0
  9
$PELEVATION
 40
0.0
  9
$THICKNESS
 40
0.0
  9
$LIMCHECK
 70
         0
  9
$BLIPMODE
 70
         1
  9
$CHAMFERA
 40
0.0
  9
$CHAMFERB
 40
0.0
  9
$CHAMFERC
 40
0.0
  9
$CHAMFERD
 40
0.0
  9
$SKPOLY
 70
         0
  9
$TDCREATE
 40
0.000000000
  9
$TDUPDATE
 40
0.000000000
  9
$TDINDWG
 40
0.0000000000
  9
$TDUSRTIMER
 40
0.0000000000
  9
$USRTIMER
 70
         1
  9
$ANGBASE
 50
0.0
  9
$ANGDIR
 70
         0
  9
$PDMODE
 70
         2
  9
$PDSIZE
 40
0.0
  9
$PLINEWID
 40
0.0
  9
$COORDS
 70
         1
  9
$SPLFRAME
 70
         0
  9
$SPLINETYPE
 70
         6
  9
$SPLINESEGS
 70
         8
  9
$ATTDIA
 70
         0
  9
$ATTREQ
 70
         1
  9
$HANDLING
 70
         1
  9
$HANDSEED
  5
194
  9
$SURFTAB1
 70
         6
  9
$SURFTAB2
 70
         6
  9
$SURFTYPE
 70
         6
  9
$SURFU
 70
         6
  9
$SURFV
 70
         6
  9
$UCSNAME
  2

  9
$UCSORG
 10
0.0
 20
0.0
 30
0.0
  9
$UCSXDIR
 10
1.0
 20
0.0
 30
0.0
  9
$UCSYDIR
 10
0.0
 20
1.0
 30
0.0
  9
$PUCSNAME
  2

  9
$PUCSORG
 10
0.0
 20
0.0
 30
0.0
  9
$PUCSXDIR
 10
1.0
 20
0.0
 30
0.0
  9
$PUCSYDIR
 10
0.0
 20
1.0
 30
0.0
  9
$USERI1
 70
         0
  9
$USERI2
 70
         0
  9
$USERI3
 70
         0
  9
$USERI4
 70
         0
  9
$USERI5
 70
         0
  9
$USERR1
 40
0.0
  9
$USERR2
 40
0.0
  9
$USERR3
 40
0.0
  9
$USERR4
 40
0.0
  9
$USERR5
 40
0.0
  9
$WORLDVIEW
 70
         1
  9
$SHADEDGE
 70
         3
  9
$SHADEDIF
 70
        70
  9
$TILEMODE
 70
         1
  9
$MAXACTVP
 70
        16
  9
$PINSBASE
 10
0.0
 20
0.0
 30
0.0
  9
$PLIMCHECK
 70
         0
  9
$PEXTMIN
 10
1.0000000000E+20
 20
1.0000000000E+20
 30
1.0000000000E+20
  9
$PEXTMAX
 10
-1.0000000000E+20
 20
-1.0000000000E+20
 30
-1.0000000000E+20
  9
$PLIMMIN
 10
0.0
 20
0.0
  9
$PLIMMAX
 10
12.0
 20
9.0
  9
$UNITMODE
 70
         0
  9
$VISRETAIN
 70
         0
  9
$PLINEGEN
 70
         1
  9
$PSLTSCALE
 70
         0
  9
$TREEDEPTH
 70
      3020
  9
$PICKSTYLE
 70
         1
  9
$CMLSTYLE
  2
STANDARD
  9
$CMLJUST
 70
         0
  9
$CMLSCALE
 40
1.0
  9
$PROXYGRAPHICS
 70
         0
  9
$MEASUREMENT
 70
         0
  0
ENDSEC
  0
SECTION
  2
CLASSES
  0
CLASS
  1
LWPOLYLINE
  2
AcDbPolyline
  3
"AutoCAD"
 90
        0
280
         0
281
         1
  0
CLASS
  1
IMAGE
  2
AcDbRasterImage
  3
ISM
 90
      127
280
         0
281
         1
  0
CLASS
  1
OLE2FRAME
  2
AcDbOle2Frame
  3
""
 90
        0
280
         0
281
         1
  0
CLASS
  1
HATCH
  2
AcDbHatch
  3
"ACAD_SEDONA"
 90
        0
280
         0
281
         1
  0
CLASS
  1
DICTIONARYVAR
  2
AcDbDictionaryVar
  3
"AutoCAD"
 90
        0
280
         0
281
         0
  0
CLASS
  1
RASTERVARIABLES
  2
AcDbRasterVariables
  3
ISM
 90
        0
280
         0
281
         0
  0
CLASS
  1
IMAGEDEF
  2
AcDbRasterImageDef
  3
ISM
 90
        0
280
         0
281
         0
  0
CLASS
  1
IMAGEDEF_REACTOR
  2
AcDbRasterImageDefReactor
  3
ISM
 90
        1
280
         0
281
         0
  0
CLASS
  1
IDBUFFER
  2
AcDbIdBuffer
  3
"Acad"
 90
        0
280
         0
281
         0
  0
CLASS
  1
SPATIAL_FILTER
  2
AcDbSpatialFilter
  3
"Acad"
 90
        0
280
         0
281
         0
  0
CLASS
  1
XRECORD
  2
AcDbXrecord
  3
"<Built In>"
 90
        0
280
         0
281
         0
  0
CLASS
  1
SORTENTSTABLE
  2
AcDbSortentsTable
  3
"AutoCAD"
 90
        0
280
         0
281
         0
  0
CLASS
  1
LAYER_INDEX
  2
AcDbLayerIndex
  3
"Acad"
 90
        0
280
         0
281
         0
  0
CLASS
  1
SPATIAL_INDEX
  2
AcDbSpatialIndex
  3
"Acad"
 90
        0
280
         0
281
         0
  0
CLASS
  1
OBJECT_PTR
  2
CAseDLPNTableRecord
  3
"ASE-LPNTableRecord"
 90
        1
280
         0
281
         0
  0
CLASS
  1
LAYOUT
  2
AcDbLayout
  3
"AutoCAD 2000"
 90
        1
280
         0
281
         0
  0
CLASS
  1
PLOTSETTINGS
  2
AcDbPlotSettings
  3
"AutoCAD 2000"
 90
        1
280
         0
281
         0
  0
CLASS
  1
ACDBDICTIONARYWDFLT
  2
AcDbDictionaryWithDefault
  3
"AutoCAD 2000"
 90
        1
280
         0
281
         0
  0
CLASS
  1
ACDBPLACEHOLDER
  2
AcDbPlaceHolder
  3
"AutoCAD 2000"
 90
        1
280
         0
281
         0
  0
CLASS
  1
VBA_PROJECT
  2
AcDbVbaProject
  3
"acadvba"
 90
        1
280
         0
281
         0
  0
CLASS
  1
WIPEOUT
  2
AcDbWipeout
  3
WipeOut|AutoCAD Express Tool|expresstools@autodesk.com
 90
      127
280
         0
281
         1
  0
CLASS
  1
WIPEOUTVARIABLES
  2
AcDbWipeoutVariables
  3
WipeOut|AutoCAD Express Tool|expresstools@autodesk.com
 90
        0
280
         0
281
         0
  0
CLASS
  1
RTEXT
  2
RText
  3
RText|AutoCAD Express Tool|expresstools@autodesk.com
 90
        0
280
         0
281
         1
  0
CLASS
  1
ARCALIGNEDTEXT
  2
AcDbArcAlignedText
  3
ATEXT|AutoCAD Express Tool|expresstools@autodesk.com
 90
        0
280
         0
281
         1
  0
ENDSEC
  0
SECTION
  2
TABLES
  0
TABLE
  2
VPORT
  5
7
100
AcDbSymbolTable
 70
         1
  0
VPORT
  5
15
100
AcDbSymbolTableRecord
100
AcDbViewportTableRecord
  2
*ACTIVE
 70
         0
 10
0.0
 20
0.0
 11
1.0
 21
1.0
 12
1542.6515396508
 22
19.8438040838
 13
0.0
 23
0.0
 14
1.0
 24
1.0
 15
0.0
 25
0.0
 16
0.0
 26
0.0
 36
1.0
 17
0.0
 27
0.0
 37
0.0
 40
429.7408812658
 41
1.9834619625
 42
50.0
 43
0.0
 44
0.0
 50
0.0
 51
0.0
 71
         0
 72
       100
 73
         1
 74
         1
 75
         0
 76
         0
 77
         0
 78
         0
  0
ENDTAB
  0
TABLE
  2
LTYPE
  5
4
100
AcDbSymbolTable
 70
         6
  0
LTYPE
  5
11
100
AcDbSymbolTableRecord
100
AcDbLinetypeTableRecord
  2
BYBLOCK
 70
        64
  3

 72
        65
 73
         0
 40
0.0
  0
LTYPE
  5
12
100
AcDbSymbolTableRecord
100
AcDbLinetypeTableRecord
  2
BYLAYER
 70
        64
  3

 72
        65
 73
         0
 40
0.0
  0
LTYPE
  5
13
100
AcDbSymbolTableRecord
100
AcDbLinetypeTableRecord
  2
CONTINUOUS
 70
        64
  3
Solid line
 72
        65
 73
         0
 40
0.0
  0
LTYPE
  5
1D
100
AcDbSymbolTableRecord
100
AcDbLinetypeTableRecord
  2
DASHED
 70
        64
  3
_ _ _ _ _ _ _ _ _ _ _ _ _ _ _ _
 72
        65
 73
         2
 40
0.2
 49
0.1
 74
         0
 49
-0.1
 74
         0
  0
LTYPE
  5
1E
100
AcDbSymbolTableRecord
100
AcDbLinetypeTableRecord
  2
CENTER
 70
        64
  3
___ _ ___ _ ___ _ ___ _ ___ _ ___ _ ___ _ ___ _
 72
        65
 73
         4
 40
0.95
 49
0.625
 74
         0
 49
-0.125
 74
         0
 49
0.075
 74
         0
 49
-0.125
 74
         0
  0
LTYPE
  5
1F
100
AcDbSymbolTableRecord
100
AcDbLinetypeTableRecord
  2
PHANTOM
 70
        64
  3
______  __  __  ______  __  __  ______  __  __  
 72
        65
 73
         6
 40
1.025
 49
0.625
 74
         0
 49
-0.125
 74
         0
 49
0.075
 74
         0
 49
-0.125
 74
         0
 49
0.075
 74
         0
 49
-0.125
 74
         0
  0
ENDTAB
  0
TABLE
  2
LAYER
  5
2
100
AcDbSymbolTable
 70
         6
  0
LAYER
  5
14
100
AcDbSymbolTableRecord
100
AcDbLayerTableRecord
  2
0
 70
         0
 62
         7
  6
CONTINUOUS
  0
LAYER
  5
21
100
AcDbSymbolTableRecord
100
AcDbLayerTableRecord
  2
_____U
 70
         1
 62
         7
  6
CONTINUOUS
  0
LAYER
  5
22
100
AcDbSymbolTableRecord
100
AcDbLayerTableRecord
  2
_____T______
 70
         1
 62
         7
  6
CONTINUOUS
  0
LAYER
  5
23
100
AcDbSymbolTableRecord
100
AcDbLayerTableRecord
  2
_Y__________
 70
         0
 62
         7
  6
CONTINUOUS
  0
LAYER
  5
24
100
AcDbSymbolTableRecord
100
AcDbLayerTableRecord
  2
L1_65
 70
         0
 62
         7
  6
CONTINUOUS
  0
LAYER
  5
5C
100
AcDbSymbolTableRecord
100
AcDbLayerTableRecord
  2
DEFPOINTS
 70
         0
 62
        -7
  6
CONTINUOUS
  0
ENDTAB
  0
TABLE
  2
STYLE
  5
3
100
AcDbSymbolTable
 70
         5
  0
STYLE
  5
17
100
AcDbSymbolTableRecord
100
AcDbTextStyleTableRecord
  2
STANDARD
 70
         0
 40
0.0
 41
1.0
 50
0.0
 71
         0
 42
0.0
  3
txt
  4

  0
STYLE
  5
65
100
AcDbSymbolTableRecord
100
AcDbTextStyleTableRecord
  2
BOX
 70
         0
 40
1.0
 41
1.0
 50
0.0
 71
         0
 42
0.2
  3
txt.shx
  4

  0
STYLE
  5
91
100
AcDbSymbolTableRecord
100
AcDbTextStyleTableRecord
  2
BOX
 70
         0
 40
1.0
 41
1.0
 50
0.0
 71
         0
 42
0.2
  3
txt.shx
  4

  0
STYLE
  5
139
100
AcDbSymbolTableRecord
100
AcDbTextStyleTableRecord
  2
BOX
 70
         0
 40
1.0
 41
1.0
 50
0.0
 71
         0
 42
0.2
  3
txt.shx
  4

  0
STYLE
  5
192
100
AcDbSymbolTableRecord
100
AcDbTextStyleTableRecord
  2
BOX
 70
         0
 40
1.0
 41
1.0
 50
0.0
 71
         0
 42
0.2
  3
txt.shx
  4

  0
ENDTAB
  0
TABLE
  2
VIEW
  5
5
100
AcDbSymbolTable
 70
         0
  0
ENDTAB
  0
TABLE
  2
UCS
  5
6
100
AcDbSymbolTable
 70
         1
  0
UCS
  5
20
100
AcDbSymbolTableRecord
100
AcDbUCSTableRecord
  2
CK_VIEW_1
 70
         0
 10
0.0
 20
0.0
 30
1.0
 11
1.0
 21
0.0
 31
0.0
 12
0.0
 22
1.0
 32
0.0
  0
ENDTAB
  0
TABLE
  2
APPID
  5
8
100
AcDbSymbolTable
 70
         1
  0
APPID
  5
16
100
AcDbSymbolTableRecord
100
AcDbRegAppTableRecord
  2
ACAD
 70
         0
  0
ENDTAB
  0
TABLE
  2
DIMSTYLE
  5
9
100
AcDbSymbolTable
 70
         2
  0
DIMSTYLE
105
18
100
AcDbSymbolTableRecord
100
AcDbDimStyleTableRecord
  2
STANDARD
 70
         0
  3

  4

  5

  6

  7

 40
1.0
 41
0.18
 42
0.0625
 43
0.38
 44
0.18
 45
0.0
 46
0.0
 47
0.0
 48
0.0
 71
         0
 72
         0
 73
         1
 74
         1
 75
         0
 76
         0
 77
         0
 78
         0
140
0.18
141
0.09
142
0.0
143
25.4
144
1.0
145
0.0
146
1.0
147
0.09
170
         0
171
         2
172
         0
173
         0
174
         0
175
         0
176
         0
177
         0
178
         0
270
         2
271
         4
272
         4
273
         2
274
         2
275
         0
280
         0
281
         0
282
         0
283
         1
284
         0
285
         0
286
         0
287
         0
288
         0
340
17
  0
DIMSTYLE
105
58
100
AcDbSymbolTableRecord
100
AcDbDimStyleTableRecord
  2
DIMSTYLE1
 70
         0
  3

  4

  5

  6

  7

 40
1.0
 41
3.5
 42
0.0625
 43
0.38
 44
3.5
 45
0.0
 46
0.0
 47
0.0
 48
0.0
 71
         0
 72
         0
 73
         1
 74
         1
 75
         0
 76
         0
 77
         0
 78
         0
140
3.5
141
0.09
142
0.0
143
25.4
144
1.0
145
0.0
146
1.0
147
0.09
170
         0
171
         2
172
         0
173
         0
174
         0
175
         0
176
         0
177
         0
178
         0
270
         2
271
         4
272
         4
273
         2
274
         2
275
         0
280
         0
281
         0
282
         0
283
         1
284
         0
285
         0
286
         0
287
         0
288
         0
340
17
  0
ENDTAB
  0
TABLE
  2
BLOCK_RECORD
  5
1
100
AcDbSymbolTable
 70
         4
  0
BLOCK_RECORD
  5
A
100
AcDbSymbolTableRecord
100
AcDbBlockTableRecord
  2
*MODEL_SPACE
  0
BLOCK_RECORD
  5
B
100
AcDbSymbolTableRecord
100
AcDbBlockTableRecord
  2
*PAPER_SPACE
  0
BLOCK_RECORD
  5
59
100
AcDbSymbolTableRecord
100
AcDbBlockTableRecord
  2
*D0
  0
BLOCK_RECORD
  5
86
100
AcDbSymbolTableRecord
100
AcDbBlockTableRecord
  2
*D1
  0
BLOCK_RECORD
  5
12E
100
AcDbSymbolTableRecord
100
AcDbBlockTableRecord
  2
*D2
  0
BLOCK_RECORD
  5
141
100
AcDbSymbolTableRecord
100
AcDbBlockTableRecord
  2
*X3
  0
ENDTAB
  0
ENDSEC
  0
SECTION
  2
BLOCKS
  0
BLOCK
  5
D
100
AcDbEntity
  8
0
100
AcDbBlockBegin
  2
*MODEL_SPACE
 70
         0
 10
0.0
 20
0.0
 30
0.0
  3
*MODEL_SPACE
  1

  0
ENDBLK
  5
E
100
AcDbEntity
  8
0
100
AcDbBlockEnd
  0
BLOCK
  5
F
100
AcDbEntity
 67
         1
  8
0
100
AcDbBlockBegin
  2
*PAPER_SPACE
 70
         0
 10
0.0
 20
0.0
 30
0.0
  3
*PAPER_SPACE
  1

  0
ENDBLK
  5
10
100
AcDbEntity
 67
         1
  8
0
100
AcDbBlockEnd
  0
BLOCK
  5
5A
100
AcDbEntity
  8
0
100
AcDbBlockBegin
  2
*D0
 70
        65
 10
0.0
 20
0.0
 30
0.0
  3
*D0
  1

  0
POINT
  5
5D
100
AcDbEntity
  8
DEFPOINTS
  6
CONTINUOUS
 62
         0
100
AcDbPoint
 10
1634.1646963667
 20
134.4524144385
 30
0.0
  0
POINT
  5
5E
100
AcDbEntity
  8
DEFPOINTS
  6
CONTINUOUS
 62
         0
100
AcDbPoint
 10
1572.0786999334
 20
134.4524144385
 30
0.0
  0
POINT
  5
5F
100
AcDbEntity
  8
DEFPOINTS
  6
CONTINUOUS
 62
         0
100
AcDbPoint
 10
1572.0786999334
 20
90.0524144385
 30
0.0
  0
LINE
  5
60
100
AcDbEntity
  8
L1_65
  6
CONTINUOUS
 62
         4
100
AcDbLine
 10
1573.8286999334
 20
134.4524144385
 30
0.0
 11
1635.0396963667
 21
134.4524144385
 31
0.0
  0
LINE
  5
61
100
AcDbEntity
  8
L1_65
  6
CONTINUOUS
 62
         4
100
AcDbLine
 10
1573.8286999334
 20
90.0524144385
 30
0.0
 11
1635.0396963667
 21
90.0524144385
 31
0.0
  0
LINE
  5
62
100
AcDbEntity
  8
L1_65
  6
CONTINUOUS
 62
         4
100
AcDbLine
 10
1634.1646963667
 20
134.4524144385
 30
0.0
 11
1634.1646963667
 21
90.0524144385
 31
0.0
  0
SOLID
  5
63
100
AcDbEntity
  8
L1_65
  6
CONTINUOUS
 62
         4
100
AcDbTrace
 10
1634.1646963667
 20
134.4524144385
 30
0.0
 11
1634.6896963667
 21
130.9524144385
 31
0.0
 12
1633.6396963667
 22
130.9524144385
 32
0.0
 13
1634.1646963667
 23
134.4524144385
 33
0.0
  0
SOLID
  5
64
100
AcDbEntity
  8
L1_65
  6
CONTINUOUS
 62
         4
100
AcDbTrace
 10
1634.1646963667
 20
90.0524144385
 30
0.0
 11
1633.6396963667
 21
93.5524144385
 31
0.0
 12
1634.6896963667
 22
93.5524144385
 32
0.0
 13
1634.1646963667
 23
90.0524144385
 33
0.0
  0
TEXT
  5
66
100
AcDbEntity
  8
L1_65
  6
CONTINUOUS
 62
         4
100
AcDbText
 10
1631.5396963667
 20
100.2000329755
 30
0.0
 40
3.5
  1
崷44.4
 50
90.0
  7
BOX
100
AcDbText
  0
ENDBLK
  5
67
100
AcDbEntity
  8
0
  6
CONTINUOUS
100
AcDbBlockEnd
  0
BLOCK
  5
87
100
AcDbEntity
  8
0
100
AcDbBlockBegin
  2
*D1
 70
        65
 10
0.0
 20
0.0
 30
0.0
  3
*D1
  1

  0
POINT
  5
89
100
AcDbEntity
  8
DEFPOINTS
  6
CONTINUOUS
 62
         0
100
AcDbPoint
 10
1400.8786999334
 20
209.0555682955
 30
0.0
  0
POINT
  5
8A
100
AcDbEntity
  8
DEFPOINTS
  6
CONTINUOUS
 62
         0
100
AcDbPoint
 10
1400.8786999334
 20
129.9024144385
 30
0.0
  0
POINT
  5
8B
100
AcDbEntity
  8
DEFPOINTS
  6
CONTINUOUS
 62
         0
100
AcDbPoint
 10
1583.8546999334
 20
112.2524144385
 30
0.0
  0
LINE
  5
8C
100
AcDbEntity
  8
L1_65
  6
CONTINUOUS
 62
         4
100
AcDbLine
 10
1400.8786999334
 20
131.6524144385
 30
0.0
 11
1400.8786999334
 21
209.9305682955
 31
0.0
  0
LINE
  5
8D
100
AcDbEntity
  8
L1_65
  6
CONTINUOUS
 62
         4
100
AcDbLine
 10
1583.8546999334
 20
114.0024144385
 30
0.0
 11
1583.8546999334
 21
209.9305682955
 31
0.0
  0
LINE
  5
8E
100
AcDbEntity
  8
L1_65
  6
CONTINUOUS
 62
         4
100
AcDbLine
 10
1400.8786999334
 20
209.0555682955
 30
0.0
 11
1583.8546999334
 21
209.0555682955
 31
0.0
  0
SOLID
  5
8F
100
AcDbEntity
  8
L1_65
  6
CONTINUOUS
 62
         4
100
AcDbTrace
 10
1400.8786999334
 20
209.0555682955
 30
0.0
 11
1404.3786999334
 21
209.5805682955
 31
0.0
 12
1404.3786999334
 22
208.5305682955
 32
0.0
 13
1400.8786999334
 23
209.0555682955
 33
0.0
  0
SOLID
  5
90
100
AcDbEntity
  8
L1_65
  6
CONTINUOUS
 62
         4
100
AcDbTrace
 10
1583.8546999334
 20
209.0555682955
 30
0.0
 11
1580.3546999334
 21
208.5305682955
 31
0.0
 12
1580.3546999334
 22
209.5805682955
 32
0.0
 13
1583.8546999334
 23
209.0555682955
 33
0.0
  0
TEXT
  5
92
100
AcDbEntity
  8
L1_65
  6
CONTINUOUS
 62
         4
100
AcDbText
 10
1486.1472585214
 20
211.6805682955
 30
0.0
 40
3.5
  1
182.98
  7
BOX
100
AcDbText
  0
ENDBLK
  5
93
100
AcDbEntity
  8
0
  6
CONTINUOUS
100
AcDbBlockEnd
  0
BLOCK
  5
12F
100
AcDbEntity
  8
0
100
AcDbBlockBegin
  2
*D2
 70
        65
 10
0.0
 20
0.0
 30
0.0
  3
*D2
  1

  0
POINT
  5
131
100
AcDbEntity
  8
DEFPOINTS
  6
CONTINUOUS
 62
         0
100
AcDbPoint
 10
1572.6786999334
 20
200.8506481867
 30
0.0
  0
POINT
  5
132
100
AcDbEntity
  8
DEFPOINTS
  6
CONTINUOUS
 62
         0
100
AcDbPoint
 10
1572.6786999334
 20
133.4524144385
 30
0.0
  0
POINT
  5
133
100
AcDbEntity
  8
DEFPOINTS
  6
CONTINUOUS
 62
         0
100
AcDbPoint
 10
1527.6786999334
 20
147.1774144385
 30
0.0
  0
LINE
  5
134
100
AcDbEntity
  8
L1_65
  6
CONTINUOUS
 62
         4
100
AcDbLine
 10
1572.6786999334
 20
135.2024144385
 30
0.0
 11
1572.6786999334
 21
201.7256481867
 31
0.0
  0
LINE
  5
135
100
AcDbEntity
  8
L1_65
  6
CONTINUOUS
 62
         4
100
AcDbLine
 10
1527.6786999334
 20
148.9274144385
 30
0.0
 11
1527.6786999334
 21
201.7256481867
 31
0.0
  0
LINE
  5
136
100
AcDbEntity
  8
L1_65
  6
CONTINUOUS
 62
         4
100
AcDbLine
 10
1572.6786999334
 20
200.8506481867
 30
0.0
 11
1527.6786999334
 21
200.8506481867
 31
0.0
  0
SOLID
  5
137
100
AcDbEntity
  8
L1_65
  6
CONTINUOUS
 62
         4
100
AcDbTrace
 10
1572.6786999334
 20
200.8506481867
 30
0.0
 11
1569.1786999334
 21
200.3256481867
 31
0.0
 12
1569.1786999334
 22
201.3756481867
 32
0.0
 13
1572.6786999334
 23
200.8506481867
 33
0.0
  0
SOLID
  5
138
100
AcDbEntity
  8
L1_65
  6
CONTINUOUS
 62
         4
100
AcDbTrace
 10
1527.6786999334
 20
200.8506481867
 30
0.0
 11
1531.1786999334
 21
201.3756481867
 31
0.0
 12
1531.1786999334
 22
200.3256481867
 32
0.0
 13
1527.6786999334
 23
200.8506481867
 33
0.0
  0
TEXT
  5
13A
100
AcDbEntity
  8
L1_65
  6
CONTINUOUS
 62
         4
100
AcDbText
 10
1543.7675000816
 20
203.4756481867
 30
0.0
 40
3.5
  1
45
  7
BOX
100
AcDbText
  0
ENDBLK
  5
13B
100
AcDbEntity
  8
0
  6
CONTINUOUS
100
AcDbBlockEnd
  0
BLOCK
  5
142
100
AcDbEntity
  8
0
100
AcDbBlockBegin
  2
*X3
 70
        65
 10
0.0
 20
0.0
 30
0.0
  3
*X3
  1

  0
LINE
  5
143
100
AcDbEntity
  8
L1_65
  6
CONTINUOUS
 62
         4
100
AcDbLine
 10
1571.4664266904
 20
-148.9400166132
 30
0.0
 11
1572.6786999334
 21
-147.7277433702
 31
0.0
  0
LINE
  5
144
100
AcDbEntity
  8
L1_65
  6
CONTINUOUS
 62
         4
100
AcDbLine
 10
1582.5539266904
 20
-137.8525166132
 30
0.0
 11
1583.8546999334
 21
-136.5517433702
 31
0.0
  0
LINE
  5
145
100
AcDbEntity
  8
L1_65
  6
CONTINUOUS
 62
         4
100
AcDbLine
 10
1540.6737860033
 20
-175.4900166132
 30
0.0
 11
1542.8786999334
 21
-173.2851026831
 31
0.0
  0
LINE
  5
146
100
AcDbEntity
  8
L1_65
  6
CONTINUOUS
 62
         4
100
AcDbLine
 10
1567.2237860033
 20
-148.9400166132
 30
0.0
 11
1572.6786999334
 21
-143.4851026831
 31
0.0
  0
LINE
  5
147
100
AcDbEntity
  8
L1_65
  6
CONTINUOUS
 62
         4
100
AcDbLine
 10
1578.3112860033
 20
-137.8525166132
 30
0.0
 11
1583.8546999334
 21
-132.3091026831
 31
0.0
  0
LINE
  5
148
100
AcDbEntity
  8
L1_65
  6
CONTINUOUS
 62
         4
100
AcDbLine
 10
1536.4311453161
 20
-175.4900166132
 30
0.0
 11
1542.8786999334
 21
-169.0424619959
 31
0.0
  0
LINE
  5
149
100
AcDbEntity
  8
L1_65
  6
CONTINUOUS
 62
         4
100
AcDbLine
 10
1562.9811453161
 20
-148.9400166132
 30
0.0
 11
1572.1795950056
 21
-139.7415669237
 31
0.0
  0
LINE
  5
14A
100
AcDbEntity
  8
L1_65
  6
CONTINUOUS
 62
         4
100
AcDbLine
 10
1575.1811453161
 20
-136.7400166132
 30
0.0
 11
1583.3484365924
 21
-128.572725337
 31
0.0
  0
LINE
  5
14B
100
AcDbEntity
  8
L1_65
  6
CONTINUOUS
 62
         4
100
AcDbLine
 10
1532.2801658389
 20
-175.3983554033
 30
0.0
 11
1542.8786999334
 21
-164.7998213088
 31
0.0
  0
LINE
  5
14C
100
AcDbEntity
  8
L1_65
  6
CONTINUOUS
 62
         4
100
AcDbLine
 10
1558.738504629
 20
-148.9400166132
 30
0.0
 11
1580.4415923636
 21
-127.2369288786
 31
0.0
  0
LINE
  5
14D
100
AcDbEntity
  8
L1_65
  6
CONTINUOUS
 62
         4
100
AcDbLine
 10
1581.9827117439
 20
-125.6958094983
 30
0.0
 11
1583.8546999334
 21
-123.8238213088
 31
0.0
  0
LINE
  5
14E
100
AcDbEntity
  8
L1_65
  6
CONTINUOUS
 62
         4
100
AcDbLine
 10
1530.8786999334
 20
-172.5571806217
 30
0.0
 11
1542.8786999334
 21
-160.5571806217
 31
0.0
  0
LINE
  5
14F
100
AcDbEntity
  8
L1_65
  6
CONTINUOUS
 62
         4
100
AcDbLine
 10
1554.4958639419
 20
-148.9400166132
 30
0.0
 11
1583.8546999334
 21
-119.5811806217
 31
0.0
  0
LINE
  5
150
100
AcDbEntity
  8
L1_65
  6
CONTINUOUS
 62
         4
100
AcDbLine
 10
1530.8786999334
 20
-168.3145399346
 30
0.0
 11
1542.8786999334
 21
-156.3145399346
 31
0.0
  0
LINE
  5
151
100
AcDbEntity
  8
L1_65
  6
CONTINUOUS
 62
         4
100
AcDbLine
 10
1550.2532232548
 20
-148.9400166132
 30
0.0
 11
1583.4023987941
 21
-115.7908410739
 31
0.0
  0
LINE
  5
152
100
AcDbEntity
  8
L1_65
  6
CONTINUOUS
 62
         4
100
AcDbLine
 10
1530.8786999334
 20
-164.0718992475
 30
0.0
 11
1543.6036650543
 21
-151.3469341266
 31
0.0
  0
LINE
  5
153
100
AcDbEntity
  8
L1_65
  6
CONTINUOUS
 62
         4
100
AcDbLine
 10
1545.2856174468
 20
-149.6649817341
 30
0.0
 11
1579.3230825677
 21
-115.6275166132
 31
0.0
  0
LINE
  5
154
100
AcDbEntity
  8
L1_65
  6
CONTINUOUS
 62
         4
100
AcDbLine
 10
1529.1426027314
 20
-161.5653557624
 30
0.0
 11
1573.9679418805
 21
-116.7400166132
 31
0.0
  0
LINE
  5
155
100
AcDbEntity
  8
L1_65
  6
CONTINUOUS
 62
         4
100
AcDbLine
 10
1525.1640722065
 20
-161.3012456001
 30
0.0
 11
1572.1786999334
 21
-114.2866178732
 31
0.0
  0
LINE
  5
156
100
AcDbEntity
  8
L1_65
  6
CONTINUOUS
 62
         4
100
AcDbLine
 10
1521.4614013803
 20
-160.7612757392
 30
0.0
 11
1572.6786999334
 21
-109.5439771861
 31
0.0
  0
LINE
  5
157
100
AcDbEntity
  8
L1_65
  6
CONTINUOUS
 62
         4
100
AcDbLine
 10
1517.7587305541
 20
-160.2213058783
 30
0.0
 11
1572.6552608814
 21
-105.324775551
 31
0.0
  0
LINE
  5
158
100
AcDbEntity
  8
L1_65
  6
CONTINUOUS
 62
         4
100
AcDbLine
 10
1514.0560597279
 20
-159.6813360174
 30
0.0
 11
1569.1973791321
 21
-104.5400166132
 31
0.0
  0
LINE
  5
159
100
AcDbEntity
  8
L1_65
  6
CONTINUOUS
 62
         4
100
AcDbLine
 10
1510.3533889016
 20
-159.1413661565
 30
0.0
 11
1564.954738445
 21
-104.5400166132
 31
0.0
  0
LINE
  5
15A
100
AcDbEntity
  8
L1_65
  6
CONTINUOUS
 62
         4
100
AcDbLine
 10
1506.6507180754
 20
-158.6013962956
 30
0.0
 11
1560.7120977578
 21
-104.5400166132
 31
0.0
  0
LINE
  5
15B
100
AcDbEntity
  8
L1_65
  6
CONTINUOUS
 62
         4
100
AcDbLine
 10
1502.9480472492
 20
-158.0614264347
 30
0.0
 11
1556.4694570707
 21
-104.5400166132
 31
0.0
  0
LINE
  5
15C
100
AcDbEntity
  8
L1_65
  6
CONTINUOUS
 62
         4
100
AcDbLine
 10
1499.245376423
 20
-157.5214565738
 30
0.0
 11
1552.2268163836
 21
-104.5400166132
 31
0.0
  0
LINE
  5
15D
100
AcDbEntity
  8
L1_65
  6
CONTINUOUS
 62
         4
100
AcDbLine
 10
1495.5427055968
 20
-156.9814867129
 30
0.0
 11
1547.9841756965
 21
-104.5400166132
 31
0.0
  0
LINE
  5
15E
100
AcDbEntity
  8
L1_65
  6
CONTINUOUS
 62
         4
100
AcDbLine
 10
1491.8400347705
 20
-156.441516852
 30
0.0
 11
1544.8010037787
 21
-103.4805478438
 31
0.0
  0
LINE
  5
15F
100
AcDbEntity
  8
L1_65
  6
CONTINUOUS
 62
         4
100
AcDbLine
 10
1488.1373639443
 20
-155.9015469911
 30
0.0
 11
1543.0832813079
 21
-100.9556296275
 31
0.0
  0
LINE
  5
160
100
AcDbEntity
  8
L1_65
  6
CONTINUOUS
 62
         4
100
AcDbLine
 10
1484.4346931181
 20
-155.3615771302
 30
0.0
 11
1542.8786999334
 21
-96.9175703149
 31
0.0
  0
LINE
  5
161
100
AcDbEntity
  8
L1_65
  6
CONTINUOUS
 62
         4
100
AcDbLine
 10
1480.7320222919
 20
-154.8216072693
 30
0.0
 11
1542.8786999334
 21
-92.6749296278
 31
0.0
  0
LINE
  5
162
100
AcDbEntity
  8
L1_65
  6
CONTINUOUS
 62
         4
100
AcDbLine
 10
1477.0293514656
 20
-154.2816374084
 30
0.0
 11
1542.8786999334
 21
-88.4322889407
 31
0.0
  0
LINE
  5
163
100
AcDbEntity
  8
L1_65
  6
CONTINUOUS
 62
         4
100
AcDbLine
 10
1473.3266806394
 20
-153.7416675475
 30
0.0
 11
1542.8786999334
 21
-84.1896482536
 31
0.0
  0
LINE
  5
164
100
AcDbEntity
  8
L1_65
  6
CONTINUOUS
 62
         4
100
AcDbLine
 10
1469.6240098132
 20
-153.2016976866
 30
0.0
 11
1542.8782471238
 21
-79.947460376
 31
0.0
  0
LINE
  5
165
100
AcDbEntity
  8
L1_65
  6
CONTINUOUS
 62
         4
100
AcDbLine
 10
1465.921338987
 20
-152.6617278257
 30
0.0
 11
1526.6091283533
 21
-91.9739384594
 31
0.0
  0
LINE
  5
166
100
AcDbEntity
  8
L1_65
  6
CONTINUOUS
 62
         4
100
AcDbLine
 10
1530.8786999334
 20
-87.7043668793
 30
0.0
 11
1540.5930501995
 21
-77.9900166132
 31
0.0
  0
LINE
  5
167
100
AcDbEntity
  8
L1_65
  6
CONTINUOUS
 62
         4
100
AcDbLine
 10
1462.2186681608
 20
-152.1217579648
 30
0.0
 11
1521.6421390393
 21
-92.6982870863
 31
0.0
  0
LINE
  5
168
100
AcDbEntity
  8
L1_65
  6
CONTINUOUS
 62
         4
100
AcDbLine
 10
1530.8786999334
 20
-83.4617261922
 30
0.0
 11
1536.3504095124
 21
-77.9900166132
 31
0.0
  0
LINE
  5
169
100
AcDbEntity
  8
L1_65
  6
CONTINUOUS
 62
         4
100
AcDbLine
 10
1458.5159973345
 20
-151.5817881039
 30
0.0
 11
1516.6751497252
 21
-93.4226357133
 31
0.0
  0
LINE
  5
16A
100
AcDbEntity
  8
L1_65
  6
CONTINUOUS
 62
         4
100
AcDbLine
 10
1531.2095352455
 20
-78.8882501929
 30
0.0
 11
1531.7769335131
 21
-78.3208519253
 31
0.0
  0
LINE
  5
16B
100
AcDbEntity
  8
L1_65
  6
CONTINUOUS
 62
         4
100
AcDbLine
 10
1454.8133265083
 20
-151.041818243
 30
0.0
 11
1511.7081604111
 21
-94.1469843402
 31
0.0
  0
LINE
  5
16C
100
AcDbEntity
  8
L1_65
  6
CONTINUOUS
 62
         4
100
AcDbLine
 10
1451.1106556821
 20
-150.5018483821
 30
0.0
 11
1506.7411710971
 21
-94.8713329672
 31
0.0
  0
LINE
  5
16D
100
AcDbEntity
  8
L1_65
  6
CONTINUOUS
 62
         4
100
AcDbLine
 10
1447.4079848559
 20
-149.9618785213
 30
0.0
 11
1501.774181783
 21
-95.5956815941
 31
0.0
  0
LINE
  5
16E
100
AcDbEntity
  8
L1_65
  6
CONTINUOUS
 62
         4
100
AcDbLine
 10
1443.7053140297
 20
-149.4219086604
 30
0.0
 11
1455.884262562
 21
-137.242960128
 31
0.0
  0
LINE
  5
16F
100
AcDbEntity
  8
L1_65
  6
CONTINUOUS
 62
         4
100
AcDbLine
 10
1460.6031520489
 20
-132.5240706411
 30
0.0
 11
1496.807192469
 21
-96.320030221
 31
0.0
  0
LINE
  5
170
100
AcDbEntity
  8
L1_65
  6
CONTINUOUS
 62
         4
100
AcDbLine
 10
1440.0026432034
 20
-148.8819387995
 30
0.0
 11
1451.6416218749
 21
-137.242960128
 31
0.0
  0
LINE
  5
171
100
AcDbEntity
  8
L1_65
  6
CONTINUOUS
 62
         4
100
AcDbLine
 10
1463.2823043981
 20
-125.6022776048
 30
0.0
 11
1491.8402031549
 21
-97.044378848
 31
0.0
  0
LINE
  5
172
100
AcDbEntity
  8
L1_65
  6
CONTINUOUS
 62
         4
100
AcDbLine
 10
1436.2999723772
 20
-148.3419689386
 30
0.0
 11
1447.3989811878
 21
-137.242960128
 31
0.0
  0
LINE
  5
173
100
AcDbEntity
  8
L1_65
  6
CONTINUOUS
 62
         4
100
AcDbLine
 10
1461.7293901275
 20
-122.9125511883
 30
0.0
 11
1486.8732138408
 21
-97.7687274749
 31
0.0
  0
LINE
  5
174
100
AcDbEntity
  8
L1_65
  6
CONTINUOUS
 62
         4
100
AcDbLine
 10
1432.597301551
 20
-147.8019990777
 30
0.0
 11
1443.1563405007
 21
-137.242960128
 31
0.0
  0
LINE
  5
175
100
AcDbEntity
  8
L1_65
  6
CONTINUOUS
 62
         4
100
AcDbLine
 10
1460.1764758569
 20
-120.2228247718
 30
0.0
 11
1481.9062245268
 21
-98.4930761019
 31
0.0
  0
LINE
  5
176
100
AcDbEntity
  8
L1_65
  6
CONTINUOUS
 62
         4
100
AcDbLine
 10
1428.8946307248
 20
-147.2620292168
 30
0.0
 11
1438.9136998136
 21
-137.242960128
 31
0.0
  0
LINE
  5
177
100
AcDbEntity
  8
L1_65
  6
CONTINUOUS
 62
         4
100
AcDbLine
 10
1458.6235615862
 20
-117.5330983553
 30
0.0
 11
1476.9392352127
 21
-99.2174247288
 31
0.0
  0
LINE
  5
178
100
AcDbEntity
  8
L1_65
  6
CONTINUOUS
 62
         4
100
AcDbLine
 10
1426.0055742077
 20
-145.9084450467
 30
0.0
 11
1434.6710591264
 21
-137.242960128
 31
0.0
  0
LINE
  5
179
100
AcDbEntity
  8
L1_65
  6
CONTINUOUS
 62
         4
100
AcDbLine
 10
1455.6710591264
 20
-116.242960128
 30
0.0
 11
1471.9722458987
 21
-99.9417733557
 31
0.0
  0
LINE
  5
17A
100
AcDbEntity
  8
L1_65
  6
CONTINUOUS
 62
         4
100
AcDbLine
 10
1421.9313619541
 20
-145.7400166132
 30
0.0
 11
1430.4284184393
 21
-137.242960128
 31
0.0
  0
LINE
  5
17B
100
AcDbEntity
  8
L1_65
  6
CONTINUOUS
 62
         4
100
AcDbLine
 10
1451.4284184393
 20
-116.242960128
 30
0.0
 11
1467.0052565846
 21
-100.6661219827
 31
0.0
  0
LINE
  5
17C
100
AcDbEntity
  8
L1_65
  6
CONTINUOUS
 62
         4
100
AcDbLine
 10
1417.038721267
 20
-146.3900166132
 30
0.0
 11
1426.1857777522
 21
-137.242960128
 31
0.0
  0
LINE
  5
17D
100
AcDbEntity
  8
L1_65
  6
CONTINUOUS
 62
         4
100
AcDbLine
 10
1447.1857777522
 20
-116.242960128
 30
0.0
 11
1462.0382672705
 21
-101.3904706096
 31
0.0
  0
LINE
  5
17E
100
AcDbEntity
  8
L1_65
  6
CONTINUOUS
 62
         4
100
AcDbLine
 10
1412.7960805799
 20
-146.3900166132
 30
0.0
 11
1421.9431370651
 21
-137.242960128
 31
0.0
  0
LINE
  5
17F
100
AcDbEntity
  8
L1_65
  6
CONTINUOUS
 62
         4
100
AcDbLine
 10
1442.9431370651
 20
-116.242960128
 30
0.0
 11
1457.0712779565
 21
-102.1148192366
 31
0.0
  0
LINE
  5
180
100
AcDbEntity
  8
L1_65
  6
CONTINUOUS
 62
         4
100
AcDbLine
 10
1408.5534398927
 20
-146.3900166132
 30
0.0
 11
1417.700496378
 21
-137.242960128
 31
0.0
  0
LINE
  5
181
100
AcDbEntity
  8
L1_65
  6
CONTINUOUS
 62
         4
100
AcDbLine
 10
1438.700496378
 20
-116.242960128
 30
0.0
 11
1452.1042886424
 21
-102.8391678635
 31
0.0
  0
LINE
  5
182
100
AcDbEntity
  8
L1_65
  6
CONTINUOUS
 62
         4
100
AcDbLine
 10
1404.3107992056
 20
-146.3900166132
 30
0.0
 11
1410.7344461995
 21
-139.9663696194
 31
0.0
  0
LINE
  5
183
100
AcDbEntity
  8
L1_65
  6
CONTINUOUS
 62
         4
100
AcDbLine
 10
1434.4578556909
 20
-116.242960128
 30
0.0
 11
1447.1372993284
 21
-103.5635164905
 31
0.0
  0
LINE
  5
184
100
AcDbEntity
  8
L1_65
  6
CONTINUOUS
 62
         4
100
AcDbLine
 10
1401.1185286194
 20
-145.3396465123
 30
0.0
 11
1406.7211020333
 21
-139.7370730984
 31
0.0
  0
LINE
  5
185
100
AcDbEntity
  8
L1_65
  6
CONTINUOUS
 62
         4
100
AcDbLine
 10
1430.2152150037
 20
-116.242960128
 30
0.0
 11
1442.1703100143
 21
-104.2878651174
 31
0.0
  0
LINE
  5
186
100
AcDbEntity
  8
L1_65
  6
CONTINUOUS
 62
         4
100
AcDbLine
 10
1400.9196520062
 20
-141.2958824384
 30
0.0
 11
1402.4291921839
 21
-139.7863422607
 31
0.0
  0
LINE
  5
187
100
AcDbEntity
  8
L1_65
  6
CONTINUOUS
 62
         4
100
AcDbLine
 10
1425.9725743166
 20
-116.242960128
 30
0.0
 11
1437.2033207002
 21
-105.0122137443
 31
0.0
  0
LINE
  5
188
100
AcDbEntity
  8
L1_65
  6
CONTINUOUS
 62
         4
100
AcDbLine
 10
1421.7299336295
 20
-116.242960128
 30
0.0
 11
1432.2363313862
 21
-105.7365623713
 31
0.0
  0
LINE
  5
189
100
AcDbEntity
  8
L1_65
  6
CONTINUOUS
 62
         4
100
AcDbLine
 10
1417.4872929424
 20
-116.242960128
 30
0.0
 11
1427.2693420721
 21
-106.4609109982
 31
0.0
  0
LINE
  5
18A
100
AcDbEntity
  8
L1_65
  6
CONTINUOUS
 62
         4
100
AcDbLine
 10
1414.2314221056
 20
-115.2561902776
 30
0.0
 11
1421.74759577
 21
-107.7400166132
 31
0.0
  0
LINE
  5
18B
100
AcDbEntity
  8
L1_65
  6
CONTINUOUS
 62
         4
100
AcDbLine
 10
1411.8015753394
 20
-113.4433963567
 30
0.0
 11
1417.6918275081
 21
-107.5531441879
 31
0.0
  0
LINE
  5
18C
100
AcDbEntity
  8
L1_65
  6
CONTINUOUS
 62
         4
100
AcDbLine
 10
1407.259370881
 20
-113.742960128
 30
0.0
 11
1413.9123143958
 21
-107.0900166132
 31
0.0
  0
LINE
  5
18D
100
AcDbEntity
  8
L1_65
  6
CONTINUOUS
 62
         4
100
AcDbLine
 10
1403.0167301939
 20
-113.742960128
 30
0.0
 11
1409.6696737087
 21
-107.0900166132
 31
0.0
  0
LINE
  5
18E
100
AcDbEntity
  8
L1_65
  6
CONTINUOUS
 62
         4
100
AcDbLine
 10
1400.8786999334
 20
-111.6383497013
 30
0.0
 11
1405.4270330215
 21
-107.0900166132
 31
0.0
  0
ENDBLK
  5
18F
100
AcDbEntity
  8
0
  6
CONTINUOUS
100
AcDbBlockEnd
  0
ENDSEC
  0
SECTION
  2
ENTITIES
  0
CIRCLE
  5
25
100
AcDbEntity
  8
L1_65
  6
CONTINUOUS
 62
         7
100
AcDbCircle
 10
1845.8340594905
 20
112.2524144385
 30
0.0
 40
13.0
  0
LINE
  5
26
100
AcDbEntity
  8
L1_65
  6
CENTER
 62
         1
100
AcDbLine
 10
1876.6306822564
 20
112.2524144385
 30
0.0
 11
1815.8171153683
 21
112.2524144385
 31
0.0
  0
LINE
  5
27
100
AcDbEntity
  8
L1_65
  6
CENTER
 62
         1
100
AcDbLine
 10
1845.8340594905
 20
85.3712116345
 30
0.0
 11
1845.8340594905
 21
139.1290465445
 31
0.0
  0
CIRCLE
  5
28
100
AcDbEntity
  8
L1_65
  6
CONTINUOUS
 62
         4
100
AcDbCircle
 10
1845.8340594905
 20
112.2524144385
 30
0.0
 40
11.1125
  0
CIRCLE
  5
29
100
AcDbEntity
  8
L1_65
  6
CONTINUOUS
 62
         7
100
AcDbCircle
 10
1845.8340594905
 20
112.2524144385
 30
0.0
 40
11.1125
  0
CIRCLE
  5
2A
100
AcDbEntity
  8
L1_65
  6
CONTINUOUS
 62
         7
100
AcDbCircle
 10
1845.8340594905
 20
112.2524144385
 30
0.0
 40
22.2
  0
ARC
  5
2B
100
AcDbEntity
  8
L1_65
  6
CONTINUOUS
 62
         4
100
AcDbCircle
 10
1845.8340594905
 20
112.2524144385
 30
0.0
 40
10.3125
100
AcDbArc
 50
270.0
 51
531.4424501721
  0
CIRCLE
  5
2C
100
AcDbEntity
  8
L1_65
  6
CONTINUOUS
 62
         7
100
AcDbCircle
 10
1845.8340594905
 20
112.2524144385
 30
0.0
 40
0.8
  0
CIRCLE
  5
2D
100
AcDbEntity
  8
L1_65
  6
CONTINUOUS
 62
         7
100
AcDbCircle
 10
1845.8340594905
 20
112.2524144385
 30
0.0
 40
1.95
  0
LINE
  5
2E
100
AcDbEntity
  8
L1_65
  6
CONTINUOUS
 62
         7
100
AcDbLine
 10
1572.6786999334
 20
-136.7400166132
 30
0.0
 11
1572.6786999334
 21
-147.9400166132
 31
0.0
  0
LINE
  5
2F
100
AcDbEntity
  8
L1_65
  6
CONTINUOUS
 62
         7
100
AcDbLine
 10
1576.6786999334
 20
-136.7400166132
 30
0.0
 11
1576.6786999334
 21
-137.8525166132
 31
0.0
  0
ARC
  5
30
100
AcDbEntity
  8
L1_65
  6
CONTINUOUS
 62
         7
100
AcDbCircle
 10
1571.6786999334
 20
-147.9400166132
 30
0.0
 40
1.0
100
AcDbArc
 50
270.0
 51
360.0
  0
ARC
  5
31
100
AcDbEntity
  8
L1_65
  6
CONTINUOUS
 62
         7
100
AcDbCircle
 10
1582.8546999334
 20
-136.8525166132
 30
0.0
 40
1.0
100
AcDbArc
 50
270.0
 51
360.0
  0
ARC
  5
32
100
AcDbEntity
  8
L1_65
  6
CONTINUOUS
 62
         7
100
AcDbCircle
 10
1582.8546999334
 20
-116.6275166132
 30
0.0
 40
1.0
100
AcDbArc
 50
0.0
 51
90.0
  0
ARC
  5
33
100
AcDbEntity
  8
L1_65
  6
CONTINUOUS
 62
         7
100
AcDbCircle
 10
1571.6786999334
 20
-105.5400166132
 30
0.0
 40
1.0
100
AcDbArc
 50
0.0
 51
90.0
  0
LINE
  5
34
100
AcDbEntity
  8
L1_65
  6
CONTINUOUS
 62
         7
100
AcDbLine
 10
1583.8546999334
 20
-116.6275166132
 30
0.0
 11
1583.8546999334
 21
-136.8525166132
 31
0.0
  0
LINE
  5
35
100
AcDbEntity
  8
L1_65
  6
CONTINUOUS
 62
         7
100
AcDbLine
 10
1582.8546999334
 20
-137.8525166132
 30
0.0
 11
1576.6786999334
 21
-137.8525166132
 31
0.0
  0
LINE
  5
36
100
AcDbEntity
  8
L1_65
  6
CONTINUOUS
 62
         7
100
AcDbLine
 10
1576.6786999334
 20
-115.6275166132
 30
0.0
 11
1582.8546999334
 21
-115.6275166132
 31
0.0
  0
LINE
  5
37
100
AcDbEntity
  8
L1_65
  6
CONTINUOUS
 62
         7
100
AcDbLine
 10
1571.6786999334
 20
-148.9400166132
 30
0.0
 11
1547.8786999334
 21
-148.9400166132
 31
0.0
  0
LINE
  5
38
100
AcDbEntity
  8
L1_65
  6
CONTINUOUS
 62
         7
100
AcDbLine
 10
1547.8786999334
 20
-104.5400166132
 30
0.0
 11
1571.6786999334
 21
-104.5400166132
 31
0.0
  0
LINE
  5
39
100
AcDbEntity
  8
L1_65
  6
CONTINUOUS
 62
         7
100
AcDbLine
 10
1572.6786999334
 20
-105.5400166132
 30
0.0
 11
1572.6786999334
 21
-116.7400166132
 31
0.0
  0
LINE
  5
3A
100
AcDbEntity
  8
L1_65
  6
CENTER
 62
         1
100
AcDbLine
 10
1586.5729535843
 20
-126.7400166132
 30
0.0
 11
1533.6359259896
 21
-126.7400166132
 31
0.0
  0
LINE
  5
3B
100
AcDbEntity
  8
L1_65
  6
CONTINUOUS
 62
         7
100
AcDbLine
 10
1576.6786999334
 20
-115.6275166132
 30
0.0
 11
1576.6786999334
 21
-116.7400166132
 31
0.0
  0
LINE
  5
3C
100
AcDbEntity
  8
L1_65
  6
CONTINUOUS
 62
         7
100
AcDbLine
 10
1576.6786999334
 20
-116.7400166132
 30
0.0
 11
1572.6786999334
 21
-116.7400166132
 31
0.0
  0
LINE
  5
3D
100
AcDbEntity
  8
L1_65
  6
CONTINUOUS
 62
         7
100
AcDbLine
 10
1576.6786999334
 20
-136.7400166132
 30
0.0
 11
1572.6786999334
 21
-136.7400166132
 31
0.0
  0
LINE
  5
3E
100
AcDbEntity
  8
L1_65
  6
CONTINUOUS
 62
         4
100
AcDbLine
 10
1576.6786999334
 20
-116.4275166132
 30
0.0
 11
1583.8344958305
 21
-116.4275166132
 31
0.0
  0
LINE
  5
3F
100
AcDbEntity
  8
L1_65
  6
CONTINUOUS
 62
         4
100
AcDbLine
 10
1583.8344958305
 20
-137.0525166132
 30
0.0
 11
1576.6786999334
 21
-137.0525166132
 31
0.0
  0
LINE
  5
40
100
AcDbEntity
  8
L1_65
  6
CONTINUOUS
 62
         7
100
AcDbLine
 10
1572.1786999334
 20
-113.7400166132
 30
0.0
 11
1572.1786999334
 21
-116.2400166132
 31
0.0
  0
ARC
  5
41
100
AcDbEntity
  8
L1_65
  6
CONTINUOUS
 62
         7
100
AcDbCircle
 10
1572.6786999334
 20
-116.2400166132
 30
0.0
 40
0.5
100
AcDbArc
 50
180.0
 51
270.0
  0
LINE
  5
42
100
AcDbEntity
  8
L1_65
  6
CONTINUOUS
 62
         7
100
AcDbLine
 10
1572.6786999334
 20
-112.8739912094
 30
0.0
 11
1572.1786999334
 21
-113.7400166132
 31
0.0
  0
LINE
  5
43
100
AcDbEntity
  8
L1_65
  6
CONTINUOUS
 62
         7
100
AcDbLine
 10
1572.1786999334
 20
-139.7400166132
 30
0.0
 11
1572.1786999334
 21
-137.2400166132
 31
0.0
  0
ARC
  5
44
100
AcDbEntity
  8
L1_65
  6
CONTINUOUS
 62
         7
100
AcDbCircle
 10
1572.6786999334
 20
-137.2400166132
 30
0.0
 40
0.5
100
AcDbArc
 50
90.0
 51
180.0
  0
LINE
  5
45
100
AcDbEntity
  8
L1_65
  6
CONTINUOUS
 62
         7
100
AcDbLine
 10
1572.6786999334
 20
-140.606042017
 30
0.0
 11
1572.1786999334
 21
-139.7400166132
 31
0.0
  0
LINE
  5
46
100
AcDbEntity
  8
L1_65
  6
CONTINUOUS
 62
         7
100
AcDbLine
 10
1583.8546999334
 20
-128.8650166132
 30
0.0
 11
1583.8546999334
 21
-124.6150166132
 31
0.0
  0
LINE
  5
47
100
AcDbEntity
  8
L1_65
  6
CONTINUOUS
 62
         7
100
AcDbLine
 10
1580.7320502026
 20
-125.7400166132
 30
0.0
 11
1580.1546999334
 21
-126.7400166132
 31
0.0
  0
LINE
  5
48
100
AcDbEntity
  8
L1_65
  6
CONTINUOUS
 62
         7
100
AcDbLine
 10
1583.8546999334
 20
-124.6150166132
 30
0.0
 11
1581.9061427749
 21
-125.7400166132
 31
0.0
  0
LINE
  5
49
100
AcDbEntity
  8
L1_65
  6
CONTINUOUS
 62
         7
100
AcDbLine
 10
1581.9061427749
 20
-125.7400166132
 30
0.0
 11
1580.7320502026
 21
-125.7400166132
 31
0.0
  0
LINE
  5
4A
100
AcDbEntity
  8
L1_65
  6
CONTINUOUS
 62
         7
100
AcDbLine
 10
1581.9061427749
 20
-127.7400166132
 30
0.0
 11
1580.7320502026
 21
-127.7400166132
 31
0.0
  0
LINE
  5
4B
100
AcDbEntity
  8
L1_65
  6
CONTINUOUS
 62
         7
100
AcDbLine
 10
1583.8546999334
 20
-128.8650166132
 30
0.0
 11
1581.9061427749
 21
-127.7400166132
 31
0.0
  0
LINE
  5
4C
100
AcDbEntity
  8
L1_65
  6
CONTINUOUS
 62
         7
100
AcDbLine
 10
1580.7320502026
 20
-127.7400166132
 30
0.0
 11
1580.1546999334
 21
-126.7400166132
 31
0.0
  0
LINE
  5
4D
100
AcDbEntity
  8
L1_65
  6
CONTINUOUS
 62
         4
100
AcDbLine
 10
1580.7320502026
 20
-127.7400166132
 30
0.0
 11
1580.7320502026
 21
-125.7400166132
 31
0.0
  0
LINE
  5
4E
100
AcDbEntity
  8
L1_65
  6
CONTINUOUS
 62
         4
100
AcDbLine
 10
1581.9061427749
 20
-125.7400166132
 30
0.0
 11
1581.9061427749
 21
-127.7400166132
 31
0.0
  0
LINE
  5
4F
100
AcDbEntity
  8
L1_65
  6
CONTINUOUS
 62
         4
100
AcDbLine
 10
1575.8997190471
 20
122.2524144385
 30
0.0
 11
1575.8997190471
 21
102.2524144385
 31
0.0
  0
LINE
  5
50
100
AcDbEntity
  8
L1_65
  6
CONTINUOUS
 62
         7
100
AcDbLine
 10
1576.6786999334
 20
101.1399144385
 30
0.0
 11
1576.0191530446
 21
102.0818450131
 31
0.0
  0
ARC
  5
51
100
AcDbEntity
  8
L1_65
  6
CONTINUOUS
 62
         7
100
AcDbCircle
 10
1575.6914922269
 20
101.8524144385
 30
0.0
 40
0.4
100
AcDbArc
 50
35.0
 51
90.0
  0
ARC
  5
52
100
AcDbEntity
  8
L1_65
  6
CONTINUOUS
 62
         7
100
AcDbCircle
 10
1575.6914922269
 20
122.6524144385
 30
0.0
 40
0.4
100
AcDbArc
 50
270.0
 51
325.0
  0
LINE
  5
53
100
AcDbEntity
  8
L1_65
  6
CONTINUOUS
 62
         7
100
AcDbLine
 10
1576.6786999334
 20
123.3649144385
 30
0.0
 11
1576.0191530446
 21
122.422983864
 31
0.0
  0
ARC
  5
54
100
AcDbEntity
  8
L1_65
  6
CONTINUOUS
 62
         7
100
AcDbCircle
 10
1571.6786999334
 20
91.0524144385
 30
0.0
 40
1.0
100
AcDbArc
 50
270.0
 51
360.0
  0
ARC
  5
55
100
AcDbEntity
  8
L1_65
  6
CONTINUOUS
 62
         7
100
AcDbCircle
 10
1582.8546999334
 20
102.1399144385
 30
0.0
 40
1.0
100
AcDbArc
 50
270.0
 51
360.0
  0
ARC
  5
56
100
AcDbEntity
  8
L1_65
  6
CONTINUOUS
 62
         7
100
AcDbCircle
 10
1582.8546999334
 20
122.3649144385
 30
0.0
 40
1.0
100
AcDbArc
 50
0.0
 51
90.0
  0
ARC
  5
57
100
AcDbEntity
  8
L1_65
  6
CONTINUOUS
 62
         7
100
AcDbCircle
 10
1571.6786999334
 20
133.4524144385
 30
0.0
 40
1.0
100
AcDbArc
 50
0.0
 51
90.0
  0
DIMENSION
  5
5B
100
AcDbEntity
  8
L1_65
  6
CONTINUOUS
 62
         4
100
AcDbDimension
  2
*D0
 10
1634.1646963667
 20
134.4524144385
 30
0.0
 11
1631.5396963667
 21
100.2000329755
 31
0.0
  3
DIMSTYLE1
100
AcDbAlignedDimension
 13
1572.0786999334
 23
134.4524144385
 33
0.0
 14
1572.0786999334
 24
90.0524144385
 34
0.0
 50
90.0
100
AcDbRotatedDimension
  0
LINE
  5
68
100
AcDbEntity
  8
L1_65
  6
CONTINUOUS
 62
         7
100
AcDbLine
 10
1583.8546999334
 20
122.3649144385
 30
0.0
 11
1583.8546999334
 21
102.1399144385
 31
0.0
  0
LINE
  5
69
100
AcDbEntity
  8
L1_65
  6
CONTINUOUS
 62
         7
100
AcDbLine
 10
1582.8546999334
 20
101.1399144385
 30
0.0
 11
1576.6786999334
 21
101.1399144385
 31
0.0
  0
LINE
  5
6A
100
AcDbEntity
  8
L1_65
  6
CONTINUOUS
 62
         7
100
AcDbLine
 10
1576.6786999334
 20
123.3649144385
 30
0.0
 11
1582.8546999334
 21
123.3649144385
 31
0.0
  0
LINE
  5
6B
100
AcDbEntity
  8
L1_65
  6
CONTINUOUS
 62
         7
100
AcDbLine
 10
1571.6786999334
 20
90.0524144385
 30
0.0
 11
1547.8786999334
 21
90.0524144385
 31
0.0
  0
LINE
  5
6C
100
AcDbEntity
  8
L1_65
  6
CONTINUOUS
 62
         7
100
AcDbLine
 10
1547.8786999334
 20
134.4524144385
 30
0.0
 11
1571.6786999334
 21
134.4524144385
 31
0.0
  0
LINE
  5
6D
100
AcDbEntity
  8
L1_65
  6
CONTINUOUS
 62
         7
100
AcDbLine
 10
1572.6786999334
 20
133.4524144385
 30
0.0
 11
1572.6786999334
 21
91.0524144385
 31
0.0
  0
LINE
  5
6E
100
AcDbEntity
  8
L1_65
  6
CENTER
 62
         1
100
AcDbLine
 10
1586.5729535843
 20
112.2524144385
 30
0.0
 11
1533.6359259896
 21
112.2524144385
 31
0.0
  0
LINE
  5
6F
100
AcDbEntity
  8
L1_65
  6
CONTINUOUS
 62
         7
100
AcDbLine
 10
1576.6786999334
 20
123.3649144385
 30
0.0
 11
1576.6786999334
 21
101.1399144385
 31
0.0
  0
LINE
  5
70
100
AcDbEntity
  8
L1_65
  6
CONTINUOUS
 62
         7
100
AcDbLine
 10
1575.6914922269
 20
122.2524144385
 30
0.0
 11
1572.6786999334
 21
122.2524144385
 31
0.0
  0
LINE
  5
71
100
AcDbEntity
  8
L1_65
  6
CONTINUOUS
 62
         7
100
AcDbLine
 10
1575.6914922269
 20
102.2524144385
 30
0.0
 11
1572.6786999334
 21
102.2524144385
 31
0.0
  0
LINE
  5
72
100
AcDbEntity
  8
L1_65
  6
CONTINUOUS
 62
         4
100
AcDbLine
 10
1576.6786999334
 20
122.5649144385
 30
0.0
 11
1583.8344958305
 21
122.5649144385
 31
0.0
  0
LINE
  5
73
100
AcDbEntity
  8
L1_65
  6
CONTINUOUS
 62
         4
100
AcDbLine
 10
1583.8344958305
 20
101.9399144385
 30
0.0
 11
1576.6786999334
 21
101.9399144385
 31
0.0
  0
LINE
  5
74
100
AcDbEntity
  8
L1_65
  6
DASHED
 62
         2
100
AcDbLine
 10
1572.1786999334
 20
125.2524144385
 30
0.0
 11
1572.1786999334
 21
112.2524144385
 31
0.0
  0
ARC
  5
75
100
AcDbEntity
  8
L1_65
  6
DASHED
 62
         2
100
AcDbCircle
 10
1572.6786999334
 20
122.7524144385
 30
0.0
 40
0.5
100
AcDbArc
 50
180.0
 51
270.0
  0
LINE
  5
76
100
AcDbEntity
  8
L1_65
  6
DASHED
 62
         2
100
AcDbLine
 10
1572.6786999334
 20
126.1184398423
 30
0.0
 11
1572.1786999334
 21
125.2524144385
 31
0.0
  0
LINE
  5
77
100
AcDbEntity
  8
L1_65
  6
DASHED
 62
         2
100
AcDbLine
 10
1572.1786999334
 20
99.2524144385
 30
0.0
 11
1572.1786999334
 21
112.2524144385
 31
0.0
  0
ARC
  5
78
100
AcDbEntity
  8
L1_65
  6
DASHED
 62
         2
100
AcDbCircle
 10
1572.6786999334
 20
101.7524144385
 30
0.0
 40
0.5
100
AcDbArc
 50
90.0
 51
180.0
  0
LINE
  5
79
100
AcDbEntity
  8
L1_65
  6
DASHED
 62
         2
100
AcDbLine
 10
1572.6786999334
 20
98.3863890348
 30
0.0
 11
1572.1786999334
 21
99.2524144385
 31
0.0
  0
LINE
  5
7A
100
AcDbEntity
  8
L1_65
  6
DASHED
 62
         2
100
AcDbLine
 10
1580.7320502026
 20
113.2524144385
 30
0.0
 11
1580.1546999334
 21
112.2524144385
 31
0.0
  0
LINE
  5
7B
100
AcDbEntity
  8
L1_65
  6
DASHED
 62
         2
100
AcDbLine
 10
1583.8546999334
 20
114.3774144385
 30
0.0
 11
1581.9061427749
 21
113.2524144385
 31
0.0
  0
LINE
  5
7C
100
AcDbEntity
  8
L1_65
  6
DASHED
 62
         2
100
AcDbLine
 10
1581.9061427749
 20
113.2524144385
 30
0.0
 11
1580.7320502026
 21
113.2524144385
 31
0.0
  0
LINE
  5
7D
100
AcDbEntity
  8
L1_65
  6
DASHED
 62
         2
100
AcDbLine
 10
1581.9061427749
 20
111.2524144385
 30
0.0
 11
1580.7320502026
 21
111.2524144385
 31
0.0
  0
LINE
  5
7E
100
AcDbEntity
  8
L1_65
  6
DASHED
 62
         2
100
AcDbLine
 10
1583.8546999334
 20
110.1274144385
 30
0.0
 11
1581.9061427749
 21
111.2524144385
 31
0.0
  0
LINE
  5
7F
100
AcDbEntity
  8
L1_65
  6
DASHED
 62
         2
100
AcDbLine
 10
1580.7320502026
 20
111.2524144385
 30
0.0
 11
1580.1546999334
 21
112.2524144385
 31
0.0
  0
LINE
  5
80
100
AcDbEntity
  8
L1_65
  6
DASHED
 62
         2
100
AcDbLine
 10
1580.7320502026
 20
111.2524144385
 30
0.0
 11
1580.7320502026
 21
113.2524144385
 31
0.0
  0
LINE
  5
81
100
AcDbEntity
  8
L1_65
  6
DASHED
 62
         2
100
AcDbLine
 10
1581.9061427749
 20
113.2524144385
 30
0.0
 11
1581.9061427749
 21
111.2524144385
 31
0.0
  0
LINE
  5
82
100
AcDbEntity
  8
L1_65
  6
CONTINUOUS
 62
         4
100
AcDbLine
 10
1572.6786999334
 20
136.0538772739
 30
0.0
 11
1572.6786999334
 21
166.5190413977
 31
0.0
  0
LINE
  5
83
100
AcDbEntity
  8
L1_65
  6
CONTINUOUS
 62
         7
100
AcDbLine
 10
1400.8786999334
 20
94.6024144385
 30
0.0
 11
1400.8786999334
 21
129.9024144385
 31
0.0
  0
LINE
  5
84
100
AcDbEntity
  8
L1_65
  6
CENTER
 62
         1
100
AcDbLine
 10
1527.6786999334
 20
77.3274144385
 30
0.0
 11
1527.6786999334
 21
147.1774144385
 31
0.0
  0
LINE
  5
85
100
AcDbEntity
  8
L1_65
  6
CONTINUOUS
 62
         7
100
AcDbLine
 10
1530.8786999334
 20
65.5024144385
 30
0.0
 11
1530.8786999334
 21
159.0024144385
 31
0.0
  0
DIMENSION
  5
88
100
AcDbEntity
  8
L1_65
  6
CONTINUOUS
 62
         4
100
AcDbDimension
  2
*D1
 10
1400.8786999334
 20
209.0555682955
 30
0.0
 11
1486.1472585214
 21
211.6805682955
 31
0.0
  3
DIMSTYLE1
100
AcDbAlignedDimension
 13
1400.8786999334
 23
129.9024144385
 33
0.0
 14
1583.8546999334
 24
112.2524144385
 34
0.0
100
AcDbRotatedDimension
  0
LINE
  5
94
100
AcDbEntity
  8
_Y__________
  6
CONTINUOUS
 62
         7
100
AcDbLine
 10
1457.8786999334
 20
-137.242960128
 30
0.0
 11
1463.9408777599
 21
-126.742960128
 31
0.0
  0
LINE
  5
95
100
AcDbEntity
  8
_Y__________
  6
CONTINUOUS
 62
         7
100
AcDbLine
 10
1457.8786999334
 20
-116.242960128
 30
0.0
 11
1463.9408777599
 21
-126.742960128
 31
0.0
  0
LINE
  5
96
100
AcDbEntity
  8
_Y__________
  6
CONTINUOUS
 62
         7
100
AcDbLine
 10
1457.8786999334
 20
-137.242960128
 30
0.0
 11
1457.8786999334
 21
-116.242960128
 31
0.0
  0
LINE
  5
97
100
AcDbEntity
  8
_Y__________
  6
CENTER
 62
         1
100
AcDbLine
 10
1239.9233403763
 20
53.3107632287
 30
0.0
 11
1239.9233403763
 21
175.5963466517
 31
0.0
  0
CIRCLE
  5
98
100
AcDbEntity
  8
_Y__________
  6
CONTINUOUS
 62
         7
100
AcDbCircle
 10
1239.9233403763
 20
112.2524144385
 30
0.0
 40
10.5
  0
ARC
  5
99
100
AcDbEntity
  8
_Y__________
  6
CONTINUOUS
 62
         4
100
AcDbCircle
 10
1239.9233403763
 20
112.2524144385
 30
0.0
 40
12.0
100
AcDbArc
 50
270.0
 51
540.0
  0
CIRCLE
  5
9A
100
AcDbEntity
  8
_Y__________
  6
CONTINUOUS
 62
         7
100
AcDbCircle
 10
1239.9233403763
 20
112.2524144385
 30
0.0
 40
13.0
  0
CIRCLE
  5
9B
100
AcDbEntity
  8
_Y__________
  6
CONTINUOUS
 62
         7
100
AcDbCircle
 10
1239.9233403763
 20
112.2524144385
 30
0.0
 40
35.0270827722
  0
CIRCLE
  5
9C
100
AcDbEntity
  8
_Y__________
  6
CONTINUOUS
 62
         7
100
AcDbCircle
 10
1239.9233403763
 20
112.2524144385
 30
0.0
 40
19.895
  0
LINE
  5
9D
100
AcDbEntity
  8
_Y__________
  6
CENTER
 62
         1
100
AcDbLine
 10
1295.1323112454
 20
112.2524144385
 30
0.0
 11
1184.2600489419
 21
112.2524144385
 31
0.0
  0
ARC
  5
9E
100
AcDbEntity
  8
_Y__________
  6
CONTINUOUS
 62
         7
100
AcDbCircle
 10
1239.9233403763
 20
112.2524144385
 30
0.0
 40
48.75
100
AcDbArc
 50
196.2356055887
 51
343.7643944113
  0
LINE
  5
9F
100
AcDbEntity
  8
_Y__________
  6
CONTINUOUS
 62
         7
100
AcDbLine
 10
1285.9492906591
 20
125.1024144385
 30
0.0
 11
1277.2233403763
 21
125.1024144385
 31
0.0
  0
LINE
  5
A0
100
AcDbEntity
  8
_Y__________
  6
CONTINUOUS
 62
         7
100
AcDbLine
 10
1285.9492906591
 20
99.4024144385
 30
0.0
 11
1277.2233403763
 21
99.4024144385
 31
0.0
  0
LINE
  5
A1
100
AcDbEntity
  8
_Y__________
  6
CONTINUOUS
 62
         7
100
AcDbLine
 10
1275.2233403763
 20
101.4024144385
 30
0.0
 11
1275.2233403763
 21
123.1024144385
 31
0.0
  0
LINE
  5
A2
100
AcDbEntity
  8
_Y__________
  6
CONTINUOUS
 62
         7
100
AcDbLine
 10
1204.6233403763
 20
101.4024144385
 30
0.0
 11
1204.6233403763
 21
123.1024144385
 31
0.0
  0
LINE
  5
A3
100
AcDbEntity
  8
_Y__________
  6
CONTINUOUS
 62
         7
100
AcDbLine
 10
1202.6233403763
 20
125.1024144385
 30
0.0
 11
1193.8973900935
 21
125.1024144385
 31
0.0
  0
LINE
  5
A4
100
AcDbEntity
  8
_Y__________
  6
CONTINUOUS
 62
         7
100
AcDbLine
 10
1202.6233403763
 20
99.4024144385
 30
0.0
 11
1193.8973900935
 21
99.4024144385
 31
0.0
  0
ARC
  5
A5
100
AcDbEntity
  8
_Y__________
  6
CONTINUOUS
 62
         7
100
AcDbCircle
 10
1239.9233403763
 20
112.2524144385
 30
0.0
 40
48.75
100
AcDbArc
 50
16.2356055887
 51
163.7643944113
  0
ARC
  5
A6
100
AcDbEntity
  8
_Y__________
  6
CONTINUOUS
 62
         7
100
AcDbCircle
 10
1202.6233403763
 20
123.1024144385
 30
0.0
 40
2.0
100
AcDbArc
 50
0.0
 51
90.0
  0
ARC
  5
A7
100
AcDbEntity
  8
_Y__________
  6
CONTINUOUS
 62
         7
100
AcDbCircle
 10
1202.6233403763
 20
101.4024144385
 30
0.0
 40
2.0
100
AcDbArc
 50
270.0
 51
360.0
  0
ARC
  5
A8
100
AcDbEntity
  8
_Y__________
  6
CONTINUOUS
 62
         7
100
AcDbCircle
 10
1277.2233403763
 20
123.1024144385
 30
0.0
 40
2.0
100
AcDbArc
 50
90.0
 51
180.0
  0
ARC
  5
A9
100
AcDbEntity
  8
_Y__________
  6
CONTINUOUS
 62
         7
100
AcDbCircle
 10
1277.2233403763
 20
101.4024144385
 30
0.0
 40
2.0
100
AcDbArc
 50
180.0
 51
270.0
  0
LINE
  5
AA
100
AcDbEntity
  8
_Y__________
  6
CONTINUOUS
 62
         7
100
AcDbLine
 10
1193.1174842584
 20
125.8823202736
 30
0.0
 11
1193.8973900935
 21
125.1024144385
 31
0.0
  0
LINE
  5
AB
100
AcDbEntity
  8
_Y__________
  6
CONTINUOUS
 62
         7
100
AcDbLine
 10
1193.1174842584
 20
98.6225086035
 30
0.0
 11
1193.8973900935
 21
99.4024144385
 31
0.0
  0
LINE
  5
AC
100
AcDbEntity
  8
_Y__________
  6
CONTINUOUS
 62
         7
100
AcDbLine
 10
1286.7291964941
 20
125.8823202736
 30
0.0
 11
1285.9492906591
 21
125.1024144385
 31
0.0
  0
LINE
  5
AD
100
AcDbEntity
  8
_Y__________
  6
CONTINUOUS
 62
         7
100
AcDbLine
 10
1286.7291964941
 20
98.6225086035
 30
0.0
 11
1285.9492906591
 21
99.4024144385
 31
0.0
  0
LINE
  5
AE
100
AcDbEntity
  8
_Y__________
  6
CONTINUOUS
 62
         7
100
AcDbLine
 10
1892.5752618713
 20
98.4024144385
 30
0.0
 11
1891.5752618713
 21
99.4024144385
 31
0.0
  0
LINE
  5
AF
100
AcDbEntity
  8
_Y__________
  6
CONTINUOUS
 62
         7
100
AcDbLine
 10
1892.5752618713
 20
126.1024144385
 30
0.0
 11
1891.5752618713
 21
125.1024144385
 31
0.0
  0
LINE
  5
B0
100
AcDbEntity
  8
_Y__________
  6
CONTINUOUS
 62
         7
100
AcDbLine
 10
1799.0928571098
 20
98.4024144385
 30
0.0
 11
1800.0928571098
 21
99.4024144385
 31
0.0
  0
LINE
  5
B1
100
AcDbEntity
  8
_Y__________
  6
CONTINUOUS
 62
         7
100
AcDbLine
 10
1799.0928571098
 20
126.1024144385
 30
0.0
 11
1800.0928571098
 21
125.1024144385
 31
0.0
  0
ARC
  5
B2
100
AcDbEntity
  8
_Y__________
  6
CONTINUOUS
 62
         7
100
AcDbCircle
 10
1845.8340594905
 20
112.2524144385
 30
0.0
 40
48.75
100
AcDbArc
 50
16.5052120024
 51
163.4947879976
  0
LINE
  5
B3
100
AcDbEntity
  8
_Y__________
  6
CONTINUOUS
 62
         7
100
AcDbLine
 10
1808.5340594905
 20
99.4024144385
 30
0.0
 11
1800.0928571098
 21
99.4024144385
 31
0.0
  0
LINE
  5
B4
100
AcDbEntity
  8
_Y__________
  6
CONTINUOUS
 62
         7
100
AcDbLine
 10
1808.5340594905
 20
125.1024144385
 30
0.0
 11
1800.0928571098
 21
125.1024144385
 31
0.0
  0
LINE
  5
B5
100
AcDbEntity
  8
_Y__________
  6
CONTINUOUS
 62
         7
100
AcDbLine
 10
1810.5340594905
 20
101.4024144385
 30
0.0
 11
1810.5340594905
 21
123.1024144385
 31
0.0
  0
LINE
  5
B6
100
AcDbEntity
  8
_Y__________
  6
CONTINUOUS
 62
         7
100
AcDbLine
 10
1881.1340594905
 20
101.4024144385
 30
0.0
 11
1881.1340594905
 21
123.1024144385
 31
0.0
  0
LINE
  5
B7
100
AcDbEntity
  8
_Y__________
  6
CONTINUOUS
 62
         7
100
AcDbLine
 10
1891.5752618713
 20
99.4024144385
 30
0.0
 11
1883.1340594905
 21
99.4024144385
 31
0.0
  0
LINE
  5
B8
100
AcDbEntity
  8
_Y__________
  6
CONTINUOUS
 62
         7
100
AcDbLine
 10
1891.5752618713
 20
125.1024144385
 30
0.0
 11
1883.1340594905
 21
125.1024144385
 31
0.0
  0
ARC
  5
B9
100
AcDbEntity
  8
_Y__________
  6
CONTINUOUS
 62
         7
100
AcDbCircle
 10
1845.8340594905
 20
112.2524144385
 30
0.0
 40
48.75
100
AcDbArc
 50
196.5052120024
 51
343.4947879976
  0
LINE
  5
BA
100
AcDbEntity
  8
_Y__________
  6
CENTER
 62
         1
100
AcDbLine
 10
1845.8340594905
 20
53.3107632287
 30
0.0
 11
1845.8340594905
 21
175.5963466517
 31
0.0
  0
LINE
  5
BB
100
AcDbEntity
  8
_Y__________
  6
CENTER
 62
         1
100
AcDbLine
 10
1901.0430303597
 20
112.2524144385
 30
0.0
 11
1790.1707680562
 21
112.2524144385
 31
0.0
  0
ARC
  5
BC
100
AcDbEntity
  8
_Y__________
  6
CONTINUOUS
 62
         7
100
AcDbCircle
 10
1808.5340594905
 20
123.1024144385
 30
0.0
 40
2.0
100
AcDbArc
 50
0.0
 51
90.0
  0
ARC
  5
BD
100
AcDbEntity
  8
_Y__________
  6
CONTINUOUS
 62
         7
100
AcDbCircle
 10
1808.5340594905
 20
101.4024144385
 30
0.0
 40
2.0
100
AcDbArc
 50
270.0
 51
360.0
  0
ARC
  5
BE
100
AcDbEntity
  8
_Y__________
  6
CONTINUOUS
 62
         7
100
AcDbCircle
 10
1883.1340594905
 20
101.4024144385
 30
0.0
 40
2.0
100
AcDbArc
 50
180.0
 51
270.0
  0
ARC
  5
BF
100
AcDbEntity
  8
_Y__________
  6
CONTINUOUS
 62
         7
100
AcDbCircle
 10
1883.1340594905
 20
123.1024144385
 30
0.0
 40
2.0
100
AcDbArc
 50
90.0
 51
180.0
  0
LINE
  5
C0
100
AcDbEntity
  8
_Y__________
  6
CONTINUOUS
 62
         7
100
AcDbLine
 10
1542.8786999334
 20
65.5024144385
 30
0.0
 11
1542.8786999334
 21
159.0024144385
 31
0.0
  0
LINE
  5
C1
100
AcDbEntity
  8
_Y__________
  6
CONTINUOUS
 62
         4
100
AcDbLine
 10
1542.8786999334
 20
126.1024144385
 30
0.0
 11
1530.8786999334
 21
126.1024144385
 31
0.0
  0
LINE
  5
C2
100
AcDbEntity
  8
_Y__________
  6
CONTINUOUS
 62
         7
100
AcDbLine
 10
1542.8786999334
 20
125.1024144385
 30
0.0
 11
1530.8786999334
 21
125.1024144385
 31
0.0
  0
LINE
  5
C3
100
AcDbEntity
  8
_Y__________
  6
CONTINUOUS
 62
         7
100
AcDbLine
 10
1542.8786999334
 20
99.4024144385
 30
0.0
 11
1530.8786999334
 21
99.4024144385
 31
0.0
  0
LINE
  5
C4
100
AcDbEntity
  8
_Y__________
  6
CONTINUOUS
 62
         4
100
AcDbLine
 10
1542.8786999334
 20
98.4024144385
 30
0.0
 11
1530.8786999334
 21
98.4024144385
 31
0.0
  0
LINE
  5
C5
100
AcDbEntity
  8
_Y__________
  6
CONTINUOUS
 62
         7
100
AcDbLine
 10
1530.8786999334
 20
65.5024144385
 30
0.0
 11
1530.8786999334
 21
66.5024144385
 31
0.0
  0
ARC
  5
C6
100
AcDbEntity
  8
_Y__________
  6
CONTINUOUS
 62
         7
100
AcDbCircle
 10
1532.8786999334
 20
159.0024144385
 30
0.0
 40
2.0
100
AcDbArc
 50
90.0
 51
180.0
  0
LINE
  5
C7
100
AcDbEntity
  8
_Y__________
  6
CONTINUOUS
 62
         7
100
AcDbLine
 10
1540.8786999334
 20
161.0024144385
 30
0.0
 11
1539.8786999334
 21
161.0024144385
 31
0.0
  0
ARC
  5
C8
100
AcDbEntity
  8
_Y__________
  6
CONTINUOUS
 62
         7
100
AcDbCircle
 10
1540.8786999334
 20
159.0024144385
 30
0.0
 40
2.0
100
AcDbArc
 50
0.0
 51
90.0
  0
ARC
  5
C9
100
AcDbEntity
  8
_Y__________
  6
CONTINUOUS
 62
         7
100
AcDbCircle
 10
1532.8786999334
 20
65.5024144385
 30
0.0
 40
2.0
100
AcDbArc
 50
180.0
 51
270.0
  0
LINE
  5
CA
100
AcDbEntity
  8
_Y__________
  6
CONTINUOUS
 62
         7
100
AcDbLine
 10
1540.8786999334
 20
63.5024144385
 30
0.0
 11
1539.8786999334
 21
63.5024144385
 31
0.0
  0
ARC
  5
CB
100
AcDbEntity
  8
_Y__________
  6
CONTINUOUS
 62
         7
100
AcDbCircle
 10
1540.8786999334
 20
65.5024144385
 30
0.0
 40
2.0
100
AcDbArc
 50
270.0
 51
360.0
  0
LINE
  5
CC
100
AcDbEntity
  8
_Y__________
  6
CONTINUOUS
 62
         7
100
AcDbLine
 10
1542.8786999334
 20
65.5024144385
 30
0.0
 11
1542.8786999334
 21
66.5024144385
 31
0.0
  0
LINE
  5
CD
100
AcDbEntity
  8
_Y__________
  6
CONTINUOUS
 62
         7
100
AcDbLine
 10
1533.8786999334
 20
161.0024144385
 30
0.0
 11
1532.8786999334
 21
161.0024144385
 31
0.0
  0
LINE
  5
CE
100
AcDbEntity
  8
_Y__________
  6
CONTINUOUS
 62
         7
100
AcDbLine
 10
1542.8786999334
 20
158.0024144385
 30
0.0
 11
1542.8786999334
 21
159.0024144385
 31
0.0
  0
LINE
  5
CF
100
AcDbEntity
  8
_Y__________
  6
CONTINUOUS
 62
         7
100
AcDbLine
 10
1533.8786999334
 20
63.5024144385
 30
0.0
 11
1532.8786999334
 21
63.5024144385
 31
0.0
  0
LINE
  5
D0
100
AcDbEntity
  8
_Y__________
  6
CONTINUOUS
 62
         7
100
AcDbLine
 10
1530.8786999334
 20
158.0024144385
 30
0.0
 11
1530.8786999334
 21
159.0024144385
 31
0.0
  0
LINE
  5
D1
100
AcDbEntity
  8
_Y__________
  6
CONTINUOUS
 62
         7
100
AcDbLine
 10
1530.8786999334
 20
-80.9900166132
 30
0.0
 11
1530.8786999334
 21
-79.9900166132
 31
0.0
  0
LINE
  5
D2
100
AcDbEntity
  8
_Y__________
  6
CONTINUOUS
 62
         7
100
AcDbLine
 10
1533.8786999334
 20
-175.4900166132
 30
0.0
 11
1532.8786999334
 21
-175.4900166132
 31
0.0
  0
LINE
  5
D3
100
AcDbEntity
  8
_Y__________
  6
CONTINUOUS
 62
         7
100
AcDbLine
 10
1542.8786999334
 20
-99.5400166132
 30
0.0
 11
1542.8786999334
 21
-79.9900166132
 31
0.0
  0
LINE
  5
D4
100
AcDbEntity
  8
_Y__________
  6
CONTINUOUS
 62
         7
100
AcDbLine
 10
1533.8786999334
 20
-77.9900166132
 30
0.0
 11
1532.8786999334
 21
-77.9900166132
 31
0.0
  0
LINE
  5
D5
100
AcDbEntity
  8
_Y__________
  6
CONTINUOUS
 62
         7
100
AcDbLine
 10
1542.8786999334
 20
-173.4900166132
 30
0.0
 11
1542.8786999334
 21
-153.9400166132
 31
0.0
  0
ARC
  5
D6
100
AcDbEntity
  8
_Y__________
  6
CONTINUOUS
 62
         7
100
AcDbCircle
 10
1540.8786999334
 20
-173.4900166132
 30
0.0
 40
2.0
100
AcDbArc
 50
270.0
 51
360.0
  0
LINE
  5
D7
100
AcDbEntity
  8
_Y__________
  6
CONTINUOUS
 62
         7
100
AcDbLine
 10
1540.8786999334
 20
-175.4900166132
 30
0.0
 11
1539.8786999334
 21
-175.4900166132
 31
0.0
  0
ARC
  5
D8
100
AcDbEntity
  8
_Y__________
  6
CONTINUOUS
 62
         7
100
AcDbCircle
 10
1532.8786999334
 20
-173.4900166132
 30
0.0
 40
2.0
100
AcDbArc
 50
180.0
 51
270.0
  0
ARC
  5
D9
100
AcDbEntity
  8
_Y__________
  6
CONTINUOUS
 62
         7
100
AcDbCircle
 10
1540.8786999334
 20
-79.9900166132
 30
0.0
 40
2.0
100
AcDbArc
 50
0.0
 51
90.0
  0
LINE
  5
DA
100
AcDbEntity
  8
_Y__________
  6
CONTINUOUS
 62
         7
100
AcDbLine
 10
1540.8786999334
 20
-77.9900166132
 30
0.0
 11
1539.8786999334
 21
-77.9900166132
 31
0.0
  0
ARC
  5
DB
100
AcDbEntity
  8
_Y__________
  6
CONTINUOUS
 62
         7
100
AcDbCircle
 10
1532.8786999334
 20
-79.9900166132
 30
0.0
 40
2.0
100
AcDbArc
 50
90.0
 51
180.0
  0
LINE
  5
DC
100
AcDbEntity
  8
_Y__________
  6
CONTINUOUS
 62
         7
100
AcDbLine
 10
1530.8786999334
 20
-173.4900166132
 30
0.0
 11
1530.8786999334
 21
-172.4900166132
 31
0.0
  0
LINE
  5
DD
100
AcDbEntity
  8
_Y__________
  6
CENTER
 62
         1
100
AcDbLine
 10
1542.8786999334
 20
-126.7400166132
 30
0.0
 11
1397.6595739273
 21
-126.7400166132
 31
0.0
  0
LINE
  5
DE
100
AcDbEntity
  8
_Y__________
  6
CONTINUOUS
 62
         7
100
AcDbLine
 10
1457.8786999334
 20
-137.242960128
 30
0.0
 11
1415.4433529137
 21
-137.242960128
 31
0.0
  0
LINE
  5
DF
100
AcDbEntity
  8
_Y__________
  6
CONTINUOUS
 62
         7
100
AcDbLine
 10
1457.8786999334
 20
-116.242960128
 30
0.0
 11
1415.4506266393
 21
-116.242960128
 31
0.0
  0
LINE
  5
E0
100
AcDbEntity
  8
_Y__________
  6
CONTINUOUS
 62
         7
100
AcDbLine
 10
1530.8786999334
 20
-162.0700429002
 30
0.0
 11
1530.8786999334
 21
-173.492960128
 31
0.0
  0
LINE
  5
E1
100
AcDbEntity
  8
_Y__________
  6
CONTINUOUS
 62
         7
100
AcDbLine
 10
1529.4220152472
 20
-161.4904874044
 30
0.0
 11
1528.3786999334
 21
-161.7700429002
 31
0.0
  0
LINE
  5
E2
100
AcDbEntity
  8
_Y__________
  6
CONTINUOUS
 62
         7
100
AcDbLine
 10
1530.2786999334
 20
-161.4700429002
 30
0.0
 11
1529.5773066742
 21
-161.4700429002
 31
0.0
  0
ARC
  5
E3
100
AcDbEntity
  8
_Y__________
  6
CONTINUOUS
 62
         7
100
AcDbCircle
 10
1530.2786999334
 20
-162.0700429002
 30
0.0
 40
0.6
100
AcDbArc
 50
0.0
 51
90.0
  0
ARC
  5
E4
100
AcDbEntity
  8
_Y__________
  6
CONTINUOUS
 62
         7
100
AcDbCircle
 10
1529.5773066742
 20
-162.0700429002
 30
0.0
 40
0.6
100
AcDbArc
 50
90.0
 51
105.0
  0
LINE
  5
E5
100
AcDbEntity
  8
_Y__________
  6
CONTINUOUS
 62
         7
100
AcDbLine
 10
1530.2786999334
 20
-92.0158773557
 30
0.0
 11
1529.5773066742
 21
-92.0158773557
 31
0.0
  0
LINE
  5
E6
100
AcDbEntity
  8
_Y__________
  6
CONTINUOUS
 62
         7
100
AcDbLine
 10
1529.4220152472
 20
-91.9954328515
 30
0.0
 11
1528.3786999334
 21
-91.7158773557
 31
0.0
  0
ARC
  5
E7
100
AcDbEntity
  8
_Y__________
  6
CONTINUOUS
 62
         7
100
AcDbCircle
 10
1530.2786999334
 20
-91.4158773557
 30
0.0
 40
0.6
100
AcDbArc
 50
270.0
 51
360.0
  0
ARC
  5
E8
100
AcDbEntity
  8
_Y__________
  6
CONTINUOUS
 62
         7
100
AcDbCircle
 10
1529.5773066742
 20
-91.4158773557
 30
0.0
 40
0.6
100
AcDbArc
 50
255.0
 51
270.0
  0
LINE
  5
E9
100
AcDbEntity
  8
_Y__________
  6
CONTINUOUS
 62
         7
100
AcDbLine
 10
1528.3786999334
 20
-161.7700429002
 30
0.0
 11
1427.0935566531
 21
-146.999374025
 31
0.0
  0
LINE
  5
EA
100
AcDbEntity
  8
_Y__________
  6
CONTINUOUS
 62
         7
100
AcDbLine
 10
1528.3786999334
 20
-91.7158773557
 30
0.0
 11
1427.142205378
 21
-106.4794516642
 31
0.0
  0
LINE
  5
EB
100
AcDbEntity
  8
_Y__________
  6
CONTINUOUS
 62
         7
100
AcDbLine
 10
1540.8786999334
 20
-175.492960128
 30
0.0
 11
1532.8786999334
 21
-175.492960128
 31
0.0
  0
LINE
  5
EC
100
AcDbEntity
  8
_Y__________
  6
CONTINUOUS
 62
         7
100
AcDbLine
 10
1540.8786999334
 20
-77.992960128
 30
0.0
 11
1532.8786999334
 21
-77.992960128
 31
0.0
  0
LINE
  5
ED
100
AcDbEntity
  8
_Y__________
  6
CONTINUOUS
 62
         7
100
AcDbLine
 10
1530.8786999334
 20
-91.4158773557
 30
0.0
 11
1530.8786999334
 21
-79.992960128
 31
0.0
  0
LINE
  5
EE
100
AcDbEntity
  8
_Y__________
  6
CONTINUOUS
 62
         7
100
AcDbLine
 10
1409.8786999334
 20
-113.742960128
 30
0.0
 11
1402.870382844
 21
-113.742960128
 31
0.0
  0
LINE
  5
EF
100
AcDbEntity
  8
_Y__________
  6
CONTINUOUS
 62
         7
100
AcDbLine
 10
1412.3786999334
 20
-137.242960128
 30
0.0
 11
1412.3786999334
 21
-116.242960128
 31
0.0
  0
ARC
  5
F0
100
AcDbEntity
  8
_Y__________
  6
CONTINUOUS
 62
         7
100
AcDbCircle
 10
1402.870382844
 20
-111.742960128
 30
0.0
 40
2.0
100
AcDbArc
 50
180.0
 51
270.0
  0
LINE
  5
F1
100
AcDbEntity
  8
_Y__________
  6
CONTINUOUS
 62
         7
100
AcDbLine
 10
1409.8786999334
 20
-139.742960128
 30
0.0
 11
1409.8786999334
 21
-113.742960128
 31
0.0
  0
ARC
  5
F2
100
AcDbEntity
  8
_Y__________
  6
CONTINUOUS
 62
         7
100
AcDbCircle
 10
1411.0773066742
 20
-114.042960128
 30
0.0
 40
0.6
100
AcDbArc
 50
90.0
 51
105.0
  0
ARC
  5
F3
100
AcDbEntity
  8
_Y__________
  6
CONTINUOUS
 62
         7
100
AcDbCircle
 10
1411.7786999334
 20
-114.042960128
 30
0.0
 40
0.6
100
AcDbArc
 50
0.0
 51
90.0
  0
LINE
  5
F4
100
AcDbEntity
  8
_Y__________
  6
CONTINUOUS
 62
         7
100
AcDbLine
 10
1411.7786999334
 20
-113.442960128
 30
0.0
 11
1411.0773066742
 21
-113.442960128
 31
0.0
  0
LINE
  5
F5
100
AcDbEntity
  8
_Y__________
  6
CONTINUOUS
 62
         7
100
AcDbLine
 10
1410.9220152472
 20
-113.4634046322
 30
0.0
 11
1409.8786999334
 21
-113.742960128
 31
0.0
  0
LINE
  5
F6
100
AcDbEntity
  8
_Y__________
  6
CONTINUOUS
 62
         4
100
AcDbLine
 10
1447.8786999334
 20
-114.742960128
 30
0.0
 11
1413.5973000507
 21
-114.742960128
 31
0.0
  0
LINE
  5
F7
100
AcDbEntity
  8
_Y__________
  6
CONTINUOUS
 62
         4
100
AcDbLine
 10
1447.8786999334
 20
-138.742960128
 30
0.0
 11
1413.5900263252
 21
-138.742960128
 31
0.0
  0
LINE
  5
F8
100
AcDbEntity
  8
_Y__________
  6
CONTINUOUS
 62
         7
100
AcDbLine
 10
1447.8786999334
 20
-138.742960128
 30
0.0
 11
1447.8786999334
 21
-114.742960128
 31
0.0
  0
LINE
  5
F9
100
AcDbEntity
  8
_Y__________
  6
CONTINUOUS
 62
         7
100
AcDbLine
 10
1412.3786999334
 20
-116.242960128
 30
0.0
 11
1412.3786999334
 21
-114.042960128
 31
0.0
  0
LINE
  5
FA
100
AcDbEntity
  8
_Y__________
  6
CONTINUOUS
 62
         7
100
AcDbLine
 10
1412.3786999334
 20
-137.2370730984
 30
0.0
 11
1412.3786999334
 21
-139.4370730984
 31
0.0
  0
LINE
  5
FB
100
AcDbEntity
  8
_Y__________
  6
CONTINUOUS
 62
         7
100
AcDbLine
 10
1410.9220152472
 20
-140.0166285942
 30
0.0
 11
1409.8786999334
 21
-139.7370730984
 31
0.0
  0
LINE
  5
FC
100
AcDbEntity
  8
_Y__________
  6
CONTINUOUS
 62
         7
100
AcDbLine
 10
1411.7786999334
 20
-140.0370730984
 30
0.0
 11
1411.0773066742
 21
-140.0370730984
 31
0.0
  0
ARC
  5
FD
100
AcDbEntity
  8
_Y__________
  6
CONTINUOUS
 62
         7
100
AcDbCircle
 10
1411.7786999334
 20
-139.4370730984
 30
0.0
 40
0.6
100
AcDbArc
 50
270.0
 51
360.0
  0
ARC
  5
FE
100
AcDbEntity
  8
_Y__________
  6
CONTINUOUS
 62
         7
100
AcDbCircle
 10
1411.0773066742
 20
-139.4370730984
 30
0.0
 40
0.6
100
AcDbArc
 50
255.0
 51
270.0
  0
LINE
  5
FF
100
AcDbEntity
  8
_Y__________
  6
CONTINUOUS
 62
         7
100
AcDbLine
 10
1409.8786999334
 20
-139.7370730984
 30
0.0
 11
1402.870382844
 21
-139.7370730984
 31
0.0
  0
LINE
  5
100
100
AcDbEntity
  8
_Y__________
  6
CONTINUOUS
 62
         7
100
AcDbLine
 10
1425.870382844
 20
-107.7400166132
 30
0.0
 11
1417.870382844
 21
-107.7400166132
 31
0.0
  0
LINE
  5
101
100
AcDbEntity
  8
_Y__________
  6
CONTINUOUS
 62
         7
100
AcDbLine
 10
1425.870382844
 20
-145.7400166132
 30
0.0
 11
1417.870382844
 21
-145.7400166132
 31
0.0
  0
LINE
  5
102
100
AcDbEntity
  8
_Y__________
  6
CONTINUOUS
 62
         7
100
AcDbLine
 10
1427.1422089126
 20
-106.476507634
 30
0.0
 11
1425.8786999334
 21
-107.7400166132
 31
0.0
  0
LINE
  5
103
100
AcDbEntity
  8
_Y__________
  6
CONTINUOUS
 62
         7
100
AcDbLine
 10
1427.0935601865
 20
-146.9964310255
 30
0.0
 11
1425.8786999334
 21
-145.7815707724
 31
0.0
  0
LINE
  5
104
100
AcDbEntity
  8
_Y__________
  6
CONTINUOUS
 62
         7
100
AcDbLine
 10
1417.2286999334
 20
-146.3900166132
 30
0.0
 11
1402.8786999334
 21
-146.3900166132
 31
0.0
  0
LINE
  5
105
100
AcDbEntity
  8
_Y__________
  6
CONTINUOUS
 62
         7
100
AcDbLine
 10
1417.2286999334
 20
-107.0900166132
 30
0.0
 11
1402.8786999334
 21
-107.0900166132
 31
0.0
  0
LINE
  5
106
100
AcDbEntity
  8
_Y__________
  6
CONTINUOUS
 62
         7
100
AcDbLine
 10
1400.8786999334
 20
-144.3900166132
 30
0.0
 11
1400.8786999334
 21
-109.0900166132
 31
0.0
  0
LINE
  5
107
100
AcDbEntity
  8
_Y__________
  6
CONTINUOUS
 62
         7
100
AcDbLine
 10
1417.8786999334
 20
-107.7400166132
 30
0.0
 11
1417.2286999334
 21
-107.0900166132
 31
0.0
  0
LINE
  5
108
100
AcDbEntity
  8
_Y__________
  6
CONTINUOUS
 62
         7
100
AcDbLine
 10
1417.8371457742
 20
-145.7815707724
 30
0.0
 11
1417.2286999334
 21
-146.3900166132
 31
0.0
  0
LINE
  5
109
100
AcDbEntity
  8
_Y__________
  6
CONTINUOUS
 62
         7
100
AcDbLine
 10
1412.1561714375
 20
-113.5765748113
 30
0.0
 11
1415.4506266393
 21
-116.242960128
 31
0.0
  0
LINE
  5
10A
100
AcDbEntity
  8
_Y__________
  6
CONTINUOUS
 62
         7
100
AcDbLine
 10
1412.1561714375
 20
-139.9034584151
 30
0.0
 11
1415.4506266393
 21
-137.2370730984
 31
0.0
  0
LINE
  5
10B
100
AcDbEntity
  8
_Y__________
  6
CONTINUOUS
 62
         7
100
AcDbLine
 10
1415.4506266393
 20
-137.2370730984
 30
0.0
 11
1415.4506266393
 21
-116.242960128
 31
0.0
  0
ARC
  5
10C
100
AcDbEntity
  8
_Y__________
  6
CONTINUOUS
 62
         7
100
AcDbCircle
 10
1402.8786999334
 20
-109.0900166132
 30
0.0
 40
2.0
100
AcDbArc
 50
90.0
 51
180.0
  0
ARC
  5
10D
100
AcDbEntity
  8
_Y__________
  6
CONTINUOUS
 62
         7
100
AcDbCircle
 10
1402.8786999334
 20
-144.3900166132
 30
0.0
 40
2.0
100
AcDbArc
 50
180.0
 51
270.0
  0
LINE
  5
10E
100
AcDbEntity
  8
_Y__________
  6
CONTINUOUS
 62
         7
100
AcDbLine
 10
1530.2786999334
 20
77.5253316663
 30
0.0
 11
1529.5773066742
 21
77.5253316663
 31
0.0
  0
LINE
  5
10F
100
AcDbEntity
  8
_Y__________
  6
CONTINUOUS
 62
         7
100
AcDbLine
 10
1529.4220152472
 20
77.5048871621
 30
0.0
 11
1528.3786999334
 21
77.2253316663
 31
0.0
  0
ARC
  5
110
100
AcDbEntity
  8
_Y__________
  6
CONTINUOUS
 62
         7
100
AcDbCircle
 10
1530.2786999334
 20
76.9253316663
 30
0.0
 40
0.6
100
AcDbArc
 50
0.0
 51
90.0
  0
ARC
  5
111
100
AcDbEntity
  8
_Y__________
  6
CONTINUOUS
 62
         7
100
AcDbCircle
 10
1529.5773066742
 20
76.9253316663
 30
0.0
 40
0.6
100
AcDbArc
 50
90.0
 51
105.0
  0
ARC
  5
112
100
AcDbEntity
  8
_Y__________
  6
CONTINUOUS
 62
         7
100
AcDbCircle
 10
1529.5773066742
 20
147.5794972108
 30
0.0
 40
0.6
100
AcDbArc
 50
255.0
 51
270.0
  0
ARC
  5
113
100
AcDbEntity
  8
_Y__________
  6
CONTINUOUS
 62
         7
100
AcDbCircle
 10
1530.2786999334
 20
147.5794972108
 30
0.0
 40
0.6
100
AcDbArc
 50
270.0
 51
360.0
  0
LINE
  5
114
100
AcDbEntity
  8
_Y__________
  6
CONTINUOUS
 62
         7
100
AcDbLine
 10
1529.4220152472
 20
146.999941715
 30
0.0
 11
1528.3786999334
 21
147.2794972108
 31
0.0
  0
LINE
  5
115
100
AcDbEntity
  8
_Y__________
  6
CONTINUOUS
 62
         7
100
AcDbLine
 10
1530.2786999334
 20
146.9794972108
 30
0.0
 11
1529.5773066742
 21
146.9794972108
 31
0.0
  0
LINE
  5
116
100
AcDbEntity
  8
_Y__________
  6
CONTINUOUS
 62
         7
100
AcDbLine
 10
1528.3786999334
 20
77.2253316663
 30
0.0
 11
1528.3786999334
 21
147.2794972108
 31
0.0
  0
LINE
  5
117
100
AcDbEntity
  8
_Y__________
  6
CONTINUOUS
 62
         7
100
AcDbLine
 10
1528.3786999334
 20
77.2253316663
 30
0.0
 11
1427.0935601865
 21
91.9960000262
 31
0.0
  0
LINE
  5
118
100
AcDbEntity
  8
_Y__________
  6
CONTINUOUS
 62
         7
100
AcDbLine
 10
1528.3786999334
 20
147.2794972108
 30
0.0
 11
1427.1422089126
 21
132.5159234178
 31
0.0
  0
LINE
  5
119
100
AcDbEntity
  8
_Y__________
  6
CENTER
 62
         1
100
AcDbLine
 10
1527.6786999334
 20
77.3274144385
 30
0.0
 11
1527.6786999334
 21
147.1774144385
 31
0.0
  0
LINE
  5
11A
100
AcDbEntity
  8
_Y__________
  6
CONTINUOUS
 62
         7
100
AcDbLine
 10
1540.8786999334
 20
63.5024144385
 30
0.0
 11
1532.8786999334
 21
63.5024144385
 31
0.0
  0
LINE
  5
11B
100
AcDbEntity
  8
_Y__________
  6
CONTINUOUS
 62
         7
100
AcDbLine
 10
1540.8786999334
 20
161.0024144385
 30
0.0
 11
1532.8786999334
 21
161.0024144385
 31
0.0
  0
LINE
  5
11C
100
AcDbEntity
  8
_Y__________
  6
CONTINUOUS
 62
         7
100
AcDbLine
 10
1530.8786999334
 20
65.5024144385
 30
0.0
 11
1530.8786999334
 21
159.0024144385
 31
0.0
  0
LINE
  5
11D
100
AcDbEntity
  8
_Y__________
  6
CENTER
 62
         1
100
AcDbLine
 10
1542.8786999334
 20
112.2524144385
 30
0.0
 11
1518.703438435
 21
112.2524144385
 31
0.0
  0
LINE
  5
11E
100
AcDbEntity
  8
_Y__________
  6
CENTER
 62
         1
100
AcDbLine
 10
1506.5915217261
 20
112.2524144385
 30
0.0
 11
1395.7071314241
 21
112.2524144385
 31
0.0
  0
LINE
  5
11F
100
AcDbEntity
  8
_Y__________
  6
CONTINUOUS
 62
         7
100
AcDbLine
 10
1417.8786999334
 20
131.2524144385
 30
0.0
 11
1417.8371457742
 21
93.2108602793
 31
0.0
  0
LINE
  5
120
100
AcDbEntity
  8
_Y__________
  6
CONTINUOUS
 62
         4
100
AcDbLine
 10
1417.2286999334
 20
131.9024144385
 30
0.0
 11
1417.2286999334
 21
92.6024144385
 31
0.0
  0
LINE
  5
121
100
AcDbEntity
  8
_Y__________
  6
CONTINUOUS
 62
         4
100
AcDbLine
 10
1427.1422089126
 20
132.5159234178
 30
0.0
 11
1427.0935601865
 21
91.9960000262
 31
0.0
  0
LINE
  5
122
100
AcDbEntity
  8
_Y__________
  6
CONTINUOUS
 62
         7
100
AcDbLine
 10
1425.8786999334
 20
93.2108602793
 30
0.0
 11
1417.8371457742
 21
93.2108602793
 31
0.0
  0
LINE
  5
123
100
AcDbEntity
  8
_Y__________
  6
CONTINUOUS
 62
         7
100
AcDbLine
 10
1417.8371457742
 20
93.2108602793
 30
0.0
 11
1417.2286999334
 21
92.6024144385
 31
0.0
  0
LINE
  5
124
100
AcDbEntity
  8
_Y__________
  6
CONTINUOUS
 62
         7
100
AcDbLine
 10
1427.0935601865
 20
91.9960000262
 30
0.0
 11
1425.8786999334
 21
93.2108602793
 31
0.0
  0
LINE
  5
125
100
AcDbEntity
  8
_Y__________
  6
CONTINUOUS
 62
         7
100
AcDbLine
 10
1427.1422089126
 20
132.5159234178
 30
0.0
 11
1425.8786999334
 21
131.2524144385
 31
0.0
  0
LINE
  5
126
100
AcDbEntity
  8
_Y__________
  6
CONTINUOUS
 62
         7
100
AcDbLine
 10
1417.8786999334
 20
131.2524144385
 30
0.0
 11
1417.2286999334
 21
131.9024144385
 31
0.0
  0
LINE
  5
127
100
AcDbEntity
  8
_Y__________
  6
CONTINUOUS
 62
         7
100
AcDbLine
 10
1400.8786999334
 20
94.6024144385
 30
0.0
 11
1400.8786999334
 21
129.9024144385
 31
0.0
  0
LINE
  5
128
100
AcDbEntity
  8
_Y__________
  6
CONTINUOUS
 62
         7
100
AcDbLine
 10
1417.2286999334
 20
131.9024144385
 30
0.0
 11
1402.8786999334
 21
131.9024144385
 31
0.0
  0
LINE
  5
129
100
AcDbEntity
  8
_Y__________
  6
CONTINUOUS
 62
         7
100
AcDbLine
 10
1425.8786999334
 20
131.2524144385
 30
0.0
 11
1417.8786999334
 21
131.2524144385
 31
0.0
  0
LINE
  5
12A
100
AcDbEntity
  8
_Y__________
  6
CONTINUOUS
 62
         7
100
AcDbLine
 10
1417.2286999334
 20
92.6024144385
 30
0.0
 11
1402.8786999334
 21
92.6024144385
 31
0.0
  0
LINE
  5
12B
100
AcDbEntity
  8
_Y__________
  6
CONTINUOUS
 62
         7
100
AcDbLine
 10
1425.8786999334
 20
93.2108602793
 30
0.0
 11
1425.8786999334
 21
131.2524144385
 31
0.0
  0
ARC
  5
12C
100
AcDbEntity
  8
_Y__________
  6
CONTINUOUS
 62
         7
100
AcDbCircle
 10
1402.8786999334
 20
94.6024144385
 30
0.0
 40
2.0
100
AcDbArc
 50
180.0
 51
270.0
  0
ARC
  5
12D
100
AcDbEntity
  8
_Y__________
  6
CONTINUOUS
 62
         7
100
AcDbCircle
 10
1402.8786999334
 20
129.9024144385
 30
0.0
 40
2.0
100
AcDbArc
 50
90.0
 51
180.0
  0
DIMENSION
  5
130
100
AcDbEntity
  8
L1_65
  6
CONTINUOUS
 62
         4
100
AcDbDimension
  2
*D2
 10
1572.6786999334
 20
200.8506481867
 30
0.0
 11
1543.7675000816
 21
203.4756481867
 31
0.0
  3
DIMSTYLE1
100
AcDbAlignedDimension
 13
1572.6786999334
 23
133.4524144385
 33
0.0
 14
1527.6786999334
 24
147.1774144385
 34
0.0
100
AcDbRotatedDimension
  0
ARC
  5
13C
100
AcDbEntity
  8
L1_65
  6
CONTINUOUS
 62
         7
100
AcDbCircle
 10
1547.8786999334
 20
139.4524144385
 30
0.0
 40
5.0
100
AcDbArc
 50
180.0
 51
270.0
  0
ARC
  5
13D
100
AcDbEntity
  8
L1_65
  6
CONTINUOUS
 62
         7
100
AcDbCircle
 10
1547.8786999334
 20
85.0524144385
 30
0.0
 40
5.0
100
AcDbArc
 50
90.0
 51
180.0
  0
ARC
  5
13E
100
AcDbEntity
  8
L1_65
  6
CONTINUOUS
 62
         7
100
AcDbCircle
 10
1547.8786999334
 20
-99.5400166132
 30
0.0
 40
5.0
100
AcDbArc
 50
180.0
 51
270.0
  0
ARC
  5
13F
100
AcDbEntity
  8
L1_65
  6
CONTINUOUS
 62
         7
100
AcDbCircle
 10
1547.8786999334
 20
-153.9400166132
 30
0.0
 40
5.0
100
AcDbArc
 50
90.0
 51
180.0
  0
ARC
  5
140
100
AcDbEntity
  8
L1_65
  6
CONTINUOUS
 62
         7
100
AcDbCircle
 10
1402.870382844
 20
-141.7370730984
 30
0.0
 40
2.0
100
AcDbArc
 50
90.0
 51
180.0
  0
INSERT
  5
191
100
AcDbEntity
  8
0
  6
CONTINUOUS
100
AcDbBlockReference
  2
*X3
 10
0.0
 20
0.0
 30
0.0
  0
TEXT
  5
193
100
AcDbEntity
  8
L1_65
  6
CONTINUOUS
 62
         2
100
AcDbText
 10
1830.4058372732
 20
186.4382511173
 30
0.0
 40
4.5
  1
534496
 41
0.98
  7
BOX
100
AcDbText
  0
ENDSEC
  0
SECTION
  2
OBJECTS
  0
DICTIONARY
  5
19
100
AcDbDictionary
  3
ACAD_GROUP
350
1A
  3
ACAD_MLINESTYLE
350
1B
  0
DICTIONARY
  5
1A
102
{ACAD_REACTORS
330
19
102
}
100
AcDbDictionary
  0
DICTIONARY
  5
1B
102
{ACAD_REACTORS
330
19
102
}
100
AcDbDictionary
  3
STANDARD
350
1C
  0
MLINESTYLE
  5
1C
102
{ACAD_REACTORS
330
1B
102
}
100
AcDbMlineStyle
  2
STANDARD
 70
         0
  3

 62
         0
 51
90.0
 52
90.0
 71
         2
 49
0.5
 62
       256
  6
BYLAYER
 49
-0.5
 62
       256
  6
BYLAYER
  0
ENDSEC
  0
EOF
