  0
SECTION
  2
HEADER
  9
$ACADVER
  1
AC1014
  9
$ACADMAINTVER
 70
         0
  9
$DWGCODEPAGE
  3
BIG5
  9
$INSBASE
 10
0.0
 20
0.0
 30
0.0
  9
$EXTMIN
 10
1120.8329212453
 20
-104.0024712327
 30
0.0
  9
$EXTMAX
 10
1839.34109665
 20
258.2470646717
 30
0.0
  9
$LIMMIN
 10
0.0
 20
0.0
  9
$LIMMAX
 10
0.0
 20
0.0
  9
$ORTHOMODE
 70
         0
  9
$REGENMODE
 70
         1
  9
$FILLMODE
 70
         1
  9
$QTEXTMODE
 70
         0
  9
$MIRRTEXT
 70
         1
  9
$DRAGMODE
 70
         2
  9
$LTSCALE
 40
1.0
  9
$OSMODE
 70
         0
  9
$ATTMODE
 70
         1
  9
$TEXTSIZE
 40
1.8
  9
$TRACEWID
 40
0.05
  9
$TEXTSTYLE
  7
STANDARD
  9
$CLAYER
  8
0
  9
$CELTYPE
  6
CONTINUOUS
  9
$CECOLOR
 62
         4
  9
$CELTSCALE
 40
1.0
  9
$DELOBJ
 70
         1
  9
$DISPSILH
 70
         0
  9
$DIMSCALE
 40
1.0
  9
$DIMASZ
 40
0.18
  9
$DIMEXO
 40
0.0625
  9
$DIMDLI
 40
0.38
  9
$DIMRND
 40
0.0
  9
$DIMDLE
 40
0.0
  9
$DIMEXE
 40
0.25
  9
$DIMTP
 40
0.01
  9
$DIMTM
 40
-0.01
  9
$DIMTXT
 40
2.7
  9
$DIMCEN
 40
0.09
  9
$DIMTSZ
 40
0.0
  9
$DIMTOL
 70
         0
  9
$DIMLIM
 70
         0
  9
$DIMTIH
 70
         1
  9
$DIMTOH
 70
         1
  9
$DIMSE1
 70
         0
  9
$DIMSE2
 70
         0
  9
$DIMTAD
 70
         0
  9
$DIMZIN
 70
         0
  9
$DIMBLK
  1

  9
$DIMASO
 70
         1
  9
$DIMSHO
 70
         1
  9
$DIMPOST
  1

  9
$DIMAPOST
  1

  9
$DIMALT
 70
         0
  9
$DIMALTD
 70
         2
  9
$DIMALTF
 40
25.4
  9
$DIMLFAC
 40
1.0
  9
$DIMTOFL
 70
         0
  9
$DIMTVP
 40
0.0
  9
$DIMTIX
 70
         0
  9
$DIMSOXD
 70
         0
  9
$DIMSAH
 70
         0
  9
$DIMBLK1
  1

  9
$DIMBLK2
  1

  9
$DIMSTYLE
  2
STANDARD
  9
$DIMCLRD
 70
         0
  9
$DIMCLRE
 70
         0
  9
$DIMCLRT
 70
         4
  9
$DIMTFAC
 40
1.0
  9
$DIMGAP
 40
0.09
  9
$DIMJUST
 70
         0
  9
$DIMSD1
 70
         0
  9
$DIMSD2
 70
         0
  9
$DIMTOLJ
 70
         1
  9
$DIMTZIN
 70
         0
  9
$DIMALTZ
 70
         0
  9
$DIMALTTZ
 70
         0
  9
$DIMFIT
 70
         3
  9
$DIMUPT
 70
         0
  9
$DIMUNIT
 70
         2
  9
$DIMDEC
 70
         4
  9
$DIMTDEC
 70
         4
  9
$DIMALTU
 70
         2
  9
$DIMALTTD
 70
         2
  9
$DIMTXSTY
  7
STANDARD
  9
$DIMAUNIT
 70
         0
  9
$LUNITS
 70
         2
  9
$LUPREC
 70
        10
  9
$SKETCHINC
 40
0.1
  9
$FILLETRAD
 40
0.0
  9
$AUNITS
 70
         0
  9
$AUPREC
 70
         0
  9
$MENU
  1
acad
  9
$ELEVATION
 40
0.0
  9
$PELEVATION
 40
0.0
  9
$THICKNESS
 40
0.0
  9
$LIMCHECK
 70
         0
  9
$BLIPMODE
 70
         1
  9
$CHAMFERA
 40
0.0
  9
$CHAMFERB
 40
0.0
  9
$CHAMFERC
 40
0.0
  9
$CHAMFERD
 40
0.0
  9
$SKPOLY
 70
         0
  9
$TDCREATE
 40
0.000000000
  9
$TDUPDATE
 40
0.000000000
  9
$TDINDWG
 40
0.0000000000
  9
$TDUSRTIMER
 40
0.0000000000
  9
$USRTIMER
 70
         1
  9
$ANGBASE
 50
0.0
  9
$ANGDIR
 70
         0
  9
$PDMODE
 70
         2
  9
$PDSIZE
 40
0.0
  9
$PLINEWID
 40
0.0
  9
$COORDS
 70
         1
  9
$SPLFRAME
 70
         0
  9
$SPLINETYPE
 70
         6
  9
$SPLINESEGS
 70
         8
  9
$ATTDIA
 70
         0
  9
$ATTREQ
 70
         1
  9
$HANDLING
 70
         1
  9
$HANDSEED
  5
706
  9
$SURFTAB1
 70
         6
  9
$SURFTAB2
 70
         6
  9
$SURFTYPE
 70
         6
  9
$SURFU
 70
         6
  9
$SURFV
 70
         6
  9
$UCSNAME
  2

  9
$UCSORG
 10
0.0
 20
0.0
 30
0.0
  9
$UCSXDIR
 10
1.0
 20
0.0
 30
0.0
  9
$UCSYDIR
 10
0.0
 20
1.0
 30
0.0
  9
$PUCSNAME
  2

  9
$PUCSORG
 10
0.0
 20
0.0
 30
0.0
  9
$PUCSXDIR
 10
1.0
 20
0.0
 30
0.0
  9
$PUCSYDIR
 10
0.0
 20
1.0
 30
0.0
  9
$USERI1
 70
         0
  9
$USERI2
 70
         0
  9
$USERI3
 70
         0
  9
$USERI4
 70
         0
  9
$USERI5
 70
         0
  9
$USERR1
 40
0.0
  9
$USERR2
 40
0.0
  9
$USERR3
 40
0.0
  9
$USERR4
 40
0.0
  9
$USERR5
 40
0.0
  9
$WORLDVIEW
 70
         1
  9
$SHADEDGE
 70
         3
  9
$SHADEDIF
 70
        70
  9
$TILEMODE
 70
         1
  9
$MAXACTVP
 70
        16
  9
$PINSBASE
 10
0.0
 20
0.0
 30
0.0
  9
$PLIMCHECK
 70
         0
  9
$PEXTMIN
 10
1.0000000000E+20
 20
1.0000000000E+20
 30
1.0000000000E+20
  9
$PEXTMAX
 10
-1.0000000000E+20
 20
-1.0000000000E+20
 30
-1.0000000000E+20
  9
$PLIMMIN
 10
0.0
 20
0.0
  9
$PLIMMAX
 10
12.0
 20
9.0
  9
$UNITMODE
 70
         0
  9
$VISRETAIN
 70
         0
  9
$PLINEGEN
 70
         1
  9
$PSLTSCALE
 70
         0
  9
$TREEDEPTH
 70
      3020
  9
$PICKSTYLE
 70
         1
  9
$CMLSTYLE
  2
STANDARD
  9
$CMLJUST
 70
         0
  9
$CMLSCALE
 40
1.0
  9
$PROXYGRAPHICS
 70
         0
  9
$MEASUREMENT
 70
         0
  0
ENDSEC
  0
SECTION
  2
CLASSES
  0
CLASS
  1
LWPOLYLINE
  2
AcDbPolyline
  3
"AutoCAD"
 90
        0
280
         0
281
         1
  0
CLASS
  1
IMAGE
  2
AcDbRasterImage
  3
ISM
 90
      127
280
         0
281
         1
  0
CLASS
  1
OLE2FRAME
  2
AcDbOle2Frame
  3
""
 90
        0
280
         0
281
         1
  0
CLASS
  1
HATCH
  2
AcDbHatch
  3
"ACAD_SEDONA"
 90
        0
280
         0
281
         1
  0
CLASS
  1
DICTIONARYVAR
  2
AcDbDictionaryVar
  3
"AutoCAD"
 90
        0
280
         0
281
         0
  0
CLASS
  1
RASTERVARIABLES
  2
AcDbRasterVariables
  3
ISM
 90
        0
280
         0
281
         0
  0
CLASS
  1
IMAGEDEF
  2
AcDbRasterImageDef
  3
ISM
 90
        0
280
         0
281
         0
  0
CLASS
  1
IMAGEDEF_REACTOR
  2
AcDbRasterImageDefReactor
  3
ISM
 90
        1
280
         0
281
         0
  0
CLASS
  1
IDBUFFER
  2
AcDbIdBuffer
  3
"Acad"
 90
        0
280
         0
281
         0
  0
CLASS
  1
SPATIAL_FILTER
  2
AcDbSpatialFilter
  3
"Acad"
 90
        0
280
         0
281
         0
  0
CLASS
  1
XRECORD
  2
AcDbXrecord
  3
"<Built In>"
 90
        0
280
         0
281
         0
  0
CLASS
  1
SORTENTSTABLE
  2
AcDbSortentsTable
  3
"AutoCAD"
 90
        0
280
         0
281
         0
  0
CLASS
  1
LAYER_INDEX
  2
AcDbLayerIndex
  3
"Acad"
 90
        0
280
         0
281
         0
  0
CLASS
  1
SPATIAL_INDEX
  2
AcDbSpatialIndex
  3
"Acad"
 90
        0
280
         0
281
         0
  0
CLASS
  1
OBJECT_PTR
  2
CAseDLPNTableRecord
  3
"ASE-LPNTableRecord"
 90
        1
280
         0
281
         0
  0
CLASS
  1
LAYOUT
  2
AcDbLayout
  3
"AutoCAD 2000"
 90
        1
280
         0
281
         0
  0
CLASS
  1
PLOTSETTINGS
  2
AcDbPlotSettings
  3
"AutoCAD 2000"
 90
        1
280
         0
281
         0
  0
CLASS
  1
ACDBDICTIONARYWDFLT
  2
AcDbDictionaryWithDefault
  3
"AutoCAD 2000"
 90
        1
280
         0
281
         0
  0
CLASS
  1
ACDBPLACEHOLDER
  2
AcDbPlaceHolder
  3
"AutoCAD 2000"
 90
        1
280
         0
281
         0
  0
CLASS
  1
VBA_PROJECT
  2
AcDbVbaProject
  3
"acadvba"
 90
        1
280
         0
281
         0
  0
CLASS
  1
WIPEOUT
  2
AcDbWipeout
  3
WipeOut|AutoCAD Express Tool|expresstools@autodesk.com
 90
      127
280
         0
281
         1
  0
CLASS
  1
WIPEOUTVARIABLES
  2
AcDbWipeoutVariables
  3
WipeOut|AutoCAD Express Tool|expresstools@autodesk.com
 90
        0
280
         0
281
         0
  0
CLASS
  1
RTEXT
  2
RText
  3
RText|AutoCAD Express Tool|expresstools@autodesk.com
 90
        0
280
         0
281
         1
  0
CLASS
  1
ARCALIGNEDTEXT
  2
AcDbArcAlignedText
  3
ATEXT|AutoCAD Express Tool|expresstools@autodesk.com
 90
        0
280
         0
281
         1
  0
ENDSEC
  0
SECTION
  2
TABLES
  0
TABLE
  2
VPORT
  5
7
100
AcDbSymbolTable
 70
         1
  0
VPORT
  5
15
100
AcDbSymbolTableRecord
100
AcDbViewportTableRecord
  2
*ACTIVE
 70
         0
 10
0.0
 20
0.0
 11
1.0
 21
1.0
 12
1480.0870089476
 22
77.1222967195
 13
0.0
 23
0.0
 14
1.0
 24
1.0
 15
0.0
 25
0.0
 16
0.0
 26
0.0
 36
1.0
 17
0.0
 27
0.0
 37
0.0
 40
362.2495359045
 41
1.9834619625
 42
50.0
 43
0.0
 44
0.0
 50
0.0
 51
0.0
 71
         0
 72
       100
 73
         1
 74
         1
 75
         0
 76
         0
 77
         0
 78
         0
  0
ENDTAB
  0
TABLE
  2
LTYPE
  5
4
100
AcDbSymbolTable
 70
         6
  0
LTYPE
  5
11
100
AcDbSymbolTableRecord
100
AcDbLinetypeTableRecord
  2
BYBLOCK
 70
        64
  3

 72
        65
 73
         0
 40
0.0
  0
LTYPE
  5
12
100
AcDbSymbolTableRecord
100
AcDbLinetypeTableRecord
  2
BYLAYER
 70
        64
  3

 72
        65
 73
         0
 40
0.0
  0
LTYPE
  5
13
100
AcDbSymbolTableRecord
100
AcDbLinetypeTableRecord
  2
CONTINUOUS
 70
        64
  3
Solid line
 72
        65
 73
         0
 40
0.0
  0
LTYPE
  5
1D
100
AcDbSymbolTableRecord
100
AcDbLinetypeTableRecord
  2
DASHED
 70
        64
  3
_ _ _ _ _ _ _ _ _ _ _ _ _ _ _ _
 72
        65
 73
         2
 40
0.2
 49
0.1
 74
         0
 49
-0.1
 74
         0
  0
LTYPE
  5
1E
100
AcDbSymbolTableRecord
100
AcDbLinetypeTableRecord
  2
CENTER
 70
        64
  3
___ _ ___ _ ___ _ ___ _ ___ _ ___ _ ___ _ ___ _
 72
        65
 73
         4
 40
0.95
 49
0.625
 74
         0
 49
-0.125
 74
         0
 49
0.075
 74
         0
 49
-0.125
 74
         0
  0
LTYPE
  5
1F
100
AcDbSymbolTableRecord
100
AcDbLinetypeTableRecord
  2
PHANTOM
 70
        64
  3
______  __  __  ______  __  __  ______  __  __  
 72
        65
 73
         6
 40
1.025
 49
0.625
 74
         0
 49
-0.125
 74
         0
 49
0.075
 74
         0
 49
-0.125
 74
         0
 49
0.075
 74
         0
 49
-0.125
 74
         0
  0
ENDTAB
  0
TABLE
  2
LAYER
  5
2
100
AcDbSymbolTable
 70
         5
  0
LAYER
  5
14
100
AcDbSymbolTableRecord
100
AcDbLayerTableRecord
  2
0
 70
         0
 62
         7
  6
CONTINUOUS
  0
LAYER
  5
21
100
AcDbSymbolTableRecord
100
AcDbLayerTableRecord
  2
_____U
 70
         1
 62
         7
  6
CONTINUOUS
  0
LAYER
  5
22
100
AcDbSymbolTableRecord
100
AcDbLayerTableRecord
  2
_Y__________
 70
         0
 62
         7
  6
CONTINUOUS
  0
LAYER
  5
23
100
AcDbSymbolTableRecord
100
AcDbLayerTableRecord
  2
L1_105
 70
         0
 62
         7
  6
CONTINUOUS
  0
LAYER
  5
B3
100
AcDbSymbolTableRecord
100
AcDbLayerTableRecord
  2
DEFPOINTS
 70
         0
 62
        -7
  6
CONTINUOUS
  0
ENDTAB
  0
TABLE
  2
STYLE
  5
3
100
AcDbSymbolTable
 70
        59
  0
STYLE
  5
17
100
AcDbSymbolTableRecord
100
AcDbTextStyleTableRecord
  2
STANDARD
 70
         0
 40
0.0
 41
1.0
 50
0.0
 71
         0
 42
0.0
  3
txt
  4

  0
STYLE
  5
BC
100
AcDbSymbolTableRecord
100
AcDbTextStyleTableRecord
  2
BOX
 70
         0
 40
1.0
 41
1.0
 50
0.0
 71
         0
 42
0.2
  3
txt.shx
  4

  0
STYLE
  5
D6
100
AcDbSymbolTableRecord
100
AcDbTextStyleTableRecord
  2
BOX
 70
         0
 40
1.0
 41
1.0
 50
0.0
 71
         0
 42
0.2
  3
txt.shx
  4

  0
STYLE
  5
1FE
100
AcDbSymbolTableRecord
100
AcDbTextStyleTableRecord
  2
BOX
 70
         0
 40
1.0
 41
1.0
 50
0.0
 71
         0
 42
0.2
  3
txt.shx
  4

  0
STYLE
  5
213
100
AcDbSymbolTableRecord
100
AcDbTextStyleTableRecord
  2
BOX
 70
         0
 40
1.0
 41
1.0
 50
0.0
 71
         0
 42
0.2
  3
txt.shx
  4

  0
STYLE
  5
221
100
AcDbSymbolTableRecord
100
AcDbTextStyleTableRecord
  2
BOX
 70
         0
 40
1.0
 41
1.0
 50
0.0
 71
         0
 42
0.2
  3
txt.shx
  4

  0
STYLE
  5
24C
100
AcDbSymbolTableRecord
100
AcDbTextStyleTableRecord
  2
BOX
 70
         0
 40
1.0
 41
1.0
 50
0.0
 71
         0
 42
0.2
  3
txt.shx
  4

  0
STYLE
  5
25A
100
AcDbSymbolTableRecord
100
AcDbTextStyleTableRecord
  2
BOX
 70
         0
 40
1.0
 41
1.0
 50
0.0
 71
         0
 42
0.2
  3
txt.shx
  4

  0
STYLE
  5
268
100
AcDbSymbolTableRecord
100
AcDbTextStyleTableRecord
  2
BOX
 70
         0
 40
1.0
 41
1.0
 50
0.0
 71
         0
 42
0.2
  3
txt.shx
  4

  0
STYLE
  5
284
100
AcDbSymbolTableRecord
100
AcDbTextStyleTableRecord
  2
BOX
 70
         0
 40
1.0
 41
1.0
 50
0.0
 71
         0
 42
0.2
  3
txt.shx
  4

  0
STYLE
  5
292
100
AcDbSymbolTableRecord
100
AcDbTextStyleTableRecord
  2
BOX
 70
         0
 40
1.0
 41
1.0
 50
0.0
 71
         0
 42
0.2
  3
txt.shx
  4

  0
STYLE
  5
3C7
100
AcDbSymbolTableRecord
100
AcDbTextStyleTableRecord
  2
BOX
 70
         0
 40
1.0
 41
1.0
 50
0.0
 71
         0
 42
0.2
  3
txt.shx
  4

  0
STYLE
  5
3D5
100
AcDbSymbolTableRecord
100
AcDbTextStyleTableRecord
  2
BOX
 70
         0
 40
1.0
 41
1.0
 50
0.0
 71
         0
 42
0.2
  3
txt.shx
  4

  0
STYLE
  5
3E3
100
AcDbSymbolTableRecord
100
AcDbTextStyleTableRecord
  2
BOX
 70
         0
 40
1.0
 41
1.0
 50
0.0
 71
         0
 42
0.2
  3
txt.shx
  4

  0
STYLE
  5
3F1
100
AcDbSymbolTableRecord
100
AcDbTextStyleTableRecord
  2
BOX
 70
         0
 40
1.0
 41
1.0
 50
0.0
 71
         0
 42
0.2
  3
txt.shx
  4

  0
STYLE
  5
3FF
100
AcDbSymbolTableRecord
100
AcDbTextStyleTableRecord
  2
BOX
 70
         0
 40
1.0
 41
1.0
 50
0.0
 71
         0
 42
0.2
  3
txt.shx
  4

  0
STYLE
  5
423
100
AcDbSymbolTableRecord
100
AcDbTextStyleTableRecord
  2
BOX
 70
         0
 40
1.0
 41
1.0
 50
0.0
 71
         0
 42
0.2
  3
txt.shx
  4

  0
STYLE
  5
431
100
AcDbSymbolTableRecord
100
AcDbTextStyleTableRecord
  2
BOX
 70
         0
 40
1.0
 41
1.0
 50
0.0
 71
         0
 42
0.2
  3
txt.shx
  4

  0
STYLE
  5
441
100
AcDbSymbolTableRecord
100
AcDbTextStyleTableRecord
  2
BOX
 70
         0
 40
1.0
 41
1.0
 50
0.0
 71
         0
 42
0.2
  3
txt.shx
  4

  0
STYLE
  5
451
100
AcDbSymbolTableRecord
100
AcDbTextStyleTableRecord
  2
BOX
 70
         0
 40
1.0
 41
1.0
 50
0.0
 71
         0
 42
0.2
  3
txt.shx
  4

  0
STYLE
  5
47E
100
AcDbSymbolTableRecord
100
AcDbTextStyleTableRecord
  2
BOX
 70
         0
 40
1.0
 41
1.0
 50
0.0
 71
         0
 42
0.2
  3
txt.shx
  4

  0
STYLE
  5
48C
100
AcDbSymbolTableRecord
100
AcDbTextStyleTableRecord
  2
BOX
 70
         0
 40
1.0
 41
1.0
 50
0.0
 71
         0
 42
0.2
  3
txt.shx
  4

  0
STYLE
  5
49A
100
AcDbSymbolTableRecord
100
AcDbTextStyleTableRecord
  2
BOX
 70
         0
 40
1.0
 41
1.0
 50
0.0
 71
         0
 42
0.2
  3
txt.shx
  4

  0
STYLE
  5
4A8
100
AcDbSymbolTableRecord
100
AcDbTextStyleTableRecord
  2
BOX
 70
         0
 40
1.0
 41
1.0
 50
0.0
 71
         0
 42
0.2
  3
txt.shx
  4

  0
STYLE
  5
4CF
100
AcDbSymbolTableRecord
100
AcDbTextStyleTableRecord
  2
BOX
 70
         0
 40
1.0
 41
1.0
 50
0.0
 71
         0
 42
0.2
  3
txt.shx
  4

  0
STYLE
  5
4DD
100
AcDbSymbolTableRecord
100
AcDbTextStyleTableRecord
  2
BOX
 70
         0
 40
1.0
 41
1.0
 50
0.0
 71
         0
 42
0.2
  3
txt.shx
  4

  0
STYLE
  5
4E6
100
AcDbSymbolTableRecord
100
AcDbTextStyleTableRecord
  2
BOX
 70
         0
 40
1.0
 41
1.0
 50
0.0
 71
         0
 42
0.2
  3
txt.shx
  4

  0
STYLE
  5
4F3
100
AcDbSymbolTableRecord
100
AcDbTextStyleTableRecord
  2
BOX
 70
         0
 40
1.0
 41
1.0
 50
0.0
 71
         0
 42
0.2
  3
txt.shx
  4

  0
STYLE
  5
4F6
100
AcDbSymbolTableRecord
100
AcDbTextStyleTableRecord
  2
BOX
 70
         0
 40
1.0
 41
1.0
 50
0.0
 71
         0
 42
0.2
  3
txt.shx
  4

  0
STYLE
  5
503
100
AcDbSymbolTableRecord
100
AcDbTextStyleTableRecord
  2
BOX
 70
         0
 40
1.0
 41
1.0
 50
0.0
 71
         0
 42
0.2
  3
txt.shx
  4

  0
STYLE
  5
514
100
AcDbSymbolTableRecord
100
AcDbTextStyleTableRecord
  2
BOX
 70
         0
 40
1.0
 41
1.0
 50
0.0
 71
         0
 42
0.2
  3
txt.shx
  4

  0
STYLE
  5
523
100
AcDbSymbolTableRecord
100
AcDbTextStyleTableRecord
  2
BOX
 70
         0
 40
1.0
 41
1.0
 50
0.0
 71
         0
 42
0.2
  3
txt.shx
  4

  0
STYLE
  5
531
100
AcDbSymbolTableRecord
100
AcDbTextStyleTableRecord
  2
BOX
 70
         0
 40
1.0
 41
1.0
 50
0.0
 71
         0
 42
0.2
  3
txt.shx
  4

  0
STYLE
  5
545
100
AcDbSymbolTableRecord
100
AcDbTextStyleTableRecord
  2
BOX
 70
         0
 40
1.0
 41
1.0
 50
0.0
 71
         0
 42
0.2
  3
txt.shx
  4

  0
STYLE
  5
553
100
AcDbSymbolTableRecord
100
AcDbTextStyleTableRecord
  2
BOX
 70
         0
 40
1.0
 41
1.0
 50
0.0
 71
         0
 42
0.2
  3
txt.shx
  4

  0
STYLE
  5
561
100
AcDbSymbolTableRecord
100
AcDbTextStyleTableRecord
  2
BOX
 70
         0
 40
1.0
 41
1.0
 50
0.0
 71
         0
 42
0.2
  3
txt.shx
  4

  0
STYLE
  5
573
100
AcDbSymbolTableRecord
100
AcDbTextStyleTableRecord
  2
BOX
 70
         0
 40
1.0
 41
1.0
 50
0.0
 71
         0
 42
0.2
  3
txt.shx
  4

  0
STYLE
  5
585
100
AcDbSymbolTableRecord
100
AcDbTextStyleTableRecord
  2
BOX
 70
         0
 40
1.0
 41
1.0
 50
0.0
 71
         0
 42
0.2
  3
txt.shx
  4

  0
STYLE
  5
592
100
AcDbSymbolTableRecord
100
AcDbTextStyleTableRecord
  2
BOX
 70
         0
 40
1.0
 41
1.0
 50
0.0
 71
         0
 42
0.2
  3
txt.shx
  4

  0
STYLE
  5
59F
100
AcDbSymbolTableRecord
100
AcDbTextStyleTableRecord
  2
BOX
 70
         0
 40
1.0
 41
1.0
 50
0.0
 71
         0
 42
0.2
  3
txt.shx
  4

  0
STYLE
  5
5AF
100
AcDbSymbolTableRecord
100
AcDbTextStyleTableRecord
  2
BOX
 70
         0
 40
1.0
 41
1.0
 50
0.0
 71
         0
 42
0.2
  3
txt.shx
  4

  0
STYLE
  5
5BC
100
AcDbSymbolTableRecord
100
AcDbTextStyleTableRecord
  2
BOX
 70
         0
 40
1.0
 41
1.0
 50
0.0
 71
         0
 42
0.2
  3
txt.shx
  4

  0
STYLE
  5
5CC
100
AcDbSymbolTableRecord
100
AcDbTextStyleTableRecord
  2
BOX
 70
         0
 40
1.0
 41
1.0
 50
0.0
 71
         0
 42
0.2
  3
txt.shx
  4

  0
STYLE
  5
5DC
100
AcDbSymbolTableRecord
100
AcDbTextStyleTableRecord
  2
BOX
 70
         0
 40
1.0
 41
1.0
 50
0.0
 71
         0
 42
0.2
  3
txt.shx
  4

  0
STYLE
  5
5EC
100
AcDbSymbolTableRecord
100
AcDbTextStyleTableRecord
  2
BOX
 70
         0
 40
1.0
 41
1.0
 50
0.0
 71
         0
 42
0.2
  3
txt.shx
  4

  0
STYLE
  5
655
100
AcDbSymbolTableRecord
100
AcDbTextStyleTableRecord
  2
BOX
 70
         0
 40
1.0
 41
1.0
 50
0.0
 71
         0
 42
0.2
  3
txt.shx
  4

  0
STYLE
  5
663
100
AcDbSymbolTableRecord
100
AcDbTextStyleTableRecord
  2
BOX
 70
         0
 40
1.0
 41
1.0
 50
0.0
 71
         0
 42
0.2
  3
txt.shx
  4

  0
STYLE
  5
673
100
AcDbSymbolTableRecord
100
AcDbTextStyleTableRecord
  2
BOX
 70
         0
 40
1.0
 41
1.0
 50
0.0
 71
         0
 42
0.2
  3
txt.shx
  4

  0
STYLE
  5
681
100
AcDbSymbolTableRecord
100
AcDbTextStyleTableRecord
  2
BOX
 70
         0
 40
1.0
 41
1.0
 50
0.0
 71
         0
 42
0.2
  3
txt.shx
  4

  0
STYLE
  5
68F
100
AcDbSymbolTableRecord
100
AcDbTextStyleTableRecord
  2
BOX
 70
         0
 40
1.0
 41
1.0
 50
0.0
 71
         0
 42
0.2
  3
txt.shx
  4

  0
STYLE
  5
69D
100
AcDbSymbolTableRecord
100
AcDbTextStyleTableRecord
  2
BOX
 70
         0
 40
1.0
 41
1.0
 50
0.0
 71
         0
 42
0.2
  3
txt.shx
  4

  0
STYLE
  5
6AB
100
AcDbSymbolTableRecord
100
AcDbTextStyleTableRecord
  2
BOX
 70
         0
 40
1.0
 41
1.0
 50
0.0
 71
         0
 42
0.2
  3
txt.shx
  4

  0
STYLE
  5
6BA
100
AcDbSymbolTableRecord
100
AcDbTextStyleTableRecord
  2
BOX
 70
         0
 40
1.0
 41
1.0
 50
0.0
 71
         0
 42
0.2
  3
txt.shx
  4

  0
STYLE
  5
6C9
100
AcDbSymbolTableRecord
100
AcDbTextStyleTableRecord
  2
BOX
 70
         0
 40
1.0
 41
1.0
 50
0.0
 71
         0
 42
0.2
  3
txt.shx
  4

  0
STYLE
  5
6D7
100
AcDbSymbolTableRecord
100
AcDbTextStyleTableRecord
  2
BOX
 70
         0
 40
1.0
 41
1.0
 50
0.0
 71
         0
 42
0.2
  3
txt.shx
  4

  0
STYLE
  5
6E5
100
AcDbSymbolTableRecord
100
AcDbTextStyleTableRecord
  2
BOX
 70
         0
 40
1.0
 41
1.0
 50
0.0
 71
         0
 42
0.2
  3
txt.shx
  4

  0
STYLE
  5
6F3
100
AcDbSymbolTableRecord
100
AcDbTextStyleTableRecord
  2
BOX
 70
         0
 40
1.0
 41
1.0
 50
0.0
 71
         0
 42
0.2
  3
txt.shx
  4

  0
STYLE
  5
701
100
AcDbSymbolTableRecord
100
AcDbTextStyleTableRecord
  2
BOX
 70
         0
 40
1.0
 41
1.0
 50
0.0
 71
         0
 42
0.2
  3
txt.shx
  4

  0
STYLE
  5
704
100
AcDbSymbolTableRecord
100
AcDbTextStyleTableRecord
  2
BOX
 70
         0
 40
1.0
 41
1.0
 50
0.0
 71
         0
 42
0.2
  3
txt.shx
  4

  0
ENDTAB
  0
TABLE
  2
VIEW
  5
5
100
AcDbSymbolTable
 70
         0
  0
ENDTAB
  0
TABLE
  2
UCS
  5
6
100
AcDbSymbolTable
 70
         1
  0
UCS
  5
20
100
AcDbSymbolTableRecord
100
AcDbUCSTableRecord
  2
CK_VIEW_1
 70
         0
 10
0.0
 20
0.0
 30
1.0
 11
1.0
 21
0.0
 31
0.0
 12
0.0
 22
1.0
 32
0.0
  0
ENDTAB
  0
TABLE
  2
APPID
  5
8
100
AcDbSymbolTable
 70
         1
  0
APPID
  5
16
100
AcDbSymbolTableRecord
100
AcDbRegAppTableRecord
  2
ACAD
 70
         0
  0
ENDTAB
  0
TABLE
  2
DIMSTYLE
  5
9
100
AcDbSymbolTable
 70
         2
  0
DIMSTYLE
105
18
100
AcDbSymbolTableRecord
100
AcDbDimStyleTableRecord
  2
STANDARD
 70
         0
  3

  4

  5

  6

  7

 40
1.0
 41
0.18
 42
0.0625
 43
0.38
 44
0.18
 45
0.0
 46
0.0
 47
0.0
 48
0.0
 71
         0
 72
         0
 73
         1
 74
         1
 75
         0
 76
         0
 77
         0
 78
         0
140
0.18
141
0.09
142
0.0
143
25.4
144
1.0
145
0.0
146
1.0
147
0.09
170
         0
171
         2
172
         0
173
         0
174
         0
175
         0
176
         0
177
         0
178
         0
270
         2
271
         4
272
         4
273
         2
274
         2
275
         0
280
         0
281
         0
282
         0
283
         1
284
         0
285
         0
286
         0
287
         0
288
         0
340
17
  0
DIMSTYLE
105
AF
100
AcDbSymbolTableRecord
100
AcDbDimStyleTableRecord
  2
DIMSTYLE1
 70
         0
  3

  4

  5

  6

  7

 40
1.0
 41
2.7
 42
0.0625
 43
0.38
 44
2.7
 45
0.0
 46
0.0
 47
0.0
 48
0.0
 71
         0
 72
         0
 73
         1
 74
         1
 75
         0
 76
         0
 77
         0
 78
         0
140
2.7
141
0.09
142
0.0
143
25.4
144
1.0
145
0.0
146
1.0
147
0.09
170
         0
171
         2
172
         0
173
         0
174
         0
175
         0
176
         0
177
         0
178
         0
270
         2
271
         4
272
         4
273
         2
274
         2
275
         0
280
         0
281
         0
282
         0
283
         1
284
         0
285
         0
286
         0
287
         0
288
         0
340
17
  0
ENDTAB
  0
TABLE
  2
BLOCK_RECORD
  5
1
100
AcDbSymbolTable
 70
        56
  0
BLOCK_RECORD
  5
A
100
AcDbSymbolTableRecord
100
AcDbBlockTableRecord
  2
*MODEL_SPACE
  0
BLOCK_RECORD
  5
B
100
AcDbSymbolTableRecord
100
AcDbBlockTableRecord
  2
*PAPER_SPACE
  0
BLOCK_RECORD
  5
24
100
AcDbSymbolTableRecord
100
AcDbBlockTableRecord
  2
*X0
  0
BLOCK_RECORD
  5
B0
100
AcDbSymbolTableRecord
100
AcDbBlockTableRecord
  2
*D1
  0
BLOCK_RECORD
  5
CB
100
AcDbSymbolTableRecord
100
AcDbBlockTableRecord
  2
*D2
  0
BLOCK_RECORD
  5
1F3
100
AcDbSymbolTableRecord
100
AcDbBlockTableRecord
  2
*D3
  0
BLOCK_RECORD
  5
208
100
AcDbSymbolTableRecord
100
AcDbBlockTableRecord
  2
*D4
  0
BLOCK_RECORD
  5
216
100
AcDbSymbolTableRecord
100
AcDbBlockTableRecord
  2
*D5
  0
BLOCK_RECORD
  5
241
100
AcDbSymbolTableRecord
100
AcDbBlockTableRecord
  2
*D6
  0
BLOCK_RECORD
  5
24F
100
AcDbSymbolTableRecord
100
AcDbBlockTableRecord
  2
*D7
  0
BLOCK_RECORD
  5
25D
100
AcDbSymbolTableRecord
100
AcDbBlockTableRecord
  2
*D8
  0
BLOCK_RECORD
  5
279
100
AcDbSymbolTableRecord
100
AcDbBlockTableRecord
  2
*D9
  0
BLOCK_RECORD
  5
287
100
AcDbSymbolTableRecord
100
AcDbBlockTableRecord
  2
*D10
  0
BLOCK_RECORD
  5
3BC
100
AcDbSymbolTableRecord
100
AcDbBlockTableRecord
  2
*D11
  0
BLOCK_RECORD
  5
3CA
100
AcDbSymbolTableRecord
100
AcDbBlockTableRecord
  2
*D12
  0
BLOCK_RECORD
  5
3D8
100
AcDbSymbolTableRecord
100
AcDbBlockTableRecord
  2
*D13
  0
BLOCK_RECORD
  5
3E6
100
AcDbSymbolTableRecord
100
AcDbBlockTableRecord
  2
*D14
  0
BLOCK_RECORD
  5
3F4
100
AcDbSymbolTableRecord
100
AcDbBlockTableRecord
  2
*D15
  0
BLOCK_RECORD
  5
418
100
AcDbSymbolTableRecord
100
AcDbBlockTableRecord
  2
*D16
  0
BLOCK_RECORD
  5
426
100
AcDbSymbolTableRecord
100
AcDbBlockTableRecord
  2
*D17
  0
BLOCK_RECORD
  5
434
100
AcDbSymbolTableRecord
100
AcDbBlockTableRecord
  2
*D18
  0
BLOCK_RECORD
  5
444
100
AcDbSymbolTableRecord
100
AcDbBlockTableRecord
  2
*D19
  0
BLOCK_RECORD
  5
473
100
AcDbSymbolTableRecord
100
AcDbBlockTableRecord
  2
*D20
  0
BLOCK_RECORD
  5
481
100
AcDbSymbolTableRecord
100
AcDbBlockTableRecord
  2
*D21
  0
BLOCK_RECORD
  5
48F
100
AcDbSymbolTableRecord
100
AcDbBlockTableRecord
  2
*D22
  0
BLOCK_RECORD
  5
49D
100
AcDbSymbolTableRecord
100
AcDbBlockTableRecord
  2
*D23
  0
BLOCK_RECORD
  5
4C4
100
AcDbSymbolTableRecord
100
AcDbBlockTableRecord
  2
*D24
  0
BLOCK_RECORD
  5
4D2
100
AcDbSymbolTableRecord
100
AcDbBlockTableRecord
  2
*D25
  0
BLOCK_RECORD
  5
4E8
100
AcDbSymbolTableRecord
100
AcDbBlockTableRecord
  2
*D26
  0
BLOCK_RECORD
  5
4F8
100
AcDbSymbolTableRecord
100
AcDbBlockTableRecord
  2
*D27
  0
BLOCK_RECORD
  5
50A
100
AcDbSymbolTableRecord
100
AcDbBlockTableRecord
  2
*D28
  0
BLOCK_RECORD
  5
518
100
AcDbSymbolTableRecord
100
AcDbBlockTableRecord
  2
*D29
  0
BLOCK_RECORD
  5
526
100
AcDbSymbolTableRecord
100
AcDbBlockTableRecord
  2
*D30
  0
BLOCK_RECORD
  5
53A
100
AcDbSymbolTableRecord
100
AcDbBlockTableRecord
  2
*D31
  0
BLOCK_RECORD
  5
548
100
AcDbSymbolTableRecord
100
AcDbBlockTableRecord
  2
*D32
  0
BLOCK_RECORD
  5
556
100
AcDbSymbolTableRecord
100
AcDbBlockTableRecord
  2
*D33
  0
BLOCK_RECORD
  5
568
100
AcDbSymbolTableRecord
100
AcDbBlockTableRecord
  2
*D34
  0
BLOCK_RECORD
  5
57B
100
AcDbSymbolTableRecord
100
AcDbBlockTableRecord
  2
*D35
  0
BLOCK_RECORD
  5
588
100
AcDbSymbolTableRecord
100
AcDbBlockTableRecord
  2
*D36
  0
BLOCK_RECORD
  5
595
100
AcDbSymbolTableRecord
100
AcDbBlockTableRecord
  2
*D37
  0
BLOCK_RECORD
  5
5A2
100
AcDbSymbolTableRecord
100
AcDbBlockTableRecord
  2
*D38
  0
BLOCK_RECORD
  5
5B2
100
AcDbSymbolTableRecord
100
AcDbBlockTableRecord
  2
*D39
  0
BLOCK_RECORD
  5
5BF
100
AcDbSymbolTableRecord
100
AcDbBlockTableRecord
  2
*D40
  0
BLOCK_RECORD
  5
5CF
100
AcDbSymbolTableRecord
100
AcDbBlockTableRecord
  2
*D41
  0
BLOCK_RECORD
  5
5DF
100
AcDbSymbolTableRecord
100
AcDbBlockTableRecord
  2
*D42
  0
BLOCK_RECORD
  5
64A
100
AcDbSymbolTableRecord
100
AcDbBlockTableRecord
  2
*D43
  0
BLOCK_RECORD
  5
658
100
AcDbSymbolTableRecord
100
AcDbBlockTableRecord
  2
*D44
  0
BLOCK_RECORD
  5
666
100
AcDbSymbolTableRecord
100
AcDbBlockTableRecord
  2
*D45
  0
BLOCK_RECORD
  5
676
100
AcDbSymbolTableRecord
100
AcDbBlockTableRecord
  2
*D46
  0
BLOCK_RECORD
  5
684
100
AcDbSymbolTableRecord
100
AcDbBlockTableRecord
  2
*D47
  0
BLOCK_RECORD
  5
692
100
AcDbSymbolTableRecord
100
AcDbBlockTableRecord
  2
*D48
  0
BLOCK_RECORD
  5
6A0
100
AcDbSymbolTableRecord
100
AcDbBlockTableRecord
  2
*D49
  0
BLOCK_RECORD
  5
6AE
100
AcDbSymbolTableRecord
100
AcDbBlockTableRecord
  2
*D50
  0
BLOCK_RECORD
  5
6BE
100
AcDbSymbolTableRecord
100
AcDbBlockTableRecord
  2
*D51
  0
BLOCK_RECORD
  5
6CC
100
AcDbSymbolTableRecord
100
AcDbBlockTableRecord
  2
*D52
  0
BLOCK_RECORD
  5
6DA
100
AcDbSymbolTableRecord
100
AcDbBlockTableRecord
  2
*D53
  0
BLOCK_RECORD
  5
6E8
100
AcDbSymbolTableRecord
100
AcDbBlockTableRecord
  2
*D54
  0
BLOCK_RECORD
  5
6F6
100
AcDbSymbolTableRecord
100
AcDbBlockTableRecord
  2
*D55
  0
ENDTAB
  0
ENDSEC
  0
SECTION
  2
BLOCKS
  0
BLOCK
  5
D
100
AcDbEntity
  8
0
100
AcDbBlockBegin
  2
*MODEL_SPACE
 70
         0
 10
0.0
 20
0.0
 30
0.0
  3
*MODEL_SPACE
  1

  0
ENDBLK
  5
E
100
AcDbEntity
  8
0
100
AcDbBlockEnd
  0
BLOCK
  5
F
100
AcDbEntity
 67
         1
  8
0
100
AcDbBlockBegin
  2
*PAPER_SPACE
 70
         0
 10
0.0
 20
0.0
 30
0.0
  3
*PAPER_SPACE
  1

  0
ENDBLK
  5
10
100
AcDbEntity
 67
         1
  8
0
100
AcDbBlockEnd
  0
BLOCK
  5
25
100
AcDbEntity
  8
0
100
AcDbBlockBegin
  2
*X0
 70
        65
 10
0.0
 20
0.0
 30
0.0
  3
*X0
  1

  0
LINE
  5
26
100
AcDbEntity
  8
L1_105
  6
CONTINUOUS
 62
         4
100
AcDbLine
 10
1414.7762284527
 20
-33.4433347407
 30
0.0
 11
1418.2301395013
 21
-29.9894236921
 31
0.0
  0
LINE
  5
27
100
AcDbEntity
  8
L1_105
  6
CONTINUOUS
 62
         4
100
AcDbLine
 10
1410.5335877656
 20
-33.4433347407
 30
0.0
 11
1414.0335877656
 21
-29.9433347407
 31
0.0
  0
LINE
  5
28
100
AcDbEntity
  8
L1_105
  6
CONTINUOUS
 62
         4
100
AcDbLine
 10
1406.2909470785
 20
-33.4433347407
 30
0.0
 11
1409.7909470785
 21
-29.9433347407
 31
0.0
  0
LINE
  5
29
100
AcDbEntity
  8
L1_105
  6
CONTINUOUS
 62
         4
100
AcDbLine
 10
1402.0483063913
 20
-33.4433347407
 30
0.0
 11
1405.5483063913
 21
-29.9433347407
 31
0.0
  0
LINE
  5
2A
100
AcDbEntity
  8
L1_105
  6
CONTINUOUS
 62
         4
100
AcDbLine
 10
1397.8056657042
 20
-33.4433347407
 30
0.0
 11
1401.3056657042
 21
-29.9433347407
 31
0.0
  0
LINE
  5
2B
100
AcDbEntity
  8
L1_105
  6
CONTINUOUS
 62
         4
100
AcDbLine
 10
1393.5630250171
 20
-33.4433347407
 30
0.0
 11
1396.5630250171
 21
-30.4433347407
 31
0.0
  0
LINE
  5
2C
100
AcDbEntity
  8
L1_105
  6
CONTINUOUS
 62
         4
100
AcDbLine
 10
1389.32038433
 20
-33.4433347407
 30
0.0
 11
1393.8142183571
 21
-28.9495007136
 31
0.0
  0
LINE
  5
2D
100
AcDbEntity
  8
L1_105
  6
CONTINUOUS
 62
         4
100
AcDbLine
 10
1385.0777436429
 20
-33.4433347407
 30
0.0
 11
1389.5777436429
 21
-28.9433347407
 31
0.0
  0
LINE
  5
2E
100
AcDbEntity
  8
L1_105
  6
CONTINUOUS
 62
         4
100
AcDbLine
 10
1380.8351029557
 20
-33.4433347407
 30
0.0
 11
1385.3351029557
 21
-28.9433347407
 31
0.0
  0
LINE
  5
2F
100
AcDbEntity
  8
L1_105
  6
CONTINUOUS
 62
         4
100
AcDbLine
 10
1418.3956743279
 20
4.1172366315
 30
0.0
 11
1419.4696225684
 21
5.191184872
 31
0.0
  0
LINE
  5
30
100
AcDbEntity
  8
L1_105
  6
CONTINUOUS
 62
         4
100
AcDbLine
 10
1376.5924622686
 20
-33.4433347407
 30
0.0
 11
1381.0924622686
 21
-28.9433347407
 31
0.0
  0
LINE
  5
31
100
AcDbEntity
  8
L1_105
  6
CONTINUOUS
 62
         4
100
AcDbLine
 10
1414.0924622686
 20
4.0566652593
 30
0.0
 11
1416.7801607898
 21
6.7443637805
 31
0.0
  0
LINE
  5
32
100
AcDbEntity
  8
L1_105
  6
CONTINUOUS
 62
         4
100
AcDbLine
 10
1372.3498215815
 20
-33.4433347407
 30
0.0
 11
1376.8498215815
 21
-28.9433347407
 31
0.0
  0
LINE
  5
33
100
AcDbEntity
  8
L1_105
  6
CONTINUOUS
 62
         4
100
AcDbLine
 10
1409.8498215815
 20
4.0566652593
 30
0.0
 11
1413.3498215815
 21
7.5566652593
 31
0.0
  0
LINE
  5
34
100
AcDbEntity
  8
L1_105
  6
CONTINUOUS
 62
         4
100
AcDbLine
 10
1366.1071808944
 20
-35.4433347407
 30
0.0
 11
1366.7033403763
 21
-34.8471752588
 31
0.0
  0
LINE
  5
35
100
AcDbEntity
  8
L1_105
  6
CONTINUOUS
 62
         4
100
AcDbLine
 10
1368.3071808944
 20
-33.2433347407
 30
0.0
 11
1372.6071808944
 21
-28.9433347407
 31
0.0
  0
LINE
  5
36
100
AcDbEntity
  8
L1_105
  6
CONTINUOUS
 62
         4
100
AcDbLine
 10
1405.6071808944
 20
4.0566652593
 30
0.0
 11
1409.1071808944
 21
7.5566652593
 31
0.0
  0
LINE
  5
37
100
AcDbEntity
  8
L1_105
  6
CONTINUOUS
 62
         4
100
AcDbLine
 10
1361.8645402073
 20
-35.4433347407
 30
0.0
 11
1368.3645402073
 21
-28.9433347407
 31
0.0
  0
LINE
  5
38
100
AcDbEntity
  8
L1_105
  6
CONTINUOUS
 62
         4
100
AcDbLine
 10
1401.3645402073
 20
4.0566652593
 30
0.0
 11
1404.8645402073
 21
7.5566652593
 31
0.0
  0
LINE
  5
39
100
AcDbEntity
  8
L1_105
  6
CONTINUOUS
 62
         4
100
AcDbLine
 10
1357.6218995202
 20
-35.4433347407
 30
0.0
 11
1364.1218995202
 21
-28.9433347407
 31
0.0
  0
LINE
  5
3A
100
AcDbEntity
  8
L1_105
  6
CONTINUOUS
 62
         4
100
AcDbLine
 10
1397.6218995202
 20
4.5566652593
 30
0.0
 11
1399.7033403763
 21
6.6381061154
 31
0.0
  0
LINE
  5
3B
100
AcDbEntity
  8
L1_105
  6
CONTINUOUS
 62
         4
100
AcDbLine
 10
1353.379258833
 20
-35.4433347407
 30
0.0
 11
1355.2033403763
 21
-33.6192531975
 31
0.0
  0
LINE
  5
3C
100
AcDbEntity
  8
L1_105
  6
CONTINUOUS
 62
         4
100
AcDbLine
 10
1357.2033403763
 20
-31.6192531975
 30
0.0
 11
1359.879258833
 21
-28.9433347407
 31
0.0
  0
LINE
  5
3D
100
AcDbEntity
  8
L1_105
  6
CONTINUOUS
 62
         4
100
AcDbLine
 10
1395.1082741959
 20
6.2856806222
 30
0.0
 11
1396.379258833
 21
7.5566652593
 31
0.0
  0
LINE
  5
3E
100
AcDbEntity
  8
L1_105
  6
CONTINUOUS
 62
         4
100
AcDbLine
 10
1349.1366181459
 20
-35.4433347407
 30
0.0
 11
1355.1366181459
 21
-29.4433347407
 31
0.0
  0
LINE
  5
3F
100
AcDbEntity
  8
L1_105
  6
CONTINUOUS
 62
         4
100
AcDbLine
 10
1344.8939774588
 20
-35.4433347407
 30
0.0
 11
1353.7033403763
 21
-26.6339718232
 31
0.0
  0
LINE
  5
40
100
AcDbEntity
  8
L1_105
  6
CONTINUOUS
 62
         4
100
AcDbLine
 10
1340.6513367717
 20
-35.4433347407
 30
0.0
 11
1353.7033403763
 21
-22.3913311361
 31
0.0
  0
LINE
  5
41
100
AcDbEntity
  8
L1_105
  6
CONTINUOUS
 62
         4
100
AcDbLine
 10
1336.4086960846
 20
-35.4433347407
 30
0.0
 11
1353.7033403763
 21
-18.148690449
 31
0.0
  0
LINE
  5
42
100
AcDbEntity
  8
L1_105
  6
CONTINUOUS
 62
         4
100
AcDbLine
 10
1333.7476053363
 20
-33.8617848018
 30
0.0
 11
1352.1660553974
 21
-15.4433347407
 31
0.0
  0
LINE
  5
43
100
AcDbEntity
  8
L1_105
  6
CONTINUOUS
 62
         4
100
AcDbLine
 10
1333.7033403763
 20
-29.6634090747
 30
0.0
 11
1347.9234147103
 21
-15.4433347407
 31
0.0
  0
LINE
  5
44
100
AcDbEntity
  8
L1_105
  6
CONTINUOUS
 62
         4
100
AcDbLine
 10
1352.9234147103
 20
-10.4433347407
 30
0.0
 11
1353.7033403763
 21
-9.6634090747
 31
0.0
  0
LINE
  5
45
100
AcDbEntity
  8
L1_105
  6
CONTINUOUS
 62
         4
100
AcDbLine
 10
1366.4234147103
 20
3.0566652593
 30
0.0
 11
1370.1083403763
 21
6.7415909253
 31
0.0
  0
LINE
  5
46
100
AcDbEntity
  8
L1_105
  6
CONTINUOUS
 62
         4
100
AcDbLine
 10
1330.3057740232
 20
-28.8183347407
 30
0.0
 11
1343.6807740232
 21
-15.4433347407
 31
0.0
  0
LINE
  5
47
100
AcDbEntity
  8
L1_105
  6
CONTINUOUS
 62
         4
100
AcDbLine
 10
1348.6807740232
 20
-10.4433347407
 30
0.0
 11
1353.7033403763
 21
-5.4207683876
 31
0.0
  0
LINE
  5
48
100
AcDbEntity
  8
L1_105
  6
CONTINUOUS
 62
         4
100
AcDbLine
 10
1362.1807740232
 20
3.0566652593
 30
0.0
 11
1366.6659333647
 21
7.5418246008
 31
0.0
  0
LINE
  5
49
100
AcDbEntity
  8
L1_105
  6
CONTINUOUS
 62
         4
100
AcDbLine
 10
1326.0631333361
 20
-28.8183347407
 30
0.0
 11
1339.4381333361
 21
-15.4433347407
 31
0.0
  0
LINE
  5
4A
100
AcDbEntity
  8
L1_105
  6
CONTINUOUS
 62
         4
100
AcDbLine
 10
1344.4381333361
 20
-10.4433347407
 30
0.0
 11
1353.7033403763
 21
-1.1781277005
 31
0.0
  0
LINE
  5
4B
100
AcDbEntity
  8
L1_105
  6
CONTINUOUS
 62
         4
100
AcDbLine
 10
1358.4381333361
 20
3.5566652593
 30
0.0
 11
1364.4381333361
 21
9.5566652593
 31
0.0
  0
LINE
  5
4C
100
AcDbEntity
  8
L1_105
  6
CONTINUOUS
 62
         4
100
AcDbLine
 10
1321.820492649
 20
-28.8183347407
 30
0.0
 11
1337.4185390644
 21
-13.2202883252
 31
0.0
  0
LINE
  5
4D
100
AcDbEntity
  8
L1_105
  6
CONTINUOUS
 62
         4
100
AcDbLine
 10
1340.195492649
 20
-10.4433347407
 30
0.0
 11
1353.7033403763
 21
3.0645129866
 31
0.0
  0
LINE
  5
4E
100
AcDbEntity
  8
L1_105
  6
CONTINUOUS
 62
         4
100
AcDbLine
 10
1354.195492649
 20
3.5566652593
 30
0.0
 11
1360.195492649
 21
9.5566652593
 31
0.0
  0
LINE
  5
4F
100
AcDbEntity
  8
L1_105
  6
CONTINUOUS
 62
         4
100
AcDbLine
 10
1317.5778519618
 20
-28.8183347407
 30
0.0
 11
1355.9528519618
 21
9.5566652593
 31
0.0
  0
LINE
  5
50
100
AcDbEntity
  8
L1_105
  6
CONTINUOUS
 62
         4
100
AcDbLine
 10
1313.3352112747
 20
-28.8183347407
 30
0.0
 11
1351.7102112747
 21
9.5566652593
 31
0.0
  0
LINE
  5
51
100
AcDbEntity
  8
L1_105
  6
CONTINUOUS
 62
         4
100
AcDbLine
 10
1309.0925705876
 20
-28.8183347407
 30
0.0
 11
1347.4675705876
 21
9.5566652593
 31
0.0
  0
LINE
  5
52
100
AcDbEntity
  8
L1_105
  6
CONTINUOUS
 62
         4
100
AcDbLine
 10
1304.8499299005
 20
-28.8183347407
 30
0.0
 11
1343.2249299005
 21
9.5566652593
 31
0.0
  0
LINE
  5
53
100
AcDbEntity
  8
L1_105
  6
CONTINUOUS
 62
         4
100
AcDbLine
 10
1300.6072892134
 20
-28.8183347407
 30
0.0
 11
1332.3247559961
 21
2.899132042
 31
0.0
  0
LINE
  5
54
100
AcDbEntity
  8
L1_105
  6
CONTINUOUS
 62
         4
100
AcDbLine
 10
1333.7033403763
 20
4.2777164222
 30
0.0
 11
1338.9822892134
 21
9.5566652593
 31
0.0
  0
LINE
  5
55
100
AcDbEntity
  8
L1_105
  6
CONTINUOUS
 62
         4
100
AcDbLine
 10
1296.3646485262
 20
-28.8183347407
 30
0.0
 11
1328.1146485262
 21
2.9316652593
 31
0.0
  0
LINE
  5
56
100
AcDbEntity
  8
L1_105
  6
CONTINUOUS
 62
         4
100
AcDbLine
 10
1292.1220078391
 20
-28.8183347407
 30
0.0
 11
1323.8720078391
 21
2.9316652593
 31
0.0
  0
LINE
  5
57
100
AcDbEntity
  8
L1_105
  6
CONTINUOUS
 62
         4
100
AcDbLine
 10
1287.879367152
 20
-28.8183347407
 30
0.0
 11
1319.629367152
 21
2.9316652593
 31
0.0
  0
LINE
  5
58
100
AcDbEntity
  8
L1_105
  6
CONTINUOUS
 62
         4
100
AcDbLine
 10
1283.6367264649
 20
-28.8183347407
 30
0.0
 11
1315.3867264649
 21
2.9316652593
 31
0.0
  0
LINE
  5
59
100
AcDbEntity
  8
L1_105
  6
CONTINUOUS
 62
         4
100
AcDbLine
 10
1279.3940857778
 20
-28.8183347407
 30
0.0
 11
1311.1440857778
 21
2.9316652593
 31
0.0
  0
LINE
  5
5A
100
AcDbEntity
  8
L1_105
  6
CONTINUOUS
 62
         4
100
AcDbLine
 10
1275.1514450906
 20
-28.8183347407
 30
0.0
 11
1306.9014450906
 21
2.9316652593
 31
0.0
  0
LINE
  5
5B
100
AcDbEntity
  8
L1_105
  6
CONTINUOUS
 62
         4
100
AcDbLine
 10
1270.9088044035
 20
-28.8183347407
 30
0.0
 11
1302.6588044035
 21
2.9316652593
 31
0.0
  0
LINE
  5
5C
100
AcDbEntity
  8
L1_105
  6
CONTINUOUS
 62
         4
100
AcDbLine
 10
1266.6661637164
 20
-28.8183347407
 30
0.0
 11
1298.4161637164
 21
2.9316652593
 31
0.0
  0
LINE
  5
5D
100
AcDbEntity
  8
L1_105
  6
CONTINUOUS
 62
         4
100
AcDbLine
 10
1262.4235230293
 20
-28.8183347407
 30
0.0
 11
1294.1735230293
 21
2.9316652593
 31
0.0
  0
LINE
  5
5E
100
AcDbEntity
  8
L1_105
  6
CONTINUOUS
 62
         4
100
AcDbLine
 10
1258.1808823422
 20
-28.8183347407
 30
0.0
 11
1289.9308823422
 21
2.9316652593
 31
0.0
  0
LINE
  5
5F
100
AcDbEntity
  8
L1_105
  6
CONTINUOUS
 62
         4
100
AcDbLine
 10
1253.938241655
 20
-28.8183347407
 30
0.0
 11
1285.688241655
 21
2.9316652593
 31
0.0
  0
LINE
  5
60
100
AcDbEntity
  8
L1_105
  6
CONTINUOUS
 62
         4
100
AcDbLine
 10
1249.6956009679
 20
-28.8183347407
 30
0.0
 11
1281.4456009679
 21
2.9316652593
 31
0.0
  0
LINE
  5
61
100
AcDbEntity
  8
L1_105
  6
CONTINUOUS
 62
         4
100
AcDbLine
 10
1245.4529602808
 20
-28.8183347407
 30
0.0
 11
1277.2029602808
 21
2.9316652593
 31
0.0
  0
LINE
  5
62
100
AcDbEntity
  8
L1_105
  6
CONTINUOUS
 62
         4
100
AcDbLine
 10
1241.2103195937
 20
-28.8183347407
 30
0.0
 11
1272.9603195937
 21
2.9316652593
 31
0.0
  0
LINE
  5
63
100
AcDbEntity
  8
L1_105
  6
CONTINUOUS
 62
         4
100
AcDbLine
 10
1236.9676789066
 20
-28.8183347407
 30
0.0
 11
1268.7176789066
 21
2.9316652593
 31
0.0
  0
LINE
  5
64
100
AcDbEntity
  8
L1_105
  6
CONTINUOUS
 62
         4
100
AcDbLine
 10
1233.1641892979
 20
-28.3791836623
 30
0.0
 11
1264.4750382195
 21
2.9316652593
 31
0.0
  0
LINE
  5
65
100
AcDbEntity
  8
L1_105
  6
CONTINUOUS
 62
         4
100
AcDbLine
 10
1232.1033403763
 20
-25.1973918968
 30
0.0
 11
1260.2323975323
 21
2.9316652593
 31
0.0
  0
LINE
  5
66
100
AcDbEntity
  8
L1_105
  6
CONTINUOUS
 62
         4
100
AcDbLine
 10
1232.1033403763
 20
-20.9547512096
 30
0.0
 11
1255.9897568452
 21
2.9316652593
 31
0.0
  0
LINE
  5
67
100
AcDbEntity
  8
L1_105
  6
CONTINUOUS
 62
         4
100
AcDbLine
 10
1232.1033403763
 20
-16.7121105225
 30
0.0
 11
1251.7471161581
 21
2.9316652593
 31
0.0
  0
LINE
  5
68
100
AcDbEntity
  8
L1_105
  6
CONTINUOUS
 62
         4
100
AcDbLine
 10
1233.0370264222
 20
-11.5357837894
 30
0.0
 11
1247.504475471
 21
2.9316652593
 31
0.0
  0
LINE
  5
69
100
AcDbEntity
  8
L1_105
  6
CONTINUOUS
 62
         4
100
AcDbLine
 10
1232.1033403763
 20
-8.2268291483
 30
0.0
 11
1243.2618347839
 21
2.9316652593
 31
0.0
  0
LINE
  5
6A
100
AcDbEntity
  8
L1_105
  6
CONTINUOUS
 62
         4
100
AcDbLine
 10
1232.1033403763
 20
-3.9841884612
 30
0.0
 11
1239.0191940967
 21
2.9316652593
 31
0.0
  0
LINE
  5
6B
100
AcDbEntity
  8
L1_105
  6
CONTINUOUS
 62
         4
100
AcDbLine
 10
1232.1033403763
 20
0.258452226
 30
0.0
 11
1234.7765534096
 21
2.9316652593
 31
0.0
  0
ENDBLK
  5
6C
100
AcDbEntity
  8
0
  6
CONTINUOUS
100
AcDbBlockEnd
  0
BLOCK
  5
B1
100
AcDbEntity
  8
0
100
AcDbBlockBegin
  2
*D1
 70
        65
 10
0.0
 20
0.0
 30
0.0
  3
*D1
  1

  0
POINT
  5
B4
100
AcDbEntity
  8
DEFPOINTS
  6
CONTINUOUS
 62
         0
100
AcDbPoint
 10
1440.1367069289
 20
168.1846417294
 30
0.0
  0
POINT
  5
B5
100
AcDbEntity
  8
DEFPOINTS
  6
CONTINUOUS
 62
         0
100
AcDbPoint
 10
1419.7033403763
 20
168.1846417294
 30
0.0
  0
POINT
  5
B6
100
AcDbEntity
  8
DEFPOINTS
  6
CONTINUOUS
 62
         0
100
AcDbPoint
 10
1419.7033403763
 20
132.1846417294
 30
0.0
  0
LINE
  5
B7
100
AcDbEntity
  8
L1_105
  6
CONTINUOUS
 62
         4
100
AcDbLine
 10
1421.0533403763
 20
168.1846417294
 30
0.0
 11
1440.8117069289
 21
168.1846417294
 31
0.0
  0
LINE
  5
B8
100
AcDbEntity
  8
L1_105
  6
CONTINUOUS
 62
         4
100
AcDbLine
 10
1421.0533403763
 20
132.1846417294
 30
0.0
 11
1440.8117069289
 21
132.1846417294
 31
0.0
  0
LINE
  5
B9
100
AcDbEntity
  8
L1_105
  6
CONTINUOUS
 62
         4
100
AcDbLine
 10
1440.1367069289
 20
168.1846417294
 30
0.0
 11
1440.1367069289
 21
132.1846417294
 31
0.0
  0
SOLID
  5
BA
100
AcDbEntity
  8
L1_105
  6
CONTINUOUS
 62
         4
100
AcDbTrace
 10
1440.1367069289
 20
168.1846417294
 30
0.0
 11
1440.5417069289
 21
165.4846417294
 31
0.0
 12
1439.7317069289
 22
165.4846417294
 32
0.0
 13
1440.1367069289
 23
168.1846417294
 33
0.0
  0
SOLID
  5
BB
100
AcDbEntity
  8
L1_105
  6
CONTINUOUS
 62
         4
100
AcDbTrace
 10
1440.1367069289
 20
132.1846417294
 30
0.0
 11
1439.7317069289
 21
134.8846417294
 31
0.0
 12
1440.5417069289
 22
134.8846417294
 32
0.0
 13
1440.1367069289
 23
132.1846417294
 33
0.0
  0
TEXT
  5
BD
100
AcDbEntity
  8
L1_105
  6
CONTINUOUS
 62
         4
100
AcDbText
 10
1437.0047069289
 20
142.3329165641
 30
0.0
 40
2.7
  1
崷36
 50
90.0
  7
BOX
100
AcDbText
  0
ENDBLK
  5
BE
100
AcDbEntity
  8
0
  6
CONTINUOUS
100
AcDbBlockEnd
  0
BLOCK
  5
CC
100
AcDbEntity
  8
0
100
AcDbBlockBegin
  2
*D2
 70
        65
 10
0.0
 20
0.0
 30
0.0
  3
*D2
  1

  0
POINT
  5
CE
100
AcDbEntity
  8
DEFPOINTS
  6
CONTINUOUS
 62
         0
100
AcDbPoint
 10
1467.2526483081
 20
172.6846417294
 30
0.0
  0
POINT
  5
CF
100
AcDbEntity
  8
DEFPOINTS
  6
CONTINUOUS
 62
         0
100
AcDbPoint
 10
1365.7033403763
 20
172.6846417294
 30
0.0
  0
POINT
  5
D0
100
AcDbEntity
  8
DEFPOINTS
  6
CONTINUOUS
 62
         0
100
AcDbPoint
 10
1365.7033403763
 20
127.6846417294
 30
0.0
  0
LINE
  5
D1
100
AcDbEntity
  8
L1_105
  6
CONTINUOUS
 62
         4
100
AcDbLine
 10
1367.0533403763
 20
172.6846417294
 30
0.0
 11
1467.9276483081
 21
172.6846417294
 31
0.0
  0
LINE
  5
D2
100
AcDbEntity
  8
L1_105
  6
CONTINUOUS
 62
         4
100
AcDbLine
 10
1367.0533403763
 20
127.6846417294
 30
0.0
 11
1467.9276483081
 21
127.6846417294
 31
0.0
  0
LINE
  5
D3
100
AcDbEntity
  8
L1_105
  6
CONTINUOUS
 62
         4
100
AcDbLine
 10
1467.2526483081
 20
172.6846417294
 30
0.0
 11
1467.2526483081
 21
127.6846417294
 31
0.0
  0
SOLID
  5
D4
100
AcDbEntity
  8
L1_105
  6
CONTINUOUS
 62
         4
100
AcDbTrace
 10
1467.2526483081
 20
172.6846417294
 30
0.0
 11
1467.6576483081
 21
169.9846417294
 31
0.0
 12
1466.8476483081
 22
169.9846417294
 32
0.0
 13
1467.2526483081
 23
172.6846417294
 33
0.0
  0
SOLID
  5
D5
100
AcDbEntity
  8
L1_105
  6
CONTINUOUS
 62
         4
100
AcDbTrace
 10
1467.2526483081
 20
127.6846417294
 30
0.0
 11
1466.8476483081
 21
130.3846417294
 31
0.0
 12
1467.6576483081
 22
130.3846417294
 32
0.0
 13
1467.2526483081
 23
127.6846417294
 33
0.0
  0
TEXT
  5
D7
100
AcDbEntity
  8
L1_105
  6
CONTINUOUS
 62
         4
100
AcDbText
 10
1464.1206483081
 20
144.1273538612
 30
0.0
 40
2.7
  1
崷45
 50
90.0
  7
BOX
100
AcDbText
  0
ENDBLK
  5
D8
100
AcDbEntity
  8
0
  6
CONTINUOUS
100
AcDbBlockEnd
  0
BLOCK
  5
1F4
100
AcDbEntity
  8
0
100
AcDbBlockBegin
  2
*D3
 70
        65
 10
0.0
 20
0.0
 30
0.0
  3
*D3
  1

  0
POINT
  5
1F6
100
AcDbEntity
  8
DEFPOINTS
  6
CONTINUOUS
 62
         0
100
AcDbPoint
 10
1338.7020155108
 20
-73.4670089015
 30
0.0
  0
POINT
  5
1F7
100
AcDbEntity
  8
DEFPOINTS
  6
CONTINUOUS
 62
         0
100
AcDbPoint
 10
1338.7020155108
 20
-15.4433347407
 30
0.0
  0
POINT
  5
1F8
100
AcDbEntity
  8
DEFPOINTS
  6
CONTINUOUS
 62
         0
100
AcDbPoint
 10
1419.7033403763
 20
-30.6546596061
 30
0.0
  0
LINE
  5
1F9
100
AcDbEntity
  8
L1_105
  6
CONTINUOUS
 62
         4
100
AcDbLine
 10
1338.7020155108
 20
-16.7933347407
 30
0.0
 11
1338.7020155108
 21
-74.1420089015
 31
0.0
  0
LINE
  5
1FA
100
AcDbEntity
  8
L1_105
  6
CONTINUOUS
 62
         4
100
AcDbLine
 10
1419.7033403763
 20
-32.0046596061
 30
0.0
 11
1419.7033403763
 21
-74.1420089015
 31
0.0
  0
LINE
  5
1FB
100
AcDbEntity
  8
L1_105
  6
CONTINUOUS
 62
         4
100
AcDbLine
 10
1338.7020155108
 20
-73.4670089015
 30
0.0
 11
1419.7033403763
 21
-73.4670089015
 31
0.0
  0
SOLID
  5
1FC
100
AcDbEntity
  8
L1_105
  6
CONTINUOUS
 62
         4
100
AcDbTrace
 10
1338.7020155108
 20
-73.4670089015
 30
0.0
 11
1341.4020155108
 21
-73.0620089015
 31
0.0
 12
1341.4020155108
 22
-73.8720089015
 32
0.0
 13
1338.7020155108
 23
-73.4670089015
 33
0.0
  0
SOLID
  5
1FD
100
AcDbEntity
  8
L1_105
  6
CONTINUOUS
 62
         4
100
AcDbTrace
 10
1419.7033403763
 20
-73.4670089015
 30
0.0
 11
1417.0033403763
 21
-73.8720089015
 31
0.0
 12
1417.0033403763
 22
-73.0620089015
 32
0.0
 13
1419.7033403763
 23
-73.4670089015
 33
0.0
  0
TEXT
  5
1FF
100
AcDbEntity
  8
L1_105
  6
CONTINUOUS
 62
         4
100
AcDbText
 10
1377.6024463572
 20
-70.3350089015
 30
0.0
 40
2.7
  1
81
  7
BOX
100
AcDbText
  0
ENDBLK
  5
200
100
AcDbEntity
  8
0
  6
CONTINUOUS
100
AcDbBlockEnd
  0
BLOCK
  5
209
100
AcDbEntity
  8
0
100
AcDbBlockBegin
  2
*D4
 70
        65
 10
0.0
 20
0.0
 30
0.0
  3
*D4
  1

  0
POINT
  5
20B
100
AcDbEntity
  8
DEFPOINTS
  6
CONTINUOUS
 62
         0
100
AcDbPoint
 10
1333.7033403763
 20
204.2801654447
 30
0.0
  0
POINT
  5
20C
100
AcDbEntity
  8
DEFPOINTS
  6
CONTINUOUS
 62
         0
100
AcDbPoint
 10
1333.7033403763
 20
170.6846417294
 30
0.0
  0
POINT
  5
20D
100
AcDbEntity
  8
DEFPOINTS
  6
CONTINUOUS
 62
         0
100
AcDbPoint
 10
1419.7033403763
 20
167.6072914602
 30
0.0
  0
LINE
  5
20E
100
AcDbEntity
  8
L1_105
  6
CONTINUOUS
 62
         4
100
AcDbLine
 10
1333.7033403763
 20
172.0346417294
 30
0.0
 11
1333.7033403763
 21
204.9551654447
 31
0.0
  0
LINE
  5
20F
100
AcDbEntity
  8
L1_105
  6
CONTINUOUS
 62
         4
100
AcDbLine
 10
1419.7033403763
 20
168.9572914602
 30
0.0
 11
1419.7033403763
 21
204.9551654447
 31
0.0
  0
LINE
  5
210
100
AcDbEntity
  8
L1_105
  6
CONTINUOUS
 62
         4
100
AcDbLine
 10
1333.7033403763
 20
204.2801654447
 30
0.0
 11
1419.7033403763
 21
204.2801654447
 31
0.0
  0
SOLID
  5
211
100
AcDbEntity
  8
L1_105
  6
CONTINUOUS
 62
         4
100
AcDbTrace
 10
1333.7033403763
 20
204.2801654447
 30
0.0
 11
1336.4033403763
 21
204.6851654447
 31
0.0
 12
1336.4033403763
 22
203.8751654447
 32
0.0
 13
1333.7033403763
 23
204.2801654447
 33
0.0
  0
SOLID
  5
212
100
AcDbEntity
  8
L1_105
  6
CONTINUOUS
 62
         4
100
AcDbTrace
 10
1419.7033403763
 20
204.2801654447
 30
0.0
 11
1417.0033403763
 21
203.8751654447
 31
0.0
 12
1417.0033403763
 22
204.6851654447
 32
0.0
 13
1419.7033403763
 23
204.2801654447
 33
0.0
  0
TEXT
  5
214
100
AcDbEntity
  8
L1_105
  6
CONTINUOUS
 62
         4
100
AcDbText
 10
1376.9473207376
 20
206.3051654447
 30
0.0
 40
2.7
  1
86
  7
BOX
100
AcDbText
  0
ENDBLK
  5
215
100
AcDbEntity
  8
0
  6
CONTINUOUS
100
AcDbBlockEnd
  0
BLOCK
  5
217
100
AcDbEntity
  8
0
100
AcDbBlockBegin
  2
*D5
 70
        65
 10
0.0
 20
0.0
 30
0.0
  3
*D5
  1

  0
POINT
  5
219
100
AcDbEntity
  8
DEFPOINTS
  6
CONTINUOUS
 62
         0
100
AcDbPoint
 10
1232.1033403763
 20
211.8258350306
 30
0.0
  0
POINT
  5
21A
100
AcDbEntity
  8
DEFPOINTS
  6
CONTINUOUS
 62
         0
100
AcDbPoint
 10
1232.1033403763
 20
164.5596417294
 30
0.0
  0
POINT
  5
21B
100
AcDbEntity
  8
DEFPOINTS
  6
CONTINUOUS
 62
         0
100
AcDbPoint
 10
1419.7033403763
 20
167.6072914602
 30
0.0
  0
LINE
  5
21C
100
AcDbEntity
  8
L1_105
  6
CONTINUOUS
 62
         4
100
AcDbLine
 10
1232.1033403763
 20
165.9096417294
 30
0.0
 11
1232.1033403763
 21
212.5008350306
 31
0.0
  0
LINE
  5
21D
100
AcDbEntity
  8
L1_105
  6
CONTINUOUS
 62
         4
100
AcDbLine
 10
1419.7033403763
 20
168.9572914602
 30
0.0
 11
1419.7033403763
 21
212.5008350306
 31
0.0
  0
LINE
  5
21E
100
AcDbEntity
  8
L1_105
  6
CONTINUOUS
 62
         4
100
AcDbLine
 10
1232.1033403763
 20
211.8258350306
 30
0.0
 11
1419.7033403763
 21
211.8258350306
 31
0.0
  0
SOLID
  5
21F
100
AcDbEntity
  8
L1_105
  6
CONTINUOUS
 62
         4
100
AcDbTrace
 10
1232.1033403763
 20
211.8258350306
 30
0.0
 11
1234.8033403763
 21
212.2308350306
 31
0.0
 12
1234.8033403763
 22
211.4208350306
 32
0.0
 13
1232.1033403763
 23
211.8258350306
 33
0.0
  0
SOLID
  5
220
100
AcDbEntity
  8
L1_105
  6
CONTINUOUS
 62
         4
100
AcDbTrace
 10
1419.7033403763
 20
211.8258350306
 30
0.0
 11
1417.0033403763
 21
211.4208350306
 31
0.0
 12
1417.0033403763
 22
212.2308350306
 32
0.0
 13
1419.7033403763
 23
211.8258350306
 33
0.0
  0
TEXT
  5
222
100
AcDbEntity
  8
L1_105
  6
CONTINUOUS
 62
         4
100
AcDbText
 10
1319.6203203281
 20
213.8508350306
 30
0.0
 40
2.7
  1
187.6
  7
BOX
100
AcDbText
  0
ENDBLK
  5
223
100
AcDbEntity
  8
0
  6
CONTINUOUS
100
AcDbBlockEnd
  0
BLOCK
  5
242
100
AcDbEntity
  8
0
100
AcDbBlockBegin
  2
*D6
 70
        65
 10
0.0
 20
0.0
 30
0.0
  3
*D6
  1

  0
POINT
  5
244
100
AcDbEntity
  8
DEFPOINTS
  6
CONTINUOUS
 62
         0
100
AcDbPoint
 10
1595.9251909048
 20
51.8725346524
 30
0.0
  0
POINT
  5
245
100
AcDbEntity
  8
DEFPOINTS
  6
CONTINUOUS
 62
         0
100
AcDbPoint
 10
1595.9251909048
 20
48.7988961915
 30
0.0
  0
POINT
  5
246
100
AcDbEntity
  8
DEFPOINTS
  6
CONTINUOUS
 62
         0
100
AcDbPoint
 10
1580.4251909048
 20
47.2988961915
 30
0.0
  0
LINE
  5
247
100
AcDbEntity
  8
L1_105
  6
CONTINUOUS
 62
         4
100
AcDbLine
 10
1595.9251909048
 20
50.1488961915
 30
0.0
 11
1595.9251909048
 21
52.5475346524
 31
0.0
  0
LINE
  5
248
100
AcDbEntity
  8
L1_105
  6
CONTINUOUS
 62
         4
100
AcDbLine
 10
1580.4251909048
 20
48.6488961915
 30
0.0
 11
1580.4251909048
 21
52.5475346524
 31
0.0
  0
LINE
  5
249
100
AcDbEntity
  8
L1_105
  6
CONTINUOUS
 62
         4
100
AcDbLine
 10
1595.9251909048
 20
51.8725346524
 30
0.0
 11
1580.4251909048
 21
51.8725346524
 31
0.0
  0
SOLID
  5
24A
100
AcDbEntity
  8
L1_105
  6
CONTINUOUS
 62
         4
100
AcDbTrace
 10
1595.9251909048
 20
51.8725346524
 30
0.0
 11
1593.2251909048
 21
51.4675346524
 31
0.0
 12
1593.2251909048
 22
52.2775346524
 32
0.0
 13
1595.9251909048
 23
51.8725346524
 33
0.0
  0
SOLID
  5
24B
100
AcDbEntity
  8
L1_105
  6
CONTINUOUS
 62
         4
100
AcDbTrace
 10
1580.4251909048
 20
51.8725346524
 30
0.0
 11
1583.1251909048
 21
52.2775346524
 31
0.0
 12
1583.1251909048
 22
51.4675346524
 32
0.0
 13
1580.4251909048
 23
51.8725346524
 33
0.0
  0
TEXT
  5
24D
100
AcDbEntity
  8
L1_105
  6
CONTINUOUS
 62
         4
100
AcDbText
 10
1582.9275472303
 20
53.8975346524
 30
0.0
 40
2.7
  1
15.5
  7
BOX
100
AcDbText
  0
ENDBLK
  5
24E
100
AcDbEntity
  8
0
  6
CONTINUOUS
100
AcDbBlockEnd
  0
BLOCK
  5
250
100
AcDbEntity
  8
0
100
AcDbBlockBegin
  2
*D7
 70
        65
 10
0.0
 20
0.0
 30
0.0
  3
*D7
  1

  0
POINT
  5
252
100
AcDbEntity
  8
DEFPOINTS
  6
CONTINUOUS
 62
         0
100
AcDbPoint
 10
1602.6200947069
 20
49.2988961915
 30
0.0
  0
POINT
  5
253
100
AcDbEntity
  8
DEFPOINTS
  6
CONTINUOUS
 62
         0
100
AcDbPoint
 10
1595.4251909048
 20
49.2988961915
 30
0.0
  0
POINT
  5
254
100
AcDbEntity
  8
DEFPOINTS
  6
CONTINUOUS
 62
         0
100
AcDbPoint
 10
1595.4251909048
 20
30.4988961915
 30
0.0
  0
LINE
  5
255
100
AcDbEntity
  8
L1_105
  6
CONTINUOUS
 62
         4
100
AcDbLine
 10
1596.7751909048
 20
49.2988961915
 30
0.0
 11
1603.2950947069
 21
49.2988961915
 31
0.0
  0
LINE
  5
256
100
AcDbEntity
  8
L1_105
  6
CONTINUOUS
 62
         4
100
AcDbLine
 10
1596.7751909048
 20
30.4988961915
 30
0.0
 11
1603.2950947069
 21
30.4988961915
 31
0.0
  0
LINE
  5
257
100
AcDbEntity
  8
L1_105
  6
CONTINUOUS
 62
         4
100
AcDbLine
 10
1602.6200947069
 20
49.2988961915
 30
0.0
 11
1602.6200947069
 21
30.4988961915
 31
0.0
  0
SOLID
  5
258
100
AcDbEntity
  8
L1_105
  6
CONTINUOUS
 62
         4
100
AcDbTrace
 10
1602.6200947069
 20
49.2988961915
 30
0.0
 11
1603.0250947069
 21
46.5988961915
 31
0.0
 12
1602.2150947069
 22
46.5988961915
 32
0.0
 13
1602.6200947069
 23
49.2988961915
 33
0.0
  0
SOLID
  5
259
100
AcDbEntity
  8
L1_105
  6
CONTINUOUS
 62
         4
100
AcDbTrace
 10
1602.6200947069
 20
30.4988961915
 30
0.0
 11
1602.2150947069
 21
33.1988961915
 31
0.0
 12
1603.0250947069
 22
33.1988961915
 32
0.0
 13
1602.6200947069
 23
30.4988961915
 33
0.0
  0
TEXT
  5
25B
100
AcDbEntity
  8
L1_105
  6
CONTINUOUS
 62
         4
100
AcDbText
 10
1600.5950947069
 20
31.7450480729
 30
0.0
 40
2.7
  1
崷18.8
 50
90.0
  7
BOX
100
AcDbText
  0
ENDBLK
  5
25C
100
AcDbEntity
  8
0
  6
CONTINUOUS
100
AcDbBlockEnd
  0
BLOCK
  5
25E
100
AcDbEntity
  8
0
100
AcDbBlockBegin
  2
*D8
 70
        65
 10
0.0
 20
0.0
 30
0.0
  3
*D8
  1

  0
POINT
  5
260
100
AcDbEntity
  8
DEFPOINTS
  6
CONTINUOUS
 62
         0
100
AcDbPoint
 10
1578.6650876222
 20
47.3988961915
 30
0.0
  0
POINT
  5
261
100
AcDbEntity
  8
DEFPOINTS
  6
CONTINUOUS
 62
         0
100
AcDbPoint
 10
1580.5251909048
 20
47.3988961915
 30
0.0
  0
POINT
  5
262
100
AcDbEntity
  8
DEFPOINTS
  6
CONTINUOUS
 62
         0
100
AcDbPoint
 10
1580.5251909048
 20
32.3988961915
 30
0.0
  0
LINE
  5
263
100
AcDbEntity
  8
L1_105
  6
CONTINUOUS
 62
         4
100
AcDbLine
 10
1579.1751909048
 20
47.3988961915
 30
0.0
 11
1577.9900876222
 21
47.3988961915
 31
0.0
  0
LINE
  5
264
100
AcDbEntity
  8
L1_105
  6
CONTINUOUS
 62
         4
100
AcDbLine
 10
1579.1751909048
 20
32.3988961915
 30
0.0
 11
1577.9900876222
 21
32.3988961915
 31
0.0
  0
LINE
  5
265
100
AcDbEntity
  8
L1_105
  6
CONTINUOUS
 62
         4
100
AcDbLine
 10
1578.6650876222
 20
47.3988961915
 30
0.0
 11
1578.6650876222
 21
32.3988961915
 31
0.0
  0
SOLID
  5
266
100
AcDbEntity
  8
L1_105
  6
CONTINUOUS
 62
         4
100
AcDbTrace
 10
1578.6650876222
 20
47.3988961915
 30
0.0
 11
1579.0700876222
 21
44.6988961915
 31
0.0
 12
1578.2600876222
 22
44.6988961915
 32
0.0
 13
1578.6650876222
 23
47.3988961915
 33
0.0
  0
SOLID
  5
267
100
AcDbEntity
  8
L1_105
  6
CONTINUOUS
 62
         4
100
AcDbTrace
 10
1578.6650876222
 20
32.3988961915
 30
0.0
 11
1578.2600876222
 21
35.0988961915
 31
0.0
 12
1579.0700876222
 22
35.0988961915
 32
0.0
 13
1578.6650876222
 23
32.3988961915
 33
0.0
  0
TEXT
  5
269
100
AcDbEntity
  8
L1_105
  6
CONTINUOUS
 62
         4
100
AcDbText
 10
1576.6400876222
 20
33.9481936671
 30
0.0
 40
2.7
  1
崷15
 50
90.0
  7
BOX
100
AcDbText
  0
ENDBLK
  5
26A
100
AcDbEntity
  8
0
  6
CONTINUOUS
100
AcDbBlockEnd
  0
BLOCK
  5
27A
100
AcDbEntity
  8
0
100
AcDbBlockBegin
  2
*D9
 70
        65
 10
0.0
 20
0.0
 30
0.0
  3
*D9
  1

  0
POINT
  5
27C
100
AcDbEntity
  8
DEFPOINTS
  6
CONTINUOUS
 62
         0
100
AcDbPoint
 10
1524.5251909048
 20
65.3892075679
 30
0.0
  0
POINT
  5
27D
100
AcDbEntity
  8
DEFPOINTS
  6
CONTINUOUS
 62
         0
100
AcDbPoint
 10
1524.5251909048
 20
61.8988961915
 30
0.0
  0
POINT
  5
27E
100
AcDbEntity
  8
DEFPOINTS
  6
CONTINUOUS
 62
         0
100
AcDbPoint
 10
1556.5251909048
 20
61.1102210569
 30
0.0
  0
LINE
  5
27F
100
AcDbEntity
  8
L1_105
  6
CONTINUOUS
 62
         4
100
AcDbLine
 10
1524.5251909048
 20
63.2488961915
 30
0.0
 11
1524.5251909048
 21
66.0642075679
 31
0.0
  0
LINE
  5
280
100
AcDbEntity
  8
L1_105
  6
CONTINUOUS
 62
         4
100
AcDbLine
 10
1556.5251909048
 20
62.4602210569
 30
0.0
 11
1556.5251909048
 21
66.0642075679
 31
0.0
  0
LINE
  5
281
100
AcDbEntity
  8
L1_105
  6
CONTINUOUS
 62
         4
100
AcDbLine
 10
1524.5251909048
 20
65.3892075679
 30
0.0
 11
1556.5251909048
 21
65.3892075679
 31
0.0
  0
SOLID
  5
282
100
AcDbEntity
  8
L1_105
  6
CONTINUOUS
 62
         4
100
AcDbTrace
 10
1524.5251909048
 20
65.3892075679
 30
0.0
 11
1527.2251909048
 21
65.7942075679
 31
0.0
 12
1527.2251909048
 22
64.9842075679
 32
0.0
 13
1524.5251909048
 23
65.3892075679
 33
0.0
  0
SOLID
  5
283
100
AcDbEntity
  8
L1_105
  6
CONTINUOUS
 62
         4
100
AcDbTrace
 10
1556.5251909048
 20
65.3892075679
 30
0.0
 11
1553.8251909048
 21
64.9842075679
 31
0.0
 12
1553.8251909048
 22
65.7942075679
 32
0.0
 13
1556.5251909048
 23
65.3892075679
 33
0.0
  0
TEXT
  5
285
100
AcDbEntity
  8
L1_105
  6
CONTINUOUS
 62
         4
100
AcDbText
 10
1538.5274153513
 20
67.4142075679
 30
0.0
 40
2.7
  1
32
  7
BOX
100
AcDbText
  0
ENDBLK
  5
286
100
AcDbEntity
  8
0
  6
CONTINUOUS
100
AcDbBlockEnd
  0
BLOCK
  5
288
100
AcDbEntity
  8
0
100
AcDbBlockBegin
  2
*D10
 70
        65
 10
0.0
 20
0.0
 30
0.0
  3
*D10
  1

  0
POINT
  5
28A
100
AcDbEntity
  8
DEFPOINTS
  6
CONTINUOUS
 62
         0
100
AcDbPoint
 10
1563.448204627
 20
62.3988961915
 30
0.0
  0
POINT
  5
28B
100
AcDbEntity
  8
DEFPOINTS
  6
CONTINUOUS
 62
         0
100
AcDbPoint
 10
1553.3912163086
 20
62.3988961915
 30
0.0
  0
POINT
  5
28C
100
AcDbEntity
  8
DEFPOINTS
  6
CONTINUOUS
 62
         0
100
AcDbPoint
 10
1553.3912163086
 20
17.3988961915
 30
0.0
  0
LINE
  5
28D
100
AcDbEntity
  8
L1_105
  6
CONTINUOUS
 62
         4
100
AcDbLine
 10
1554.7412163086
 20
62.3988961915
 30
0.0
 11
1564.123204627
 21
62.3988961915
 31
0.0
  0
LINE
  5
28E
100
AcDbEntity
  8
L1_105
  6
CONTINUOUS
 62
         4
100
AcDbLine
 10
1554.7412163086
 20
17.3988961915
 30
0.0
 11
1564.123204627
 21
17.3988961915
 31
0.0
  0
LINE
  5
28F
100
AcDbEntity
  8
L1_105
  6
CONTINUOUS
 62
         4
100
AcDbLine
 10
1563.448204627
 20
62.3988961915
 30
0.0
 11
1563.448204627
 21
17.3988961915
 31
0.0
  0
SOLID
  5
290
100
AcDbEntity
  8
L1_105
  6
CONTINUOUS
 62
         4
100
AcDbTrace
 10
1563.448204627
 20
62.3988961915
 30
0.0
 11
1563.853204627
 21
59.6988961915
 31
0.0
 12
1563.043204627
 22
59.6988961915
 32
0.0
 13
1563.448204627
 23
62.3988961915
 33
0.0
  0
SOLID
  5
291
100
AcDbEntity
  8
L1_105
  6
CONTINUOUS
 62
         4
100
AcDbTrace
 10
1563.448204627
 20
17.3988961915
 30
0.0
 11
1563.043204627
 21
20.0988961915
 31
0.0
 12
1563.853204627
 22
20.0988961915
 32
0.0
 13
1563.448204627
 23
17.3988961915
 33
0.0
  0
TEXT
  5
293
100
AcDbEntity
  8
L1_105
  6
CONTINUOUS
 62
         4
100
AcDbText
 10
1561.423204627
 20
34.5951929656
 30
0.0
 40
2.7
  1
崷45
 50
90.0
  7
BOX
100
AcDbText
  0
ENDBLK
  5
294
100
AcDbEntity
  8
0
  6
CONTINUOUS
100
AcDbBlockEnd
  0
BLOCK
  5
3BD
100
AcDbEntity
  8
0
100
AcDbBlockBegin
  2
*D11
 70
        65
 10
0.0
 20
0.0
 30
0.0
  3
*D11
  1

  0
POINT
  5
3BF
100
AcDbEntity
  8
DEFPOINTS
  6
CONTINUOUS
 62
         0
100
AcDbPoint
 10
1666.6251909048
 20
61.0293863209
 30
0.0
  0
POINT
  5
3C0
100
AcDbEntity
  8
DEFPOINTS
  6
CONTINUOUS
 62
         0
100
AcDbPoint
 10
1666.6251909048
 20
54.8988961915
 30
0.0
  0
POINT
  5
3C1
100
AcDbEntity
  8
DEFPOINTS
  6
CONTINUOUS
 62
         0
100
AcDbPoint
 10
1698.1251909048
 20
52.0988961915
 30
0.0
  0
LINE
  5
3C2
100
AcDbEntity
  8
L1_105
  6
CONTINUOUS
 62
         4
100
AcDbLine
 10
1666.6251909048
 20
56.2488961915
 30
0.0
 11
1666.6251909048
 21
61.7043863209
 31
0.0
  0
LINE
  5
3C3
100
AcDbEntity
  8
L1_105
  6
CONTINUOUS
 62
         4
100
AcDbLine
 10
1698.1251909048
 20
53.4488961915
 30
0.0
 11
1698.1251909048
 21
61.7043863209
 31
0.0
  0
LINE
  5
3C4
100
AcDbEntity
  8
L1_105
  6
CONTINUOUS
 62
         4
100
AcDbLine
 10
1666.6251909048
 20
61.0293863209
 30
0.0
 11
1698.1251909048
 21
61.0293863209
 31
0.0
  0
SOLID
  5
3C5
100
AcDbEntity
  8
L1_105
  6
CONTINUOUS
 62
         4
100
AcDbTrace
 10
1666.6251909048
 20
61.0293863209
 30
0.0
 11
1669.3251909048
 21
61.4343863209
 31
0.0
 12
1669.3251909048
 22
60.6243863209
 32
0.0
 13
1666.6251909048
 23
61.0293863209
 33
0.0
  0
SOLID
  5
3C6
100
AcDbEntity
  8
L1_105
  6
CONTINUOUS
 62
         4
100
AcDbTrace
 10
1698.1251909048
 20
61.0293863209
 30
0.0
 11
1695.4251909048
 21
60.6243863209
 31
0.0
 12
1695.4251909048
 22
61.4343863209
 32
0.0
 13
1698.1251909048
 23
61.0293863209
 33
0.0
  0
TEXT
  5
3C8
100
AcDbEntity
  8
L1_105
  6
CONTINUOUS
 62
         4
100
AcDbText
 10
1676.2815053059
 20
63.0543863209
 30
0.0
 40
2.7
  1
31.5
  7
BOX
100
AcDbText
  0
ENDBLK
  5
3C9
100
AcDbEntity
  8
0
  6
CONTINUOUS
100
AcDbBlockEnd
  0
BLOCK
  5
3CB
100
AcDbEntity
  8
0
100
AcDbBlockBegin
  2
*D12
 70
        65
 10
0.0
 20
0.0
 30
0.0
  3
*D12
  1

  0
POINT
  5
3CD
100
AcDbEntity
  8
DEFPOINTS
  6
CONTINUOUS
 62
         0
100
AcDbPoint
 10
1698.1251909048
 20
67.2968935561
 30
0.0
  0
POINT
  5
3CE
100
AcDbEntity
  8
DEFPOINTS
  6
CONTINUOUS
 62
         0
100
AcDbPoint
 10
1698.1251909048
 20
52.0988961915
 30
0.0
  0
POINT
  5
3CF
100
AcDbEntity
  8
DEFPOINTS
  6
CONTINUOUS
 62
         0
100
AcDbPoint
 10
1623.1251909048
 20
54.8988961915
 30
0.0
  0
LINE
  5
3D0
100
AcDbEntity
  8
L1_105
  6
CONTINUOUS
 62
         4
100
AcDbLine
 10
1698.1251909048
 20
53.4488961915
 30
0.0
 11
1698.1251909048
 21
67.9718935561
 31
0.0
  0
LINE
  5
3D1
100
AcDbEntity
  8
L1_105
  6
CONTINUOUS
 62
         4
100
AcDbLine
 10
1623.1251909048
 20
56.2488961915
 30
0.0
 11
1623.1251909048
 21
67.9718935561
 31
0.0
  0
LINE
  5
3D2
100
AcDbEntity
  8
L1_105
  6
CONTINUOUS
 62
         4
100
AcDbLine
 10
1698.1251909048
 20
67.2968935561
 30
0.0
 11
1623.1251909048
 21
67.2968935561
 31
0.0
  0
SOLID
  5
3D3
100
AcDbEntity
  8
L1_105
  6
CONTINUOUS
 62
         4
100
AcDbTrace
 10
1698.1251909048
 20
67.2968935561
 30
0.0
 11
1695.4251909048
 21
66.8918935561
 31
0.0
 12
1695.4251909048
 22
67.7018935561
 32
0.0
 13
1698.1251909048
 23
67.2968935561
 33
0.0
  0
SOLID
  5
3D4
100
AcDbEntity
  8
L1_105
  6
CONTINUOUS
 62
         4
100
AcDbTrace
 10
1623.1251909048
 20
67.2968935561
 30
0.0
 11
1625.8251909048
 21
67.7018935561
 31
0.0
 12
1625.8251909048
 22
66.8918935561
 32
0.0
 13
1623.1251909048
 23
67.2968935561
 33
0.0
  0
TEXT
  5
3D6
100
AcDbEntity
  8
L1_105
  6
CONTINUOUS
 62
         4
100
AcDbText
 10
1659.0926156797
 20
69.3218935561
 30
0.0
 40
2.7
  1
75
  7
BOX
100
AcDbText
  0
ENDBLK
  5
3D7
100
AcDbEntity
  8
0
  6
CONTINUOUS
100
AcDbBlockEnd
  0
BLOCK
  5
3D9
100
AcDbEntity
  8
0
100
AcDbBlockBegin
  2
*D13
 70
        65
 10
0.0
 20
0.0
 30
0.0
  3
*D13
  1

  0
POINT
  5
3DB
100
AcDbEntity
  8
DEFPOINTS
  6
CONTINUOUS
 62
         0
100
AcDbPoint
 10
1618.2030947976
 20
55.8988961915
 30
0.0
  0
POINT
  5
3DC
100
AcDbEntity
  8
DEFPOINTS
  6
CONTINUOUS
 62
         0
100
AcDbPoint
 10
1624.1251909048
 20
55.8988961915
 30
0.0
  0
POINT
  5
3DD
100
AcDbEntity
  8
DEFPOINTS
  6
CONTINUOUS
 62
         0
100
AcDbPoint
 10
1624.1251909048
 20
23.8988961915
 30
0.0
  0
LINE
  5
3DE
100
AcDbEntity
  8
L1_105
  6
CONTINUOUS
 62
         4
100
AcDbLine
 10
1622.7751909048
 20
55.8988961915
 30
0.0
 11
1617.5280947976
 21
55.8988961915
 31
0.0
  0
LINE
  5
3DF
100
AcDbEntity
  8
L1_105
  6
CONTINUOUS
 62
         4
100
AcDbLine
 10
1622.7751909048
 20
23.8988961915
 30
0.0
 11
1617.5280947976
 21
23.8988961915
 31
0.0
  0
LINE
  5
3E0
100
AcDbEntity
  8
L1_105
  6
CONTINUOUS
 62
         4
100
AcDbLine
 10
1618.2030947976
 20
55.8988961915
 30
0.0
 11
1618.2030947976
 21
23.8988961915
 31
0.0
  0
SOLID
  5
3E1
100
AcDbEntity
  8
L1_105
  6
CONTINUOUS
 62
         4
100
AcDbTrace
 10
1618.2030947976
 20
55.8988961915
 30
0.0
 11
1618.6080947976
 21
53.1988961915
 31
0.0
 12
1617.7980947976
 22
53.1988961915
 32
0.0
 13
1618.2030947976
 23
55.8988961915
 33
0.0
  0
SOLID
  5
3E2
100
AcDbEntity
  8
L1_105
  6
CONTINUOUS
 62
         4
100
AcDbTrace
 10
1618.2030947976
 20
23.8988961915
 30
0.0
 11
1617.7980947976
 21
26.5988961915
 31
0.0
 12
1618.6080947976
 22
26.5988961915
 32
0.0
 13
1618.2030947976
 23
23.8988961915
 33
0.0
  0
TEXT
  5
3E4
100
AcDbEntity
  8
L1_105
  6
CONTINUOUS
 62
         4
100
AcDbText
 10
1616.1780947976
 20
32.8012341891
 30
0.0
 40
2.7
  1
崷32f7
 50
90.0
  7
BOX
100
AcDbText
  0
ENDBLK
  5
3E5
100
AcDbEntity
  8
0
  6
CONTINUOUS
100
AcDbBlockEnd
  0
BLOCK
  5
3E7
100
AcDbEntity
  8
0
100
AcDbBlockBegin
  2
*D14
 70
        65
 10
0.0
 20
0.0
 30
0.0
  3
*D14
  1

  0
POINT
  5
3E9
100
AcDbEntity
  8
DEFPOINTS
  6
CONTINUOUS
 62
         0
100
AcDbPoint
 10
1704.9418141877
 20
45.1488961915
 30
0.0
  0
POINT
  5
3EA
100
AcDbEntity
  8
DEFPOINTS
  6
CONTINUOUS
 62
         0
100
AcDbPoint
 10
1697.6251909048
 20
45.1488961915
 30
0.0
  0
POINT
  5
3EB
100
AcDbEntity
  8
DEFPOINTS
  6
CONTINUOUS
 62
         0
100
AcDbPoint
 10
1697.6251909048
 20
34.6488961915
 30
0.0
  0
LINE
  5
3EC
100
AcDbEntity
  8
L1_105
  6
CONTINUOUS
 62
         4
100
AcDbLine
 10
1698.9751909048
 20
45.1488961915
 30
0.0
 11
1705.6168141877
 21
45.1488961915
 31
0.0
  0
LINE
  5
3ED
100
AcDbEntity
  8
L1_105
  6
CONTINUOUS
 62
         4
100
AcDbLine
 10
1698.9751909048
 20
34.6488961915
 30
0.0
 11
1705.6168141877
 21
34.6488961915
 31
0.0
  0
LINE
  5
3EE
100
AcDbEntity
  8
L1_105
  6
CONTINUOUS
 62
         4
100
AcDbLine
 10
1704.9418141877
 20
45.1488961915
 30
0.0
 11
1704.9418141877
 21
34.6488961915
 31
0.0
  0
SOLID
  5
3EF
100
AcDbEntity
  8
L1_105
  6
CONTINUOUS
 62
         4
100
AcDbTrace
 10
1704.9418141877
 20
45.1488961915
 30
0.0
 11
1705.3468141877
 21
42.4488961915
 31
0.0
 12
1704.5368141877
 22
42.4488961915
 32
0.0
 13
1704.9418141877
 23
45.1488961915
 33
0.0
  0
SOLID
  5
3F0
100
AcDbEntity
  8
L1_105
  6
CONTINUOUS
 62
         4
100
AcDbTrace
 10
1704.9418141877
 20
34.6488961915
 30
0.0
 11
1704.5368141877
 21
37.3488961915
 31
0.0
 12
1705.3468141877
 22
37.3488961915
 32
0.0
 13
1704.9418141877
 23
34.6488961915
 33
0.0
  0
TEXT
  5
3F2
100
AcDbEntity
  8
L1_105
  6
CONTINUOUS
 62
         4
100
AcDbText
 10
1702.9168141877
 20
34.3713438092
 30
0.0
 40
2.7
  1
10.5
 50
90.0
  7
BOX
100
AcDbText
  0
ENDBLK
  5
3F3
100
AcDbEntity
  8
0
  6
CONTINUOUS
100
AcDbBlockEnd
  0
BLOCK
  5
3F5
100
AcDbEntity
  8
0
100
AcDbBlockBegin
  2
*D15
 70
        65
 10
0.0
 20
0.0
 30
0.0
  3
*D15
  1

  0
POINT
  5
3F7
100
AcDbEntity
  8
DEFPOINTS
  6
CONTINUOUS
 62
         0
100
AcDbPoint
 10
1711.6626741856
 20
52.5988961915
 30
0.0
  0
POINT
  5
3F8
100
AcDbEntity
  8
DEFPOINTS
  6
CONTINUOUS
 62
         0
100
AcDbPoint
 10
1696.9251909048
 20
52.5988961915
 30
0.0
  0
POINT
  5
3F9
100
AcDbEntity
  8
DEFPOINTS
  6
CONTINUOUS
 62
         0
100
AcDbPoint
 10
1696.9251909048
 20
27.1988961915
 30
0.0
  0
LINE
  5
3FA
100
AcDbEntity
  8
L1_105
  6
CONTINUOUS
 62
         4
100
AcDbLine
 10
1698.2751909048
 20
52.5988961915
 30
0.0
 11
1712.3376741856
 21
52.5988961915
 31
0.0
  0
LINE
  5
3FB
100
AcDbEntity
  8
L1_105
  6
CONTINUOUS
 62
         4
100
AcDbLine
 10
1698.2751909048
 20
27.1988961915
 30
0.0
 11
1712.3376741856
 21
27.1988961915
 31
0.0
  0
LINE
  5
3FC
100
AcDbEntity
  8
L1_105
  6
CONTINUOUS
 62
         4
100
AcDbLine
 10
1711.6626741856
 20
52.5988961915
 30
0.0
 11
1711.6626741856
 21
27.1988961915
 31
0.0
  0
SOLID
  5
3FD
100
AcDbEntity
  8
L1_105
  6
CONTINUOUS
 62
         4
100
AcDbTrace
 10
1711.6626741856
 20
52.5988961915
 30
0.0
 11
1712.0676741856
 21
49.8988961915
 31
0.0
 12
1711.2576741856
 22
49.8988961915
 32
0.0
 13
1711.6626741856
 23
52.5988961915
 33
0.0
  0
SOLID
  5
3FE
100
AcDbEntity
  8
L1_105
  6
CONTINUOUS
 62
         4
100
AcDbTrace
 10
1711.6626741856
 20
27.1988961915
 30
0.0
 11
1711.2576741856
 21
29.8988961915
 31
0.0
 12
1712.0676741856
 22
29.8988961915
 32
0.0
 13
1711.6626741856
 23
27.1988961915
 33
0.0
  0
TEXT
  5
400
100
AcDbEntity
  8
L1_105
  6
CONTINUOUS
 62
         4
100
AcDbText
 10
1709.6376741856
 20
28.4112721427
 30
0.0
 40
2.7
  1
崷25.4g6
 50
90.0
  7
BOX
100
AcDbText
  0
ENDBLK
  5
401
100
AcDbEntity
  8
0
  6
CONTINUOUS
100
AcDbBlockEnd
  0
BLOCK
  5
419
100
AcDbEntity
  8
0
100
AcDbBlockBegin
  2
*D16
 70
        65
 10
0.0
 20
0.0
 30
0.0
  3
*D16
  1

  0
POINT
  5
41B
100
AcDbEntity
  8
DEFPOINTS
  6
CONTINUOUS
 62
         0
100
AcDbPoint
 10
1725.5610921194
 20
49.3988961915
 30
0.0
  0
POINT
  5
41C
100
AcDbEntity
  8
DEFPOINTS
  6
CONTINUOUS
 62
         0
100
AcDbPoint
 10
1729.3851909048
 20
49.3988961915
 30
0.0
  0
POINT
  5
41D
100
AcDbEntity
  8
DEFPOINTS
  6
CONTINUOUS
 62
         0
100
AcDbPoint
 10
1729.3851909048
 20
30.3988961915
 30
0.0
  0
LINE
  5
41E
100
AcDbEntity
  8
L1_105
  6
CONTINUOUS
 62
         4
100
AcDbLine
 10
1728.0351909048
 20
49.3988961915
 30
0.0
 11
1724.8860921194
 21
49.3988961915
 31
0.0
  0
LINE
  5
41F
100
AcDbEntity
  8
L1_105
  6
CONTINUOUS
 62
         4
100
AcDbLine
 10
1728.0351909048
 20
30.3988961915
 30
0.0
 11
1724.8860921194
 21
30.3988961915
 31
0.0
  0
LINE
  5
420
100
AcDbEntity
  8
L1_105
  6
CONTINUOUS
 62
         4
100
AcDbLine
 10
1725.5610921194
 20
49.3988961915
 30
0.0
 11
1725.5610921194
 21
30.3988961915
 31
0.0
  0
SOLID
  5
421
100
AcDbEntity
  8
L1_105
  6
CONTINUOUS
 62
         4
100
AcDbTrace
 10
1725.5610921194
 20
49.3988961915
 30
0.0
 11
1725.9660921194
 21
46.6988961915
 31
0.0
 12
1725.1560921194
 22
46.6988961915
 32
0.0
 13
1725.5610921194
 23
49.3988961915
 33
0.0
  0
SOLID
  5
422
100
AcDbEntity
  8
L1_105
  6
CONTINUOUS
 62
         4
100
AcDbTrace
 10
1725.5610921194
 20
30.3988961915
 30
0.0
 11
1725.1560921194
 21
33.0988961915
 31
0.0
 12
1725.9660921194
 22
33.0988961915
 32
0.0
 13
1725.5610921194
 23
30.3988961915
 33
0.0
  0
TEXT
  5
424
100
AcDbEntity
  8
L1_105
  6
CONTINUOUS
 62
         4
100
AcDbText
 10
1723.5360921194
 20
34.6985010567
 30
0.0
 40
2.7
  1
崷19
 50
90.0
  7
BOX
100
AcDbText
  0
ENDBLK
  5
425
100
AcDbEntity
  8
0
  6
CONTINUOUS
100
AcDbBlockEnd
  0
BLOCK
  5
427
100
AcDbEntity
  8
0
100
AcDbBlockBegin
  2
*D17
 70
        65
 10
0.0
 20
0.0
 30
0.0
  3
*D17
  1

  0
POINT
  5
429
100
AcDbEntity
  8
DEFPOINTS
  6
CONTINUOUS
 62
         0
100
AcDbPoint
 10
1728.8851909048
 20
57.9523713386
 30
0.0
  0
POINT
  5
42A
100
AcDbEntity
  8
DEFPOINTS
  6
CONTINUOUS
 62
         0
100
AcDbPoint
 10
1728.8851909048
 20
48.8988961915
 30
0.0
  0
POINT
  5
42B
100
AcDbEntity
  8
DEFPOINTS
  6
CONTINUOUS
 62
         0
100
AcDbPoint
 10
1741.0351909048
 20
49.2988961915
 30
0.0
  0
LINE
  5
42C
100
AcDbEntity
  8
L1_105
  6
CONTINUOUS
 62
         4
100
AcDbLine
 10
1728.8851909048
 20
50.2488961915
 30
0.0
 11
1728.8851909048
 21
58.6273713386
 31
0.0
  0
LINE
  5
42D
100
AcDbEntity
  8
L1_105
  6
CONTINUOUS
 62
         4
100
AcDbLine
 10
1741.0351909048
 20
50.6488961915
 30
0.0
 11
1741.0351909048
 21
58.6273713386
 31
0.0
  0
LINE
  5
42E
100
AcDbEntity
  8
L1_105
  6
CONTINUOUS
 62
         4
100
AcDbLine
 10
1728.8851909048
 20
57.9523713386
 30
0.0
 11
1741.0351909048
 21
57.9523713386
 31
0.0
  0
SOLID
  5
42F
100
AcDbEntity
  8
L1_105
  6
CONTINUOUS
 62
         4
100
AcDbTrace
 10
1728.8851909048
 20
57.9523713386
 30
0.0
 11
1731.5851909048
 21
58.3573713386
 31
0.0
 12
1731.5851909048
 22
57.5473713386
 32
0.0
 13
1728.8851909048
 23
57.9523713386
 33
0.0
  0
SOLID
  5
430
100
AcDbEntity
  8
L1_105
  6
CONTINUOUS
 62
         4
100
AcDbTrace
 10
1741.0351909048
 20
57.9523713386
 30
0.0
 11
1738.3351909048
 21
57.5473713386
 31
0.0
 12
1738.3351909048
 22
58.3573713386
 32
0.0
 13
1741.0351909048
 23
57.9523713386
 33
0.0
  0
TEXT
  5
432
100
AcDbEntity
  8
L1_105
  6
CONTINUOUS
 62
         4
100
AcDbText
 10
1728.4354991068
 20
59.9773713386
 30
0.0
 40
2.7
  1
12.15
  7
BOX
100
AcDbText
  0
ENDBLK
  5
433
100
AcDbEntity
  8
0
  6
CONTINUOUS
100
AcDbBlockEnd
  0
BLOCK
  5
435
100
AcDbEntity
  8
0
100
AcDbBlockBegin
  2
*D18
 70
        65
 10
0.0
 20
0.0
 30
0.0
  3
*D18
  1

  0
POINT
  5
437
100
AcDbEntity
  8
DEFPOINTS
  6
CONTINUOUS
 62
         0
100
AcDbPoint
 10
1728.8851909048
 20
52.3503083475
 30
0.0
  0
POINT
  5
438
100
AcDbEntity
  8
DEFPOINTS
  6
CONTINUOUS
 62
         0
100
AcDbPoint
 10
1728.8851909048
 20
49.0988961915
 30
0.0
  0
POINT
  5
439
100
AcDbEntity
  8
DEFPOINTS
  6
CONTINUOUS
 62
         0
100
AcDbPoint
 10
1733.3851909048
 20
49.0988961915
 30
0.0
  0
LINE
  5
43A
100
AcDbEntity
  8
L1_105
  6
CONTINUOUS
 62
         4
100
AcDbLine
 10
1728.8851909048
 20
50.4488961915
 30
0.0
 11
1728.8851909048
 21
53.0253083475
 31
0.0
  0
LINE
  5
43B
100
AcDbEntity
  8
L1_105
  6
CONTINUOUS
 62
         4
100
AcDbLine
 10
1733.3851909048
 20
50.4488961915
 30
0.0
 11
1733.3851909048
 21
53.0253083475
 31
0.0
  0
LINE
  5
43C
100
AcDbEntity
  8
L1_105
  6
CONTINUOUS
 62
         4
100
AcDbLine
 10
1728.8851909048
 20
52.3503083475
 30
0.0
 11
1718.1489331745
 21
52.3503083475
 31
0.0
  0
SOLID
  5
43D
100
AcDbEntity
  8
L1_105
  6
CONTINUOUS
 62
         4
100
AcDbTrace
 10
1728.8851909048
 20
52.3503083475
 30
0.0
 11
1726.1851909048
 21
51.9453083475
 31
0.0
 12
1726.1851909048
 22
52.7553083475
 32
0.0
 13
1728.8851909048
 23
52.3503083475
 33
0.0
  0
LINE
  5
43E
100
AcDbEntity
  8
L1_105
  6
CONTINUOUS
 62
         4
100
AcDbLine
 10
1733.3851909048
 20
52.3503083475
 30
0.0
 11
1738.7851909048
 21
52.3503083475
 31
0.0
  0
SOLID
  5
43F
100
AcDbEntity
  8
L1_105
  6
CONTINUOUS
 62
         4
100
AcDbTrace
 10
1733.3851909048
 20
52.3503083475
 30
0.0
 11
1736.0851909048
 21
52.7553083475
 31
0.0
 12
1736.0851909048
 22
51.9453083475
 32
0.0
 13
1733.3851909048
 23
52.3503083475
 33
0.0
  0
LINE
  5
440
100
AcDbEntity
  8
L1_105
  6
CONTINUOUS
 62
         4
100
AcDbLine
 10
1728.8851909048
 20
52.3503083475
 30
0.0
 11
1733.3851909048
 21
52.3503083475
 31
0.0
  0
TEXT
  5
442
100
AcDbEntity
  8
L1_105
  6
CONTINUOUS
 62
         4
100
AcDbText
 10
1719.4989331745
 20
54.3753083475
 30
0.0
 40
2.7
  1
4.5
  7
BOX
100
AcDbText
  0
ENDBLK
  5
443
100
AcDbEntity
  8
0
  6
CONTINUOUS
100
AcDbBlockEnd
  0
BLOCK
  5
445
100
AcDbEntity
  8
0
100
AcDbBlockBegin
  2
*D19
 70
        65
 10
0.0
 20
0.0
 30
0.0
  3
*D19
  1

  0
POINT
  5
447
100
AcDbEntity
  8
DEFPOINTS
  6
CONTINUOUS
 62
         0
100
AcDbPoint
 10
1739.5351909048
 20
54.4142262916
 30
0.0
  0
POINT
  5
448
100
AcDbEntity
  8
DEFPOINTS
  6
CONTINUOUS
 62
         0
100
AcDbPoint
 10
1739.5351909048
 20
49.2988961915
 30
0.0
  0
POINT
  5
449
100
AcDbEntity
  8
DEFPOINTS
  6
CONTINUOUS
 62
         0
100
AcDbPoint
 10
1741.0351909048
 20
49.2988961915
 30
0.0
  0
LINE
  5
44A
100
AcDbEntity
  8
L1_105
  6
CONTINUOUS
 62
         4
100
AcDbLine
 10
1739.5351909048
 20
50.6488961915
 30
0.0
 11
1739.5351909048
 21
55.0892262916
 31
0.0
  0
LINE
  5
44B
100
AcDbEntity
  8
L1_105
  6
CONTINUOUS
 62
         4
100
AcDbLine
 10
1741.0351909048
 20
50.6488961915
 30
0.0
 11
1741.0351909048
 21
55.0892262916
 31
0.0
  0
LINE
  5
44C
100
AcDbEntity
  8
L1_105
  6
CONTINUOUS
 62
         4
100
AcDbLine
 10
1739.5351909048
 20
54.4142262916
 30
0.0
 11
1734.1351909048
 21
54.4142262916
 31
0.0
  0
SOLID
  5
44D
100
AcDbEntity
  8
L1_105
  6
CONTINUOUS
 62
         4
100
AcDbTrace
 10
1739.5351909048
 20
54.4142262916
 30
0.0
 11
1736.8351909048
 21
54.0092262916
 31
0.0
 12
1736.8351909048
 22
54.8192262916
 32
0.0
 13
1739.5351909048
 23
54.4142262916
 33
0.0
  0
LINE
  5
44E
100
AcDbEntity
  8
L1_105
  6
CONTINUOUS
 62
         4
100
AcDbLine
 10
1741.0351909048
 20
54.4142262916
 30
0.0
 11
1751.9075632572
 21
54.4142262916
 31
0.0
  0
SOLID
  5
44F
100
AcDbEntity
  8
L1_105
  6
CONTINUOUS
 62
         4
100
AcDbTrace
 10
1741.0351909048
 20
54.4142262916
 30
0.0
 11
1743.7351909048
 21
54.8192262916
 31
0.0
 12
1743.7351909048
 22
54.0092262916
 32
0.0
 13
1741.0351909048
 23
54.4142262916
 33
0.0
  0
LINE
  5
450
100
AcDbEntity
  8
L1_105
  6
CONTINUOUS
 62
         4
100
AcDbLine
 10
1739.5351909048
 20
54.4142262916
 30
0.0
 11
1741.0351909048
 21
54.4142262916
 31
0.0
  0
TEXT
  5
452
100
AcDbEntity
  8
L1_105
  6
CONTINUOUS
 62
         4
100
AcDbText
 10
1742.4575632572
 20
56.4392262916
 30
0.0
 40
2.7
  1
1.5
  7
BOX
100
AcDbText
  0
ENDBLK
  5
453
100
AcDbEntity
  8
0
  6
CONTINUOUS
100
AcDbBlockEnd
  0
BLOCK
  5
474
100
AcDbEntity
  8
0
100
AcDbBlockBegin
  2
*D20
 70
        65
 10
0.0
 20
0.0
 30
0.0
  3
*D20
  1

  0
POINT
  5
476
100
AcDbEntity
  8
DEFPOINTS
  6
CONTINUOUS
 62
         0
100
AcDbPoint
 10
1758.1775800412
 20
56.8988961915
 30
0.0
  0
POINT
  5
477
100
AcDbEntity
  8
DEFPOINTS
  6
CONTINUOUS
 62
         0
100
AcDbPoint
 10
1761.1251909048
 20
56.8988961915
 30
0.0
  0
POINT
  5
478
100
AcDbEntity
  8
DEFPOINTS
  6
CONTINUOUS
 62
         0
100
AcDbPoint
 10
1761.1251909048
 20
22.8988961915
 30
0.0
  0
LINE
  5
479
100
AcDbEntity
  8
L1_105
  6
CONTINUOUS
 62
         4
100
AcDbLine
 10
1759.7751909048
 20
56.8988961915
 30
0.0
 11
1757.5025800412
 21
56.8988961915
 31
0.0
  0
LINE
  5
47A
100
AcDbEntity
  8
L1_105
  6
CONTINUOUS
 62
         4
100
AcDbLine
 10
1759.7751909048
 20
22.8988961915
 30
0.0
 11
1757.5025800412
 21
22.8988961915
 31
0.0
  0
LINE
  5
47B
100
AcDbEntity
  8
L1_105
  6
CONTINUOUS
 62
         4
100
AcDbLine
 10
1758.1775800412
 20
56.8988961915
 30
0.0
 11
1758.1775800412
 21
22.8988961915
 31
0.0
  0
SOLID
  5
47C
100
AcDbEntity
  8
L1_105
  6
CONTINUOUS
 62
         4
100
AcDbTrace
 10
1758.1775800412
 20
56.8988961915
 30
0.0
 11
1758.5825800412
 21
54.1988961915
 31
0.0
 12
1757.7725800412
 22
54.1988961915
 32
0.0
 13
1758.1775800412
 23
56.8988961915
 33
0.0
  0
SOLID
  5
47D
100
AcDbEntity
  8
L1_105
  6
CONTINUOUS
 62
         4
100
AcDbTrace
 10
1758.1775800412
 20
22.8988961915
 30
0.0
 11
1757.7725800412
 21
25.5988961915
 31
0.0
 12
1758.5825800412
 22
25.5988961915
 32
0.0
 13
1758.1775800412
 23
22.8988961915
 33
0.0
  0
TEXT
  5
47F
100
AcDbEntity
  8
L1_105
  6
CONTINUOUS
 62
         4
100
AcDbText
 10
1756.1525800412
 20
28.7211117172
 30
0.0
 40
2.7
  1
崷33.99
 50
90.0
  7
BOX
100
AcDbText
  0
ENDBLK
  5
480
100
AcDbEntity
  8
0
  6
CONTINUOUS
100
AcDbBlockEnd
  0
BLOCK
  5
482
100
AcDbEntity
  8
0
100
AcDbBlockBegin
  2
*D21
 70
        65
 10
0.0
 20
0.0
 30
0.0
  3
*D21
  1

  0
POINT
  5
484
100
AcDbEntity
  8
DEFPOINTS
  6
CONTINUOUS
 62
         0
100
AcDbPoint
 10
1799.3675165762
 20
59.3988961915
 30
0.0
  0
POINT
  5
485
100
AcDbEntity
  8
DEFPOINTS
  6
CONTINUOUS
 62
         0
100
AcDbPoint
 10
1791.9251909048
 20
59.3988961915
 30
0.0
  0
POINT
  5
486
100
AcDbEntity
  8
DEFPOINTS
  6
CONTINUOUS
 62
         0
100
AcDbPoint
 10
1791.9251909048
 20
20.3988961915
 30
0.0
  0
LINE
  5
487
100
AcDbEntity
  8
L1_105
  6
CONTINUOUS
 62
         4
100
AcDbLine
 10
1793.2751909048
 20
59.3988961915
 30
0.0
 11
1800.0425165762
 21
59.3988961915
 31
0.0
  0
LINE
  5
488
100
AcDbEntity
  8
L1_105
  6
CONTINUOUS
 62
         4
100
AcDbLine
 10
1793.2751909048
 20
20.3988961915
 30
0.0
 11
1800.0425165762
 21
20.3988961915
 31
0.0
  0
LINE
  5
489
100
AcDbEntity
  8
L1_105
  6
CONTINUOUS
 62
         4
100
AcDbLine
 10
1799.3675165762
 20
59.3988961915
 30
0.0
 11
1799.3675165762
 21
20.3988961915
 31
0.0
  0
SOLID
  5
48A
100
AcDbEntity
  8
L1_105
  6
CONTINUOUS
 62
         4
100
AcDbTrace
 10
1799.3675165762
 20
59.3988961915
 30
0.0
 11
1799.7725165762
 21
56.6988961915
 31
0.0
 12
1798.9625165762
 22
56.6988961915
 32
0.0
 13
1799.3675165762
 23
59.3988961915
 33
0.0
  0
SOLID
  5
48B
100
AcDbEntity
  8
L1_105
  6
CONTINUOUS
 62
         4
100
AcDbTrace
 10
1799.3675165762
 20
20.3988961915
 30
0.0
 11
1798.9625165762
 21
23.0988961915
 31
0.0
 12
1799.7725165762
 22
23.0988961915
 32
0.0
 13
1799.3675165762
 23
20.3988961915
 33
0.0
  0
TEXT
  5
48D
100
AcDbEntity
  8
L1_105
  6
CONTINUOUS
 62
         4
100
AcDbText
 10
1797.3425165762
 20
35.4298883583
 30
0.0
 40
2.7
  1
崷39
 50
90.0
  7
BOX
100
AcDbText
  0
ENDBLK
  5
48E
100
AcDbEntity
  8
0
  6
CONTINUOUS
100
AcDbBlockEnd
  0
BLOCK
  5
490
100
AcDbEntity
  8
0
100
AcDbBlockBegin
  2
*D22
 70
        65
 10
0.0
 20
0.0
 30
0.0
  3
*D22
  1

  0
POINT
  5
492
100
AcDbEntity
  8
DEFPOINTS
  6
CONTINUOUS
 62
         0
100
AcDbPoint
 10
1792.4251909048
 20
62.6499622429
 30
0.0
  0
POINT
  5
493
100
AcDbEntity
  8
DEFPOINTS
  6
CONTINUOUS
 62
         0
100
AcDbPoint
 10
1792.4251909048
 20
58.8988961915
 30
0.0
  0
POINT
  5
494
100
AcDbEntity
  8
DEFPOINTS
  6
CONTINUOUS
 62
         0
100
AcDbPoint
 10
1785.4251909048
 20
58.8988961915
 30
0.0
  0
LINE
  5
495
100
AcDbEntity
  8
L1_105
  6
CONTINUOUS
 62
         4
100
AcDbLine
 10
1792.4251909048
 20
60.2488961915
 30
0.0
 11
1792.4251909048
 21
63.3249622429
 31
0.0
  0
LINE
  5
496
100
AcDbEntity
  8
L1_105
  6
CONTINUOUS
 62
         4
100
AcDbLine
 10
1785.4251909048
 20
60.2488961915
 30
0.0
 11
1785.4251909048
 21
63.3249622429
 31
0.0
  0
LINE
  5
497
100
AcDbEntity
  8
L1_105
  6
CONTINUOUS
 62
         4
100
AcDbLine
 10
1792.4251909048
 20
62.6499622429
 30
0.0
 11
1785.4251909048
 21
62.6499622429
 31
0.0
  0
SOLID
  5
498
100
AcDbEntity
  8
L1_105
  6
CONTINUOUS
 62
         4
100
AcDbTrace
 10
1792.4251909048
 20
62.6499622429
 30
0.0
 11
1789.7251909048
 21
62.2449622429
 31
0.0
 12
1789.7251909048
 22
63.0549622429
 32
0.0
 13
1792.4251909048
 23
62.6499622429
 33
0.0
  0
SOLID
  5
499
100
AcDbEntity
  8
L1_105
  6
CONTINUOUS
 62
         4
100
AcDbTrace
 10
1785.4251909048
 20
62.6499622429
 30
0.0
 11
1788.1251909048
 21
63.0549622429
 31
0.0
 12
1788.1251909048
 22
62.2449622429
 32
0.0
 13
1785.4251909048
 23
62.6499622429
 33
0.0
  0
TEXT
  5
49B
100
AcDbEntity
  8
L1_105
  6
CONTINUOUS
 62
         4
100
AcDbText
 10
1787.6199700194
 20
64.6749622429
 30
0.0
 40
2.7
  1
7
  7
BOX
100
AcDbText
  0
ENDBLK
  5
49C
100
AcDbEntity
  8
0
  6
CONTINUOUS
100
AcDbBlockEnd
  0
BLOCK
  5
49E
100
AcDbEntity
  8
0
100
AcDbBlockBegin
  2
*D23
 70
        65
 10
0.0
 20
0.0
 30
0.0
  3
*D23
  1

  0
POINT
  5
4A0
100
AcDbEntity
  8
DEFPOINTS
  6
CONTINUOUS
 62
         0
100
AcDbPoint
 10
1792.4251909048
 20
69.3602080513
 30
0.0
  0
POINT
  5
4A1
100
AcDbEntity
  8
DEFPOINTS
  6
CONTINUOUS
 62
         0
100
AcDbPoint
 10
1792.4251909048
 20
58.8988961915
 30
0.0
  0
POINT
  5
4A2
100
AcDbEntity
  8
DEFPOINTS
  6
CONTINUOUS
 62
         0
100
AcDbPoint
 10
1760.9251909048
 20
56.6988961915
 30
0.0
  0
LINE
  5
4A3
100
AcDbEntity
  8
L1_105
  6
CONTINUOUS
 62
         4
100
AcDbLine
 10
1792.4251909048
 20
60.2488961915
 30
0.0
 11
1792.4251909048
 21
70.0352080513
 31
0.0
  0
LINE
  5
4A4
100
AcDbEntity
  8
L1_105
  6
CONTINUOUS
 62
         4
100
AcDbLine
 10
1760.9251909048
 20
58.0488961915
 30
0.0
 11
1760.9251909048
 21
70.0352080513
 31
0.0
  0
LINE
  5
4A5
100
AcDbEntity
  8
L1_105
  6
CONTINUOUS
 62
         4
100
AcDbLine
 10
1792.4251909048
 20
69.3602080513
 30
0.0
 11
1760.9251909048
 21
69.3602080513
 31
0.0
  0
SOLID
  5
4A6
100
AcDbEntity
  8
L1_105
  6
CONTINUOUS
 62
         4
100
AcDbTrace
 10
1792.4251909048
 20
69.3602080513
 30
0.0
 11
1789.7251909048
 21
68.9552080513
 31
0.0
 12
1789.7251909048
 22
69.7652080513
 32
0.0
 13
1792.4251909048
 23
69.3602080513
 33
0.0
  0
SOLID
  5
4A7
100
AcDbEntity
  8
L1_105
  6
CONTINUOUS
 62
         4
100
AcDbTrace
 10
1760.9251909048
 20
69.3602080513
 30
0.0
 11
1763.6251909048
 21
69.7652080513
 31
0.0
 12
1763.6251909048
 22
68.9552080513
 32
0.0
 13
1760.9251909048
 23
69.3602080513
 33
0.0
  0
TEXT
  5
4A9
100
AcDbEntity
  8
L1_105
  6
CONTINUOUS
 62
         4
100
AcDbText
 10
1770.2001217671
 20
71.3852080513
 30
0.0
 40
2.7
  1
31.5
  7
BOX
100
AcDbText
  0
ENDBLK
  5
4AA
100
AcDbEntity
  8
0
  6
CONTINUOUS
100
AcDbBlockEnd
  0
BLOCK
  5
4C5
100
AcDbEntity
  8
0
100
AcDbBlockBegin
  2
*D24
 70
        65
 10
0.0
 20
0.0
 30
0.0
  3
*D24
  1

  0
POINT
  5
4C7
100
AcDbEntity
  8
DEFPOINTS
  6
CONTINUOUS
 62
         0
100
AcDbPoint
 10
1521.6062308625
 20
-21.9964409178
 30
0.0
  0
POINT
  5
4C8
100
AcDbEntity
  8
DEFPOINTS
  6
CONTINUOUS
 62
         0
100
AcDbPoint
 10
1521.6062308625
 20
-13.7834610085
 30
0.0
  0
POINT
  5
4C9
100
AcDbEntity
  8
DEFPOINTS
  6
CONTINUOUS
 62
         0
100
AcDbPoint
 10
1532.8562308625
 20
-14.2834610085
 30
0.0
  0
LINE
  5
4CA
100
AcDbEntity
  8
L1_105
  6
CONTINUOUS
 62
         4
100
AcDbLine
 10
1521.6062308625
 20
-15.1334610085
 30
0.0
 11
1521.6062308625
 21
-22.6714409178
 31
0.0
  0
LINE
  5
4CB
100
AcDbEntity
  8
L1_105
  6
CONTINUOUS
 62
         4
100
AcDbLine
 10
1532.8562308625
 20
-15.6334610085
 30
0.0
 11
1532.8562308625
 21
-22.6714409178
 31
0.0
  0
LINE
  5
4CC
100
AcDbEntity
  8
L1_105
  6
CONTINUOUS
 62
         4
100
AcDbLine
 10
1521.6062308625
 20
-21.9964409178
 30
0.0
 11
1532.8562308625
 21
-21.9964409178
 31
0.0
  0
SOLID
  5
4CD
100
AcDbEntity
  8
L1_105
  6
CONTINUOUS
 62
         4
100
AcDbTrace
 10
1521.6062308625
 20
-21.9964409178
 30
0.0
 11
1524.3062308625
 21
-21.5914409178
 31
0.0
 12
1524.3062308625
 22
-22.4014409178
 32
0.0
 13
1521.6062308625
 23
-21.9964409178
 33
0.0
  0
SOLID
  5
4CE
100
AcDbEntity
  8
L1_105
  6
CONTINUOUS
 62
         4
100
AcDbTrace
 10
1532.8562308625
 20
-21.9964409178
 30
0.0
 11
1530.1562308625
 21
-22.4014409178
 31
0.0
 12
1530.1562308625
 22
-21.5914409178
 32
0.0
 13
1532.8562308625
 23
-21.9964409178
 33
0.0
  0
TEXT
  5
4D0
100
AcDbEntity
  8
L1_105
  6
CONTINUOUS
 62
         4
100
AcDbText
 10
1520.4812308625
 20
-19.9714409178
 30
0.0
 40
2.7
  1
11.25
  7
BOX
100
AcDbText
  0
ENDBLK
  5
4D1
100
AcDbEntity
  8
0
  6
CONTINUOUS
100
AcDbBlockEnd
  0
BLOCK
  5
4D3
100
AcDbEntity
  8
0
100
AcDbBlockBegin
  2
*D25
 70
        65
 10
0.0
 20
0.0
 30
0.0
  3
*D25
  1

  0
POINT
  5
4D5
100
AcDbEntity
  8
DEFPOINTS
  6
CONTINUOUS
 62
         0
100
AcDbPoint
 10
1545.8620592626
 20
-7.3079610085
 30
0.0
  0
POINT
  5
4D6
100
AcDbEntity
  8
DEFPOINTS
  6
CONTINUOUS
 62
         0
100
AcDbPoint
 10
1533.8317308625
 20
-7.3079610085
 30
0.0
  0
POINT
  5
4D7
100
AcDbEntity
  8
DEFPOINTS
  6
CONTINUOUS
 62
         0
100
AcDbPoint
 10
1533.8317308625
 20
-15.2589610085
 30
0.0
  0
LINE
  5
4D8
100
AcDbEntity
  8
L1_105
  6
CONTINUOUS
 62
         4
100
AcDbLine
 10
1535.1817308625
 20
-7.3079610085
 30
0.0
 11
1546.5370592626
 21
-7.3079610085
 31
0.0
  0
LINE
  5
4D9
100
AcDbEntity
  8
L1_105
  6
CONTINUOUS
 62
         4
100
AcDbLine
 10
1535.1817308625
 20
-15.2589610085
 30
0.0
 11
1546.5370592626
 21
-15.2589610085
 31
0.0
  0
LINE
  5
4DA
100
AcDbEntity
  8
L1_105
  6
CONTINUOUS
 62
         4
100
AcDbLine
 10
1545.8620592626
 20
-7.3079610085
 30
0.0
 11
1545.8620592626
 21
-15.2589610085
 31
0.0
  0
SOLID
  5
4DB
100
AcDbEntity
  8
L1_105
  6
CONTINUOUS
 62
         4
100
AcDbTrace
 10
1545.8620592626
 20
-7.3079610085
 30
0.0
 11
1546.2670592626
 21
-10.0079610085
 31
0.0
 12
1545.4570592626
 22
-10.0079610085
 32
0.0
 13
1545.8620592626
 23
-7.3079610085
 33
0.0
  0
SOLID
  5
4DC
100
AcDbEntity
  8
L1_105
  6
CONTINUOUS
 62
         4
100
AcDbTrace
 10
1545.8620592626
 20
-15.2589610085
 30
0.0
 11
1545.4570592626
 21
-12.5589610085
 31
0.0
 12
1546.2670592626
 22
-12.5589610085
 32
0.0
 13
1545.8620592626
 23
-15.2589610085
 33
0.0
  0
TEXT
  5
4DE
100
AcDbEntity
  8
L1_105
  6
CONTINUOUS
 62
         4
100
AcDbText
 10
1543.8370592626
 20
-20.7334610085
 30
0.0
 40
2.7
  1
崷7.951
 50
90.0
  7
BOX
100
AcDbText
  0
ENDBLK
  5
4DF
100
AcDbEntity
  8
0
  6
CONTINUOUS
100
AcDbBlockEnd
  0
BLOCK
  5
4E9
100
AcDbEntity
  8
0
100
AcDbBlockBegin
  2
*D26
 70
        65
 10
0.0
 20
0.0
 30
0.0
  3
*D26
  1

  0
POINT
  5
4EB
100
AcDbEntity
  8
DEFPOINTS
  6
CONTINUOUS
 62
         0
100
AcDbPoint
 10
1706.5933441491
 20
10.2165389915
 30
0.0
  0
POINT
  5
4EC
100
AcDbEntity
  8
DEFPOINTS
  6
CONTINUOUS
 62
         0
100
AcDbPoint
 10
1715.8608751899
 20
10.2165389915
 30
0.0
  0
POINT
  5
4ED
100
AcDbEntity
  8
DEFPOINTS
  6
CONTINUOUS
 62
         0
100
AcDbPoint
 10
1715.8608751899
 20
-32.7834610085
 30
0.0
  0
LINE
  5
4EE
100
AcDbEntity
  8
L1_105
  6
CONTINUOUS
 62
         4
100
AcDbLine
 10
1714.5108751899
 20
10.2165389915
 30
0.0
 11
1705.9183441491
 21
10.2165389915
 31
0.0
  0
LINE
  5
4EF
100
AcDbEntity
  8
L1_105
  6
CONTINUOUS
 62
         4
100
AcDbLine
 10
1714.5108751899
 20
-32.7834610085
 30
0.0
 11
1705.9183441491
 21
-32.7834610085
 31
0.0
  0
LINE
  5
4F0
100
AcDbEntity
  8
L1_105
  6
CONTINUOUS
 62
         4
100
AcDbLine
 10
1706.5933441491
 20
10.2165389915
 30
0.0
 11
1706.5933441491
 21
-32.7834610085
 31
0.0
  0
SOLID
  5
4F1
100
AcDbEntity
  8
L1_105
  6
CONTINUOUS
 62
         4
100
AcDbTrace
 10
1706.5933441491
 20
10.2165389915
 30
0.0
 11
1706.9983441491
 21
7.5165389915
 31
0.0
 12
1706.1883441491
 22
7.5165389915
 32
0.0
 13
1706.5933441491
 23
10.2165389915
 33
0.0
  0
SOLID
  5
4F2
100
AcDbEntity
  8
L1_105
  6
CONTINUOUS
 62
         4
100
AcDbTrace
 10
1706.5933441491
 20
-32.7834610085
 30
0.0
 11
1706.1883441491
 21
-30.0834610085
 31
0.0
 12
1706.9983441491
 22
-30.0834610085
 32
0.0
 13
1706.5933441491
 23
-32.7834610085
 33
0.0
  0
TEXT
  5
4F4
100
AcDbEntity
  8
L1_105
  6
CONTINUOUS
 62
         4
100
AcDbText
 10
1704.5683441491
 20
-16.6834610085
 30
0.0
 40
2.7
  1
崷42
 50
90.0
  7
BOX
100
AcDbText
  0
ENDBLK
  5
4F5
100
AcDbEntity
  8
0
  6
CONTINUOUS
100
AcDbBlockEnd
  0
BLOCK
  5
4F9
100
AcDbEntity
  8
0
100
AcDbBlockBegin
  2
*D27
 70
        65
 10
0.0
 20
0.0
 30
0.0
  3
*D27
  1

  0
POINT
  5
4FB
100
AcDbEntity
  8
DEFPOINTS
  6
CONTINUOUS
 62
         0
100
AcDbPoint
 10
1679.8515303315
 20
-1.0334610085
 30
0.0
  0
POINT
  5
4FC
100
AcDbEntity
  8
DEFPOINTS
  6
CONTINUOUS
 62
         0
100
AcDbPoint
 10
1686.9259824244
 20
-1.0334610085
 30
0.0
  0
POINT
  5
4FD
100
AcDbEntity
  8
DEFPOINTS
  6
CONTINUOUS
 62
         0
100
AcDbPoint
 10
1686.9259824244
 20
-21.5334610085
 30
0.0
  0
LINE
  5
4FE
100
AcDbEntity
  8
L1_105
  6
CONTINUOUS
 62
         4
100
AcDbLine
 10
1685.5759824244
 20
-1.0334610085
 30
0.0
 11
1679.1765303315
 21
-1.0334610085
 31
0.0
  0
LINE
  5
4FF
100
AcDbEntity
  8
L1_105
  6
CONTINUOUS
 62
         4
100
AcDbLine
 10
1685.5759824244
 20
-21.5334610085
 30
0.0
 11
1679.1765303315
 21
-21.5334610085
 31
0.0
  0
LINE
  5
500
100
AcDbEntity
  8
L1_105
  6
CONTINUOUS
 62
         4
100
AcDbLine
 10
1679.8515303315
 20
-1.0334610085
 30
0.0
 11
1679.8515303315
 21
-21.5334610085
 31
0.0
  0
SOLID
  5
501
100
AcDbEntity
  8
L1_105
  6
CONTINUOUS
 62
         4
100
AcDbTrace
 10
1679.8515303315
 20
-1.0334610085
 30
0.0
 11
1680.2565303315
 21
-3.7334610085
 31
0.0
 12
1679.4465303315
 22
-3.7334610085
 32
0.0
 13
1679.8515303315
 23
-1.0334610085
 33
0.0
  0
SOLID
  5
502
100
AcDbEntity
  8
L1_105
  6
CONTINUOUS
 62
         4
100
AcDbTrace
 10
1679.8515303315
 20
-21.5334610085
 30
0.0
 11
1679.4465303315
 21
-18.8334610085
 31
0.0
 12
1680.2565303315
 22
-18.8334610085
 32
0.0
 13
1679.8515303315
 23
-21.5334610085
 33
0.0
  0
TEXT
  5
504
100
AcDbEntity
  8
L1_105
  6
CONTINUOUS
 62
         4
100
AcDbText
 10
1677.8265303315
 20
-19.3834610085
 30
0.0
 40
2.7
  1
崷20.5
 50
90.0
  7
BOX
100
AcDbText
  0
ENDBLK
  5
505
100
AcDbEntity
  8
0
  6
CONTINUOUS
100
AcDbBlockEnd
  0
BLOCK
  5
50B
100
AcDbEntity
  8
0
100
AcDbBlockBegin
  2
*D28
 70
        65
 10
0.0
 20
0.0
 30
0.0
  3
*D28
  1

  0
POINT
  5
50D
100
AcDbEntity
  8
DEFPOINTS
  6
CONTINUOUS
 62
         0
100
AcDbPoint
 10
1644.0062542597
 20
-12.5758625328
 30
0.0
  0
POINT
  5
50E
100
AcDbEntity
  8
DEFPOINTS
  6
CONTINUOUS
 62
         0
100
AcDbPoint
 10
1653.1738285409
 20
-9.9910594843
 30
0.0
  0
LINE
  5
50F
100
AcDbEntity
  8
L1_105
  6
CONTINUOUS
 62
         4
100
AcDbLine
 10
1653.1738285409
 20
-9.9910594843
 30
0.0
 11
1648.5900414003
 21
-11.2834610085
 31
0.0
  0
SOLID
  5
510
100
AcDbEntity
  8
L1_105
  6
CONTINUOUS
 62
         4
100
AcDbTrace
 10
1653.1738285409
 20
-9.9910594843
 30
0.0
 11
1650.685051079
 21
-11.1135619321
 31
0.0
 12
1650.465241056
 22
-10.33395719
 32
0.0
 13
1653.1738285409
 23
-9.9910594843
 33
0.0
  0
LINE
  5
511
100
AcDbEntity
  8
L1_105
  6
CONTINUOUS
 62
         4
100
AcDbLine
 10
1648.5900414003
 20
-11.2834610085
 30
0.0
 11
1644.0062542597
 21
-12.5758625328
 31
0.0
  0
SOLID
  5
512
100
AcDbEntity
  8
L1_105
  6
CONTINUOUS
 62
         4
100
AcDbTrace
 10
1644.0062542597
 20
-12.5758625328
 30
0.0
 11
1646.4950317216
 21
-11.453360085
 31
0.0
 12
1646.7148417446
 22
-12.2329648271
 32
0.0
 13
1644.0062542597
 23
-12.5758625328
 33
0.0
  0
LINE
  5
513
100
AcDbEntity
  8
L1_105
  6
CONTINUOUS
 62
         4
100
AcDbLine
 10
1653.1738285409
 20
-9.9910594843
 30
0.0
 11
1671.08052041
 21
-4.9422570082
 31
0.0
  0
TEXT
  5
515
100
AcDbEntity
  8
L1_105
  6
CONTINUOUS
 62
         4
100
AcDbText
 10
1654.0116740003
 20
-8.4005826215
 30
0.0
 40
2.7
  1
崷9.53
 50
15.7458298425
  7
BOX
100
AcDbText
  0
ENDBLK
  5
516
100
AcDbEntity
  8
0
  6
CONTINUOUS
100
AcDbBlockEnd
  0
BLOCK
  5
519
100
AcDbEntity
  8
0
100
AcDbBlockBegin
  2
*D29
 70
        65
 10
0.0
 20
0.0
 30
0.0
  3
*D29
  1

  0
POINT
  5
51B
100
AcDbEntity
  8
DEFPOINTS
  6
CONTINUOUS
 62
         0
100
AcDbPoint
 10
1532.8562308625
 20
-1.8838543452
 30
0.0
  0
POINT
  5
51C
100
AcDbEntity
  8
DEFPOINTS
  6
CONTINUOUS
 62
         0
100
AcDbPoint
 10
1532.8562308625
 20
-8.2834610085
 30
0.0
  0
POINT
  5
51D
100
AcDbEntity
  8
DEFPOINTS
  6
CONTINUOUS
 62
         0
100
AcDbPoint
 10
1567.8562308625
 20
-5.2834610085
 30
0.0
  0
LINE
  5
51E
100
AcDbEntity
  8
L1_105
  6
CONTINUOUS
 62
         4
100
AcDbLine
 10
1532.8562308625
 20
-6.9334610085
 30
0.0
 11
1532.8562308625
 21
-1.2088543452
 31
0.0
  0
LINE
  5
51F
100
AcDbEntity
  8
L1_105
  6
CONTINUOUS
 62
         4
100
AcDbLine
 10
1567.8562308625
 20
-3.9334610085
 30
0.0
 11
1567.8562308625
 21
-1.2088543452
 31
0.0
  0
LINE
  5
520
100
AcDbEntity
  8
L1_105
  6
CONTINUOUS
 62
         4
100
AcDbLine
 10
1532.8562308625
 20
-1.8838543452
 30
0.0
 11
1567.8562308625
 21
-1.8838543452
 31
0.0
  0
SOLID
  5
521
100
AcDbEntity
  8
L1_105
  6
CONTINUOUS
 62
         4
100
AcDbTrace
 10
1532.8562308625
 20
-1.8838543452
 30
0.0
 11
1535.5562308625
 21
-1.4788543452
 31
0.0
 12
1535.5562308625
 22
-2.2888543452
 32
0.0
 13
1532.8562308625
 23
-1.8838543452
 33
0.0
  0
SOLID
  5
522
100
AcDbEntity
  8
L1_105
  6
CONTINUOUS
 62
         4
100
AcDbTrace
 10
1567.8562308625
 20
-1.8838543452
 30
0.0
 11
1565.1562308625
 21
-2.2888543452
 31
0.0
 12
1565.1562308625
 22
-1.4788543452
 32
0.0
 13
1567.8562308625
 23
-1.8838543452
 33
0.0
  0
TEXT
  5
524
100
AcDbEntity
  8
L1_105
  6
CONTINUOUS
 62
         4
100
AcDbText
 10
1546.4643361436
 20
0.1411456548
 30
0.0
 40
2.7
  1
35
  7
BOX
100
AcDbText
  0
ENDBLK
  5
525
100
AcDbEntity
  8
0
  6
CONTINUOUS
100
AcDbBlockEnd
  0
BLOCK
  5
527
100
AcDbEntity
  8
0
100
AcDbBlockBegin
  2
*D30
 70
        65
 10
0.0
 20
0.0
 30
0.0
  3
*D30
  1

  0
POINT
  5
529
100
AcDbEntity
  8
DEFPOINTS
  6
CONTINUOUS
 62
         0
100
AcDbPoint
 10
1597.6092766679
 20
-9.2834610085
 30
0.0
  0
POINT
  5
52A
100
AcDbEntity
  8
DEFPOINTS
  6
CONTINUOUS
 62
         0
100
AcDbPoint
 10
1589.919738686
 20
-9.2834610085
 30
0.0
  0
POINT
  5
52B
100
AcDbEntity
  8
DEFPOINTS
  6
CONTINUOUS
 62
         0
100
AcDbPoint
 10
1589.919738686
 20
-13.2834610085
 30
0.0
  0
LINE
  5
52C
100
AcDbEntity
  8
L1_105
  6
CONTINUOUS
 62
         4
100
AcDbLine
 10
1591.269738686
 20
-9.2834610085
 30
0.0
 11
1598.2842766679
 21
-9.2834610085
 31
0.0
  0
LINE
  5
52D
100
AcDbEntity
  8
L1_105
  6
CONTINUOUS
 62
         4
100
AcDbLine
 10
1591.269738686
 20
-13.2834610085
 30
0.0
 11
1598.2842766679
 21
-13.2834610085
 31
0.0
  0
LINE
  5
52E
100
AcDbEntity
  8
L1_105
  6
CONTINUOUS
 62
         4
100
AcDbLine
 10
1597.6092766679
 20
-9.2834610085
 30
0.0
 11
1597.6092766679
 21
-13.2834610085
 31
0.0
  0
SOLID
  5
52F
100
AcDbEntity
  8
L1_105
  6
CONTINUOUS
 62
         4
100
AcDbTrace
 10
1597.6092766679
 20
-9.2834610085
 30
0.0
 11
1598.0142766679
 21
-11.9834610085
 31
0.0
 12
1597.2042766679
 22
-11.9834610085
 32
0.0
 13
1597.6092766679
 23
-9.2834610085
 33
0.0
  0
SOLID
  5
530
100
AcDbEntity
  8
L1_105
  6
CONTINUOUS
 62
         4
100
AcDbTrace
 10
1597.6092766679
 20
-13.2834610085
 30
0.0
 11
1597.2042766679
 21
-10.5834610085
 31
0.0
 12
1598.0142766679
 22
-10.5834610085
 32
0.0
 13
1597.6092766679
 23
-13.2834610085
 33
0.0
  0
TEXT
  5
532
100
AcDbEntity
  8
L1_105
  6
CONTINUOUS
 62
         4
100
AcDbText
 10
1595.5842766679
 20
-12.6334610085
 30
0.0
 40
2.7
  1
4
 50
90.0
  7
BOX
100
AcDbText
  0
ENDBLK
  5
533
100
AcDbEntity
  8
0
  6
CONTINUOUS
100
AcDbBlockEnd
  0
BLOCK
  5
53B
100
AcDbEntity
  8
0
100
AcDbBlockBegin
  2
*D31
 70
        65
 10
0.0
 20
0.0
 30
0.0
  3
*D31
  1

  0
POINT
  5
53D
100
AcDbEntity
  8
DEFPOINTS
  6
CONTINUOUS
 62
         0
100
AcDbPoint
 10
1586.4556370709
 20
-2.9604078833
 30
0.0
  0
POINT
  5
53E
100
AcDbEntity
  8
DEFPOINTS
  6
CONTINUOUS
 62
         0
100
AcDbPoint
 10
1586.4556370709
 20
-11.2834610085
 30
0.0
  0
POINT
  5
53F
100
AcDbEntity
  8
DEFPOINTS
  6
CONTINUOUS
 62
         0
100
AcDbPoint
 10
1591.0744392244
 20
-11.2834610085
 30
0.0
  0
LINE
  5
540
100
AcDbEntity
  8
L1_105
  6
CONTINUOUS
 62
         4
100
AcDbLine
 10
1586.4556370709
 20
-9.9334610085
 30
0.0
 11
1586.4556370709
 21
-2.2854078833
 31
0.0
  0
LINE
  5
541
100
AcDbEntity
  8
L1_105
  6
CONTINUOUS
 62
         4
100
AcDbLine
 10
1591.0744392244
 20
-9.9334610085
 30
0.0
 11
1591.0744392244
 21
-2.2854078833
 31
0.0
  0
LINE
  5
542
100
AcDbEntity
  8
L1_105
  6
CONTINUOUS
 62
         4
100
AcDbLine
 10
1586.4556370709
 20
-2.9604078833
 30
0.0
 11
1591.0744392244
 21
-2.9604078833
 31
0.0
  0
SOLID
  5
543
100
AcDbEntity
  8
L1_105
  6
CONTINUOUS
 62
         4
100
AcDbTrace
 10
1586.4556370709
 20
-2.9604078833
 30
0.0
 11
1589.1556370709
 21
-2.5554078833
 31
0.0
 12
1589.1556370709
 22
-3.3654078833
 32
0.0
 13
1586.4556370709
 23
-2.9604078833
 33
0.0
  0
SOLID
  5
544
100
AcDbEntity
  8
L1_105
  6
CONTINUOUS
 62
         4
100
AcDbTrace
 10
1591.0744392244
 20
-2.9604078833
 30
0.0
 11
1588.3744392244
 21
-3.3654078833
 31
0.0
 12
1588.3744392244
 22
-2.5554078833
 32
0.0
 13
1591.0744392244
 23
-2.9604078833
 33
0.0
  0
TEXT
  5
546
100
AcDbEntity
  8
L1_105
  6
CONTINUOUS
 62
         4
100
AcDbText
 10
1576.6150381476
 20
-0.9354078833
 30
0.0
 40
2.7
  1
4.53~4.44
  7
BOX
100
AcDbText
  0
ENDBLK
  5
547
100
AcDbEntity
  8
0
  6
CONTINUOUS
100
AcDbBlockEnd
  0
BLOCK
  5
549
100
AcDbEntity
  8
0
100
AcDbBlockBegin
  2
*D32
 70
        65
 10
0.0
 20
0.0
 30
0.0
  3
*D32
  1

  0
POINT
  5
54B
100
AcDbEntity
  8
DEFPOINTS
  6
CONTINUOUS
 62
         0
100
AcDbPoint
 10
1580.3904606652
 20
-4.7834610085
 30
0.0
  0
POINT
  5
54C
100
AcDbEntity
  8
DEFPOINTS
  6
CONTINUOUS
 62
         0
100
AcDbPoint
 10
1572.8562308625
 20
-4.7834610085
 30
0.0
  0
POINT
  5
54D
100
AcDbEntity
  8
DEFPOINTS
  6
CONTINUOUS
 62
         0
100
AcDbPoint
 10
1572.8562308625
 20
-17.7834610085
 30
0.0
  0
LINE
  5
54E
100
AcDbEntity
  8
L1_105
  6
CONTINUOUS
 62
         4
100
AcDbLine
 10
1574.2062308625
 20
-4.7834610085
 30
0.0
 11
1581.0654606652
 21
-4.7834610085
 31
0.0
  0
LINE
  5
54F
100
AcDbEntity
  8
L1_105
  6
CONTINUOUS
 62
         4
100
AcDbLine
 10
1574.2062308625
 20
-17.7834610085
 30
0.0
 11
1581.0654606652
 21
-17.7834610085
 31
0.0
  0
LINE
  5
550
100
AcDbEntity
  8
L1_105
  6
CONTINUOUS
 62
         4
100
AcDbLine
 10
1580.3904606652
 20
-4.7834610085
 30
0.0
 11
1580.3904606652
 21
-17.7834610085
 31
0.0
  0
SOLID
  5
551
100
AcDbEntity
  8
L1_105
  6
CONTINUOUS
 62
         4
100
AcDbTrace
 10
1580.3904606652
 20
-4.7834610085
 30
0.0
 11
1580.7954606652
 21
-7.4834610085
 31
0.0
 12
1579.9854606652
 22
-7.4834610085
 32
0.0
 13
1580.3904606652
 23
-4.7834610085
 33
0.0
  0
SOLID
  5
552
100
AcDbEntity
  8
L1_105
  6
CONTINUOUS
 62
         4
100
AcDbTrace
 10
1580.3904606652
 20
-17.7834610085
 30
0.0
 11
1579.9854606652
 21
-15.0834610085
 31
0.0
 12
1580.7954606652
 22
-15.0834610085
 32
0.0
 13
1580.3904606652
 23
-17.7834610085
 33
0.0
  0
TEXT
  5
554
100
AcDbEntity
  8
L1_105
  6
CONTINUOUS
 62
         4
100
AcDbText
 10
1578.3654606652
 20
-16.8640434139
 30
0.0
 40
2.7
  1
崷13
 50
90.0
  7
BOX
100
AcDbText
  0
ENDBLK
  5
555
100
AcDbEntity
  8
0
  6
CONTINUOUS
100
AcDbBlockEnd
  0
BLOCK
  5
557
100
AcDbEntity
  8
0
100
AcDbBlockBegin
  2
*D33
 70
        65
 10
0.0
 20
0.0
 30
0.0
  3
*D33
  1

  0
POINT
  5
559
100
AcDbEntity
  8
DEFPOINTS
  6
CONTINUOUS
 62
         0
100
AcDbPoint
 10
1733.2275288275
 20
-0.8834610085
 30
0.0
  0
POINT
  5
55A
100
AcDbEntity
  8
DEFPOINTS
  6
CONTINUOUS
 62
         0
100
AcDbPoint
 10
1737.1608751899
 20
-0.8834610085
 30
0.0
  0
POINT
  5
55B
100
AcDbEntity
  8
DEFPOINTS
  6
CONTINUOUS
 62
         0
100
AcDbPoint
 10
1737.1608751899
 20
-21.6834610085
 30
0.0
  0
LINE
  5
55C
100
AcDbEntity
  8
L1_105
  6
CONTINUOUS
 62
         4
100
AcDbLine
 10
1735.8108751899
 20
-0.8834610085
 30
0.0
 11
1732.5525288275
 21
-0.8834610085
 31
0.0
  0
LINE
  5
55D
100
AcDbEntity
  8
L1_105
  6
CONTINUOUS
 62
         4
100
AcDbLine
 10
1735.8108751899
 20
-21.6834610085
 30
0.0
 11
1732.5525288275
 21
-21.6834610085
 31
0.0
  0
LINE
  5
55E
100
AcDbEntity
  8
L1_105
  6
CONTINUOUS
 62
         4
100
AcDbLine
 10
1733.2275288275
 20
-0.8834610085
 30
0.0
 11
1733.2275288275
 21
-21.6834610085
 31
0.0
  0
SOLID
  5
55F
100
AcDbEntity
  8
L1_105
  6
CONTINUOUS
 62
         4
100
AcDbTrace
 10
1733.2275288275
 20
-0.8834610085
 30
0.0
 11
1733.6325288275
 21
-3.5834610085
 31
0.0
 12
1732.8225288275
 22
-3.5834610085
 32
0.0
 13
1733.2275288275
 23
-0.8834610085
 33
0.0
  0
SOLID
  5
560
100
AcDbEntity
  8
L1_105
  6
CONTINUOUS
 62
         4
100
AcDbTrace
 10
1733.2275288275
 20
-21.6834610085
 30
0.0
 11
1732.8225288275
 21
-18.9834610085
 31
0.0
 12
1733.6325288275
 22
-18.9834610085
 32
0.0
 13
1733.2275288275
 23
-21.6834610085
 33
0.0
  0
TEXT
  5
562
100
AcDbEntity
  8
L1_105
  6
CONTINUOUS
 62
         4
100
AcDbText
 10
1731.2025288275
 20
-16.6834610085
 30
0.0
 40
2.7
  1
崷21
 50
90.0
  7
BOX
100
AcDbText
  0
ENDBLK
  5
563
100
AcDbEntity
  8
0
  6
CONTINUOUS
100
AcDbBlockEnd
  0
BLOCK
  5
569
100
AcDbEntity
  8
0
100
AcDbBlockBegin
  2
*D34
 70
        65
 10
0.0
 20
0.0
 30
0.0
  3
*D34
  1

  0
POINT
  5
56B
100
AcDbEntity
  8
DEFPOINTS
  6
CONTINUOUS
 62
         0
100
AcDbPoint
 10
1761.5059026337
 20
2.4665389915
 30
0.0
  0
POINT
  5
56C
100
AcDbEntity
  8
DEFPOINTS
  6
CONTINUOUS
 62
         0
100
AcDbPoint
 10
1765.6108751899
 20
2.4665389915
 30
0.0
  0
POINT
  5
56D
100
AcDbEntity
  8
DEFPOINTS
  6
CONTINUOUS
 62
         0
100
AcDbPoint
 10
1765.6108751899
 20
-25.0334610085
 30
0.0
  0
LINE
  5
56E
100
AcDbEntity
  8
L1_105
  6
CONTINUOUS
 62
         4
100
AcDbLine
 10
1764.2608751899
 20
2.4665389915
 30
0.0
 11
1760.8309026337
 21
2.4665389915
 31
0.0
  0
LINE
  5
56F
100
AcDbEntity
  8
L1_105
  6
CONTINUOUS
 62
         4
100
AcDbLine
 10
1764.2608751899
 20
-25.0334610085
 30
0.0
 11
1760.8309026337
 21
-25.0334610085
 31
0.0
  0
LINE
  5
570
100
AcDbEntity
  8
L1_105
  6
CONTINUOUS
 62
         4
100
AcDbLine
 10
1761.5059026337
 20
2.4665389915
 30
0.0
 11
1761.5059026337
 21
-25.0334610085
 31
0.0
  0
SOLID
  5
571
100
AcDbEntity
  8
L1_105
  6
CONTINUOUS
 62
         4
100
AcDbTrace
 10
1761.5059026337
 20
2.4665389915
 30
0.0
 11
1761.9109026337
 21
-0.2334610085
 31
0.0
 12
1761.1009026337
 22
-0.2334610085
 32
0.0
 13
1761.5059026337
 23
2.4665389915
 33
0.0
  0
SOLID
  5
572
100
AcDbEntity
  8
L1_105
  6
CONTINUOUS
 62
         4
100
AcDbTrace
 10
1761.5059026337
 20
-25.0334610085
 30
0.0
 11
1761.1009026337
 21
-22.3334610085
 31
0.0
 12
1761.9109026337
 22
-22.3334610085
 32
0.0
 13
1761.5059026337
 23
-25.0334610085
 33
0.0
  0
TEXT
  5
574
100
AcDbEntity
  8
L1_105
  6
CONTINUOUS
 62
         4
100
AcDbText
 10
1759.4809026337
 20
-19.3834610085
 30
0.0
 40
2.7
  1
崷26.5
 50
90.0
  7
BOX
100
AcDbText
  0
ENDBLK
  5
575
100
AcDbEntity
  8
0
  6
CONTINUOUS
100
AcDbBlockEnd
  0
BLOCK
  5
57C
100
AcDbEntity
  8
0
100
AcDbBlockBegin
  2
*D35
 70
        65
 10
0.0
 20
0.0
 30
0.0
  3
*D35
  1

  0
POINT
  5
57E
100
AcDbEntity
  8
DEFPOINTS
  6
CONTINUOUS
 62
         0
100
AcDbPoint
 10
1715.3907140513
 20
10.0991195848
 30
0.0
  0
POINT
  5
57F
100
AcDbEntity
  8
DEFPOINTS
  6
CONTINUOUS
 62
         0
100
AcDbPoint
 10
1716.3310363285
 20
8.3339583981
 30
0.0
  0
LINE
  5
580
100
AcDbEntity
  8
L1_105
  6
CONTINUOUS
 62
         4
100
AcDbLine
 10
1716.3310363285
 20
8.3339583981
 30
0.0
 11
1722.0963341247
 21
-2.4885863264
 31
0.0
  0
SOLID
  5
581
100
AcDbEntity
  8
L1_105
  6
CONTINUOUS
 62
         4
100
AcDbTrace
 10
1716.3310363285
 20
8.3339583981
 30
0.0
 11
1717.9579165429
 21
6.1414060571
 31
0.0
 12
1717.2430262623
 22
5.7605755349
 32
0.0
 13
1716.3310363285
 23
8.3339583981
 33
0.0
  0
LINE
  5
582
100
AcDbEntity
  8
L1_105
  6
CONTINUOUS
 62
         4
100
AcDbLine
 10
1715.3907140513
 20
10.0991195848
 30
0.0
 11
1712.851843903
 21
14.865054789
 31
0.0
  0
SOLID
  5
583
100
AcDbEntity
  8
L1_105
  6
CONTINUOUS
 62
         4
100
AcDbTrace
 10
1715.3907140513
 20
10.0991195848
 30
0.0
 11
1713.7638338369
 21
12.2916719258
 31
0.0
 12
1714.4787241175
 22
12.672502448
 32
0.0
 13
1715.3907140513
 23
10.0991195848
 33
0.0
  0
LINE
  5
584
100
AcDbEntity
  8
L1_105
  6
CONTINUOUS
 62
         4
100
AcDbLine
 10
1715.3907140513
 20
10.0991195848
 30
0.0
 11
1716.3310363285
 21
8.3339583981
 31
0.0
  0
TEXT
  5
586
100
AcDbEntity
  8
L1_105
  6
CONTINUOUS
 62
         4
100
AcDbText
 10
1718.4304735443
 20
6.9408037812
 30
0.0
 40
2.7
  1
崷2
 50
298.0447568953
  7
BOX
100
AcDbText
  0
ENDBLK
  5
587
100
AcDbEntity
  8
0
  6
CONTINUOUS
100
AcDbBlockEnd
  0
BLOCK
  5
589
100
AcDbEntity
  8
0
100
AcDbBlockBegin
  2
*D36
 70
        65
 10
0.0
 20
0.0
 30
0.0
  3
*D36
  1

  0
POINT
  5
58B
100
AcDbEntity
  8
DEFPOINTS
  6
CONTINUOUS
 62
         0
100
AcDbPoint
 10
1736.6388892278
 20
-1.0949160658
 30
0.0
  0
POINT
  5
58C
100
AcDbEntity
  8
DEFPOINTS
  6
CONTINUOUS
 62
         0
100
AcDbPoint
 10
1737.682861152
 20
-2.1720059513
 30
0.0
  0
LINE
  5
58D
100
AcDbEntity
  8
L1_105
  6
CONTINUOUS
 62
         4
100
AcDbLine
 10
1737.682861152
 20
-2.1720059513
 30
0.0
 11
1750.3515185979
 21
-15.2425517021
 31
0.0
  0
SOLID
  5
58E
100
AcDbEntity
  8
L1_105
  6
CONTINUOUS
 62
         4
100
AcDbTrace
 10
1737.682861152
 20
-2.1720059513
 30
0.0
 11
1739.8528248847
 21
-3.8288953257
 31
0.0
 12
1739.2711963465
 22
-4.3926401647
 32
0.0
 13
1737.682861152
 23
-2.1720059513
 33
0.0
  0
LINE
  5
58F
100
AcDbEntity
  8
L1_105
  6
CONTINUOUS
 62
         4
100
AcDbLine
 10
1736.6388892278
 20
-1.0949160658
 30
0.0
 11
1732.8805903006
 21
2.782607522
 31
0.0
  0
SOLID
  5
590
100
AcDbEntity
  8
L1_105
  6
CONTINUOUS
 62
         4
100
AcDbTrace
 10
1736.6388892278
 20
-1.0949160658
 30
0.0
 11
1734.4689254951
 21
0.5619733086
 31
0.0
 12
1735.0505540333
 22
1.1257181477
 32
0.0
 13
1736.6388892278
 23
-1.0949160658
 33
0.0
  0
LINE
  5
591
100
AcDbEntity
  8
L1_105
  6
CONTINUOUS
 62
         4
100
AcDbLine
 10
1736.6388892278
 20
-1.0949160658
 30
0.0
 11
1737.682861152
 21
-2.1720059513
 31
0.0
  0
TEXT
  5
593
100
AcDbEntity
  8
L1_105
  6
CONTINUOUS
 62
         4
100
AcDbText
 10
1740.5892466905
 20
-3.3489316271
 30
0.0
 40
2.7
  1
崷1.5
 50
314.1054644322
  7
BOX
100
AcDbText
  0
ENDBLK
  5
594
100
AcDbEntity
  8
0
  6
CONTINUOUS
100
AcDbBlockEnd
  0
BLOCK
  5
596
100
AcDbEntity
  8
0
100
AcDbBlockBegin
  2
*D37
 70
        65
 10
0.0
 20
0.0
 30
0.0
  3
*D37
  1

  0
POINT
  5
598
100
AcDbEntity
  8
DEFPOINTS
  6
CONTINUOUS
 62
         0
100
AcDbPoint
 10
1765.2226493413
 20
2.3582403944
 30
0.0
  0
POINT
  5
599
100
AcDbEntity
  8
DEFPOINTS
  6
CONTINUOUS
 62
         0
100
AcDbPoint
 10
1765.9991010385
 20
1.0748375885
 30
0.0
  0
LINE
  5
59A
100
AcDbEntity
  8
L1_105
  6
CONTINUOUS
 62
         4
100
AcDbLine
 10
1765.9991010385
 20
1.0748375885
 30
0.0
 11
1774.9677123667
 21
-13.7494470194
 31
0.0
  0
SOLID
  5
59B
100
AcDbEntity
  8
L1_105
  6
CONTINUOUS
 62
         4
100
AcDbTrace
 10
1765.9991010385
 20
1.0748375885
 30
0.0
 11
1767.7432328509
 21
-1.0256455037
 31
0.0
 12
1767.0501953358
 22
-1.4449294202
 32
0.0
 13
1765.9991010385
 23
1.0748375885
 33
0.0
  0
LINE
  5
59C
100
AcDbEntity
  8
L1_105
  6
CONTINUOUS
 62
         4
100
AcDbLine
 10
1765.2226493413
 20
2.3582403944
 30
0.0
 11
1762.4274232316
 21
6.9784904953
 31
0.0
  0
SOLID
  5
59D
100
AcDbEntity
  8
L1_105
  6
CONTINUOUS
 62
         4
100
AcDbTrace
 10
1765.2226493413
 20
2.3582403944
 30
0.0
 11
1763.4785175289
 21
4.4587234866
 31
0.0
 12
1764.171555044
 22
4.8780074031
 32
0.0
 13
1765.2226493413
 23
2.3582403944
 33
0.0
  0
LINE
  5
59E
100
AcDbEntity
  8
L1_105
  6
CONTINUOUS
 62
         4
100
AcDbLine
 10
1765.2226493413
 20
2.3582403944
 30
0.0
 11
1765.9991010385
 21
1.0748375885
 31
0.0
  0
TEXT
  5
5A0
100
AcDbEntity
  8
L1_105
  6
CONTINUOUS
 62
         4
100
AcDbText
 10
1768.0532002379
 20
0.0985141475
 30
0.0
 40
2.7
  1
崷1.5
 50
301.1737094167
  7
BOX
100
AcDbText
  0
ENDBLK
  5
5A1
100
AcDbEntity
  8
0
  6
CONTINUOUS
100
AcDbBlockEnd
  0
BLOCK
  5
5A3
100
AcDbEntity
  8
0
100
AcDbBlockBegin
  2
*D38
 70
        65
 10
0.0
 20
0.0
 30
0.0
  3
*D38
  1

  0
POINT
  5
5A5
100
AcDbEntity
  8
DEFPOINTS
  6
CONTINUOUS
 62
         0
100
AcDbPoint
 10
1686.9259824244
 20
9.8075108934
 30
0.0
  0
POINT
  5
5A6
100
AcDbEntity
  8
DEFPOINTS
  6
CONTINUOUS
 62
         0
100
AcDbPoint
 10
1686.9259824244
 20
-1.0334610085
 30
0.0
  0
POINT
  5
5A7
100
AcDbEntity
  8
DEFPOINTS
  6
CONTINUOUS
 62
         0
100
AcDbPoint
 10
1687.9259824244
 20
-1.0334610085
 30
0.0
  0
LINE
  5
5A8
100
AcDbEntity
  8
L1_105
  6
CONTINUOUS
 62
         4
100
AcDbLine
 10
1686.9259824244
 20
0.3165389915
 30
0.0
 11
1686.9259824244
 21
10.4825108934
 31
0.0
  0
LINE
  5
5A9
100
AcDbEntity
  8
L1_105
  6
CONTINUOUS
 62
         4
100
AcDbLine
 10
1687.9259824244
 20
0.3165389915
 30
0.0
 11
1687.9259824244
 21
10.4825108934
 31
0.0
  0
LINE
  5
5AA
100
AcDbEntity
  8
L1_105
  6
CONTINUOUS
 62
         4
100
AcDbLine
 10
1686.9259824244
 20
9.8075108934
 30
0.0
 11
1681.5259824244
 21
9.8075108934
 31
0.0
  0
SOLID
  5
5AB
100
AcDbEntity
  8
L1_105
  6
CONTINUOUS
 62
         4
100
AcDbTrace
 10
1686.9259824244
 20
9.8075108934
 30
0.0
 11
1684.2259824244
 21
9.4025108934
 31
0.0
 12
1684.2259824244
 22
10.2125108934
 32
0.0
 13
1686.9259824244
 23
9.8075108934
 33
0.0
  0
LINE
  5
5AC
100
AcDbEntity
  8
L1_105
  6
CONTINUOUS
 62
         4
100
AcDbLine
 10
1687.9259824244
 20
9.8075108934
 30
0.0
 11
1693.3259824244
 21
9.8075108934
 31
0.0
  0
SOLID
  5
5AD
100
AcDbEntity
  8
L1_105
  6
CONTINUOUS
 62
         4
100
AcDbTrace
 10
1687.9259824244
 20
9.8075108934
 30
0.0
 11
1690.6259824244
 21
10.2125108934
 31
0.0
 12
1690.6259824244
 22
9.4025108934
 32
0.0
 13
1687.9259824244
 23
9.8075108934
 33
0.0
  0
LINE
  5
5AE
100
AcDbEntity
  8
L1_105
  6
CONTINUOUS
 62
         4
100
AcDbLine
 10
1686.9259824244
 20
9.8075108934
 30
0.0
 11
1687.9259824244
 21
9.8075108934
 31
0.0
  0
TEXT
  5
5B0
100
AcDbEntity
  8
L1_105
  6
CONTINUOUS
 62
         4
100
AcDbText
 10
1686.0759824244
 20
11.8325108934
 30
0.0
 40
2.7
  1
1
  7
BOX
100
AcDbText
  0
ENDBLK
  5
5B1
100
AcDbEntity
  8
0
  6
CONTINUOUS
100
AcDbBlockEnd
  0
BLOCK
  5
5B3
100
AcDbEntity
  8
0
100
AcDbBlockBegin
  2
*D39
 70
        65
 10
0.0
 20
0.0
 30
0.0
  3
*D39
  1

  0
POINT
  5
5B5
100
AcDbEntity
  8
DEFPOINTS
  6
CONTINUOUS
 62
         0
100
AcDbPoint
 10
1614.3758077362
 20
-11.9729841967
 30
0.0
  0
POINT
  5
5B6
100
AcDbEntity
  8
DEFPOINTS
  6
CONTINUOUS
 62
         0
100
AcDbPoint
 10
1618.933754104
 20
-10.5939378204
 30
0.0
  0
LINE
  5
5B7
100
AcDbEntity
  8
L1_105
  6
CONTINUOUS
 62
         4
100
AcDbLine
 10
1618.933754104
 20
-10.5939378204
 30
0.0
 11
1639.2826405305
 21
-4.4372049796
 31
0.0
  0
SOLID
  5
5B8
100
AcDbEntity
  8
L1_105
  6
CONTINUOUS
 62
         4
100
AcDbTrace
 10
1618.933754104
 20
-10.5939378204
 30
0.0
 11
1621.4007724599
 21
-9.4243885774
 31
0.0
 12
1621.6353435571
 22
-10.1996797487
 32
0.0
 13
1618.933754104
 23
-10.5939378204
 33
0.0
  0
LINE
  5
5B9
100
AcDbEntity
  8
L1_105
  6
CONTINUOUS
 62
         4
100
AcDbLine
 10
1614.3758077362
 20
-11.9729841967
 30
0.0
 11
1609.2071999272
 21
-13.5367915114
 31
0.0
  0
SOLID
  5
5BA
100
AcDbEntity
  8
L1_105
  6
CONTINUOUS
 62
         4
100
AcDbTrace
 10
1614.3758077362
 20
-11.9729841967
 30
0.0
 11
1611.9087893803
 21
-13.1425334397
 31
0.0
 12
1611.6742182831
 22
-12.3672422684
 32
0.0
 13
1614.3758077362
 23
-11.9729841967
 33
0.0
  0
LINE
  5
5BB
100
AcDbEntity
  8
L1_105
  6
CONTINUOUS
 62
         4
100
AcDbLine
 10
1614.3758077362
 20
-11.9729841967
 30
0.0
 11
1618.933754104
 21
-10.5939378204
 31
0.0
  0
TEXT
  5
5BD
100
AcDbEntity
  8
L1_105
  6
CONTINUOUS
 62
         4
100
AcDbText
 10
1622.2937990588
 20
-8.213738899
 30
0.0
 40
2.7
  1
崷4.76
 50
16.8336477968
  7
BOX
100
AcDbText
  0
ENDBLK
  5
5BE
100
AcDbEntity
  8
0
  6
CONTINUOUS
100
AcDbBlockEnd
  0
BLOCK
  5
5C0
100
AcDbEntity
  8
0
100
AcDbBlockBegin
  2
*D40
 70
        65
 10
0.0
 20
0.0
 30
0.0
  3
*D40
  1

  0
POINT
  5
5C2
100
AcDbEntity
  8
DEFPOINTS
  6
CONTINUOUS
 62
         0
100
AcDbPoint
 10
1513.6739573592
 20
-8.2834610085
 30
0.0
  0
POINT
  5
5C3
100
AcDbEntity
  8
DEFPOINTS
  6
CONTINUOUS
 62
         0
100
AcDbPoint
 10
1522.1062308625
 20
-8.2834610085
 30
0.0
  0
POINT
  5
5C4
100
AcDbEntity
  8
DEFPOINTS
  6
CONTINUOUS
 62
         0
100
AcDbPoint
 10
1522.1062308625
 20
-14.2834610085
 30
0.0
  0
LINE
  5
5C5
100
AcDbEntity
  8
L1_105
  6
CONTINUOUS
 62
         4
100
AcDbLine
 10
1520.7562308625
 20
-8.2834610085
 30
0.0
 11
1512.9989573592
 21
-8.2834610085
 31
0.0
  0
LINE
  5
5C6
100
AcDbEntity
  8
L1_105
  6
CONTINUOUS
 62
         4
100
AcDbLine
 10
1520.7562308625
 20
-14.2834610085
 30
0.0
 11
1512.9989573592
 21
-14.2834610085
 31
0.0
  0
LINE
  5
5C7
100
AcDbEntity
  8
L1_105
  6
CONTINUOUS
 62
         4
100
AcDbLine
 10
1513.6739573592
 20
-8.2834610085
 30
0.0
 11
1513.6739573592
 21
-2.8834610085
 31
0.0
  0
SOLID
  5
5C8
100
AcDbEntity
  8
L1_105
  6
CONTINUOUS
 62
         4
100
AcDbTrace
 10
1513.6739573592
 20
-8.2834610085
 30
0.0
 11
1513.2689573592
 21
-5.5834610085
 31
0.0
 12
1514.0789573592
 22
-5.5834610085
 32
0.0
 13
1513.6739573592
 23
-8.2834610085
 33
0.0
  0
LINE
  5
5C9
100
AcDbEntity
  8
L1_105
  6
CONTINUOUS
 62
         4
100
AcDbLine
 10
1513.6739573592
 20
-14.2834610085
 30
0.0
 11
1513.6739573592
 21
-19.6834610085
 31
0.0
  0
SOLID
  5
5CA
100
AcDbEntity
  8
L1_105
  6
CONTINUOUS
 62
         4
100
AcDbTrace
 10
1513.6739573592
 20
-14.2834610085
 30
0.0
 11
1514.0789573592
 21
-16.9834610085
 31
0.0
 12
1513.2689573592
 22
-16.9834610085
 32
0.0
 13
1513.6739573592
 23
-14.2834610085
 33
0.0
  0
LINE
  5
5CB
100
AcDbEntity
  8
L1_105
  6
CONTINUOUS
 62
         4
100
AcDbLine
 10
1513.6739573592
 20
-8.2834610085
 30
0.0
 11
1513.6739573592
 21
-14.2834610085
 31
0.0
  0
TEXT
  5
5CD
100
AcDbEntity
  8
L1_105
  6
CONTINUOUS
 62
         4
100
AcDbText
 10
1511.6489573592
 20
-18.0334610085
 30
0.0
 40
2.7
  1
M6xP1
 50
90.0
  7
BOX
100
AcDbText
  0
ENDBLK
  5
5CE
100
AcDbEntity
  8
0
  6
CONTINUOUS
100
AcDbBlockEnd
  0
BLOCK
  5
5D0
100
AcDbEntity
  8
0
100
AcDbBlockBegin
  2
*D41
 70
        65
 10
0.0
 20
0.0
 30
0.0
  3
*D41
  1

  0
POINT
  5
5D2
100
AcDbEntity
  8
DEFPOINTS
  6
CONTINUOUS
 62
         0
100
AcDbPoint
 10
1573.3562308625
 20
-24.4279433344
 30
0.0
  0
POINT
  5
5D3
100
AcDbEntity
  8
DEFPOINTS
  6
CONTINUOUS
 62
         0
100
AcDbPoint
 10
1573.3562308625
 20
-17.2834610085
 30
0.0
  0
POINT
  5
5D4
100
AcDbEntity
  8
DEFPOINTS
  6
CONTINUOUS
 62
         0
100
AcDbPoint
 10
1567.8562308625
 20
-17.2834610085
 30
0.0
  0
LINE
  5
5D5
100
AcDbEntity
  8
L1_105
  6
CONTINUOUS
 62
         4
100
AcDbLine
 10
1573.3562308625
 20
-18.6334610085
 30
0.0
 11
1573.3562308625
 21
-25.1029433344
 31
0.0
  0
LINE
  5
5D6
100
AcDbEntity
  8
L1_105
  6
CONTINUOUS
 62
         4
100
AcDbLine
 10
1567.8562308625
 20
-18.6334610085
 30
0.0
 11
1567.8562308625
 21
-25.1029433344
 31
0.0
  0
LINE
  5
5D7
100
AcDbEntity
  8
L1_105
  6
CONTINUOUS
 62
         4
100
AcDbLine
 10
1573.3562308625
 20
-24.4279433344
 30
0.0
 11
1578.7562308625
 21
-24.4279433344
 31
0.0
  0
SOLID
  5
5D8
100
AcDbEntity
  8
L1_105
  6
CONTINUOUS
 62
         4
100
AcDbTrace
 10
1573.3562308625
 20
-24.4279433344
 30
0.0
 11
1576.0562308625
 21
-24.0229433344
 31
0.0
 12
1576.0562308625
 22
-24.8329433344
 32
0.0
 13
1573.3562308625
 23
-24.4279433344
 33
0.0
  0
LINE
  5
5D9
100
AcDbEntity
  8
L1_105
  6
CONTINUOUS
 62
         4
100
AcDbLine
 10
1567.8562308625
 20
-24.4279433344
 30
0.0
 11
1562.4562308625
 21
-24.4279433344
 31
0.0
  0
SOLID
  5
5DA
100
AcDbEntity
  8
L1_105
  6
CONTINUOUS
 62
         4
100
AcDbTrace
 10
1567.8562308625
 20
-24.4279433344
 30
0.0
 11
1565.1562308625
 21
-24.8329433344
 31
0.0
 12
1565.1562308625
 22
-24.0229433344
 32
0.0
 13
1567.8562308625
 23
-24.4279433344
 33
0.0
  0
LINE
  5
5DB
100
AcDbEntity
  8
L1_105
  6
CONTINUOUS
 62
         4
100
AcDbLine
 10
1573.3562308625
 20
-24.4279433344
 30
0.0
 11
1567.8562308625
 21
-24.4279433344
 31
0.0
  0
TEXT
  5
5DD
100
AcDbEntity
  8
L1_105
  6
CONTINUOUS
 62
         4
100
AcDbText
 10
1566.5562308625
 20
-22.4029433344
 30
0.0
 40
2.7
  1
5.5
  7
BOX
100
AcDbText
  0
ENDBLK
  5
5DE
100
AcDbEntity
  8
0
  6
CONTINUOUS
100
AcDbBlockEnd
  0
BLOCK
  5
5E0
100
AcDbEntity
  8
0
100
AcDbBlockBegin
  2
*D42
 70
        65
 10
0.0
 20
0.0
 30
0.0
  3
*D42
  1

  0
POINT
  5
5E2
100
AcDbEntity
  8
DEFPOINTS
  6
CONTINUOUS
 62
         0
100
AcDbPoint
 10
1590.9251909048
 20
24.8436549773
 30
0.0
  0
POINT
  5
5E3
100
AcDbEntity
  8
DEFPOINTS
  6
CONTINUOUS
 62
         0
100
AcDbPoint
 10
1590.9251909048
 20
30.5988961915
 30
0.0
  0
POINT
  5
5E4
100
AcDbEntity
  8
DEFPOINTS
  6
CONTINUOUS
 62
         0
100
AcDbPoint
 10
1595.9251909048
 20
30.9988961915
 30
0.0
  0
LINE
  5
5E5
100
AcDbEntity
  8
L1_105
  6
CONTINUOUS
 62
         4
100
AcDbLine
 10
1590.9251909048
 20
29.2488961915
 30
0.0
 11
1590.9251909048
 21
24.1686549773
 31
0.0
  0
LINE
  5
5E6
100
AcDbEntity
  8
L1_105
  6
CONTINUOUS
 62
         4
100
AcDbLine
 10
1595.9251909048
 20
29.6488961915
 30
0.0
 11
1595.9251909048
 21
24.1686549773
 31
0.0
  0
LINE
  5
5E7
100
AcDbEntity
  8
L1_105
  6
CONTINUOUS
 62
         4
100
AcDbLine
 10
1590.9251909048
 20
24.8436549773
 30
0.0
 11
1585.5251909048
 21
24.8436549773
 31
0.0
  0
SOLID
  5
5E8
100
AcDbEntity
  8
L1_105
  6
CONTINUOUS
 62
         4
100
AcDbTrace
 10
1590.9251909048
 20
24.8436549773
 30
0.0
 11
1588.2251909048
 21
24.4386549773
 31
0.0
 12
1588.2251909048
 22
25.2486549773
 32
0.0
 13
1590.9251909048
 23
24.8436549773
 33
0.0
  0
LINE
  5
5E9
100
AcDbEntity
  8
L1_105
  6
CONTINUOUS
 62
         4
100
AcDbLine
 10
1595.9251909048
 20
24.8436549773
 30
0.0
 11
1601.3251909048
 21
24.8436549773
 31
0.0
  0
SOLID
  5
5EA
100
AcDbEntity
  8
L1_105
  6
CONTINUOUS
 62
         4
100
AcDbTrace
 10
1595.9251909048
 20
24.8436549773
 30
0.0
 11
1598.6251909048
 21
25.2486549773
 31
0.0
 12
1598.6251909048
 22
24.4386549773
 32
0.0
 13
1595.9251909048
 23
24.8436549773
 33
0.0
  0
LINE
  5
5EB
100
AcDbEntity
  8
L1_105
  6
CONTINUOUS
 62
         4
100
AcDbLine
 10
1590.9251909048
 20
24.8436549773
 30
0.0
 11
1595.9251909048
 21
24.8436549773
 31
0.0
  0
TEXT
  5
5ED
100
AcDbEntity
  8
L1_105
  6
CONTINUOUS
 62
         4
100
AcDbText
 10
1592.1713319522
 20
26.8686549773
 30
0.0
 40
2.7
  1
5
  7
BOX
100
AcDbText
  0
ENDBLK
  5
5EE
100
AcDbEntity
  8
0
  6
CONTINUOUS
100
AcDbBlockEnd
  0
BLOCK
  5
64B
100
AcDbEntity
  8
0
100
AcDbBlockBegin
  2
*D43
 70
        65
 10
0.0
 20
0.0
 30
0.0
  3
*D43
  1

  0
POINT
  5
64D
100
AcDbEntity
  8
DEFPOINTS
  6
CONTINUOUS
 62
         0
100
AcDbPoint
 10
1419.7033403763
 20
195.8561525129
 30
0.0
  0
POINT
  5
64E
100
AcDbEntity
  8
DEFPOINTS
  6
CONTINUOUS
 62
         0
100
AcDbPoint
 10
1419.7033403763
 20
167.6072914602
 30
0.0
  0
POINT
  5
64F
100
AcDbEntity
  8
DEFPOINTS
  6
CONTINUOUS
 62
         0
100
AcDbPoint
 10
1366.7033403763
 20
171.6846417294
 30
0.0
  0
LINE
  5
650
100
AcDbEntity
  8
L1_105
  6
CONTINUOUS
 62
         4
100
AcDbLine
 10
1419.7033403763
 20
168.9572914602
 30
0.0
 11
1419.7033403763
 21
196.5311525129
 31
0.0
  0
LINE
  5
651
100
AcDbEntity
  8
L1_105
  6
CONTINUOUS
 62
         4
100
AcDbLine
 10
1366.7033403763
 20
173.0346417294
 30
0.0
 11
1366.7033403763
 21
196.5311525129
 31
0.0
  0
LINE
  5
652
100
AcDbEntity
  8
L1_105
  6
CONTINUOUS
 62
         4
100
AcDbLine
 10
1419.7033403763
 20
195.8561525129
 30
0.0
 11
1366.7033403763
 21
195.8561525129
 31
0.0
  0
SOLID
  5
653
100
AcDbEntity
  8
L1_105
  6
CONTINUOUS
 62
         4
100
AcDbTrace
 10
1419.7033403763
 20
195.8561525129
 30
0.0
 11
1417.0033403763
 21
195.4511525129
 31
0.0
 12
1417.0033403763
 22
196.2611525129
 32
0.0
 13
1419.7033403763
 23
195.8561525129
 33
0.0
  0
SOLID
  5
654
100
AcDbEntity
  8
L1_105
  6
CONTINUOUS
 62
         4
100
AcDbTrace
 10
1366.7033403763
 20
195.8561525129
 30
0.0
 11
1369.4033403763
 21
196.2611525129
 31
0.0
 12
1369.4033403763
 22
195.4511525129
 32
0.0
 13
1366.7033403763
 23
195.8561525129
 33
0.0
  0
TEXT
  5
656
100
AcDbEntity
  8
L1_105
  6
CONTINUOUS
 62
         4
100
AcDbText
 10
1387.122689947
 20
198.9881525129
 30
0.0
 40
2.7
  1
53
  7
BOX
100
AcDbText
  0
ENDBLK
  5
657
100
AcDbEntity
  8
0
  6
CONTINUOUS
100
AcDbBlockEnd
  0
BLOCK
  5
659
100
AcDbEntity
  8
0
100
AcDbBlockBegin
  2
*D44
 70
        65
 10
0.0
 20
0.0
 30
0.0
  3
*D44
  1

  0
POINT
  5
65B
100
AcDbEntity
  8
DEFPOINTS
  6
CONTINUOUS
 62
         0
100
AcDbPoint
 10
1419.7033403763
 20
188.0726960628
 30
0.0
  0
POINT
  5
65C
100
AcDbEntity
  8
DEFPOINTS
  6
CONTINUOUS
 62
         0
100
AcDbPoint
 10
1419.7033403763
 20
167.6072914602
 30
0.0
  0
POINT
  5
65D
100
AcDbEntity
  8
DEFPOINTS
  6
CONTINUOUS
 62
         0
100
AcDbPoint
 10
1398.7033403763
 20
170.6846417294
 30
0.0
  0
LINE
  5
65E
100
AcDbEntity
  8
L1_105
  6
CONTINUOUS
 62
         4
100
AcDbLine
 10
1419.7033403763
 20
168.9572914602
 30
0.0
 11
1419.7033403763
 21
188.7476960628
 31
0.0
  0
LINE
  5
65F
100
AcDbEntity
  8
L1_105
  6
CONTINUOUS
 62
         4
100
AcDbLine
 10
1398.7033403763
 20
172.0346417294
 30
0.0
 11
1398.7033403763
 21
188.7476960628
 31
0.0
  0
LINE
  5
660
100
AcDbEntity
  8
L1_105
  6
CONTINUOUS
 62
         4
100
AcDbLine
 10
1419.7033403763
 20
188.0726960628
 30
0.0
 11
1398.7033403763
 21
188.0726960628
 31
0.0
  0
SOLID
  5
661
100
AcDbEntity
  8
L1_105
  6
CONTINUOUS
 62
         4
100
AcDbTrace
 10
1419.7033403763
 20
188.0726960628
 30
0.0
 11
1417.0033403763
 21
187.6676960628
 31
0.0
 12
1417.0033403763
 22
188.4776960628
 32
0.0
 13
1419.7033403763
 23
188.0726960628
 33
0.0
  0
SOLID
  5
662
100
AcDbEntity
  8
L1_105
  6
CONTINUOUS
 62
         4
100
AcDbTrace
 10
1398.7033403763
 20
188.0726960628
 30
0.0
 11
1401.4033403763
 21
188.4776960628
 31
0.0
 12
1401.4033403763
 22
187.6676960628
 32
0.0
 13
1398.7033403763
 23
188.0726960628
 33
0.0
  0
TEXT
  5
664
100
AcDbEntity
  8
L1_105
  6
CONTINUOUS
 62
         4
100
AcDbText
 10
1402.7042697587
 20
191.2046960628
 30
0.0
 40
2.7
  1
21
  7
BOX
100
AcDbText
  0
ENDBLK
  5
665
100
AcDbEntity
  8
0
  6
CONTINUOUS
100
AcDbBlockEnd
  0
BLOCK
  5
667
100
AcDbEntity
  8
0
100
AcDbBlockBegin
  2
*D45
 70
        65
 10
0.0
 20
0.0
 30
0.0
  3
*D45
  1

  0
POINT
  5
669
100
AcDbEntity
  8
DEFPOINTS
  6
CONTINUOUS
 62
         0
100
AcDbPoint
 10
1398.7033403763
 20
179.0308638944
 30
0.0
  0
POINT
  5
66A
100
AcDbEntity
  8
DEFPOINTS
  6
CONTINUOUS
 62
         0
100
AcDbPoint
 10
1398.7033403763
 20
170.6846417294
 30
0.0
  0
POINT
  5
66B
100
AcDbEntity
  8
DEFPOINTS
  6
CONTINUOUS
 62
         0
100
AcDbPoint
 10
1400.7033403763
 20
170.6846417294
 30
0.0
  0
LINE
  5
66C
100
AcDbEntity
  8
L1_105
  6
CONTINUOUS
 62
         4
100
AcDbLine
 10
1398.7033403763
 20
172.0346417294
 30
0.0
 11
1398.7033403763
 21
179.7058638944
 31
0.0
  0
LINE
  5
66D
100
AcDbEntity
  8
L1_105
  6
CONTINUOUS
 62
         4
100
AcDbLine
 10
1400.7033403763
 20
172.0346417294
 30
0.0
 11
1400.7033403763
 21
179.7058638944
 31
0.0
  0
LINE
  5
66E
100
AcDbEntity
  8
L1_105
  6
CONTINUOUS
 62
         4
100
AcDbLine
 10
1398.7033403763
 20
179.0308638944
 30
0.0
 11
1393.3033403763
 21
179.0308638944
 31
0.0
  0
SOLID
  5
66F
100
AcDbEntity
  8
L1_105
  6
CONTINUOUS
 62
         4
100
AcDbTrace
 10
1398.7033403763
 20
179.0308638944
 30
0.0
 11
1396.0033403763
 21
178.6258638944
 31
0.0
 12
1396.0033403763
 22
179.4358638944
 32
0.0
 13
1398.7033403763
 23
179.0308638944
 33
0.0
  0
LINE
  5
670
100
AcDbEntity
  8
L1_105
  6
CONTINUOUS
 62
         4
100
AcDbLine
 10
1400.7033403763
 20
179.0308638944
 30
0.0
 11
1409.4215850895
 21
179.0308638944
 31
0.0
  0
SOLID
  5
671
100
AcDbEntity
  8
L1_105
  6
CONTINUOUS
 62
         4
100
AcDbTrace
 10
1400.7033403763
 20
179.0308638944
 30
0.0
 11
1403.4033403763
 21
179.4358638944
 31
0.0
 12
1403.4033403763
 22
178.6258638944
 32
0.0
 13
1400.7033403763
 23
179.0308638944
 33
0.0
  0
LINE
  5
672
100
AcDbEntity
  8
L1_105
  6
CONTINUOUS
 62
         4
100
AcDbLine
 10
1398.7033403763
 20
179.0308638944
 30
0.0
 11
1400.7033403763
 21
179.0308638944
 31
0.0
  0
TEXT
  5
674
100
AcDbEntity
  8
L1_105
  6
CONTINUOUS
 62
         4
100
AcDbText
 10
1404.4715850895
 20
182.1628638944
 30
0.0
 40
2.7
  1
2
  7
BOX
100
AcDbText
  0
ENDBLK
  5
675
100
AcDbEntity
  8
0
  6
CONTINUOUS
100
AcDbBlockEnd
  0
BLOCK
  5
677
100
AcDbEntity
  8
0
100
AcDbBlockBegin
  2
*D46
 70
        65
 10
0.0
 20
0.0
 30
0.0
  3
*D46
  1

  0
POINT
  5
679
100
AcDbEntity
  8
DEFPOINTS
  6
CONTINUOUS
 62
         0
100
AcDbPoint
 10
1449.3880281053
 20
169.6846417294
 30
0.0
  0
POINT
  5
67A
100
AcDbEntity
  8
DEFPOINTS
  6
CONTINUOUS
 62
         0
100
AcDbPoint
 10
1400.7033403763
 20
169.6846417294
 30
0.0
  0
POINT
  5
67B
100
AcDbEntity
  8
DEFPOINTS
  6
CONTINUOUS
 62
         0
100
AcDbPoint
 10
1400.7033403763
 20
130.6846417294
 30
0.0
  0
LINE
  5
67C
100
AcDbEntity
  8
L1_105
  6
CONTINUOUS
 62
         4
100
AcDbLine
 10
1402.0533403763
 20
169.6846417294
 30
0.0
 11
1450.0630281053
 21
169.6846417294
 31
0.0
  0
LINE
  5
67D
100
AcDbEntity
  8
L1_105
  6
CONTINUOUS
 62
         4
100
AcDbLine
 10
1402.0533403763
 20
130.6846417294
 30
0.0
 11
1450.0630281053
 21
130.6846417294
 31
0.0
  0
LINE
  5
67E
100
AcDbEntity
  8
L1_105
  6
CONTINUOUS
 62
         4
100
AcDbLine
 10
1449.3880281053
 20
169.6846417294
 30
0.0
 11
1449.3880281053
 21
130.6846417294
 31
0.0
  0
SOLID
  5
67F
100
AcDbEntity
  8
L1_105
  6
CONTINUOUS
 62
         4
100
AcDbTrace
 10
1449.3880281053
 20
169.6846417294
 30
0.0
 11
1449.7930281053
 21
166.9846417294
 31
0.0
 12
1448.9830281053
 22
166.9846417294
 32
0.0
 13
1449.3880281053
 23
169.6846417294
 33
0.0
  0
SOLID
  5
680
100
AcDbEntity
  8
L1_105
  6
CONTINUOUS
 62
         4
100
AcDbTrace
 10
1449.3880281053
 20
130.6846417294
 30
0.0
 11
1448.9830281053
 21
133.3846417294
 31
0.0
 12
1449.7930281053
 22
133.3846417294
 32
0.0
 13
1449.3880281053
 23
130.6846417294
 33
0.0
  0
TEXT
  5
682
100
AcDbEntity
  8
L1_105
  6
CONTINUOUS
 62
         4
100
AcDbText
 10
1446.2560281053
 20
140.3473538612
 30
0.0
 40
2.7
  1
崷39
 50
90.0
  7
BOX
100
AcDbText
  0
ENDBLK
  5
683
100
AcDbEntity
  8
0
  6
CONTINUOUS
100
AcDbBlockEnd
  0
BLOCK
  5
685
100
AcDbEntity
  8
0
100
AcDbBlockBegin
  2
*D47
 70
        65
 10
0.0
 20
0.0
 30
0.0
  3
*D47
  1

  0
POINT
  5
687
100
AcDbEntity
  8
DEFPOINTS
  6
CONTINUOUS
 62
         0
100
AcDbPoint
 10
1458.6393492817
 20
170.6846417294
 30
0.0
  0
POINT
  5
688
100
AcDbEntity
  8
DEFPOINTS
  6
CONTINUOUS
 62
         0
100
AcDbPoint
 10
1413.9712895687
 20
170.6846417294
 30
0.0
  0
POINT
  5
689
100
AcDbEntity
  8
DEFPOINTS
  6
CONTINUOUS
 62
         0
100
AcDbPoint
 10
1413.9712895687
 20
129.6846417294
 30
0.0
  0
LINE
  5
68A
100
AcDbEntity
  8
L1_105
  6
CONTINUOUS
 62
         4
100
AcDbLine
 10
1415.3212895687
 20
170.6846417294
 30
0.0
 11
1459.3143492817
 21
170.6846417294
 31
0.0
  0
LINE
  5
68B
100
AcDbEntity
  8
L1_105
  6
CONTINUOUS
 62
         4
100
AcDbLine
 10
1415.3212895687
 20
129.6846417294
 30
0.0
 11
1459.3143492817
 21
129.6846417294
 31
0.0
  0
LINE
  5
68C
100
AcDbEntity
  8
L1_105
  6
CONTINUOUS
 62
         4
100
AcDbLine
 10
1458.6393492817
 20
170.6846417294
 30
0.0
 11
1458.6393492817
 21
129.6846417294
 31
0.0
  0
SOLID
  5
68D
100
AcDbEntity
  8
L1_105
  6
CONTINUOUS
 62
         4
100
AcDbTrace
 10
1458.6393492817
 20
170.6846417294
 30
0.0
 11
1459.0443492817
 21
167.9846417294
 31
0.0
 12
1458.2343492817
 22
167.9846417294
 32
0.0
 13
1458.6393492817
 23
170.6846417294
 33
0.0
  0
SOLID
  5
68E
100
AcDbEntity
  8
L1_105
  6
CONTINUOUS
 62
         4
100
AcDbTrace
 10
1458.6393492817
 20
129.6846417294
 30
0.0
 11
1458.2343492817
 21
132.3846417294
 31
0.0
 12
1459.0443492817
 22
132.3846417294
 32
0.0
 13
1458.6393492817
 23
129.6846417294
 33
0.0
  0
TEXT
  5
690
100
AcDbEntity
  8
L1_105
  6
CONTINUOUS
 62
         4
100
AcDbText
 10
1455.5073492817
 20
139.2528174198
 30
0.0
 40
2.7
  1
崷41
 50
90.0
  7
BOX
100
AcDbText
  0
ENDBLK
  5
691
100
AcDbEntity
  8
0
  6
CONTINUOUS
100
AcDbBlockEnd
  0
BLOCK
  5
693
100
AcDbEntity
  8
0
100
AcDbBlockBegin
  2
*D48
 70
        65
 10
0.0
 20
0.0
 30
0.0
  3
*D48
  1

  0
POINT
  5
695
100
AcDbEntity
  8
DEFPOINTS
  6
CONTINUOUS
 62
         0
100
AcDbPoint
 10
1390.1082741959
 20
115.714967216
 30
0.0
  0
POINT
  5
696
100
AcDbEntity
  8
DEFPOINTS
  6
CONTINUOUS
 62
         0
100
AcDbPoint
 10
1390.1082741959
 20
145.2146417294
 30
0.0
  0
POINT
  5
697
100
AcDbEntity
  8
DEFPOINTS
  6
CONTINUOUS
 62
         0
100
AcDbPoint
 10
1419.7033403763
 20
132.7619919986
 30
0.0
  0
LINE
  5
698
100
AcDbEntity
  8
L1_105
  6
CONTINUOUS
 62
         4
100
AcDbLine
 10
1390.1082741959
 20
143.8646417294
 30
0.0
 11
1390.1082741959
 21
115.039967216
 31
0.0
  0
LINE
  5
699
100
AcDbEntity
  8
L1_105
  6
CONTINUOUS
 62
         4
100
AcDbLine
 10
1419.7033403763
 20
131.4119919986
 30
0.0
 11
1419.7033403763
 21
115.039967216
 31
0.0
  0
LINE
  5
69A
100
AcDbEntity
  8
L1_105
  6
CONTINUOUS
 62
         4
100
AcDbLine
 10
1390.1082741959
 20
115.714967216
 30
0.0
 11
1419.7033403763
 21
115.714967216
 31
0.0
  0
SOLID
  5
69B
100
AcDbEntity
  8
L1_105
  6
CONTINUOUS
 62
         4
100
AcDbTrace
 10
1390.1082741959
 20
115.714967216
 30
0.0
 11
1392.8082741959
 21
116.119967216
 31
0.0
 12
1392.8082741959
 22
115.309967216
 32
0.0
 13
1390.1082741959
 23
115.714967216
 33
0.0
  0
SOLID
  5
69C
100
AcDbEntity
  8
L1_105
  6
CONTINUOUS
 62
         4
100
AcDbTrace
 10
1419.7033403763
 20
115.714967216
 30
0.0
 11
1417.0033403763
 21
115.309967216
 31
0.0
 12
1417.0033403763
 22
116.119967216
 32
0.0
 13
1419.7033403763
 23
115.714967216
 33
0.0
  0
TEXT
  5
69E
100
AcDbEntity
  8
L1_105
  6
CONTINUOUS
 62
         4
100
AcDbText
 10
1399.2808072861
 20
118.846967216
 30
0.0
 40
2.7
  1
29.6
  7
BOX
100
AcDbText
  0
ENDBLK
  5
69F
100
AcDbEntity
  8
0
  6
CONTINUOUS
100
AcDbBlockEnd
  0
BLOCK
  5
6A1
100
AcDbEntity
  8
0
100
AcDbBlockBegin
  2
*D49
 70
        65
 10
0.0
 20
0.0
 30
0.0
  3
*D49
  1

  0
POINT
  5
6A3
100
AcDbEntity
  8
DEFPOINTS
  6
CONTINUOUS
 62
         0
100
AcDbPoint
 10
1375.1083403763
 20
105.7739192814
 30
0.0
  0
POINT
  5
6A4
100
AcDbEntity
  8
DEFPOINTS
  6
CONTINUOUS
 62
         0
100
AcDbPoint
 10
1375.1083403763
 20
145.2146417294
 30
0.0
  0
POINT
  5
6A5
100
AcDbEntity
  8
DEFPOINTS
  6
CONTINUOUS
 62
         0
100
AcDbPoint
 10
1419.7033403763
 20
132.7619919986
 30
0.0
  0
LINE
  5
6A6
100
AcDbEntity
  8
L1_105
  6
CONTINUOUS
 62
         4
100
AcDbLine
 10
1375.1083403763
 20
143.8646417294
 30
0.0
 11
1375.1083403763
 21
105.0989192814
 31
0.0
  0
LINE
  5
6A7
100
AcDbEntity
  8
L1_105
  6
CONTINUOUS
 62
         4
100
AcDbLine
 10
1419.7033403763
 20
131.4119919986
 30
0.0
 11
1419.7033403763
 21
105.0989192814
 31
0.0
  0
LINE
  5
6A8
100
AcDbEntity
  8
L1_105
  6
CONTINUOUS
 62
         4
100
AcDbLine
 10
1375.1083403763
 20
105.7739192814
 30
0.0
 11
1419.7033403763
 21
105.7739192814
 31
0.0
  0
SOLID
  5
6A9
100
AcDbEntity
  8
L1_105
  6
CONTINUOUS
 62
         4
100
AcDbTrace
 10
1375.1083403763
 20
105.7739192814
 30
0.0
 11
1377.8083403763
 21
106.1789192814
 31
0.0
 12
1377.8083403763
 22
105.3689192814
 32
0.0
 13
1375.1083403763
 23
105.7739192814
 33
0.0
  0
SOLID
  5
6AA
100
AcDbEntity
  8
L1_105
  6
CONTINUOUS
 62
         4
100
AcDbTrace
 10
1419.7033403763
 20
105.7739192814
 30
0.0
 11
1417.0033403763
 21
105.3689192814
 31
0.0
 12
1417.0033403763
 22
106.1789192814
 32
0.0
 13
1419.7033403763
 23
105.7739192814
 33
0.0
  0
TEXT
  5
6AC
100
AcDbEntity
  8
L1_105
  6
CONTINUOUS
 62
         4
100
AcDbText
 10
1386.2689703403
 20
108.9059192814
 30
0.0
 40
2.7
  1
44.6
  7
BOX
100
AcDbText
  0
ENDBLK
  5
6AD
100
AcDbEntity
  8
0
  6
CONTINUOUS
100
AcDbBlockEnd
  0
BLOCK
  5
6AF
100
AcDbEntity
  8
0
100
AcDbBlockBegin
  2
*D50
 70
        65
 10
0.0
 20
0.0
 30
0.0
  3
*D50
  1

  0
POINT
  5
6B1
100
AcDbEntity
  8
DEFPOINTS
  6
CONTINUOUS
 62
         0
100
AcDbPoint
 10
1382.6045404262
 20
155.1346417294
 30
0.0
  0
POINT
  5
6B2
100
AcDbEntity
  8
DEFPOINTS
  6
CONTINUOUS
 62
         0
100
AcDbPoint
 10
1375.1083403763
 20
155.1346417294
 30
0.0
  0
POINT
  5
6B3
100
AcDbEntity
  8
DEFPOINTS
  6
CONTINUOUS
 62
         0
100
AcDbPoint
 10
1375.1083403763
 20
145.2346417294
 30
0.0
  0
LINE
  5
6B4
100
AcDbEntity
  8
L1_105
  6
CONTINUOUS
 62
         4
100
AcDbLine
 10
1376.4583403763
 20
155.1346417294
 30
0.0
 11
1383.2795404262
 21
155.1346417294
 31
0.0
  0
LINE
  5
6B5
100
AcDbEntity
  8
L1_105
  6
CONTINUOUS
 62
         4
100
AcDbLine
 10
1376.4583403763
 20
145.2346417294
 30
0.0
 11
1383.2795404262
 21
145.2346417294
 31
0.0
  0
LINE
  5
6B6
100
AcDbEntity
  8
L1_105
  6
CONTINUOUS
 62
         4
100
AcDbLine
 10
1382.6045404262
 20
155.1346417294
 30
0.0
 11
1382.6045404262
 21
145.2346417294
 31
0.0
  0
SOLID
  5
6B7
100
AcDbEntity
  8
L1_105
  6
CONTINUOUS
 62
         4
100
AcDbTrace
 10
1382.6045404262
 20
155.1346417294
 30
0.0
 11
1383.0095404262
 21
152.4346417294
 31
0.0
 12
1382.1995404262
 22
152.4346417294
 32
0.0
 13
1382.6045404262
 23
155.1346417294
 33
0.0
  0
LINE
  5
6B8
100
AcDbEntity
  8
L1_105
  6
CONTINUOUS
 62
         4
100
AcDbLine
 10
1382.6045404262
 20
145.2346417294
 30
0.0
 11
1382.6045404262
 21
106.669557727
 31
0.0
  0
SOLID
  5
6B9
100
AcDbEntity
  8
L1_105
  6
CONTINUOUS
 62
         4
100
AcDbTrace
 10
1382.6045404262
 20
145.2346417294
 30
0.0
 11
1382.1995404262
 21
147.9346417294
 31
0.0
 12
1383.0095404262
 22
147.9346417294
 32
0.0
 13
1382.6045404262
 23
145.2346417294
 33
0.0
  0
TEXT
  5
6BB
100
AcDbEntity
  8
L1_105
  6
CONTINUOUS
 62
         4
100
AcDbText
 10
1379.4725404262
 20
108.019557727
 30
0.0
 40
2.7
  1
9.55
 50
90.0
  7
BOX
100
AcDbText
  0
ENDBLK
  5
6BC
100
AcDbEntity
  8
0
  6
CONTINUOUS
100
AcDbBlockEnd
  0
BLOCK
  5
6BF
100
AcDbEntity
  8
0
100
AcDbBlockBegin
  2
*D51
 70
        65
 10
0.0
 20
0.0
 30
0.0
  3
*D51
  1

  0
POINT
  5
6C1
100
AcDbEntity
  8
DEFPOINTS
  6
CONTINUOUS
 62
         0
100
AcDbPoint
 10
1370.1083403763
 20
13.385148181
 30
0.0
  0
POINT
  5
6C2
100
AcDbEntity
  8
DEFPOINTS
  6
CONTINUOUS
 62
         0
100
AcDbPoint
 10
1370.1083403763
 20
7.5566652593
 30
0.0
  0
POINT
  5
6C3
100
AcDbEntity
  8
DEFPOINTS
  6
CONTINUOUS
 62
         0
100
AcDbPoint
 10
1395.1082741959
 20
7.5566652593
 30
0.0
  0
LINE
  5
6C4
100
AcDbEntity
  8
L1_105
  6
CONTINUOUS
 62
         4
100
AcDbLine
 10
1370.1083403763
 20
8.9066652593
 30
0.0
 11
1370.1083403763
 21
14.060148181
 31
0.0
  0
LINE
  5
6C5
100
AcDbEntity
  8
L1_105
  6
CONTINUOUS
 62
         4
100
AcDbLine
 10
1395.1082741959
 20
8.9066652593
 30
0.0
 11
1395.1082741959
 21
14.060148181
 31
0.0
  0
LINE
  5
6C6
100
AcDbEntity
  8
L1_105
  6
CONTINUOUS
 62
         4
100
AcDbLine
 10
1370.1083403763
 20
13.385148181
 30
0.0
 11
1395.1082741959
 21
13.385148181
 31
0.0
  0
SOLID
  5
6C7
100
AcDbEntity
  8
L1_105
  6
CONTINUOUS
 62
         4
100
AcDbTrace
 10
1370.1083403763
 20
13.385148181
 30
0.0
 11
1372.8083403763
 21
13.790148181
 31
0.0
 12
1372.8083403763
 22
12.980148181
 32
0.0
 13
1370.1083403763
 23
13.385148181
 33
0.0
  0
SOLID
  5
6C8
100
AcDbEntity
  8
L1_105
  6
CONTINUOUS
 62
         4
100
AcDbTrace
 10
1395.1082741959
 20
13.385148181
 30
0.0
 11
1392.4082741959
 21
12.980148181
 31
0.0
 12
1392.4082741959
 22
13.790148181
 32
0.0
 13
1395.1082741959
 23
13.385148181
 33
0.0
  0
TEXT
  5
6CA
100
AcDbEntity
  8
L1_105
  6
CONTINUOUS
 62
         4
100
AcDbText
 10
1373.3223083432
 20
16.517148181
 30
0.0
 40
2.7
  1
24.6
  7
BOX
100
AcDbText
  0
ENDBLK
  5
6CB
100
AcDbEntity
  8
0
  6
CONTINUOUS
100
AcDbBlockEnd
  0
BLOCK
  5
6CD
100
AcDbEntity
  8
0
100
AcDbBlockBegin
  2
*D52
 70
        65
 10
0.0
 20
0.0
 30
0.0
  3
*D52
  1

  0
POINT
  5
6CF
100
AcDbEntity
  8
DEFPOINTS
  6
CONTINUOUS
 62
         0
100
AcDbPoint
 10
1419.7033403763
 20
-48.9530593812
 30
0.0
  0
POINT
  5
6D0
100
AcDbEntity
  8
DEFPOINTS
  6
CONTINUOUS
 62
         0
100
AcDbPoint
 10
1419.7033403763
 20
-30.3278646868
 30
0.0
  0
POINT
  5
6D1
100
AcDbEntity
  8
DEFPOINTS
  6
CONTINUOUS
 62
         0
100
AcDbPoint
 10
1394.7033403763
 20
-30.4433347407
 30
0.0
  0
LINE
  5
6D2
100
AcDbEntity
  8
L1_105
  6
CONTINUOUS
 62
         4
100
AcDbLine
 10
1419.7033403763
 20
-31.6778646868
 30
0.0
 11
1419.7033403763
 21
-49.6280593812
 31
0.0
  0
LINE
  5
6D3
100
AcDbEntity
  8
L1_105
  6
CONTINUOUS
 62
         4
100
AcDbLine
 10
1394.7033403763
 20
-31.7933347407
 30
0.0
 11
1394.7033403763
 21
-49.6280593812
 31
0.0
  0
LINE
  5
6D4
100
AcDbEntity
  8
L1_105
  6
CONTINUOUS
 62
         4
100
AcDbLine
 10
1419.7033403763
 20
-48.9530593812
 30
0.0
 11
1394.7033403763
 21
-48.9530593812
 31
0.0
  0
SOLID
  5
6D5
100
AcDbEntity
  8
L1_105
  6
CONTINUOUS
 62
         4
100
AcDbTrace
 10
1419.7033403763
 20
-48.9530593812
 30
0.0
 11
1417.0033403763
 21
-49.3580593812
 31
0.0
 12
1417.0033403763
 22
-48.5480593812
 32
0.0
 13
1419.7033403763
 23
-48.9530593812
 33
0.0
  0
SOLID
  5
6D6
100
AcDbEntity
  8
L1_105
  6
CONTINUOUS
 62
         4
100
AcDbTrace
 10
1394.7033403763
 20
-48.9530593812
 30
0.0
 11
1397.4033403763
 21
-48.5480593812
 31
0.0
 12
1397.4033403763
 22
-49.3580593812
 32
0.0
 13
1394.7033403763
 23
-48.9530593812
 33
0.0
  0
TEXT
  5
6D8
100
AcDbEntity
  8
L1_105
  6
CONTINUOUS
 62
         4
100
AcDbText
 10
1401.5810669833
 20
-45.8210593812
 30
0.0
 40
2.7
  1
25
  7
BOX
100
AcDbText
  0
ENDBLK
  5
6D9
100
AcDbEntity
  8
0
  6
CONTINUOUS
100
AcDbBlockEnd
  0
BLOCK
  5
6DB
100
AcDbEntity
  8
0
100
AcDbBlockBegin
  2
*D53
 70
        65
 10
0.0
 20
0.0
 30
0.0
  3
*D53
  1

  0
POINT
  5
6DD
100
AcDbEntity
  8
DEFPOINTS
  6
CONTINUOUS
 62
         0
100
AcDbPoint
 10
1443.2641711857
 20
3.0566652593
 30
0.0
  0
POINT
  5
6DE
100
AcDbEntity
  8
DEFPOINTS
  6
CONTINUOUS
 62
         0
100
AcDbPoint
 10
1394.7033403763
 20
3.0566652593
 30
0.0
  0
POINT
  5
6DF
100
AcDbEntity
  8
DEFPOINTS
  6
CONTINUOUS
 62
         0
100
AcDbPoint
 10
1394.7033403763
 20
-28.9433347407
 30
0.0
  0
LINE
  5
6E0
100
AcDbEntity
  8
L1_105
  6
CONTINUOUS
 62
         4
100
AcDbLine
 10
1396.0533403763
 20
3.0566652593
 30
0.0
 11
1443.9391711857
 21
3.0566652593
 31
0.0
  0
LINE
  5
6E1
100
AcDbEntity
  8
L1_105
  6
CONTINUOUS
 62
         4
100
AcDbLine
 10
1396.0533403763
 20
-28.9433347407
 30
0.0
 11
1443.9391711857
 21
-28.9433347407
 31
0.0
  0
LINE
  5
6E2
100
AcDbEntity
  8
L1_105
  6
CONTINUOUS
 62
         4
100
AcDbLine
 10
1443.2641711857
 20
3.0566652593
 30
0.0
 11
1443.2641711857
 21
-28.9433347407
 31
0.0
  0
SOLID
  5
6E3
100
AcDbEntity
  8
L1_105
  6
CONTINUOUS
 62
         4
100
AcDbTrace
 10
1443.2641711857
 20
3.0566652593
 30
0.0
 11
1443.6691711857
 21
0.3566652593
 31
0.0
 12
1442.8591711857
 22
0.3566652593
 32
0.0
 13
1443.2641711857
 23
3.0566652593
 33
0.0
  0
SOLID
  5
6E4
100
AcDbEntity
  8
L1_105
  6
CONTINUOUS
 62
         4
100
AcDbTrace
 10
1443.2641711857
 20
-28.9433347407
 30
0.0
 11
1442.8591711857
 21
-26.2433347407
 31
0.0
 12
1443.6691711857
 22
-26.2433347407
 32
0.0
 13
1443.2641711857
 23
-28.9433347407
 33
0.0
  0
TEXT
  5
6E6
100
AcDbEntity
  8
L1_105
  6
CONTINUOUS
 62
         4
100
AcDbText
 10
1440.1321711857
 20
-20.9507516815
 30
0.0
 40
2.7
  1
崷32
 50
90.0
  7
BOX
100
AcDbText
  0
ENDBLK
  5
6E7
100
AcDbEntity
  8
0
  6
CONTINUOUS
100
AcDbBlockEnd
  0
BLOCK
  5
6E9
100
AcDbEntity
  8
0
100
AcDbBlockBegin
  2
*D54
 70
        65
 10
0.0
 20
0.0
 30
0.0
  3
*D54
  1

  0
POINT
  5
6EB
100
AcDbEntity
  8
DEFPOINTS
  6
CONTINUOUS
 62
         0
100
AcDbPoint
 10
1455.3715864264
 20
4.0566652593
 30
0.0
  0
POINT
  5
6EC
100
AcDbEntity
  8
DEFPOINTS
  6
CONTINUOUS
 62
         0
100
AcDbPoint
 10
1419.5033403763
 20
4.0566652593
 30
0.0
  0
POINT
  5
6ED
100
AcDbEntity
  8
DEFPOINTS
  6
CONTINUOUS
 62
         0
100
AcDbPoint
 10
1419.5033403763
 20
-29.9433347407
 30
0.0
  0
LINE
  5
6EE
100
AcDbEntity
  8
L1_105
  6
CONTINUOUS
 62
         4
100
AcDbLine
 10
1420.8533403763
 20
4.0566652593
 30
0.0
 11
1456.0465864264
 21
4.0566652593
 31
0.0
  0
LINE
  5
6EF
100
AcDbEntity
  8
L1_105
  6
CONTINUOUS
 62
         4
100
AcDbLine
 10
1420.8533403763
 20
-29.9433347407
 30
0.0
 11
1456.0465864264
 21
-29.9433347407
 31
0.0
  0
LINE
  5
6F0
100
AcDbEntity
  8
L1_105
  6
CONTINUOUS
 62
         4
100
AcDbLine
 10
1455.3715864264
 20
4.0566652593
 30
0.0
 11
1455.3715864264
 21
-29.9433347407
 31
0.0
  0
SOLID
  5
6F1
100
AcDbEntity
  8
L1_105
  6
CONTINUOUS
 62
         4
100
AcDbTrace
 10
1455.3715864264
 20
4.0566652593
 30
0.0
 11
1455.7765864264
 21
1.3566652593
 31
0.0
 12
1454.9665864264
 22
1.3566652593
 32
0.0
 13
1455.3715864264
 23
4.0566652593
 33
0.0
  0
SOLID
  5
6F2
100
AcDbEntity
  8
L1_105
  6
CONTINUOUS
 62
         4
100
AcDbTrace
 10
1455.3715864264
 20
-29.9433347407
 30
0.0
 11
1454.9665864264
 21
-27.2433347407
 31
0.0
 12
1455.7765864264
 22
-27.2433347407
 32
0.0
 13
1455.3715864264
 23
-29.9433347407
 33
0.0
  0
TEXT
  5
6F4
100
AcDbEntity
  8
L1_105
  6
CONTINUOUS
 62
         4
100
AcDbText
 10
1452.2395864264
 20
-21.6075939878
 30
0.0
 40
2.7
  1
崷34
 50
90.0
  7
BOX
100
AcDbText
  0
ENDBLK
  5
6F5
100
AcDbEntity
  8
0
  6
CONTINUOUS
100
AcDbBlockEnd
  0
BLOCK
  5
6F7
100
AcDbEntity
  8
0
100
AcDbBlockBegin
  2
*D55
 70
        65
 10
0.0
 20
0.0
 30
0.0
  3
*D55
  1

  0
POINT
  5
6F9
100
AcDbEntity
  8
DEFPOINTS
  6
CONTINUOUS
 62
         0
100
AcDbPoint
 10
1419.7033403763
 20
-65.0941794402
 30
0.0
  0
POINT
  5
6FA
100
AcDbEntity
  8
DEFPOINTS
  6
CONTINUOUS
 62
         0
100
AcDbPoint
 10
1419.7033403763
 20
-30.3278646868
 30
0.0
  0
POINT
  5
6FB
100
AcDbEntity
  8
DEFPOINTS
  6
CONTINUOUS
 62
         0
100
AcDbPoint
 10
1353.7033403763
 20
-29.4433347407
 30
0.0
  0
LINE
  5
6FC
100
AcDbEntity
  8
L1_105
  6
CONTINUOUS
 62
         4
100
AcDbLine
 10
1419.7033403763
 20
-31.6778646868
 30
0.0
 11
1419.7033403763
 21
-65.7691794402
 31
0.0
  0
LINE
  5
6FD
100
AcDbEntity
  8
L1_105
  6
CONTINUOUS
 62
         4
100
AcDbLine
 10
1353.7033403763
 20
-30.7933347407
 30
0.0
 11
1353.7033403763
 21
-65.7691794402
 31
0.0
  0
LINE
  5
6FE
100
AcDbEntity
  8
L1_105
  6
CONTINUOUS
 62
         4
100
AcDbLine
 10
1419.7033403763
 20
-65.0941794402
 30
0.0
 11
1353.7033403763
 21
-65.0941794402
 31
0.0
  0
SOLID
  5
6FF
100
AcDbEntity
  8
L1_105
  6
CONTINUOUS
 62
         4
100
AcDbTrace
 10
1419.7033403763
 20
-65.0941794402
 30
0.0
 11
1417.0033403763
 21
-65.4991794402
 31
0.0
 12
1417.0033403763
 22
-64.6891794402
 32
0.0
 13
1419.7033403763
 23
-65.0941794402
 33
0.0
  0
SOLID
  5
700
100
AcDbEntity
  8
L1_105
  6
CONTINUOUS
 62
         4
100
AcDbTrace
 10
1353.7033403763
 20
-65.0941794402
 30
0.0
 11
1356.4033403763
 21
-64.6891794402
 31
0.0
 12
1356.4033403763
 22
-65.4991794402
 32
0.0
 13
1353.7033403763
 23
-65.0941794402
 33
0.0
  0
TEXT
  5
702
100
AcDbEntity
  8
L1_105
  6
CONTINUOUS
 62
         4
100
AcDbText
 10
1382.7868809294
 20
-61.9621794402
 30
0.0
 40
2.7
  1
66
  7
BOX
100
AcDbText
  0
ENDBLK
  5
703
100
AcDbEntity
  8
0
  6
CONTINUOUS
100
AcDbBlockEnd
  0
ENDSEC
  0
SECTION
  2
ENTITIES
  0
INSERT
  5
6E
100
AcDbEntity
  8
0
  6
CONTINUOUS
100
AcDbBlockReference
  2
*X0
 10
0.0
 20
0.0
 30
0.0
  0
LINE
  5
6F
100
AcDbEntity
  8
_Y__________
  6
CONTINUOUS
 62
         7
100
AcDbLine
 10
1333.7033403763
 20
-29.0183347407
 30
0.0
 11
1333.7033403763
 21
-29.8183347407
 31
0.0
  0
LINE
  5
70
100
AcDbEntity
  8
_Y__________
  6
CONTINUOUS
 62
         7
100
AcDbLine
 10
1232.1033403763
 20
-27.3183347407
 30
0.0
 11
1233.6033403763
 21
-28.8183347407
 31
0.0
  0
LINE
  5
71
100
AcDbEntity
  8
_Y__________
  6
CONTINUOUS
 62
         7
100
AcDbLine
 10
1233.6033403763
 20
2.9316652593
 30
0.0
 11
1232.1033403763
 21
1.4316652593
 31
0.0
  0
LINE
  5
72
100
AcDbEntity
  8
_Y__________
  6
CONTINUOUS
 62
         7
100
AcDbLine
 10
1333.3033403763
 20
-28.6183347407
 30
0.0
 11
1333.0024115368
 21
-28.6183347407
 31
0.0
  0
LINE
  5
73
100
AcDbEntity
  8
_Y__________
  6
CONTINUOUS
 62
         7
100
AcDbLine
 10
1332.2033403763
 20
-28.8183347407
 30
0.0
 11
1332.8988839188
 21
-28.6319644102
 31
0.0
  0
ARC
  5
74
100
AcDbEntity
  8
_Y__________
  6
CONTINUOUS
 62
         7
100
AcDbCircle
 10
1333.3033403763
 20
-29.0183347407
 30
0.0
 40
0.4
100
AcDbArc
 50
0.0
 51
90.0
  0
ARC
  5
75
100
AcDbEntity
  8
_Y__________
  6
CONTINUOUS
 62
         7
100
AcDbCircle
 10
1333.0024115368
 20
-29.0183347407
 30
0.0
 40
0.4
100
AcDbArc
 50
90.0
 51
105.0
  0
ARC
  5
76
100
AcDbEntity
  8
_Y__________
  6
CONTINUOUS
 62
         7
100
AcDbCircle
 10
1333.0024115368
 20
3.1316652593
 30
0.0
 40
0.4
100
AcDbArc
 50
255.0
 51
270.0
  0
ARC
  5
77
100
AcDbEntity
  8
_Y__________
  6
CONTINUOUS
 62
         7
100
AcDbCircle
 10
1333.3033403763
 20
3.1316652593
 30
0.0
 40
0.4
100
AcDbArc
 50
270.0
 51
360.0
  0
LINE
  5
78
100
AcDbEntity
  8
_Y__________
  6
CONTINUOUS
 62
         7
100
AcDbLine
 10
1332.2033403763
 20
2.9316652593
 30
0.0
 11
1332.8988839188
 21
2.7452949288
 31
0.0
  0
LINE
  5
79
100
AcDbEntity
  8
_Y__________
  6
CONTINUOUS
 62
         7
100
AcDbLine
 10
1333.3033403763
 20
2.7316652593
 30
0.0
 11
1333.0024115368
 21
2.7316652593
 31
0.0
  0
LINE
  5
7A
100
AcDbEntity
  8
_Y__________
  6
CONTINUOUS
 62
         7
100
AcDbLine
 10
1332.2033403763
 20
-28.8183347407
 30
0.0
 11
1233.6033403763
 21
-28.8183347407
 31
0.0
  0
LINE
  5
7B
100
AcDbEntity
  8
_Y__________
  6
CONTINUOUS
 62
         7
100
AcDbLine
 10
1332.2033403763
 20
2.9316652593
 30
0.0
 11
1233.6033403763
 21
2.9316652593
 31
0.0
  0
LINE
  5
7C
100
AcDbEntity
  8
_Y__________
  6
CONTINUOUS
 62
         7
100
AcDbLine
 10
1232.1033403763
 20
-27.3183347407
 30
0.0
 11
1232.1033403763
 21
1.4316652593
 31
0.0
  0
LINE
  5
7D
100
AcDbEntity
  8
_Y__________
  6
CENTER
 62
         1
100
AcDbLine
 10
1333.7033403763
 20
-12.9433347407
 30
0.0
 11
1224.4043095065
 21
-12.9433347407
 31
0.0
  0
LINE
  5
7E
100
AcDbEntity
  8
_Y__________
  6
CONTINUOUS
 62
         7
100
AcDbLine
 10
1333.7033403763
 20
3.9316652593
 30
0.0
 11
1333.7033403763
 21
3.1316652593
 31
0.0
  0
LINE
  5
7F
100
AcDbEntity
  8
_Y__________
  6
CENTER
 62
         1
100
AcDbLine
 10
1194.479917199
 20
150.1846417294
 30
0.0
 11
1153.4923837637
 21
150.1846417294
 31
0.0
  0
LINE
  5
80
100
AcDbEntity
  8
_Y__________
  6
CENTER
 62
         1
100
AcDbLine
 10
1174.9233403763
 20
130.0049340053
 30
0.0
 11
1174.9233403763
 21
167.8781261332
 31
0.0
  0
CIRCLE
  5
81
100
AcDbEntity
  8
_Y__________
  6
CONTINUOUS
 62
         7
100
AcDbCircle
 10
1174.9233403763
 20
150.1846417294
 30
0.0
 40
14.375
  0
CIRCLE
  5
82
100
AcDbEntity
  8
_Y__________
  6
CONTINUOUS
 62
         7
100
AcDbCircle
 10
1174.9233403763
 20
150.1846417294
 30
0.0
 40
15.875
  0
LINE
  5
83
100
AcDbEntity
  8
_Y__________
  6
CONTINUOUS
 62
         7
100
AcDbLine
 10
1333.7033403763
 20
166.2596417294
 30
0.0
 11
1333.7033403763
 21
134.1096417294
 31
0.0
  0
LINE
  5
84
100
AcDbEntity
  8
_Y__________
  6
CENTER
 62
         1
100
AcDbLine
 10
1333.7033403763
 20
150.1846417294
 30
0.0
 11
1224.4043095065
 21
150.1846417294
 31
0.0
  0
LINE
  5
85
100
AcDbEntity
  8
_Y__________
  6
CONTINUOUS
 62
         7
100
AcDbLine
 10
1232.1033403763
 20
135.8096417294
 30
0.0
 11
1232.1033403763
 21
164.5596417294
 31
0.0
  0
LINE
  5
86
100
AcDbEntity
  8
_Y__________
  6
CONTINUOUS
 62
         7
100
AcDbLine
 10
1332.2033403763
 20
166.0596417294
 30
0.0
 11
1233.6033403763
 21
166.0596417294
 31
0.0
  0
LINE
  5
87
100
AcDbEntity
  8
_Y__________
  6
CONTINUOUS
 62
         7
100
AcDbLine
 10
1332.2033403763
 20
134.3096417294
 30
0.0
 11
1233.6033403763
 21
134.3096417294
 31
0.0
  0
LINE
  5
88
100
AcDbEntity
  8
_Y__________
  6
CONTINUOUS
 62
         7
100
AcDbLine
 10
1333.3033403763
 20
165.8596417294
 30
0.0
 11
1333.0024115368
 21
165.8596417294
 31
0.0
  0
LINE
  5
89
100
AcDbEntity
  8
_Y__________
  6
CONTINUOUS
 62
         7
100
AcDbLine
 10
1332.2033403763
 20
166.0596417294
 30
0.0
 11
1332.8988839188
 21
165.8732713989
 31
0.0
  0
ARC
  5
8A
100
AcDbEntity
  8
_Y__________
  6
CONTINUOUS
 62
         7
100
AcDbCircle
 10
1333.3033403763
 20
166.2596417294
 30
0.0
 40
0.4
100
AcDbArc
 50
270.0
 51
360.0
  0
ARC
  5
8B
100
AcDbEntity
  8
_Y__________
  6
CONTINUOUS
 62
         7
100
AcDbCircle
 10
1333.0024115368
 20
166.2596417294
 30
0.0
 40
0.4
100
AcDbArc
 50
255.0
 51
270.0
  0
ARC
  5
8C
100
AcDbEntity
  8
_Y__________
  6
CONTINUOUS
 62
         7
100
AcDbCircle
 10
1333.0024115368
 20
134.1096417294
 30
0.0
 40
0.4
100
AcDbArc
 50
90.0
 51
105.0
  0
ARC
  5
8D
100
AcDbEntity
  8
_Y__________
  6
CONTINUOUS
 62
         7
100
AcDbCircle
 10
1333.3033403763
 20
134.1096417294
 30
0.0
 40
0.4
100
AcDbArc
 50
0.0
 51
90.0
  0
LINE
  5
8E
100
AcDbEntity
  8
_Y__________
  6
CONTINUOUS
 62
         7
100
AcDbLine
 10
1332.2033403763
 20
134.3096417294
 30
0.0
 11
1332.8988839188
 21
134.4960120599
 31
0.0
  0
LINE
  5
8F
100
AcDbEntity
  8
_Y__________
  6
CONTINUOUS
 62
         7
100
AcDbLine
 10
1333.3033403763
 20
134.5096417294
 30
0.0
 11
1333.0024115368
 21
134.5096417294
 31
0.0
  0
LINE
  5
90
100
AcDbEntity
  8
_Y__________
  6
CONTINUOUS
 62
         4
100
AcDbLine
 10
1332.2033403763
 20
166.0596417294
 30
0.0
 11
1332.2033403763
 21
134.3096417294
 31
0.0
  0
LINE
  5
91
100
AcDbEntity
  8
_Y__________
  6
CONTINUOUS
 62
         4
100
AcDbLine
 10
1333.3033403763
 20
134.5096417294
 30
0.0
 11
1333.3033403763
 21
165.8596417294
 31
0.0
  0
LINE
  5
92
100
AcDbEntity
  8
_Y__________
  6
CONTINUOUS
 62
         4
100
AcDbLine
 10
1332.9497505378
 20
134.5096417294
 30
0.0
 11
1332.9497505378
 21
165.8631233576
 31
0.0
  0
LINE
  5
93
100
AcDbEntity
  8
_Y__________
  6
CONTINUOUS
 62
         7
100
AcDbLine
 10
1233.6033403763
 20
166.0596417294
 30
0.0
 11
1232.1033403763
 21
164.5596417294
 31
0.0
  0
LINE
  5
94
100
AcDbEntity
  8
_Y__________
  6
CONTINUOUS
 62
         7
100
AcDbLine
 10
1232.1033403763
 20
135.8096417294
 30
0.0
 11
1233.6033403763
 21
134.3096417294
 31
0.0
  0
LINE
  5
95
100
AcDbEntity
  8
_Y__________
  6
CONTINUOUS
 62
         7
100
AcDbLine
 10
1233.6033403763
 20
134.3096417294
 30
0.0
 11
1233.6033403763
 21
166.0596417294
 31
0.0
  0
LINE
  5
96
100
AcDbEntity
  8
L1_105
  6
CONTINUOUS
 62
         7
100
AcDbLine
 10
1353.7033403763
 20
-15.4433347407
 30
0.0
 11
1338.7020155108
 21
-15.4433347407
 31
0.0
  0
LINE
  5
97
100
AcDbEntity
  8
L1_105
  6
CONTINUOUS
 62
         7
100
AcDbLine
 10
1353.7033403763
 20
-10.4433347407
 30
0.0
 11
1338.7020155108
 21
-10.4433347407
 31
0.0
  0
LINE
  5
98
100
AcDbEntity
  8
L1_105
  6
CENTER
 62
         1
100
AcDbLine
 10
1583.2833403763
 20
150.1846417294
 30
0.0
 11
1594.5333403763
 21
169.6702133145
 31
0.0
  0
LINE
  5
99
100
AcDbEntity
  8
L1_105
  6
CENTER
 62
         1
100
AcDbLine
 10
1583.2833403763
 20
150.1846417294
 30
0.0
 11
1594.5333403763
 21
130.6990701442
 31
0.0
  0
CIRCLE
  5
9A
100
AcDbEntity
  8
L1_105
  6
DASHED
 62
         2
100
AcDbCircle
 10
1583.2833403763
 20
150.1846417294
 30
0.0
 40
17.5
  0
CIRCLE
  5
9B
100
AcDbEntity
  8
L1_105
  6
DASHED
 62
         2
100
AcDbCircle
 10
1583.2833403763
 20
150.1846417294
 30
0.0
 40
16.5
  0
CIRCLE
  5
9C
100
AcDbEntity
  8
L1_105
  6
CONTINUOUS
 62
         7
100
AcDbCircle
 10
1583.2833403763
 20
150.1846417294
 30
0.0
 40
16.0
  0
CIRCLE
  5
9D
100
AcDbEntity
  8
L1_105
  6
CONTINUOUS
 62
         7
100
AcDbCircle
 10
1583.2833403763
 20
150.1846417294
 30
0.0
 40
17.0
  0
ARC
  5
9E
100
AcDbEntity
  8
L1_105
  6
CONTINUOUS
 62
         4
100
AcDbCircle
 10
1583.2833403763
 20
150.1846417294
 30
0.0
 40
3.0
100
AcDbArc
 50
270.0
 51
540.0
  0
CIRCLE
  5
9F
100
AcDbEntity
  8
L1_105
  6
CONTINUOUS
 62
         7
100
AcDbCircle
 10
1583.2833403763
 20
150.1846417294
 30
0.0
 40
2.0
  0
CIRCLE
  5
A0
100
AcDbEntity
  8
L1_105
  6
DASHED
 62
         2
100
AcDbCircle
 10
1583.2833403763
 20
150.1846417294
 30
0.0
 40
19.5
  0
LINE
  5
A1
100
AcDbEntity
  8
L1_105
  6
CONTINUOUS
 62
         7
100
AcDbLine
 10
1366.7033403763
 20
128.7846417294
 30
0.0
 11
1366.7033403763
 21
128.1846417294
 31
0.0
  0
ARC
  5
A2
100
AcDbEntity
  8
L1_105
  6
CONTINUOUS
 62
         7
100
AcDbCircle
 10
1367.0033403763
 20
129.4846417294
 30
0.0
 40
0.4
100
AcDbArc
 50
90.0
 51
178.4890283439
  0
LINE
  5
A3
100
AcDbEntity
  8
L1_105
  6
CONTINUOUS
 62
         7
100
AcDbLine
 10
1366.6034794587
 20
129.4951890789
 30
0.0
 11
1366.7033403763
 21
128.7846417294
 31
0.0
  0
LINE
  5
A4
100
AcDbEntity
  8
L1_105
  6
CONTINUOUS
 62
         7
100
AcDbLine
 10
1369.8398320494
 20
129.6846417294
 30
0.0
 11
1369.2033403763
 21
129.6846417294
 31
0.0
  0
ARC
  5
A5
100
AcDbEntity
  8
L1_105
  6
CONTINUOUS
 62
         7
100
AcDbCircle
 10
1368.4042692157
 20
129.4846417294
 30
0.0
 40
0.4
100
AcDbArc
 50
75.0
 51
90.0
  0
LINE
  5
A6
100
AcDbEntity
  8
L1_105
  6
CONTINUOUS
 62
         7
100
AcDbLine
 10
1368.5077968337
 20
129.8710120599
 30
0.0
 11
1369.2033403763
 21
129.6846417294
 31
0.0
  0
LINE
  5
A7
100
AcDbEntity
  8
L1_105
  6
CONTINUOUS
 62
         7
100
AcDbLine
 10
1368.4042692157
 20
129.8846417294
 30
0.0
 11
1367.0033403763
 21
129.8846417294
 31
0.0
  0
LINE
  5
A8
100
AcDbEntity
  8
L1_105
  6
CONTINUOUS
 62
         7
100
AcDbLine
 10
1366.7033403763
 20
171.5846417294
 30
0.0
 11
1366.7033403763
 21
172.1846417294
 31
0.0
  0
ARC
  5
A9
100
AcDbEntity
  8
L1_105
  6
CONTINUOUS
 62
         7
100
AcDbCircle
 10
1367.0033403763
 20
170.8846417294
 30
0.0
 40
0.4
100
AcDbArc
 50
181.5109716561
 51
270.0
  0
LINE
  5
AA
100
AcDbEntity
  8
L1_105
  6
CONTINUOUS
 62
         7
100
AcDbLine
 10
1366.6034794587
 20
170.8740943799
 30
0.0
 11
1366.7033403763
 21
171.5846417294
 31
0.0
  0
LINE
  5
AB
100
AcDbEntity
  8
L1_105
  6
CONTINUOUS
 62
         7
100
AcDbLine
 10
1369.8398320494
 20
170.6846417294
 30
0.0
 11
1369.2033403763
 21
170.6846417294
 31
0.0
  0
ARC
  5
AC
100
AcDbEntity
  8
L1_105
  6
CONTINUOUS
 62
         7
100
AcDbCircle
 10
1368.4042692157
 20
170.8846417294
 30
0.0
 40
0.4
100
AcDbArc
 50
270.0
 51
285.0
  0
LINE
  5
AD
100
AcDbEntity
  8
L1_105
  6
CONTINUOUS
 62
         7
100
AcDbLine
 10
1368.5077968337
 20
170.4982713989
 30
0.0
 11
1369.2033403763
 21
170.6846417294
 31
0.0
  0
LINE
  5
AE
100
AcDbEntity
  8
L1_105
  6
CONTINUOUS
 62
         7
100
AcDbLine
 10
1368.4042692157
 20
170.4846417294
 30
0.0
 11
1367.0033403763
 21
170.4846417294
 31
0.0
  0
DIMENSION
  5
B2
100
AcDbEntity
  8
L1_105
  6
CONTINUOUS
 62
         4
100
AcDbDimension
  2
*D1
 10
1440.1367069289
 20
168.1846417294
 30
0.0
 11
1437.0047069289
 21
142.3329165641
 31
0.0
  3
DIMSTYLE1
100
AcDbAlignedDimension
 13
1419.7033403763
 23
168.1846417294
 33
0.0
 14
1419.7033403763
 24
132.1846417294
 34
0.0
 50
90.0
100
AcDbRotatedDimension
  0
ARC
  5
BF
100
AcDbEntity
  8
L1_105
  6
CONTINUOUS
 62
         7
100
AcDbCircle
 10
1418.7033403763
 20
167.6072914602
 30
0.0
 40
1.0
100
AcDbArc
 50
0.0
 51
60.0
  0
LINE
  5
C0
100
AcDbEntity
  8
L1_105
  6
CONTINUOUS
 62
         7
100
AcDbLine
 10
1419.2033403763
 20
168.473316864
 30
0.0
 11
1415.8373149725
 21
170.416692537
 31
0.0
  0
ARC
  5
C1
100
AcDbEntity
  8
L1_105
  6
CONTINUOUS
 62
         7
100
AcDbCircle
 10
1414.8373149725
 20
168.6846417294
 30
0.0
 40
2.0
100
AcDbArc
 50
60.0
 51
90.0000000001
  0
ARC
  5
C2
100
AcDbEntity
  8
L1_105
  6
CONTINUOUS
 62
         7
100
AcDbCircle
 10
1418.7033403763
 20
132.7619919986
 30
0.0
 40
1.0
100
AcDbArc
 50
300.0
 51
360.0
  0
LINE
  5
C3
100
AcDbEntity
  8
L1_105
  6
CONTINUOUS
 62
         7
100
AcDbLine
 10
1419.2033403763
 20
131.8959665948
 30
0.0
 11
1415.8373149725
 21
129.9525909218
 31
0.0
  0
ARC
  5
C4
100
AcDbEntity
  8
L1_105
  6
CONTINUOUS
 62
         7
100
AcDbCircle
 10
1414.8373149725
 20
131.6846417294
 30
0.0
 40
2.0
100
AcDbArc
 50
269.9999999999
 51
300.0
  0
LINE
  5
C5
100
AcDbEntity
  8
L1_105
  6
CONTINUOUS
 62
         7
100
AcDbLine
 10
1366.2033403763
 20
127.6846417294
 30
0.0
 11
1335.7033403763
 21
127.6846417294
 31
0.0
  0
LINE
  5
C6
100
AcDbEntity
  8
L1_105
  6
CONTINUOUS
 62
         7
100
AcDbLine
 10
1366.2033403763
 20
172.6846417294
 30
0.0
 11
1335.7033403763
 21
172.6846417294
 31
0.0
  0
LINE
  5
C7
100
AcDbEntity
  8
L1_105
  6
CONTINUOUS
 62
         7
100
AcDbLine
 10
1366.7033403763
 20
129.7492168605
 30
0.0
 11
1366.7033403763
 21
170.6200665983
 31
0.0
  0
LINE
  5
C8
100
AcDbEntity
  8
L1_105
  6
CONTINUOUS
 62
         7
100
AcDbLine
 10
1400.7033403763
 20
169.6846417294
 30
0.0
 11
1398.7033403763
 21
169.6846417294
 31
0.0
  0
LINE
  5
C9
100
AcDbEntity
  8
L1_105
  6
CONTINUOUS
 62
         7
100
AcDbLine
 10
1400.7033403763
 20
130.6846417294
 30
0.0
 11
1398.7033403763
 21
130.6846417294
 31
0.0
  0
LINE
  5
CA
100
AcDbEntity
  8
L1_105
  6
CONTINUOUS
 62
         7
100
AcDbLine
 10
1419.7033403763
 20
132.7619919986
 30
0.0
 11
1419.7033403763
 21
167.6072914602
 31
0.0
  0
DIMENSION
  5
CD
100
AcDbEntity
  8
L1_105
  6
CONTINUOUS
 62
         4
100
AcDbDimension
  2
*D2
 10
1467.2526483081
 20
172.6846417294
 30
0.0
 11
1464.1206483081
 21
144.1273538612
 31
0.0
  3
DIMSTYLE1
100
AcDbAlignedDimension
 13
1365.7033403763
 23
172.6846417294
 33
0.0
 14
1365.7033403763
 24
127.6846417294
 34
0.0
 50
90.0
100
AcDbRotatedDimension
  0
LINE
  5
D9
100
AcDbEntity
  8
L1_105
  6
CENTER
 62
         1
100
AcDbLine
 10
1390.1082741959
 20
145.1846417294
 30
0.0
 11
1390.1082741959
 21
155.0346417294
 31
0.0
  0
LINE
  5
DA
100
AcDbEntity
  8
L1_105
  6
CENTER
 62
         1
100
AcDbLine
 10
1375.1083403763
 20
145.1846417294
 30
0.0
 11
1375.1083403763
 21
155.0346417294
 31
0.0
  0
LINE
  5
DB
100
AcDbEntity
  8
L1_105
  6
CONTINUOUS
 62
         4
100
AcDbLine
 10
1369.2033403763
 20
129.6846417294
 30
0.0
 11
1369.2033403763
 21
170.6846417294
 31
0.0
  0
ARC
  5
DC
100
AcDbEntity
  8
L1_105
  6
CONTINUOUS
 62
         7
100
AcDbCircle
 10
1366.2033403763
 20
172.1846417294
 30
0.0
 40
0.5
100
AcDbArc
 50
0.0
 51
90.0
  0
ARC
  5
DD
100
AcDbEntity
  8
L1_105
  6
CONTINUOUS
 62
         7
100
AcDbCircle
 10
1366.2033403763
 20
128.1846417294
 30
0.0
 40
0.5
100
AcDbArc
 50
270.0
 51
360.0
  0
LINE
  5
DE
100
AcDbEntity
  8
L1_105
  6
CONTINUOUS
 62
         7
100
AcDbLine
 10
1390.1082741959
 20
155.1846417294
 30
0.0
 11
1375.1083403763
 21
155.1846417294
 31
0.0
  0
LINE
  5
DF
100
AcDbEntity
  8
L1_105
  6
CONTINUOUS
 62
         7
100
AcDbLine
 10
1390.1082741959
 20
145.1846417294
 30
0.0
 11
1375.1083403763
 21
145.1846417294
 31
0.0
  0
ARC
  5
E0
100
AcDbEntity
  8
L1_105
  6
CONTINUOUS
 62
         7
100
AcDbCircle
 10
1390.1082741959
 20
150.1846417294
 30
0.0
 40
5.0
100
AcDbArc
 50
270.0
 51
450.0
  0
ARC
  5
E1
100
AcDbEntity
  8
L1_105
  6
CONTINUOUS
 62
         7
100
AcDbCircle
 10
1375.1083403763
 20
150.1846417294
 30
0.0
 40
5.0
100
AcDbArc
 50
90.0
 51
270.0
  0
LINE
  5
E2
100
AcDbEntity
  8
L1_105
  6
CONTINUOUS
 62
         7
100
AcDbLine
 10
1398.6033403763
 20
170.6846417294
 30
0.0
 11
1369.2033403763
 21
170.6846417294
 31
0.0
  0
LINE
  5
E3
100
AcDbEntity
  8
L1_105
  6
CONTINUOUS
 62
         7
100
AcDbLine
 10
1398.6033403763
 20
170.6846417294
 30
0.0
 11
1398.7033403763
 21
170.5846417294
 31
0.0
  0
LINE
  5
E4
100
AcDbEntity
  8
L1_105
  6
CONTINUOUS
 62
         7
100
AcDbLine
 10
1414.8373149725
 20
170.6846417294
 30
0.0
 11
1400.8033403763
 21
170.6846417294
 31
0.0
  0
LINE
  5
E5
100
AcDbEntity
  8
L1_105
  6
CONTINUOUS
 62
         7
100
AcDbLine
 10
1400.7033403763
 20
170.5846417294
 30
0.0
 11
1400.8033403763
 21
170.6846417294
 31
0.0
  0
LINE
  5
E6
100
AcDbEntity
  8
L1_105
  6
CONTINUOUS
 62
         7
100
AcDbLine
 10
1398.7033403763
 20
170.5846417294
 30
0.0
 11
1398.7033403763
 21
129.7846417294
 31
0.0
  0
LINE
  5
E7
100
AcDbEntity
  8
L1_105
  6
CONTINUOUS
 62
         7
100
AcDbLine
 10
1398.6033403763
 20
129.6846417294
 30
0.0
 11
1369.2033403763
 21
129.6846417294
 31
0.0
  0
LINE
  5
E8
100
AcDbEntity
  8
L1_105
  6
CONTINUOUS
 62
         7
100
AcDbLine
 10
1398.7033403763
 20
129.7846417294
 30
0.0
 11
1398.6033403763
 21
129.6846417294
 31
0.0
  0
LINE
  5
E9
100
AcDbEntity
  8
L1_105
  6
CONTINUOUS
 62
         7
100
AcDbLine
 10
1400.7033403763
 20
170.5846417294
 30
0.0
 11
1400.7033403763
 21
129.7846417294
 31
0.0
  0
LINE
  5
EA
100
AcDbEntity
  8
L1_105
  6
CONTINUOUS
 62
         7
100
AcDbLine
 10
1414.8373149725
 20
129.6846417294
 30
0.0
 11
1400.8033403763
 21
129.6846417294
 31
0.0
  0
LINE
  5
EB
100
AcDbEntity
  8
L1_105
  6
CONTINUOUS
 62
         7
100
AcDbLine
 10
1400.7033403763
 20
129.7846417294
 30
0.0
 11
1400.8033403763
 21
129.6846417294
 31
0.0
  0
LINE
  5
EC
100
AcDbEntity
  8
L1_105
  6
CENTER
 62
         1
100
AcDbLine
 10
1419.7033403763
 20
150.1846417294
 30
0.0
 11
1333.7033403763
 21
150.1846417294
 31
0.0
  0
LINE
  5
ED
100
AcDbEntity
  8
L1_105
  6
CONTINUOUS
 62
         7
100
AcDbLine
 10
1366.7033403763
 20
8.4566652593
 30
0.0
 11
1366.7033403763
 21
9.0566652593
 31
0.0
  0
ARC
  5
EE
100
AcDbEntity
  8
L1_105
  6
CONTINUOUS
 62
         7
100
AcDbCircle
 10
1367.0033403763
 20
7.7566652593
 30
0.0
 40
0.4
100
AcDbArc
 50
181.5109716561
 51
270.0
  0
LINE
  5
EF
100
AcDbEntity
  8
L1_105
  6
CONTINUOUS
 62
         7
100
AcDbLine
 10
1366.6034794587
 20
7.7461179098
 30
0.0
 11
1366.7033403763
 21
8.4566652593
 31
0.0
  0
LINE
  5
F0
100
AcDbEntity
  8
L1_105
  6
CONTINUOUS
 62
         7
100
AcDbLine
 10
1369.8898320494
 20
7.5566652593
 30
0.0
 11
1369.2033403763
 21
7.5566652593
 31
0.0
  0
ARC
  5
F1
100
AcDbEntity
  8
L1_105
  6
CONTINUOUS
 62
         7
100
AcDbCircle
 10
1368.4042692157
 20
7.7566652593
 30
0.0
 40
0.4
100
AcDbArc
 50
270.0
 51
285.0
  0
LINE
  5
F2
100
AcDbEntity
  8
L1_105
  6
CONTINUOUS
 62
         7
100
AcDbLine
 10
1368.5077968337
 20
7.3702949288
 30
0.0
 11
1369.2033403763
 21
7.5566652593
 31
0.0
  0
LINE
  5
F3
100
AcDbEntity
  8
L1_105
  6
CONTINUOUS
 62
         7
100
AcDbLine
 10
1368.4042692157
 20
7.3566652593
 30
0.0
 11
1367.0033403763
 21
7.3566652593
 31
0.0
  0
LINE
  5
F4
100
AcDbEntity
  8
L1_105
  6
CONTINUOUS
 62
         7
100
AcDbLine
 10
1366.7033403763
 20
-34.3433347407
 30
0.0
 11
1366.7033403763
 21
-34.9433347407
 31
0.0
  0
ARC
  5
F5
100
AcDbEntity
  8
L1_105
  6
CONTINUOUS
 62
         7
100
AcDbCircle
 10
1367.0033403763
 20
-33.6433347407
 30
0.0
 40
0.4
100
AcDbArc
 50
90.0
 51
178.4890283439
  0
LINE
  5
F6
100
AcDbEntity
  8
L1_105
  6
CONTINUOUS
 62
         7
100
AcDbLine
 10
1366.6034794587
 20
-33.6327873912
 30
0.0
 11
1366.7033403763
 21
-34.3433347407
 31
0.0
  0
LINE
  5
F7
100
AcDbEntity
  8
L1_105
  6
CONTINUOUS
 62
         7
100
AcDbLine
 10
1369.8398320494
 20
-33.4433347407
 30
0.0
 11
1369.2033403763
 21
-33.4433347407
 31
0.0
  0
ARC
  5
F8
100
AcDbEntity
  8
L1_105
  6
CONTINUOUS
 62
         7
100
AcDbCircle
 10
1368.4042692157
 20
-33.6433347407
 30
0.0
 40
0.4
100
AcDbArc
 50
75.0
 51
90.0
  0
LINE
  5
F9
100
AcDbEntity
  8
L1_105
  6
CONTINUOUS
 62
         7
100
AcDbLine
 10
1368.5077968337
 20
-33.2569644102
 30
0.0
 11
1369.2033403763
 21
-33.4433347407
 31
0.0
  0
LINE
  5
FA
100
AcDbEntity
  8
L1_105
  6
CONTINUOUS
 62
         7
100
AcDbLine
 10
1368.4042692157
 20
-33.2433347407
 30
0.0
 11
1367.0033403763
 21
-33.2433347407
 31
0.0
  0
LINE
  5
FB
100
AcDbEntity
  8
L1_105
  6
CONTINUOUS
 62
         7
100
AcDbLine
 10
1355.2033403763
 20
-35.4433347407
 30
0.0
 11
1355.2033403763
 21
-29.4433347407
 31
0.0
  0
LINE
  5
FC
100
AcDbEntity
  8
L1_105
  6
CONTINUOUS
 62
         7
100
AcDbLine
 10
1357.2033403763
 20
-35.4433347407
 30
0.0
 11
1357.2033403763
 21
-29.4433347407
 31
0.0
  0
LINE
  5
FD
100
AcDbEntity
  8
L1_105
  6
CENTER
 62
         1
100
AcDbLine
 10
1356.2033403763
 20
-36.883636675
 30
0.0
 11
1356.2033403763
 21
-28.2483828809
 31
0.0
  0
LINE
  5
FE
100
AcDbEntity
  8
L1_105
  6
CONTINUOUS
 62
         7
100
AcDbLine
 10
1419.4533403763
 20
-31.087672308
 30
0.0
 11
1415.8373149725
 21
-33.1753855482
 31
0.0
  0
ARC
  5
FF
100
AcDbEntity
  8
L1_105
  6
CONTINUOUS
 62
         7
100
AcDbCircle
 10
1414.8373149725
 20
-31.4433347407
 30
0.0
 40
2.0
100
AcDbArc
 50
269.9999999999
 51
300.0
  0
ARC
  5
100
100
AcDbEntity
  8
L1_105
  6
CONTINUOUS
 62
         7
100
AcDbCircle
 10
1414.8373149725
 20
5.5566652593
 30
0.0
 40
2.0
100
AcDbArc
 50
60.0
 51
90.0000000001
  0
LINE
  5
101
100
AcDbEntity
  8
L1_105
  6
CONTINUOUS
 62
         7
100
AcDbLine
 10
1419.4533403763
 20
5.2010028266
 30
0.0
 11
1415.8373149725
 21
7.2887160669
 31
0.0
  0
LINE
  5
102
100
AcDbEntity
  8
L1_105
  6
CONTINUOUS
 62
         7
100
AcDbLine
 10
1366.2033403763
 20
-35.4433347407
 30
0.0
 11
1335.7033403763
 21
-35.4433347407
 31
0.0
  0
LINE
  5
103
100
AcDbEntity
  8
L1_105
  6
CONTINUOUS
 62
         7
100
AcDbLine
 10
1366.2033403763
 20
9.5566652593
 30
0.0
 11
1335.7033403763
 21
9.5566652593
 31
0.0
  0
LINE
  5
104
100
AcDbEntity
  8
L1_105
  6
CONTINUOUS
 62
         7
100
AcDbLine
 10
1358.7033403763
 20
-29.4433347407
 30
0.0
 11
1353.7033403763
 21
-29.4433347407
 31
0.0
  0
LINE
  5
105
100
AcDbEntity
  8
L1_105
  6
CONTINUOUS
 62
         7
100
AcDbLine
 10
1358.7033403763
 20
3.5566652593
 30
0.0
 11
1353.7033403763
 21
3.5566652593
 31
0.0
  0
LINE
  5
106
100
AcDbEntity
  8
L1_105
  6
CONTINUOUS
 62
         7
100
AcDbLine
 10
1358.7033403763
 20
-29.4433347407
 30
0.0
 11
1358.7033403763
 21
3.5566652593
 31
0.0
  0
LINE
  5
107
100
AcDbEntity
  8
L1_105
  6
CONTINUOUS
 62
         7
100
AcDbLine
 10
1353.7033403763
 20
-29.4433347407
 30
0.0
 11
1353.7033403763
 21
3.5566652593
 31
0.0
  0
LINE
  5
108
100
AcDbEntity
  8
L1_105
  6
CONTINUOUS
 62
         4
100
AcDbLine
 10
1353.7033403763
 20
-9.9433347407
 30
0.0
 11
1341.7033403763
 21
-9.9433347407
 31
0.0
  0
LINE
  5
109
100
AcDbEntity
  8
L1_105
  6
CONTINUOUS
 62
         4
100
AcDbLine
 10
1353.7033403763
 20
-15.9433347407
 30
0.0
 11
1341.7033403763
 21
-15.9433347407
 31
0.0
  0
LINE
  5
10A
100
AcDbEntity
  8
L1_105
  6
CONTINUOUS
 62
         7
100
AcDbLine
 10
1341.7033403763
 20
-15.9433347407
 30
0.0
 11
1341.7033403763
 21
-9.9433347407
 31
0.0
  0
LINE
  5
10B
100
AcDbEntity
  8
L1_105
  6
CONTINUOUS
 62
         7
100
AcDbLine
 10
1401.7033403763
 20
6.5566652593
 30
0.0
 11
1399.7033403763
 21
6.5566652593
 31
0.0
  0
LINE
  5
10C
100
AcDbEntity
  8
L1_105
  6
CONTINUOUS
 62
         7
100
AcDbLine
 10
1401.7033403763
 20
-32.4433347407
 30
0.0
 11
1399.7033403763
 21
-32.4433347407
 31
0.0
  0
LINE
  5
10D
100
AcDbEntity
  8
L1_105
  6
CONTINUOUS
 62
         7
100
AcDbLine
 10
1399.7033403763
 20
-30.4433347407
 30
0.0
 11
1394.7033403763
 21
-30.4433347407
 31
0.0
  0
LINE
  5
10E
100
AcDbEntity
  8
L1_105
  6
CONTINUOUS
 62
         7
100
AcDbLine
 10
1399.7033403763
 20
4.5566652593
 30
0.0
 11
1394.7033403763
 21
4.5566652593
 31
0.0
  0
LINE
  5
10F
100
AcDbEntity
  8
L1_105
  6
CONTINUOUS
 62
         7
100
AcDbLine
 10
1393.7033403763
 20
-28.9433347407
 30
0.0
 11
1358.7033403763
 21
-28.9433347407
 31
0.0
  0
LINE
  5
110
100
AcDbEntity
  8
L1_105
  6
CONTINUOUS
 62
         7
100
AcDbLine
 10
1393.7033403763
 20
3.0566652593
 30
0.0
 11
1358.7033403763
 21
3.0566652593
 31
0.0
  0
LINE
  5
111
100
AcDbEntity
  8
L1_105
  6
CONTINUOUS
 62
         7
100
AcDbLine
 10
1399.7033403763
 20
-30.4433347407
 30
0.0
 11
1399.7033403763
 21
4.5566652593
 31
0.0
  0
LINE
  5
112
100
AcDbEntity
  8
L1_105
  6
CONTINUOUS
 62
         7
100
AcDbLine
 10
1394.7033403763
 20
-30.4433347407
 30
0.0
 11
1394.7033403763
 21
-27.5088624116
 31
0.0
  0
LINE
  5
113
100
AcDbEntity
  8
L1_105
  6
CONTINUOUS
 62
         7
100
AcDbLine
 10
1417.7033403763
 20
-29.9433347407
 30
0.0
 11
1399.7033403763
 21
-29.9433347407
 31
0.0
  0
LINE
  5
114
100
AcDbEntity
  8
L1_105
  6
CONTINUOUS
 62
         7
100
AcDbLine
 10
1417.7033403763
 20
4.0566652593
 30
0.0
 11
1399.7033403763
 21
4.0566652593
 31
0.0
  0
LINE
  5
115
100
AcDbEntity
  8
L1_105
  6
CONTINUOUS
 62
         7
100
AcDbLine
 10
1338.7020155108
 20
-15.4433347407
 30
0.0
 11
1337.2586398379
 21
-12.9433347407
 31
0.0
  0
LINE
  5
116
100
AcDbEntity
  8
L1_105
  6
CONTINUOUS
 62
         7
100
AcDbLine
 10
1338.7020155108
 20
-10.4433347407
 30
0.0
 11
1337.2586398379
 21
-12.9433347407
 31
0.0
  0
ARC
  5
117
100
AcDbEntity
  8
L1_105
  6
CONTINUOUS
 62
         7
100
AcDbCircle
 10
1366.2033403763
 20
9.0566652593
 30
0.0
 40
0.5
100
AcDbArc
 50
0.0
 51
90.0
  0
ARC
  5
118
100
AcDbEntity
  8
L1_105
  6
CONTINUOUS
 62
         7
100
AcDbCircle
 10
1366.2033403763
 20
-34.9433347407
 30
0.0
 40
0.5
100
AcDbArc
 50
270.0
 51
360.0
  0
LINE
  5
119
100
AcDbEntity
  8
L1_105
  6
CONTINUOUS
 62
         7
100
AcDbLine
 10
1395.1082741959
 20
4.5566652593
 30
0.0
 11
1395.1082741959
 21
7.5566652593
 31
0.0
  0
LINE
  5
11A
100
AcDbEntity
  8
L1_105
  6
CONTINUOUS
 62
         7
100
AcDbLine
 10
1370.1083403763
 20
3.0566652593
 30
0.0
 11
1370.1083403763
 21
7.5566652593
 31
0.0
  0
LINE
  5
11B
100
AcDbEntity
  8
L1_105
  6
CENTER
 62
         1
100
AcDbLine
 10
1390.1082741959
 20
-0.354140038
 30
0.0
 11
1390.1082741959
 21
12.7589287345
 31
0.0
  0
LINE
  5
11C
100
AcDbEntity
  8
L1_105
  6
CENTER
 62
         1
100
AcDbLine
 10
1375.1083403763
 20
-0.354140038
 30
0.0
 11
1375.1083403763
 21
12.7589287345
 31
0.0
  0
LINE
  5
11D
100
AcDbEntity
  8
L1_105
  6
CONTINUOUS
 62
         4
100
AcDbLine
 10
1417.7033403763
 20
-29.9433347407
 30
0.0
 11
1417.7033403763
 21
4.0566652593
 31
0.0
  0
LINE
  5
11E
100
AcDbEntity
  8
L1_105
  6
CONTINUOUS
 62
         7
100
AcDbLine
 10
1419.2469182476
 20
4.1917108243
 30
0.0
 11
1417.7033403763
 21
4.0566652593
 31
0.0
  0
ARC
  5
11F
100
AcDbEntity
  8
L1_105
  6
CONTINUOUS
 62
         7
100
AcDbCircle
 10
1419.2033403763
 20
4.7679901247
 30
0.0
 40
0.5
100
AcDbArc
 50
0.0
 51
60.0
  0
ARC
  5
120
100
AcDbEntity
  8
L1_105
  6
CONTINUOUS
 62
         7
100
AcDbCircle
 10
1419.2033403763
 20
4.6898081734
 30
0.0
 40
0.5
100
AcDbArc
 50
275.0
 51
360.0
  0
ARC
  5
121
100
AcDbEntity
  8
L1_105
  6
CONTINUOUS
 62
         7
100
AcDbCircle
 10
1419.2033403763
 20
-30.6546596061
 30
0.0
 40
0.5
100
AcDbArc
 50
300.0
 51
360.0
  0
ARC
  5
122
100
AcDbEntity
  8
L1_105
  6
CONTINUOUS
 62
         7
100
AcDbCircle
 10
1419.2033403763
 20
-30.5764776547
 30
0.0
 40
0.5
100
AcDbArc
 50
0.0
 51
85.0
  0
LINE
  5
123
100
AcDbEntity
  8
L1_105
  6
CONTINUOUS
 62
         7
100
AcDbLine
 10
1419.2469182476
 20
-30.0783803057
 30
0.0
 11
1417.7033403763
 21
-29.9433347407
 31
0.0
  0
ARC
  5
124
100
AcDbEntity
  8
L1_105
  6
CONTINUOUS
 62
         7
100
AcDbCircle
 10
1393.7033403763
 20
-29.9433347407
 30
0.0
 40
1.0
100
AcDbArc
 50
0.0
 51
90.0
  0
ARC
  5
125
100
AcDbEntity
  8
L1_105
  6
CONTINUOUS
 62
         7
100
AcDbCircle
 10
1393.7033403763
 20
4.0566652593
 30
0.0
 40
1.0
100
AcDbArc
 50
270.0
 51
360.0
  0
LINE
  5
126
100
AcDbEntity
  8
L1_105
  6
CONTINUOUS
 62
         4
100
AcDbLine
 10
1393.7033403763
 20
-28.9433347407
 30
0.0
 11
1393.7033403763
 21
-28.0459566002
 31
0.0
  0
LINE
  5
127
100
AcDbEntity
  8
L1_105
  6
CONTINUOUS
 62
         7
100
AcDbLine
 10
1399.6033403763
 20
7.5566652593
 30
0.0
 11
1369.2033403763
 21
7.5566652593
 31
0.0
  0
LINE
  5
128
100
AcDbEntity
  8
L1_105
  6
CONTINUOUS
 62
         7
100
AcDbLine
 10
1399.7033403763
 20
6.5566652593
 30
0.0
 11
1399.7033403763
 21
7.4566652593
 31
0.0
  0
LINE
  5
129
100
AcDbEntity
  8
L1_105
  6
CONTINUOUS
 62
         7
100
AcDbLine
 10
1399.6033403763
 20
7.5566652593
 30
0.0
 11
1399.7033403763
 21
7.4566652593
 31
0.0
  0
LINE
  5
12A
100
AcDbEntity
  8
L1_105
  6
CONTINUOUS
 62
         7
100
AcDbLine
 10
1401.7033403763
 20
6.5566652593
 30
0.0
 11
1401.7033403763
 21
7.4566652593
 31
0.0
  0
LINE
  5
12B
100
AcDbEntity
  8
L1_105
  6
CONTINUOUS
 62
         7
100
AcDbLine
 10
1414.8373149725
 20
7.5566652593
 30
0.0
 11
1401.8033403763
 21
7.5566652593
 31
0.0
  0
LINE
  5
12C
100
AcDbEntity
  8
L1_105
  6
CONTINUOUS
 62
         7
100
AcDbLine
 10
1401.7033403763
 20
7.4566652593
 30
0.0
 11
1401.8033403763
 21
7.5566652593
 31
0.0
  0
LINE
  5
12D
100
AcDbEntity
  8
L1_105
  6
CONTINUOUS
 62
         7
100
AcDbLine
 10
1399.7033403763
 20
-32.4433347407
 30
0.0
 11
1399.7033403763
 21
-33.3433347407
 31
0.0
  0
LINE
  5
12E
100
AcDbEntity
  8
L1_105
  6
CONTINUOUS
 62
         7
100
AcDbLine
 10
1399.6033403763
 20
-33.4433347407
 30
0.0
 11
1369.2033403763
 21
-33.4433347407
 31
0.0
  0
LINE
  5
12F
100
AcDbEntity
  8
L1_105
  6
CONTINUOUS
 62
         7
100
AcDbLine
 10
1399.7033403763
 20
-33.3433347407
 30
0.0
 11
1399.6033403763
 21
-33.4433347407
 31
0.0
  0
LINE
  5
130
100
AcDbEntity
  8
L1_105
  6
CONTINUOUS
 62
         7
100
AcDbLine
 10
1401.7033403763
 20
-32.4433347407
 30
0.0
 11
1401.7033403763
 21
-33.3433347407
 31
0.0
  0
LINE
  5
131
100
AcDbEntity
  8
L1_105
  6
CONTINUOUS
 62
         7
100
AcDbLine
 10
1414.8373149725
 20
-33.4433347407
 30
0.0
 11
1401.8033403763
 21
-33.4433347407
 31
0.0
  0
LINE
  5
132
100
AcDbEntity
  8
L1_105
  6
CONTINUOUS
 62
         7
100
AcDbLine
 10
1401.7033403763
 20
-33.3433347407
 30
0.0
 11
1401.8033403763
 21
-33.4433347407
 31
0.0
  0
LINE
  5
133
100
AcDbEntity
  8
L1_105
  6
CENTER
 62
         1
100
AcDbLine
 10
1419.7033403763
 20
-12.9433347407
 30
0.0
 11
1333.7033403763
 21
-12.9433347407
 31
0.0
  0
CIRCLE
  5
134
100
AcDbEntity
  8
L1_105
  6
CONTINUOUS
 62
         7
100
AcDbCircle
 10
1583.2833403763
 20
150.1846417294
 30
0.0
 40
20.5
  0
CIRCLE
  5
135
100
AcDbEntity
  8
L1_105
  6
CONTINUOUS
 62
         7
100
AcDbCircle
 10
1583.2833403763
 20
150.1846417294
 30
0.0
 40
22.5
  0
CIRCLE
  5
136
100
AcDbEntity
  8
L1_105
  6
CONTINUOUS
 62
         7
100
AcDbCircle
 10
1583.2833403763
 20
150.1846417294
 30
0.0
 40
18.0
  0
LINE
  5
137
100
AcDbEntity
  8
L1_105
  6
CENTER
 62
         1
100
AcDbLine
 10
1605.7833403763
 20
150.1846417294
 30
0.0
 11
1560.7833403763
 21
150.1846417294
 31
0.0
  0
LINE
  5
138
100
AcDbEntity
  8
L1_105
  6
CENTER
 62
         1
100
AcDbLine
 10
1583.2833403763
 20
127.6846417294
 30
0.0
 11
1583.2833403763
 21
172.6846417294
 31
0.0
  0
LINE
  5
139
100
AcDbEntity
  8
L1_105
  6
DASHED
 62
         2
100
AcDbLine
 10
1565.9917239105
 20
155.1846417294
 30
0.0
 11
1563.4024450242
 21
155.1846417294
 31
0.0
  0
LINE
  5
13A
100
AcDbEntity
  8
L1_105
  6
DASHED
 62
         2
100
AcDbLine
 10
1565.9917239105
 20
145.1846417294
 30
0.0
 11
1563.4024450242
 21
145.1846417294
 31
0.0
  0
LINE
  5
13B
100
AcDbEntity
  8
L1_105
  6
DASHED
 62
         2
100
AcDbLine
 10
1587.5990215902
 20
132.7096625975
 30
0.0
 11
1588.8936610334
 21
130.4672813045
 31
0.0
  0
LINE
  5
13C
100
AcDbEntity
  8
L1_105
  6
DASHED
 62
         2
100
AcDbLine
 10
1596.2592756281
 20
137.7096625975
 30
0.0
 11
1597.5539150712
 21
135.4672813045
 31
0.0
  0
LINE
  5
13D
100
AcDbEntity
  8
L1_105
  6
DASHED
 62
         2
100
AcDbLine
 10
1596.2592756281
 20
162.6596208613
 30
0.0
 11
1597.5539150712
 21
164.9020021543
 31
0.0
  0
LINE
  5
13E
100
AcDbEntity
  8
L1_105
  6
DASHED
 62
         2
100
AcDbLine
 10
1587.5990215902
 20
167.6596208613
 30
0.0
 11
1588.8936610334
 21
169.9020021543
 31
0.0
  0
LINE
  5
13F
100
AcDbEntity
  8
L1_105
  6
CONTINUOUS
 62
         4
100
AcDbLine
 10
1415.3732133573
 20
129.7577756414
 30
0.0
 11
1415.3732133573
 21
170.6115078174
 31
0.0
  0
LINE
  5
140
100
AcDbEntity
  8
L1_105
  6
CONTINUOUS
 62
         7
100
AcDbLine
 10
1338.7020155108
 20
-15.4433347407
 30
0.0
 11
1338.7020155108
 21
-10.4433347407
 31
0.0
  0
POLYLINE
  5
142
100
AcDbEntity
  8
L1_105
  6
CONTINUOUS
 62
         7
100
AcDb2dPolyline
 66
         1
 10
0.0
 20
0.0
 30
0.0
 70
         2
  0
VERTEX
  5
144
100
AcDbEntity
  8
L1_105
  6
CONTINUOUS
 62
         7
100
AcDbVertex
100
AcDb2dVertex
 10
1374.8633403763
 20
-23.7807932717
 30
0.0
 70
         1
  0
VERTEX
  5
146
100
AcDbEntity
  8
L1_105
  6
CONTINUOUS
 62
         7
100
AcDbVertex
100
AcDb2dVertex
 10
1374.1270268265
 20
-23.8172080212
 30
0.0
 70
         1
  0
VERTEX
  5
148
100
AcDbEntity
  8
L1_105
  6
CONTINUOUS
 62
         7
100
AcDbVertex
100
AcDb2dVertex
 10
1373.7698262537
 20
-23.8617089771
 30
0.0
 70
         1
  0
VERTEX
  5
14A
100
AcDbEntity
  8
L1_105
  6
CONTINUOUS
 62
         7
100
AcDbVertex
100
AcDb2dVertex
 10
1373.4251979753
 20
-23.9221834513
 30
0.0
 70
         1
  0
VERTEX
  5
14C
100
AcDbEntity
  8
L1_105
  6
CONTINUOUS
 62
         7
100
AcDbVertex
100
AcDb2dVertex
 10
1373.0964342832
 20
-23.996958076
 30
0.0
 70
         1
  0
VERTEX
  5
14E
100
AcDbEntity
  8
L1_105
  6
CONTINUOUS
 62
         7
100
AcDbVertex
100
AcDb2dVertex
 10
1372.6818920548
 20
-24.1172387495
 30
0.0
 70
         1
  0
VERTEX
  5
150
100
AcDbEntity
  8
L1_105
  6
CONTINUOUS
 62
         7
100
AcDbVertex
100
AcDb2dVertex
 10
1372.3054854529
 20
-24.2547988428
 30
0.0
 70
         1
  0
VERTEX
  5
152
100
AcDbEntity
  8
L1_105
  6
CONTINUOUS
 62
         7
100
AcDbVertex
100
AcDb2dVertex
 10
1371.9693614076
 20
-24.4043167433
 30
0.0
 70
         1
  0
VERTEX
  5
154
100
AcDbEntity
  8
L1_105
  6
CONTINUOUS
 62
         7
100
AcDbVertex
100
AcDb2dVertex
 10
1371.6736517259
 20
-24.5607936753
 30
0.0
 70
         1
  0
VERTEX
  5
156
100
AcDbEntity
  8
L1_105
  6
CONTINUOUS
 62
         7
100
AcDbVertex
100
AcDb2dVertex
 10
1371.4168909215
 20
-24.7198258204
 30
0.0
 70
         1
  0
VERTEX
  5
158
100
AcDbEntity
  8
L1_105
  6
CONTINUOUS
 62
         7
100
AcDbVertex
100
AcDb2dVertex
 10
1371.1257447951
 20
-24.9334812217
 30
0.0
 70
         1
  0
VERTEX
  5
15A
100
AcDbEntity
  8
L1_105
  6
CONTINUOUS
 62
         7
100
AcDbVertex
100
AcDb2dVertex
 10
1370.8931782752
 20
-25.138311958
 30
0.0
 70
         1
  0
VERTEX
  5
15C
100
AcDbEntity
  8
L1_105
  6
CONTINUOUS
 62
         7
100
AcDbVertex
100
AcDb2dVertex
 10
1370.710007375
 20
-25.3298627061
 30
0.0
 70
         1
  0
VERTEX
  5
15E
100
AcDbEntity
  8
L1_105
  6
CONTINUOUS
 62
         7
100
AcDbVertex
100
AcDb2dVertex
 10
1370.5234141246
 20
-25.5661611148
 30
0.0
 70
         1
  0
VERTEX
  5
160
100
AcDbEntity
  8
L1_105
  6
CONTINUOUS
 62
         7
100
AcDbVertex
100
AcDb2dVertex
 10
1370.3928404172
 20
-25.7711536684
 30
0.0
 70
         1
  0
VERTEX
  5
162
100
AcDbEntity
  8
L1_105
  6
CONTINUOUS
 62
         7
100
AcDbVertex
100
AcDb2dVertex
 10
1370.2759324227
 20
-26.0053009057
 30
0.0
 70
         1
  0
VERTEX
  5
164
100
AcDbEntity
  8
L1_105
  6
CONTINUOUS
 62
         7
100
AcDbVertex
100
AcDb2dVertex
 10
1370.1873983751
 20
-26.2515202576
 30
0.0
 70
         1
  0
VERTEX
  5
166
100
AcDbEntity
  8
L1_105
  6
CONTINUOUS
 62
         7
100
AcDbVertex
100
AcDb2dVertex
 10
1370.1349108724
 20
-26.4810370018
 30
0.0
 70
         1
  0
VERTEX
  5
168
100
AcDbEntity
  8
L1_105
  6
CONTINUOUS
 62
         7
100
AcDbVertex
100
AcDb2dVertex
 10
1370.1100053935
 20
-26.7198558174
 30
0.0
 70
         1
  0
VERTEX
  5
16A
100
AcDbEntity
  8
L1_105
  6
CONTINUOUS
 62
         7
100
AcDbVertex
100
AcDb2dVertex
 10
1370.1083403763
 20
-26.7997410839
 30
0.0
 70
         1
  0
SEQEND
  5
16C
100
AcDbEntity
  8
L1_105
  6
CONTINUOUS
 62
         7
  0
POLYLINE
  5
16E
100
AcDbEntity
  8
L1_105
  6
CONTINUOUS
 62
         7
100
AcDb2dPolyline
 66
         1
 10
0.0
 20
0.0
 30
0.0
 70
         2
  0
VERTEX
  5
170
100
AcDbEntity
  8
L1_105
  6
CONTINUOUS
 62
         7
100
AcDbVertex
100
AcDb2dVertex
 10
1370.1083403763
 20
-26.7997410839
 30
0.0
 70
         1
  0
VERTEX
  5
172
100
AcDbEntity
  8
L1_105
  6
CONTINUOUS
 62
         7
100
AcDbVertex
100
AcDb2dVertex
 10
1370.1656955029
 20
-27.0716664298
 30
0.0
 70
         1
  0
VERTEX
  5
174
100
AcDbEntity
  8
L1_105
  6
CONTINUOUS
 62
         7
100
AcDbVertex
100
AcDb2dVertex
 10
1370.2357868256
 20
-27.2035829066
 30
0.0
 70
         1
  0
VERTEX
  5
176
100
AcDbEntity
  8
L1_105
  6
CONTINUOUS
 62
         7
100
AcDbVertex
100
AcDb2dVertex
 10
1370.3310372714
 20
-27.330856354
 30
0.0
 70
         1
  0
VERTEX
  5
178
100
AcDbEntity
  8
L1_105
  6
CONTINUOUS
 62
         7
100
AcDbVertex
100
AcDb2dVertex
 10
1370.4488111988
 20
-27.4522709073
 30
0.0
 70
         1
  0
VERTEX
  5
17A
100
AcDbEntity
  8
L1_105
  6
CONTINUOUS
 62
         7
100
AcDbVertex
100
AcDb2dVertex
 10
1370.5860308305
 20
-27.566854512
 30
0.0
 70
         1
  0
VERTEX
  5
17C
100
AcDbEntity
  8
L1_105
  6
CONTINUOUS
 62
         7
100
AcDbVertex
100
AcDb2dVertex
 10
1370.7393565047
 20
-27.6738967172
 30
0.0
 70
         1
  0
VERTEX
  5
17E
100
AcDbEntity
  8
L1_105
  6
CONTINUOUS
 62
         7
100
AcDbVertex
100
AcDb2dVertex
 10
1370.9053607744
 20
-27.7729475013
 30
0.0
 70
         1
  0
VERTEX
  5
180
100
AcDbEntity
  8
L1_105
  6
CONTINUOUS
 62
         7
100
AcDbVertex
100
AcDb2dVertex
 10
1371.0806822679
 20
-27.8638002456
 30
0.0
 70
         1
  0
VERTEX
  5
182
100
AcDbEntity
  8
L1_105
  6
CONTINUOUS
 62
         7
100
AcDbVertex
100
AcDb2dVertex
 10
1371.3268416869
 20
-27.9736013858
 30
0.0
 70
         1
  0
VERTEX
  5
184
100
AcDbEntity
  8
L1_105
  6
CONTINUOUS
 62
         7
100
AcDbVertex
100
AcDb2dVertex
 10
1371.5772832493
 20
-28.0689874369
 30
0.0
 70
         1
  0
VERTEX
  5
186
100
AcDbEntity
  8
L1_105
  6
CONTINUOUS
 62
         7
100
AcDbVertex
100
AcDb2dVertex
 10
1371.8261894914
 20
-28.1509051343
 30
0.0
 70
         1
  0
VERTEX
  5
188
100
AcDbEntity
  8
L1_105
  6
CONTINUOUS
 62
         7
100
AcDbVertex
100
AcDb2dVertex
 10
1372.1537735911
 20
-28.242792659
 30
0.0
 70
         1
  0
VERTEX
  5
18A
100
AcDbEntity
  8
L1_105
  6
CONTINUOUS
 62
         7
100
AcDbVertex
100
AcDb2dVertex
 10
1372.4621399662
 20
-28.315439811
 30
0.0
 70
         1
  0
VERTEX
  5
18C
100
AcDbEntity
  8
L1_105
  6
CONTINUOUS
 62
         7
100
AcDbVertex
100
AcDb2dVertex
 10
1372.8447036819
 20
-28.3896956925
 30
0.0
 70
         1
  0
VERTEX
  5
18E
100
AcDbEntity
  8
L1_105
  6
CONTINUOUS
 62
         7
100
AcDbVertex
100
AcDb2dVertex
 10
1373.2926638464
 20
-28.457223677
 30
0.0
 70
         1
  0
VERTEX
  5
190
100
AcDbEntity
  8
L1_105
  6
CONTINUOUS
 62
         7
100
AcDbVertex
100
AcDb2dVertex
 10
1373.7733395777
 20
-28.5090325596
 30
0.0
 70
         1
  0
VERTEX
  5
192
100
AcDbEntity
  8
L1_105
  6
CONTINUOUS
 62
         7
100
AcDbVertex
100
AcDb2dVertex
 10
1374.3812752366
 20
-28.5467455739
 30
0.0
 70
         1
  0
VERTEX
  5
194
100
AcDbEntity
  8
L1_105
  6
CONTINUOUS
 62
         7
100
AcDbVertex
100
AcDb2dVertex
 10
1374.8633403762
 20
-28.5557932717
 30
0.0
 70
         1
  0
SEQEND
  5
196
100
AcDbEntity
  8
L1_105
  6
CONTINUOUS
 62
         7
  0
LINE
  5
197
100
AcDbEntity
  8
L1_105
  6
CONTINUOUS
 62
         7
100
AcDbLine
 10
1390.3532780192
 20
-28.555793389
 30
0.0
 11
1374.8633403632
 21
-28.5557932717
 31
0.0
  0
LINE
  5
198
100
AcDbEntity
  8
L1_105
  6
CONTINUOUS
 62
         7
100
AcDbLine
 10
1390.3532741959
 20
-23.780793389
 30
0.0
 11
1374.8633403763
 21
-23.7807932717
 31
0.0
  0
POLYLINE
  5
19A
100
AcDbEntity
  8
L1_105
  6
CONTINUOUS
 62
         7
100
AcDb2dPolyline
 66
         1
 10
0.0
 20
0.0
 30
0.0
 70
         2
  0
VERTEX
  5
19C
100
AcDbEntity
  8
L1_105
  6
CONTINUOUS
 62
         7
100
AcDbVertex
100
AcDb2dVertex
 10
1395.1082741959
 20
-26.7997412012
 30
0.0
 70
         1
  0
VERTEX
  5
19E
100
AcDbEntity
  8
L1_105
  6
CONTINUOUS
 62
         7
100
AcDbVertex
100
AcDb2dVertex
 10
1395.0436953644
 20
-26.303879188
 30
0.0
 70
         1
  0
VERTEX
  5
1A0
100
AcDbEntity
  8
L1_105
  6
CONTINUOUS
 62
         7
100
AcDbVertex
100
AcDb2dVertex
 10
1394.9700860658
 20
-26.0772172717
 30
0.0
 70
         1
  0
VERTEX
  5
1A2
100
AcDbEntity
  8
L1_105
  6
CONTINUOUS
 62
         7
100
AcDbVertex
100
AcDb2dVertex
 10
1394.8751135935
 20
-25.8659867446
 30
0.0
 70
         1
  0
VERTEX
  5
1A4
100
AcDbEntity
  8
L1_105
  6
CONTINUOUS
 62
         7
100
AcDbVertex
100
AcDb2dVertex
 10
1394.7630799965
 20
-25.6704694554
 30
0.0
 70
         1
  0
VERTEX
  5
1A6
100
AcDbEntity
  8
L1_105
  6
CONTINUOUS
 62
         7
100
AcDbVertex
100
AcDb2dVertex
 10
1394.5925348213
 20
-25.4323179417
 30
0.0
 70
         1
  0
VERTEX
  5
1A8
100
AcDbEntity
  8
L1_105
  6
CONTINUOUS
 62
         7
100
AcDbVertex
100
AcDb2dVertex
 10
1394.4063846546
 20
-25.2211094049
 30
0.0
 70
         1
  0
VERTEX
  5
1AA
100
AcDbEntity
  8
L1_105
  6
CONTINUOUS
 62
         7
100
AcDbVertex
100
AcDb2dVertex
 10
1394.2113227132
 20
-25.0350528979
 30
0.0
 70
         1
  0
VERTEX
  5
1AC
100
AcDbEntity
  8
L1_105
  6
CONTINUOUS
 62
         7
100
AcDbVertex
100
AcDb2dVertex
 10
1393.943696699
 20
-24.8204329025
 30
0.0
 70
         1
  0
VERTEX
  5
1AE
100
AcDbEntity
  8
L1_105
  6
CONTINUOUS
 62
         7
100
AcDbVertex
100
AcDb2dVertex
 10
1393.6788192027
 20
-24.641943858
 30
0.0
 70
         1
  0
VERTEX
  5
1B0
100
AcDbEntity
  8
L1_105
  6
CONTINUOUS
 62
         7
100
AcDbVertex
100
AcDb2dVertex
 10
1393.3358978364
 20
-24.4485558922
 30
0.0
 70
         1
  0
VERTEX
  5
1B2
100
AcDbEntity
  8
L1_105
  6
CONTINUOUS
 62
         7
100
AcDbVertex
100
AcDb2dVertex
 10
1393.0178235669
 20
-24.2993163516
 30
0.0
 70
         1
  0
VERTEX
  5
1B4
100
AcDbEntity
  8
L1_105
  6
CONTINUOUS
 62
         7
100
AcDbVertex
100
AcDb2dVertex
 10
1392.6314641061
 20
-24.1498526392
 30
0.0
 70
         1
  0
VERTEX
  5
1B6
100
AcDbEntity
  8
L1_105
  6
CONTINUOUS
 62
         7
100
AcDbVertex
100
AcDb2dVertex
 10
1392.2977358477
 20
-24.0447526734
 30
0.0
 70
         1
  0
VERTEX
  5
1B8
100
AcDbEntity
  8
L1_105
  6
CONTINUOUS
 62
         7
100
AcDbVertex
100
AcDb2dVertex
 10
1391.9185870831
 20
-23.9490615515
 30
0.0
 70
         1
  0
VERTEX
  5
1BA
100
AcDbEntity
  8
L1_105
  6
CONTINUOUS
 62
         7
100
AcDbVertex
100
AcDb2dVertex
 10
1391.5159979367
 20
-23.872440803
 30
0.0
 70
         1
  0
VERTEX
  5
1BC
100
AcDbEntity
  8
L1_105
  6
CONTINUOUS
 62
         7
100
AcDbVertex
100
AcDb2dVertex
 10
1391.1247064987
 20
-23.8207884671
 30
0.0
 70
         1
  0
VERTEX
  5
1BE
100
AcDbEntity
  8
L1_105
  6
CONTINUOUS
 62
         7
100
AcDbVertex
100
AcDb2dVertex
 10
1390.7863788912
 20
-23.7933425279
 30
0.0
 70
         1
  0
VERTEX
  5
1C0
100
AcDbEntity
  8
L1_105
  6
CONTINUOUS
 62
         7
100
AcDbVertex
100
AcDb2dVertex
 10
1390.4581722611
 20
-23.781528093
 30
0.0
 70
         1
  0
VERTEX
  5
1C2
100
AcDbEntity
  8
L1_105
  6
CONTINUOUS
 62
         7
100
AcDbVertex
100
AcDb2dVertex
 10
1390.3532741959
 20
-23.780793389
 30
0.0
 70
         1
  0
SEQEND
  5
1C4
100
AcDbEntity
  8
L1_105
  6
CONTINUOUS
 62
         7
  0
POLYLINE
  5
1C6
100
AcDbEntity
  8
L1_105
  6
CONTINUOUS
 62
         7
100
AcDb2dPolyline
 66
         1
 10
0.0
 20
0.0
 30
0.0
 70
         2
  0
VERTEX
  5
1C8
100
AcDbEntity
  8
L1_105
  6
CONTINUOUS
 62
         7
100
AcDbVertex
100
AcDb2dVertex
 10
1390.3532741959
 20
-28.555793389
 30
0.0
 70
         1
  0
VERTEX
  5
1CA
100
AcDbEntity
  8
L1_105
  6
CONTINUOUS
 62
         7
100
AcDbVertex
100
AcDb2dVertex
 10
1391.3818757807
 20
-28.5142144948
 30
0.0
 70
         1
  0
VERTEX
  5
1CC
100
AcDbEntity
  8
L1_105
  6
CONTINUOUS
 62
         7
100
AcDbVertex
100
AcDb2dVertex
 10
1391.8334173717
 20
-28.46854881
 30
0.0
 70
         1
  0
VERTEX
  5
1CE
100
AcDbEntity
  8
L1_105
  6
CONTINUOUS
 62
         7
100
AcDbVertex
100
AcDb2dVertex
 10
1392.2403817474
 20
-28.4115787889
 30
0.0
 70
         1
  0
VERTEX
  5
1D0
100
AcDbEntity
  8
L1_105
  6
CONTINUOUS
 62
         7
100
AcDbVertex
100
AcDb2dVertex
 10
1392.6034759438
 20
-28.3467172746
 30
0.0
 70
         1
  0
VERTEX
  5
1D2
100
AcDbEntity
  8
L1_105
  6
CONTINUOUS
 62
         7
100
AcDbVertex
100
AcDb2dVertex
 10
1392.9248356266
 20
-28.2768329894
 30
0.0
 70
         1
  0
VERTEX
  5
1D4
100
AcDbEntity
  8
L1_105
  6
CONTINUOUS
 62
         7
100
AcDbVertex
100
AcDb2dVertex
 10
1393.2074782947
 20
-28.2042493303
 30
0.0
 70
         1
  0
VERTEX
  5
1D6
100
AcDbEntity
  8
L1_105
  6
CONTINUOUS
 62
         7
100
AcDbVertex
100
AcDb2dVertex
 10
1393.5330704075
 20
-28.105380338
 30
0.0
 70
         1
  0
VERTEX
  5
1D8
100
AcDbEntity
  8
L1_105
  6
CONTINUOUS
 62
         7
100
AcDbVertex
100
AcDb2dVertex
 10
1393.8035582159
 20
-28.008088282
 30
0.0
 70
         1
  0
VERTEX
  5
1DA
100
AcDbEntity
  8
L1_105
  6
CONTINUOUS
 62
         7
100
AcDbVertex
100
AcDb2dVertex
 10
1394.0273796738
 20
-27.9144702006
 30
0.0
 70
         1
  0
VERTEX
  5
1DC
100
AcDbEntity
  8
L1_105
  6
CONTINUOUS
 62
         7
100
AcDbVertex
100
AcDb2dVertex
 10
1394.2121680588
 20
-27.825786137
 30
0.0
 70
         1
  0
VERTEX
  5
1DE
100
AcDbEntity
  8
L1_105
  6
CONTINUOUS
 62
         7
100
AcDbVertex
100
AcDb2dVertex
 10
1394.4115368066
 20
-27.7148859904
 30
0.0
 70
         1
  0
VERTEX
  5
1E0
100
AcDbEntity
  8
L1_105
  6
CONTINUOUS
 62
         7
100
AcDbVertex
100
AcDb2dVertex
 10
1394.5652222817
 20
-27.6146892033
 30
0.0
 70
         1
  0
VERTEX
  5
1E2
100
AcDbEntity
  8
L1_105
  6
CONTINUOUS
 62
         7
100
AcDbVertex
100
AcDb2dVertex
 10
1394.7194727235
 20
-27.4952086406
 30
0.0
 70
         1
  0
VERTEX
  5
1E4
100
AcDbEntity
  8
L1_105
  6
CONTINUOUS
 62
         7
100
AcDbVertex
100
AcDb2dVertex
 10
1394.82848735
 20
-27.3932216393
 30
0.0
 70
         1
  0
VERTEX
  5
1E6
100
AcDbEntity
  8
L1_105
  6
CONTINUOUS
 62
         7
100
AcDbVertex
100
AcDb2dVertex
 10
1394.9284835226
 20
-27.2780585908
 30
0.0
 70
         1
  0
VERTEX
  5
1E8
100
AcDbEntity
  8
L1_105
  6
CONTINUOUS
 62
         7
100
AcDbVertex
100
AcDb2dVertex
 10
1395.0094033716
 20
-27.155980512
 30
0.0
 70
         1
  0
VERTEX
  5
1EA
100
AcDbEntity
  8
L1_105
  6
CONTINUOUS
 62
         7
100
AcDbVertex
100
AcDb2dVertex
 10
1395.0646742951
 20
-27.0369998626
 30
0.0
 70
         1
  0
VERTEX
  5
1EC
100
AcDbEntity
  8
L1_105
  6
CONTINUOUS
 62
         7
100
AcDbVertex
100
AcDb2dVertex
 10
1395.1005020396
 20
-26.9001034487
 30
0.0
 70
         1
  0
VERTEX
  5
1EE
100
AcDbEntity
  8
L1_105
  6
CONTINUOUS
 62
         7
100
AcDbVertex
100
AcDb2dVertex
 10
1395.1082741959
 20
-26.7997412012
 30
0.0
 70
         1
  0
SEQEND
  5
1F0
100
AcDbEntity
  8
L1_105
  6
CONTINUOUS
 62
         7
  0
LINE
  5
1F1
100
AcDbEntity
  8
L1_105
  6
CONTINUOUS
 62
         4
100
AcDbLine
 10
1393.7033403763
 20
-24.6572882157
 30
0.0
 11
1393.7033403763
 21
3.0566652593
 31
0.0
  0
LINE
  5
1F2
100
AcDbEntity
  8
L1_105
  6
CONTINUOUS
 62
         7
100
AcDbLine
 10
1394.7033403763
 20
-25.5806430779
 30
0.0
 11
1394.7033403763
 21
4.5566652593
 31
0.0
  0
DIMENSION
  5
1F5
100
AcDbEntity
  8
L1_105
  6
CONTINUOUS
 62
         4
100
AcDbDimension
  2
*D3
 10
1338.7020155108
 20
-73.4670089015
 30
0.0
 11
1377.6024463572
 21
-70.3350089015
 31
0.0
  3
DIMSTYLE1
100
AcDbAlignedDimension
 13
1338.7020155108
 23
-15.4433347407
 33
0.0
 14
1419.7033403763
 24
-30.6546596061
 34
0.0
100
AcDbRotatedDimension
  0
LINE
  5
201
100
AcDbEntity
  8
L1_105
  6
CONTINUOUS
 62
         7
100
AcDbLine
 10
1333.7033403763
 20
-33.4433347407
 30
0.0
 11
1333.7033403763
 21
-29.0183347407
 31
0.0
  0
LINE
  5
202
100
AcDbEntity
  8
L1_105
  6
CONTINUOUS
 62
         7
100
AcDbLine
 10
1333.7033403763
 20
3.1316652593
 30
0.0
 11
1333.7033403763
 21
7.5566652593
 31
0.0
  0
ARC
  5
203
100
AcDbEntity
  8
L1_105
  6
CONTINUOUS
 62
         7
100
AcDbCircle
 10
1335.7033403763
 20
7.5566652593
 30
0.0
 40
2.0
100
AcDbArc
 50
90.0
 51
180.0
  0
ARC
  5
204
100
AcDbEntity
  8
L1_105
  6
CONTINUOUS
 62
         7
100
AcDbCircle
 10
1335.7033403763
 20
-33.4433347407
 30
0.0
 40
2.0
100
AcDbArc
 50
180.0
 51
270.0
  0
LINE
  5
205
100
AcDbEntity
  8
L1_105
  6
CONTINUOUS
 62
         7
100
AcDbLine
 10
1333.7033403763
 20
129.6846417294
 30
0.0
 11
1333.7033403763
 21
170.6846417294
 31
0.0
  0
ARC
  5
206
100
AcDbEntity
  8
L1_105
  6
CONTINUOUS
 62
         7
100
AcDbCircle
 10
1335.7033403763
 20
170.6846417294
 30
0.0
 40
2.0
100
AcDbArc
 50
90.0
 51
180.0
  0
ARC
  5
207
100
AcDbEntity
  8
L1_105
  6
CONTINUOUS
 62
         7
100
AcDbCircle
 10
1335.7033403763
 20
129.6846417294
 30
0.0
 40
2.0
100
AcDbArc
 50
180.0
 51
270.0
  0
DIMENSION
  5
20A
100
AcDbEntity
  8
L1_105
  6
CONTINUOUS
 62
         4
100
AcDbDimension
  2
*D4
 10
1333.7033403763
 20
204.2801654447
 30
0.0
 11
1376.9473207376
 21
206.3051654447
 31
0.0
  3
DIMSTYLE1
100
AcDbAlignedDimension
 13
1333.7033403763
 23
170.6846417294
 33
0.0
 14
1419.7033403763
 24
167.6072914602
 34
0.0
100
AcDbRotatedDimension
  0
DIMENSION
  5
218
100
AcDbEntity
  8
L1_105
  6
CONTINUOUS
 62
         4
100
AcDbDimension
  2
*D5
 10
1232.1033403763
 20
211.8258350306
 30
0.0
 11
1319.6203203281
 21
213.8508350306
 31
0.0
  3
DIMSTYLE1
100
AcDbAlignedDimension
 13
1232.1033403763
 23
164.5596417294
 33
0.0
 14
1419.7033403763
 24
167.6072914602
 34
0.0
100
AcDbRotatedDimension
  0
CIRCLE
  5
224
100
AcDbEntity
  8
_Y__________
  6
CONTINUOUS
 62
         7
100
AcDbCircle
 10
1174.9233403763
 20
150.1846417294
 30
0.0
 40
1.0
  0
CIRCLE
  5
225
100
AcDbEntity
  8
_Y__________
  6
CONTINUOUS
 62
         7
100
AcDbCircle
 10
1174.9233403763
 20
150.1846417294
 30
0.0
 40
2.125
  0
LINE
  5
226
100
AcDbEntity
  8
_Y__________
  6
CONTINUOUS
 62
         7
100
AcDbLine
 10
1232.1033403763
 20
-14.8967198994
 30
0.0
 11
1234.095198805
 21
-13.7467198994
 31
0.0
  0
LINE
  5
227
100
AcDbEntity
  8
_Y__________
  6
CONTINUOUS
 62
         7
100
AcDbLine
 10
1232.1033403763
 20
-10.9967198994
 30
0.0
 11
1234.095198805
 21
-12.1467198994
 31
0.0
  0
LINE
  5
228
100
AcDbEntity
  8
_Y__________
  6
CONTINUOUS
 62
         7
100
AcDbLine
 10
1234.095198805
 20
-13.7467198994
 30
0.0
 11
1234.095198805
 21
-12.1467198994
 31
0.0
  0
LINE
  5
229
100
AcDbEntity
  8
_Y__________
  6
CONTINUOUS
 62
         7
100
AcDbLine
 10
1235.0414601609
 20
-12.1467198994
 30
0.0
 11
1234.095198805
 21
-12.1467198994
 31
0.0
  0
LINE
  5
22A
100
AcDbEntity
  8
_Y__________
  6
CONTINUOUS
 62
         7
100
AcDbLine
 10
1235.0414601609
 20
-13.7467198994
 30
0.0
 11
1235.0414601609
 21
-12.1467198994
 31
0.0
  0
LINE
  5
22B
100
AcDbEntity
  8
_Y__________
  6
CONTINUOUS
 62
         7
100
AcDbLine
 10
1235.0414601609
 20
-12.1467198994
 30
0.0
 11
1235.5033403763
 21
-12.9467198994
 31
0.0
  0
LINE
  5
22C
100
AcDbEntity
  8
_Y__________
  6
CONTINUOUS
 62
         7
100
AcDbLine
 10
1235.0414601609
 20
-13.7467198994
 30
0.0
 11
1235.5033403763
 21
-12.9467198994
 31
0.0
  0
LINE
  5
22D
100
AcDbEntity
  8
_Y__________
  6
CONTINUOUS
 62
         7
100
AcDbLine
 10
1235.0414601609
 20
-13.7467198994
 30
0.0
 11
1234.095198805
 21
-13.7467198994
 31
0.0
  0
LINE
  5
22E
100
AcDbEntity
  8
L1_105
  6
CONTINUOUS
 62
         4
100
AcDbLine
 10
1591.1251909048
 20
30.4988961915
 30
0.0
 11
1591.1251909048
 21
49.2988961915
 31
0.0
  0
LINE
  5
22F
100
AcDbEntity
  8
L1_105
  6
CONTINUOUS
 62
         4
100
AcDbLine
 10
1580.9251909048
 20
32.3988961915
 30
0.0
 11
1580.9251909048
 21
47.3988961915
 31
0.0
  0
LINE
  5
230
100
AcDbEntity
  8
L1_105
  6
CONTINUOUS
 62
         7
100
AcDbLine
 10
1590.9251909048
 20
30.6988961915
 30
0.0
 11
1591.1251909048
 21
30.4988961915
 31
0.0
  0
LINE
  5
231
100
AcDbEntity
  8
L1_105
  6
CONTINUOUS
 62
         7
100
AcDbLine
 10
1590.9251909048
 20
49.0988961915
 30
0.0
 11
1591.1251909048
 21
49.2988961915
 31
0.0
  0
LINE
  5
232
100
AcDbEntity
  8
L1_105
  6
CONTINUOUS
 62
         7
100
AcDbLine
 10
1580.4251909048
 20
32.8988961915
 30
0.0
 11
1580.9251909048
 21
32.3988961915
 31
0.0
  0
LINE
  5
233
100
AcDbEntity
  8
L1_105
  6
CONTINUOUS
 62
         7
100
AcDbLine
 10
1580.4251909048
 20
46.8988961915
 30
0.0
 11
1580.9251909048
 21
47.3988961915
 31
0.0
  0
LINE
  5
234
100
AcDbEntity
  8
L1_105
  6
CONTINUOUS
 62
         4
100
AcDbLine
 10
1590.4251909048
 20
47.3988961915
 30
0.0
 11
1590.4251909048
 21
32.3988961915
 31
0.0
  0
LINE
  5
235
100
AcDbEntity
  8
L1_105
  6
CONTINUOUS
 62
         4
100
AcDbLine
 10
1595.4251909048
 20
49.2988961915
 30
0.0
 11
1595.4251909048
 21
30.4988961915
 31
0.0
  0
LINE
  5
236
100
AcDbEntity
  8
L1_105
  6
CONTINUOUS
 62
         7
100
AcDbLine
 10
1595.9251909048
 20
30.9988961915
 30
0.0
 11
1595.4251909048
 21
30.4988961915
 31
0.0
  0
LINE
  5
237
100
AcDbEntity
  8
L1_105
  6
CONTINUOUS
 62
         7
100
AcDbLine
 10
1595.4251909048
 20
30.4988961915
 30
0.0
 11
1591.1251909048
 21
30.4988961915
 31
0.0
  0
LINE
  5
238
100
AcDbEntity
  8
L1_105
  6
CONTINUOUS
 62
         7
100
AcDbLine
 10
1595.9251909048
 20
30.9988961915
 30
0.0
 11
1595.9251909048
 21
48.7988961915
 31
0.0
  0
LINE
  5
239
100
AcDbEntity
  8
L1_105
  6
CONTINUOUS
 62
         7
100
AcDbLine
 10
1595.4251909048
 20
49.2988961915
 30
0.0
 11
1595.9251909048
 21
48.7988961915
 31
0.0
  0
LINE
  5
23A
100
AcDbEntity
  8
L1_105
  6
CONTINUOUS
 62
         7
100
AcDbLine
 10
1595.4251909048
 20
49.2988961915
 30
0.0
 11
1591.1251909048
 21
49.2988961915
 31
0.0
  0
ARC
  5
23B
100
AcDbEntity
  8
L1_105
  6
CONTINUOUS
 62
         7
100
AcDbCircle
 10
1590.4251909048
 20
31.8988961915
 30
0.0
 40
0.5
100
AcDbArc
 50
0.0
 51
90.0
  0
LINE
  5
23C
100
AcDbEntity
  8
L1_105
  6
CONTINUOUS
 62
         7
100
AcDbLine
 10
1590.4251909048
 20
32.3988961915
 30
0.0
 11
1580.9251909048
 21
32.3988961915
 31
0.0
  0
LINE
  5
23D
100
AcDbEntity
  8
L1_105
  6
CONTINUOUS
 62
         7
100
AcDbLine
 10
1590.4251909048
 20
47.3988961915
 30
0.0
 11
1580.9251909048
 21
47.3988961915
 31
0.0
  0
LINE
  5
23E
100
AcDbEntity
  8
L1_105
  6
CONTINUOUS
 62
         7
100
AcDbLine
 10
1590.9251909048
 20
30.6988961915
 30
0.0
 11
1590.9251909048
 21
49.0988961915
 31
0.0
  0
ARC
  5
23F
100
AcDbEntity
  8
L1_105
  6
CONTINUOUS
 62
         7
100
AcDbCircle
 10
1590.4251909048
 20
47.8988961915
 30
0.0
 40
0.5
100
AcDbArc
 50
270.0
 51
360.0
  0
LINE
  5
240
100
AcDbEntity
  8
L1_105
  6
CONTINUOUS
 62
         7
100
AcDbLine
 10
1580.4251909048
 20
32.8988961915
 30
0.0
 11
1580.4251909048
 21
46.8988961915
 31
0.0
  0
DIMENSION
  5
243
100
AcDbEntity
  8
L1_105
  6
CONTINUOUS
 62
         4
100
AcDbDimension
  2
*D6
 10
1595.9251909048
 20
51.8725346524
 30
0.0
 11
1582.9275472303
 21
53.8975346524
 31
0.0
  3
DIMSTYLE1
100
AcDbAlignedDimension
 13
1595.9251909048
 23
48.7988961915
 33
0.0
 14
1580.4251909048
 24
47.2988961915
 34
0.0
100
AcDbRotatedDimension
  0
DIMENSION
  5
251
100
AcDbEntity
  8
L1_105
  6
CONTINUOUS
 62
         4
100
AcDbDimension
  2
*D7
 10
1602.6200947069
 20
49.2988961915
 30
0.0
 11
1600.5950947069
 21
31.7450480729
 31
0.0
  3
DIMSTYLE1
100
AcDbAlignedDimension
 13
1595.4251909048
 23
49.2988961915
 33
0.0
 14
1595.4251909048
 24
30.4988961915
 34
0.0
 50
90.0
100
AcDbRotatedDimension
  0
DIMENSION
  5
25F
100
AcDbEntity
  8
L1_105
  6
CONTINUOUS
 62
         4
100
AcDbDimension
  2
*D8
 10
1578.6650876222
 20
47.3988961915
 30
0.0
 11
1576.6400876222
 21
33.9481936671
 31
0.0
  3
DIMSTYLE1
100
AcDbAlignedDimension
 13
1580.5251909048
 23
47.3988961915
 33
0.0
 14
1580.5251909048
 24
32.3988961915
 34
0.0
 50
90.0
100
AcDbRotatedDimension
  0
LINE
  5
26B
100
AcDbEntity
  8
L1_105
  6
CONTINUOUS
 62
         4
100
AcDbLine
 10
1554.7931400972
 20
17.4720301035
 30
0.0
 11
1554.7931400972
 21
62.3257622795
 31
0.0
  0
ARC
  5
26C
100
AcDbEntity
  8
L1_105
  6
CONTINUOUS
 62
         7
100
AcDbCircle
 10
1554.2572417124
 20
19.3988961915
 30
0.0
 40
2.0
100
AcDbArc
 50
270.0
 51
300.0
  0
LINE
  5
26D
100
AcDbEntity
  8
L1_105
  6
CONTINUOUS
 62
         7
100
AcDbLine
 10
1555.2572417124
 20
17.666845384
 30
0.0
 11
1556.2751909048
 21
18.2545586242
 31
0.0
  0
ARC
  5
26E
100
AcDbEntity
  8
L1_105
  6
CONTINUOUS
 62
         7
100
AcDbCircle
 10
1556.0251909048
 20
18.6875713261
 30
0.0
 40
0.5
100
AcDbArc
 50
300.0
 51
360.0
  0
ARC
  5
26F
100
AcDbEntity
  8
L1_105
  6
CONTINUOUS
 62
         7
100
AcDbCircle
 10
1556.0251909048
 20
61.1102210569
 30
0.0
 40
0.5
100
AcDbArc
 50
0.0
 51
60.0
  0
LINE
  5
270
100
AcDbEntity
  8
L1_105
  6
CONTINUOUS
 62
         7
100
AcDbLine
 10
1555.2572417124
 20
62.1309469991
 30
0.0
 11
1556.2751909048
 21
61.5432337588
 31
0.0
  0
ARC
  5
271
100
AcDbEntity
  8
L1_105
  6
CONTINUOUS
 62
         7
100
AcDbCircle
 10
1554.2572417124
 20
60.3988961915
 30
0.0
 40
2.0
100
AcDbArc
 50
60.0
 51
90.0
  0
LINE
  5
272
100
AcDbEntity
  8
L1_105
  6
CONTINUOUS
 62
         4
100
AcDbLine
 10
1525.0251909048
 20
62.3988961915
 30
0.0
 11
1525.0251909048
 21
17.3988961915
 31
0.0
  0
LINE
  5
273
100
AcDbEntity
  8
L1_105
  6
CONTINUOUS
 62
         7
100
AcDbLine
 10
1524.5251909048
 20
17.8988961915
 30
0.0
 11
1525.0251909048
 21
17.3988961915
 31
0.0
  0
LINE
  5
274
100
AcDbEntity
  8
L1_105
  6
CONTINUOUS
 62
         7
100
AcDbLine
 10
1554.2572417124
 20
17.3988961915
 30
0.0
 11
1525.0251909048
 21
17.3988961915
 31
0.0
  0
LINE
  5
275
100
AcDbEntity
  8
L1_105
  6
CONTINUOUS
 62
         7
100
AcDbLine
 10
1524.5251909048
 20
17.8988961915
 30
0.0
 11
1524.5251909048
 21
61.8988961915
 31
0.0
  0
LINE
  5
276
100
AcDbEntity
  8
L1_105
  6
CONTINUOUS
 62
         7
100
AcDbLine
 10
1524.5251909048
 20
61.8988961915
 30
0.0
 11
1525.0251909048
 21
62.3988961915
 31
0.0
  0
LINE
  5
277
100
AcDbEntity
  8
L1_105
  6
CONTINUOUS
 62
         7
100
AcDbLine
 10
1554.2572417124
 20
62.3988961915
 30
0.0
 11
1525.0251909048
 21
62.3988961915
 31
0.0
  0
LINE
  5
278
100
AcDbEntity
  8
L1_105
  6
CONTINUOUS
 62
         7
100
AcDbLine
 10
1556.5251909048
 20
18.6875713261
 30
0.0
 11
1556.5251909048
 21
61.1102210569
 31
0.0
  0
DIMENSION
  5
27B
100
AcDbEntity
  8
L1_105
  6
CONTINUOUS
 62
         4
100
AcDbDimension
  2
*D9
 10
1524.5251909048
 20
65.3892075679
 30
0.0
 11
1538.5274153513
 21
67.4142075679
 31
0.0
  3
DIMSTYLE1
100
AcDbAlignedDimension
 13
1524.5251909048
 23
61.8988961915
 33
0.0
 14
1556.5251909048
 24
61.1102210569
 34
0.0
100
AcDbRotatedDimension
  0
DIMENSION
  5
289
100
AcDbEntity
  8
L1_105
  6
CONTINUOUS
 62
         4
100
AcDbDimension
  2
*D10
 10
1563.448204627
 20
62.3988961915
 30
0.0
 11
1561.423204627
 21
34.5951929656
 31
0.0
  3
DIMSTYLE1
100
AcDbAlignedDimension
 13
1553.3912163086
 23
62.3988961915
 33
0.0
 14
1553.3912163086
 24
17.3988961915
 34
0.0
 50
90.0
100
AcDbRotatedDimension
  0
ARC
  5
295
100
AcDbEntity
  8
L1_105
  6
CONTINUOUS
 62
         7
100
AcDbCircle
 10
1625.759165501
 20
24.3988961915
 30
0.0
 40
0.5
100
AcDbArc
 50
240.0
 51
270.0
  0
ARC
  5
296
100
AcDbEntity
  8
L1_105
  6
CONTINUOUS
 62
         7
100
AcDbCircle
 10
1623.6251909048
 20
25.6309469991
 30
0.0
 40
0.5
100
AcDbArc
 50
180.0
 51
240.0
  0
ARC
  5
297
100
AcDbEntity
  8
L1_105
  6
CONTINUOUS
 62
         7
100
AcDbCircle
 10
1623.6251909048
 20
54.166845384
 30
0.0
 40
0.5
100
AcDbArc
 50
120.0
 51
180.0
  0
ARC
  5
298
100
AcDbEntity
  8
L1_105
  6
CONTINUOUS
 62
         7
100
AcDbCircle
 10
1625.759165501
 20
55.3988961915
 30
0.0
 40
0.5
100
AcDbArc
 50
90.0
 51
120.0
  0
LINE
  5
299
100
AcDbEntity
  8
L1_105
  6
CONTINUOUS
 62
         7
100
AcDbLine
 10
1623.3751909048
 20
25.1979342972
 30
0.0
 11
1625.509165501
 21
23.9658834896
 31
0.0
  0
LINE
  5
29A
100
AcDbEntity
  8
L1_105
  6
CONTINUOUS
 62
         7
100
AcDbLine
 10
1623.3751909048
 20
54.5998580859
 30
0.0
 11
1625.509165501
 21
55.8319088934
 31
0.0
  0
LINE
  5
29B
100
AcDbEntity
  8
L1_105
  6
CONTINUOUS
 62
         4
100
AcDbLine
 10
1625.6251909048
 20
23.8988961915
 30
0.0
 11
1625.6251909048
 21
55.8988961915
 31
0.0
  0
LINE
  5
29C
100
AcDbEntity
  8
L1_105
  6
CONTINUOUS
 62
         7
100
AcDbLine
 10
1649.2248039647
 20
36.8988961915
 30
0.0
 11
1636.3285803383
 21
36.8988961915
 31
0.0
  0
LINE
  5
29D
100
AcDbEntity
  8
L1_105
  6
CONTINUOUS
 62
         7
100
AcDbLine
 10
1649.2248039647
 20
42.8988961915
 30
0.0
 11
1636.3285803383
 21
42.8988961915
 31
0.0
  0
LINE
  5
29E
100
AcDbEntity
  8
L1_105
  6
CONTINUOUS
 62
         4
100
AcDbLine
 10
1669.1251909048
 20
27.1988961915
 30
0.0
 11
1669.1251909048
 21
52.5988961915
 31
0.0
  0
ARC
  5
29F
100
AcDbEntity
  8
L1_105
  6
CONTINUOUS
 62
         7
100
AcDbCircle
 10
1665.6251909048
 20
24.8988961915
 30
0.0
 40
1.0
100
AcDbArc
 50
270.0
 51
360.0
  0
ARC
  5
2A0
100
AcDbEntity
  8
L1_105
  6
CONTINUOUS
 62
         7
100
AcDbCircle
 10
1665.6251909048
 20
54.8988961915
 30
0.0
 40
1.0
100
AcDbArc
 50
0.0
 51
90.0
  0
LINE
  5
2A1
100
AcDbEntity
  8
L1_105
  6
CENTER
 62
         1
100
AcDbLine
 10
1649.2248039647
 20
34.047834395
 30
0.0
 11
1649.2248039647
 21
46.5688837915
 31
0.0
  0
LINE
  5
2A2
100
AcDbEntity
  8
L1_105
  6
CENTER
 62
         1
100
AcDbLine
 10
1636.3285803383
 20
34.047834395
 30
0.0
 11
1636.3285803383
 21
46.5688837915
 31
0.0
  0
LINE
  5
2A3
100
AcDbEntity
  8
L1_105
  6
CENTER
 62
         1
100
AcDbLine
 10
1674.4251909048
 20
22.2234365169
 30
0.0
 11
1674.4251909048
 21
55.9397440895
 31
0.0
  0
LINE
  5
2A4
100
AcDbEntity
  8
L1_105
  6
CENTER
 62
         1
100
AcDbLine
 10
1680.8251909048
 20
32.4270559139
 30
0.0
 11
1680.8251909048
 21
46.1797603185
 31
0.0
  0
CIRCLE
  5
2A5
100
AcDbEntity
  8
L1_105
  6
CONTINUOUS
 62
         7
100
AcDbCircle
 10
1680.8251909048
 20
39.8988961915
 30
0.0
 40
2.5
  0
POLYLINE
  5
2A7
100
AcDbEntity
  8
L1_105
  6
CONTINUOUS
 62
         7
100
AcDb2dPolyline
 66
         1
 10
0.0
 20
0.0
 30
0.0
 70
         2
  0
VERTEX
  5
2A9
100
AcDbEntity
  8
L1_105
  6
CONTINUOUS
 62
         7
100
AcDbVertex
100
AcDb2dVertex
 10
1672.4251909048
 20
28.7745984609
 30
0.0
 70
         1
  0
VERTEX
  5
2AB
100
AcDbEntity
  8
L1_105
  6
CONTINUOUS
 62
         7
100
AcDbVertex
100
AcDb2dVertex
 10
1672.4699703644
 20
28.564174699
 30
0.0
 70
         1
  0
VERTEX
  5
2AD
100
AcDbEntity
  8
L1_105
  6
CONTINUOUS
 62
         7
100
AcDbVertex
100
AcDb2dVertex
 10
1672.5192643516
 20
28.4715126752
 30
0.0
 70
         1
  0
VERTEX
  5
2AF
100
AcDbEntity
  8
L1_105
  6
CONTINUOUS
 62
         7
100
AcDbVertex
100
AcDb2dVertex
 10
1672.5882281657
 20
28.3791342099
 30
0.0
 70
         1
  0
VERTEX
  5
2B1
100
AcDbEntity
  8
L1_105
  6
CONTINUOUS
 62
         7
100
AcDbVertex
100
AcDb2dVertex
 10
1672.6772325093
 20
28.288635127
 30
0.0
 70
         1
  0
VERTEX
  5
2B3
100
AcDbEntity
  8
L1_105
  6
CONTINUOUS
 62
         7
100
AcDbVertex
100
AcDb2dVertex
 10
1672.7859604746
 20
28.2016840701
 30
0.0
 70
         1
  0
VERTEX
  5
2B5
100
AcDbEntity
  8
L1_105
  6
CONTINUOUS
 62
         7
100
AcDbVertex
100
AcDb2dVertex
 10
1672.9133604689
 20
28.1199289387
 30
0.0
 70
         1
  0
VERTEX
  5
2B7
100
AcDbEntity
  8
L1_105
  6
CONTINUOUS
 62
         7
100
AcDbVertex
100
AcDb2dVertex
 10
1673.057661075
 20
28.0448960961
 30
0.0
 70
         1
  0
VERTEX
  5
2B9
100
AcDbEntity
  8
L1_105
  6
CONTINUOUS
 62
         7
100
AcDbVertex
100
AcDb2dVertex
 10
1673.2164516736
 20
27.9778943955
 30
0.0
 70
         1
  0
VERTEX
  5
2BB
100
AcDbEntity
  8
L1_105
  6
CONTINUOUS
 62
         7
100
AcDbVertex
100
AcDb2dVertex
 10
1673.4473790638
 20
27.9022619428
 30
0.0
 70
         1
  0
VERTEX
  5
2BD
100
AcDbEntity
  8
L1_105
  6
CONTINUOUS
 62
         7
100
AcDbVertex
100
AcDb2dVertex
 10
1673.6913024594
 20
27.8443555155
 30
0.0
 70
         1
  0
VERTEX
  5
2BF
100
AcDbEntity
  8
L1_105
  6
CONTINUOUS
 62
         7
100
AcDbVertex
100
AcDb2dVertex
 10
1673.9402032796
 20
27.8044455086
 30
0.0
 70
         1
  0
VERTEX
  5
2C1
100
AcDbEntity
  8
L1_105
  6
CONTINUOUS
 62
         7
100
AcDbVertex
100
AcDb2dVertex
 10
1674.270393996
 20
27.7775982205
 30
0.0
 70
         1
  0
VERTEX
  5
2C3
100
AcDbEntity
  8
L1_105
  6
CONTINUOUS
 62
         7
100
AcDbVertex
100
AcDb2dVertex
 10
1674.5818992878
 20
27.7776728766
 30
0.0
 70
         1
  0
VERTEX
  5
2C5
100
AcDbEntity
  8
L1_105
  6
CONTINUOUS
 62
         7
100
AcDbVertex
100
AcDb2dVertex
 10
1674.8652361935
 20
27.7991036962
 30
0.0
 70
         1
  0
VERTEX
  5
2C7
100
AcDbEntity
  8
L1_105
  6
CONTINUOUS
 62
         7
100
AcDbVertex
100
AcDb2dVertex
 10
1675.1156814046
 20
27.8360859584
 30
0.0
 70
         1
  0
VERTEX
  5
2C9
100
AcDbEntity
  8
L1_105
  6
CONTINUOUS
 62
         7
100
AcDbVertex
100
AcDb2dVertex
 10
1675.3322670043
 20
27.8833615466
 30
0.0
 70
         1
  0
VERTEX
  5
2CB
100
AcDbEntity
  8
L1_105
  6
CONTINUOUS
 62
         7
100
AcDbVertex
100
AcDb2dVertex
 10
1675.5741794994
 20
27.9560898767
 30
0.0
 70
         1
  0
VERTEX
  5
2CD
100
AcDbEntity
  8
L1_105
  6
CONTINUOUS
 62
         7
100
AcDbVertex
100
AcDb2dVertex
 10
1675.7648419983
 20
28.0320799514
 30
0.0
 70
         1
  0
VERTEX
  5
2CF
100
AcDbEntity
  8
L1_105
  6
CONTINUOUS
 62
         7
100
AcDbVertex
100
AcDb2dVertex
 10
1675.9132691734
 20
28.1064624219
 30
0.0
 70
         1
  0
VERTEX
  5
2D1
100
AcDbEntity
  8
L1_105
  6
CONTINUOUS
 62
         7
100
AcDbVertex
100
AcDb2dVertex
 10
1676.0624276175
 20
28.2002605929
 30
0.0
 70
         1
  0
VERTEX
  5
2D3
100
AcDbEntity
  8
L1_105
  6
CONTINUOUS
 62
         7
100
AcDbVertex
100
AcDb2dVertex
 10
1676.1671775457
 20
28.2833036047
 30
0.0
 70
         1
  0
VERTEX
  5
2D5
100
AcDbEntity
  8
L1_105
  6
CONTINUOUS
 62
         7
100
AcDbVertex
100
AcDb2dVertex
 10
1676.2620333496
 20
28.378994545
 30
0.0
 70
         1
  0
VERTEX
  5
2D7
100
AcDbEntity
  8
L1_105
  6
CONTINUOUS
 62
         7
100
AcDbVertex
100
AcDb2dVertex
 10
1676.3372396241
 20
28.4813111892
 30
0.0
 70
         1
  0
VERTEX
  5
2D9
100
AcDbEntity
  8
L1_105
  6
CONTINUOUS
 62
         7
100
AcDbVertex
100
AcDb2dVertex
 10
1676.3872511003
 20
28.5807429805
 30
0.0
 70
         1
  0
VERTEX
  5
2DB
100
AcDbEntity
  8
L1_105
  6
CONTINUOUS
 62
         7
100
AcDbVertex
100
AcDb2dVertex
 10
1676.4186153182
 20
28.693575149
 30
0.0
 70
         1
  0
VERTEX
  5
2DD
100
AcDbEntity
  8
L1_105
  6
CONTINUOUS
 62
         7
100
AcDbVertex
100
AcDb2dVertex
 10
1676.4251909048
 20
28.7745984609
 30
0.0
 70
         1
  0
VERTEX
  5
2DF
100
AcDbEntity
  8
L1_105
  6
CONTINUOUS
 62
         7
100
AcDbVertex
100
AcDb2dVertex
 10
1676.4251909048
 20
28.7745984609
 30
0.0
 70
         1
  0
VERTEX
  5
2E1
100
AcDbEntity
  8
L1_105
  6
CONTINUOUS
 62
         7
100
AcDbVertex
100
AcDb2dVertex
 10
1676.3804114452
 20
28.9850222228
 30
0.0
 70
         1
  0
VERTEX
  5
2E3
100
AcDbEntity
  8
L1_105
  6
CONTINUOUS
 62
         7
100
AcDbVertex
100
AcDb2dVertex
 10
1676.331117458
 20
29.0776842466
 30
0.0
 70
         1
  0
VERTEX
  5
2E5
100
AcDbEntity
  8
L1_105
  6
CONTINUOUS
 62
         7
100
AcDbVertex
100
AcDb2dVertex
 10
1676.2621536439
 20
29.1700627119
 30
0.0
 70
         1
  0
VERTEX
  5
2E7
100
AcDbEntity
  8
L1_105
  6
CONTINUOUS
 62
         7
100
AcDbVertex
100
AcDb2dVertex
 10
1676.1731493004
 20
29.2605617948
 30
0.0
 70
         1
  0
VERTEX
  5
2E9
100
AcDbEntity
  8
L1_105
  6
CONTINUOUS
 62
         7
100
AcDbVertex
100
AcDb2dVertex
 10
1676.064421335
 20
29.3475128517
 30
0.0
 70
         1
  0
VERTEX
  5
2EB
100
AcDbEntity
  8
L1_105
  6
CONTINUOUS
 62
         7
100
AcDbVertex
100
AcDb2dVertex
 10
1675.9370213407
 20
29.4292679831
 30
0.0
 70
         1
  0
VERTEX
  5
2ED
100
AcDbEntity
  8
L1_105
  6
CONTINUOUS
 62
         7
100
AcDbVertex
100
AcDb2dVertex
 10
1675.7927207346
 20
29.5043008257
 30
0.0
 70
         1
  0
VERTEX
  5
2EF
100
AcDbEntity
  8
L1_105
  6
CONTINUOUS
 62
         7
100
AcDbVertex
100
AcDb2dVertex
 10
1675.633930136
 20
29.5713025263
 30
0.0
 70
         1
  0
VERTEX
  5
2F1
100
AcDbEntity
  8
L1_105
  6
CONTINUOUS
 62
         7
100
AcDbVertex
100
AcDb2dVertex
 10
1675.4030027458
 20
29.646934979
 30
0.0
 70
         1
  0
VERTEX
  5
2F3
100
AcDbEntity
  8
L1_105
  6
CONTINUOUS
 62
         7
100
AcDbVertex
100
AcDb2dVertex
 10
1675.1590793502
 20
29.7048414063
 30
0.0
 70
         1
  0
VERTEX
  5
2F5
100
AcDbEntity
  8
L1_105
  6
CONTINUOUS
 62
         7
100
AcDbVertex
100
AcDb2dVertex
 10
1674.91017853
 20
29.7447514132
 30
0.0
 70
         1
  0
VERTEX
  5
2F7
100
AcDbEntity
  8
L1_105
  6
CONTINUOUS
 62
         7
100
AcDbVertex
100
AcDb2dVertex
 10
1674.5799878136
 20
29.7715987012
 30
0.0
 70
         1
  0
VERTEX
  5
2F9
100
AcDbEntity
  8
L1_105
  6
CONTINUOUS
 62
         7
100
AcDbVertex
100
AcDb2dVertex
 10
1674.2684825218
 20
29.7715240452
 30
0.0
 70
         1
  0
VERTEX
  5
2FB
100
AcDbEntity
  8
L1_105
  6
CONTINUOUS
 62
         7
100
AcDbVertex
100
AcDb2dVertex
 10
1673.9851456161
 20
29.7500932256
 30
0.0
 70
         1
  0
VERTEX
  5
2FD
100
AcDbEntity
  8
L1_105
  6
CONTINUOUS
 62
         7
100
AcDbVertex
100
AcDb2dVertex
 10
1673.734700405
 20
29.7131109634
 30
0.0
 70
         1
  0
VERTEX
  5
2FF
100
AcDbEntity
  8
L1_105
  6
CONTINUOUS
 62
         7
100
AcDbVertex
100
AcDb2dVertex
 10
1673.5181148053
 20
29.6658353752
 30
0.0
 70
         1
  0
VERTEX
  5
301
100
AcDbEntity
  8
L1_105
  6
CONTINUOUS
 62
         7
100
AcDbVertex
100
AcDb2dVertex
 10
1673.2762023102
 20
29.5931070451
 30
0.0
 70
         1
  0
VERTEX
  5
303
100
AcDbEntity
  8
L1_105
  6
CONTINUOUS
 62
         7
100
AcDbVertex
100
AcDb2dVertex
 10
1673.0855398113
 20
29.5171169704
 30
0.0
 70
         1
  0
VERTEX
  5
305
100
AcDbEntity
  8
L1_105
  6
CONTINUOUS
 62
         7
100
AcDbVertex
100
AcDb2dVertex
 10
1672.9371126362
 20
29.4427344999
 30
0.0
 70
         1
  0
VERTEX
  5
307
100
AcDbEntity
  8
L1_105
  6
CONTINUOUS
 62
         7
100
AcDbVertex
100
AcDb2dVertex
 10
1672.7879541921
 20
29.3489363289
 30
0.0
 70
         1
  0
VERTEX
  5
309
100
AcDbEntity
  8
L1_105
  6
CONTINUOUS
 62
         7
100
AcDbVertex
100
AcDb2dVertex
 10
1672.6832042639
 20
29.2658933171
 30
0.0
 70
         1
  0
VERTEX
  5
30B
100
AcDbEntity
  8
L1_105
  6
CONTINUOUS
 62
         7
100
AcDbVertex
100
AcDb2dVertex
 10
1672.5883484601
 20
29.1702023768
 30
0.0
 70
         1
  0
VERTEX
  5
30D
100
AcDbEntity
  8
L1_105
  6
CONTINUOUS
 62
         7
100
AcDbVertex
100
AcDb2dVertex
 10
1672.5131421855
 20
29.0678857326
 30
0.0
 70
         1
  0
VERTEX
  5
30F
100
AcDbEntity
  8
L1_105
  6
CONTINUOUS
 62
         7
100
AcDbVertex
100
AcDb2dVertex
 10
1672.4631307093
 20
28.9684539413
 30
0.0
 70
         1
  0
VERTEX
  5
311
100
AcDbEntity
  8
L1_105
  6
CONTINUOUS
 62
         7
100
AcDbVertex
100
AcDb2dVertex
 10
1672.4317664915
 20
28.8556217728
 30
0.0
 70
         1
  0
VERTEX
  5
313
100
AcDbEntity
  8
L1_105
  6
CONTINUOUS
 62
         7
100
AcDbVertex
100
AcDb2dVertex
 10
1672.4251909048
 20
28.7745984609
 30
0.0
 70
         1
  0
SEQEND
  5
315
100
AcDbEntity
  8
L1_105
  6
CONTINUOUS
 62
         7
  0
POLYLINE
  5
317
100
AcDbEntity
  8
L1_105
  6
CONTINUOUS
 62
         7
100
AcDb2dPolyline
 66
         1
 10
0.0
 20
0.0
 30
0.0
 70
         2
  0
VERTEX
  5
319
100
AcDbEntity
  8
L1_105
  6
CONTINUOUS
 62
         7
100
AcDbVertex
100
AcDb2dVertex
 10
1672.4251909048
 20
51.0231939222
 30
0.0
 70
         1
  0
VERTEX
  5
31B
100
AcDbEntity
  8
L1_105
  6
CONTINUOUS
 62
         7
100
AcDbVertex
100
AcDb2dVertex
 10
1672.4699703644
 20
50.8127701603
 30
0.0
 70
         1
  0
VERTEX
  5
31D
100
AcDbEntity
  8
L1_105
  6
CONTINUOUS
 62
         7
100
AcDbVertex
100
AcDb2dVertex
 10
1672.5192643516
 20
50.7201081365
 30
0.0
 70
         1
  0
VERTEX
  5
31F
100
AcDbEntity
  8
L1_105
  6
CONTINUOUS
 62
         7
100
AcDbVertex
100
AcDb2dVertex
 10
1672.5882281657
 20
50.6277296712
 30
0.0
 70
         1
  0
VERTEX
  5
321
100
AcDbEntity
  8
L1_105
  6
CONTINUOUS
 62
         7
100
AcDbVertex
100
AcDb2dVertex
 10
1672.6772325093
 20
50.5372305883
 30
0.0
 70
         1
  0
VERTEX
  5
323
100
AcDbEntity
  8
L1_105
  6
CONTINUOUS
 62
         7
100
AcDbVertex
100
AcDb2dVertex
 10
1672.7859604746
 20
50.4502795314
 30
0.0
 70
         1
  0
VERTEX
  5
325
100
AcDbEntity
  8
L1_105
  6
CONTINUOUS
 62
         7
100
AcDbVertex
100
AcDb2dVertex
 10
1672.9133604689
 20
50.3685244
 30
0.0
 70
         1
  0
VERTEX
  5
327
100
AcDbEntity
  8
L1_105
  6
CONTINUOUS
 62
         7
100
AcDbVertex
100
AcDb2dVertex
 10
1673.057661075
 20
50.2934915574
 30
0.0
 70
         1
  0
VERTEX
  5
329
100
AcDbEntity
  8
L1_105
  6
CONTINUOUS
 62
         7
100
AcDbVertex
100
AcDb2dVertex
 10
1673.2164516736
 20
50.2264898568
 30
0.0
 70
         1
  0
VERTEX
  5
32B
100
AcDbEntity
  8
L1_105
  6
CONTINUOUS
 62
         7
100
AcDbVertex
100
AcDb2dVertex
 10
1673.4473790638
 20
50.150857404
 30
0.0
 70
         1
  0
VERTEX
  5
32D
100
AcDbEntity
  8
L1_105
  6
CONTINUOUS
 62
         7
100
AcDbVertex
100
AcDb2dVertex
 10
1673.6913024594
 20
50.0929509768
 30
0.0
 70
         1
  0
VERTEX
  5
32F
100
AcDbEntity
  8
L1_105
  6
CONTINUOUS
 62
         7
100
AcDbVertex
100
AcDb2dVertex
 10
1673.9402032796
 20
50.0530409699
 30
0.0
 70
         1
  0
VERTEX
  5
331
100
AcDbEntity
  8
L1_105
  6
CONTINUOUS
 62
         7
100
AcDbVertex
100
AcDb2dVertex
 10
1674.270393996
 20
50.0261936818
 30
0.0
 70
         1
  0
VERTEX
  5
333
100
AcDbEntity
  8
L1_105
  6
CONTINUOUS
 62
         7
100
AcDbVertex
100
AcDb2dVertex
 10
1674.5818992878
 20
50.0262683379
 30
0.0
 70
         1
  0
VERTEX
  5
335
100
AcDbEntity
  8
L1_105
  6
CONTINUOUS
 62
         7
100
AcDbVertex
100
AcDb2dVertex
 10
1674.8652361935
 20
50.0476991575
 30
0.0
 70
         1
  0
VERTEX
  5
337
100
AcDbEntity
  8
L1_105
  6
CONTINUOUS
 62
         7
100
AcDbVertex
100
AcDb2dVertex
 10
1675.1156814046
 20
50.0846814196
 30
0.0
 70
         1
  0
VERTEX
  5
339
100
AcDbEntity
  8
L1_105
  6
CONTINUOUS
 62
         7
100
AcDbVertex
100
AcDb2dVertex
 10
1675.3322670043
 20
50.1319570079
 30
0.0
 70
         1
  0
VERTEX
  5
33B
100
AcDbEntity
  8
L1_105
  6
CONTINUOUS
 62
         7
100
AcDbVertex
100
AcDb2dVertex
 10
1675.5741794994
 20
50.204685338
 30
0.0
 70
         1
  0
VERTEX
  5
33D
100
AcDbEntity
  8
L1_105
  6
CONTINUOUS
 62
         7
100
AcDbVertex
100
AcDb2dVertex
 10
1675.7648419983
 20
50.2806754127
 30
0.0
 70
         1
  0
VERTEX
  5
33F
100
AcDbEntity
  8
L1_105
  6
CONTINUOUS
 62
         7
100
AcDbVertex
100
AcDb2dVertex
 10
1675.9132691734
 20
50.3550578832
 30
0.0
 70
         1
  0
VERTEX
  5
341
100
AcDbEntity
  8
L1_105
  6
CONTINUOUS
 62
         7
100
AcDbVertex
100
AcDb2dVertex
 10
1676.0624276175
 20
50.4488560542
 30
0.0
 70
         1
  0
VERTEX
  5
343
100
AcDbEntity
  8
L1_105
  6
CONTINUOUS
 62
         7
100
AcDbVertex
100
AcDb2dVertex
 10
1676.1671775457
 20
50.531899066
 30
0.0
 70
         1
  0
VERTEX
  5
345
100
AcDbEntity
  8
L1_105
  6
CONTINUOUS
 62
         7
100
AcDbVertex
100
AcDb2dVertex
 10
1676.2620333496
 20
50.6275900063
 30
0.0
 70
         1
  0
VERTEX
  5
347
100
AcDbEntity
  8
L1_105
  6
CONTINUOUS
 62
         7
100
AcDbVertex
100
AcDb2dVertex
 10
1676.3372396241
 20
50.7299066505
 30
0.0
 70
         1
  0
VERTEX
  5
349
100
AcDbEntity
  8
L1_105
  6
CONTINUOUS
 62
         7
100
AcDbVertex
100
AcDb2dVertex
 10
1676.3872511003
 20
50.8293384418
 30
0.0
 70
         1
  0
VERTEX
  5
34B
100
AcDbEntity
  8
L1_105
  6
CONTINUOUS
 62
         7
100
AcDbVertex
100
AcDb2dVertex
 10
1676.4186153182
 20
50.9421706103
 30
0.0
 70
         1
  0
VERTEX
  5
34D
100
AcDbEntity
  8
L1_105
  6
CONTINUOUS
 62
         7
100
AcDbVertex
100
AcDb2dVertex
 10
1676.4251909048
 20
51.0231939222
 30
0.0
 70
         1
  0
VERTEX
  5
34F
100
AcDbEntity
  8
L1_105
  6
CONTINUOUS
 62
         7
100
AcDbVertex
100
AcDb2dVertex
 10
1676.4251909048
 20
51.0231939222
 30
0.0
 70
         1
  0
VERTEX
  5
351
100
AcDbEntity
  8
L1_105
  6
CONTINUOUS
 62
         7
100
AcDbVertex
100
AcDb2dVertex
 10
1676.3804114452
 20
51.2336176841
 30
0.0
 70
         1
  0
VERTEX
  5
353
100
AcDbEntity
  8
L1_105
  6
CONTINUOUS
 62
         7
100
AcDbVertex
100
AcDb2dVertex
 10
1676.331117458
 20
51.3262797079
 30
0.0
 70
         1
  0
VERTEX
  5
355
100
AcDbEntity
  8
L1_105
  6
CONTINUOUS
 62
         7
100
AcDbVertex
100
AcDb2dVertex
 10
1676.2621536439
 20
51.4186581732
 30
0.0
 70
         1
  0
VERTEX
  5
357
100
AcDbEntity
  8
L1_105
  6
CONTINUOUS
 62
         7
100
AcDbVertex
100
AcDb2dVertex
 10
1676.1731493004
 20
51.5091572561
 30
0.0
 70
         1
  0
VERTEX
  5
359
100
AcDbEntity
  8
L1_105
  6
CONTINUOUS
 62
         7
100
AcDbVertex
100
AcDb2dVertex
 10
1676.064421335
 20
51.596108313
 30
0.0
 70
         1
  0
VERTEX
  5
35B
100
AcDbEntity
  8
L1_105
  6
CONTINUOUS
 62
         7
100
AcDbVertex
100
AcDb2dVertex
 10
1675.9370213407
 20
51.6778634443
 30
0.0
 70
         1
  0
VERTEX
  5
35D
100
AcDbEntity
  8
L1_105
  6
CONTINUOUS
 62
         7
100
AcDbVertex
100
AcDb2dVertex
 10
1675.7927207346
 20
51.752896287
 30
0.0
 70
         1
  0
VERTEX
  5
35F
100
AcDbEntity
  8
L1_105
  6
CONTINUOUS
 62
         7
100
AcDbVertex
100
AcDb2dVertex
 10
1675.633930136
 20
51.8198979875
 30
0.0
 70
         1
  0
VERTEX
  5
361
100
AcDbEntity
  8
L1_105
  6
CONTINUOUS
 62
         7
100
AcDbVertex
100
AcDb2dVertex
 10
1675.4030027458
 20
51.8955304403
 30
0.0
 70
         1
  0
VERTEX
  5
363
100
AcDbEntity
  8
L1_105
  6
CONTINUOUS
 62
         7
100
AcDbVertex
100
AcDb2dVertex
 10
1675.1590793502
 20
51.9534368676
 30
0.0
 70
         1
  0
VERTEX
  5
365
100
AcDbEntity
  8
L1_105
  6
CONTINUOUS
 62
         7
100
AcDbVertex
100
AcDb2dVertex
 10
1674.91017853
 20
51.9933468745
 30
0.0
 70
         1
  0
VERTEX
  5
367
100
AcDbEntity
  8
L1_105
  6
CONTINUOUS
 62
         7
100
AcDbVertex
100
AcDb2dVertex
 10
1674.5799878136
 20
52.0201941625
 30
0.0
 70
         1
  0
VERTEX
  5
369
100
AcDbEntity
  8
L1_105
  6
CONTINUOUS
 62
         7
100
AcDbVertex
100
AcDb2dVertex
 10
1674.2684825218
 20
52.0201195065
 30
0.0
 70
         1
  0
VERTEX
  5
36B
100
AcDbEntity
  8
L1_105
  6
CONTINUOUS
 62
         7
100
AcDbVertex
100
AcDb2dVertex
 10
1673.9851456161
 20
51.9986886869
 30
0.0
 70
         1
  0
VERTEX
  5
36D
100
AcDbEntity
  8
L1_105
  6
CONTINUOUS
 62
         7
100
AcDbVertex
100
AcDb2dVertex
 10
1673.734700405
 20
51.9617064247
 30
0.0
 70
         1
  0
VERTEX
  5
36F
100
AcDbEntity
  8
L1_105
  6
CONTINUOUS
 62
         7
100
AcDbVertex
100
AcDb2dVertex
 10
1673.5181148053
 20
51.9144308365
 30
0.0
 70
         1
  0
VERTEX
  5
371
100
AcDbEntity
  8
L1_105
  6
CONTINUOUS
 62
         7
100
AcDbVertex
100
AcDb2dVertex
 10
1673.2762023102
 20
51.8417025064
 30
0.0
 70
         1
  0
VERTEX
  5
373
100
AcDbEntity
  8
L1_105
  6
CONTINUOUS
 62
         7
100
AcDbVertex
100
AcDb2dVertex
 10
1673.0855398113
 20
51.7657124316
 30
0.0
 70
         1
  0
VERTEX
  5
375
100
AcDbEntity
  8
L1_105
  6
CONTINUOUS
 62
         7
100
AcDbVertex
100
AcDb2dVertex
 10
1672.9371126362
 20
51.6913299612
 30
0.0
 70
         1
  0
VERTEX
  5
377
100
AcDbEntity
  8
L1_105
  6
CONTINUOUS
 62
         7
100
AcDbVertex
100
AcDb2dVertex
 10
1672.7879541921
 20
51.5975317902
 30
0.0
 70
         1
  0
VERTEX
  5
379
100
AcDbEntity
  8
L1_105
  6
CONTINUOUS
 62
         7
100
AcDbVertex
100
AcDb2dVertex
 10
1672.6832042639
 20
51.5144887784
 30
0.0
 70
         1
  0
VERTEX
  5
37B
100
AcDbEntity
  8
L1_105
  6
CONTINUOUS
 62
         7
100
AcDbVertex
100
AcDb2dVertex
 10
1672.5883484601
 20
51.4187978381
 30
0.0
 70
         1
  0
VERTEX
  5
37D
100
AcDbEntity
  8
L1_105
  6
CONTINUOUS
 62
         7
100
AcDbVertex
100
AcDb2dVertex
 10
1672.5131421855
 20
51.3164811939
 30
0.0
 70
         1
  0
VERTEX
  5
37F
100
AcDbEntity
  8
L1_105
  6
CONTINUOUS
 62
         7
100
AcDbVertex
100
AcDb2dVertex
 10
1672.4631307093
 20
51.2170494026
 30
0.0
 70
         1
  0
VERTEX
  5
381
100
AcDbEntity
  8
L1_105
  6
CONTINUOUS
 62
         7
100
AcDbVertex
100
AcDb2dVertex
 10
1672.4317664915
 20
51.1042172341
 30
0.0
 70
         1
  0
VERTEX
  5
383
100
AcDbEntity
  8
L1_105
  6
CONTINUOUS
 62
         7
100
AcDbVertex
100
AcDb2dVertex
 10
1672.4251909048
 20
51.0231939222
 30
0.0
 70
         1
  0
SEQEND
  5
385
100
AcDbEntity
  8
L1_105
  6
CONTINUOUS
 62
         7
  0
LINE
  5
386
100
AcDbEntity
  8
L1_105
  6
CONTINUOUS
 62
         7
100
AcDbLine
 10
1698.1251909048
 20
45.6488961915
 30
0.0
 11
1698.1251909048
 21
52.0988961915
 31
0.0
  0
LINE
  5
387
100
AcDbEntity
  8
L1_105
  6
CONTINUOUS
 62
         7
100
AcDbLine
 10
1698.1251909048
 20
27.6988961915
 30
0.0
 11
1698.1251909048
 21
34.1488961915
 31
0.0
  0
LINE
  5
388
100
AcDbEntity
  8
L1_105
  6
CONTINUOUS
 62
         7
100
AcDbLine
 10
1698.1251909048
 20
45.6488961915
 30
0.0
 11
1697.6251909048
 21
45.1488961915
 31
0.0
  0
LINE
  5
389
100
AcDbEntity
  8
L1_105
  6
CONTINUOUS
 62
         4
100
AcDbLine
 10
1697.6251909048
 20
52.5988961915
 30
0.0
 11
1697.6251909048
 21
45.1488961915
 31
0.0
  0
LINE
  5
38A
100
AcDbEntity
  8
L1_105
  6
CONTINUOUS
 62
         7
100
AcDbLine
 10
1697.6251909048
 20
34.6488961915
 30
0.0
 11
1698.1251909048
 21
34.1488961915
 31
0.0
  0
LINE
  5
38B
100
AcDbEntity
  8
L1_105
  6
CONTINUOUS
 62
         4
100
AcDbLine
 10
1697.6251909048
 20
34.6488961915
 30
0.0
 11
1697.6251909048
 21
27.1988961915
 31
0.0
  0
LINE
  5
38C
100
AcDbEntity
  8
L1_105
  6
CONTINUOUS
 62
         7
100
AcDbLine
 10
1697.6251909048
 20
34.6488961915
 30
0.0
 11
1693.7751909048
 21
34.6488961915
 31
0.0
  0
ARC
  5
38D
100
AcDbEntity
  8
L1_105
  6
CONTINUOUS
 62
         7
100
AcDbCircle
 10
1693.7751909048
 20
35.1488961915
 30
0.0
 40
0.5
100
AcDbArc
 50
180.0
 51
270.0
  0
LINE
  5
38E
100
AcDbEntity
  8
L1_105
  6
CONTINUOUS
 62
         7
100
AcDbLine
 10
1697.6251909048
 20
45.1488961915
 30
0.0
 11
1693.7751909048
 21
45.1488961915
 31
0.0
  0
ARC
  5
38F
100
AcDbEntity
  8
L1_105
  6
CONTINUOUS
 62
         7
100
AcDbCircle
 10
1693.7751909048
 20
44.6488961915
 30
0.0
 40
0.5
100
AcDbArc
 50
90.0
 51
180.0
  0
LINE
  5
390
100
AcDbEntity
  8
L1_105
  6
CONTINUOUS
 62
         7
100
AcDbLine
 10
1693.2751909048
 20
35.1488961915
 30
0.0
 11
1693.2751909048
 21
44.6488961915
 31
0.0
  0
LINE
  5
391
100
AcDbEntity
  8
L1_105
  6
CONTINUOUS
 62
         7
100
AcDbLine
 10
1693.2751909048
 20
27.2988961915
 30
0.0
 11
1693.2751909048
 21
52.4988961915
 31
0.0
  0
LINE
  5
392
100
AcDbEntity
  8
L1_105
  6
CONTINUOUS
 62
         7
100
AcDbLine
 10
1691.7751909048
 20
27.2988961915
 30
0.0
 11
1691.7751909048
 21
52.4988961915
 31
0.0
  0
LINE
  5
393
100
AcDbEntity
  8
L1_105
  6
CONTINUOUS
 62
         7
100
AcDbLine
 10
1666.6251909048
 20
27.2634713226
 30
0.0
 11
1666.6251909048
 21
52.5343210604
 31
0.0
  0
LINE
  5
394
100
AcDbEntity
  8
L1_105
  6
CONTINUOUS
 62
         4
100
AcDbLine
 10
1665.6251909048
 20
55.8988961915
 30
0.0
 11
1665.6251909048
 21
23.8988961915
 31
0.0
  0
LINE
  5
395
100
AcDbEntity
  8
L1_105
  6
CONTINUOUS
 62
         7
100
AcDbLine
 10
1623.1251909048
 20
25.6309469991
 30
0.0
 11
1623.1251909048
 21
54.166845384
 31
0.0
  0
LINE
  5
396
100
AcDbEntity
  8
L1_105
  6
CONTINUOUS
 62
         7
100
AcDbLine
 10
1665.6251909048
 20
23.8988961915
 30
0.0
 11
1625.759165501
 21
23.8988961915
 31
0.0
  0
LINE
  5
397
100
AcDbEntity
  8
L1_105
  6
CONTINUOUS
 62
         7
100
AcDbLine
 10
1665.6251909048
 20
55.8988961915
 30
0.0
 11
1625.759165501
 21
55.8988961915
 31
0.0
  0
LINE
  5
398
100
AcDbEntity
  8
L1_105
  6
CONTINUOUS
 62
         7
100
AcDbLine
 10
1697.6251909048
 20
52.5988961915
 30
0.0
 11
1698.1251909048
 21
52.0988961915
 31
0.0
  0
LINE
  5
399
100
AcDbEntity
  8
L1_105
  6
CONTINUOUS
 62
         7
100
AcDbLine
 10
1698.1251909048
 20
27.6988961915
 30
0.0
 11
1697.6251909048
 21
27.1988961915
 31
0.0
  0
LINE
  5
39A
100
AcDbEntity
  8
L1_105
  6
CONTINUOUS
 62
         7
100
AcDbLine
 10
1697.6251909048
 20
52.5988961915
 30
0.0
 11
1693.3751909048
 21
52.5988961915
 31
0.0
  0
LINE
  5
39B
100
AcDbEntity
  8
L1_105
  6
CONTINUOUS
 62
         7
100
AcDbLine
 10
1697.6251909048
 20
27.1988961915
 30
0.0
 11
1693.3751909048
 21
27.1988961915
 31
0.0
  0
LINE
  5
39C
100
AcDbEntity
  8
L1_105
  6
CONTINUOUS
 62
         7
100
AcDbLine
 10
1669.1251909048
 20
52.5988961915
 30
0.0
 11
1691.6751909048
 21
52.5988961915
 31
0.0
  0
LINE
  5
39D
100
AcDbEntity
  8
L1_105
  6
CONTINUOUS
 62
         7
100
AcDbLine
 10
1691.6751909048
 20
27.1988961915
 30
0.0
 11
1669.1251909048
 21
27.1988961915
 31
0.0
  0
LINE
  5
39E
100
AcDbEntity
  8
L1_105
  6
CONTINUOUS
 62
         7
100
AcDbLine
 10
1693.2751909048
 20
51.6988961915
 30
0.0
 11
1691.7751909048
 21
51.6988961915
 31
0.0
  0
LINE
  5
39F
100
AcDbEntity
  8
L1_105
  6
CONTINUOUS
 62
         7
100
AcDbLine
 10
1693.2751909048
 20
28.0988961915
 30
0.0
 11
1691.7751909048
 21
28.0988961915
 31
0.0
  0
LINE
  5
3A0
100
AcDbEntity
  8
L1_105
  6
CONTINUOUS
 62
         7
100
AcDbLine
 10
1668.3261197443
 20
52.3988961915
 30
0.0
 11
1666.9251909048
 21
52.3988961915
 31
0.0
  0
LINE
  5
3A1
100
AcDbEntity
  8
L1_105
  6
CONTINUOUS
 62
         7
100
AcDbLine
 10
1668.4296473623
 20
52.412525861
 30
0.0
 11
1669.1251909048
 21
52.5988961915
 31
0.0
  0
ARC
  5
3A2
100
AcDbEntity
  8
L1_105
  6
CONTINUOUS
 62
         7
100
AcDbCircle
 10
1668.3261197443
 20
52.7988961915
 30
0.0
 40
0.4
100
AcDbArc
 50
270.0
 51
285.0
  0
LINE
  5
3A3
100
AcDbEntity
  8
L1_105
  6
CONTINUOUS
 62
         7
100
AcDbLine
 10
1669.7616825779
 20
52.5988961915
 30
0.0
 11
1669.1251909048
 21
52.5988961915
 31
0.0
  0
LINE
  5
3A4
100
AcDbEntity
  8
L1_105
  6
CONTINUOUS
 62
         7
100
AcDbLine
 10
1666.5253299872
 20
52.788348842
 30
0.0
 11
1666.6251909048
 21
53.4988961915
 31
0.0
  0
ARC
  5
3A5
100
AcDbEntity
  8
L1_105
  6
CONTINUOUS
 62
         7
100
AcDbCircle
 10
1666.9251909048
 20
52.7988961915
 30
0.0
 40
0.4
100
AcDbArc
 50
181.5109716561
 51
270.0
  0
LINE
  5
3A6
100
AcDbEntity
  8
L1_105
  6
CONTINUOUS
 62
         7
100
AcDbLine
 10
1666.6251909048
 20
53.4988961915
 30
0.0
 11
1666.6251909048
 21
54.8988961915
 31
0.0
  0
LINE
  5
3A7
100
AcDbEntity
  8
L1_105
  6
CONTINUOUS
 62
         7
100
AcDbLine
 10
1668.3261197443
 20
27.3988961915
 30
0.0
 11
1666.9251909048
 21
27.3988961915
 31
0.0
  0
LINE
  5
3A8
100
AcDbEntity
  8
L1_105
  6
CONTINUOUS
 62
         7
100
AcDbLine
 10
1668.4296473623
 20
27.3852665221
 30
0.0
 11
1669.1251909048
 21
27.1988961915
 31
0.0
  0
ARC
  5
3A9
100
AcDbEntity
  8
L1_105
  6
CONTINUOUS
 62
         7
100
AcDbCircle
 10
1668.3261197443
 20
26.9988961915
 30
0.0
 40
0.4
100
AcDbArc
 50
75.0
 51
90.0
  0
LINE
  5
3AA
100
AcDbEntity
  8
L1_105
  6
CONTINUOUS
 62
         7
100
AcDbLine
 10
1669.7616825779
 20
27.1988961915
 30
0.0
 11
1669.1251909048
 21
27.1988961915
 31
0.0
  0
LINE
  5
3AB
100
AcDbEntity
  8
L1_105
  6
CONTINUOUS
 62
         7
100
AcDbLine
 10
1666.5253299872
 20
27.009443541
 30
0.0
 11
1666.6251909048
 21
26.2988961915
 31
0.0
  0
ARC
  5
3AC
100
AcDbEntity
  8
L1_105
  6
CONTINUOUS
 62
         7
100
AcDbCircle
 10
1666.9251909048
 20
26.9988961915
 30
0.0
 40
0.4
100
AcDbArc
 50
90.0
 51
178.4890283439
  0
LINE
  5
3AD
100
AcDbEntity
  8
L1_105
  6
CONTINUOUS
 62
         7
100
AcDbLine
 10
1666.6251909048
 20
26.2988961915
 30
0.0
 11
1666.6251909048
 21
24.8988961915
 31
0.0
  0
ARC
  5
3AE
100
AcDbEntity
  8
L1_105
  6
CONTINUOUS
 62
         7
100
AcDbCircle
 10
1649.2248039647
 20
39.8988961915
 30
0.0
 40
3.0
100
AcDbArc
 50
270.0
 51
450.0
  0
ARC
  5
3AF
100
AcDbEntity
  8
L1_105
  6
CONTINUOUS
 62
         7
100
AcDbCircle
 10
1636.3285803383
 20
39.8988961915
 30
0.0
 40
3.0
100
AcDbArc
 50
90.0
 51
270.0
  0
LINE
  5
3B0
100
AcDbEntity
  8
L1_105
  6
CONTINUOUS
 62
         7
100
AcDbLine
 10
1649.1716367867
 20
44.7388961915
 30
0.0
 11
1636.3817475162
 21
44.7388961915
 31
0.0
  0
LINE
  5
3B1
100
AcDbEntity
  8
L1_105
  6
CONTINUOUS
 62
         7
100
AcDbLine
 10
1649.1716367867
 20
35.0588961915
 30
0.0
 11
1636.3817475162
 21
35.0588961915
 31
0.0
  0
ARC
  5
3B2
100
AcDbEntity
  8
L1_105
  6
CONTINUOUS
 62
         7
100
AcDbCircle
 10
1636.3817475162
 20
39.8988961915
 30
0.0
 40
4.84
100
AcDbArc
 50
90.0
 51
270.0
  0
ARC
  5
3B3
100
AcDbEntity
  8
L1_105
  6
CONTINUOUS
 62
         7
100
AcDbCircle
 10
1649.1716367867
 20
39.8988961915
 30
0.0
 40
4.84
100
AcDbArc
 50
270.0
 51
450.0
  0
LINE
  5
3B4
100
AcDbEntity
  8
L1_105
  6
CONTINUOUS
 62
         4
100
AcDbLine
 10
1650.7610535961
 20
45.2388961915
 30
0.0
 11
1634.7923307025
 21
45.2388961915
 31
0.0
  0
LINE
  5
3B5
100
AcDbEntity
  8
L1_105
  6
CONTINUOUS
 62
         4
100
AcDbLine
 10
1650.7610535961
 20
34.5588961915
 30
0.0
 11
1634.7923307025
 21
34.5588961915
 31
0.0
  0
ARC
  5
3B6
100
AcDbEntity
  8
L1_105
  6
CONTINUOUS
 62
         4
100
AcDbCircle
 10
1650.7610535961
 20
39.8988961915
 30
0.0
 40
5.34
100
AcDbArc
 50
270.0
 51
450.0
  0
ARC
  5
3B7
100
AcDbEntity
  8
L1_105
  6
CONTINUOUS
 62
         4
100
AcDbCircle
 10
1634.7923307025
 20
39.8988961915
 30
0.0
 40
5.34
100
AcDbArc
 50
90.0
 51
270.0
  0
LINE
  5
3B8
100
AcDbEntity
  8
L1_105
  6
CONTINUOUS
 62
         7
100
AcDbLine
 10
1691.6751909048
 20
52.5988961915
 30
0.0
 11
1691.7751909048
 21
52.4988961915
 31
0.0
  0
LINE
  5
3B9
100
AcDbEntity
  8
L1_105
  6
CONTINUOUS
 62
         7
100
AcDbLine
 10
1693.2751909048
 20
52.4988961915
 30
0.0
 11
1693.3751909048
 21
52.5988961915
 31
0.0
  0
LINE
  5
3BA
100
AcDbEntity
  8
L1_105
  6
CONTINUOUS
 62
         7
100
AcDbLine
 10
1691.7751909048
 20
27.2988961915
 30
0.0
 11
1691.6751909048
 21
27.1988961915
 31
0.0
  0
LINE
  5
3BB
100
AcDbEntity
  8
L1_105
  6
CONTINUOUS
 62
         7
100
AcDbLine
 10
1693.2751909048
 20
27.2988961915
 30
0.0
 11
1693.3751909048
 21
27.1988961915
 31
0.0
  0
DIMENSION
  5
3BE
100
AcDbEntity
  8
L1_105
  6
CONTINUOUS
 62
         4
100
AcDbDimension
  2
*D11
 10
1666.6251909048
 20
61.0293863209
 30
0.0
 11
1676.2815053059
 21
63.0543863209
 31
0.0
  3
DIMSTYLE1
100
AcDbAlignedDimension
 13
1666.6251909048
 23
54.8988961915
 33
0.0
 14
1698.1251909048
 24
52.0988961915
 34
0.0
100
AcDbRotatedDimension
  0
DIMENSION
  5
3CC
100
AcDbEntity
  8
L1_105
  6
CONTINUOUS
 62
         4
100
AcDbDimension
  2
*D12
 10
1698.1251909048
 20
67.2968935561
 30
0.0
 11
1659.0926156797
 21
69.3218935561
 31
0.0
  3
DIMSTYLE1
100
AcDbAlignedDimension
 13
1698.1251909048
 23
52.0988961915
 33
0.0
 14
1623.1251909048
 24
54.8988961915
 34
0.0
100
AcDbRotatedDimension
  0
DIMENSION
  5
3DA
100
AcDbEntity
  8
L1_105
  6
CONTINUOUS
 62
         4
100
AcDbDimension
  2
*D13
 10
1618.2030947976
 20
55.8988961915
 30
0.0
 11
1616.1780947976
 21
32.8012341891
 31
0.0
  3
DIMSTYLE1
100
AcDbAlignedDimension
 13
1624.1251909048
 23
55.8988961915
 33
0.0
 14
1624.1251909048
 24
23.8988961915
 34
0.0
 50
90.0
100
AcDbRotatedDimension
  0
DIMENSION
  5
3E8
100
AcDbEntity
  8
L1_105
  6
CONTINUOUS
 62
         4
100
AcDbDimension
  2
*D14
 10
1704.9418141877
 20
45.1488961915
 30
0.0
 11
1702.9168141877
 21
34.3713438092
 31
0.0
  3
DIMSTYLE1
100
AcDbAlignedDimension
 13
1697.6251909048
 23
45.1488961915
 33
0.0
 14
1697.6251909048
 24
34.6488961915
 34
0.0
 50
90.0
100
AcDbRotatedDimension
  0
DIMENSION
  5
3F6
100
AcDbEntity
  8
L1_105
  6
CONTINUOUS
 62
         4
100
AcDbDimension
  2
*D15
 10
1711.6626741856
 20
52.5988961915
 30
0.0
 11
1709.6376741856
 21
28.4112721427
 31
0.0
  3
DIMSTYLE1
100
AcDbAlignedDimension
 13
1696.9251909048
 23
52.5988961915
 33
0.0
 14
1696.9251909048
 24
27.1988961915
 34
0.0
 50
90.0
100
AcDbRotatedDimension
  0
LINE
  5
402
100
AcDbEntity
  8
L1_105
  6
CONTINUOUS
 62
         7
100
AcDbLine
 10
1728.8851909048
 20
30.8988961915
 30
0.0
 11
1728.8851909048
 21
48.8988961915
 31
0.0
  0
LINE
  5
403
100
AcDbEntity
  8
L1_105
  6
CONTINUOUS
 62
         7
100
AcDbLine
 10
1732.8851909048
 20
49.3988961915
 30
0.0
 11
1729.3851909048
 21
49.3988961915
 31
0.0
  0
LINE
  5
404
100
AcDbEntity
  8
L1_105
  6
CONTINUOUS
 62
         7
100
AcDbLine
 10
1733.3851909048
 20
30.8988961915
 30
0.0
 11
1733.3851909048
 21
48.8988961915
 31
0.0
  0
LINE
  5
405
100
AcDbEntity
  8
L1_105
  6
CONTINUOUS
 62
         7
100
AcDbLine
 10
1732.8851909048
 20
30.3988961915
 30
0.0
 11
1729.3851909048
 21
30.3988961915
 31
0.0
  0
LINE
  5
406
100
AcDbEntity
  8
L1_105
  6
CONTINUOUS
 62
         7
100
AcDbLine
 10
1740.9351909048
 20
30.3988961915
 30
0.0
 11
1739.6351909048
 21
30.3988961915
 31
0.0
  0
LINE
  5
407
100
AcDbEntity
  8
L1_105
  6
CONTINUOUS
 62
         7
100
AcDbLine
 10
1740.9351909048
 20
49.3988961915
 30
0.0
 11
1739.6351909048
 21
49.3988961915
 31
0.0
  0
LINE
  5
408
100
AcDbEntity
  8
L1_105
  6
CONTINUOUS
 62
         7
100
AcDbLine
 10
1741.0351909048
 20
30.4988961915
 30
0.0
 11
1741.0351909048
 21
49.2988961915
 31
0.0
  0
LINE
  5
409
100
AcDbEntity
  8
L1_105
  6
CONTINUOUS
 62
         7
100
AcDbLine
 10
1739.5351909048
 20
30.4988961915
 30
0.0
 11
1739.5351909048
 21
49.2988961915
 31
0.0
  0
LINE
  5
40A
100
AcDbEntity
  8
L1_105
  6
CONTINUOUS
 62
         7
100
AcDbLine
 10
1739.5351909048
 20
47.3988961915
 30
0.0
 11
1733.3851909048
 21
47.3988961915
 31
0.0
  0
LINE
  5
40B
100
AcDbEntity
  8
L1_105
  6
CONTINUOUS
 62
         7
100
AcDbLine
 10
1739.5351909048
 20
32.3988961915
 30
0.0
 11
1733.3851909048
 21
32.3988961915
 31
0.0
  0
LINE
  5
40C
100
AcDbEntity
  8
L1_105
  6
CONTINUOUS
 62
         7
100
AcDbLine
 10
1739.5351909048
 20
49.2988961915
 30
0.0
 11
1739.6351909048
 21
49.3988961915
 31
0.0
  0
LINE
  5
40D
100
AcDbEntity
  8
L1_105
  6
CONTINUOUS
 62
         7
100
AcDbLine
 10
1740.9351909048
 20
49.3988961915
 30
0.0
 11
1741.0351909048
 21
49.2988961915
 31
0.0
  0
LINE
  5
40E
100
AcDbEntity
  8
L1_105
  6
CONTINUOUS
 62
         7
100
AcDbLine
 10
1739.5351909048
 20
30.4988961915
 30
0.0
 11
1739.6351909048
 21
30.3988961915
 31
0.0
  0
LINE
  5
40F
100
AcDbEntity
  8
L1_105
  6
CONTINUOUS
 62
         7
100
AcDbLine
 10
1741.0351909048
 20
30.4988961915
 30
0.0
 11
1740.9351909048
 21
30.3988961915
 31
0.0
  0
LINE
  5
410
100
AcDbEntity
  8
L1_105
  6
CONTINUOUS
 62
         7
100
AcDbLine
 10
1728.8851909048
 20
30.8988961915
 30
0.0
 11
1729.3851909048
 21
30.3988961915
 31
0.0
  0
LINE
  5
411
100
AcDbEntity
  8
L1_105
  6
CONTINUOUS
 62
         7
100
AcDbLine
 10
1733.3851909048
 20
30.8988961915
 30
0.0
 11
1732.8851909048
 21
30.3988961915
 31
0.0
  0
LINE
  5
412
100
AcDbEntity
  8
L1_105
  6
CONTINUOUS
 62
         7
100
AcDbLine
 10
1733.3851909048
 20
48.8988961915
 30
0.0
 11
1732.8851909048
 21
49.3988961915
 31
0.0
  0
LINE
  5
413
100
AcDbEntity
  8
L1_105
  6
CONTINUOUS
 62
         7
100
AcDbLine
 10
1728.8851909048
 20
48.8988961915
 30
0.0
 11
1729.3851909048
 21
49.3988961915
 31
0.0
  0
LINE
  5
414
100
AcDbEntity
  8
L1_105
  6
CONTINUOUS
 62
         4
100
AcDbLine
 10
1729.3851909048
 20
30.3988961915
 30
0.0
 11
1729.3851909048
 21
49.3988961915
 31
0.0
  0
LINE
  5
415
100
AcDbEntity
  8
L1_105
  6
CONTINUOUS
 62
         4
100
AcDbLine
 10
1732.8851909048
 20
30.3988961915
 30
0.0
 11
1732.8851909048
 21
49.3988961915
 31
0.0
  0
LINE
  5
416
100
AcDbEntity
  8
L1_105
  6
CONTINUOUS
 62
         4
100
AcDbLine
 10
1739.6351909048
 20
30.3988961915
 30
0.0
 11
1739.6351909048
 21
49.3988961915
 31
0.0
  0
LINE
  5
417
100
AcDbEntity
  8
L1_105
  6
CONTINUOUS
 62
         4
100
AcDbLine
 10
1740.9351909048
 20
30.3988961915
 30
0.0
 11
1740.9351909048
 21
49.3988961915
 31
0.0
  0
DIMENSION
  5
41A
100
AcDbEntity
  8
L1_105
  6
CONTINUOUS
 62
         4
100
AcDbDimension
  2
*D16
 10
1725.5610921194
 20
49.3988961915
 30
0.0
 11
1723.5360921194
 21
34.6985010567
 31
0.0
  3
DIMSTYLE1
100
AcDbAlignedDimension
 13
1729.3851909048
 23
49.3988961915
 33
0.0
 14
1729.3851909048
 24
30.3988961915
 34
0.0
 50
90.0
100
AcDbRotatedDimension
  0
DIMENSION
  5
428
100
AcDbEntity
  8
L1_105
  6
CONTINUOUS
 62
         4
100
AcDbDimension
  2
*D17
 10
1728.8851909048
 20
57.9523713386
 30
0.0
 11
1728.4354991068
 21
59.9773713386
 31
0.0
  3
DIMSTYLE1
100
AcDbAlignedDimension
 13
1728.8851909048
 23
48.8988961915
 33
0.0
 14
1741.0351909048
 24
49.2988961915
 34
0.0
100
AcDbRotatedDimension
  0
DIMENSION
  5
436
100
AcDbEntity
  8
L1_105
  6
CONTINUOUS
 62
         4
100
AcDbDimension
  2
*D18
 10
1728.8851909048
 20
52.3503083475
 30
0.0
 11
1719.4989331745
 21
54.3753083475
 31
0.0
  3
DIMSTYLE1
100
AcDbAlignedDimension
 13
1728.8851909048
 23
49.0988961915
 33
0.0
 14
1733.3851909048
 24
49.0988961915
 34
0.0
100
AcDbRotatedDimension
  0
DIMENSION
  5
446
100
AcDbEntity
  8
L1_105
  6
CONTINUOUS
 62
         4
100
AcDbDimension
  2
*D19
 10
1739.5351909048
 20
54.4142262916
 30
0.0
 11
1742.4575632572
 21
56.4392262916
 31
0.0
  3
DIMSTYLE1
100
AcDbAlignedDimension
 13
1739.5351909048
 23
49.2988961915
 33
0.0
 14
1741.0351909048
 24
49.2988961915
 34
0.0
100
AcDbRotatedDimension
  0
LINE
  5
454
100
AcDbEntity
  8
L1_105
  6
CONTINUOUS
 62
         4
100
AcDbLine
 10
1761.4251909048
 20
22.8988961915
 30
0.0
 11
1761.4251909048
 21
56.8988961915
 31
0.0
  0
LINE
  5
455
100
AcDbEntity
  8
L1_105
  6
CONTINUOUS
 62
         7
100
AcDbLine
 10
1760.9251909048
 20
56.6102210569
 30
0.0
 11
1761.4251909048
 21
56.8988961915
 31
0.0
  0
LINE
  5
456
100
AcDbEntity
  8
L1_105
  6
CONTINUOUS
 62
         7
100
AcDbLine
 10
1760.9251909048
 20
23.1875713261
 30
0.0
 11
1761.4251909048
 21
22.8988961915
 31
0.0
  0
LINE
  5
457
100
AcDbEntity
  8
L1_105
  6
CONTINUOUS
 62
         4
100
AcDbLine
 10
1782.9251909048
 20
22.8988961915
 30
0.0
 11
1782.9251909048
 21
56.8988961915
 31
0.0
  0
LINE
  5
458
100
AcDbEntity
  8
L1_105
  6
CONTINUOUS
 62
         4
100
AcDbLine
 10
1785.9251909048
 20
20.3988961915
 30
0.0
 11
1785.9251909048
 21
59.3988961915
 31
0.0
  0
LINE
  5
459
100
AcDbEntity
  8
L1_105
  6
CONTINUOUS
 62
         4
100
AcDbLine
 10
1791.9251909048
 20
59.3988961915
 30
0.0
 11
1791.9251909048
 21
20.3988961915
 31
0.0
  0
LINE
  5
45A
100
AcDbEntity
  8
L1_105
  6
CONTINUOUS
 62
         7
100
AcDbLine
 10
1782.9251909048
 20
22.8988961915
 30
0.0
 11
1761.4251909048
 21
22.8988961915
 31
0.0
  0
LINE
  5
45B
100
AcDbEntity
  8
L1_105
  6
CONTINUOUS
 62
         7
100
AcDbLine
 10
1760.9251909048
 20
56.6102210569
 30
0.0
 11
1760.9251909048
 21
23.1875713261
 31
0.0
  0
LINE
  5
45C
100
AcDbEntity
  8
L1_105
  6
CONTINUOUS
 62
         7
100
AcDbLine
 10
1782.9251909048
 20
56.8988961915
 30
0.0
 11
1761.4251909048
 21
56.8988961915
 31
0.0
  0
LINE
  5
45D
100
AcDbEntity
  8
L1_105
  6
CONTINUOUS
 62
         7
100
AcDbLine
 10
1792.4251909048
 20
20.8988961915
 30
0.0
 11
1791.9251909048
 21
20.3988961915
 31
0.0
  0
LINE
  5
45E
100
AcDbEntity
  8
L1_105
  6
CONTINUOUS
 62
         7
100
AcDbLine
 10
1791.9251909048
 20
20.3988961915
 30
0.0
 11
1785.9251909048
 21
20.3988961915
 31
0.0
  0
LINE
  5
45F
100
AcDbEntity
  8
L1_105
  6
CONTINUOUS
 62
         7
100
AcDbLine
 10
1792.4251909048
 20
20.8988961915
 30
0.0
 11
1792.4251909048
 21
58.8988961915
 31
0.0
  0
LINE
  5
460
100
AcDbEntity
  8
L1_105
  6
CONTINUOUS
 62
         7
100
AcDbLine
 10
1785.4251909048
 20
20.8988961915
 30
0.0
 11
1785.9251909048
 21
20.3988961915
 31
0.0
  0
LINE
  5
461
100
AcDbEntity
  8
L1_105
  6
CONTINUOUS
 62
         7
100
AcDbLine
 10
1785.4251909048
 20
22.9634713226
 30
0.0
 11
1785.4251909048
 21
56.8343210604
 31
0.0
  0
LINE
  5
462
100
AcDbEntity
  8
L1_105
  6
CONTINUOUS
 62
         7
100
AcDbLine
 10
1791.9251909048
 20
59.3988961915
 30
0.0
 11
1792.4251909048
 21
58.8988961915
 31
0.0
  0
LINE
  5
463
100
AcDbEntity
  8
L1_105
  6
CONTINUOUS
 62
         7
100
AcDbLine
 10
1791.9251909048
 20
59.3988961915
 30
0.0
 11
1785.9251909048
 21
59.3988961915
 31
0.0
  0
LINE
  5
464
100
AcDbEntity
  8
L1_105
  6
CONTINUOUS
 62
         7
100
AcDbLine
 10
1785.9251909048
 20
59.3988961915
 30
0.0
 11
1785.4251909048
 21
58.8988961915
 31
0.0
  0
LINE
  5
465
100
AcDbEntity
  8
L1_105
  6
CONTINUOUS
 62
         7
100
AcDbLine
 10
1783.7242620654
 20
56.6988961915
 30
0.0
 11
1785.1251909048
 21
56.6988961915
 31
0.0
  0
LINE
  5
466
100
AcDbEntity
  8
L1_105
  6
CONTINUOUS
 62
         7
100
AcDbLine
 10
1783.6207344473
 20
56.712525861
 30
0.0
 11
1782.9251909048
 21
56.8988961915
 31
0.0
  0
ARC
  5
467
100
AcDbEntity
  8
L1_105
  6
CONTINUOUS
 62
         7
100
AcDbCircle
 10
1783.7242620654
 20
57.0988961915
 30
0.0
 40
0.4
100
AcDbArc
 50
255.0
 51
270.0
  0
LINE
  5
468
100
AcDbEntity
  8
L1_105
  6
CONTINUOUS
 62
         7
100
AcDbLine
 10
1782.2886992317
 20
56.8988961915
 30
0.0
 11
1782.9251909048
 21
56.8988961915
 31
0.0
  0
LINE
  5
469
100
AcDbEntity
  8
L1_105
  6
CONTINUOUS
 62
         7
100
AcDbLine
 10
1785.5250518224
 20
57.088348842
 30
0.0
 11
1785.4251909048
 21
57.7988961915
 31
0.0
  0
ARC
  5
46A
100
AcDbEntity
  8
L1_105
  6
CONTINUOUS
 62
         7
100
AcDbCircle
 10
1785.1251909048
 20
57.0988961915
 30
0.0
 40
0.4
100
AcDbArc
 50
270.0
 51
358.4890283439
  0
LINE
  5
46B
100
AcDbEntity
  8
L1_105
  6
CONTINUOUS
 62
         7
100
AcDbLine
 10
1785.4251909048
 20
57.7988961915
 30
0.0
 11
1785.4251909048
 21
58.8988961915
 31
0.0
  0
LINE
  5
46C
100
AcDbEntity
  8
L1_105
  6
CONTINUOUS
 62
         7
100
AcDbLine
 10
1783.7242620654
 20
23.0988961915
 30
0.0
 11
1785.1251909048
 21
23.0988961915
 31
0.0
  0
LINE
  5
46D
100
AcDbEntity
  8
L1_105
  6
CONTINUOUS
 62
         7
100
AcDbLine
 10
1783.6207344473
 20
23.0852665221
 30
0.0
 11
1782.9251909048
 21
22.8988961915
 31
0.0
  0
ARC
  5
46E
100
AcDbEntity
  8
L1_105
  6
CONTINUOUS
 62
         7
100
AcDbCircle
 10
1783.7242620654
 20
22.6988961915
 30
0.0
 40
0.4
100
AcDbArc
 50
90.0
 51
105.0
  0
LINE
  5
46F
100
AcDbEntity
  8
L1_105
  6
CONTINUOUS
 62
         7
100
AcDbLine
 10
1782.2886992317
 20
22.8988961915
 30
0.0
 11
1782.9251909048
 21
22.8988961915
 31
0.0
  0
LINE
  5
470
100
AcDbEntity
  8
L1_105
  6
CONTINUOUS
 62
         7
100
AcDbLine
 10
1785.5250518224
 20
22.709443541
 30
0.0
 11
1785.4251909048
 21
21.9988961915
 31
0.0
  0
ARC
  5
471
100
AcDbEntity
  8
L1_105
  6
CONTINUOUS
 62
         7
100
AcDbCircle
 10
1785.1251909048
 20
22.6988961915
 30
0.0
 40
0.4
100
AcDbArc
 50
1.5109716561
 51
90.0
  0
LINE
  5
472
100
AcDbEntity
  8
L1_105
  6
CONTINUOUS
 62
         7
100
AcDbLine
 10
1785.4251909048
 20
21.9988961915
 30
0.0
 11
1785.4251909048
 21
20.8988961915
 31
0.0
  0
DIMENSION
  5
475
100
AcDbEntity
  8
L1_105
  6
CONTINUOUS
 62
         4
100
AcDbDimension
  2
*D20
 10
1758.1775800412
 20
56.8988961915
 30
0.0
 11
1756.1525800412
 21
28.7211117172
 31
0.0
  3
DIMSTYLE1
100
AcDbAlignedDimension
 13
1761.1251909048
 23
56.8988961915
 33
0.0
 14
1761.1251909048
 24
22.8988961915
 34
0.0
 50
90.0
100
AcDbRotatedDimension
  0
DIMENSION
  5
483
100
AcDbEntity
  8
L1_105
  6
CONTINUOUS
 62
         4
100
AcDbDimension
  2
*D21
 10
1799.3675165762
 20
59.3988961915
 30
0.0
 11
1797.3425165762
 21
35.4298883583
 31
0.0
  3
DIMSTYLE1
100
AcDbAlignedDimension
 13
1791.9251909048
 23
59.3988961915
 33
0.0
 14
1791.9251909048
 24
20.3988961915
 34
0.0
 50
90.0
100
AcDbRotatedDimension
  0
DIMENSION
  5
491
100
AcDbEntity
  8
L1_105
  6
CONTINUOUS
 62
         4
100
AcDbDimension
  2
*D22
 10
1792.4251909048
 20
62.6499622429
 30
0.0
 11
1787.6199700194
 21
64.6749622429
 31
0.0
  3
DIMSTYLE1
100
AcDbAlignedDimension
 13
1792.4251909048
 23
58.8988961915
 33
0.0
 14
1785.4251909048
 24
58.8988961915
 34
0.0
100
AcDbRotatedDimension
  0
DIMENSION
  5
49F
100
AcDbEntity
  8
L1_105
  6
CONTINUOUS
 62
         4
100
AcDbDimension
  2
*D23
 10
1792.4251909048
 20
69.3602080513
 30
0.0
 11
1770.2001217671
 21
71.3852080513
 31
0.0
  3
DIMSTYLE1
100
AcDbAlignedDimension
 13
1792.4251909048
 23
58.8988961915
 33
0.0
 14
1760.9251909048
 24
56.6988961915
 34
0.0
100
AcDbRotatedDimension
  0
LINE
  5
4AB
100
AcDbEntity
  8
L1_105
  6
CENTER
 62
         1
100
AcDbLine
 10
1806.6816341316
 20
39.8988961915
 30
0.0
 11
1517.4284391998
 21
39.8988961915
 31
0.0
  0
CIRCLE
  5
4AC
100
AcDbEntity
  8
L1_105
  6
CONTINUOUS
 62
         7
100
AcDbCircle
 10
1648.5900414003
 20
-11.2834610085
 30
0.0
 40
4.7625
  0
LINE
  5
4AD
100
AcDbEntity
  8
L1_105
  6
CONTINUOUS
 62
         7
100
AcDbLine
 10
1533.8317308625
 20
-7.3079610085
 30
0.0
 11
1532.8562308625
 21
-8.2834610085
 31
0.0
  0
LINE
  5
4AE
100
AcDbEntity
  8
L1_105
  6
CONTINUOUS
 62
         7
100
AcDbLine
 10
1533.8317308625
 20
-15.2589610085
 30
0.0
 11
1532.8562308625
 21
-14.2834610085
 31
0.0
  0
LINE
  5
4AF
100
AcDbEntity
  8
L1_105
  6
CONTINUOUS
 62
         7
100
AcDbLine
 10
1532.8562308625
 20
-14.2834610085
 30
0.0
 11
1532.8562308625
 21
-8.2834610085
 31
0.0
  0
LINE
  5
4B0
100
AcDbEntity
  8
L1_105
  6
CONTINUOUS
 62
         4
100
AcDbLine
 10
1533.8317308625
 20
-7.3079610085
 30
0.0
 11
1533.8317308625
 21
-15.2589610085
 31
0.0
  0
LINE
  5
4B1
100
AcDbEntity
  8
L1_105
  6
CONTINUOUS
 62
         7
100
AcDbLine
 10
1532.8562308625
 20
-8.2834610085
 30
0.0
 11
1522.1062308625
 21
-8.2834610085
 31
0.0
  0
LINE
  5
4B2
100
AcDbEntity
  8
L1_105
  6
CONTINUOUS
 62
         7
100
AcDbLine
 10
1522.1062308625
 20
-8.2834610085
 30
0.0
 11
1521.6062308625
 21
-8.7834610085
 31
0.0
  0
LINE
  5
4B3
100
AcDbEntity
  8
L1_105
  6
CONTINUOUS
 62
         7
100
AcDbLine
 10
1521.6062308625
 20
-13.7834610085
 30
0.0
 11
1521.6062308625
 21
-8.7834610085
 31
0.0
  0
LINE
  5
4B4
100
AcDbEntity
  8
L1_105
  6
CONTINUOUS
 62
         7
100
AcDbLine
 10
1522.1062308625
 20
-14.2834610085
 30
0.0
 11
1521.6062308625
 21
-13.7834610085
 31
0.0
  0
LINE
  5
4B5
100
AcDbEntity
  8
L1_105
  6
CONTINUOUS
 62
         7
100
AcDbLine
 10
1532.8562308625
 20
-14.2834610085
 30
0.0
 11
1522.1062308625
 21
-14.2834610085
 31
0.0
  0
LINE
  5
4B6
100
AcDbEntity
  8
L1_105
  6
CONTINUOUS
 62
         4
100
AcDbLine
 10
1532.8562308625
 20
-8.7834610085
 30
0.0
 11
1521.6062308625
 21
-8.7834610085
 31
0.0
  0
LINE
  5
4B7
100
AcDbEntity
  8
L1_105
  6
CONTINUOUS
 62
         4
100
AcDbLine
 10
1532.8562308625
 20
-13.7834610085
 30
0.0
 11
1521.6062308625
 21
-13.7834610085
 31
0.0
  0
LINE
  5
4B8
100
AcDbEntity
  8
L1_105
  6
CONTINUOUS
 62
         7
100
AcDbLine
 10
1568.3562308625
 20
-4.7834610085
 30
0.0
 11
1567.8562308625
 21
-5.2834610085
 31
0.0
  0
LINE
  5
4B9
100
AcDbEntity
  8
L1_105
  6
CONTINUOUS
 62
         7
100
AcDbLine
 10
1567.8562308625
 20
-17.2834610085
 30
0.0
 11
1567.8562308625
 21
-5.2834610085
 31
0.0
  0
LINE
  5
4BA
100
AcDbEntity
  8
L1_105
  6
CONTINUOUS
 62
         7
100
AcDbLine
 10
1567.8562308625
 20
-17.2834610085
 30
0.0
 11
1568.3562308625
 21
-17.7834610085
 31
0.0
  0
LINE
  5
4BB
100
AcDbEntity
  8
L1_105
  6
CONTINUOUS
 62
         7
100
AcDbLine
 10
1572.8562308625
 20
-17.7834610085
 30
0.0
 11
1568.3562308625
 21
-17.7834610085
 31
0.0
  0
LINE
  5
4BC
100
AcDbEntity
  8
L1_105
  6
CONTINUOUS
 62
         7
100
AcDbLine
 10
1573.3562308625
 20
-17.2834610085
 30
0.0
 11
1572.8562308625
 21
-17.7834610085
 31
0.0
  0
LINE
  5
4BD
100
AcDbEntity
  8
L1_105
  6
CONTINUOUS
 62
         7
100
AcDbLine
 10
1573.3562308625
 20
-17.2834610085
 30
0.0
 11
1573.3562308625
 21
-5.2834610085
 31
0.0
  0
LINE
  5
4BE
100
AcDbEntity
  8
L1_105
  6
CONTINUOUS
 62
         7
100
AcDbLine
 10
1572.8562308625
 20
-4.7834610085
 30
0.0
 11
1568.3562308625
 21
-4.7834610085
 31
0.0
  0
LINE
  5
4BF
100
AcDbEntity
  8
L1_105
  6
CONTINUOUS
 62
         7
100
AcDbLine
 10
1573.3562308625
 20
-5.2834610085
 30
0.0
 11
1572.8562308625
 21
-4.7834610085
 31
0.0
  0
LINE
  5
4C0
100
AcDbEntity
  8
L1_105
  6
CONTINUOUS
 62
         7
100
AcDbLine
 10
1567.8562308625
 20
-7.3079610085
 30
0.0
 11
1533.8317308625
 21
-7.3079610085
 31
0.0
  0
LINE
  5
4C1
100
AcDbEntity
  8
L1_105
  6
CONTINUOUS
 62
         7
100
AcDbLine
 10
1567.8562308625
 20
-15.2589610085
 30
0.0
 11
1533.8317308625
 21
-15.2589610085
 31
0.0
  0
LINE
  5
4C2
100
AcDbEntity
  8
L1_105
  6
CONTINUOUS
 62
         4
100
AcDbLine
 10
1572.8562308625
 20
-4.7834610085
 30
0.0
 11
1572.8562308625
 21
-17.7834610085
 31
0.0
  0
LINE
  5
4C3
100
AcDbEntity
  8
L1_105
  6
CONTINUOUS
 62
         4
100
AcDbLine
 10
1568.3562308625
 20
-4.7834610085
 30
0.0
 11
1568.3562308625
 21
-17.7834610085
 31
0.0
  0
DIMENSION
  5
4C6
100
AcDbEntity
  8
L1_105
  6
CONTINUOUS
 62
         4
100
AcDbDimension
  2
*D24
 10
1521.6062308625
 20
-21.9964409178
 30
0.0
 11
1520.4812308625
 21
-19.9714409178
 31
0.0
  3
DIMSTYLE1
100
AcDbAlignedDimension
 13
1521.6062308625
 23
-13.7834610085
 33
0.0
 14
1532.8562308625
 24
-14.2834610085
 34
0.0
100
AcDbRotatedDimension
  0
DIMENSION
  5
4D4
100
AcDbEntity
  8
L1_105
  6
CONTINUOUS
 62
         4
100
AcDbDimension
  2
*D25
 10
1545.8620592626
 20
-7.3079610085
 30
0.0
 11
1543.8370592626
 21
-20.7334610085
 31
0.0
  3
DIMSTYLE1
100
AcDbAlignedDimension
 13
1533.8317308625
 23
-7.3079610085
 33
0.0
 14
1533.8317308625
 24
-15.2589610085
 34
0.0
 50
90.0
100
AcDbRotatedDimension
  0
LINE
  5
4E0
100
AcDbEntity
  8
L1_105
  6
CONTINUOUS
 62
         7
100
AcDbLine
 10
1687.9259824244
 20
-3.5334610085
 30
0.0
 11
1686.9259824244
 21
-3.5334610085
 31
0.0
  0
LINE
  5
4E1
100
AcDbEntity
  8
L1_105
  6
CONTINUOUS
 62
         7
100
AcDbLine
 10
1687.9259824244
 20
-19.0334610085
 30
0.0
 11
1686.9259824244
 21
-19.0334610085
 31
0.0
  0
LINE
  5
4E2
100
AcDbEntity
  8
L1_105
  6
CONTINUOUS
 62
         7
100
AcDbLine
 10
1687.9259824244
 20
-1.0334610085
 30
0.0
 11
1686.9259824244
 21
-1.0334610085
 31
0.0
  0
LINE
  5
4E3
100
AcDbEntity
  8
L1_105
  6
CONTINUOUS
 62
         7
100
AcDbLine
 10
1687.9259824244
 20
-21.5334610085
 30
0.0
 11
1686.9259824244
 21
-21.5334610085
 31
0.0
  0
LINE
  5
4E4
100
AcDbEntity
  8
L1_105
  6
CONTINUOUS
 62
         7
100
AcDbLine
 10
1687.9259824244
 20
-21.5334610085
 30
0.0
 11
1687.9259824244
 21
-1.0334610085
 31
0.0
  0
LINE
  5
4E5
100
AcDbEntity
  8
L1_105
  6
CONTINUOUS
 62
         7
100
AcDbLine
 10
1686.9259824244
 20
-21.5334610085
 30
0.0
 11
1686.9259824244
 21
-1.0334610085
 31
0.0
  0
TEXT
  5
4E7
100
AcDbEntity
  8
L1_105
  6
CONTINUOUS
 62
         4
100
AcDbText
 10
1689.9680510769
 20
12.2447977213
 30
0.0
 40
1.7
  1
%%p 0.05
  7
BOX
100
AcDbText
  0
DIMENSION
  5
4EA
100
AcDbEntity
  8
L1_105
  6
CONTINUOUS
 62
         4
100
AcDbDimension
  2
*D26
 10
1706.5933441491
 20
10.2165389915
 30
0.0
 11
1704.5683441491
 21
-16.6834610085
 31
0.0
  3
DIMSTYLE1
100
AcDbAlignedDimension
 13
1715.8608751899
 23
10.2165389915
 33
0.0
 14
1715.8608751899
 24
-32.7834610085
 34
0.0
 50
90.0
100
AcDbRotatedDimension
  0
TEXT
  5
4F7
100
AcDbEntity
  8
L1_105
  6
CONTINUOUS
 62
         4
100
AcDbText
 10
1677.4538369551
 20
-2.2417938378
 30
0.0
 40
1.7
  1
%%p 0.2
 50
90.0
  7
BOX
100
AcDbText
  0
DIMENSION
  5
4FA
100
AcDbEntity
  8
L1_105
  6
CONTINUOUS
 62
         4
100
AcDbDimension
  2
*D27
 10
1679.8515303315
 20
-1.0334610085
 30
0.0
 11
1677.8265303315
 21
-19.3834610085
 31
0.0
  3
DIMSTYLE1
100
AcDbAlignedDimension
 13
1686.9259824244
 23
-1.0334610085
 33
0.0
 14
1686.9259824244
 24
-21.5334610085
 34
0.0
 50
90.0
100
AcDbRotatedDimension
  0
CIRCLE
  5
506
100
AcDbEntity
  8
L1_105
  6
CONTINUOUS
 62
         7
100
AcDbCircle
 10
1715.8608751899
 20
9.2165389915
 30
0.0
 40
1.0
  0
CIRCLE
  5
507
100
AcDbEntity
  8
L1_105
  6
CONTINUOUS
 62
         7
100
AcDbCircle
 10
1715.8608751899
 20
-31.7834610085
 30
0.0
 40
1.0
  0
LINE
  5
508
100
AcDbEntity
  8
L1_105
  6
CONTINUOUS
 62
         7
100
AcDbLine
 10
1716.8608751899
 20
-31.7834610085
 30
0.0
 11
1716.8608751899
 21
9.2165389915
 31
0.0
  0
LINE
  5
509
100
AcDbEntity
  8
L1_105
  6
CONTINUOUS
 62
         7
100
AcDbLine
 10
1714.8608751899
 20
-31.7834610085
 30
0.0
 11
1714.8608751899
 21
9.2165389915
 31
0.0
  0
DIMENSION
  5
50C
100
AcDbEntity
  8
L1_105
  6
CONTINUOUS
 62
         4
100
AcDbDimension
  2
*D28
 10
1644.0062542597
 20
-12.5758625328
 30
0.0
 11
1654.0116740003
 21
-8.4005826215
 31
0.0
 70
         3
  3
DIMSTYLE1
100
AcDbDiametricDimension
 15
1653.1738285409
 25
-9.9910594843
 35
0.0
 40
0.0
  0
LINE
  5
517
100
AcDbEntity
  8
L1_105
  6
CENTER
 62
         1
100
AcDbLine
 10
1775.494369104
 20
-11.2834610085
 30
0.0
 11
1517.0910076921
 21
-11.2834610085
 31
0.0
  0
DIMENSION
  5
51A
100
AcDbEntity
  8
L1_105
  6
CONTINUOUS
 62
         4
100
AcDbDimension
  2
*D29
 10
1532.8562308625
 20
-1.8838543452
 30
0.0
 11
1546.4643361436
 21
0.1411456548
 31
0.0
  3
DIMSTYLE1
100
AcDbAlignedDimension
 13
1532.8562308625
 23
-8.2834610085
 33
0.0
 14
1567.8562308625
 24
-5.2834610085
 34
0.0
100
AcDbRotatedDimension
  0
DIMENSION
  5
528
100
AcDbEntity
  8
L1_105
  6
CONTINUOUS
 62
         4
100
AcDbDimension
  2
*D30
 10
1597.6092766679
 20
-9.2834610085
 30
0.0
 11
1595.5842766679
 21
-12.6334610085
 31
0.0
  3
DIMSTYLE1
100
AcDbAlignedDimension
 13
1589.919738686
 23
-9.2834610085
 33
0.0
 14
1589.919738686
 24
-13.2834610085
 34
0.0
 50
90.0
100
AcDbRotatedDimension
  0
LINE
  5
534
100
AcDbEntity
  8
L1_105
  6
CONTINUOUS
 62
         7
100
AcDbLine
 10
1589.919738686
 20
-13.2834610085
 30
0.0
 11
1591.0744392244
 21
-11.2834610085
 31
0.0
  0
LINE
  5
535
100
AcDbEntity
  8
L1_105
  6
CONTINUOUS
 62
         7
100
AcDbLine
 10
1591.0744392244
 20
-11.2834610085
 30
0.0
 11
1589.919738686
 21
-9.2834610085
 31
0.0
  0
LINE
  5
536
100
AcDbEntity
  8
L1_105
  6
CONTINUOUS
 62
         7
100
AcDbLine
 10
1589.919738686
 20
-9.2834610085
 30
0.0
 11
1587.6103376093
 21
-9.2834610085
 31
0.0
  0
LINE
  5
537
100
AcDbEntity
  8
L1_105
  6
CONTINUOUS
 62
         7
100
AcDbLine
 10
1587.6103376093
 20
-9.2834610085
 30
0.0
 11
1586.4556370709
 21
-11.2834610085
 31
0.0
  0
LINE
  5
538
100
AcDbEntity
  8
L1_105
  6
CONTINUOUS
 62
         7
100
AcDbLine
 10
1586.4556370709
 20
-11.2834610085
 30
0.0
 11
1587.6103376093
 21
-13.2834610085
 31
0.0
  0
LINE
  5
539
100
AcDbEntity
  8
L1_105
  6
CONTINUOUS
 62
         7
100
AcDbLine
 10
1587.6103376093
 20
-13.2834610085
 30
0.0
 11
1589.919738686
 21
-13.2834610085
 31
0.0
  0
DIMENSION
  5
53C
100
AcDbEntity
  8
L1_105
  6
CONTINUOUS
 62
         4
100
AcDbDimension
  2
*D31
 10
1586.4556370709
 20
-2.9604078833
 30
0.0
 11
1576.6150381476
 21
-0.9354078833
 31
0.0
  3
DIMSTYLE1
100
AcDbAlignedDimension
 13
1586.4556370709
 23
-11.2834610085
 33
0.0
 14
1591.0744392244
 24
-11.2834610085
 34
0.0
100
AcDbRotatedDimension
  0
DIMENSION
  5
54A
100
AcDbEntity
  8
L1_105
  6
CONTINUOUS
 62
         4
100
AcDbDimension
  2
*D32
 10
1580.3904606652
 20
-4.7834610085
 30
0.0
 11
1578.3654606652
 21
-16.8640434139
 31
0.0
  3
DIMSTYLE1
100
AcDbAlignedDimension
 13
1572.8562308625
 23
-4.7834610085
 33
0.0
 14
1572.8562308625
 24
-17.7834610085
 34
0.0
 50
90.0
100
AcDbRotatedDimension
  0
DIMENSION
  5
558
100
AcDbEntity
  8
L1_105
  6
CONTINUOUS
 62
         4
100
AcDbDimension
  2
*D33
 10
1733.2275288275
 20
-0.8834610085
 30
0.0
 11
1731.2025288275
 21
-16.6834610085
 31
0.0
  3
DIMSTYLE1
100
AcDbAlignedDimension
 13
1737.1608751899
 23
-0.8834610085
 33
0.0
 14
1737.1608751899
 24
-21.6834610085
 34
0.0
 50
90.0
100
AcDbRotatedDimension
  0
LINE
  5
564
100
AcDbEntity
  8
L1_105
  6
CONTINUOUS
 62
         7
100
AcDbLine
 10
1737.9108751899
 20
-20.9334610085
 30
0.0
 11
1737.9108751899
 21
-1.6334610085
 31
0.0
  0
LINE
  5
565
100
AcDbEntity
  8
L1_105
  6
CONTINUOUS
 62
         7
100
AcDbLine
 10
1736.4108751899
 20
-20.9334610085
 30
0.0
 11
1736.4108751899
 21
-1.6334610085
 31
0.0
  0
CIRCLE
  5
566
100
AcDbEntity
  8
L1_105
  6
CONTINUOUS
 62
         7
100
AcDbCircle
 10
1737.1608751899
 20
-20.9334610085
 30
0.0
 40
0.75
  0
CIRCLE
  5
567
100
AcDbEntity
  8
L1_105
  6
CONTINUOUS
 62
         7
100
AcDbCircle
 10
1737.1608751899
 20
-1.6334610085
 30
0.0
 40
0.75
  0
DIMENSION
  5
56A
100
AcDbEntity
  8
L1_105
  6
CONTINUOUS
 62
         4
100
AcDbDimension
  2
*D34
 10
1761.5059026337
 20
2.4665389915
 30
0.0
 11
1759.4809026337
 21
-19.3834610085
 31
0.0
  3
DIMSTYLE1
100
AcDbAlignedDimension
 13
1765.6108751899
 23
2.4665389915
 33
0.0
 14
1765.6108751899
 24
-25.0334610085
 34
0.0
 50
90.0
100
AcDbRotatedDimension
  0
LINE
  5
576
100
AcDbEntity
  8
L1_105
  6
CONTINUOUS
 62
         7
100
AcDbLine
 10
1764.8608751899
 20
-24.2834610085
 30
0.0
 11
1764.8608751899
 21
1.7165389915
 31
0.0
  0
CIRCLE
  5
577
100
AcDbEntity
  8
L1_105
  6
CONTINUOUS
 62
         7
100
AcDbCircle
 10
1765.6108751899
 20
1.7165389915
 30
0.0
 40
0.75
  0
LINE
  5
578
100
AcDbEntity
  8
L1_105
  6
CONTINUOUS
 62
         7
100
AcDbLine
 10
1766.3608751899
 20
-24.2834610085
 30
0.0
 11
1766.3608751899
 21
1.7165389915
 31
0.0
  0
CIRCLE
  5
579
100
AcDbEntity
  8
L1_105
  6
CONTINUOUS
 62
         7
100
AcDbCircle
 10
1765.6108751899
 20
-24.2834610085
 30
0.0
 40
0.75
  0
CIRCLE
  5
57A
100
AcDbEntity
  8
L1_105
  6
CONTINUOUS
 62
         7
100
AcDbCircle
 10
1616.6547809201
 20
-11.2834610085
 30
0.0
 40
2.381
  0
DIMENSION
  5
57D
100
AcDbEntity
  8
L1_105
  6
CONTINUOUS
 62
         4
100
AcDbDimension
  2
*D35
 10
1715.3907140513
 20
10.0991195848
 30
0.0
 11
1718.4304735443
 21
6.9408037812
 31
0.0
 70
         3
  3
DIMSTYLE1
100
AcDbDiametricDimension
 15
1716.3310363285
 25
8.3339583981
 35
0.0
 40
0.0
  0
DIMENSION
  5
58A
100
AcDbEntity
  8
L1_105
  6
CONTINUOUS
 62
         4
100
AcDbDimension
  2
*D36
 10
1736.6388892278
 20
-1.0949160658
 30
0.0
 11
1740.5892466905
 21
-3.3489316271
 31
0.0
 70
         3
  3
DIMSTYLE1
100
AcDbDiametricDimension
 15
1737.682861152
 25
-2.1720059513
 35
0.0
 40
0.0
  0
DIMENSION
  5
597
100
AcDbEntity
  8
L1_105
  6
CONTINUOUS
 62
         4
100
AcDbDimension
  2
*D37
 10
1765.2226493413
 20
2.3582403944
 30
0.0
 11
1768.0532002379
 21
0.0985141475
 31
0.0
 70
         3
  3
DIMSTYLE1
100
AcDbDiametricDimension
 15
1765.9991010385
 25
1.0748375885
 35
0.0
 40
0.0
  0
DIMENSION
  5
5A4
100
AcDbEntity
  8
L1_105
  6
CONTINUOUS
 62
         4
100
AcDbDimension
  2
*D38
 10
1686.9259824244
 20
9.8075108934
 30
0.0
 11
1686.0759824244
 21
11.8325108934
 31
0.0
  3
DIMSTYLE1
100
AcDbAlignedDimension
 13
1686.9259824244
 23
-1.0334610085
 33
0.0
 14
1687.9259824244
 24
-1.0334610085
 34
0.0
100
AcDbRotatedDimension
  0
DIMENSION
  5
5B4
100
AcDbEntity
  8
L1_105
  6
CONTINUOUS
 62
         4
100
AcDbDimension
  2
*D39
 10
1614.3758077362
 20
-11.9729841967
 30
0.0
 11
1622.2937990588
 21
-8.213738899
 31
0.0
 70
         3
  3
DIMSTYLE1
100
AcDbDiametricDimension
 15
1618.933754104
 25
-10.5939378204
 35
0.0
 40
0.0
  0
DIMENSION
  5
5C1
100
AcDbEntity
  8
L1_105
  6
CONTINUOUS
 62
         4
100
AcDbDimension
  2
*D40
 10
1513.6739573592
 20
-8.2834610085
 30
0.0
 11
1511.6489573592
 21
-18.0334610085
 31
0.0
  3
DIMSTYLE1
100
AcDbAlignedDimension
 13
1522.1062308625
 23
-8.2834610085
 33
0.0
 14
1522.1062308625
 24
-14.2834610085
 34
0.0
 50
90.0
100
AcDbRotatedDimension
  0
DIMENSION
  5
5D1
100
AcDbEntity
  8
L1_105
  6
CONTINUOUS
 62
         4
100
AcDbDimension
  2
*D41
 10
1573.3562308625
 20
-24.4279433344
 30
0.0
 11
1566.5562308625
 21
-22.4029433344
 31
0.0
  3
DIMSTYLE1
100
AcDbAlignedDimension
 13
1573.3562308625
 23
-17.2834610085
 33
0.0
 14
1567.8562308625
 24
-17.2834610085
 34
0.0
100
AcDbRotatedDimension
  0
DIMENSION
  5
5E1
100
AcDbEntity
  8
L1_105
  6
CONTINUOUS
 62
         4
100
AcDbDimension
  2
*D42
 10
1590.9251909048
 20
24.8436549773
 30
0.0
 11
1592.1713319522
 21
26.8686549773
 31
0.0
  3
DIMSTYLE1
100
AcDbAlignedDimension
 13
1590.9251909048
 23
30.5988961915
 33
0.0
 14
1595.9251909048
 24
30.9988961915
 34
0.0
100
AcDbRotatedDimension
  0
LINE
  5
5EF
100
AcDbEntity
  8
L1_105
  6
CONTINUOUS
 62
         7
100
AcDbLine
 10
1693.3168671898
 20
-65.2258849692
 30
0.0
 11
1694.0668671898
 21
-54.9258849692
 31
0.0
  0
LINE
  5
5F0
100
AcDbEntity
  8
L1_105
  6
CONTINUOUS
 62
         7
100
AcDbLine
 10
1695.5668671898
 20
-54.9258849692
 30
0.0
 11
1694.8168671898
 21
-65.2258849692
 31
0.0
  0
LINE
  5
5F1
100
AcDbEntity
  8
L1_105
  6
CONTINUOUS
 62
         7
100
AcDbLine
 10
1696.3168671898
 20
-65.2258849692
 30
0.0
 11
1697.0668671898
 21
-54.9258849692
 31
0.0
  0
LINE
  5
5F2
100
AcDbEntity
  8
L1_105
  6
CONTINUOUS
 62
         7
100
AcDbLine
 10
1698.5668671898
 20
-54.9258849692
 30
0.0
 11
1697.8168671898
 21
-65.2258849692
 31
0.0
  0
LINE
  5
5F3
100
AcDbEntity
  8
L1_105
  6
CONTINUOUS
 62
         7
100
AcDbLine
 10
1699.3168671898
 20
-65.2258849692
 30
0.0
 11
1700.0668671898
 21
-54.9258849692
 31
0.0
  0
LINE
  5
5F4
100
AcDbEntity
  8
L1_105
  6
CONTINUOUS
 62
         7
100
AcDbLine
 10
1701.5668671898
 20
-54.9258849692
 30
0.0
 11
1700.8168671898
 21
-65.2258849692
 31
0.0
  0
LINE
  5
5F5
100
AcDbEntity
  8
L1_105
  6
CONTINUOUS
 62
         7
100
AcDbLine
 10
1702.3168671898
 20
-65.2258849692
 30
0.0
 11
1703.0668671898
 21
-54.9258849692
 31
0.0
  0
LINE
  5
5F6
100
AcDbEntity
  8
L1_105
  6
CONTINUOUS
 62
         7
100
AcDbLine
 10
1704.5668671898
 20
-54.9258849692
 30
0.0
 11
1703.8168671898
 21
-65.2258849692
 31
0.0
  0
LINE
  5
5F7
100
AcDbEntity
  8
L1_105
  6
CONTINUOUS
 62
         7
100
AcDbLine
 10
1705.3168671898
 20
-65.2258849692
 30
0.0
 11
1706.0668671898
 21
-54.9258849692
 31
0.0
  0
LINE
  5
5F8
100
AcDbEntity
  8
L1_105
  6
CONTINUOUS
 62
         7
100
AcDbLine
 10
1707.5668671898
 20
-54.9258849692
 30
0.0
 11
1706.8168671898
 21
-65.2258849692
 31
0.0
  0
LINE
  5
5F9
100
AcDbEntity
  8
L1_105
  6
CONTINUOUS
 62
         7
100
AcDbLine
 10
1709.0668671898
 20
-54.9258849692
 30
0.0
 11
1708.3168671898
 21
-65.2258849692
 31
0.0
  0
LINE
  5
5FA
100
AcDbEntity
  8
L1_105
  6
CONTINUOUS
 62
         7
100
AcDbLine
 10
1710.5668671898
 20
-54.9258849692
 30
0.0
 11
1709.8168671898
 21
-65.2258849692
 31
0.0
  0
CIRCLE
  5
5FB
100
AcDbEntity
  8
L1_105
  6
CONTINUOUS
 62
         7
100
AcDbCircle
 10
1703.0668671898
 20
-65.2258849692
 30
0.0
 40
0.75
  0
CIRCLE
  5
5FC
100
AcDbEntity
  8
L1_105
  6
CONTINUOUS
 62
         7
100
AcDbCircle
 10
1704.5668671898
 20
-65.2258849692
 30
0.0
 40
0.75
  0
CIRCLE
  5
5FD
100
AcDbEntity
  8
L1_105
  6
CONTINUOUS
 62
         7
100
AcDbCircle
 10
1706.0668671898
 20
-65.2258849692
 30
0.0
 40
0.75
  0
CIRCLE
  5
5FE
100
AcDbEntity
  8
L1_105
  6
CONTINUOUS
 62
         7
100
AcDbCircle
 10
1707.5668671898
 20
-65.2258849692
 30
0.0
 40
0.75
  0
CIRCLE
  5
5FF
100
AcDbEntity
  8
L1_105
  6
CONTINUOUS
 62
         7
100
AcDbCircle
 10
1709.0668671898
 20
-65.2258849692
 30
0.0
 40
0.75
  0
CIRCLE
  5
600
100
AcDbEntity
  8
L1_105
  6
CONTINUOUS
 62
         7
100
AcDbCircle
 10
1695.5668671898
 20
-65.2258849692
 30
0.0
 40
0.75
  0
CIRCLE
  5
601
100
AcDbEntity
  8
L1_105
  6
CONTINUOUS
 62
         7
100
AcDbCircle
 10
1697.0668671898
 20
-65.2258849692
 30
0.0
 40
0.75
  0
CIRCLE
  5
602
100
AcDbEntity
  8
L1_105
  6
CONTINUOUS
 62
         7
100
AcDbCircle
 10
1698.5668671898
 20
-65.2258849692
 30
0.0
 40
0.75
  0
CIRCLE
  5
603
100
AcDbEntity
  8
L1_105
  6
CONTINUOUS
 62
         7
100
AcDbCircle
 10
1700.0668671898
 20
-65.2258849692
 30
0.0
 40
0.75
  0
CIRCLE
  5
604
100
AcDbEntity
  8
L1_105
  6
CONTINUOUS
 62
         7
100
AcDbCircle
 10
1701.5668671898
 20
-65.2258849692
 30
0.0
 40
0.75
  0
CIRCLE
  5
605
100
AcDbEntity
  8
L1_105
  6
CONTINUOUS
 62
         7
100
AcDbCircle
 10
1694.0668671898
 20
-65.2258849692
 30
0.0
 40
0.75
  0
CIRCLE
  5
606
100
AcDbEntity
  8
L1_105
  6
CONTINUOUS
 62
         7
100
AcDbCircle
 10
1703.8168671898
 20
-54.9258849692
 30
0.0
 40
0.75
  0
CIRCLE
  5
607
100
AcDbEntity
  8
L1_105
  6
CONTINUOUS
 62
         7
100
AcDbCircle
 10
1705.3168671898
 20
-54.9258849692
 30
0.0
 40
0.75
  0
CIRCLE
  5
608
100
AcDbEntity
  8
L1_105
  6
CONTINUOUS
 62
         7
100
AcDbCircle
 10
1706.8168671898
 20
-54.9258849692
 30
0.0
 40
0.75
  0
CIRCLE
  5
609
100
AcDbEntity
  8
L1_105
  6
CONTINUOUS
 62
         7
100
AcDbCircle
 10
1708.3168671898
 20
-54.9258849692
 30
0.0
 40
0.75
  0
CIRCLE
  5
60A
100
AcDbEntity
  8
L1_105
  6
CONTINUOUS
 62
         7
100
AcDbCircle
 10
1709.8168671898
 20
-54.9258849692
 30
0.0
 40
0.75
  0
CIRCLE
  5
60B
100
AcDbEntity
  8
L1_105
  6
CONTINUOUS
 62
         7
100
AcDbCircle
 10
1696.3168671898
 20
-54.9258849692
 30
0.0
 40
0.75
  0
CIRCLE
  5
60C
100
AcDbEntity
  8
L1_105
  6
CONTINUOUS
 62
         7
100
AcDbCircle
 10
1697.8168671898
 20
-54.9258849692
 30
0.0
 40
0.75
  0
CIRCLE
  5
60D
100
AcDbEntity
  8
L1_105
  6
CONTINUOUS
 62
         7
100
AcDbCircle
 10
1699.3168671898
 20
-54.9258849692
 30
0.0
 40
0.75
  0
CIRCLE
  5
60E
100
AcDbEntity
  8
L1_105
  6
CONTINUOUS
 62
         7
100
AcDbCircle
 10
1700.8168671898
 20
-54.9258849692
 30
0.0
 40
0.75
  0
CIRCLE
  5
60F
100
AcDbEntity
  8
L1_105
  6
CONTINUOUS
 62
         7
100
AcDbCircle
 10
1702.3168671898
 20
-54.9258849692
 30
0.0
 40
0.75
  0
CIRCLE
  5
610
100
AcDbEntity
  8
L1_105
  6
CONTINUOUS
 62
         7
100
AcDbCircle
 10
1694.8168671898
 20
-54.9258849692
 30
0.0
 40
0.75
  0
LINE
  5
611
100
AcDbEntity
  8
L1_105
  6
CONTINUOUS
 62
         7
100
AcDbLine
 10
1727.6496377549
 20
-51.4758849692
 30
0.0
 11
1724.6496377549
 21
-68.6758849692
 31
0.0
  0
LINE
  5
612
100
AcDbEntity
  8
L1_105
  6
CONTINUOUS
 62
         7
100
AcDbLine
 10
1726.1496377549
 20
-68.6758849692
 30
0.0
 11
1727.6496377549
 21
-51.4758849692
 31
0.0
  0
LINE
  5
613
100
AcDbEntity
  8
L1_105
  6
CONTINUOUS
 62
         7
100
AcDbLine
 10
1729.1496377549
 20
-51.4758849692
 30
0.0
 11
1727.6496377549
 21
-68.6758849692
 31
0.0
  0
LINE
  5
614
100
AcDbEntity
  8
L1_105
  6
CONTINUOUS
 62
         7
100
AcDbLine
 10
1729.1496377549
 20
-68.6758849692
 30
0.0
 11
1730.6496377549
 21
-51.4758849692
 31
0.0
  0
LINE
  5
615
100
AcDbEntity
  8
L1_105
  6
CONTINUOUS
 62
         7
100
AcDbLine
 10
1732.1496377549
 20
-51.4758849692
 30
0.0
 11
1730.6496377549
 21
-68.6758849692
 31
0.0
  0
LINE
  5
616
100
AcDbEntity
  8
L1_105
  6
CONTINUOUS
 62
         7
100
AcDbLine
 10
1732.1496377549
 20
-68.6758849692
 30
0.0
 11
1733.6496377549
 21
-51.4758849692
 31
0.0
  0
LINE
  5
617
100
AcDbEntity
  8
L1_105
  6
CONTINUOUS
 62
         7
100
AcDbLine
 10
1735.1496377549
 20
-51.4758849692
 30
0.0
 11
1733.6496377549
 21
-68.6758849692
 31
0.0
  0
LINE
  5
618
100
AcDbEntity
  8
L1_105
  6
CONTINUOUS
 62
         7
100
AcDbLine
 10
1735.1496377549
 20
-68.6758849692
 30
0.0
 11
1736.6496377549
 21
-51.4758849692
 31
0.0
  0
LINE
  5
619
100
AcDbEntity
  8
L1_105
  6
CONTINUOUS
 62
         7
100
AcDbLine
 10
1738.1496377549
 20
-51.4758849692
 30
0.0
 11
1736.6496377549
 21
-68.6758849692
 31
0.0
  0
CIRCLE
  5
61A
100
AcDbEntity
  8
L1_105
  6
CONTINUOUS
 62
         7
100
AcDbCircle
 10
1725.3996377549
 20
-68.6758849692
 30
0.0
 40
0.75
  0
CIRCLE
  5
61B
100
AcDbEntity
  8
L1_105
  6
CONTINUOUS
 62
         7
100
AcDbCircle
 10
1726.8996377549
 20
-68.6758849692
 30
0.0
 40
0.75
  0
CIRCLE
  5
61C
100
AcDbEntity
  8
L1_105
  6
CONTINUOUS
 62
         7
100
AcDbCircle
 10
1728.3996377549
 20
-68.6758849692
 30
0.0
 40
0.75
  0
CIRCLE
  5
61D
100
AcDbEntity
  8
L1_105
  6
CONTINUOUS
 62
         7
100
AcDbCircle
 10
1729.8996377549
 20
-68.6758849692
 30
0.0
 40
0.75
  0
CIRCLE
  5
61E
100
AcDbEntity
  8
L1_105
  6
CONTINUOUS
 62
         7
100
AcDbCircle
 10
1731.3996377549
 20
-68.6758849692
 30
0.0
 40
0.75
  0
CIRCLE
  5
61F
100
AcDbEntity
  8
L1_105
  6
CONTINUOUS
 62
         7
100
AcDbCircle
 10
1732.8996377549
 20
-68.6758849692
 30
0.0
 40
0.75
  0
CIRCLE
  5
620
100
AcDbEntity
  8
L1_105
  6
CONTINUOUS
 62
         7
100
AcDbCircle
 10
1734.3996377549
 20
-68.6758849692
 30
0.0
 40
0.75
  0
CIRCLE
  5
621
100
AcDbEntity
  8
L1_105
  6
CONTINUOUS
 62
         7
100
AcDbCircle
 10
1735.8996377549
 20
-68.6758849692
 30
0.0
 40
0.75
  0
CIRCLE
  5
622
100
AcDbEntity
  8
L1_105
  6
CONTINUOUS
 62
         7
100
AcDbCircle
 10
1728.3996377549
 20
-51.4758849692
 30
0.0
 40
0.75
  0
CIRCLE
  5
623
100
AcDbEntity
  8
L1_105
  6
CONTINUOUS
 62
         7
100
AcDbCircle
 10
1729.8996377549
 20
-51.4758849692
 30
0.0
 40
0.75
  0
CIRCLE
  5
624
100
AcDbEntity
  8
L1_105
  6
CONTINUOUS
 62
         7
100
AcDbCircle
 10
1731.3996377549
 20
-51.4758849692
 30
0.0
 40
0.75
  0
CIRCLE
  5
625
100
AcDbEntity
  8
L1_105
  6
CONTINUOUS
 62
         7
100
AcDbCircle
 10
1732.8996377549
 20
-51.4758849692
 30
0.0
 40
0.75
  0
CIRCLE
  5
626
100
AcDbEntity
  8
L1_105
  6
CONTINUOUS
 62
         7
100
AcDbCircle
 10
1734.3996377549
 20
-51.4758849692
 30
0.0
 40
0.75
  0
CIRCLE
  5
627
100
AcDbEntity
  8
L1_105
  6
CONTINUOUS
 62
         7
100
AcDbCircle
 10
1735.8996377549
 20
-51.4758849692
 30
0.0
 40
0.75
  0
CIRCLE
  5
628
100
AcDbEntity
  8
L1_105
  6
CONTINUOUS
 62
         7
100
AcDbCircle
 10
1737.3996377549
 20
-51.4758849692
 30
0.0
 40
0.75
  0
LINE
  5
629
100
AcDbEntity
  8
L1_105
  6
CONTINUOUS
 62
         7
100
AcDbLine
 10
1755.3585326414
 20
-46.2758849692
 30
0.0
 11
1753.8585326414
 21
-73.8758849692
 31
0.0
  0
LINE
  5
62A
100
AcDbEntity
  8
L1_105
  6
CONTINUOUS
 62
         7
100
AcDbLine
 10
1752.3585326414
 20
-73.8758849692
 30
0.0
 11
1753.8585326414
 21
-46.2758849692
 31
0.0
  0
LINE
  5
62B
100
AcDbEntity
  8
L1_105
  6
CONTINUOUS
 62
         7
100
AcDbLine
 10
1752.3585326414
 20
-46.2758849692
 30
0.0
 11
1750.8585326414
 21
-73.8758849692
 31
0.0
  0
LINE
  5
62C
100
AcDbEntity
  8
L1_105
  6
CONTINUOUS
 62
         7
100
AcDbLine
 10
1749.3585326414
 20
-73.8758849692
 30
0.0
 11
1750.8585326414
 21
-46.2758849692
 31
0.0
  0
LINE
  5
62D
100
AcDbEntity
  8
L1_105
  6
CONTINUOUS
 62
         7
100
AcDbLine
 10
1756.8585326414
 20
-46.2758849692
 30
0.0
 11
1755.3585326414
 21
-73.8758849692
 31
0.0
  0
CIRCLE
  5
62E
100
AcDbEntity
  8
L1_105
  6
CONTINUOUS
 62
         7
100
AcDbCircle
 10
1750.1085326414
 20
-73.8758849692
 30
0.0
 40
0.75
  0
CIRCLE
  5
62F
100
AcDbEntity
  8
L1_105
  6
CONTINUOUS
 62
         7
100
AcDbCircle
 10
1751.6085326414
 20
-73.8758849692
 30
0.0
 40
0.75
  0
CIRCLE
  5
630
100
AcDbEntity
  8
L1_105
  6
CONTINUOUS
 62
         7
100
AcDbCircle
 10
1753.1085326414
 20
-73.8758849692
 30
0.0
 40
0.75
  0
CIRCLE
  5
631
100
AcDbEntity
  8
L1_105
  6
CONTINUOUS
 62
         7
100
AcDbCircle
 10
1754.6085326414
 20
-73.8758849692
 30
0.0
 40
0.75
  0
CIRCLE
  5
632
100
AcDbEntity
  8
L1_105
  6
CONTINUOUS
 62
         7
100
AcDbCircle
 10
1751.6085326414
 20
-46.2758849692
 30
0.0
 40
0.75
  0
CIRCLE
  5
633
100
AcDbEntity
  8
L1_105
  6
CONTINUOUS
 62
         7
100
AcDbCircle
 10
1753.1085326414
 20
-46.2758849692
 30
0.0
 40
0.75
  0
CIRCLE
  5
634
100
AcDbEntity
  8
L1_105
  6
CONTINUOUS
 62
         7
100
AcDbCircle
 10
1754.6085326414
 20
-46.2758849692
 30
0.0
 40
0.75
  0
CIRCLE
  5
635
100
AcDbEntity
  8
L1_105
  6
CONTINUOUS
 62
         7
100
AcDbCircle
 10
1756.1085326414
 20
-46.2758849692
 30
0.0
 40
0.75
  0
LINE
  5
636
100
AcDbEntity
  8
L1_105
  6
CONTINUOUS
 62
         7
100
AcDbLine
 10
1771.1337558243
 20
-65.8758849692
 30
0.0
 11
1772.3337558243
 21
-54.2758849692
 31
0.0
  0
LINE
  5
637
100
AcDbEntity
  8
L1_105
  6
CONTINUOUS
 62
         7
100
AcDbLine
 10
1771.1337558243
 20
-54.2758849692
 30
0.0
 11
1769.9337558243
 21
-65.8758849692
 31
0.0
  0
LINE
  5
638
100
AcDbEntity
  8
L1_105
  6
CONTINUOUS
 62
         7
100
AcDbLine
 10
1768.7337558243
 20
-65.8758849692
 30
0.0
 11
1769.9337558243
 21
-54.2758849692
 31
0.0
  0
LINE
  5
639
100
AcDbEntity
  8
L1_105
  6
CONTINUOUS
 62
         7
100
AcDbLine
 10
1768.7337558243
 20
-54.2758849692
 30
0.0
 11
1767.5337558243
 21
-65.8758849692
 31
0.0
  0
LINE
  5
63A
100
AcDbEntity
  8
L1_105
  6
CONTINUOUS
 62
         7
100
AcDbLine
 10
1767.5337558243
 20
-54.2758849692
 30
0.0
 11
1766.3337558243
 21
-65.8758849692
 31
0.0
  0
LINE
  5
63B
100
AcDbEntity
  8
L1_105
  6
CONTINUOUS
 62
         7
100
AcDbLine
 10
1766.3337558243
 20
-54.2758849692
 30
0.0
 11
1765.1337558243
 21
-65.8758849692
 31
0.0
  0
LINE
  5
63C
100
AcDbEntity
  8
L1_105
  6
CONTINUOUS
 62
         7
100
AcDbLine
 10
1773.5337558243
 20
-54.2758849692
 30
0.0
 11
1772.3337558243
 21
-65.8758849692
 31
0.0
  0
CIRCLE
  5
63D
100
AcDbEntity
  8
L1_105
  6
CONTINUOUS
 62
         7
100
AcDbCircle
 10
1765.7337558243
 20
-65.8758849692
 30
0.0
 40
0.6
  0
CIRCLE
  5
63E
100
AcDbEntity
  8
L1_105
  6
CONTINUOUS
 62
         7
100
AcDbCircle
 10
1766.9337558243
 20
-65.8758849692
 30
0.0
 40
0.6
  0
CIRCLE
  5
63F
100
AcDbEntity
  8
L1_105
  6
CONTINUOUS
 62
         7
100
AcDbCircle
 10
1768.1337558243
 20
-65.8758849692
 30
0.0
 40
0.6
  0
CIRCLE
  5
640
100
AcDbEntity
  8
L1_105
  6
CONTINUOUS
 62
         7
100
AcDbCircle
 10
1769.3337558243
 20
-65.8758849692
 30
0.0
 40
0.6
  0
CIRCLE
  5
641
100
AcDbEntity
  8
L1_105
  6
CONTINUOUS
 62
         7
100
AcDbCircle
 10
1770.5337558243
 20
-65.8758849692
 30
0.0
 40
0.6
  0
CIRCLE
  5
642
100
AcDbEntity
  8
L1_105
  6
CONTINUOUS
 62
         7
100
AcDbCircle
 10
1771.7337558243
 20
-65.8758849692
 30
0.0
 40
0.6
  0
CIRCLE
  5
643
100
AcDbEntity
  8
L1_105
  6
CONTINUOUS
 62
         7
100
AcDbCircle
 10
1766.9337558243
 20
-54.2758849692
 30
0.0
 40
0.6
  0
CIRCLE
  5
644
100
AcDbEntity
  8
L1_105
  6
CONTINUOUS
 62
         7
100
AcDbCircle
 10
1768.1337558243
 20
-54.2758849692
 30
0.0
 40
0.6
  0
CIRCLE
  5
645
100
AcDbEntity
  8
L1_105
  6
CONTINUOUS
 62
         7
100
AcDbCircle
 10
1769.3337558243
 20
-54.2758849692
 30
0.0
 40
0.6
  0
CIRCLE
  5
646
100
AcDbEntity
  8
L1_105
  6
CONTINUOUS
 62
         7
100
AcDbCircle
 10
1770.5337558243
 20
-54.2758849692
 30
0.0
 40
0.6
  0
CIRCLE
  5
647
100
AcDbEntity
  8
L1_105
  6
CONTINUOUS
 62
         7
100
AcDbCircle
 10
1771.7337558243
 20
-54.2758849692
 30
0.0
 40
0.6
  0
CIRCLE
  5
648
100
AcDbEntity
  8
L1_105
  6
CONTINUOUS
 62
         7
100
AcDbCircle
 10
1772.9337558243
 20
-54.2758849692
 30
0.0
 40
0.6
  0
LINE
  5
649
100
AcDbEntity
  8
L1_105
  6
CENTER
 62
         1
100
AcDbLine
 10
1789.6194096435
 20
-60.0758849692
 30
0.0
 11
1674.0530014316
 21
-60.0758849692
 31
0.0
  0
DIMENSION
  5
64C
100
AcDbEntity
  8
L1_105
  6
CONTINUOUS
 62
         4
100
AcDbDimension
  2
*D43
 10
1419.7033403763
 20
195.8561525129
 30
0.0
 11
1387.122689947
 21
198.9881525129
 31
0.0
  3
DIMSTYLE1
100
AcDbAlignedDimension
 13
1419.7033403763
 23
167.6072914602
 33
0.0
 14
1366.7033403763
 24
171.6846417294
 34
0.0
100
AcDbRotatedDimension
  0
DIMENSION
  5
65A
100
AcDbEntity
  8
L1_105
  6
CONTINUOUS
 62
         4
100
AcDbDimension
  2
*D44
 10
1419.7033403763
 20
188.0726960628
 30
0.0
 11
1402.7042697587
 21
191.2046960628
 31
0.0
  3
DIMSTYLE1
100
AcDbAlignedDimension
 13
1419.7033403763
 23
167.6072914602
 33
0.0
 14
1398.7033403763
 24
170.6846417294
 34
0.0
100
AcDbRotatedDimension
  0
DIMENSION
  5
668
100
AcDbEntity
  8
L1_105
  6
CONTINUOUS
 62
         4
100
AcDbDimension
  2
*D45
 10
1398.7033403763
 20
179.0308638944
 30
0.0
 11
1404.4715850895
 21
182.1628638944
 31
0.0
  3
DIMSTYLE1
100
AcDbAlignedDimension
 13
1398.7033403763
 23
170.6846417294
 33
0.0
 14
1400.7033403763
 24
170.6846417294
 34
0.0
100
AcDbRotatedDimension
  0
DIMENSION
  5
678
100
AcDbEntity
  8
L1_105
  6
CONTINUOUS
 62
         4
100
AcDbDimension
  2
*D46
 10
1449.3880281053
 20
169.6846417294
 30
0.0
 11
1446.2560281053
 21
140.3473538612
 31
0.0
  3
DIMSTYLE1
100
AcDbAlignedDimension
 13
1400.7033403763
 23
169.6846417294
 33
0.0
 14
1400.7033403763
 24
130.6846417294
 34
0.0
 50
90.0
100
AcDbRotatedDimension
  0
DIMENSION
  5
686
100
AcDbEntity
  8
L1_105
  6
CONTINUOUS
 62
         4
100
AcDbDimension
  2
*D47
 10
1458.6393492817
 20
170.6846417294
 30
0.0
 11
1455.5073492817
 21
139.2528174198
 31
0.0
  3
DIMSTYLE1
100
AcDbAlignedDimension
 13
1413.9712895687
 23
170.6846417294
 33
0.0
 14
1413.9712895687
 24
129.6846417294
 34
0.0
 50
90.0
100
AcDbRotatedDimension
  0
DIMENSION
  5
694
100
AcDbEntity
  8
L1_105
  6
CONTINUOUS
 62
         4
100
AcDbDimension
  2
*D48
 10
1390.1082741959
 20
115.714967216
 30
0.0
 11
1399.2808072861
 21
118.846967216
 31
0.0
  3
DIMSTYLE1
100
AcDbAlignedDimension
 13
1390.1082741959
 23
145.2146417294
 33
0.0
 14
1419.7033403763
 24
132.7619919986
 34
0.0
100
AcDbRotatedDimension
  0
DIMENSION
  5
6A2
100
AcDbEntity
  8
L1_105
  6
CONTINUOUS
 62
         4
100
AcDbDimension
  2
*D49
 10
1375.1083403763
 20
105.7739192814
 30
0.0
 11
1386.2689703403
 21
108.9059192814
 31
0.0
  3
DIMSTYLE1
100
AcDbAlignedDimension
 13
1375.1083403763
 23
145.2146417294
 33
0.0
 14
1419.7033403763
 24
132.7619919986
 34
0.0
100
AcDbRotatedDimension
  0
DIMENSION
  5
6B0
100
AcDbEntity
  8
L1_105
  6
CONTINUOUS
 62
         4
100
AcDbDimension
  2
*D50
 10
1382.6045404262
 20
155.1346417294
 30
0.0
 11
1379.4725404262
 21
108.019557727
 31
0.0
  3
DIMSTYLE1
100
AcDbAlignedDimension
 13
1375.1083403763
 23
155.1346417294
 33
0.0
 14
1375.1083403763
 24
145.2346417294
 34
0.0
 50
90.0
100
AcDbRotatedDimension
  0
LINE
  5
6BD
100
AcDbEntity
  8
L1_105
  6
CONTINUOUS
 62
         7
100
AcDbLine
 10
1419.7033403763
 20
-30.6546596061
 30
0.0
 11
1419.7033403763
 21
4.7679901247
 31
0.0
  0
DIMENSION
  5
6C0
100
AcDbEntity
  8
L1_105
  6
CONTINUOUS
 62
         4
100
AcDbDimension
  2
*D51
 10
1370.1083403763
 20
13.385148181
 30
0.0
 11
1373.3223083432
 21
16.517148181
 31
0.0
  3
DIMSTYLE1
100
AcDbAlignedDimension
 13
1370.1083403763
 23
7.5566652593
 33
0.0
 14
1395.1082741959
 24
7.5566652593
 34
0.0
100
AcDbRotatedDimension
  0
DIMENSION
  5
6CE
100
AcDbEntity
  8
L1_105
  6
CONTINUOUS
 62
         4
100
AcDbDimension
  2
*D52
 10
1419.7033403763
 20
-48.9530593812
 30
0.0
 11
1401.5810669833
 21
-45.8210593812
 31
0.0
  3
DIMSTYLE1
100
AcDbAlignedDimension
 13
1419.7033403763
 23
-30.3278646868
 33
0.0
 14
1394.7033403763
 24
-30.4433347407
 34
0.0
100
AcDbRotatedDimension
  0
DIMENSION
  5
6DC
100
AcDbEntity
  8
L1_105
  6
CONTINUOUS
 62
         4
100
AcDbDimension
  2
*D53
 10
1443.2641711857
 20
3.0566652593
 30
0.0
 11
1440.1321711857
 21
-20.9507516815
 31
0.0
  3
DIMSTYLE1
100
AcDbAlignedDimension
 13
1394.7033403763
 23
3.0566652593
 33
0.0
 14
1394.7033403763
 24
-28.9433347407
 34
0.0
 50
90.0
100
AcDbRotatedDimension
  0
DIMENSION
  5
6EA
100
AcDbEntity
  8
L1_105
  6
CONTINUOUS
 62
         4
100
AcDbDimension
  2
*D54
 10
1455.3715864264
 20
4.0566652593
 30
0.0
 11
1452.2395864264
 21
-21.6075939878
 31
0.0
  3
DIMSTYLE1
100
AcDbAlignedDimension
 13
1419.5033403763
 23
4.0566652593
 33
0.0
 14
1419.5033403763
 24
-29.9433347407
 34
0.0
 50
90.0
100
AcDbRotatedDimension
  0
DIMENSION
  5
6F8
100
AcDbEntity
  8
L1_105
  6
CONTINUOUS
 62
         4
100
AcDbDimension
  2
*D55
 10
1419.7033403763
 20
-65.0941794402
 30
0.0
 11
1382.7868809294
 21
-61.9621794402
 31
0.0
  3
DIMSTYLE1
100
AcDbAlignedDimension
 13
1419.7033403763
 23
-30.3278646868
 33
0.0
 14
1353.7033403763
 24
-29.4433347407
 34
0.0
100
AcDbRotatedDimension
  0
TEXT
  5
705
100
AcDbEntity
  8
L1_105
  6
CONTINUOUS
 62
         2
100
AcDbText
 10
1567.8551181589
 20
224.3704784082
 30
0.0
 40
4.5
  1
534514
 41
0.98
  7
BOX
100
AcDbText
  0
ENDSEC
  0
SECTION
  2
OBJECTS
  0
DICTIONARY
  5
19
100
AcDbDictionary
  3
ACAD_GROUP
350
1A
  3
ACAD_MLINESTYLE
350
1B
  0
DICTIONARY
  5
1A
102
{ACAD_REACTORS
330
19
102
}
100
AcDbDictionary
  0
DICTIONARY
  5
1B
102
{ACAD_REACTORS
330
19
102
}
100
AcDbDictionary
  3
STANDARD
350
1C
  0
MLINESTYLE
  5
1C
102
{ACAD_REACTORS
330
1B
102
}
100
AcDbMlineStyle
  2
STANDARD
 70
         0
  3

 62
         0
 51
90.0
 52
90.0
 71
         2
 49
0.5
 62
       256
  6
BYLAYER
 49
-0.5
 62
       256
  6
BYLAYER
  0
ENDSEC
  0
EOF
