  0
SECTION
  2
HEADER
  9
$ACADVER
  1
AC1014
  9
$ACADMAINTVER
 70
         0
  9
$DWGCODEPAGE
  3
BIG5
  9
$INSBASE
 10
0.0
 20
0.0
 30
0.0
  9
$EXTMIN
 10
1152.8915083594
 20
-104.6784201636
 30
0.0
  9
$EXTMAX
 10
1845.9769447888
 20
244.7537592926
 30
0.0
  9
$LIMMIN
 10
0.0
 20
0.0
  9
$LIMMAX
 10
0.0
 20
0.0
  9
$ORTHOMODE
 70
         0
  9
$REGENMODE
 70
         1
  9
$FILLMODE
 70
         1
  9
$QTEXTMODE
 70
         0
  9
$MIRRTEXT
 70
         1
  9
$DRAGMODE
 70
         2
  9
$LTSCALE
 40
1.0
  9
$OSMODE
 70
         0
  9
$ATTMODE
 70
         1
  9
$TEXTSIZE
 40
1.0
  9
$TRACEWID
 40
0.05
  9
$TEXTSTYLE
  7
STANDARD
  9
$CLAYER
  8
0
  9
$CELTYPE
  6
CONTINUOUS
  9
$CECOLOR
 62
         4
  9
$CELTSCALE
 40
1.0
  9
$DELOBJ
 70
         1
  9
$DISPSILH
 70
         0
  9
$DIMSCALE
 40
1.0
  9
$DIMASZ
 40
0.18
  9
$DIMEXO
 40
0.0625
  9
$DIMDLI
 40
0.38
  9
$DIMRND
 40
0.0
  9
$DIMDLE
 40
0.0
  9
$DIMEXE
 40
0.25
  9
$DIMTP
 40
0.01
  9
$DIMTM
 40
-0.01
  9
$DIMTXT
 40
2.7
  9
$DIMCEN
 40
0.09
  9
$DIMTSZ
 40
0.0
  9
$DIMTOL
 70
         0
  9
$DIMLIM
 70
         0
  9
$DIMTIH
 70
         1
  9
$DIMTOH
 70
         1
  9
$DIMSE1
 70
         0
  9
$DIMSE2
 70
         0
  9
$DIMTAD
 70
         0
  9
$DIMZIN
 70
         0
  9
$DIMBLK
  1

  9
$DIMASO
 70
         1
  9
$DIMSHO
 70
         1
  9
$DIMPOST
  1

  9
$DIMAPOST
  1

  9
$DIMALT
 70
         0
  9
$DIMALTD
 70
         2
  9
$DIMALTF
 40
25.4
  9
$DIMLFAC
 40
1.0
  9
$DIMTOFL
 70
         0
  9
$DIMTVP
 40
0.0
  9
$DIMTIX
 70
         0
  9
$DIMSOXD
 70
         0
  9
$DIMSAH
 70
         0
  9
$DIMBLK1
  1

  9
$DIMBLK2
  1

  9
$DIMSTYLE
  2
STANDARD
  9
$DIMCLRD
 70
         0
  9
$DIMCLRE
 70
         0
  9
$DIMCLRT
 70
         4
  9
$DIMTFAC
 40
1.0
  9
$DIMGAP
 40
0.09
  9
$DIMJUST
 70
         0
  9
$DIMSD1
 70
         0
  9
$DIMSD2
 70
         0
  9
$DIMTOLJ
 70
         1
  9
$DIMTZIN
 70
         0
  9
$DIMALTZ
 70
         0
  9
$DIMALTTZ
 70
         0
  9
$DIMFIT
 70
         3
  9
$DIMUPT
 70
         0
  9
$DIMUNIT
 70
         2
  9
$DIMDEC
 70
         4
  9
$DIMTDEC
 70
         4
  9
$DIMALTU
 70
         2
  9
$DIMALTTD
 70
         2
  9
$DIMTXSTY
  7
STANDARD
  9
$DIMAUNIT
 70
         0
  9
$LUNITS
 70
         2
  9
$LUPREC
 70
        10
  9
$SKETCHINC
 40
0.1
  9
$FILLETRAD
 40
0.0
  9
$AUNITS
 70
         0
  9
$AUPREC
 70
         0
  9
$MENU
  1
acad
  9
$ELEVATION
 40
0.0
  9
$PELEVATION
 40
0.0
  9
$THICKNESS
 40
0.0
  9
$LIMCHECK
 70
         0
  9
$BLIPMODE
 70
         1
  9
$CHAMFERA
 40
0.0
  9
$CHAMFERB
 40
0.0
  9
$CHAMFERC
 40
0.0
  9
$CHAMFERD
 40
0.0
  9
$SKPOLY
 70
         0
  9
$TDCREATE
 40
0.000000000
  9
$TDUPDATE
 40
0.000000000
  9
$TDINDWG
 40
0.0000000000
  9
$TDUSRTIMER
 40
0.0000000000
  9
$USRTIMER
 70
         1
  9
$ANGBASE
 50
0.0
  9
$ANGDIR
 70
         0
  9
$PDMODE
 70
         2
  9
$PDSIZE
 40
0.0
  9
$PLINEWID
 40
0.0
  9
$COORDS
 70
         1
  9
$SPLFRAME
 70
         0
  9
$SPLINETYPE
 70
         6
  9
$SPLINESEGS
 70
         8
  9
$ATTDIA
 70
         0
  9
$ATTREQ
 70
         1
  9
$HANDLING
 70
         1
  9
$HANDSEED
  5
727
  9
$SURFTAB1
 70
         6
  9
$SURFTAB2
 70
         6
  9
$SURFTYPE
 70
         6
  9
$SURFU
 70
         6
  9
$SURFV
 70
         6
  9
$UCSNAME
  2

  9
$UCSORG
 10
0.0
 20
0.0
 30
0.0
  9
$UCSXDIR
 10
1.0
 20
0.0
 30
0.0
  9
$UCSYDIR
 10
0.0
 20
1.0
 30
0.0
  9
$PUCSNAME
  2

  9
$PUCSORG
 10
0.0
 20
0.0
 30
0.0
  9
$PUCSXDIR
 10
1.0
 20
0.0
 30
0.0
  9
$PUCSYDIR
 10
0.0
 20
1.0
 30
0.0
  9
$USERI1
 70
         0
  9
$USERI2
 70
         0
  9
$USERI3
 70
         0
  9
$USERI4
 70
         0
  9
$USERI5
 70
         0
  9
$USERR1
 40
0.0
  9
$USERR2
 40
0.0
  9
$USERR3
 40
0.0
  9
$USERR4
 40
0.0
  9
$USERR5
 40
0.0
  9
$WORLDVIEW
 70
         1
  9
$SHADEDGE
 70
         3
  9
$SHADEDIF
 70
        70
  9
$TILEMODE
 70
         1
  9
$MAXACTVP
 70
        16
  9
$PINSBASE
 10
0.0
 20
0.0
 30
0.0
  9
$PLIMCHECK
 70
         0
  9
$PEXTMIN
 10
1.0000000000E+20
 20
1.0000000000E+20
 30
1.0000000000E+20
  9
$PEXTMAX
 10
-1.0000000000E+20
 20
-1.0000000000E+20
 30
-1.0000000000E+20
  9
$PLIMMIN
 10
0.0
 20
0.0
  9
$PLIMMAX
 10
12.0
 20
9.0
  9
$UNITMODE
 70
         0
  9
$VISRETAIN
 70
         0
  9
$PLINEGEN
 70
         1
  9
$PSLTSCALE
 70
         0
  9
$TREEDEPTH
 70
      3020
  9
$PICKSTYLE
 70
         1
  9
$CMLSTYLE
  2
STANDARD
  9
$CMLJUST
 70
         0
  9
$CMLSCALE
 40
1.0
  9
$PROXYGRAPHICS
 70
         0
  9
$MEASUREMENT
 70
         0
  0
ENDSEC
  0
SECTION
  2
CLASSES
  0
CLASS
  1
LWPOLYLINE
  2
AcDbPolyline
  3
"AutoCAD"
 90
        0
280
         0
281
         1
  0
CLASS
  1
IMAGE
  2
AcDbRasterImage
  3
ISM
 90
      127
280
         0
281
         1
  0
CLASS
  1
OLE2FRAME
  2
AcDbOle2Frame
  3
""
 90
        0
280
         0
281
         1
  0
CLASS
  1
HATCH
  2
AcDbHatch
  3
"ACAD_SEDONA"
 90
        0
280
         0
281
         1
  0
CLASS
  1
DICTIONARYVAR
  2
AcDbDictionaryVar
  3
"AutoCAD"
 90
        0
280
         0
281
         0
  0
CLASS
  1
RASTERVARIABLES
  2
AcDbRasterVariables
  3
ISM
 90
        0
280
         0
281
         0
  0
CLASS
  1
IMAGEDEF
  2
AcDbRasterImageDef
  3
ISM
 90
        0
280
         0
281
         0
  0
CLASS
  1
IMAGEDEF_REACTOR
  2
AcDbRasterImageDefReactor
  3
ISM
 90
        1
280
         0
281
         0
  0
CLASS
  1
IDBUFFER
  2
AcDbIdBuffer
  3
"Acad"
 90
        0
280
         0
281
         0
  0
CLASS
  1
SPATIAL_FILTER
  2
AcDbSpatialFilter
  3
"Acad"
 90
        0
280
         0
281
         0
  0
CLASS
  1
XRECORD
  2
AcDbXrecord
  3
"<Built In>"
 90
        0
280
         0
281
         0
  0
CLASS
  1
SORTENTSTABLE
  2
AcDbSortentsTable
  3
"AutoCAD"
 90
        0
280
         0
281
         0
  0
CLASS
  1
LAYER_INDEX
  2
AcDbLayerIndex
  3
"Acad"
 90
        0
280
         0
281
         0
  0
CLASS
  1
SPATIAL_INDEX
  2
AcDbSpatialIndex
  3
"Acad"
 90
        0
280
         0
281
         0
  0
CLASS
  1
OBJECT_PTR
  2
CAseDLPNTableRecord
  3
"ASE-LPNTableRecord"
 90
        1
280
         0
281
         0
  0
CLASS
  1
LAYOUT
  2
AcDbLayout
  3
"AutoCAD 2000"
 90
        1
280
         0
281
         0
  0
CLASS
  1
PLOTSETTINGS
  2
AcDbPlotSettings
  3
"AutoCAD 2000"
 90
        1
280
         0
281
         0
  0
CLASS
  1
ACDBDICTIONARYWDFLT
  2
AcDbDictionaryWithDefault
  3
"AutoCAD 2000"
 90
        1
280
         0
281
         0
  0
CLASS
  1
ACDBPLACEHOLDER
  2
AcDbPlaceHolder
  3
"AutoCAD 2000"
 90
        1
280
         0
281
         0
  0
CLASS
  1
VBA_PROJECT
  2
AcDbVbaProject
  3
"acadvba"
 90
        1
280
         0
281
         0
  0
CLASS
  1
WIPEOUT
  2
AcDbWipeout
  3
WipeOut|AutoCAD Express Tool|expresstools@autodesk.com
 90
      127
280
         0
281
         1
  0
CLASS
  1
WIPEOUTVARIABLES
  2
AcDbWipeoutVariables
  3
WipeOut|AutoCAD Express Tool|expresstools@autodesk.com
 90
        0
280
         0
281
         0
  0
CLASS
  1
RTEXT
  2
RText
  3
RText|AutoCAD Express Tool|expresstools@autodesk.com
 90
        0
280
         0
281
         1
  0
CLASS
  1
ARCALIGNEDTEXT
  2
AcDbArcAlignedText
  3
ATEXT|AutoCAD Express Tool|expresstools@autodesk.com
 90
        0
280
         0
281
         1
  0
ENDSEC
  0
SECTION
  2
TABLES
  0
TABLE
  2
VPORT
  5
7
100
AcDbSymbolTable
 70
         1
  0
VPORT
  5
15
100
AcDbSymbolTableRecord
100
AcDbViewportTableRecord
  2
*ACTIVE
 70
         0
 10
0.0
 20
0.0
 11
1.0
 21
1.0
 12
1499.4342265741
 22
70.0376695645
 13
0.0
 23
0.0
 14
1.0
 24
1.0
 15
0.0
 25
0.0
 16
0.0
 26
0.0
 36
1.0
 17
0.0
 27
0.0
 37
0.0
 40
349.4321794561
 41
1.9834619625
 42
50.0
 43
0.0
 44
0.0
 50
0.0
 51
0.0
 71
         0
 72
       100
 73
         1
 74
         1
 75
         0
 76
         0
 77
         0
 78
         0
  0
ENDTAB
  0
TABLE
  2
LTYPE
  5
4
100
AcDbSymbolTable
 70
         6
  0
LTYPE
  5
11
100
AcDbSymbolTableRecord
100
AcDbLinetypeTableRecord
  2
BYBLOCK
 70
        64
  3

 72
        65
 73
         0
 40
0.0
  0
LTYPE
  5
12
100
AcDbSymbolTableRecord
100
AcDbLinetypeTableRecord
  2
BYLAYER
 70
        64
  3

 72
        65
 73
         0
 40
0.0
  0
LTYPE
  5
13
100
AcDbSymbolTableRecord
100
AcDbLinetypeTableRecord
  2
CONTINUOUS
 70
        64
  3
Solid line
 72
        65
 73
         0
 40
0.0
  0
LTYPE
  5
1D
100
AcDbSymbolTableRecord
100
AcDbLinetypeTableRecord
  2
DASHED
 70
        64
  3
_ _ _ _ _ _ _ _ _ _ _ _ _ _ _ _
 72
        65
 73
         2
 40
0.2
 49
0.1
 74
         0
 49
-0.1
 74
         0
  0
LTYPE
  5
1E
100
AcDbSymbolTableRecord
100
AcDbLinetypeTableRecord
  2
CENTER
 70
        64
  3
___ _ ___ _ ___ _ ___ _ ___ _ ___ _ ___ _ ___ _
 72
        65
 73
         4
 40
0.95
 49
0.625
 74
         0
 49
-0.125
 74
         0
 49
0.075
 74
         0
 49
-0.125
 74
         0
  0
LTYPE
  5
1F
100
AcDbSymbolTableRecord
100
AcDbLinetypeTableRecord
  2
PHANTOM
 70
        64
  3
______  __  __  ______  __  __  ______  __  __  
 72
        65
 73
         6
 40
1.025
 49
0.625
 74
         0
 49
-0.125
 74
         0
 49
0.075
 74
         0
 49
-0.125
 74
         0
 49
0.075
 74
         0
 49
-0.125
 74
         0
  0
ENDTAB
  0
TABLE
  2
LAYER
  5
2
100
AcDbSymbolTable
 70
         5
  0
LAYER
  5
14
100
AcDbSymbolTableRecord
100
AcDbLayerTableRecord
  2
0
 70
         0
 62
         7
  6
CONTINUOUS
  0
LAYER
  5
21
100
AcDbSymbolTableRecord
100
AcDbLayerTableRecord
  2
_____U
 70
         1
 62
         7
  6
CONTINUOUS
  0
LAYER
  5
22
100
AcDbSymbolTableRecord
100
AcDbLayerTableRecord
  2
_Y__________
 70
         0
 62
         7
  6
CONTINUOUS
  0
LAYER
  5
23
100
AcDbSymbolTableRecord
100
AcDbLayerTableRecord
  2
L1_105
 70
         0
 62
         7
  6
CONTINUOUS
  0
LAYER
  5
28
100
AcDbSymbolTableRecord
100
AcDbLayerTableRecord
  2
DEFPOINTS
 70
         0
 62
        -7
  6
CONTINUOUS
  0
ENDTAB
  0
TABLE
  2
STYLE
  5
3
100
AcDbSymbolTable
 70
        59
  0
STYLE
  5
17
100
AcDbSymbolTableRecord
100
AcDbTextStyleTableRecord
  2
STANDARD
 70
         0
 40
0.0
 41
1.0
 50
0.0
 71
         0
 42
0.0
  3
txt
  4

  0
STYLE
  5
31
100
AcDbSymbolTableRecord
100
AcDbTextStyleTableRecord
  2
BOX
 70
         0
 40
1.0
 41
1.0
 50
0.0
 71
         0
 42
0.2
  3
txt.shx
  4

  0
STYLE
  5
B9
100
AcDbSymbolTableRecord
100
AcDbTextStyleTableRecord
  2
BOX
 70
         0
 40
1.0
 41
1.0
 50
0.0
 71
         0
 42
0.2
  3
txt.shx
  4

  0
STYLE
  5
17B
100
AcDbSymbolTableRecord
100
AcDbTextStyleTableRecord
  2
BOX
 70
         0
 40
1.0
 41
1.0
 50
0.0
 71
         0
 42
0.2
  3
txt.shx
  4

  0
STYLE
  5
1DF
100
AcDbSymbolTableRecord
100
AcDbTextStyleTableRecord
  2
BOX
 70
         0
 40
1.0
 41
1.0
 50
0.0
 71
         0
 42
0.2
  3
txt.shx
  4

  0
STYLE
  5
1F9
100
AcDbSymbolTableRecord
100
AcDbTextStyleTableRecord
  2
BOX
 70
         0
 40
1.0
 41
1.0
 50
0.0
 71
         0
 42
0.2
  3
txt.shx
  4

  0
STYLE
  5
233
100
AcDbSymbolTableRecord
100
AcDbTextStyleTableRecord
  2
BOX
 70
         0
 40
1.0
 41
1.0
 50
0.0
 71
         0
 42
0.2
  3
txt.shx
  4

  0
STYLE
  5
241
100
AcDbSymbolTableRecord
100
AcDbTextStyleTableRecord
  2
BOX
 70
         0
 40
1.0
 41
1.0
 50
0.0
 71
         0
 42
0.2
  3
txt.shx
  4

  0
STYLE
  5
24F
100
AcDbSymbolTableRecord
100
AcDbTextStyleTableRecord
  2
BOX
 70
         0
 40
1.0
 41
1.0
 50
0.0
 71
         0
 42
0.2
  3
txt.shx
  4

  0
STYLE
  5
26B
100
AcDbSymbolTableRecord
100
AcDbTextStyleTableRecord
  2
BOX
 70
         0
 40
1.0
 41
1.0
 50
0.0
 71
         0
 42
0.2
  3
txt.shx
  4

  0
STYLE
  5
279
100
AcDbSymbolTableRecord
100
AcDbTextStyleTableRecord
  2
BOX
 70
         0
 40
1.0
 41
1.0
 50
0.0
 71
         0
 42
0.2
  3
txt.shx
  4

  0
STYLE
  5
3AD
100
AcDbSymbolTableRecord
100
AcDbTextStyleTableRecord
  2
BOX
 70
         0
 40
1.0
 41
1.0
 50
0.0
 71
         0
 42
0.2
  3
txt.shx
  4

  0
STYLE
  5
3BB
100
AcDbSymbolTableRecord
100
AcDbTextStyleTableRecord
  2
BOX
 70
         0
 40
1.0
 41
1.0
 50
0.0
 71
         0
 42
0.2
  3
txt.shx
  4

  0
STYLE
  5
3C9
100
AcDbSymbolTableRecord
100
AcDbTextStyleTableRecord
  2
BOX
 70
         0
 40
1.0
 41
1.0
 50
0.0
 71
         0
 42
0.2
  3
txt.shx
  4

  0
STYLE
  5
3D7
100
AcDbSymbolTableRecord
100
AcDbTextStyleTableRecord
  2
BOX
 70
         0
 40
1.0
 41
1.0
 50
0.0
 71
         0
 42
0.2
  3
txt.shx
  4

  0
STYLE
  5
3E5
100
AcDbSymbolTableRecord
100
AcDbTextStyleTableRecord
  2
BOX
 70
         0
 40
1.0
 41
1.0
 50
0.0
 71
         0
 42
0.2
  3
txt.shx
  4

  0
STYLE
  5
409
100
AcDbSymbolTableRecord
100
AcDbTextStyleTableRecord
  2
BOX
 70
         0
 40
1.0
 41
1.0
 50
0.0
 71
         0
 42
0.2
  3
txt.shx
  4

  0
STYLE
  5
417
100
AcDbSymbolTableRecord
100
AcDbTextStyleTableRecord
  2
BOX
 70
         0
 40
1.0
 41
1.0
 50
0.0
 71
         0
 42
0.2
  3
txt.shx
  4

  0
STYLE
  5
427
100
AcDbSymbolTableRecord
100
AcDbTextStyleTableRecord
  2
BOX
 70
         0
 40
1.0
 41
1.0
 50
0.0
 71
         0
 42
0.2
  3
txt.shx
  4

  0
STYLE
  5
437
100
AcDbSymbolTableRecord
100
AcDbTextStyleTableRecord
  2
BOX
 70
         0
 40
1.0
 41
1.0
 50
0.0
 71
         0
 42
0.2
  3
txt.shx
  4

  0
STYLE
  5
464
100
AcDbSymbolTableRecord
100
AcDbTextStyleTableRecord
  2
BOX
 70
         0
 40
1.0
 41
1.0
 50
0.0
 71
         0
 42
0.2
  3
txt.shx
  4

  0
STYLE
  5
472
100
AcDbSymbolTableRecord
100
AcDbTextStyleTableRecord
  2
BOX
 70
         0
 40
1.0
 41
1.0
 50
0.0
 71
         0
 42
0.2
  3
txt.shx
  4

  0
STYLE
  5
480
100
AcDbSymbolTableRecord
100
AcDbTextStyleTableRecord
  2
BOX
 70
         0
 40
1.0
 41
1.0
 50
0.0
 71
         0
 42
0.2
  3
txt.shx
  4

  0
STYLE
  5
48E
100
AcDbSymbolTableRecord
100
AcDbTextStyleTableRecord
  2
BOX
 70
         0
 40
1.0
 41
1.0
 50
0.0
 71
         0
 42
0.2
  3
txt.shx
  4

  0
STYLE
  5
4B5
100
AcDbSymbolTableRecord
100
AcDbTextStyleTableRecord
  2
BOX
 70
         0
 40
1.0
 41
1.0
 50
0.0
 71
         0
 42
0.2
  3
txt.shx
  4

  0
STYLE
  5
4C3
100
AcDbSymbolTableRecord
100
AcDbTextStyleTableRecord
  2
BOX
 70
         0
 40
1.0
 41
1.0
 50
0.0
 71
         0
 42
0.2
  3
txt.shx
  4

  0
STYLE
  5
4CC
100
AcDbSymbolTableRecord
100
AcDbTextStyleTableRecord
  2
BOX
 70
         0
 40
1.0
 41
1.0
 50
0.0
 71
         0
 42
0.2
  3
txt.shx
  4

  0
STYLE
  5
4D9
100
AcDbSymbolTableRecord
100
AcDbTextStyleTableRecord
  2
BOX
 70
         0
 40
1.0
 41
1.0
 50
0.0
 71
         0
 42
0.2
  3
txt.shx
  4

  0
STYLE
  5
4DC
100
AcDbSymbolTableRecord
100
AcDbTextStyleTableRecord
  2
BOX
 70
         0
 40
1.0
 41
1.0
 50
0.0
 71
         0
 42
0.2
  3
txt.shx
  4

  0
STYLE
  5
4E9
100
AcDbSymbolTableRecord
100
AcDbTextStyleTableRecord
  2
BOX
 70
         0
 40
1.0
 41
1.0
 50
0.0
 71
         0
 42
0.2
  3
txt.shx
  4

  0
STYLE
  5
4FA
100
AcDbSymbolTableRecord
100
AcDbTextStyleTableRecord
  2
BOX
 70
         0
 40
1.0
 41
1.0
 50
0.0
 71
         0
 42
0.2
  3
txt.shx
  4

  0
STYLE
  5
509
100
AcDbSymbolTableRecord
100
AcDbTextStyleTableRecord
  2
BOX
 70
         0
 40
1.0
 41
1.0
 50
0.0
 71
         0
 42
0.2
  3
txt.shx
  4

  0
STYLE
  5
517
100
AcDbSymbolTableRecord
100
AcDbTextStyleTableRecord
  2
BOX
 70
         0
 40
1.0
 41
1.0
 50
0.0
 71
         0
 42
0.2
  3
txt.shx
  4

  0
STYLE
  5
52B
100
AcDbSymbolTableRecord
100
AcDbTextStyleTableRecord
  2
BOX
 70
         0
 40
1.0
 41
1.0
 50
0.0
 71
         0
 42
0.2
  3
txt.shx
  4

  0
STYLE
  5
539
100
AcDbSymbolTableRecord
100
AcDbTextStyleTableRecord
  2
BOX
 70
         0
 40
1.0
 41
1.0
 50
0.0
 71
         0
 42
0.2
  3
txt.shx
  4

  0
STYLE
  5
547
100
AcDbSymbolTableRecord
100
AcDbTextStyleTableRecord
  2
BOX
 70
         0
 40
1.0
 41
1.0
 50
0.0
 71
         0
 42
0.2
  3
txt.shx
  4

  0
STYLE
  5
559
100
AcDbSymbolTableRecord
100
AcDbTextStyleTableRecord
  2
BOX
 70
         0
 40
1.0
 41
1.0
 50
0.0
 71
         0
 42
0.2
  3
txt.shx
  4

  0
STYLE
  5
56B
100
AcDbSymbolTableRecord
100
AcDbTextStyleTableRecord
  2
BOX
 70
         0
 40
1.0
 41
1.0
 50
0.0
 71
         0
 42
0.2
  3
txt.shx
  4

  0
STYLE
  5
578
100
AcDbSymbolTableRecord
100
AcDbTextStyleTableRecord
  2
BOX
 70
         0
 40
1.0
 41
1.0
 50
0.0
 71
         0
 42
0.2
  3
txt.shx
  4

  0
STYLE
  5
585
100
AcDbSymbolTableRecord
100
AcDbTextStyleTableRecord
  2
BOX
 70
         0
 40
1.0
 41
1.0
 50
0.0
 71
         0
 42
0.2
  3
txt.shx
  4

  0
STYLE
  5
595
100
AcDbSymbolTableRecord
100
AcDbTextStyleTableRecord
  2
BOX
 70
         0
 40
1.0
 41
1.0
 50
0.0
 71
         0
 42
0.2
  3
txt.shx
  4

  0
STYLE
  5
5A2
100
AcDbSymbolTableRecord
100
AcDbTextStyleTableRecord
  2
BOX
 70
         0
 40
1.0
 41
1.0
 50
0.0
 71
         0
 42
0.2
  3
txt.shx
  4

  0
STYLE
  5
5B2
100
AcDbSymbolTableRecord
100
AcDbTextStyleTableRecord
  2
BOX
 70
         0
 40
1.0
 41
1.0
 50
0.0
 71
         0
 42
0.2
  3
txt.shx
  4

  0
STYLE
  5
5C2
100
AcDbSymbolTableRecord
100
AcDbTextStyleTableRecord
  2
BOX
 70
         0
 40
1.0
 41
1.0
 50
0.0
 71
         0
 42
0.2
  3
txt.shx
  4

  0
STYLE
  5
5D2
100
AcDbSymbolTableRecord
100
AcDbTextStyleTableRecord
  2
BOX
 70
         0
 40
1.0
 41
1.0
 50
0.0
 71
         0
 42
0.2
  3
txt.shx
  4

  0
STYLE
  5
675
100
AcDbSymbolTableRecord
100
AcDbTextStyleTableRecord
  2
BOX
 70
         0
 40
1.0
 41
1.0
 50
0.0
 71
         0
 42
0.2
  3
txt.shx
  4

  0
STYLE
  5
683
100
AcDbSymbolTableRecord
100
AcDbTextStyleTableRecord
  2
BOX
 70
         0
 40
1.0
 41
1.0
 50
0.0
 71
         0
 42
0.2
  3
txt.shx
  4

  0
STYLE
  5
693
100
AcDbSymbolTableRecord
100
AcDbTextStyleTableRecord
  2
BOX
 70
         0
 40
1.0
 41
1.0
 50
0.0
 71
         0
 42
0.2
  3
txt.shx
  4

  0
STYLE
  5
6A1
100
AcDbSymbolTableRecord
100
AcDbTextStyleTableRecord
  2
BOX
 70
         0
 40
1.0
 41
1.0
 50
0.0
 71
         0
 42
0.2
  3
txt.shx
  4

  0
STYLE
  5
6AF
100
AcDbSymbolTableRecord
100
AcDbTextStyleTableRecord
  2
BOX
 70
         0
 40
1.0
 41
1.0
 50
0.0
 71
         0
 42
0.2
  3
txt.shx
  4

  0
STYLE
  5
6BF
100
AcDbSymbolTableRecord
100
AcDbTextStyleTableRecord
  2
BOX
 70
         0
 40
1.0
 41
1.0
 50
0.0
 71
         0
 42
0.2
  3
txt.shx
  4

  0
STYLE
  5
6CD
100
AcDbSymbolTableRecord
100
AcDbTextStyleTableRecord
  2
BOX
 70
         0
 40
1.0
 41
1.0
 50
0.0
 71
         0
 42
0.2
  3
txt.shx
  4

  0
STYLE
  5
6DB
100
AcDbSymbolTableRecord
100
AcDbTextStyleTableRecord
  2
BOX
 70
         0
 40
1.0
 41
1.0
 50
0.0
 71
         0
 42
0.2
  3
txt.shx
  4

  0
STYLE
  5
6EA
100
AcDbSymbolTableRecord
100
AcDbTextStyleTableRecord
  2
BOX
 70
         0
 40
1.0
 41
1.0
 50
0.0
 71
         0
 42
0.2
  3
txt.shx
  4

  0
STYLE
  5
6F8
100
AcDbSymbolTableRecord
100
AcDbTextStyleTableRecord
  2
BOX
 70
         0
 40
1.0
 41
1.0
 50
0.0
 71
         0
 42
0.2
  3
txt.shx
  4

  0
STYLE
  5
706
100
AcDbSymbolTableRecord
100
AcDbTextStyleTableRecord
  2
BOX
 70
         0
 40
1.0
 41
1.0
 50
0.0
 71
         0
 42
0.2
  3
txt.shx
  4

  0
STYLE
  5
714
100
AcDbSymbolTableRecord
100
AcDbTextStyleTableRecord
  2
BOX
 70
         0
 40
1.0
 41
1.0
 50
0.0
 71
         0
 42
0.2
  3
txt.shx
  4

  0
STYLE
  5
722
100
AcDbSymbolTableRecord
100
AcDbTextStyleTableRecord
  2
BOX
 70
         0
 40
1.0
 41
1.0
 50
0.0
 71
         0
 42
0.2
  3
txt.shx
  4

  0
STYLE
  5
725
100
AcDbSymbolTableRecord
100
AcDbTextStyleTableRecord
  2
BOX
 70
         0
 40
1.0
 41
1.0
 50
0.0
 71
         0
 42
0.2
  3
txt.shx
  4

  0
ENDTAB
  0
TABLE
  2
VIEW
  5
5
100
AcDbSymbolTable
 70
         0
  0
ENDTAB
  0
TABLE
  2
UCS
  5
6
100
AcDbSymbolTable
 70
         1
  0
UCS
  5
20
100
AcDbSymbolTableRecord
100
AcDbUCSTableRecord
  2
CK_VIEW_1
 70
         0
 10
0.0
 20
0.0
 30
1.0
 11
1.0
 21
0.0
 31
0.0
 12
0.0
 22
1.0
 32
0.0
  0
ENDTAB
  0
TABLE
  2
APPID
  5
8
100
AcDbSymbolTable
 70
         1
  0
APPID
  5
16
100
AcDbSymbolTableRecord
100
AcDbRegAppTableRecord
  2
ACAD
 70
         0
  0
ENDTAB
  0
TABLE
  2
DIMSTYLE
  5
9
100
AcDbSymbolTable
 70
         2
  0
DIMSTYLE
105
18
100
AcDbSymbolTableRecord
100
AcDbDimStyleTableRecord
  2
STANDARD
 70
         0
  3

  4

  5

  6

  7

 40
1.0
 41
0.18
 42
0.0625
 43
0.38
 44
0.18
 45
0.0
 46
0.0
 47
0.0
 48
0.0
 71
         0
 72
         0
 73
         1
 74
         1
 75
         0
 76
         0
 77
         0
 78
         0
140
0.18
141
0.09
142
0.0
143
25.4
144
1.0
145
0.0
146
1.0
147
0.09
170
         0
171
         2
172
         0
173
         0
174
         0
175
         0
176
         0
177
         0
178
         0
270
         2
271
         4
272
         4
273
         2
274
         2
275
         0
280
         0
281
         0
282
         0
283
         1
284
         0
285
         0
286
         0
287
         0
288
         0
340
17
  0
DIMSTYLE
105
24
100
AcDbSymbolTableRecord
100
AcDbDimStyleTableRecord
  2
DIMSTYLE1
 70
         0
  3

  4

  5

  6

  7

 40
1.0
 41
2.7
 42
0.0625
 43
0.38
 44
2.7
 45
0.0
 46
0.0
 47
0.0
 48
0.0
 71
         0
 72
         0
 73
         1
 74
         1
 75
         0
 76
         0
 77
         0
 78
         0
140
2.7
141
0.09
142
0.0
143
25.4
144
1.0
145
0.0
146
1.0
147
0.09
170
         0
171
         2
172
         0
173
         0
174
         0
175
         0
176
         0
177
         0
178
         0
270
         2
271
         4
272
         4
273
         2
274
         2
275
         0
280
         0
281
         0
282
         0
283
         1
284
         0
285
         0
286
         0
287
         0
288
         0
340
17
  0
ENDTAB
  0
TABLE
  2
BLOCK_RECORD
  5
1
100
AcDbSymbolTable
 70
        56
  0
BLOCK_RECORD
  5
A
100
AcDbSymbolTableRecord
100
AcDbBlockTableRecord
  2
*MODEL_SPACE
  0
BLOCK_RECORD
  5
B
100
AcDbSymbolTableRecord
100
AcDbBlockTableRecord
  2
*PAPER_SPACE
  0
BLOCK_RECORD
  5
25
100
AcDbSymbolTableRecord
100
AcDbBlockTableRecord
  2
*D0
  0
BLOCK_RECORD
  5
AE
100
AcDbSymbolTableRecord
100
AcDbBlockTableRecord
  2
*D1
  0
BLOCK_RECORD
  5
170
100
AcDbSymbolTableRecord
100
AcDbBlockTableRecord
  2
*D2
  0
BLOCK_RECORD
  5
1D4
100
AcDbSymbolTableRecord
100
AcDbBlockTableRecord
  2
*D3
  0
BLOCK_RECORD
  5
1EE
100
AcDbSymbolTableRecord
100
AcDbBlockTableRecord
  2
*D4
  0
BLOCK_RECORD
  5
228
100
AcDbSymbolTableRecord
100
AcDbBlockTableRecord
  2
*D5
  0
BLOCK_RECORD
  5
236
100
AcDbSymbolTableRecord
100
AcDbBlockTableRecord
  2
*D6
  0
BLOCK_RECORD
  5
244
100
AcDbSymbolTableRecord
100
AcDbBlockTableRecord
  2
*D7
  0
BLOCK_RECORD
  5
260
100
AcDbSymbolTableRecord
100
AcDbBlockTableRecord
  2
*D8
  0
BLOCK_RECORD
  5
26E
100
AcDbSymbolTableRecord
100
AcDbBlockTableRecord
  2
*D9
  0
BLOCK_RECORD
  5
3A2
100
AcDbSymbolTableRecord
100
AcDbBlockTableRecord
  2
*D10
  0
BLOCK_RECORD
  5
3B0
100
AcDbSymbolTableRecord
100
AcDbBlockTableRecord
  2
*D11
  0
BLOCK_RECORD
  5
3BE
100
AcDbSymbolTableRecord
100
AcDbBlockTableRecord
  2
*D12
  0
BLOCK_RECORD
  5
3CC
100
AcDbSymbolTableRecord
100
AcDbBlockTableRecord
  2
*D13
  0
BLOCK_RECORD
  5
3DA
100
AcDbSymbolTableRecord
100
AcDbBlockTableRecord
  2
*D14
  0
BLOCK_RECORD
  5
3FE
100
AcDbSymbolTableRecord
100
AcDbBlockTableRecord
  2
*D15
  0
BLOCK_RECORD
  5
40C
100
AcDbSymbolTableRecord
100
AcDbBlockTableRecord
  2
*D16
  0
BLOCK_RECORD
  5
41A
100
AcDbSymbolTableRecord
100
AcDbBlockTableRecord
  2
*D17
  0
BLOCK_RECORD
  5
42A
100
AcDbSymbolTableRecord
100
AcDbBlockTableRecord
  2
*D18
  0
BLOCK_RECORD
  5
459
100
AcDbSymbolTableRecord
100
AcDbBlockTableRecord
  2
*D19
  0
BLOCK_RECORD
  5
467
100
AcDbSymbolTableRecord
100
AcDbBlockTableRecord
  2
*D20
  0
BLOCK_RECORD
  5
475
100
AcDbSymbolTableRecord
100
AcDbBlockTableRecord
  2
*D21
  0
BLOCK_RECORD
  5
483
100
AcDbSymbolTableRecord
100
AcDbBlockTableRecord
  2
*D22
  0
BLOCK_RECORD
  5
4AA
100
AcDbSymbolTableRecord
100
AcDbBlockTableRecord
  2
*D23
  0
BLOCK_RECORD
  5
4B8
100
AcDbSymbolTableRecord
100
AcDbBlockTableRecord
  2
*D24
  0
BLOCK_RECORD
  5
4CE
100
AcDbSymbolTableRecord
100
AcDbBlockTableRecord
  2
*D25
  0
BLOCK_RECORD
  5
4DE
100
AcDbSymbolTableRecord
100
AcDbBlockTableRecord
  2
*D26
  0
BLOCK_RECORD
  5
4F0
100
AcDbSymbolTableRecord
100
AcDbBlockTableRecord
  2
*D27
  0
BLOCK_RECORD
  5
4FE
100
AcDbSymbolTableRecord
100
AcDbBlockTableRecord
  2
*D28
  0
BLOCK_RECORD
  5
50C
100
AcDbSymbolTableRecord
100
AcDbBlockTableRecord
  2
*D29
  0
BLOCK_RECORD
  5
520
100
AcDbSymbolTableRecord
100
AcDbBlockTableRecord
  2
*D30
  0
BLOCK_RECORD
  5
52E
100
AcDbSymbolTableRecord
100
AcDbBlockTableRecord
  2
*D31
  0
BLOCK_RECORD
  5
53C
100
AcDbSymbolTableRecord
100
AcDbBlockTableRecord
  2
*D32
  0
BLOCK_RECORD
  5
54E
100
AcDbSymbolTableRecord
100
AcDbBlockTableRecord
  2
*D33
  0
BLOCK_RECORD
  5
561
100
AcDbSymbolTableRecord
100
AcDbBlockTableRecord
  2
*D34
  0
BLOCK_RECORD
  5
56E
100
AcDbSymbolTableRecord
100
AcDbBlockTableRecord
  2
*D35
  0
BLOCK_RECORD
  5
57B
100
AcDbSymbolTableRecord
100
AcDbBlockTableRecord
  2
*D36
  0
BLOCK_RECORD
  5
588
100
AcDbSymbolTableRecord
100
AcDbBlockTableRecord
  2
*D37
  0
BLOCK_RECORD
  5
598
100
AcDbSymbolTableRecord
100
AcDbBlockTableRecord
  2
*D38
  0
BLOCK_RECORD
  5
5A5
100
AcDbSymbolTableRecord
100
AcDbBlockTableRecord
  2
*D39
  0
BLOCK_RECORD
  5
5B5
100
AcDbSymbolTableRecord
100
AcDbBlockTableRecord
  2
*D40
  0
BLOCK_RECORD
  5
5C5
100
AcDbSymbolTableRecord
100
AcDbBlockTableRecord
  2
*D41
  0
BLOCK_RECORD
  5
636
100
AcDbSymbolTableRecord
100
AcDbBlockTableRecord
  2
*X42
  0
BLOCK_RECORD
  5
66A
100
AcDbSymbolTableRecord
100
AcDbBlockTableRecord
  2
*D43
  0
BLOCK_RECORD
  5
678
100
AcDbSymbolTableRecord
100
AcDbBlockTableRecord
  2
*D44
  0
BLOCK_RECORD
  5
686
100
AcDbSymbolTableRecord
100
AcDbBlockTableRecord
  2
*D45
  0
BLOCK_RECORD
  5
696
100
AcDbSymbolTableRecord
100
AcDbBlockTableRecord
  2
*D46
  0
BLOCK_RECORD
  5
6A4
100
AcDbSymbolTableRecord
100
AcDbBlockTableRecord
  2
*D47
  0
BLOCK_RECORD
  5
6B2
100
AcDbSymbolTableRecord
100
AcDbBlockTableRecord
  2
*D48
  0
BLOCK_RECORD
  5
6C2
100
AcDbSymbolTableRecord
100
AcDbBlockTableRecord
  2
*D49
  0
BLOCK_RECORD
  5
6D0
100
AcDbSymbolTableRecord
100
AcDbBlockTableRecord
  2
*D50
  0
BLOCK_RECORD
  5
6DF
100
AcDbSymbolTableRecord
100
AcDbBlockTableRecord
  2
*D51
  0
BLOCK_RECORD
  5
6ED
100
AcDbSymbolTableRecord
100
AcDbBlockTableRecord
  2
*D52
  0
BLOCK_RECORD
  5
6FB
100
AcDbSymbolTableRecord
100
AcDbBlockTableRecord
  2
*D53
  0
BLOCK_RECORD
  5
709
100
AcDbSymbolTableRecord
100
AcDbBlockTableRecord
  2
*D54
  0
BLOCK_RECORD
  5
717
100
AcDbSymbolTableRecord
100
AcDbBlockTableRecord
  2
*D55
  0
ENDTAB
  0
ENDSEC
  0
SECTION
  2
BLOCKS
  0
BLOCK
  5
D
100
AcDbEntity
  8
0
100
AcDbBlockBegin
  2
*MODEL_SPACE
 70
         0
 10
0.0
 20
0.0
 30
0.0
  3
*MODEL_SPACE
  1

  0
ENDBLK
  5
E
100
AcDbEntity
  8
0
100
AcDbBlockEnd
  0
BLOCK
  5
F
100
AcDbEntity
 67
         1
  8
0
100
AcDbBlockBegin
  2
*PAPER_SPACE
 70
         0
 10
0.0
 20
0.0
 30
0.0
  3
*PAPER_SPACE
  1

  0
ENDBLK
  5
10
100
AcDbEntity
 67
         1
  8
0
100
AcDbBlockEnd
  0
BLOCK
  5
26
100
AcDbEntity
  8
0
100
AcDbBlockBegin
  2
*D0
 70
        65
 10
0.0
 20
0.0
 30
0.0
  3
*D0
  1

  0
POINT
  5
29
100
AcDbEntity
  8
DEFPOINTS
  6
CONTINUOUS
 62
         0
100
AcDbPoint
 10
1505.1333403763
 20
202.4440461992
 30
0.0
  0
POINT
  5
2A
100
AcDbEntity
  8
DEFPOINTS
  6
CONTINUOUS
 62
         0
100
AcDbPoint
 10
1505.1333403763
 20
167.6072914602
 30
0.0
  0
POINT
  5
2B
100
AcDbEntity
  8
DEFPOINTS
  6
CONTINUOUS
 62
         0
100
AcDbPoint
 10
1419.1333403763
 20
172.6846417294
 30
0.0
  0
LINE
  5
2C
100
AcDbEntity
  8
L1_105
  6
CONTINUOUS
 62
         4
100
AcDbLine
 10
1505.1333403763
 20
168.9572914602
 30
0.0
 11
1505.1333403763
 21
203.1190461992
 31
0.0
  0
LINE
  5
2D
100
AcDbEntity
  8
L1_105
  6
CONTINUOUS
 62
         4
100
AcDbLine
 10
1419.1333403763
 20
174.0346417294
 30
0.0
 11
1419.1333403763
 21
203.1190461992
 31
0.0
  0
LINE
  5
2E
100
AcDbEntity
  8
L1_105
  6
CONTINUOUS
 62
         4
100
AcDbLine
 10
1505.1333403763
 20
202.4440461992
 30
0.0
 11
1419.1333403763
 21
202.4440461992
 31
0.0
  0
SOLID
  5
2F
100
AcDbEntity
  8
L1_105
  6
CONTINUOUS
 62
         4
100
AcDbTrace
 10
1505.1333403763
 20
202.4440461992
 30
0.0
 11
1502.4333403763
 21
202.0390461992
 31
0.0
 12
1502.4333403763
 22
202.8490461992
 32
0.0
 13
1505.1333403763
 23
202.4440461992
 33
0.0
  0
SOLID
  5
30
100
AcDbEntity
  8
L1_105
  6
CONTINUOUS
 62
         4
100
AcDbTrace
 10
1419.1333403763
 20
202.4440461992
 30
0.0
 11
1421.8333403763
 21
202.8490461992
 31
0.0
 12
1421.8333403763
 22
202.0390461992
 32
0.0
 13
1419.1333403763
 23
202.4440461992
 33
0.0
  0
TEXT
  5
32
100
AcDbEntity
  8
L1_105
  6
CONTINUOUS
 62
         4
100
AcDbText
 10
1447.7152730477
 20
204.4690461992
 30
0.0
 40
2.7
  1
86
  7
BOX
100
AcDbText
  0
ENDBLK
  5
33
100
AcDbEntity
  8
0
  6
CONTINUOUS
100
AcDbBlockEnd
  0
BLOCK
  5
AF
100
AcDbEntity
  8
0
100
AcDbBlockBegin
  2
*D1
 70
        65
 10
0.0
 20
0.0
 30
0.0
  3
*D1
  1

  0
POINT
  5
B1
100
AcDbEntity
  8
DEFPOINTS
  6
CONTINUOUS
 62
         0
100
AcDbPoint
 10
1424.1320155108
 20
-80.3619234481
 30
0.0
  0
POINT
  5
B2
100
AcDbEntity
  8
DEFPOINTS
  6
CONTINUOUS
 62
         0
100
AcDbPoint
 10
1424.1320155108
 20
-15.4433347407
 30
0.0
  0
POINT
  5
B3
100
AcDbEntity
  8
DEFPOINTS
  6
CONTINUOUS
 62
         0
100
AcDbPoint
 10
1505.1333403763
 20
-30.6546596061
 30
0.0
  0
LINE
  5
B4
100
AcDbEntity
  8
L1_105
  6
CONTINUOUS
 62
         4
100
AcDbLine
 10
1424.1320155108
 20
-16.7933347407
 30
0.0
 11
1424.1320155108
 21
-81.0369234481
 31
0.0
  0
LINE
  5
B5
100
AcDbEntity
  8
L1_105
  6
CONTINUOUS
 62
         4
100
AcDbLine
 10
1505.1333403763
 20
-32.0046596061
 30
0.0
 11
1505.1333403763
 21
-81.0369234481
 31
0.0
  0
LINE
  5
B6
100
AcDbEntity
  8
L1_105
  6
CONTINUOUS
 62
         4
100
AcDbLine
 10
1424.1320155108
 20
-80.3619234481
 30
0.0
 11
1505.1333403763
 21
-80.3619234481
 31
0.0
  0
SOLID
  5
B7
100
AcDbEntity
  8
L1_105
  6
CONTINUOUS
 62
         4
100
AcDbTrace
 10
1424.1320155108
 20
-80.3619234481
 30
0.0
 11
1426.8320155108
 21
-79.9569234481
 31
0.0
 12
1426.8320155108
 22
-80.7669234481
 32
0.0
 13
1424.1320155108
 23
-80.3619234481
 33
0.0
  0
SOLID
  5
B8
100
AcDbEntity
  8
L1_105
  6
CONTINUOUS
 62
         4
100
AcDbTrace
 10
1505.1333403763
 20
-80.3619234481
 30
0.0
 11
1502.4333403763
 21
-80.7669234481
 31
0.0
 12
1502.4333403763
 22
-79.9569234481
 32
0.0
 13
1505.1333403763
 23
-80.3619234481
 33
0.0
  0
TEXT
  5
BA
100
AcDbEntity
  8
L1_105
  6
CONTINUOUS
 62
         4
100
AcDbText
 10
1461.7076779435
 20
-77.2299234481
 30
0.0
 40
2.7
  1
81
  7
BOX
100
AcDbText
  0
ENDBLK
  5
BB
100
AcDbEntity
  8
0
  6
CONTINUOUS
100
AcDbBlockEnd
  0
BLOCK
  5
171
100
AcDbEntity
  8
0
100
AcDbBlockBegin
  2
*D2
 70
        65
 10
0.0
 20
0.0
 30
0.0
  3
*D2
  1

  0
POINT
  5
173
100
AcDbEntity
  8
DEFPOINTS
  6
CONTINUOUS
 62
         0
100
AcDbPoint
 10
1350.8033403763
 20
209.9473019056
 30
0.0
  0
POINT
  5
174
100
AcDbEntity
  8
DEFPOINTS
  6
CONTINUOUS
 62
         0
100
AcDbPoint
 10
1350.8033403763
 20
167.7346417294
 30
0.0
  0
POINT
  5
175
100
AcDbEntity
  8
DEFPOINTS
  6
CONTINUOUS
 62
         0
100
AcDbPoint
 10
1505.1333403763
 20
150.1846417294
 30
0.0
  0
LINE
  5
176
100
AcDbEntity
  8
L1_105
  6
CONTINUOUS
 62
         4
100
AcDbLine
 10
1350.8033403763
 20
169.0846417294
 30
0.0
 11
1350.8033403763
 21
210.6223019056
 31
0.0
  0
LINE
  5
177
100
AcDbEntity
  8
L1_105
  6
CONTINUOUS
 62
         4
100
AcDbLine
 10
1505.1333403763
 20
151.5346417294
 30
0.0
 11
1505.1333403763
 21
210.6223019056
 31
0.0
  0
LINE
  5
178
100
AcDbEntity
  8
L1_105
  6
CONTINUOUS
 62
         4
100
AcDbLine
 10
1350.8033403763
 20
209.9473019056
 30
0.0
 11
1505.1333403763
 21
209.9473019056
 31
0.0
  0
SOLID
  5
179
100
AcDbEntity
  8
L1_105
  6
CONTINUOUS
 62
         4
100
AcDbTrace
 10
1350.8033403763
 20
209.9473019056
 30
0.0
 11
1353.5033403763
 21
210.3523019056
 31
0.0
 12
1353.5033403763
 22
209.5423019056
 32
0.0
 13
1350.8033403763
 23
209.9473019056
 33
0.0
  0
SOLID
  5
17A
100
AcDbEntity
  8
L1_105
  6
CONTINUOUS
 62
         4
100
AcDbTrace
 10
1505.1333403763
 20
209.9473019056
 30
0.0
 11
1502.4333403763
 21
209.5423019056
 31
0.0
 12
1502.4333403763
 22
210.3523019056
 32
0.0
 13
1505.1333403763
 23
209.9473019056
 33
0.0
  0
TEXT
  5
17C
100
AcDbEntity
  8
L1_105
  6
CONTINUOUS
 62
         4
100
AcDbText
 10
1428.7769739524
 20
211.9723019056
 30
0.0
 40
2.7
  1
154.33
  7
BOX
100
AcDbText
  0
ENDBLK
  5
17D
100
AcDbEntity
  8
0
  6
CONTINUOUS
100
AcDbBlockEnd
  0
BLOCK
  5
1D5
100
AcDbEntity
  8
0
100
AcDbBlockBegin
  2
*D3
 70
        65
 10
0.0
 20
0.0
 30
0.0
  3
*D3
  1

  0
POINT
  5
1D7
100
AcDbEntity
  8
DEFPOINTS
  6
CONTINUOUS
 62
         0
100
AcDbPoint
 10
1552.6826483081
 20
172.6846417294
 30
0.0
  0
POINT
  5
1D8
100
AcDbEntity
  8
DEFPOINTS
  6
CONTINUOUS
 62
         0
100
AcDbPoint
 10
1451.1333403763
 20
172.6846417294
 30
0.0
  0
POINT
  5
1D9
100
AcDbEntity
  8
DEFPOINTS
  6
CONTINUOUS
 62
         0
100
AcDbPoint
 10
1451.1333403763
 20
127.6846417294
 30
0.0
  0
LINE
  5
1DA
100
AcDbEntity
  8
L1_105
  6
CONTINUOUS
 62
         4
100
AcDbLine
 10
1452.4833403763
 20
172.6846417294
 30
0.0
 11
1553.3576483081
 21
172.6846417294
 31
0.0
  0
LINE
  5
1DB
100
AcDbEntity
  8
L1_105
  6
CONTINUOUS
 62
         4
100
AcDbLine
 10
1452.4833403763
 20
127.6846417294
 30
0.0
 11
1553.3576483081
 21
127.6846417294
 31
0.0
  0
LINE
  5
1DC
100
AcDbEntity
  8
L1_105
  6
CONTINUOUS
 62
         4
100
AcDbLine
 10
1552.6826483081
 20
172.6846417294
 30
0.0
 11
1552.6826483081
 21
127.6846417294
 31
0.0
  0
SOLID
  5
1DD
100
AcDbEntity
  8
L1_105
  6
CONTINUOUS
 62
         4
100
AcDbTrace
 10
1552.6826483081
 20
172.6846417294
 30
0.0
 11
1553.0876483081
 21
169.9846417294
 31
0.0
 12
1552.2776483081
 22
169.9846417294
 32
0.0
 13
1552.6826483081
 23
172.6846417294
 33
0.0
  0
SOLID
  5
1DE
100
AcDbEntity
  8
L1_105
  6
CONTINUOUS
 62
         4
100
AcDbTrace
 10
1552.6826483081
 20
127.6846417294
 30
0.0
 11
1552.2776483081
 21
130.3846417294
 31
0.0
 12
1553.0876483081
 22
130.3846417294
 32
0.0
 13
1552.6826483081
 23
127.6846417294
 33
0.0
  0
TEXT
  5
1E0
100
AcDbEntity
  8
L1_105
  6
CONTINUOUS
 62
         4
100
AcDbText
 10
1549.5506483081
 20
144.1273538612
 30
0.0
 40
2.7
  1
崷45
 50
90.0
  7
BOX
100
AcDbText
  0
ENDBLK
  5
1E1
100
AcDbEntity
  8
0
  6
CONTINUOUS
100
AcDbBlockEnd
  0
BLOCK
  5
1EF
100
AcDbEntity
  8
0
100
AcDbBlockBegin
  2
*D4
 70
        65
 10
0.0
 20
0.0
 30
0.0
  3
*D4
  1

  0
POINT
  5
1F1
100
AcDbEntity
  8
DEFPOINTS
  6
CONTINUOUS
 62
         0
100
AcDbPoint
 10
1525.5667069289
 20
168.1846417294
 30
0.0
  0
POINT
  5
1F2
100
AcDbEntity
  8
DEFPOINTS
  6
CONTINUOUS
 62
         0
100
AcDbPoint
 10
1505.1333403763
 20
168.1846417294
 30
0.0
  0
POINT
  5
1F3
100
AcDbEntity
  8
DEFPOINTS
  6
CONTINUOUS
 62
         0
100
AcDbPoint
 10
1505.1333403763
 20
132.1846417294
 30
0.0
  0
LINE
  5
1F4
100
AcDbEntity
  8
L1_105
  6
CONTINUOUS
 62
         4
100
AcDbLine
 10
1506.4833403763
 20
168.1846417294
 30
0.0
 11
1526.2417069289
 21
168.1846417294
 31
0.0
  0
LINE
  5
1F5
100
AcDbEntity
  8
L1_105
  6
CONTINUOUS
 62
         4
100
AcDbLine
 10
1506.4833403763
 20
132.1846417294
 30
0.0
 11
1526.2417069289
 21
132.1846417294
 31
0.0
  0
LINE
  5
1F6
100
AcDbEntity
  8
L1_105
  6
CONTINUOUS
 62
         4
100
AcDbLine
 10
1525.5667069289
 20
168.1846417294
 30
0.0
 11
1525.5667069289
 21
132.1846417294
 31
0.0
  0
SOLID
  5
1F7
100
AcDbEntity
  8
L1_105
  6
CONTINUOUS
 62
         4
100
AcDbTrace
 10
1525.5667069289
 20
168.1846417294
 30
0.0
 11
1525.9717069289
 21
165.4846417294
 31
0.0
 12
1525.1617069289
 22
165.4846417294
 32
0.0
 13
1525.5667069289
 23
168.1846417294
 33
0.0
  0
SOLID
  5
1F8
100
AcDbEntity
  8
L1_105
  6
CONTINUOUS
 62
         4
100
AcDbTrace
 10
1525.5667069289
 20
132.1846417294
 30
0.0
 11
1525.1617069289
 21
134.8846417294
 31
0.0
 12
1525.9717069289
 22
134.8846417294
 32
0.0
 13
1525.5667069289
 23
132.1846417294
 33
0.0
  0
TEXT
  5
1FA
100
AcDbEntity
  8
L1_105
  6
CONTINUOUS
 62
         4
100
AcDbText
 10
1522.4347069289
 20
142.3329165641
 30
0.0
 40
2.7
  1
崷36
 50
90.0
  7
BOX
100
AcDbText
  0
ENDBLK
  5
1FB
100
AcDbEntity
  8
0
  6
CONTINUOUS
100
AcDbBlockEnd
  0
BLOCK
  5
229
100
AcDbEntity
  8
0
100
AcDbBlockBegin
  2
*D5
 70
        65
 10
0.0
 20
0.0
 30
0.0
  3
*D5
  1

  0
POINT
  5
22B
100
AcDbEntity
  8
DEFPOINTS
  6
CONTINUOUS
 62
         0
100
AcDbPoint
 10
1600.3012659414
 20
75.8608563818
 30
0.0
  0
POINT
  5
22C
100
AcDbEntity
  8
DEFPOINTS
  6
CONTINUOUS
 62
         0
100
AcDbPoint
 10
1600.3012659414
 20
72.7872179209
 30
0.0
  0
POINT
  5
22D
100
AcDbEntity
  8
DEFPOINTS
  6
CONTINUOUS
 62
         0
100
AcDbPoint
 10
1584.8012659414
 20
71.2872179209
 30
0.0
  0
LINE
  5
22E
100
AcDbEntity
  8
L1_105
  6
CONTINUOUS
 62
         4
100
AcDbLine
 10
1600.3012659414
 20
74.1372179209
 30
0.0
 11
1600.3012659414
 21
76.5358563818
 31
0.0
  0
LINE
  5
22F
100
AcDbEntity
  8
L1_105
  6
CONTINUOUS
 62
         4
100
AcDbLine
 10
1584.8012659414
 20
72.6372179209
 30
0.0
 11
1584.8012659414
 21
76.5358563818
 31
0.0
  0
LINE
  5
230
100
AcDbEntity
  8
L1_105
  6
CONTINUOUS
 62
         4
100
AcDbLine
 10
1600.3012659414
 20
75.8608563818
 30
0.0
 11
1584.8012659414
 21
75.8608563818
 31
0.0
  0
SOLID
  5
231
100
AcDbEntity
  8
L1_105
  6
CONTINUOUS
 62
         4
100
AcDbTrace
 10
1600.3012659414
 20
75.8608563818
 30
0.0
 11
1597.6012659414
 21
75.4558563818
 31
0.0
 12
1597.6012659414
 22
76.2658563818
 32
0.0
 13
1600.3012659414
 23
75.8608563818
 33
0.0
  0
SOLID
  5
232
100
AcDbEntity
  8
L1_105
  6
CONTINUOUS
 62
         4
100
AcDbTrace
 10
1584.8012659414
 20
75.8608563818
 30
0.0
 11
1587.5012659414
 21
76.2658563818
 31
0.0
 12
1587.5012659414
 22
75.4558563818
 32
0.0
 13
1584.8012659414
 23
75.8608563818
 33
0.0
  0
TEXT
  5
234
100
AcDbEntity
  8
L1_105
  6
CONTINUOUS
 62
         4
100
AcDbText
 10
1587.3036222668
 20
77.8858563818
 30
0.0
 40
2.7
  1
15.5
  7
BOX
100
AcDbText
  0
ENDBLK
  5
235
100
AcDbEntity
  8
0
  6
CONTINUOUS
100
AcDbBlockEnd
  0
BLOCK
  5
237
100
AcDbEntity
  8
0
100
AcDbBlockBegin
  2
*D6
 70
        65
 10
0.0
 20
0.0
 30
0.0
  3
*D6
  1

  0
POINT
  5
239
100
AcDbEntity
  8
DEFPOINTS
  6
CONTINUOUS
 62
         0
100
AcDbPoint
 10
1606.9961697435
 20
73.2872179209
 30
0.0
  0
POINT
  5
23A
100
AcDbEntity
  8
DEFPOINTS
  6
CONTINUOUS
 62
         0
100
AcDbPoint
 10
1599.8012659414
 20
73.2872179209
 30
0.0
  0
POINT
  5
23B
100
AcDbEntity
  8
DEFPOINTS
  6
CONTINUOUS
 62
         0
100
AcDbPoint
 10
1599.8012659414
 20
54.4872179209
 30
0.0
  0
LINE
  5
23C
100
AcDbEntity
  8
L1_105
  6
CONTINUOUS
 62
         4
100
AcDbLine
 10
1601.1512659414
 20
73.2872179209
 30
0.0
 11
1607.6711697435
 21
73.2872179209
 31
0.0
  0
LINE
  5
23D
100
AcDbEntity
  8
L1_105
  6
CONTINUOUS
 62
         4
100
AcDbLine
 10
1601.1512659414
 20
54.4872179209
 30
0.0
 11
1607.6711697435
 21
54.4872179209
 31
0.0
  0
LINE
  5
23E
100
AcDbEntity
  8
L1_105
  6
CONTINUOUS
 62
         4
100
AcDbLine
 10
1606.9961697435
 20
73.2872179209
 30
0.0
 11
1606.9961697435
 21
54.4872179209
 31
0.0
  0
SOLID
  5
23F
100
AcDbEntity
  8
L1_105
  6
CONTINUOUS
 62
         4
100
AcDbTrace
 10
1606.9961697435
 20
73.2872179209
 30
0.0
 11
1607.4011697435
 21
70.5872179209
 31
0.0
 12
1606.5911697435
 22
70.5872179209
 32
0.0
 13
1606.9961697435
 23
73.2872179209
 33
0.0
  0
SOLID
  5
240
100
AcDbEntity
  8
L1_105
  6
CONTINUOUS
 62
         4
100
AcDbTrace
 10
1606.9961697435
 20
54.4872179209
 30
0.0
 11
1606.5911697435
 21
57.1872179209
 31
0.0
 12
1607.4011697435
 22
57.1872179209
 32
0.0
 13
1606.9961697435
 23
54.4872179209
 33
0.0
  0
TEXT
  5
242
100
AcDbEntity
  8
L1_105
  6
CONTINUOUS
 62
         4
100
AcDbText
 10
1604.9711697435
 20
55.7333698022
 30
0.0
 40
2.7
  1
崷18.8
 50
90.0
  7
BOX
100
AcDbText
  0
ENDBLK
  5
243
100
AcDbEntity
  8
0
  6
CONTINUOUS
100
AcDbBlockEnd
  0
BLOCK
  5
245
100
AcDbEntity
  8
0
100
AcDbBlockBegin
  2
*D7
 70
        65
 10
0.0
 20
0.0
 30
0.0
  3
*D7
  1

  0
POINT
  5
247
100
AcDbEntity
  8
DEFPOINTS
  6
CONTINUOUS
 62
         0
100
AcDbPoint
 10
1583.0411626588
 20
71.3872179209
 30
0.0
  0
POINT
  5
248
100
AcDbEntity
  8
DEFPOINTS
  6
CONTINUOUS
 62
         0
100
AcDbPoint
 10
1584.9012659414
 20
71.3872179209
 30
0.0
  0
POINT
  5
249
100
AcDbEntity
  8
DEFPOINTS
  6
CONTINUOUS
 62
         0
100
AcDbPoint
 10
1584.9012659414
 20
56.3872179209
 30
0.0
  0
LINE
  5
24A
100
AcDbEntity
  8
L1_105
  6
CONTINUOUS
 62
         4
100
AcDbLine
 10
1583.5512659414
 20
71.3872179209
 30
0.0
 11
1582.3661626588
 21
71.3872179209
 31
0.0
  0
LINE
  5
24B
100
AcDbEntity
  8
L1_105
  6
CONTINUOUS
 62
         4
100
AcDbLine
 10
1583.5512659414
 20
56.3872179209
 30
0.0
 11
1582.3661626588
 21
56.3872179209
 31
0.0
  0
LINE
  5
24C
100
AcDbEntity
  8
L1_105
  6
CONTINUOUS
 62
         4
100
AcDbLine
 10
1583.0411626588
 20
71.3872179209
 30
0.0
 11
1583.0411626588
 21
56.3872179209
 31
0.0
  0
SOLID
  5
24D
100
AcDbEntity
  8
L1_105
  6
CONTINUOUS
 62
         4
100
AcDbTrace
 10
1583.0411626588
 20
71.3872179209
 30
0.0
 11
1583.4461626588
 21
68.6872179209
 31
0.0
 12
1582.6361626588
 22
68.6872179209
 32
0.0
 13
1583.0411626588
 23
71.3872179209
 33
0.0
  0
SOLID
  5
24E
100
AcDbEntity
  8
L1_105
  6
CONTINUOUS
 62
         4
100
AcDbTrace
 10
1583.0411626588
 20
56.3872179209
 30
0.0
 11
1582.6361626588
 21
59.0872179209
 31
0.0
 12
1583.4461626588
 22
59.0872179209
 32
0.0
 13
1583.0411626588
 23
56.3872179209
 33
0.0
  0
TEXT
  5
250
100
AcDbEntity
  8
L1_105
  6
CONTINUOUS
 62
         4
100
AcDbText
 10
1581.0161626588
 20
57.9365153964
 30
0.0
 40
2.7
  1
崷15
 50
90.0
  7
BOX
100
AcDbText
  0
ENDBLK
  5
251
100
AcDbEntity
  8
0
  6
CONTINUOUS
100
AcDbBlockEnd
  0
BLOCK
  5
261
100
AcDbEntity
  8
0
100
AcDbBlockBegin
  2
*D8
 70
        65
 10
0.0
 20
0.0
 30
0.0
  3
*D8
  1

  0
POINT
  5
263
100
AcDbEntity
  8
DEFPOINTS
  6
CONTINUOUS
 62
         0
100
AcDbPoint
 10
1533.9012659414
 20
89.3775292973
 30
0.0
  0
POINT
  5
264
100
AcDbEntity
  8
DEFPOINTS
  6
CONTINUOUS
 62
         0
100
AcDbPoint
 10
1533.9012659414
 20
85.8872179209
 30
0.0
  0
POINT
  5
265
100
AcDbEntity
  8
DEFPOINTS
  6
CONTINUOUS
 62
         0
100
AcDbPoint
 10
1565.9012659414
 20
85.0985427863
 30
0.0
  0
LINE
  5
266
100
AcDbEntity
  8
L1_105
  6
CONTINUOUS
 62
         4
100
AcDbLine
 10
1533.9012659414
 20
87.2372179209
 30
0.0
 11
1533.9012659414
 21
90.0525292973
 31
0.0
  0
LINE
  5
267
100
AcDbEntity
  8
L1_105
  6
CONTINUOUS
 62
         4
100
AcDbLine
 10
1565.9012659414
 20
86.4485427863
 30
0.0
 11
1565.9012659414
 21
90.0525292973
 31
0.0
  0
LINE
  5
268
100
AcDbEntity
  8
L1_105
  6
CONTINUOUS
 62
         4
100
AcDbLine
 10
1533.9012659414
 20
89.3775292973
 30
0.0
 11
1565.9012659414
 21
89.3775292973
 31
0.0
  0
SOLID
  5
269
100
AcDbEntity
  8
L1_105
  6
CONTINUOUS
 62
         4
100
AcDbTrace
 10
1533.9012659414
 20
89.3775292973
 30
0.0
 11
1536.6012659414
 21
89.7825292973
 31
0.0
 12
1536.6012659414
 22
88.9725292973
 32
0.0
 13
1533.9012659414
 23
89.3775292973
 33
0.0
  0
SOLID
  5
26A
100
AcDbEntity
  8
L1_105
  6
CONTINUOUS
 62
         4
100
AcDbTrace
 10
1565.9012659414
 20
89.3775292973
 30
0.0
 11
1563.2012659414
 21
88.9725292973
 31
0.0
 12
1563.2012659414
 22
89.7825292973
 32
0.0
 13
1565.9012659414
 23
89.3775292973
 33
0.0
  0
TEXT
  5
26C
100
AcDbEntity
  8
L1_105
  6
CONTINUOUS
 62
         4
100
AcDbText
 10
1547.9034903879
 20
91.4025292973
 30
0.0
 40
2.7
  1
32
  7
BOX
100
AcDbText
  0
ENDBLK
  5
26D
100
AcDbEntity
  8
0
  6
CONTINUOUS
100
AcDbBlockEnd
  0
BLOCK
  5
26F
100
AcDbEntity
  8
0
100
AcDbBlockBegin
  2
*D9
 70
        65
 10
0.0
 20
0.0
 30
0.0
  3
*D9
  1

  0
POINT
  5
271
100
AcDbEntity
  8
DEFPOINTS
  6
CONTINUOUS
 62
         0
100
AcDbPoint
 10
1572.8242796636
 20
86.3872179209
 30
0.0
  0
POINT
  5
272
100
AcDbEntity
  8
DEFPOINTS
  6
CONTINUOUS
 62
         0
100
AcDbPoint
 10
1562.7672913452
 20
86.3872179209
 30
0.0
  0
POINT
  5
273
100
AcDbEntity
  8
DEFPOINTS
  6
CONTINUOUS
 62
         0
100
AcDbPoint
 10
1562.7672913452
 20
41.3872179209
 30
0.0
  0
LINE
  5
274
100
AcDbEntity
  8
L1_105
  6
CONTINUOUS
 62
         4
100
AcDbLine
 10
1564.1172913452
 20
86.3872179209
 30
0.0
 11
1573.4992796636
 21
86.3872179209
 31
0.0
  0
LINE
  5
275
100
AcDbEntity
  8
L1_105
  6
CONTINUOUS
 62
         4
100
AcDbLine
 10
1564.1172913452
 20
41.3872179209
 30
0.0
 11
1573.4992796636
 21
41.3872179209
 31
0.0
  0
LINE
  5
276
100
AcDbEntity
  8
L1_105
  6
CONTINUOUS
 62
         4
100
AcDbLine
 10
1572.8242796636
 20
86.3872179209
 30
0.0
 11
1572.8242796636
 21
41.3872179209
 31
0.0
  0
SOLID
  5
277
100
AcDbEntity
  8
L1_105
  6
CONTINUOUS
 62
         4
100
AcDbTrace
 10
1572.8242796636
 20
86.3872179209
 30
0.0
 11
1573.2292796636
 21
83.6872179209
 31
0.0
 12
1572.4192796636
 22
83.6872179209
 32
0.0
 13
1572.8242796636
 23
86.3872179209
 33
0.0
  0
SOLID
  5
278
100
AcDbEntity
  8
L1_105
  6
CONTINUOUS
 62
         4
100
AcDbTrace
 10
1572.8242796636
 20
41.3872179209
 30
0.0
 11
1572.4192796636
 21
44.0872179209
 31
0.0
 12
1573.2292796636
 22
44.0872179209
 32
0.0
 13
1572.8242796636
 23
41.3872179209
 33
0.0
  0
TEXT
  5
27A
100
AcDbEntity
  8
L1_105
  6
CONTINUOUS
 62
         4
100
AcDbText
 10
1570.7992796636
 20
58.583514695
 30
0.0
 40
2.7
  1
崷45
 50
90.0
  7
BOX
100
AcDbText
  0
ENDBLK
  5
27B
100
AcDbEntity
  8
0
  6
CONTINUOUS
100
AcDbBlockEnd
  0
BLOCK
  5
3A3
100
AcDbEntity
  8
0
100
AcDbBlockBegin
  2
*D10
 70
        65
 10
0.0
 20
0.0
 30
0.0
  3
*D10
  1

  0
POINT
  5
3A5
100
AcDbEntity
  8
DEFPOINTS
  6
CONTINUOUS
 62
         0
100
AcDbPoint
 10
1666.0012659414
 20
85.0177080503
 30
0.0
  0
POINT
  5
3A6
100
AcDbEntity
  8
DEFPOINTS
  6
CONTINUOUS
 62
         0
100
AcDbPoint
 10
1666.0012659414
 20
78.8872179209
 30
0.0
  0
POINT
  5
3A7
100
AcDbEntity
  8
DEFPOINTS
  6
CONTINUOUS
 62
         0
100
AcDbPoint
 10
1697.5012659414
 20
76.0872179209
 30
0.0
  0
LINE
  5
3A8
100
AcDbEntity
  8
L1_105
  6
CONTINUOUS
 62
         4
100
AcDbLine
 10
1666.0012659414
 20
80.2372179209
 30
0.0
 11
1666.0012659414
 21
85.6927080503
 31
0.0
  0
LINE
  5
3A9
100
AcDbEntity
  8
L1_105
  6
CONTINUOUS
 62
         4
100
AcDbLine
 10
1697.5012659414
 20
77.4372179209
 30
0.0
 11
1697.5012659414
 21
85.6927080503
 31
0.0
  0
LINE
  5
3AA
100
AcDbEntity
  8
L1_105
  6
CONTINUOUS
 62
         4
100
AcDbLine
 10
1666.0012659414
 20
85.0177080503
 30
0.0
 11
1697.5012659414
 21
85.0177080503
 31
0.0
  0
SOLID
  5
3AB
100
AcDbEntity
  8
L1_105
  6
CONTINUOUS
 62
         4
100
AcDbTrace
 10
1666.0012659414
 20
85.0177080503
 30
0.0
 11
1668.7012659414
 21
85.4227080503
 31
0.0
 12
1668.7012659414
 22
84.6127080503
 32
0.0
 13
1666.0012659414
 23
85.0177080503
 33
0.0
  0
SOLID
  5
3AC
100
AcDbEntity
  8
L1_105
  6
CONTINUOUS
 62
         4
100
AcDbTrace
 10
1697.5012659414
 20
85.0177080503
 30
0.0
 11
1694.8012659414
 21
84.6127080503
 31
0.0
 12
1694.8012659414
 22
85.4227080503
 32
0.0
 13
1697.5012659414
 23
85.0177080503
 33
0.0
  0
TEXT
  5
3AE
100
AcDbEntity
  8
L1_105
  6
CONTINUOUS
 62
         4
100
AcDbText
 10
1675.6575803425
 20
87.0427080503
 30
0.0
 40
2.7
  1
31.5
  7
BOX
100
AcDbText
  0
ENDBLK
  5
3AF
100
AcDbEntity
  8
0
  6
CONTINUOUS
100
AcDbBlockEnd
  0
BLOCK
  5
3B1
100
AcDbEntity
  8
0
100
AcDbBlockBegin
  2
*D11
 70
        65
 10
0.0
 20
0.0
 30
0.0
  3
*D11
  1

  0
POINT
  5
3B3
100
AcDbEntity
  8
DEFPOINTS
  6
CONTINUOUS
 62
         0
100
AcDbPoint
 10
1697.5012659414
 20
91.2852152854
 30
0.0
  0
POINT
  5
3B4
100
AcDbEntity
  8
DEFPOINTS
  6
CONTINUOUS
 62
         0
100
AcDbPoint
 10
1697.5012659414
 20
76.0872179209
 30
0.0
  0
POINT
  5
3B5
100
AcDbEntity
  8
DEFPOINTS
  6
CONTINUOUS
 62
         0
100
AcDbPoint
 10
1622.5012659414
 20
78.8872179209
 30
0.0
  0
LINE
  5
3B6
100
AcDbEntity
  8
L1_105
  6
CONTINUOUS
 62
         4
100
AcDbLine
 10
1697.5012659414
 20
77.4372179209
 30
0.0
 11
1697.5012659414
 21
91.9602152854
 31
0.0
  0
LINE
  5
3B7
100
AcDbEntity
  8
L1_105
  6
CONTINUOUS
 62
         4
100
AcDbLine
 10
1622.5012659414
 20
80.2372179209
 30
0.0
 11
1622.5012659414
 21
91.9602152854
 31
0.0
  0
LINE
  5
3B8
100
AcDbEntity
  8
L1_105
  6
CONTINUOUS
 62
         4
100
AcDbLine
 10
1697.5012659414
 20
91.2852152854
 30
0.0
 11
1622.5012659414
 21
91.2852152854
 31
0.0
  0
SOLID
  5
3B9
100
AcDbEntity
  8
L1_105
  6
CONTINUOUS
 62
         4
100
AcDbTrace
 10
1697.5012659414
 20
91.2852152854
 30
0.0
 11
1694.8012659414
 21
90.8802152854
 31
0.0
 12
1694.8012659414
 22
91.6902152854
 32
0.0
 13
1697.5012659414
 23
91.2852152854
 33
0.0
  0
SOLID
  5
3BA
100
AcDbEntity
  8
L1_105
  6
CONTINUOUS
 62
         4
100
AcDbTrace
 10
1622.5012659414
 20
91.2852152854
 30
0.0
 11
1625.2012659414
 21
91.6902152854
 31
0.0
 12
1625.2012659414
 22
90.8802152854
 32
0.0
 13
1622.5012659414
 23
91.2852152854
 33
0.0
  0
TEXT
  5
3BC
100
AcDbEntity
  8
L1_105
  6
CONTINUOUS
 62
         4
100
AcDbText
 10
1658.4686907163
 20
93.3102152854
 30
0.0
 40
2.7
  1
75
  7
BOX
100
AcDbText
  0
ENDBLK
  5
3BD
100
AcDbEntity
  8
0
  6
CONTINUOUS
100
AcDbBlockEnd
  0
BLOCK
  5
3BF
100
AcDbEntity
  8
0
100
AcDbBlockBegin
  2
*D12
 70
        65
 10
0.0
 20
0.0
 30
0.0
  3
*D12
  1

  0
POINT
  5
3C1
100
AcDbEntity
  8
DEFPOINTS
  6
CONTINUOUS
 62
         0
100
AcDbPoint
 10
1617.5791698342
 20
79.8872179209
 30
0.0
  0
POINT
  5
3C2
100
AcDbEntity
  8
DEFPOINTS
  6
CONTINUOUS
 62
         0
100
AcDbPoint
 10
1623.5012659414
 20
79.8872179209
 30
0.0
  0
POINT
  5
3C3
100
AcDbEntity
  8
DEFPOINTS
  6
CONTINUOUS
 62
         0
100
AcDbPoint
 10
1623.5012659414
 20
47.8872179209
 30
0.0
  0
LINE
  5
3C4
100
AcDbEntity
  8
L1_105
  6
CONTINUOUS
 62
         4
100
AcDbLine
 10
1622.1512659414
 20
79.8872179209
 30
0.0
 11
1616.9041698342
 21
79.8872179209
 31
0.0
  0
LINE
  5
3C5
100
AcDbEntity
  8
L1_105
  6
CONTINUOUS
 62
         4
100
AcDbLine
 10
1622.1512659414
 20
47.8872179209
 30
0.0
 11
1616.9041698342
 21
47.8872179209
 31
0.0
  0
LINE
  5
3C6
100
AcDbEntity
  8
L1_105
  6
CONTINUOUS
 62
         4
100
AcDbLine
 10
1617.5791698342
 20
79.8872179209
 30
0.0
 11
1617.5791698342
 21
47.8872179209
 31
0.0
  0
SOLID
  5
3C7
100
AcDbEntity
  8
L1_105
  6
CONTINUOUS
 62
         4
100
AcDbTrace
 10
1617.5791698342
 20
79.8872179209
 30
0.0
 11
1617.9841698342
 21
77.1872179209
 31
0.0
 12
1617.1741698342
 22
77.1872179209
 32
0.0
 13
1617.5791698342
 23
79.8872179209
 33
0.0
  0
SOLID
  5
3C8
100
AcDbEntity
  8
L1_105
  6
CONTINUOUS
 62
         4
100
AcDbTrace
 10
1617.5791698342
 20
47.8872179209
 30
0.0
 11
1617.1741698342
 21
50.5872179209
 31
0.0
 12
1617.9841698342
 22
50.5872179209
 32
0.0
 13
1617.5791698342
 23
47.8872179209
 33
0.0
  0
TEXT
  5
3CA
100
AcDbEntity
  8
L1_105
  6
CONTINUOUS
 62
         4
100
AcDbText
 10
1615.5541698342
 20
56.7895559185
 30
0.0
 40
2.7
  1
崷32f7
 50
90.0
  7
BOX
100
AcDbText
  0
ENDBLK
  5
3CB
100
AcDbEntity
  8
0
  6
CONTINUOUS
100
AcDbBlockEnd
  0
BLOCK
  5
3CD
100
AcDbEntity
  8
0
100
AcDbBlockBegin
  2
*D13
 70
        65
 10
0.0
 20
0.0
 30
0.0
  3
*D13
  1

  0
POINT
  5
3CF
100
AcDbEntity
  8
DEFPOINTS
  6
CONTINUOUS
 62
         0
100
AcDbPoint
 10
1704.3178892242
 20
69.1372179209
 30
0.0
  0
POINT
  5
3D0
100
AcDbEntity
  8
DEFPOINTS
  6
CONTINUOUS
 62
         0
100
AcDbPoint
 10
1697.0012659414
 20
69.1372179209
 30
0.0
  0
POINT
  5
3D1
100
AcDbEntity
  8
DEFPOINTS
  6
CONTINUOUS
 62
         0
100
AcDbPoint
 10
1697.0012659414
 20
58.6372179209
 30
0.0
  0
LINE
  5
3D2
100
AcDbEntity
  8
L1_105
  6
CONTINUOUS
 62
         4
100
AcDbLine
 10
1698.3512659414
 20
69.1372179209
 30
0.0
 11
1704.9928892242
 21
69.1372179209
 31
0.0
  0
LINE
  5
3D3
100
AcDbEntity
  8
L1_105
  6
CONTINUOUS
 62
         4
100
AcDbLine
 10
1698.3512659414
 20
58.6372179209
 30
0.0
 11
1704.9928892242
 21
58.6372179209
 31
0.0
  0
LINE
  5
3D4
100
AcDbEntity
  8
L1_105
  6
CONTINUOUS
 62
         4
100
AcDbLine
 10
1704.3178892242
 20
69.1372179209
 30
0.0
 11
1704.3178892242
 21
58.6372179209
 31
0.0
  0
SOLID
  5
3D5
100
AcDbEntity
  8
L1_105
  6
CONTINUOUS
 62
         4
100
AcDbTrace
 10
1704.3178892242
 20
69.1372179209
 30
0.0
 11
1704.7228892242
 21
66.4372179209
 31
0.0
 12
1703.9128892242
 22
66.4372179209
 32
0.0
 13
1704.3178892242
 23
69.1372179209
 33
0.0
  0
SOLID
  5
3D6
100
AcDbEntity
  8
L1_105
  6
CONTINUOUS
 62
         4
100
AcDbTrace
 10
1704.3178892242
 20
58.6372179209
 30
0.0
 11
1703.9128892242
 21
61.3372179209
 31
0.0
 12
1704.7228892242
 22
61.3372179209
 32
0.0
 13
1704.3178892242
 23
58.6372179209
 33
0.0
  0
TEXT
  5
3D8
100
AcDbEntity
  8
L1_105
  6
CONTINUOUS
 62
         4
100
AcDbText
 10
1702.2928892242
 20
58.3596655386
 30
0.0
 40
2.7
  1
10.5
 50
90.0
  7
BOX
100
AcDbText
  0
ENDBLK
  5
3D9
100
AcDbEntity
  8
0
  6
CONTINUOUS
100
AcDbBlockEnd
  0
BLOCK
  5
3DB
100
AcDbEntity
  8
0
100
AcDbBlockBegin
  2
*D14
 70
        65
 10
0.0
 20
0.0
 30
0.0
  3
*D14
  1

  0
POINT
  5
3DD
100
AcDbEntity
  8
DEFPOINTS
  6
CONTINUOUS
 62
         0
100
AcDbPoint
 10
1711.0387492221
 20
76.5872179209
 30
0.0
  0
POINT
  5
3DE
100
AcDbEntity
  8
DEFPOINTS
  6
CONTINUOUS
 62
         0
100
AcDbPoint
 10
1696.3012659414
 20
76.5872179209
 30
0.0
  0
POINT
  5
3DF
100
AcDbEntity
  8
DEFPOINTS
  6
CONTINUOUS
 62
         0
100
AcDbPoint
 10
1696.3012659414
 20
51.1872179209
 30
0.0
  0
LINE
  5
3E0
100
AcDbEntity
  8
L1_105
  6
CONTINUOUS
 62
         4
100
AcDbLine
 10
1697.6512659414
 20
76.5872179209
 30
0.0
 11
1711.7137492221
 21
76.5872179209
 31
0.0
  0
LINE
  5
3E1
100
AcDbEntity
  8
L1_105
  6
CONTINUOUS
 62
         4
100
AcDbLine
 10
1697.6512659414
 20
51.1872179209
 30
0.0
 11
1711.7137492221
 21
51.1872179209
 31
0.0
  0
LINE
  5
3E2
100
AcDbEntity
  8
L1_105
  6
CONTINUOUS
 62
         4
100
AcDbLine
 10
1711.0387492221
 20
76.5872179209
 30
0.0
 11
1711.0387492221
 21
51.1872179209
 31
0.0
  0
SOLID
  5
3E3
100
AcDbEntity
  8
L1_105
  6
CONTINUOUS
 62
         4
100
AcDbTrace
 10
1711.0387492221
 20
76.5872179209
 30
0.0
 11
1711.4437492221
 21
73.8872179209
 31
0.0
 12
1710.6337492221
 22
73.8872179209
 32
0.0
 13
1711.0387492221
 23
76.5872179209
 33
0.0
  0
SOLID
  5
3E4
100
AcDbEntity
  8
L1_105
  6
CONTINUOUS
 62
         4
100
AcDbTrace
 10
1711.0387492221
 20
51.1872179209
 30
0.0
 11
1710.6337492221
 21
53.8872179209
 31
0.0
 12
1711.4437492221
 22
53.8872179209
 32
0.0
 13
1711.0387492221
 23
51.1872179209
 33
0.0
  0
TEXT
  5
3E6
100
AcDbEntity
  8
L1_105
  6
CONTINUOUS
 62
         4
100
AcDbText
 10
1709.0137492221
 20
52.3995938721
 30
0.0
 40
2.7
  1
崷25.4g6
 50
90.0
  7
BOX
100
AcDbText
  0
ENDBLK
  5
3E7
100
AcDbEntity
  8
0
  6
CONTINUOUS
100
AcDbBlockEnd
  0
BLOCK
  5
3FF
100
AcDbEntity
  8
0
100
AcDbBlockBegin
  2
*D15
 70
        65
 10
0.0
 20
0.0
 30
0.0
  3
*D15
  1

  0
POINT
  5
401
100
AcDbEntity
  8
DEFPOINTS
  6
CONTINUOUS
 62
         0
100
AcDbPoint
 10
1721.9371671559
 20
73.3872179209
 30
0.0
  0
POINT
  5
402
100
AcDbEntity
  8
DEFPOINTS
  6
CONTINUOUS
 62
         0
100
AcDbPoint
 10
1725.7612659414
 20
73.3872179209
 30
0.0
  0
POINT
  5
403
100
AcDbEntity
  8
DEFPOINTS
  6
CONTINUOUS
 62
         0
100
AcDbPoint
 10
1725.7612659414
 20
54.3872179209
 30
0.0
  0
LINE
  5
404
100
AcDbEntity
  8
L1_105
  6
CONTINUOUS
 62
         4
100
AcDbLine
 10
1724.4112659414
 20
73.3872179209
 30
0.0
 11
1721.2621671559
 21
73.3872179209
 31
0.0
  0
LINE
  5
405
100
AcDbEntity
  8
L1_105
  6
CONTINUOUS
 62
         4
100
AcDbLine
 10
1724.4112659414
 20
54.3872179209
 30
0.0
 11
1721.2621671559
 21
54.3872179209
 31
0.0
  0
LINE
  5
406
100
AcDbEntity
  8
L1_105
  6
CONTINUOUS
 62
         4
100
AcDbLine
 10
1721.9371671559
 20
73.3872179209
 30
0.0
 11
1721.9371671559
 21
54.3872179209
 31
0.0
  0
SOLID
  5
407
100
AcDbEntity
  8
L1_105
  6
CONTINUOUS
 62
         4
100
AcDbTrace
 10
1721.9371671559
 20
73.3872179209
 30
0.0
 11
1722.3421671559
 21
70.6872179209
 31
0.0
 12
1721.5321671559
 22
70.6872179209
 32
0.0
 13
1721.9371671559
 23
73.3872179209
 33
0.0
  0
SOLID
  5
408
100
AcDbEntity
  8
L1_105
  6
CONTINUOUS
 62
         4
100
AcDbTrace
 10
1721.9371671559
 20
54.3872179209
 30
0.0
 11
1721.5321671559
 21
57.0872179209
 31
0.0
 12
1722.3421671559
 22
57.0872179209
 32
0.0
 13
1721.9371671559
 23
54.3872179209
 33
0.0
  0
TEXT
  5
40A
100
AcDbEntity
  8
L1_105
  6
CONTINUOUS
 62
         4
100
AcDbText
 10
1719.9121671559
 20
58.6868227861
 30
0.0
 40
2.7
  1
崷19
 50
90.0
  7
BOX
100
AcDbText
  0
ENDBLK
  5
40B
100
AcDbEntity
  8
0
  6
CONTINUOUS
100
AcDbBlockEnd
  0
BLOCK
  5
40D
100
AcDbEntity
  8
0
100
AcDbBlockBegin
  2
*D16
 70
        65
 10
0.0
 20
0.0
 30
0.0
  3
*D16
  1

  0
POINT
  5
40F
100
AcDbEntity
  8
DEFPOINTS
  6
CONTINUOUS
 62
         0
100
AcDbPoint
 10
1725.2612659414
 20
81.940693068
 30
0.0
  0
POINT
  5
410
100
AcDbEntity
  8
DEFPOINTS
  6
CONTINUOUS
 62
         0
100
AcDbPoint
 10
1725.2612659414
 20
72.8872179209
 30
0.0
  0
POINT
  5
411
100
AcDbEntity
  8
DEFPOINTS
  6
CONTINUOUS
 62
         0
100
AcDbPoint
 10
1737.4112659414
 20
73.2872179209
 30
0.0
  0
LINE
  5
412
100
AcDbEntity
  8
L1_105
  6
CONTINUOUS
 62
         4
100
AcDbLine
 10
1725.2612659414
 20
74.2372179209
 30
0.0
 11
1725.2612659414
 21
82.615693068
 31
0.0
  0
LINE
  5
413
100
AcDbEntity
  8
L1_105
  6
CONTINUOUS
 62
         4
100
AcDbLine
 10
1737.4112659414
 20
74.6372179209
 30
0.0
 11
1737.4112659414
 21
82.615693068
 31
0.0
  0
LINE
  5
414
100
AcDbEntity
  8
L1_105
  6
CONTINUOUS
 62
         4
100
AcDbLine
 10
1725.2612659414
 20
81.940693068
 30
0.0
 11
1737.4112659414
 21
81.940693068
 31
0.0
  0
SOLID
  5
415
100
AcDbEntity
  8
L1_105
  6
CONTINUOUS
 62
         4
100
AcDbTrace
 10
1725.2612659414
 20
81.940693068
 30
0.0
 11
1727.9612659414
 21
82.345693068
 31
0.0
 12
1727.9612659414
 22
81.535693068
 32
0.0
 13
1725.2612659414
 23
81.940693068
 33
0.0
  0
SOLID
  5
416
100
AcDbEntity
  8
L1_105
  6
CONTINUOUS
 62
         4
100
AcDbTrace
 10
1737.4112659414
 20
81.940693068
 30
0.0
 11
1734.7112659414
 21
81.535693068
 31
0.0
 12
1734.7112659414
 22
82.345693068
 32
0.0
 13
1737.4112659414
 23
81.940693068
 33
0.0
  0
TEXT
  5
418
100
AcDbEntity
  8
L1_105
  6
CONTINUOUS
 62
         4
100
AcDbText
 10
1724.8115741434
 20
83.965693068
 30
0.0
 40
2.7
  1
12.15
  7
BOX
100
AcDbText
  0
ENDBLK
  5
419
100
AcDbEntity
  8
0
  6
CONTINUOUS
100
AcDbBlockEnd
  0
BLOCK
  5
41B
100
AcDbEntity
  8
0
100
AcDbBlockBegin
  2
*D17
 70
        65
 10
0.0
 20
0.0
 30
0.0
  3
*D17
  1

  0
POINT
  5
41D
100
AcDbEntity
  8
DEFPOINTS
  6
CONTINUOUS
 62
         0
100
AcDbPoint
 10
1725.2612659414
 20
76.3386300769
 30
0.0
  0
POINT
  5
41E
100
AcDbEntity
  8
DEFPOINTS
  6
CONTINUOUS
 62
         0
100
AcDbPoint
 10
1725.2612659414
 20
73.0872179209
 30
0.0
  0
POINT
  5
41F
100
AcDbEntity
  8
DEFPOINTS
  6
CONTINUOUS
 62
         0
100
AcDbPoint
 10
1729.7612659414
 20
73.0872179209
 30
0.0
  0
LINE
  5
420
100
AcDbEntity
  8
L1_105
  6
CONTINUOUS
 62
         4
100
AcDbLine
 10
1725.2612659414
 20
74.4372179209
 30
0.0
 11
1725.2612659414
 21
77.0136300769
 31
0.0
  0
LINE
  5
421
100
AcDbEntity
  8
L1_105
  6
CONTINUOUS
 62
         4
100
AcDbLine
 10
1729.7612659414
 20
74.4372179209
 30
0.0
 11
1729.7612659414
 21
77.0136300769
 31
0.0
  0
LINE
  5
422
100
AcDbEntity
  8
L1_105
  6
CONTINUOUS
 62
         4
100
AcDbLine
 10
1725.2612659414
 20
76.3386300769
 30
0.0
 11
1714.5250082111
 21
76.3386300769
 31
0.0
  0
SOLID
  5
423
100
AcDbEntity
  8
L1_105
  6
CONTINUOUS
 62
         4
100
AcDbTrace
 10
1725.2612659414
 20
76.3386300769
 30
0.0
 11
1722.5612659414
 21
75.9336300769
 31
0.0
 12
1722.5612659414
 22
76.7436300769
 32
0.0
 13
1725.2612659414
 23
76.3386300769
 33
0.0
  0
LINE
  5
424
100
AcDbEntity
  8
L1_105
  6
CONTINUOUS
 62
         4
100
AcDbLine
 10
1729.7612659414
 20
76.3386300769
 30
0.0
 11
1735.1612659414
 21
76.3386300769
 31
0.0
  0
SOLID
  5
425
100
AcDbEntity
  8
L1_105
  6
CONTINUOUS
 62
         4
100
AcDbTrace
 10
1729.7612659414
 20
76.3386300769
 30
0.0
 11
1732.4612659414
 21
76.7436300769
 31
0.0
 12
1732.4612659414
 22
75.9336300769
 32
0.0
 13
1729.7612659414
 23
76.3386300769
 33
0.0
  0
LINE
  5
426
100
AcDbEntity
  8
L1_105
  6
CONTINUOUS
 62
         4
100
AcDbLine
 10
1725.2612659414
 20
76.3386300769
 30
0.0
 11
1729.7612659414
 21
76.3386300769
 31
0.0
  0
TEXT
  5
428
100
AcDbEntity
  8
L1_105
  6
CONTINUOUS
 62
         4
100
AcDbText
 10
1715.8750082111
 20
78.3636300769
 30
0.0
 40
2.7
  1
4.5
  7
BOX
100
AcDbText
  0
ENDBLK
  5
429
100
AcDbEntity
  8
0
  6
CONTINUOUS
100
AcDbBlockEnd
  0
BLOCK
  5
42B
100
AcDbEntity
  8
0
100
AcDbBlockBegin
  2
*D18
 70
        65
 10
0.0
 20
0.0
 30
0.0
  3
*D18
  1

  0
POINT
  5
42D
100
AcDbEntity
  8
DEFPOINTS
  6
CONTINUOUS
 62
         0
100
AcDbPoint
 10
1735.9112659414
 20
78.402548021
 30
0.0
  0
POINT
  5
42E
100
AcDbEntity
  8
DEFPOINTS
  6
CONTINUOUS
 62
         0
100
AcDbPoint
 10
1735.9112659414
 20
73.2872179209
 30
0.0
  0
POINT
  5
42F
100
AcDbEntity
  8
DEFPOINTS
  6
CONTINUOUS
 62
         0
100
AcDbPoint
 10
1737.4112659414
 20
73.2872179209
 30
0.0
  0
LINE
  5
430
100
AcDbEntity
  8
L1_105
  6
CONTINUOUS
 62
         4
100
AcDbLine
 10
1735.9112659414
 20
74.6372179209
 30
0.0
 11
1735.9112659414
 21
79.077548021
 31
0.0
  0
LINE
  5
431
100
AcDbEntity
  8
L1_105
  6
CONTINUOUS
 62
         4
100
AcDbLine
 10
1737.4112659414
 20
74.6372179209
 30
0.0
 11
1737.4112659414
 21
79.077548021
 31
0.0
  0
LINE
  5
432
100
AcDbEntity
  8
L1_105
  6
CONTINUOUS
 62
         4
100
AcDbLine
 10
1735.9112659414
 20
78.402548021
 30
0.0
 11
1730.5112659414
 21
78.402548021
 31
0.0
  0
SOLID
  5
433
100
AcDbEntity
  8
L1_105
  6
CONTINUOUS
 62
         4
100
AcDbTrace
 10
1735.9112659414
 20
78.402548021
 30
0.0
 11
1733.2112659414
 21
77.997548021
 31
0.0
 12
1733.2112659414
 22
78.807548021
 32
0.0
 13
1735.9112659414
 23
78.402548021
 33
0.0
  0
LINE
  5
434
100
AcDbEntity
  8
L1_105
  6
CONTINUOUS
 62
         4
100
AcDbLine
 10
1737.4112659414
 20
78.402548021
 30
0.0
 11
1748.2836382937
 21
78.402548021
 31
0.0
  0
SOLID
  5
435
100
AcDbEntity
  8
L1_105
  6
CONTINUOUS
 62
         4
100
AcDbTrace
 10
1737.4112659414
 20
78.402548021
 30
0.0
 11
1740.1112659414
 21
78.807548021
 31
0.0
 12
1740.1112659414
 22
77.997548021
 32
0.0
 13
1737.4112659414
 23
78.402548021
 33
0.0
  0
LINE
  5
436
100
AcDbEntity
  8
L1_105
  6
CONTINUOUS
 62
         4
100
AcDbLine
 10
1735.9112659414
 20
78.402548021
 30
0.0
 11
1737.4112659414
 21
78.402548021
 31
0.0
  0
TEXT
  5
438
100
AcDbEntity
  8
L1_105
  6
CONTINUOUS
 62
         4
100
AcDbText
 10
1738.8336382937
 20
80.427548021
 30
0.0
 40
2.7
  1
1.5
  7
BOX
100
AcDbText
  0
ENDBLK
  5
439
100
AcDbEntity
  8
0
  6
CONTINUOUS
100
AcDbBlockEnd
  0
BLOCK
  5
45A
100
AcDbEntity
  8
0
100
AcDbBlockBegin
  2
*D19
 70
        65
 10
0.0
 20
0.0
 30
0.0
  3
*D19
  1

  0
POINT
  5
45C
100
AcDbEntity
  8
DEFPOINTS
  6
CONTINUOUS
 62
         0
100
AcDbPoint
 10
1751.5536550778
 20
80.8872179209
 30
0.0
  0
POINT
  5
45D
100
AcDbEntity
  8
DEFPOINTS
  6
CONTINUOUS
 62
         0
100
AcDbPoint
 10
1754.5012659414
 20
80.8872179209
 30
0.0
  0
POINT
  5
45E
100
AcDbEntity
  8
DEFPOINTS
  6
CONTINUOUS
 62
         0
100
AcDbPoint
 10
1754.5012659414
 20
46.8872179209
 30
0.0
  0
LINE
  5
45F
100
AcDbEntity
  8
L1_105
  6
CONTINUOUS
 62
         4
100
AcDbLine
 10
1753.1512659414
 20
80.8872179209
 30
0.0
 11
1750.8786550778
 21
80.8872179209
 31
0.0
  0
LINE
  5
460
100
AcDbEntity
  8
L1_105
  6
CONTINUOUS
 62
         4
100
AcDbLine
 10
1753.1512659414
 20
46.8872179209
 30
0.0
 11
1750.8786550778
 21
46.8872179209
 31
0.0
  0
LINE
  5
461
100
AcDbEntity
  8
L1_105
  6
CONTINUOUS
 62
         4
100
AcDbLine
 10
1751.5536550778
 20
80.8872179209
 30
0.0
 11
1751.5536550778
 21
46.8872179209
 31
0.0
  0
SOLID
  5
462
100
AcDbEntity
  8
L1_105
  6
CONTINUOUS
 62
         4
100
AcDbTrace
 10
1751.5536550778
 20
80.8872179209
 30
0.0
 11
1751.9586550778
 21
78.1872179209
 31
0.0
 12
1751.1486550778
 22
78.1872179209
 32
0.0
 13
1751.5536550778
 23
80.8872179209
 33
0.0
  0
SOLID
  5
463
100
AcDbEntity
  8
L1_105
  6
CONTINUOUS
 62
         4
100
AcDbTrace
 10
1751.5536550778
 20
46.8872179209
 30
0.0
 11
1751.1486550778
 21
49.5872179209
 31
0.0
 12
1751.9586550778
 22
49.5872179209
 32
0.0
 13
1751.5536550778
 23
46.8872179209
 33
0.0
  0
TEXT
  5
465
100
AcDbEntity
  8
L1_105
  6
CONTINUOUS
 62
         4
100
AcDbText
 10
1749.5286550778
 20
52.7094334466
 30
0.0
 40
2.7
  1
崷33.99
 50
90.0
  7
BOX
100
AcDbText
  0
ENDBLK
  5
466
100
AcDbEntity
  8
0
  6
CONTINUOUS
100
AcDbBlockEnd
  0
BLOCK
  5
468
100
AcDbEntity
  8
0
100
AcDbBlockBegin
  2
*D20
 70
        65
 10
0.0
 20
0.0
 30
0.0
  3
*D20
  1

  0
POINT
  5
46A
100
AcDbEntity
  8
DEFPOINTS
  6
CONTINUOUS
 62
         0
100
AcDbPoint
 10
1792.7435916127
 20
83.3872179209
 30
0.0
  0
POINT
  5
46B
100
AcDbEntity
  8
DEFPOINTS
  6
CONTINUOUS
 62
         0
100
AcDbPoint
 10
1785.3012659414
 20
83.3872179209
 30
0.0
  0
POINT
  5
46C
100
AcDbEntity
  8
DEFPOINTS
  6
CONTINUOUS
 62
         0
100
AcDbPoint
 10
1785.3012659414
 20
44.3872179209
 30
0.0
  0
LINE
  5
46D
100
AcDbEntity
  8
L1_105
  6
CONTINUOUS
 62
         4
100
AcDbLine
 10
1786.6512659414
 20
83.3872179209
 30
0.0
 11
1793.4185916127
 21
83.3872179209
 31
0.0
  0
LINE
  5
46E
100
AcDbEntity
  8
L1_105
  6
CONTINUOUS
 62
         4
100
AcDbLine
 10
1786.6512659414
 20
44.3872179209
 30
0.0
 11
1793.4185916127
 21
44.3872179209
 31
0.0
  0
LINE
  5
46F
100
AcDbEntity
  8
L1_105
  6
CONTINUOUS
 62
         4
100
AcDbLine
 10
1792.7435916127
 20
83.3872179209
 30
0.0
 11
1792.7435916127
 21
44.3872179209
 31
0.0
  0
SOLID
  5
470
100
AcDbEntity
  8
L1_105
  6
CONTINUOUS
 62
         4
100
AcDbTrace
 10
1792.7435916127
 20
83.3872179209
 30
0.0
 11
1793.1485916127
 21
80.6872179209
 31
0.0
 12
1792.3385916127
 22
80.6872179209
 32
0.0
 13
1792.7435916127
 23
83.3872179209
 33
0.0
  0
SOLID
  5
471
100
AcDbEntity
  8
L1_105
  6
CONTINUOUS
 62
         4
100
AcDbTrace
 10
1792.7435916127
 20
44.3872179209
 30
0.0
 11
1792.3385916127
 21
47.0872179209
 31
0.0
 12
1793.1485916127
 22
47.0872179209
 32
0.0
 13
1792.7435916127
 23
44.3872179209
 33
0.0
  0
TEXT
  5
473
100
AcDbEntity
  8
L1_105
  6
CONTINUOUS
 62
         4
100
AcDbText
 10
1790.7185916127
 20
59.4182100876
 30
0.0
 40
2.7
  1
崷39
 50
90.0
  7
BOX
100
AcDbText
  0
ENDBLK
  5
474
100
AcDbEntity
  8
0
  6
CONTINUOUS
100
AcDbBlockEnd
  0
BLOCK
  5
476
100
AcDbEntity
  8
0
100
AcDbBlockBegin
  2
*D21
 70
        65
 10
0.0
 20
0.0
 30
0.0
  3
*D21
  1

  0
POINT
  5
478
100
AcDbEntity
  8
DEFPOINTS
  6
CONTINUOUS
 62
         0
100
AcDbPoint
 10
1785.8012659414
 20
86.6382839722
 30
0.0
  0
POINT
  5
479
100
AcDbEntity
  8
DEFPOINTS
  6
CONTINUOUS
 62
         0
100
AcDbPoint
 10
1785.8012659414
 20
82.8872179209
 30
0.0
  0
POINT
  5
47A
100
AcDbEntity
  8
DEFPOINTS
  6
CONTINUOUS
 62
         0
100
AcDbPoint
 10
1778.8012659414
 20
82.8872179209
 30
0.0
  0
LINE
  5
47B
100
AcDbEntity
  8
L1_105
  6
CONTINUOUS
 62
         4
100
AcDbLine
 10
1785.8012659414
 20
84.2372179209
 30
0.0
 11
1785.8012659414
 21
87.3132839722
 31
0.0
  0
LINE
  5
47C
100
AcDbEntity
  8
L1_105
  6
CONTINUOUS
 62
         4
100
AcDbLine
 10
1778.8012659414
 20
84.2372179209
 30
0.0
 11
1778.8012659414
 21
87.3132839722
 31
0.0
  0
LINE
  5
47D
100
AcDbEntity
  8
L1_105
  6
CONTINUOUS
 62
         4
100
AcDbLine
 10
1785.8012659414
 20
86.6382839722
 30
0.0
 11
1778.8012659414
 21
86.6382839722
 31
0.0
  0
SOLID
  5
47E
100
AcDbEntity
  8
L1_105
  6
CONTINUOUS
 62
         4
100
AcDbTrace
 10
1785.8012659414
 20
86.6382839722
 30
0.0
 11
1783.1012659414
 21
86.2332839722
 31
0.0
 12
1783.1012659414
 22
87.0432839722
 32
0.0
 13
1785.8012659414
 23
86.6382839722
 33
0.0
  0
SOLID
  5
47F
100
AcDbEntity
  8
L1_105
  6
CONTINUOUS
 62
         4
100
AcDbTrace
 10
1778.8012659414
 20
86.6382839722
 30
0.0
 11
1781.5012659414
 21
87.0432839722
 31
0.0
 12
1781.5012659414
 22
86.2332839722
 32
0.0
 13
1778.8012659414
 23
86.6382839722
 33
0.0
  0
TEXT
  5
481
100
AcDbEntity
  8
L1_105
  6
CONTINUOUS
 62
         4
100
AcDbText
 10
1780.996045056
 20
88.6632839722
 30
0.0
 40
2.7
  1
7
  7
BOX
100
AcDbText
  0
ENDBLK
  5
482
100
AcDbEntity
  8
0
  6
CONTINUOUS
100
AcDbBlockEnd
  0
BLOCK
  5
484
100
AcDbEntity
  8
0
100
AcDbBlockBegin
  2
*D22
 70
        65
 10
0.0
 20
0.0
 30
0.0
  3
*D22
  1

  0
POINT
  5
486
100
AcDbEntity
  8
DEFPOINTS
  6
CONTINUOUS
 62
         0
100
AcDbPoint
 10
1785.8012659414
 20
93.3485297807
 30
0.0
  0
POINT
  5
487
100
AcDbEntity
  8
DEFPOINTS
  6
CONTINUOUS
 62
         0
100
AcDbPoint
 10
1785.8012659414
 20
82.8872179209
 30
0.0
  0
POINT
  5
488
100
AcDbEntity
  8
DEFPOINTS
  6
CONTINUOUS
 62
         0
100
AcDbPoint
 10
1754.3012659414
 20
80.6872179209
 30
0.0
  0
LINE
  5
489
100
AcDbEntity
  8
L1_105
  6
CONTINUOUS
 62
         4
100
AcDbLine
 10
1785.8012659414
 20
84.2372179209
 30
0.0
 11
1785.8012659414
 21
94.0235297807
 31
0.0
  0
LINE
  5
48A
100
AcDbEntity
  8
L1_105
  6
CONTINUOUS
 62
         4
100
AcDbLine
 10
1754.3012659414
 20
82.0372179209
 30
0.0
 11
1754.3012659414
 21
94.0235297807
 31
0.0
  0
LINE
  5
48B
100
AcDbEntity
  8
L1_105
  6
CONTINUOUS
 62
         4
100
AcDbLine
 10
1785.8012659414
 20
93.3485297807
 30
0.0
 11
1754.3012659414
 21
93.3485297807
 31
0.0
  0
SOLID
  5
48C
100
AcDbEntity
  8
L1_105
  6
CONTINUOUS
 62
         4
100
AcDbTrace
 10
1785.8012659414
 20
93.3485297807
 30
0.0
 11
1783.1012659414
 21
92.9435297807
 31
0.0
 12
1783.1012659414
 22
93.7535297807
 32
0.0
 13
1785.8012659414
 23
93.3485297807
 33
0.0
  0
SOLID
  5
48D
100
AcDbEntity
  8
L1_105
  6
CONTINUOUS
 62
         4
100
AcDbTrace
 10
1754.3012659414
 20
93.3485297807
 30
0.0
 11
1757.0012659414
 21
93.7535297807
 31
0.0
 12
1757.0012659414
 22
92.9435297807
 32
0.0
 13
1754.3012659414
 23
93.3485297807
 33
0.0
  0
TEXT
  5
48F
100
AcDbEntity
  8
L1_105
  6
CONTINUOUS
 62
         4
100
AcDbText
 10
1763.5761968036
 20
95.3735297807
 30
0.0
 40
2.7
  1
31.5
  7
BOX
100
AcDbText
  0
ENDBLK
  5
490
100
AcDbEntity
  8
0
  6
CONTINUOUS
100
AcDbBlockEnd
  0
BLOCK
  5
4AB
100
AcDbEntity
  8
0
100
AcDbBlockBegin
  2
*D23
 70
        65
 10
0.0
 20
0.0
 30
0.0
  3
*D23
  1

  0
POINT
  5
4AD
100
AcDbEntity
  8
DEFPOINTS
  6
CONTINUOUS
 62
         0
100
AcDbPoint
 10
1565.9823058991
 20
-78.0081191884
 30
0.0
  0
POINT
  5
4AE
100
AcDbEntity
  8
DEFPOINTS
  6
CONTINUOUS
 62
         0
100
AcDbPoint
 10
1565.9823058991
 20
-69.7951392792
 30
0.0
  0
POINT
  5
4AF
100
AcDbEntity
  8
DEFPOINTS
  6
CONTINUOUS
 62
         0
100
AcDbPoint
 10
1577.2323058991
 20
-70.2951392792
 30
0.0
  0
LINE
  5
4B0
100
AcDbEntity
  8
L1_105
  6
CONTINUOUS
 62
         4
100
AcDbLine
 10
1565.9823058991
 20
-71.1451392792
 30
0.0
 11
1565.9823058991
 21
-78.6831191884
 31
0.0
  0
LINE
  5
4B1
100
AcDbEntity
  8
L1_105
  6
CONTINUOUS
 62
         4
100
AcDbLine
 10
1577.2323058991
 20
-71.6451392792
 30
0.0
 11
1577.2323058991
 21
-78.6831191884
 31
0.0
  0
LINE
  5
4B2
100
AcDbEntity
  8
L1_105
  6
CONTINUOUS
 62
         4
100
AcDbLine
 10
1565.9823058991
 20
-78.0081191884
 30
0.0
 11
1577.2323058991
 21
-78.0081191884
 31
0.0
  0
SOLID
  5
4B3
100
AcDbEntity
  8
L1_105
  6
CONTINUOUS
 62
         4
100
AcDbTrace
 10
1565.9823058991
 20
-78.0081191884
 30
0.0
 11
1568.6823058991
 21
-77.6031191884
 31
0.0
 12
1568.6823058991
 22
-78.4131191884
 32
0.0
 13
1565.9823058991
 23
-78.0081191884
 33
0.0
  0
SOLID
  5
4B4
100
AcDbEntity
  8
L1_105
  6
CONTINUOUS
 62
         4
100
AcDbTrace
 10
1577.2323058991
 20
-78.0081191884
 30
0.0
 11
1574.5323058991
 21
-78.4131191884
 31
0.0
 12
1574.5323058991
 22
-77.6031191884
 32
0.0
 13
1577.2323058991
 23
-78.0081191884
 33
0.0
  0
TEXT
  5
4B6
100
AcDbEntity
  8
L1_105
  6
CONTINUOUS
 62
         4
100
AcDbText
 10
1564.8573058991
 20
-75.9831191884
 30
0.0
 40
2.7
  1
11.25
  7
BOX
100
AcDbText
  0
ENDBLK
  5
4B7
100
AcDbEntity
  8
0
  6
CONTINUOUS
100
AcDbBlockEnd
  0
BLOCK
  5
4B9
100
AcDbEntity
  8
0
100
AcDbBlockBegin
  2
*D24
 70
        65
 10
0.0
 20
0.0
 30
0.0
  3
*D24
  1

  0
POINT
  5
4BB
100
AcDbEntity
  8
DEFPOINTS
  6
CONTINUOUS
 62
         0
100
AcDbPoint
 10
1590.2381342991
 20
-63.3196392792
 30
0.0
  0
POINT
  5
4BC
100
AcDbEntity
  8
DEFPOINTS
  6
CONTINUOUS
 62
         0
100
AcDbPoint
 10
1578.2078058991
 20
-63.3196392792
 30
0.0
  0
POINT
  5
4BD
100
AcDbEntity
  8
DEFPOINTS
  6
CONTINUOUS
 62
         0
100
AcDbPoint
 10
1578.2078058991
 20
-71.2706392792
 30
0.0
  0
LINE
  5
4BE
100
AcDbEntity
  8
L1_105
  6
CONTINUOUS
 62
         4
100
AcDbLine
 10
1579.5578058991
 20
-63.3196392792
 30
0.0
 11
1590.9131342991
 21
-63.3196392792
 31
0.0
  0
LINE
  5
4BF
100
AcDbEntity
  8
L1_105
  6
CONTINUOUS
 62
         4
100
AcDbLine
 10
1579.5578058991
 20
-71.2706392792
 30
0.0
 11
1590.9131342991
 21
-71.2706392792
 31
0.0
  0
LINE
  5
4C0
100
AcDbEntity
  8
L1_105
  6
CONTINUOUS
 62
         4
100
AcDbLine
 10
1590.2381342991
 20
-63.3196392792
 30
0.0
 11
1590.2381342991
 21
-71.2706392792
 31
0.0
  0
SOLID
  5
4C1
100
AcDbEntity
  8
L1_105
  6
CONTINUOUS
 62
         4
100
AcDbTrace
 10
1590.2381342991
 20
-63.3196392792
 30
0.0
 11
1590.6431342991
 21
-66.0196392792
 31
0.0
 12
1589.8331342991
 22
-66.0196392792
 32
0.0
 13
1590.2381342991
 23
-63.3196392792
 33
0.0
  0
SOLID
  5
4C2
100
AcDbEntity
  8
L1_105
  6
CONTINUOUS
 62
         4
100
AcDbTrace
 10
1590.2381342991
 20
-71.2706392792
 30
0.0
 11
1589.8331342991
 21
-68.5706392792
 31
0.0
 12
1590.6431342991
 22
-68.5706392792
 32
0.0
 13
1590.2381342991
 23
-71.2706392792
 33
0.0
  0
TEXT
  5
4C4
100
AcDbEntity
  8
L1_105
  6
CONTINUOUS
 62
         4
100
AcDbText
 10
1588.2131342991
 20
-76.7451392792
 30
0.0
 40
2.7
  1
崷7.951
 50
90.0
  7
BOX
100
AcDbText
  0
ENDBLK
  5
4C5
100
AcDbEntity
  8
0
  6
CONTINUOUS
100
AcDbBlockEnd
  0
BLOCK
  5
4CF
100
AcDbEntity
  8
0
100
AcDbBlockBegin
  2
*D25
 70
        65
 10
0.0
 20
0.0
 30
0.0
  3
*D25
  1

  0
POINT
  5
4D1
100
AcDbEntity
  8
DEFPOINTS
  6
CONTINUOUS
 62
         0
100
AcDbPoint
 10
1735.9694191856
 20
-45.7951392792
 30
0.0
  0
POINT
  5
4D2
100
AcDbEntity
  8
DEFPOINTS
  6
CONTINUOUS
 62
         0
100
AcDbPoint
 10
1745.2369502264
 20
-45.7951392792
 30
0.0
  0
POINT
  5
4D3
100
AcDbEntity
  8
DEFPOINTS
  6
CONTINUOUS
 62
         0
100
AcDbPoint
 10
1745.2369502264
 20
-88.7951392792
 30
0.0
  0
LINE
  5
4D4
100
AcDbEntity
  8
L1_105
  6
CONTINUOUS
 62
         4
100
AcDbLine
 10
1743.8869502264
 20
-45.7951392792
 30
0.0
 11
1735.2944191856
 21
-45.7951392792
 31
0.0
  0
LINE
  5
4D5
100
AcDbEntity
  8
L1_105
  6
CONTINUOUS
 62
         4
100
AcDbLine
 10
1743.8869502264
 20
-88.7951392792
 30
0.0
 11
1735.2944191856
 21
-88.7951392792
 31
0.0
  0
LINE
  5
4D6
100
AcDbEntity
  8
L1_105
  6
CONTINUOUS
 62
         4
100
AcDbLine
 10
1735.9694191856
 20
-45.7951392792
 30
0.0
 11
1735.9694191856
 21
-88.7951392792
 31
0.0
  0
SOLID
  5
4D7
100
AcDbEntity
  8
L1_105
  6
CONTINUOUS
 62
         4
100
AcDbTrace
 10
1735.9694191856
 20
-45.7951392792
 30
0.0
 11
1736.3744191856
 21
-48.4951392792
 31
0.0
 12
1735.5644191856
 22
-48.4951392792
 32
0.0
 13
1735.9694191856
 23
-45.7951392792
 33
0.0
  0
SOLID
  5
4D8
100
AcDbEntity
  8
L1_105
  6
CONTINUOUS
 62
         4
100
AcDbTrace
 10
1735.9694191856
 20
-88.7951392792
 30
0.0
 11
1735.5644191856
 21
-86.0951392792
 31
0.0
 12
1736.3744191856
 22
-86.0951392792
 32
0.0
 13
1735.9694191856
 23
-88.7951392792
 33
0.0
  0
TEXT
  5
4DA
100
AcDbEntity
  8
L1_105
  6
CONTINUOUS
 62
         4
100
AcDbText
 10
1733.9444191856
 20
-72.6951392792
 30
0.0
 40
2.7
  1
崷42
 50
90.0
  7
BOX
100
AcDbText
  0
ENDBLK
  5
4DB
100
AcDbEntity
  8
0
  6
CONTINUOUS
100
AcDbBlockEnd
  0
BLOCK
  5
4DF
100
AcDbEntity
  8
0
100
AcDbBlockBegin
  2
*D26
 70
        65
 10
0.0
 20
0.0
 30
0.0
  3
*D26
  1

  0
POINT
  5
4E1
100
AcDbEntity
  8
DEFPOINTS
  6
CONTINUOUS
 62
         0
100
AcDbPoint
 10
1714.227605368
 20
-57.0451392792
 30
0.0
  0
POINT
  5
4E2
100
AcDbEntity
  8
DEFPOINTS
  6
CONTINUOUS
 62
         0
100
AcDbPoint
 10
1721.302057461
 20
-57.0451392792
 30
0.0
  0
POINT
  5
4E3
100
AcDbEntity
  8
DEFPOINTS
  6
CONTINUOUS
 62
         0
100
AcDbPoint
 10
1721.302057461
 20
-77.5451392792
 30
0.0
  0
LINE
  5
4E4
100
AcDbEntity
  8
L1_105
  6
CONTINUOUS
 62
         4
100
AcDbLine
 10
1719.952057461
 20
-57.0451392792
 30
0.0
 11
1713.552605368
 21
-57.0451392792
 31
0.0
  0
LINE
  5
4E5
100
AcDbEntity
  8
L1_105
  6
CONTINUOUS
 62
         4
100
AcDbLine
 10
1719.952057461
 20
-77.5451392792
 30
0.0
 11
1713.552605368
 21
-77.5451392792
 31
0.0
  0
LINE
  5
4E6
100
AcDbEntity
  8
L1_105
  6
CONTINUOUS
 62
         4
100
AcDbLine
 10
1714.227605368
 20
-57.0451392792
 30
0.0
 11
1714.227605368
 21
-77.5451392792
 31
0.0
  0
SOLID
  5
4E7
100
AcDbEntity
  8
L1_105
  6
CONTINUOUS
 62
         4
100
AcDbTrace
 10
1714.227605368
 20
-57.0451392792
 30
0.0
 11
1714.632605368
 21
-59.7451392792
 31
0.0
 12
1713.822605368
 22
-59.7451392792
 32
0.0
 13
1714.227605368
 23
-57.0451392792
 33
0.0
  0
SOLID
  5
4E8
100
AcDbEntity
  8
L1_105
  6
CONTINUOUS
 62
         4
100
AcDbTrace
 10
1714.227605368
 20
-77.5451392792
 30
0.0
 11
1713.822605368
 21
-74.8451392792
 31
0.0
 12
1714.632605368
 22
-74.8451392792
 32
0.0
 13
1714.227605368
 23
-77.5451392792
 33
0.0
  0
TEXT
  5
4EA
100
AcDbEntity
  8
L1_105
  6
CONTINUOUS
 62
         4
100
AcDbText
 10
1712.202605368
 20
-75.3951392792
 30
0.0
 40
2.7
  1
崷20.5
 50
90.0
  7
BOX
100
AcDbText
  0
ENDBLK
  5
4EB
100
AcDbEntity
  8
0
  6
CONTINUOUS
100
AcDbBlockEnd
  0
BLOCK
  5
4F1
100
AcDbEntity
  8
0
100
AcDbBlockBegin
  2
*D27
 70
        65
 10
0.0
 20
0.0
 30
0.0
  3
*D27
  1

  0
POINT
  5
4F3
100
AcDbEntity
  8
DEFPOINTS
  6
CONTINUOUS
 62
         0
100
AcDbPoint
 10
1680.3823292963
 20
-68.5875408034
 30
0.0
  0
POINT
  5
4F4
100
AcDbEntity
  8
DEFPOINTS
  6
CONTINUOUS
 62
         0
100
AcDbPoint
 10
1689.5499035775
 20
-66.002737755
 30
0.0
  0
LINE
  5
4F5
100
AcDbEntity
  8
L1_105
  6
CONTINUOUS
 62
         4
100
AcDbLine
 10
1689.5499035775
 20
-66.002737755
 30
0.0
 11
1684.9661164369
 21
-67.2951392792
 31
0.0
  0
SOLID
  5
4F6
100
AcDbEntity
  8
L1_105
  6
CONTINUOUS
 62
         4
100
AcDbTrace
 10
1689.5499035775
 20
-66.002737755
 30
0.0
 11
1687.0611261156
 21
-67.1252402027
 31
0.0
 12
1686.8413160926
 22
-66.3456354607
 32
0.0
 13
1689.5499035775
 23
-66.002737755
 33
0.0
  0
LINE
  5
4F7
100
AcDbEntity
  8
L1_105
  6
CONTINUOUS
 62
         4
100
AcDbLine
 10
1684.9661164369
 20
-67.2951392792
 30
0.0
 11
1680.3823292963
 21
-68.5875408034
 31
0.0
  0
SOLID
  5
4F8
100
AcDbEntity
  8
L1_105
  6
CONTINUOUS
 62
         4
100
AcDbTrace
 10
1680.3823292963
 20
-68.5875408034
 30
0.0
 11
1682.8711067582
 21
-67.4650383557
 31
0.0
 12
1683.0909167812
 22
-68.2446430977
 32
0.0
 13
1680.3823292963
 23
-68.5875408034
 33
0.0
  0
LINE
  5
4F9
100
AcDbEntity
  8
L1_105
  6
CONTINUOUS
 62
         4
100
AcDbLine
 10
1689.5499035775
 20
-66.002737755
 30
0.0
 11
1707.4565954466
 21
-60.9539352788
 31
0.0
  0
TEXT
  5
4FB
100
AcDbEntity
  8
L1_105
  6
CONTINUOUS
 62
         4
100
AcDbText
 10
1690.3877490369
 20
-64.4122608921
 30
0.0
 40
2.7
  1
崷9.53
 50
15.7458298425
  7
BOX
100
AcDbText
  0
ENDBLK
  5
4FC
100
AcDbEntity
  8
0
  6
CONTINUOUS
100
AcDbBlockEnd
  0
BLOCK
  5
4FF
100
AcDbEntity
  8
0
100
AcDbBlockBegin
  2
*D28
 70
        65
 10
0.0
 20
0.0
 30
0.0
  3
*D28
  1

  0
POINT
  5
501
100
AcDbEntity
  8
DEFPOINTS
  6
CONTINUOUS
 62
         0
100
AcDbPoint
 10
1577.2323058991
 20
-57.8955326158
 30
0.0
  0
POINT
  5
502
100
AcDbEntity
  8
DEFPOINTS
  6
CONTINUOUS
 62
         0
100
AcDbPoint
 10
1577.2323058991
 20
-64.2951392792
 30
0.0
  0
POINT
  5
503
100
AcDbEntity
  8
DEFPOINTS
  6
CONTINUOUS
 62
         0
100
AcDbPoint
 10
1612.2323058991
 20
-61.2951392792
 30
0.0
  0
LINE
  5
504
100
AcDbEntity
  8
L1_105
  6
CONTINUOUS
 62
         4
100
AcDbLine
 10
1577.2323058991
 20
-62.9451392792
 30
0.0
 11
1577.2323058991
 21
-57.2205326158
 31
0.0
  0
LINE
  5
505
100
AcDbEntity
  8
L1_105
  6
CONTINUOUS
 62
         4
100
AcDbLine
 10
1612.2323058991
 20
-59.9451392792
 30
0.0
 11
1612.2323058991
 21
-57.2205326158
 31
0.0
  0
LINE
  5
506
100
AcDbEntity
  8
L1_105
  6
CONTINUOUS
 62
         4
100
AcDbLine
 10
1577.2323058991
 20
-57.8955326158
 30
0.0
 11
1612.2323058991
 21
-57.8955326158
 31
0.0
  0
SOLID
  5
507
100
AcDbEntity
  8
L1_105
  6
CONTINUOUS
 62
         4
100
AcDbTrace
 10
1577.2323058991
 20
-57.8955326158
 30
0.0
 11
1579.9323058991
 21
-57.4905326158
 31
0.0
 12
1579.9323058991
 22
-58.3005326158
 32
0.0
 13
1577.2323058991
 23
-57.8955326158
 33
0.0
  0
SOLID
  5
508
100
AcDbEntity
  8
L1_105
  6
CONTINUOUS
 62
         4
100
AcDbTrace
 10
1612.2323058991
 20
-57.8955326158
 30
0.0
 11
1609.5323058991
 21
-58.3005326158
 31
0.0
 12
1609.5323058991
 22
-57.4905326158
 32
0.0
 13
1612.2323058991
 23
-57.8955326158
 33
0.0
  0
TEXT
  5
50A
100
AcDbEntity
  8
L1_105
  6
CONTINUOUS
 62
         4
100
AcDbText
 10
1590.8404111802
 20
-55.8705326158
 30
0.0
 40
2.7
  1
35
  7
BOX
100
AcDbText
  0
ENDBLK
  5
50B
100
AcDbEntity
  8
0
  6
CONTINUOUS
100
AcDbBlockEnd
  0
BLOCK
  5
50D
100
AcDbEntity
  8
0
100
AcDbBlockBegin
  2
*D29
 70
        65
 10
0.0
 20
0.0
 30
0.0
  3
*D29
  1

  0
POINT
  5
50F
100
AcDbEntity
  8
DEFPOINTS
  6
CONTINUOUS
 62
         0
100
AcDbPoint
 10
1639.9853517045
 20
-65.2951392792
 30
0.0
  0
POINT
  5
510
100
AcDbEntity
  8
DEFPOINTS
  6
CONTINUOUS
 62
         0
100
AcDbPoint
 10
1632.2958137226
 20
-65.2951392792
 30
0.0
  0
POINT
  5
511
100
AcDbEntity
  8
DEFPOINTS
  6
CONTINUOUS
 62
         0
100
AcDbPoint
 10
1632.2958137226
 20
-69.2951392792
 30
0.0
  0
LINE
  5
512
100
AcDbEntity
  8
L1_105
  6
CONTINUOUS
 62
         4
100
AcDbLine
 10
1633.6458137226
 20
-65.2951392792
 30
0.0
 11
1640.6603517045
 21
-65.2951392792
 31
0.0
  0
LINE
  5
513
100
AcDbEntity
  8
L1_105
  6
CONTINUOUS
 62
         4
100
AcDbLine
 10
1633.6458137226
 20
-69.2951392792
 30
0.0
 11
1640.6603517045
 21
-69.2951392792
 31
0.0
  0
LINE
  5
514
100
AcDbEntity
  8
L1_105
  6
CONTINUOUS
 62
         4
100
AcDbLine
 10
1639.9853517045
 20
-65.2951392792
 30
0.0
 11
1639.9853517045
 21
-69.2951392792
 31
0.0
  0
SOLID
  5
515
100
AcDbEntity
  8
L1_105
  6
CONTINUOUS
 62
         4
100
AcDbTrace
 10
1639.9853517045
 20
-65.2951392792
 30
0.0
 11
1640.3903517045
 21
-67.9951392792
 31
0.0
 12
1639.5803517045
 22
-67.9951392792
 32
0.0
 13
1639.9853517045
 23
-65.2951392792
 33
0.0
  0
SOLID
  5
516
100
AcDbEntity
  8
L1_105
  6
CONTINUOUS
 62
         4
100
AcDbTrace
 10
1639.9853517045
 20
-69.2951392792
 30
0.0
 11
1639.5803517045
 21
-66.5951392792
 31
0.0
 12
1640.3903517045
 22
-66.5951392792
 32
0.0
 13
1639.9853517045
 23
-69.2951392792
 33
0.0
  0
TEXT
  5
518
100
AcDbEntity
  8
L1_105
  6
CONTINUOUS
 62
         4
100
AcDbText
 10
1637.9603517045
 20
-68.6451392792
 30
0.0
 40
2.7
  1
4
 50
90.0
  7
BOX
100
AcDbText
  0
ENDBLK
  5
519
100
AcDbEntity
  8
0
  6
CONTINUOUS
100
AcDbBlockEnd
  0
BLOCK
  5
521
100
AcDbEntity
  8
0
100
AcDbBlockBegin
  2
*D30
 70
        65
 10
0.0
 20
0.0
 30
0.0
  3
*D30
  1

  0
POINT
  5
523
100
AcDbEntity
  8
DEFPOINTS
  6
CONTINUOUS
 62
         0
100
AcDbPoint
 10
1628.8317121074
 20
-58.9720861539
 30
0.0
  0
POINT
  5
524
100
AcDbEntity
  8
DEFPOINTS
  6
CONTINUOUS
 62
         0
100
AcDbPoint
 10
1628.8317121074
 20
-67.2951392792
 30
0.0
  0
POINT
  5
525
100
AcDbEntity
  8
DEFPOINTS
  6
CONTINUOUS
 62
         0
100
AcDbPoint
 10
1633.450514261
 20
-67.2951392792
 30
0.0
  0
LINE
  5
526
100
AcDbEntity
  8
L1_105
  6
CONTINUOUS
 62
         4
100
AcDbLine
 10
1628.8317121074
 20
-65.9451392792
 30
0.0
 11
1628.8317121074
 21
-58.2970861539
 31
0.0
  0
LINE
  5
527
100
AcDbEntity
  8
L1_105
  6
CONTINUOUS
 62
         4
100
AcDbLine
 10
1633.450514261
 20
-65.9451392792
 30
0.0
 11
1633.450514261
 21
-58.2970861539
 31
0.0
  0
LINE
  5
528
100
AcDbEntity
  8
L1_105
  6
CONTINUOUS
 62
         4
100
AcDbLine
 10
1628.8317121074
 20
-58.9720861539
 30
0.0
 11
1633.450514261
 21
-58.9720861539
 31
0.0
  0
SOLID
  5
529
100
AcDbEntity
  8
L1_105
  6
CONTINUOUS
 62
         4
100
AcDbTrace
 10
1628.8317121074
 20
-58.9720861539
 30
0.0
 11
1631.5317121074
 21
-58.5670861539
 31
0.0
 12
1631.5317121074
 22
-59.3770861539
 32
0.0
 13
1628.8317121074
 23
-58.9720861539
 33
0.0
  0
SOLID
  5
52A
100
AcDbEntity
  8
L1_105
  6
CONTINUOUS
 62
         4
100
AcDbTrace
 10
1633.450514261
 20
-58.9720861539
 30
0.0
 11
1630.750514261
 21
-59.3770861539
 31
0.0
 12
1630.750514261
 22
-58.5670861539
 32
0.0
 13
1633.450514261
 23
-58.9720861539
 33
0.0
  0
TEXT
  5
52C
100
AcDbEntity
  8
L1_105
  6
CONTINUOUS
 62
         4
100
AcDbText
 10
1618.9911131842
 20
-56.9470861539
 30
0.0
 40
2.7
  1
4.53~4.44
  7
BOX
100
AcDbText
  0
ENDBLK
  5
52D
100
AcDbEntity
  8
0
  6
CONTINUOUS
100
AcDbBlockEnd
  0
BLOCK
  5
52F
100
AcDbEntity
  8
0
100
AcDbBlockBegin
  2
*D31
 70
        65
 10
0.0
 20
0.0
 30
0.0
  3
*D31
  1

  0
POINT
  5
531
100
AcDbEntity
  8
DEFPOINTS
  6
CONTINUOUS
 62
         0
100
AcDbPoint
 10
1624.7665357018
 20
-60.7951392792
 30
0.0
  0
POINT
  5
532
100
AcDbEntity
  8
DEFPOINTS
  6
CONTINUOUS
 62
         0
100
AcDbPoint
 10
1617.2323058991
 20
-60.7951392792
 30
0.0
  0
POINT
  5
533
100
AcDbEntity
  8
DEFPOINTS
  6
CONTINUOUS
 62
         0
100
AcDbPoint
 10
1617.2323058991
 20
-73.7951392792
 30
0.0
  0
LINE
  5
534
100
AcDbEntity
  8
L1_105
  6
CONTINUOUS
 62
         4
100
AcDbLine
 10
1618.5823058991
 20
-60.7951392792
 30
0.0
 11
1625.4415357018
 21
-60.7951392792
 31
0.0
  0
LINE
  5
535
100
AcDbEntity
  8
L1_105
  6
CONTINUOUS
 62
         4
100
AcDbLine
 10
1618.5823058991
 20
-73.7951392792
 30
0.0
 11
1625.4415357018
 21
-73.7951392792
 31
0.0
  0
LINE
  5
536
100
AcDbEntity
  8
L1_105
  6
CONTINUOUS
 62
         4
100
AcDbLine
 10
1624.7665357018
 20
-60.7951392792
 30
0.0
 11
1624.7665357018
 21
-73.7951392792
 31
0.0
  0
SOLID
  5
537
100
AcDbEntity
  8
L1_105
  6
CONTINUOUS
 62
         4
100
AcDbTrace
 10
1624.7665357018
 20
-60.7951392792
 30
0.0
 11
1625.1715357018
 21
-63.4951392792
 31
0.0
 12
1624.3615357018
 22
-63.4951392792
 32
0.0
 13
1624.7665357018
 23
-60.7951392792
 33
0.0
  0
SOLID
  5
538
100
AcDbEntity
  8
L1_105
  6
CONTINUOUS
 62
         4
100
AcDbTrace
 10
1624.7665357018
 20
-73.7951392792
 30
0.0
 11
1624.3615357018
 21
-71.0951392792
 31
0.0
 12
1625.1715357018
 22
-71.0951392792
 32
0.0
 13
1624.7665357018
 23
-73.7951392792
 33
0.0
  0
TEXT
  5
53A
100
AcDbEntity
  8
L1_105
  6
CONTINUOUS
 62
         4
100
AcDbText
 10
1622.7415357018
 20
-72.8757216845
 30
0.0
 40
2.7
  1
崷13
 50
90.0
  7
BOX
100
AcDbText
  0
ENDBLK
  5
53B
100
AcDbEntity
  8
0
  6
CONTINUOUS
100
AcDbBlockEnd
  0
BLOCK
  5
53D
100
AcDbEntity
  8
0
100
AcDbBlockBegin
  2
*D32
 70
        65
 10
0.0
 20
0.0
 30
0.0
  3
*D32
  1

  0
POINT
  5
53F
100
AcDbEntity
  8
DEFPOINTS
  6
CONTINUOUS
 62
         0
100
AcDbPoint
 10
1762.6036038641
 20
-56.8951392792
 30
0.0
  0
POINT
  5
540
100
AcDbEntity
  8
DEFPOINTS
  6
CONTINUOUS
 62
         0
100
AcDbPoint
 10
1766.5369502264
 20
-56.8951392792
 30
0.0
  0
POINT
  5
541
100
AcDbEntity
  8
DEFPOINTS
  6
CONTINUOUS
 62
         0
100
AcDbPoint
 10
1766.5369502264
 20
-77.6951392792
 30
0.0
  0
LINE
  5
542
100
AcDbEntity
  8
L1_105
  6
CONTINUOUS
 62
         4
100
AcDbLine
 10
1765.1869502264
 20
-56.8951392792
 30
0.0
 11
1761.9286038641
 21
-56.8951392792
 31
0.0
  0
LINE
  5
543
100
AcDbEntity
  8
L1_105
  6
CONTINUOUS
 62
         4
100
AcDbLine
 10
1765.1869502264
 20
-77.6951392792
 30
0.0
 11
1761.9286038641
 21
-77.6951392792
 31
0.0
  0
LINE
  5
544
100
AcDbEntity
  8
L1_105
  6
CONTINUOUS
 62
         4
100
AcDbLine
 10
1762.6036038641
 20
-56.8951392792
 30
0.0
 11
1762.6036038641
 21
-77.6951392792
 31
0.0
  0
SOLID
  5
545
100
AcDbEntity
  8
L1_105
  6
CONTINUOUS
 62
         4
100
AcDbTrace
 10
1762.6036038641
 20
-56.8951392792
 30
0.0
 11
1763.0086038641
 21
-59.5951392792
 31
0.0
 12
1762.1986038641
 22
-59.5951392792
 32
0.0
 13
1762.6036038641
 23
-56.8951392792
 33
0.0
  0
SOLID
  5
546
100
AcDbEntity
  8
L1_105
  6
CONTINUOUS
 62
         4
100
AcDbTrace
 10
1762.6036038641
 20
-77.6951392792
 30
0.0
 11
1762.1986038641
 21
-74.9951392792
 31
0.0
 12
1763.0086038641
 22
-74.9951392792
 32
0.0
 13
1762.6036038641
 23
-77.6951392792
 33
0.0
  0
TEXT
  5
548
100
AcDbEntity
  8
L1_105
  6
CONTINUOUS
 62
         4
100
AcDbText
 10
1760.5786038641
 20
-72.6951392792
 30
0.0
 40
2.7
  1
崷21
 50
90.0
  7
BOX
100
AcDbText
  0
ENDBLK
  5
549
100
AcDbEntity
  8
0
  6
CONTINUOUS
100
AcDbBlockEnd
  0
BLOCK
  5
54F
100
AcDbEntity
  8
0
100
AcDbBlockBegin
  2
*D33
 70
        65
 10
0.0
 20
0.0
 30
0.0
  3
*D33
  1

  0
POINT
  5
551
100
AcDbEntity
  8
DEFPOINTS
  6
CONTINUOUS
 62
         0
100
AcDbPoint
 10
1790.8819776703
 20
-53.5451392792
 30
0.0
  0
POINT
  5
552
100
AcDbEntity
  8
DEFPOINTS
  6
CONTINUOUS
 62
         0
100
AcDbPoint
 10
1794.9869502264
 20
-53.5451392792
 30
0.0
  0
POINT
  5
553
100
AcDbEntity
  8
DEFPOINTS
  6
CONTINUOUS
 62
         0
100
AcDbPoint
 10
1794.9869502264
 20
-81.0451392792
 30
0.0
  0
LINE
  5
554
100
AcDbEntity
  8
L1_105
  6
CONTINUOUS
 62
         4
100
AcDbLine
 10
1793.6369502264
 20
-53.5451392792
 30
0.0
 11
1790.2069776703
 21
-53.5451392792
 31
0.0
  0
LINE
  5
555
100
AcDbEntity
  8
L1_105
  6
CONTINUOUS
 62
         4
100
AcDbLine
 10
1793.6369502264
 20
-81.0451392792
 30
0.0
 11
1790.2069776703
 21
-81.0451392792
 31
0.0
  0
LINE
  5
556
100
AcDbEntity
  8
L1_105
  6
CONTINUOUS
 62
         4
100
AcDbLine
 10
1790.8819776703
 20
-53.5451392792
 30
0.0
 11
1790.8819776703
 21
-81.0451392792
 31
0.0
  0
SOLID
  5
557
100
AcDbEntity
  8
L1_105
  6
CONTINUOUS
 62
         4
100
AcDbTrace
 10
1790.8819776703
 20
-53.5451392792
 30
0.0
 11
1791.2869776703
 21
-56.2451392792
 31
0.0
 12
1790.4769776703
 22
-56.2451392792
 32
0.0
 13
1790.8819776703
 23
-53.5451392792
 33
0.0
  0
SOLID
  5
558
100
AcDbEntity
  8
L1_105
  6
CONTINUOUS
 62
         4
100
AcDbTrace
 10
1790.8819776703
 20
-81.0451392792
 30
0.0
 11
1790.4769776703
 21
-78.3451392792
 31
0.0
 12
1791.2869776703
 22
-78.3451392792
 32
0.0
 13
1790.8819776703
 23
-81.0451392792
 33
0.0
  0
TEXT
  5
55A
100
AcDbEntity
  8
L1_105
  6
CONTINUOUS
 62
         4
100
AcDbText
 10
1788.8569776703
 20
-75.3951392792
 30
0.0
 40
2.7
  1
崷26.5
 50
90.0
  7
BOX
100
AcDbText
  0
ENDBLK
  5
55B
100
AcDbEntity
  8
0
  6
CONTINUOUS
100
AcDbBlockEnd
  0
BLOCK
  5
562
100
AcDbEntity
  8
0
100
AcDbBlockBegin
  2
*D34
 70
        65
 10
0.0
 20
0.0
 30
0.0
  3
*D34
  1

  0
POINT
  5
564
100
AcDbEntity
  8
DEFPOINTS
  6
CONTINUOUS
 62
         0
100
AcDbPoint
 10
1744.7667890879
 20
-45.9125586858
 30
0.0
  0
POINT
  5
565
100
AcDbEntity
  8
DEFPOINTS
  6
CONTINUOUS
 62
         0
100
AcDbPoint
 10
1745.707111365
 20
-47.6777198725
 30
0.0
  0
LINE
  5
566
100
AcDbEntity
  8
L1_105
  6
CONTINUOUS
 62
         4
100
AcDbLine
 10
1745.707111365
 20
-47.6777198725
 30
0.0
 11
1751.4724091612
 21
-58.500264597
 31
0.0
  0
SOLID
  5
567
100
AcDbEntity
  8
L1_105
  6
CONTINUOUS
 62
         4
100
AcDbTrace
 10
1745.707111365
 20
-47.6777198725
 30
0.0
 11
1747.3339915795
 21
-49.8702722135
 31
0.0
 12
1746.6191012988
 22
-50.2511027357
 32
0.0
 13
1745.707111365
 23
-47.6777198725
 33
0.0
  0
LINE
  5
568
100
AcDbEntity
  8
L1_105
  6
CONTINUOUS
 62
         4
100
AcDbLine
 10
1744.7667890879
 20
-45.9125586858
 30
0.0
 11
1742.2279189396
 21
-41.1466234817
 31
0.0
  0
SOLID
  5
569
100
AcDbEntity
  8
L1_105
  6
CONTINUOUS
 62
         4
100
AcDbTrace
 10
1744.7667890879
 20
-45.9125586858
 30
0.0
 11
1743.1399088734
 21
-43.7200063449
 31
0.0
 12
1743.854799154
 22
-43.3391758226
 32
0.0
 13
1744.7667890879
 23
-45.9125586858
 33
0.0
  0
LINE
  5
56A
100
AcDbEntity
  8
L1_105
  6
CONTINUOUS
 62
         4
100
AcDbLine
 10
1744.7667890879
 20
-45.9125586858
 30
0.0
 11
1745.707111365
 21
-47.6777198725
 31
0.0
  0
TEXT
  5
56C
100
AcDbEntity
  8
L1_105
  6
CONTINUOUS
 62
         4
100
AcDbText
 10
1747.8065485808
 20
-49.0708744894
 30
0.0
 40
2.7
  1
崷2
 50
298.0447568953
  7
BOX
100
AcDbText
  0
ENDBLK
  5
56D
100
AcDbEntity
  8
0
  6
CONTINUOUS
100
AcDbBlockEnd
  0
BLOCK
  5
56F
100
AcDbEntity
  8
0
100
AcDbBlockBegin
  2
*D35
 70
        65
 10
0.0
 20
0.0
 30
0.0
  3
*D35
  1

  0
POINT
  5
571
100
AcDbEntity
  8
DEFPOINTS
  6
CONTINUOUS
 62
         0
100
AcDbPoint
 10
1766.0149642643
 20
-57.1065943364
 30
0.0
  0
POINT
  5
572
100
AcDbEntity
  8
DEFPOINTS
  6
CONTINUOUS
 62
         0
100
AcDbPoint
 10
1767.0589361886
 20
-58.1836842219
 30
0.0
  0
LINE
  5
573
100
AcDbEntity
  8
L1_105
  6
CONTINUOUS
 62
         4
100
AcDbLine
 10
1767.0589361886
 20
-58.1836842219
 30
0.0
 11
1779.7275936345
 21
-71.2542299727
 31
0.0
  0
SOLID
  5
574
100
AcDbEntity
  8
L1_105
  6
CONTINUOUS
 62
         4
100
AcDbTrace
 10
1767.0589361886
 20
-58.1836842219
 30
0.0
 11
1769.2288999212
 21
-59.8405735963
 31
0.0
 12
1768.647271383
 22
-60.4043184354
 32
0.0
 13
1767.0589361886
 23
-58.1836842219
 33
0.0
  0
LINE
  5
575
100
AcDbEntity
  8
L1_105
  6
CONTINUOUS
 62
         4
100
AcDbLine
 10
1766.0149642643
 20
-57.1065943364
 30
0.0
 11
1762.2566653372
 21
-53.2290707486
 31
0.0
  0
SOLID
  5
576
100
AcDbEntity
  8
L1_105
  6
CONTINUOUS
 62
         4
100
AcDbTrace
 10
1766.0149642643
 20
-57.1065943364
 30
0.0
 11
1763.8450005317
 21
-55.4497049621
 31
0.0
 12
1764.4266290698
 22
-54.885960123
 32
0.0
 13
1766.0149642643
 23
-57.1065943364
 33
0.0
  0
LINE
  5
577
100
AcDbEntity
  8
L1_105
  6
CONTINUOUS
 62
         4
100
AcDbLine
 10
1766.0149642643
 20
-57.1065943364
 30
0.0
 11
1767.0589361886
 21
-58.1836842219
 31
0.0
  0
TEXT
  5
579
100
AcDbEntity
  8
L1_105
  6
CONTINUOUS
 62
         4
100
AcDbText
 10
1769.965321727
 20
-59.3606098977
 30
0.0
 40
2.7
  1
崷1.5
 50
314.1054644321
  7
BOX
100
AcDbText
  0
ENDBLK
  5
57A
100
AcDbEntity
  8
0
  6
CONTINUOUS
100
AcDbBlockEnd
  0
BLOCK
  5
57C
100
AcDbEntity
  8
0
100
AcDbBlockBegin
  2
*D36
 70
        65
 10
0.0
 20
0.0
 30
0.0
  3
*D36
  1

  0
POINT
  5
57E
100
AcDbEntity
  8
DEFPOINTS
  6
CONTINUOUS
 62
         0
100
AcDbPoint
 10
1794.5987243779
 20
-53.6534378763
 30
0.0
  0
POINT
  5
57F
100
AcDbEntity
  8
DEFPOINTS
  6
CONTINUOUS
 62
         0
100
AcDbPoint
 10
1795.375176075
 20
-54.9368406821
 30
0.0
  0
LINE
  5
580
100
AcDbEntity
  8
L1_105
  6
CONTINUOUS
 62
         4
100
AcDbLine
 10
1795.375176075
 20
-54.9368406821
 30
0.0
 11
1804.3437874032
 21
-69.7611252901
 31
0.0
  0
SOLID
  5
581
100
AcDbEntity
  8
L1_105
  6
CONTINUOUS
 62
         4
100
AcDbTrace
 10
1795.375176075
 20
-54.9368406821
 30
0.0
 11
1797.1193078875
 21
-57.0373237743
 31
0.0
 12
1796.4262703723
 22
-57.4566076908
 32
0.0
 13
1795.375176075
 23
-54.9368406821
 33
0.0
  0
LINE
  5
582
100
AcDbEntity
  8
L1_105
  6
CONTINUOUS
 62
         4
100
AcDbLine
 10
1794.5987243779
 20
-53.6534378763
 30
0.0
 11
1791.8034982681
 21
-49.0331877753
 31
0.0
  0
SOLID
  5
583
100
AcDbEntity
  8
L1_105
  6
CONTINUOUS
 62
         4
100
AcDbTrace
 10
1794.5987243779
 20
-53.6534378763
 30
0.0
 11
1792.8545925654
 21
-51.552954784
 31
0.0
 12
1793.5476300806
 22
-51.1336708676
 32
0.0
 13
1794.5987243779
 23
-53.6534378763
 33
0.0
  0
LINE
  5
584
100
AcDbEntity
  8
L1_105
  6
CONTINUOUS
 62
         4
100
AcDbLine
 10
1794.5987243779
 20
-53.6534378763
 30
0.0
 11
1795.375176075
 21
-54.9368406821
 31
0.0
  0
TEXT
  5
586
100
AcDbEntity
  8
L1_105
  6
CONTINUOUS
 62
         4
100
AcDbText
 10
1797.4292752744
 20
-55.9131641231
 30
0.0
 40
2.7
  1
崷1.5
 50
301.1737094167
  7
BOX
100
AcDbText
  0
ENDBLK
  5
587
100
AcDbEntity
  8
0
  6
CONTINUOUS
100
AcDbBlockEnd
  0
BLOCK
  5
589
100
AcDbEntity
  8
0
100
AcDbBlockBegin
  2
*D37
 70
        65
 10
0.0
 20
0.0
 30
0.0
  3
*D37
  1

  0
POINT
  5
58B
100
AcDbEntity
  8
DEFPOINTS
  6
CONTINUOUS
 62
         0
100
AcDbPoint
 10
1721.302057461
 20
-46.2041673773
 30
0.0
  0
POINT
  5
58C
100
AcDbEntity
  8
DEFPOINTS
  6
CONTINUOUS
 62
         0
100
AcDbPoint
 10
1721.302057461
 20
-57.0451392792
 30
0.0
  0
POINT
  5
58D
100
AcDbEntity
  8
DEFPOINTS
  6
CONTINUOUS
 62
         0
100
AcDbPoint
 10
1722.302057461
 20
-57.0451392792
 30
0.0
  0
LINE
  5
58E
100
AcDbEntity
  8
L1_105
  6
CONTINUOUS
 62
         4
100
AcDbLine
 10
1721.302057461
 20
-55.6951392792
 30
0.0
 11
1721.302057461
 21
-45.5291673773
 31
0.0
  0
LINE
  5
58F
100
AcDbEntity
  8
L1_105
  6
CONTINUOUS
 62
         4
100
AcDbLine
 10
1722.302057461
 20
-55.6951392792
 30
0.0
 11
1722.302057461
 21
-45.5291673773
 31
0.0
  0
LINE
  5
590
100
AcDbEntity
  8
L1_105
  6
CONTINUOUS
 62
         4
100
AcDbLine
 10
1721.302057461
 20
-46.2041673773
 30
0.0
 11
1715.902057461
 21
-46.2041673773
 31
0.0
  0
SOLID
  5
591
100
AcDbEntity
  8
L1_105
  6
CONTINUOUS
 62
         4
100
AcDbTrace
 10
1721.302057461
 20
-46.2041673773
 30
0.0
 11
1718.602057461
 21
-46.6091673773
 31
0.0
 12
1718.602057461
 22
-45.7991673773
 32
0.0
 13
1721.302057461
 23
-46.2041673773
 33
0.0
  0
LINE
  5
592
100
AcDbEntity
  8
L1_105
  6
CONTINUOUS
 62
         4
100
AcDbLine
 10
1722.302057461
 20
-46.2041673773
 30
0.0
 11
1727.702057461
 21
-46.2041673773
 31
0.0
  0
SOLID
  5
593
100
AcDbEntity
  8
L1_105
  6
CONTINUOUS
 62
         4
100
AcDbTrace
 10
1722.302057461
 20
-46.2041673773
 30
0.0
 11
1725.002057461
 21
-45.7991673773
 31
0.0
 12
1725.002057461
 22
-46.6091673773
 32
0.0
 13
1722.302057461
 23
-46.2041673773
 33
0.0
  0
LINE
  5
594
100
AcDbEntity
  8
L1_105
  6
CONTINUOUS
 62
         4
100
AcDbLine
 10
1721.302057461
 20
-46.2041673773
 30
0.0
 11
1722.302057461
 21
-46.2041673773
 31
0.0
  0
TEXT
  5
596
100
AcDbEntity
  8
L1_105
  6
CONTINUOUS
 62
         4
100
AcDbText
 10
1720.452057461
 20
-44.1791673773
 30
0.0
 40
2.7
  1
1
  7
BOX
100
AcDbText
  0
ENDBLK
  5
597
100
AcDbEntity
  8
0
  6
CONTINUOUS
100
AcDbBlockEnd
  0
BLOCK
  5
599
100
AcDbEntity
  8
0
100
AcDbBlockBegin
  2
*D38
 70
        65
 10
0.0
 20
0.0
 30
0.0
  3
*D38
  1

  0
POINT
  5
59B
100
AcDbEntity
  8
DEFPOINTS
  6
CONTINUOUS
 62
         0
100
AcDbPoint
 10
1650.7518827727
 20
-67.9846624674
 30
0.0
  0
POINT
  5
59C
100
AcDbEntity
  8
DEFPOINTS
  6
CONTINUOUS
 62
         0
100
AcDbPoint
 10
1655.3098291406
 20
-66.605616091
 30
0.0
  0
LINE
  5
59D
100
AcDbEntity
  8
L1_105
  6
CONTINUOUS
 62
         4
100
AcDbLine
 10
1655.3098291406
 20
-66.605616091
 30
0.0
 11
1675.658715567
 21
-60.4488832503
 31
0.0
  0
SOLID
  5
59E
100
AcDbEntity
  8
L1_105
  6
CONTINUOUS
 62
         4
100
AcDbTrace
 10
1655.3098291406
 20
-66.605616091
 30
0.0
 11
1657.7768474964
 21
-65.436066848
 31
0.0
 12
1658.0114185936
 22
-66.2113580194
 32
0.0
 13
1655.3098291406
 23
-66.605616091
 33
0.0
  0
LINE
  5
59F
100
AcDbEntity
  8
L1_105
  6
CONTINUOUS
 62
         4
100
AcDbLine
 10
1650.7518827727
 20
-67.9846624674
 30
0.0
 11
1645.5832749638
 21
-69.548469782
 31
0.0
  0
SOLID
  5
5A0
100
AcDbEntity
  8
L1_105
  6
CONTINUOUS
 62
         4
100
AcDbTrace
 10
1650.7518827727
 20
-67.9846624674
 30
0.0
 11
1648.2848644169
 21
-69.1542117103
 31
0.0
 12
1648.0502933197
 22
-68.378920539
 32
0.0
 13
1650.7518827727
 23
-67.9846624674
 33
0.0
  0
LINE
  5
5A1
100
AcDbEntity
  8
L1_105
  6
CONTINUOUS
 62
         4
100
AcDbLine
 10
1650.7518827727
 20
-67.9846624674
 30
0.0
 11
1655.3098291406
 21
-66.605616091
 31
0.0
  0
TEXT
  5
5A3
100
AcDbEntity
  8
L1_105
  6
CONTINUOUS
 62
         4
100
AcDbText
 10
1658.6698740953
 20
-64.2254171697
 30
0.0
 40
2.7
  1
崷4.76
 50
16.8336477968
  7
BOX
100
AcDbText
  0
ENDBLK
  5
5A4
100
AcDbEntity
  8
0
  6
CONTINUOUS
100
AcDbBlockEnd
  0
BLOCK
  5
5A6
100
AcDbEntity
  8
0
100
AcDbBlockBegin
  2
*D39
 70
        65
 10
0.0
 20
0.0
 30
0.0
  3
*D39
  1

  0
POINT
  5
5A8
100
AcDbEntity
  8
DEFPOINTS
  6
CONTINUOUS
 62
         0
100
AcDbPoint
 10
1558.0500323958
 20
-64.2951392792
 30
0.0
  0
POINT
  5
5A9
100
AcDbEntity
  8
DEFPOINTS
  6
CONTINUOUS
 62
         0
100
AcDbPoint
 10
1566.4823058991
 20
-64.2951392792
 30
0.0
  0
POINT
  5
5AA
100
AcDbEntity
  8
DEFPOINTS
  6
CONTINUOUS
 62
         0
100
AcDbPoint
 10
1566.4823058991
 20
-70.2951392792
 30
0.0
  0
LINE
  5
5AB
100
AcDbEntity
  8
L1_105
  6
CONTINUOUS
 62
         4
100
AcDbLine
 10
1565.1323058991
 20
-64.2951392792
 30
0.0
 11
1557.3750323958
 21
-64.2951392792
 31
0.0
  0
LINE
  5
5AC
100
AcDbEntity
  8
L1_105
  6
CONTINUOUS
 62
         4
100
AcDbLine
 10
1565.1323058991
 20
-70.2951392792
 30
0.0
 11
1557.3750323958
 21
-70.2951392792
 31
0.0
  0
LINE
  5
5AD
100
AcDbEntity
  8
L1_105
  6
CONTINUOUS
 62
         4
100
AcDbLine
 10
1558.0500323958
 20
-64.2951392792
 30
0.0
 11
1558.0500323958
 21
-58.8951392792
 31
0.0
  0
SOLID
  5
5AE
100
AcDbEntity
  8
L1_105
  6
CONTINUOUS
 62
         4
100
AcDbTrace
 10
1558.0500323958
 20
-64.2951392792
 30
0.0
 11
1557.6450323958
 21
-61.5951392792
 31
0.0
 12
1558.4550323958
 22
-61.5951392792
 32
0.0
 13
1558.0500323958
 23
-64.2951392792
 33
0.0
  0
LINE
  5
5AF
100
AcDbEntity
  8
L1_105
  6
CONTINUOUS
 62
         4
100
AcDbLine
 10
1558.0500323958
 20
-70.2951392792
 30
0.0
 11
1558.0500323958
 21
-75.6951392792
 31
0.0
  0
SOLID
  5
5B0
100
AcDbEntity
  8
L1_105
  6
CONTINUOUS
 62
         4
100
AcDbTrace
 10
1558.0500323958
 20
-70.2951392792
 30
0.0
 11
1558.4550323958
 21
-72.9951392792
 31
0.0
 12
1557.6450323958
 22
-72.9951392792
 32
0.0
 13
1558.0500323958
 23
-70.2951392792
 33
0.0
  0
LINE
  5
5B1
100
AcDbEntity
  8
L1_105
  6
CONTINUOUS
 62
         4
100
AcDbLine
 10
1558.0500323958
 20
-64.2951392792
 30
0.0
 11
1558.0500323958
 21
-70.2951392792
 31
0.0
  0
TEXT
  5
5B3
100
AcDbEntity
  8
L1_105
  6
CONTINUOUS
 62
         4
100
AcDbText
 10
1556.0250323958
 20
-74.0451392792
 30
0.0
 40
2.7
  1
M6xP1
 50
90.0
  7
BOX
100
AcDbText
  0
ENDBLK
  5
5B4
100
AcDbEntity
  8
0
  6
CONTINUOUS
100
AcDbBlockEnd
  0
BLOCK
  5
5B6
100
AcDbEntity
  8
0
100
AcDbBlockBegin
  2
*D40
 70
        65
 10
0.0
 20
0.0
 30
0.0
  3
*D40
  1

  0
POINT
  5
5B8
100
AcDbEntity
  8
DEFPOINTS
  6
CONTINUOUS
 62
         0
100
AcDbPoint
 10
1617.7323058991
 20
-80.4396216051
 30
0.0
  0
POINT
  5
5B9
100
AcDbEntity
  8
DEFPOINTS
  6
CONTINUOUS
 62
         0
100
AcDbPoint
 10
1617.7323058991
 20
-73.2951392792
 30
0.0
  0
POINT
  5
5BA
100
AcDbEntity
  8
DEFPOINTS
  6
CONTINUOUS
 62
         0
100
AcDbPoint
 10
1612.2323058991
 20
-73.2951392792
 30
0.0
  0
LINE
  5
5BB
100
AcDbEntity
  8
L1_105
  6
CONTINUOUS
 62
         4
100
AcDbLine
 10
1617.7323058991
 20
-74.6451392792
 30
0.0
 11
1617.7323058991
 21
-81.1146216051
 31
0.0
  0
LINE
  5
5BC
100
AcDbEntity
  8
L1_105
  6
CONTINUOUS
 62
         4
100
AcDbLine
 10
1612.2323058991
 20
-74.6451392792
 30
0.0
 11
1612.2323058991
 21
-81.1146216051
 31
0.0
  0
LINE
  5
5BD
100
AcDbEntity
  8
L1_105
  6
CONTINUOUS
 62
         4
100
AcDbLine
 10
1617.7323058991
 20
-80.4396216051
 30
0.0
 11
1623.1323058991
 21
-80.4396216051
 31
0.0
  0
SOLID
  5
5BE
100
AcDbEntity
  8
L1_105
  6
CONTINUOUS
 62
         4
100
AcDbTrace
 10
1617.7323058991
 20
-80.4396216051
 30
0.0
 11
1620.4323058991
 21
-80.0346216051
 31
0.0
 12
1620.4323058991
 22
-80.8446216051
 32
0.0
 13
1617.7323058991
 23
-80.4396216051
 33
0.0
  0
LINE
  5
5BF
100
AcDbEntity
  8
L1_105
  6
CONTINUOUS
 62
         4
100
AcDbLine
 10
1612.2323058991
 20
-80.4396216051
 30
0.0
 11
1606.8323058991
 21
-80.4396216051
 31
0.0
  0
SOLID
  5
5C0
100
AcDbEntity
  8
L1_105
  6
CONTINUOUS
 62
         4
100
AcDbTrace
 10
1612.2323058991
 20
-80.4396216051
 30
0.0
 11
1609.5323058991
 21
-80.8446216051
 31
0.0
 12
1609.5323058991
 22
-80.0346216051
 32
0.0
 13
1612.2323058991
 23
-80.4396216051
 33
0.0
  0
LINE
  5
5C1
100
AcDbEntity
  8
L1_105
  6
CONTINUOUS
 62
         4
100
AcDbLine
 10
1617.7323058991
 20
-80.4396216051
 30
0.0
 11
1612.2323058991
 21
-80.4396216051
 31
0.0
  0
TEXT
  5
5C3
100
AcDbEntity
  8
L1_105
  6
CONTINUOUS
 62
         4
100
AcDbText
 10
1610.9323058991
 20
-78.4146216051
 30
0.0
 40
2.7
  1
5.5
  7
BOX
100
AcDbText
  0
ENDBLK
  5
5C4
100
AcDbEntity
  8
0
  6
CONTINUOUS
100
AcDbBlockEnd
  0
BLOCK
  5
5C6
100
AcDbEntity
  8
0
100
AcDbBlockBegin
  2
*D41
 70
        65
 10
0.0
 20
0.0
 30
0.0
  3
*D41
  1

  0
POINT
  5
5C8
100
AcDbEntity
  8
DEFPOINTS
  6
CONTINUOUS
 62
         0
100
AcDbPoint
 10
1595.3012659414
 20
48.8319767067
 30
0.0
  0
POINT
  5
5C9
100
AcDbEntity
  8
DEFPOINTS
  6
CONTINUOUS
 62
         0
100
AcDbPoint
 10
1595.3012659414
 20
54.5872179209
 30
0.0
  0
POINT
  5
5CA
100
AcDbEntity
  8
DEFPOINTS
  6
CONTINUOUS
 62
         0
100
AcDbPoint
 10
1600.3012659414
 20
54.9872179209
 30
0.0
  0
LINE
  5
5CB
100
AcDbEntity
  8
L1_105
  6
CONTINUOUS
 62
         4
100
AcDbLine
 10
1595.3012659414
 20
53.2372179209
 30
0.0
 11
1595.3012659414
 21
48.1569767067
 31
0.0
  0
LINE
  5
5CC
100
AcDbEntity
  8
L1_105
  6
CONTINUOUS
 62
         4
100
AcDbLine
 10
1600.3012659414
 20
53.6372179209
 30
0.0
 11
1600.3012659414
 21
48.1569767067
 31
0.0
  0
LINE
  5
5CD
100
AcDbEntity
  8
L1_105
  6
CONTINUOUS
 62
         4
100
AcDbLine
 10
1595.3012659414
 20
48.8319767067
 30
0.0
 11
1589.9012659414
 21
48.8319767067
 31
0.0
  0
SOLID
  5
5CE
100
AcDbEntity
  8
L1_105
  6
CONTINUOUS
 62
         4
100
AcDbTrace
 10
1595.3012659414
 20
48.8319767067
 30
0.0
 11
1592.6012659414
 21
48.4269767067
 31
0.0
 12
1592.6012659414
 22
49.2369767067
 32
0.0
 13
1595.3012659414
 23
48.8319767067
 33
0.0
  0
LINE
  5
5CF
100
AcDbEntity
  8
L1_105
  6
CONTINUOUS
 62
         4
100
AcDbLine
 10
1600.3012659414
 20
48.8319767067
 30
0.0
 11
1605.7012659414
 21
48.8319767067
 31
0.0
  0
SOLID
  5
5D0
100
AcDbEntity
  8
L1_105
  6
CONTINUOUS
 62
         4
100
AcDbTrace
 10
1600.3012659414
 20
48.8319767067
 30
0.0
 11
1603.0012659414
 21
49.2369767067
 31
0.0
 12
1603.0012659414
 22
48.4269767067
 32
0.0
 13
1600.3012659414
 23
48.8319767067
 33
0.0
  0
LINE
  5
5D1
100
AcDbEntity
  8
L1_105
  6
CONTINUOUS
 62
         4
100
AcDbLine
 10
1595.3012659414
 20
48.8319767067
 30
0.0
 11
1600.3012659414
 21
48.8319767067
 31
0.0
  0
TEXT
  5
5D3
100
AcDbEntity
  8
L1_105
  6
CONTINUOUS
 62
         4
100
AcDbText
 10
1596.5474069887
 20
50.8569767067
 30
0.0
 40
2.7
  1
5
  7
BOX
100
AcDbText
  0
ENDBLK
  5
5D4
100
AcDbEntity
  8
0
  6
CONTINUOUS
100
AcDbBlockEnd
  0
BLOCK
  5
637
100
AcDbEntity
  8
0
100
AcDbBlockBegin
  2
*X42
 70
        65
 10
0.0
 20
0.0
 30
0.0
  3
*X42
  1

  0
LINE
  5
638
100
AcDbEntity
  8
L1_105
  6
CONTINUOUS
 62
         4
100
AcDbLine
 10
1499.1258662548
 20
-33.4433347407
 30
0.0
 11
1502.6258662548
 21
-29.9433347407
 31
0.0
  0
LINE
  5
639
100
AcDbEntity
  8
L1_105
  6
CONTINUOUS
 62
         4
100
AcDbLine
 10
1494.8832255677
 20
-33.4433347407
 30
0.0
 11
1498.3832255677
 21
-29.9433347407
 31
0.0
  0
LINE
  5
63A
100
AcDbEntity
  8
L1_105
  6
CONTINUOUS
 62
         4
100
AcDbLine
 10
1490.6405848806
 20
-33.4433347407
 30
0.0
 11
1494.1405848806
 21
-29.9433347407
 31
0.0
  0
LINE
  5
63B
100
AcDbEntity
  8
L1_105
  6
CONTINUOUS
 62
         4
100
AcDbLine
 10
1487.1333403763
 20
-32.7079385579
 30
0.0
 11
1489.8979441935
 21
-29.9433347407
 31
0.0
  0
LINE
  5
63C
100
AcDbEntity
  8
L1_105
  6
CONTINUOUS
 62
         4
100
AcDbLine
 10
1482.1553035064
 20
-33.4433347407
 30
0.0
 11
1485.6553035064
 21
-29.9433347407
 31
0.0
  0
LINE
  5
63D
100
AcDbEntity
  8
L1_105
  6
CONTINUOUS
 62
         4
100
AcDbLine
 10
1477.9126628192
 20
-33.4433347407
 30
0.0
 11
1480.9126628192
 21
-30.4433347407
 31
0.0
  0
LINE
  5
63E
100
AcDbEntity
  8
L1_105
  6
CONTINUOUS
 62
         4
100
AcDbLine
 10
1473.6700221321
 20
-33.4433347407
 30
0.0
 11
1478.1700221321
 21
-28.9433347407
 31
0.0
  0
LINE
  5
63F
100
AcDbEntity
  8
L1_105
  6
CONTINUOUS
 62
         4
100
AcDbLine
 10
1469.427381445
 20
-33.4433347407
 30
0.0
 11
1473.927381445
 21
-28.9433347407
 31
0.0
  0
LINE
  5
640
100
AcDbEntity
  8
L1_105
  6
CONTINUOUS
 62
         4
100
AcDbLine
 10
1465.1847407579
 20
-33.4433347407
 30
0.0
 11
1469.6847407579
 21
-28.9433347407
 31
0.0
  0
LINE
  5
641
100
AcDbEntity
  8
L1_105
  6
CONTINUOUS
 62
         4
100
AcDbLine
 10
1502.6847407579
 20
4.0566652593
 30
0.0
 11
1504.2149650181
 21
5.5868895196
 31
0.0
  0
LINE
  5
642
100
AcDbEntity
  8
L1_105
  6
CONTINUOUS
 62
         4
100
AcDbLine
 10
1460.9421000708
 20
-33.4433347407
 30
0.0
 11
1465.4421000708
 21
-28.9433347407
 31
0.0
  0
LINE
  5
643
100
AcDbEntity
  8
L1_105
  6
CONTINUOUS
 62
         4
100
AcDbLine
 10
1498.4421000708
 20
4.0566652593
 30
0.0
 11
1501.5252386016
 21
7.1398037902
 31
0.0
  0
LINE
  5
644
100
AcDbEntity
  8
L1_105
  6
CONTINUOUS
 62
         4
100
AcDbLine
 10
1456.6994593836
 20
-33.4433347407
 30
0.0
 11
1461.1994593836
 21
-28.9433347407
 31
0.0
  0
LINE
  5
645
100
AcDbEntity
  8
L1_105
  6
CONTINUOUS
 62
         4
100
AcDbLine
 10
1494.1994593836
 20
4.0566652593
 30
0.0
 11
1497.6994593836
 21
7.5566652593
 31
0.0
  0
LINE
  5
646
100
AcDbEntity
  8
L1_105
  6
CONTINUOUS
 62
         4
100
AcDbLine
 10
1450.4568186965
 20
-35.4433347407
 30
0.0
 11
1452.0622996598
 21
-33.8378537774
 31
0.0
  0
LINE
  5
647
100
AcDbEntity
  8
L1_105
  6
CONTINUOUS
 62
         4
100
AcDbLine
 10
1452.6568186965
 20
-33.2433347407
 30
0.0
 11
1456.9568186965
 21
-28.9433347407
 31
0.0
  0
LINE
  5
648
100
AcDbEntity
  8
L1_105
  6
CONTINUOUS
 62
         4
100
AcDbLine
 10
1489.9568186965
 20
4.0566652593
 30
0.0
 11
1493.4568186965
 21
7.5566652593
 31
0.0
  0
LINE
  5
649
100
AcDbEntity
  8
L1_105
  6
CONTINUOUS
 62
         4
100
AcDbLine
 10
1446.2141780094
 20
-35.4433347407
 30
0.0
 11
1452.7141780094
 21
-28.9433347407
 31
0.0
  0
LINE
  5
64A
100
AcDbEntity
  8
L1_105
  6
CONTINUOUS
 62
         4
100
AcDbLine
 10
1485.7141780094
 20
4.0566652593
 30
0.0
 11
1489.2141780094
 21
7.5566652593
 31
0.0
  0
LINE
  5
64B
100
AcDbEntity
  8
L1_105
  6
CONTINUOUS
 62
         4
100
AcDbLine
 10
1442.6333403763
 20
-34.7815316867
 30
0.0
 11
1448.4715373223
 21
-28.9433347407
 31
0.0
  0
LINE
  5
64C
100
AcDbEntity
  8
L1_105
  6
CONTINUOUS
 62
         4
100
AcDbLine
 10
1481.9715373223
 20
4.5566652593
 30
0.0
 11
1484.9715373223
 21
7.5566652593
 31
0.0
  0
LINE
  5
64D
100
AcDbEntity
  8
L1_105
  6
CONTINUOUS
 62
         4
100
AcDbLine
 10
1437.7288966352
 20
-35.4433347407
 30
0.0
 11
1440.6333403763
 21
-32.5388909996
 31
0.0
  0
LINE
  5
64E
100
AcDbEntity
  8
L1_105
  6
CONTINUOUS
 62
         4
100
AcDbLine
 10
1442.6333403763
 20
-30.5388909996
 30
0.0
 11
1443.7288966352
 21
-29.4433347407
 31
0.0
  0
LINE
  5
64F
100
AcDbEntity
  8
L1_105
  6
CONTINUOUS
 62
         4
100
AcDbLine
 10
1444.1333403763
 20
-29.0388909996
 30
0.0
 11
1444.2288966352
 21
-28.9433347407
 31
0.0
  0
LINE
  5
650
100
AcDbEntity
  8
L1_105
  6
CONTINUOUS
 62
         4
100
AcDbLine
 10
1480.3382741959
 20
7.16604282
 30
0.0
 11
1480.7288966352
 21
7.5566652593
 31
0.0
  0
LINE
  5
651
100
AcDbEntity
  8
L1_105
  6
CONTINUOUS
 62
         4
100
AcDbLine
 10
1433.486255948
 20
-35.4433347407
 30
0.0
 11
1439.486255948
 21
-29.4433347407
 31
0.0
  0
LINE
  5
652
100
AcDbEntity
  8
L1_105
  6
CONTINUOUS
 62
         4
100
AcDbLine
 10
1429.2436152609
 20
-35.4433347407
 30
0.0
 11
1439.1333403763
 21
-25.5536096253
 31
0.0
  0
LINE
  5
653
100
AcDbEntity
  8
L1_105
  6
CONTINUOUS
 62
         4
100
AcDbLine
 10
1425.0009745738
 20
-35.4433347407
 30
0.0
 11
1439.1333403763
 21
-21.3109689382
 31
0.0
  0
LINE
  5
654
100
AcDbEntity
  8
L1_105
  6
CONTINUOUS
 62
         4
100
AcDbLine
 10
1420.783994021
 20
-35.4176746064
 30
0.0
 11
1439.1333403763
 21
-17.0683282511
 31
0.0
  0
LINE
  5
655
100
AcDbEntity
  8
L1_105
  6
CONTINUOUS
 62
         4
100
AcDbLine
 10
1419.1033403763
 20
-32.855687564
 30
0.0
 11
1436.5156931996
 21
-15.4433347407
 31
0.0
  0
LINE
  5
656
100
AcDbEntity
  8
L1_105
  6
CONTINUOUS
 62
         4
100
AcDbLine
 10
1455.0156931996
 20
3.0566652593
 30
0.0
 11
1455.7383403763
 21
3.779312436
 31
0.0
  0
LINE
  5
657
100
AcDbEntity
  8
L1_105
  6
CONTINUOUS
 62
         4
100
AcDbLine
 10
1419.1033403763
 20
-28.6130468769
 30
0.0
 11
1432.2730525124
 21
-15.4433347407
 31
0.0
  0
LINE
  5
658
100
AcDbEntity
  8
L1_105
  6
CONTINUOUS
 62
         4
100
AcDbLine
 10
1437.2730525124
 20
-10.4433347407
 30
0.0
 11
1439.1333403763
 21
-8.5830468769
 31
0.0
  0
LINE
  5
659
100
AcDbEntity
  8
L1_105
  6
CONTINUOUS
 62
         4
100
AcDbLine
 10
1450.7730525124
 20
3.0566652593
 30
0.0
 11
1455.2730525124
 21
7.5566652593
 31
0.0
  0
LINE
  5
65A
100
AcDbEntity
  8
L1_105
  6
CONTINUOUS
 62
         4
100
AcDbLine
 10
1419.1033403763
 20
-24.3704061897
 30
0.0
 11
1428.0304118253
 21
-15.4433347407
 31
0.0
  0
LINE
  5
65B
100
AcDbEntity
  8
L1_105
  6
CONTINUOUS
 62
         4
100
AcDbLine
 10
1433.0304118253
 20
-10.4433347407
 30
0.0
 11
1439.1333403763
 21
-4.3404061897
 31
0.0
  0
LINE
  5
65C
100
AcDbEntity
  8
L1_105
  6
CONTINUOUS
 62
         4
100
AcDbLine
 10
1446.5304118253
 20
3.0566652593
 30
0.0
 11
1452.1333403763
 21
8.6595938103
 31
0.0
  0
LINE
  5
65D
100
AcDbEntity
  8
L1_105
  6
CONTINUOUS
 62
         4
100
AcDbLine
 10
1419.1033403763
 20
-20.1277655026
 30
0.0
 11
1424.0060133253
 21
-15.2250925535
 31
0.0
  0
LINE
  5
65E
100
AcDbEntity
  8
L1_105
  6
CONTINUOUS
 62
         4
100
AcDbLine
 10
1428.7877711382
 20
-10.4433347407
 30
0.0
 11
1439.1333403763
 21
-0.0977655026
 31
0.0
  0
LINE
  5
65F
100
AcDbEntity
  8
L1_105
  6
CONTINUOUS
 62
         4
100
AcDbLine
 10
1442.7877711382
 20
3.5566652593
 30
0.0
 11
1448.7877711382
 21
9.5566652593
 31
0.0
  0
LINE
  5
660
100
AcDbEntity
  8
L1_105
  6
CONTINUOUS
 62
         4
100
AcDbLine
 10
1419.1033403763
 20
-15.8851248155
 30
0.0
 11
1423.5676900078
 21
-11.420775184
 31
0.0
  0
LINE
  5
661
100
AcDbEntity
  8
L1_105
  6
CONTINUOUS
 62
         4
100
AcDbLine
 10
1424.5451304511
 20
-10.4433347407
 30
0.0
 11
1444.5451304511
 21
9.5566652593
 31
0.0
  0
LINE
  5
662
100
AcDbEntity
  8
L1_105
  6
CONTINUOUS
 62
         4
100
AcDbLine
 10
1419.1033403763
 20
-11.6424841284
 30
0.0
 11
1440.302489764
 21
9.5566652593
 31
0.0
  0
LINE
  5
663
100
AcDbEntity
  8
L1_105
  6
CONTINUOUS
 62
         4
100
AcDbLine
 10
1419.1033403763
 20
-7.3998434413
 30
0.0
 11
1436.0598490768
 21
9.5566652593
 31
0.0
  0
LINE
  5
664
100
AcDbEntity
  8
L1_105
  6
CONTINUOUS
 62
         4
100
AcDbLine
 10
1419.1033403763
 20
-3.1572027542
 30
0.0
 11
1431.8172083897
 21
9.5566652593
 31
0.0
  0
LINE
  5
665
100
AcDbEntity
  8
L1_105
  6
CONTINUOUS
 62
         4
100
AcDbLine
 10
1419.1033403763
 20
1.085437933
 30
0.0
 11
1427.5745677026
 21
9.5566652593
 31
0.0
  0
LINE
  5
666
100
AcDbEntity
  8
L1_105
  6
CONTINUOUS
 62
         4
100
AcDbLine
 10
1419.1033403763
 20
5.3280786201
 30
0.0
 11
1423.3319270155
 21
9.5566652593
 31
0.0
  0
ENDBLK
  5
667
100
AcDbEntity
  8
0
  6
CONTINUOUS
100
AcDbBlockEnd
  0
BLOCK
  5
66B
100
AcDbEntity
  8
0
100
AcDbBlockBegin
  2
*D43
 70
        65
 10
0.0
 20
0.0
 30
0.0
  3
*D43
  1

  0
POINT
  5
66D
100
AcDbEntity
  8
DEFPOINTS
  6
CONTINUOUS
 62
         0
100
AcDbPoint
 10
1505.1333403763
 20
195.1232216464
 30
0.0
  0
POINT
  5
66E
100
AcDbEntity
  8
DEFPOINTS
  6
CONTINUOUS
 62
         0
100
AcDbPoint
 10
1505.1333403763
 20
167.6072914602
 30
0.0
  0
POINT
  5
66F
100
AcDbEntity
  8
DEFPOINTS
  6
CONTINUOUS
 62
         0
100
AcDbPoint
 10
1452.1333403763
 20
171.6846417294
 30
0.0
  0
LINE
  5
670
100
AcDbEntity
  8
L1_105
  6
CONTINUOUS
 62
         4
100
AcDbLine
 10
1505.1333403763
 20
168.9572914602
 30
0.0
 11
1505.1333403763
 21
195.7982216464
 31
0.0
  0
LINE
  5
671
100
AcDbEntity
  8
L1_105
  6
CONTINUOUS
 62
         4
100
AcDbLine
 10
1452.1333403763
 20
173.0346417294
 30
0.0
 11
1452.1333403763
 21
195.7982216464
 31
0.0
  0
LINE
  5
672
100
AcDbEntity
  8
L1_105
  6
CONTINUOUS
 62
         4
100
AcDbLine
 10
1505.1333403763
 20
195.1232216464
 30
0.0
 11
1452.1333403763
 21
195.1232216464
 31
0.0
  0
SOLID
  5
673
100
AcDbEntity
  8
L1_105
  6
CONTINUOUS
 62
         4
100
AcDbTrace
 10
1505.1333403763
 20
195.1232216464
 30
0.0
 11
1502.4333403763
 21
194.7182216464
 31
0.0
 12
1502.4333403763
 22
195.5282216464
 32
0.0
 13
1505.1333403763
 23
195.1232216464
 33
0.0
  0
SOLID
  5
674
100
AcDbEntity
  8
L1_105
  6
CONTINUOUS
 62
         4
100
AcDbTrace
 10
1452.1333403763
 20
195.1232216464
 30
0.0
 11
1454.8333403763
 21
195.5282216464
 31
0.0
 12
1454.8333403763
 22
194.7182216464
 32
0.0
 13
1452.1333403763
 23
195.1232216464
 33
0.0
  0
TEXT
  5
676
100
AcDbEntity
  8
L1_105
  6
CONTINUOUS
 62
         4
100
AcDbText
 10
1472.9187829808
 20
198.2552216464
 30
0.0
 40
2.7
  1
53
  7
BOX
100
AcDbText
  0
ENDBLK
  5
677
100
AcDbEntity
  8
0
  6
CONTINUOUS
100
AcDbBlockEnd
  0
BLOCK
  5
679
100
AcDbEntity
  8
0
100
AcDbBlockBegin
  2
*D44
 70
        65
 10
0.0
 20
0.0
 30
0.0
  3
*D44
  1

  0
POINT
  5
67B
100
AcDbEntity
  8
DEFPOINTS
  6
CONTINUOUS
 62
         0
100
AcDbPoint
 10
1505.1333403763
 20
187.5298379314
 30
0.0
  0
POINT
  5
67C
100
AcDbEntity
  8
DEFPOINTS
  6
CONTINUOUS
 62
         0
100
AcDbPoint
 10
1505.1333403763
 20
167.6072914602
 30
0.0
  0
POINT
  5
67D
100
AcDbEntity
  8
DEFPOINTS
  6
CONTINUOUS
 62
         0
100
AcDbPoint
 10
1484.1333403763
 20
170.6846417294
 30
0.0
  0
LINE
  5
67E
100
AcDbEntity
  8
L1_105
  6
CONTINUOUS
 62
         4
100
AcDbLine
 10
1505.1333403763
 20
168.9572914602
 30
0.0
 11
1505.1333403763
 21
188.2048379314
 31
0.0
  0
LINE
  5
67F
100
AcDbEntity
  8
L1_105
  6
CONTINUOUS
 62
         4
100
AcDbLine
 10
1484.1333403763
 20
172.0346417294
 30
0.0
 11
1484.1333403763
 21
188.2048379314
 31
0.0
  0
LINE
  5
680
100
AcDbEntity
  8
L1_105
  6
CONTINUOUS
 62
         4
100
AcDbLine
 10
1505.1333403763
 20
187.5298379314
 30
0.0
 11
1484.1333403763
 21
187.5298379314
 31
0.0
  0
SOLID
  5
681
100
AcDbEntity
  8
L1_105
  6
CONTINUOUS
 62
         4
100
AcDbTrace
 10
1505.1333403763
 20
187.5298379314
 30
0.0
 11
1502.4333403763
 21
187.1248379314
 31
0.0
 12
1502.4333403763
 22
187.9348379314
 32
0.0
 13
1505.1333403763
 23
187.5298379314
 33
0.0
  0
SOLID
  5
682
100
AcDbEntity
  8
L1_105
  6
CONTINUOUS
 62
         4
100
AcDbTrace
 10
1484.1333403763
 20
187.5298379314
 30
0.0
 11
1486.8333403763
 21
187.9348379314
 31
0.0
 12
1486.8333403763
 22
187.1248379314
 32
0.0
 13
1484.1333403763
 23
187.5298379314
 33
0.0
  0
TEXT
  5
684
100
AcDbEntity
  8
L1_105
  6
CONTINUOUS
 62
         4
100
AcDbText
 10
1487.3707068253
 20
190.6618379314
 30
0.0
 40
2.7
  1
21
  7
BOX
100
AcDbText
  0
ENDBLK
  5
685
100
AcDbEntity
  8
0
  6
CONTINUOUS
100
AcDbBlockEnd
  0
BLOCK
  5
687
100
AcDbEntity
  8
0
100
AcDbBlockBegin
  2
*D45
 70
        65
 10
0.0
 20
0.0
 30
0.0
  3
*D45
  1

  0
POINT
  5
689
100
AcDbEntity
  8
DEFPOINTS
  6
CONTINUOUS
 62
         0
100
AcDbPoint
 10
1484.1333403763
 20
179.4465584929
 30
0.0
  0
POINT
  5
68A
100
AcDbEntity
  8
DEFPOINTS
  6
CONTINUOUS
 62
         0
100
AcDbPoint
 10
1484.1333403763
 20
170.6846417294
 30
0.0
  0
POINT
  5
68B
100
AcDbEntity
  8
DEFPOINTS
  6
CONTINUOUS
 62
         0
100
AcDbPoint
 10
1486.1333403763
 20
170.6846417294
 30
0.0
  0
LINE
  5
68C
100
AcDbEntity
  8
L1_105
  6
CONTINUOUS
 62
         4
100
AcDbLine
 10
1484.1333403763
 20
172.0346417294
 30
0.0
 11
1484.1333403763
 21
180.1215584929
 31
0.0
  0
LINE
  5
68D
100
AcDbEntity
  8
L1_105
  6
CONTINUOUS
 62
         4
100
AcDbLine
 10
1486.1333403763
 20
172.0346417294
 30
0.0
 11
1486.1333403763
 21
180.1215584929
 31
0.0
  0
LINE
  5
68E
100
AcDbEntity
  8
L1_105
  6
CONTINUOUS
 62
         4
100
AcDbLine
 10
1484.1333403763
 20
179.4465584929
 30
0.0
 11
1478.7333403763
 21
179.4465584929
 31
0.0
  0
SOLID
  5
68F
100
AcDbEntity
  8
L1_105
  6
CONTINUOUS
 62
         4
100
AcDbTrace
 10
1484.1333403763
 20
179.4465584929
 30
0.0
 11
1481.4333403763
 21
179.0415584929
 31
0.0
 12
1481.4333403763
 22
179.8515584929
 32
0.0
 13
1484.1333403763
 23
179.4465584929
 33
0.0
  0
LINE
  5
690
100
AcDbEntity
  8
L1_105
  6
CONTINUOUS
 62
         4
100
AcDbLine
 10
1486.1333403763
 20
179.4465584929
 30
0.0
 11
1492.4459675165
 21
179.4465584929
 31
0.0
  0
SOLID
  5
691
100
AcDbEntity
  8
L1_105
  6
CONTINUOUS
 62
         4
100
AcDbTrace
 10
1486.1333403763
 20
179.4465584929
 30
0.0
 11
1488.8333403763
 21
179.8515584929
 31
0.0
 12
1488.8333403763
 22
179.0415584929
 32
0.0
 13
1486.1333403763
 23
179.4465584929
 33
0.0
  0
LINE
  5
692
100
AcDbEntity
  8
L1_105
  6
CONTINUOUS
 62
         4
100
AcDbLine
 10
1484.1333403763
 20
179.4465584929
 30
0.0
 11
1486.1333403763
 21
179.4465584929
 31
0.0
  0
TEXT
  5
694
100
AcDbEntity
  8
L1_105
  6
CONTINUOUS
 62
         4
100
AcDbText
 10
1487.4959675165
 20
182.5785584929
 30
0.0
 40
2.7
  1
2
  7
BOX
100
AcDbText
  0
ENDBLK
  5
695
100
AcDbEntity
  8
0
  6
CONTINUOUS
100
AcDbBlockEnd
  0
BLOCK
  5
697
100
AcDbEntity
  8
0
100
AcDbBlockBegin
  2
*D46
 70
        65
 10
0.0
 20
0.0
 30
0.0
  3
*D46
  1

  0
POINT
  5
699
100
AcDbEntity
  8
DEFPOINTS
  6
CONTINUOUS
 62
         0
100
AcDbPoint
 10
1534.8180281053
 20
169.6846417294
 30
0.0
  0
POINT
  5
69A
100
AcDbEntity
  8
DEFPOINTS
  6
CONTINUOUS
 62
         0
100
AcDbPoint
 10
1486.1333403763
 20
169.6846417294
 30
0.0
  0
POINT
  5
69B
100
AcDbEntity
  8
DEFPOINTS
  6
CONTINUOUS
 62
         0
100
AcDbPoint
 10
1486.1333403763
 20
130.6846417294
 30
0.0
  0
LINE
  5
69C
100
AcDbEntity
  8
L1_105
  6
CONTINUOUS
 62
         4
100
AcDbLine
 10
1487.4833403763
 20
169.6846417294
 30
0.0
 11
1535.4930281053
 21
169.6846417294
 31
0.0
  0
LINE
  5
69D
100
AcDbEntity
  8
L1_105
  6
CONTINUOUS
 62
         4
100
AcDbLine
 10
1487.4833403763
 20
130.6846417294
 30
0.0
 11
1535.4930281053
 21
130.6846417294
 31
0.0
  0
LINE
  5
69E
100
AcDbEntity
  8
L1_105
  6
CONTINUOUS
 62
         4
100
AcDbLine
 10
1534.8180281053
 20
169.6846417294
 30
0.0
 11
1534.8180281053
 21
130.6846417294
 31
0.0
  0
SOLID
  5
69F
100
AcDbEntity
  8
L1_105
  6
CONTINUOUS
 62
         4
100
AcDbTrace
 10
1534.8180281053
 20
169.6846417294
 30
0.0
 11
1535.2230281053
 21
166.9846417294
 31
0.0
 12
1534.4130281053
 22
166.9846417294
 32
0.0
 13
1534.8180281053
 23
169.6846417294
 33
0.0
  0
SOLID
  5
6A0
100
AcDbEntity
  8
L1_105
  6
CONTINUOUS
 62
         4
100
AcDbTrace
 10
1534.8180281053
 20
130.6846417294
 30
0.0
 11
1534.4130281053
 21
133.3846417294
 31
0.0
 12
1535.2230281053
 22
133.3846417294
 32
0.0
 13
1534.8180281053
 23
130.6846417294
 33
0.0
  0
TEXT
  5
6A2
100
AcDbEntity
  8
L1_105
  6
CONTINUOUS
 62
         4
100
AcDbText
 10
1531.6860281053
 20
140.3473538612
 30
0.0
 40
2.7
  1
崷39
 50
90.0
  7
BOX
100
AcDbText
  0
ENDBLK
  5
6A3
100
AcDbEntity
  8
0
  6
CONTINUOUS
100
AcDbBlockEnd
  0
BLOCK
  5
6A5
100
AcDbEntity
  8
0
100
AcDbBlockBegin
  2
*D47
 70
        65
 10
0.0
 20
0.0
 30
0.0
  3
*D47
  1

  0
POINT
  5
6A7
100
AcDbEntity
  8
DEFPOINTS
  6
CONTINUOUS
 62
         0
100
AcDbPoint
 10
1544.0693492817
 20
170.6846417294
 30
0.0
  0
POINT
  5
6A8
100
AcDbEntity
  8
DEFPOINTS
  6
CONTINUOUS
 62
         0
100
AcDbPoint
 10
1499.4012895687
 20
170.6846417294
 30
0.0
  0
POINT
  5
6A9
100
AcDbEntity
  8
DEFPOINTS
  6
CONTINUOUS
 62
         0
100
AcDbPoint
 10
1499.4012895687
 20
129.6846417294
 30
0.0
  0
LINE
  5
6AA
100
AcDbEntity
  8
L1_105
  6
CONTINUOUS
 62
         4
100
AcDbLine
 10
1500.7512895687
 20
170.6846417294
 30
0.0
 11
1544.7443492817
 21
170.6846417294
 31
0.0
  0
LINE
  5
6AB
100
AcDbEntity
  8
L1_105
  6
CONTINUOUS
 62
         4
100
AcDbLine
 10
1500.7512895687
 20
129.6846417294
 30
0.0
 11
1544.7443492817
 21
129.6846417294
 31
0.0
  0
LINE
  5
6AC
100
AcDbEntity
  8
L1_105
  6
CONTINUOUS
 62
         4
100
AcDbLine
 10
1544.0693492817
 20
170.6846417294
 30
0.0
 11
1544.0693492817
 21
129.6846417294
 31
0.0
  0
SOLID
  5
6AD
100
AcDbEntity
  8
L1_105
  6
CONTINUOUS
 62
         4
100
AcDbTrace
 10
1544.0693492817
 20
170.6846417294
 30
0.0
 11
1544.4743492817
 21
167.9846417294
 31
0.0
 12
1543.6643492817
 22
167.9846417294
 32
0.0
 13
1544.0693492817
 23
170.6846417294
 33
0.0
  0
SOLID
  5
6AE
100
AcDbEntity
  8
L1_105
  6
CONTINUOUS
 62
         4
100
AcDbTrace
 10
1544.0693492817
 20
129.6846417294
 30
0.0
 11
1543.6643492817
 21
132.3846417294
 31
0.0
 12
1544.4743492817
 22
132.3846417294
 32
0.0
 13
1544.0693492817
 23
129.6846417294
 33
0.0
  0
TEXT
  5
6B0
100
AcDbEntity
  8
L1_105
  6
CONTINUOUS
 62
         4
100
AcDbText
 10
1540.9373492817
 20
139.2528174198
 30
0.0
 40
2.7
  1
崷41
 50
90.0
  7
BOX
100
AcDbText
  0
ENDBLK
  5
6B1
100
AcDbEntity
  8
0
  6
CONTINUOUS
100
AcDbBlockEnd
  0
BLOCK
  5
6B3
100
AcDbEntity
  8
0
100
AcDbBlockBegin
  2
*D48
 70
        65
 10
0.0
 20
0.0
 30
0.0
  3
*D48
  1

  0
POINT
  5
6B5
100
AcDbEntity
  8
DEFPOINTS
  6
CONTINUOUS
 62
         0
100
AcDbPoint
 10
1468.0203301475
 20
154.9846417294
 30
0.0
  0
POINT
  5
6B6
100
AcDbEntity
  8
DEFPOINTS
  6
CONTINUOUS
 62
         0
100
AcDbPoint
 10
1460.5383403763
 20
154.9846417294
 30
0.0
  0
POINT
  5
6B7
100
AcDbEntity
  8
DEFPOINTS
  6
CONTINUOUS
 62
         0
100
AcDbPoint
 10
1460.5383403763
 20
145.3846417294
 30
0.0
  0
LINE
  5
6B8
100
AcDbEntity
  8
L1_105
  6
CONTINUOUS
 62
         4
100
AcDbLine
 10
1461.8883403763
 20
154.9846417294
 30
0.0
 11
1468.6953301475
 21
154.9846417294
 31
0.0
  0
LINE
  5
6B9
100
AcDbEntity
  8
L1_105
  6
CONTINUOUS
 62
         4
100
AcDbLine
 10
1461.8883403763
 20
145.3846417294
 30
0.0
 11
1468.6953301475
 21
145.3846417294
 31
0.0
  0
LINE
  5
6BA
100
AcDbEntity
  8
L1_105
  6
CONTINUOUS
 62
         4
100
AcDbLine
 10
1468.0203301475
 20
154.9846417294
 30
0.0
 11
1468.0203301475
 21
160.3846417294
 31
0.0
  0
SOLID
  5
6BB
100
AcDbEntity
  8
L1_105
  6
CONTINUOUS
 62
         4
100
AcDbTrace
 10
1468.0203301475
 20
154.9846417294
 30
0.0
 11
1467.6153301475
 21
157.6846417294
 31
0.0
 12
1468.4253301475
 22
157.6846417294
 32
0.0
 13
1468.0203301475
 23
154.9846417294
 33
0.0
  0
LINE
  5
6BC
100
AcDbEntity
  8
L1_105
  6
CONTINUOUS
 62
         4
100
AcDbLine
 10
1468.0203301475
 20
145.3846417294
 30
0.0
 11
1468.0203301475
 21
106.0678145242
 31
0.0
  0
SOLID
  5
6BD
100
AcDbEntity
  8
L1_105
  6
CONTINUOUS
 62
         4
100
AcDbTrace
 10
1468.0203301475
 20
145.3846417294
 30
0.0
 11
1468.4253301475
 21
142.6846417294
 31
0.0
 12
1467.6153301475
 22
142.6846417294
 32
0.0
 13
1468.0203301475
 23
145.3846417294
 33
0.0
  0
LINE
  5
6BE
100
AcDbEntity
  8
L1_105
  6
CONTINUOUS
 62
         4
100
AcDbLine
 10
1468.0203301475
 20
154.9846417294
 30
0.0
 11
1468.0203301475
 21
145.3846417294
 31
0.0
  0
TEXT
  5
6C0
100
AcDbEntity
  8
L1_105
  6
CONTINUOUS
 62
         4
100
AcDbText
 10
1464.8883301475
 20
107.4178145242
 30
0.0
 40
2.7
  1
9.55
 50
90.0
  7
BOX
100
AcDbText
  0
ENDBLK
  5
6C1
100
AcDbEntity
  8
0
  6
CONTINUOUS
100
AcDbBlockEnd
  0
BLOCK
  5
6C3
100
AcDbEntity
  8
0
100
AcDbBlockBegin
  2
*D49
 70
        65
 10
0.0
 20
0.0
 30
0.0
  3
*D49
  1

  0
POINT
  5
6C5
100
AcDbEntity
  8
DEFPOINTS
  6
CONTINUOUS
 62
         0
100
AcDbPoint
 10
1460.5383403763
 20
105.7739192814
 30
0.0
  0
POINT
  5
6C6
100
AcDbEntity
  8
DEFPOINTS
  6
CONTINUOUS
 62
         0
100
AcDbPoint
 10
1460.5383403763
 20
145.2146417294
 30
0.0
  0
POINT
  5
6C7
100
AcDbEntity
  8
DEFPOINTS
  6
CONTINUOUS
 62
         0
100
AcDbPoint
 10
1505.1333403763
 20
132.7619919986
 30
0.0
  0
LINE
  5
6C8
100
AcDbEntity
  8
L1_105
  6
CONTINUOUS
 62
         4
100
AcDbLine
 10
1460.5383403763
 20
143.8646417294
 30
0.0
 11
1460.5383403763
 21
105.0989192814
 31
0.0
  0
LINE
  5
6C9
100
AcDbEntity
  8
L1_105
  6
CONTINUOUS
 62
         4
100
AcDbLine
 10
1505.1333403763
 20
131.4119919986
 30
0.0
 11
1505.1333403763
 21
105.0989192814
 31
0.0
  0
LINE
  5
6CA
100
AcDbEntity
  8
L1_105
  6
CONTINUOUS
 62
         4
100
AcDbLine
 10
1460.5383403763
 20
105.7739192814
 30
0.0
 11
1505.1333403763
 21
105.7739192814
 31
0.0
  0
SOLID
  5
6CB
100
AcDbEntity
  8
L1_105
  6
CONTINUOUS
 62
         4
100
AcDbTrace
 10
1460.5383403763
 20
105.7739192814
 30
0.0
 11
1463.2383403763
 21
106.1789192814
 31
0.0
 12
1463.2383403763
 22
105.3689192814
 32
0.0
 13
1460.5383403763
 23
105.7739192814
 33
0.0
  0
SOLID
  5
6CC
100
AcDbEntity
  8
L1_105
  6
CONTINUOUS
 62
         4
100
AcDbTrace
 10
1505.1333403763
 20
105.7739192814
 30
0.0
 11
1502.4333403763
 21
105.3689192814
 31
0.0
 12
1502.4333403763
 22
106.1789192814
 32
0.0
 13
1505.1333403763
 23
105.7739192814
 33
0.0
  0
TEXT
  5
6CE
100
AcDbEntity
  8
L1_105
  6
CONTINUOUS
 62
         4
100
AcDbText
 10
1471.6989703403
 20
108.9059192814
 30
0.0
 40
2.7
  1
44.6
  7
BOX
100
AcDbText
  0
ENDBLK
  5
6CF
100
AcDbEntity
  8
0
  6
CONTINUOUS
100
AcDbBlockEnd
  0
BLOCK
  5
6D1
100
AcDbEntity
  8
0
100
AcDbBlockBegin
  2
*D50
 70
        65
 10
0.0
 20
0.0
 30
0.0
  3
*D50
  1

  0
POINT
  5
6D3
100
AcDbEntity
  8
DEFPOINTS
  6
CONTINUOUS
 62
         0
100
AcDbPoint
 10
1475.5382741959
 20
115.714967216
 30
0.0
  0
POINT
  5
6D4
100
AcDbEntity
  8
DEFPOINTS
  6
CONTINUOUS
 62
         0
100
AcDbPoint
 10
1475.5382741959
 20
145.2146417294
 30
0.0
  0
POINT
  5
6D5
100
AcDbEntity
  8
DEFPOINTS
  6
CONTINUOUS
 62
         0
100
AcDbPoint
 10
1505.1333403763
 20
132.7619919986
 30
0.0
  0
LINE
  5
6D6
100
AcDbEntity
  8
L1_105
  6
CONTINUOUS
 62
         4
100
AcDbLine
 10
1475.5382741959
 20
143.8646417294
 30
0.0
 11
1475.5382741959
 21
115.039967216
 31
0.0
  0
LINE
  5
6D7
100
AcDbEntity
  8
L1_105
  6
CONTINUOUS
 62
         4
100
AcDbLine
 10
1505.1333403763
 20
131.4119919986
 30
0.0
 11
1505.1333403763
 21
115.039967216
 31
0.0
  0
LINE
  5
6D8
100
AcDbEntity
  8
L1_105
  6
CONTINUOUS
 62
         4
100
AcDbLine
 10
1475.5382741959
 20
115.714967216
 30
0.0
 11
1505.1333403763
 21
115.714967216
 31
0.0
  0
SOLID
  5
6D9
100
AcDbEntity
  8
L1_105
  6
CONTINUOUS
 62
         4
100
AcDbTrace
 10
1475.5382741959
 20
115.714967216
 30
0.0
 11
1478.2382741959
 21
116.119967216
 31
0.0
 12
1478.2382741959
 22
115.309967216
 32
0.0
 13
1475.5382741959
 23
115.714967216
 33
0.0
  0
SOLID
  5
6DA
100
AcDbEntity
  8
L1_105
  6
CONTINUOUS
 62
         4
100
AcDbTrace
 10
1505.1333403763
 20
115.714967216
 30
0.0
 11
1502.4333403763
 21
115.309967216
 31
0.0
 12
1502.4333403763
 22
116.119967216
 32
0.0
 13
1505.1333403763
 23
115.714967216
 33
0.0
  0
TEXT
  5
6DC
100
AcDbEntity
  8
L1_105
  6
CONTINUOUS
 62
         4
100
AcDbText
 10
1484.7108072861
 20
118.846967216
 30
0.0
 40
2.7
  1
29.6
  7
BOX
100
AcDbText
  0
ENDBLK
  5
6DD
100
AcDbEntity
  8
0
  6
CONTINUOUS
100
AcDbBlockEnd
  0
BLOCK
  5
6E0
100
AcDbEntity
  8
0
100
AcDbBlockBegin
  2
*D51
 70
        65
 10
0.0
 20
0.0
 30
0.0
  3
*D51
  1

  0
POINT
  5
6E2
100
AcDbEntity
  8
DEFPOINTS
  6
CONTINUOUS
 62
         0
100
AcDbPoint
 10
1505.1333403763
 20
-69.7717555683
 30
0.0
  0
POINT
  5
6E3
100
AcDbEntity
  8
DEFPOINTS
  6
CONTINUOUS
 62
         0
100
AcDbPoint
 10
1505.1333403763
 20
-30.3278646868
 30
0.0
  0
POINT
  5
6E4
100
AcDbEntity
  8
DEFPOINTS
  6
CONTINUOUS
 62
         0
100
AcDbPoint
 10
1439.1333403763
 20
-29.4433347407
 30
0.0
  0
LINE
  5
6E5
100
AcDbEntity
  8
L1_105
  6
CONTINUOUS
 62
         4
100
AcDbLine
 10
1505.1333403763
 20
-31.6778646868
 30
0.0
 11
1505.1333403763
 21
-70.4467555683
 31
0.0
  0
LINE
  5
6E6
100
AcDbEntity
  8
L1_105
  6
CONTINUOUS
 62
         4
100
AcDbLine
 10
1439.1333403763
 20
-30.7933347407
 30
0.0
 11
1439.1333403763
 21
-70.4467555683
 31
0.0
  0
LINE
  5
6E7
100
AcDbEntity
  8
L1_105
  6
CONTINUOUS
 62
         4
100
AcDbLine
 10
1505.1333403763
 20
-69.7717555683
 30
0.0
 11
1439.1333403763
 21
-69.7717555683
 31
0.0
  0
SOLID
  5
6E8
100
AcDbEntity
  8
L1_105
  6
CONTINUOUS
 62
         4
100
AcDbTrace
 10
1505.1333403763
 20
-69.7717555683
 30
0.0
 11
1502.4333403763
 21
-70.1767555683
 31
0.0
 12
1502.4333403763
 22
-69.3667555683
 32
0.0
 13
1505.1333403763
 23
-69.7717555683
 33
0.0
  0
SOLID
  5
6E9
100
AcDbEntity
  8
L1_105
  6
CONTINUOUS
 62
         4
100
AcDbTrace
 10
1439.1333403763
 20
-69.7717555683
 30
0.0
 11
1441.8333403763
 21
-69.3667555683
 31
0.0
 12
1441.8333403763
 22
-70.1767555683
 32
0.0
 13
1439.1333403763
 23
-69.7717555683
 33
0.0
  0
TEXT
  5
6EB
100
AcDbEntity
  8
L1_105
  6
CONTINUOUS
 62
         4
100
AcDbText
 10
1465.2485899024
 20
-66.6397555683
 30
0.0
 40
2.7
  1
66
  7
BOX
100
AcDbText
  0
ENDBLK
  5
6EC
100
AcDbEntity
  8
0
  6
CONTINUOUS
100
AcDbBlockEnd
  0
BLOCK
  5
6EE
100
AcDbEntity
  8
0
100
AcDbBlockBegin
  2
*D52
 70
        65
 10
0.0
 20
0.0
 30
0.0
  3
*D52
  1

  0
POINT
  5
6F0
100
AcDbEntity
  8
DEFPOINTS
  6
CONTINUOUS
 62
         0
100
AcDbPoint
 10
1505.1333403763
 20
-48.9530593812
 30
0.0
  0
POINT
  5
6F1
100
AcDbEntity
  8
DEFPOINTS
  6
CONTINUOUS
 62
         0
100
AcDbPoint
 10
1505.1333403763
 20
-30.3278646868
 30
0.0
  0
POINT
  5
6F2
100
AcDbEntity
  8
DEFPOINTS
  6
CONTINUOUS
 62
         0
100
AcDbPoint
 10
1480.1333403763
 20
-30.4433347407
 30
0.0
  0
LINE
  5
6F3
100
AcDbEntity
  8
L1_105
  6
CONTINUOUS
 62
         4
100
AcDbLine
 10
1505.1333403763
 20
-31.6778646868
 30
0.0
 11
1505.1333403763
 21
-49.6280593812
 31
0.0
  0
LINE
  5
6F4
100
AcDbEntity
  8
L1_105
  6
CONTINUOUS
 62
         4
100
AcDbLine
 10
1480.1333403763
 20
-31.7933347407
 30
0.0
 11
1480.1333403763
 21
-49.6280593812
 31
0.0
  0
LINE
  5
6F5
100
AcDbEntity
  8
L1_105
  6
CONTINUOUS
 62
         4
100
AcDbLine
 10
1505.1333403763
 20
-48.9530593812
 30
0.0
 11
1480.1333403763
 21
-48.9530593812
 31
0.0
  0
SOLID
  5
6F6
100
AcDbEntity
  8
L1_105
  6
CONTINUOUS
 62
         4
100
AcDbTrace
 10
1505.1333403763
 20
-48.9530593812
 30
0.0
 11
1502.4333403763
 21
-49.3580593812
 31
0.0
 12
1502.4333403763
 22
-48.5480593812
 32
0.0
 13
1505.1333403763
 23
-48.9530593812
 33
0.0
  0
SOLID
  5
6F7
100
AcDbEntity
  8
L1_105
  6
CONTINUOUS
 62
         4
100
AcDbTrace
 10
1480.1333403763
 20
-48.9530593812
 30
0.0
 11
1482.8333403763
 21
-48.5480593812
 31
0.0
 12
1482.8333403763
 22
-49.3580593812
 32
0.0
 13
1480.1333403763
 23
-48.9530593812
 33
0.0
  0
TEXT
  5
6F9
100
AcDbEntity
  8
L1_105
  6
CONTINUOUS
 62
         4
100
AcDbText
 10
1487.0110669833
 20
-45.8210593812
 30
0.0
 40
2.7
  1
25
  7
BOX
100
AcDbText
  0
ENDBLK
  5
6FA
100
AcDbEntity
  8
0
  6
CONTINUOUS
100
AcDbBlockEnd
  0
BLOCK
  5
6FC
100
AcDbEntity
  8
0
100
AcDbBlockBegin
  2
*D53
 70
        65
 10
0.0
 20
0.0
 30
0.0
  3
*D53
  1

  0
POINT
  5
6FE
100
AcDbEntity
  8
DEFPOINTS
  6
CONTINUOUS
 62
         0
100
AcDbPoint
 10
1455.7383403763
 20
14.1917360085
 30
0.0
  0
POINT
  5
6FF
100
AcDbEntity
  8
DEFPOINTS
  6
CONTINUOUS
 62
         0
100
AcDbPoint
 10
1455.7383403763
 20
7.5566652593
 30
0.0
  0
POINT
  5
700
100
AcDbEntity
  8
DEFPOINTS
  6
CONTINUOUS
 62
         0
100
AcDbPoint
 10
1480.3382741959
 20
7.5566652593
 30
0.0
  0
LINE
  5
701
100
AcDbEntity
  8
L1_105
  6
CONTINUOUS
 62
         4
100
AcDbLine
 10
1455.7383403763
 20
8.9066652593
 30
0.0
 11
1455.7383403763
 21
14.8667360085
 31
0.0
  0
LINE
  5
702
100
AcDbEntity
  8
L1_105
  6
CONTINUOUS
 62
         4
100
AcDbLine
 10
1480.3382741959
 20
8.9066652593
 30
0.0
 11
1480.3382741959
 21
14.8667360085
 31
0.0
  0
LINE
  5
703
100
AcDbEntity
  8
L1_105
  6
CONTINUOUS
 62
         4
100
AcDbLine
 10
1455.7383403763
 20
14.1917360085
 30
0.0
 11
1480.3382741959
 21
14.1917360085
 31
0.0
  0
SOLID
  5
704
100
AcDbEntity
  8
L1_105
  6
CONTINUOUS
 62
         4
100
AcDbTrace
 10
1455.7383403763
 20
14.1917360085
 30
0.0
 11
1458.4383403763
 21
14.5967360085
 31
0.0
 12
1458.4383403763
 22
13.7867360085
 32
0.0
 13
1455.7383403763
 23
14.1917360085
 33
0.0
  0
SOLID
  5
705
100
AcDbEntity
  8
L1_105
  6
CONTINUOUS
 62
         4
100
AcDbTrace
 10
1480.3382741959
 20
14.1917360085
 30
0.0
 11
1477.6382741959
 21
13.7867360085
 31
0.0
 12
1477.6382741959
 22
14.5967360085
 32
0.0
 13
1480.3382741959
 23
14.1917360085
 33
0.0
  0
TEXT
  5
707
100
AcDbEntity
  8
L1_105
  6
CONTINUOUS
 62
         4
100
AcDbText
 10
1457.1725313366
 20
17.3237360085
 30
0.0
 40
2.7
  1
24.6
  7
BOX
100
AcDbText
  0
ENDBLK
  5
708
100
AcDbEntity
  8
0
  6
CONTINUOUS
100
AcDbBlockEnd
  0
BLOCK
  5
70A
100
AcDbEntity
  8
0
100
AcDbBlockBegin
  2
*D54
 70
        65
 10
0.0
 20
0.0
 30
0.0
  3
*D54
  1

  0
POINT
  5
70C
100
AcDbEntity
  8
DEFPOINTS
  6
CONTINUOUS
 62
         0
100
AcDbPoint
 10
1528.6941711857
 20
3.0566652593
 30
0.0
  0
POINT
  5
70D
100
AcDbEntity
  8
DEFPOINTS
  6
CONTINUOUS
 62
         0
100
AcDbPoint
 10
1480.1333403763
 20
3.0566652593
 30
0.0
  0
POINT
  5
70E
100
AcDbEntity
  8
DEFPOINTS
  6
CONTINUOUS
 62
         0
100
AcDbPoint
 10
1480.1333403763
 20
-28.9433347407
 30
0.0
  0
LINE
  5
70F
100
AcDbEntity
  8
L1_105
  6
CONTINUOUS
 62
         4
100
AcDbLine
 10
1481.4833403763
 20
3.0566652593
 30
0.0
 11
1529.3691711857
 21
3.0566652593
 31
0.0
  0
LINE
  5
710
100
AcDbEntity
  8
L1_105
  6
CONTINUOUS
 62
         4
100
AcDbLine
 10
1481.4833403763
 20
-28.9433347407
 30
0.0
 11
1529.3691711857
 21
-28.9433347407
 31
0.0
  0
LINE
  5
711
100
AcDbEntity
  8
L1_105
  6
CONTINUOUS
 62
         4
100
AcDbLine
 10
1528.6941711857
 20
3.0566652593
 30
0.0
 11
1528.6941711857
 21
-28.9433347407
 31
0.0
  0
SOLID
  5
712
100
AcDbEntity
  8
L1_105
  6
CONTINUOUS
 62
         4
100
AcDbTrace
 10
1528.6941711857
 20
3.0566652593
 30
0.0
 11
1529.0991711857
 21
0.3566652593
 31
0.0
 12
1528.2891711857
 22
0.3566652593
 32
0.0
 13
1528.6941711857
 23
3.0566652593
 33
0.0
  0
SOLID
  5
713
100
AcDbEntity
  8
L1_105
  6
CONTINUOUS
 62
         4
100
AcDbTrace
 10
1528.6941711857
 20
-28.9433347407
 30
0.0
 11
1528.2891711857
 21
-26.2433347407
 31
0.0
 12
1529.0991711857
 22
-26.2433347407
 32
0.0
 13
1528.6941711857
 23
-28.9433347407
 33
0.0
  0
TEXT
  5
715
100
AcDbEntity
  8
L1_105
  6
CONTINUOUS
 62
         4
100
AcDbText
 10
1525.5621711857
 20
-20.9507516815
 30
0.0
 40
2.7
  1
崷32
 50
90.0
  7
BOX
100
AcDbText
  0
ENDBLK
  5
716
100
AcDbEntity
  8
0
  6
CONTINUOUS
100
AcDbBlockEnd
  0
BLOCK
  5
718
100
AcDbEntity
  8
0
100
AcDbBlockBegin
  2
*D55
 70
        65
 10
0.0
 20
0.0
 30
0.0
  3
*D55
  1

  0
POINT
  5
71A
100
AcDbEntity
  8
DEFPOINTS
  6
CONTINUOUS
 62
         0
100
AcDbPoint
 10
1540.8015864264
 20
4.0566652593
 30
0.0
  0
POINT
  5
71B
100
AcDbEntity
  8
DEFPOINTS
  6
CONTINUOUS
 62
         0
100
AcDbPoint
 10
1504.9333403763
 20
4.0566652593
 30
0.0
  0
POINT
  5
71C
100
AcDbEntity
  8
DEFPOINTS
  6
CONTINUOUS
 62
         0
100
AcDbPoint
 10
1504.9333403763
 20
-29.9433347407
 30
0.0
  0
LINE
  5
71D
100
AcDbEntity
  8
L1_105
  6
CONTINUOUS
 62
         4
100
AcDbLine
 10
1506.2833403763
 20
4.0566652593
 30
0.0
 11
1541.4765864264
 21
4.0566652593
 31
0.0
  0
LINE
  5
71E
100
AcDbEntity
  8
L1_105
  6
CONTINUOUS
 62
         4
100
AcDbLine
 10
1506.2833403763
 20
-29.9433347407
 30
0.0
 11
1541.4765864264
 21
-29.9433347407
 31
0.0
  0
LINE
  5
71F
100
AcDbEntity
  8
L1_105
  6
CONTINUOUS
 62
         4
100
AcDbLine
 10
1540.8015864264
 20
4.0566652593
 30
0.0
 11
1540.8015864264
 21
-29.9433347407
 31
0.0
  0
SOLID
  5
720
100
AcDbEntity
  8
L1_105
  6
CONTINUOUS
 62
         4
100
AcDbTrace
 10
1540.8015864264
 20
4.0566652593
 30
0.0
 11
1541.2065864264
 21
1.3566652593
 31
0.0
 12
1540.3965864264
 22
1.3566652593
 32
0.0
 13
1540.8015864264
 23
4.0566652593
 33
0.0
  0
SOLID
  5
721
100
AcDbEntity
  8
L1_105
  6
CONTINUOUS
 62
         4
100
AcDbTrace
 10
1540.8015864264
 20
-29.9433347407
 30
0.0
 11
1540.3965864264
 21
-27.2433347407
 31
0.0
 12
1541.2065864264
 22
-27.2433347407
 32
0.0
 13
1540.8015864264
 23
-29.9433347407
 33
0.0
  0
TEXT
  5
723
100
AcDbEntity
  8
L1_105
  6
CONTINUOUS
 62
         4
100
AcDbText
 10
1537.6695864264
 20
-21.6075939878
 30
0.0
 40
2.7
  1
崷34
 50
90.0
  7
BOX
100
AcDbText
  0
ENDBLK
  5
724
100
AcDbEntity
  8
0
  6
CONTINUOUS
100
AcDbBlockEnd
  0
ENDSEC
  0
SECTION
  2
ENTITIES
  0
DIMENSION
  5
27
100
AcDbEntity
  8
L1_105
  6
CONTINUOUS
 62
         4
100
AcDbDimension
  2
*D0
 10
1505.1333403763
 20
202.4440461992
 30
0.0
 11
1447.7152730477
 21
204.4690461992
 31
0.0
  3
DIMSTYLE1
100
AcDbAlignedDimension
 13
1505.1333403763
 23
167.6072914602
 33
0.0
 14
1419.1333403763
 24
172.6846417294
 34
0.0
100
AcDbRotatedDimension
  0
LINE
  5
34
100
AcDbEntity
  8
_Y__________
  6
CONTINUOUS
 62
         7
100
AcDbLine
 10
1350.8033403763
 20
-30.4933347407
 30
0.0
 11
1350.8033403763
 21
4.6066652593
 31
0.0
  0
LINE
  5
35
100
AcDbEntity
  8
_Y__________
  6
CONTINUOUS
 62
         7
100
AcDbLine
 10
1417.6033403763
 20
6.1066652593
 30
0.0
 11
1388.8033403763
 21
6.1066652593
 31
0.0
  0
LINE
  5
36
100
AcDbEntity
  8
_Y__________
  6
CONTINUOUS
 62
         7
100
AcDbLine
 10
1417.6033403763
 20
-31.9933347407
 30
0.0
 11
1352.3033403763
 21
-31.9933347407
 31
0.0
  0
LINE
  5
37
100
AcDbEntity
  8
_Y__________
  6
CONTINUOUS
 62
         7
100
AcDbLine
 10
1419.1033403763
 20
-32.9933347407
 30
0.0
 11
1419.1033403763
 21
7.1066652593
 31
0.0
  0
LINE
  5
38
100
AcDbEntity
  8
_Y__________
  6
CONTINUOUS
 62
         7
100
AcDbLine
 10
1418.7033403763
 20
5.9066652593
 30
0.0
 11
1418.4024115368
 21
5.9066652593
 31
0.0
  0
LINE
  5
39
100
AcDbEntity
  8
_Y__________
  6
CONTINUOUS
 62
         7
100
AcDbLine
 10
1417.6033403763
 20
6.1066652593
 30
0.0
 11
1418.2988839188
 21
5.9202949288
 31
0.0
  0
ARC
  5
3A
100
AcDbEntity
  8
_Y__________
  6
CONTINUOUS
 62
         7
100
AcDbCircle
 10
1418.7033403763
 20
6.3066652593
 30
0.0
 40
0.4
100
AcDbArc
 50
270.0
 51
360.0
  0
ARC
  5
3B
100
AcDbEntity
  8
_Y__________
  6
CONTINUOUS
 62
         7
100
AcDbCircle
 10
1418.4024115368
 20
6.3066652593
 30
0.0
 40
0.4
100
AcDbArc
 50
255.0
 51
270.0
  0
ARC
  5
3C
100
AcDbEntity
  8
_Y__________
  6
CONTINUOUS
 62
         7
100
AcDbCircle
 10
1418.4024115368
 20
-32.1933347407
 30
0.0
 40
0.4
100
AcDbArc
 50
90.0
 51
105.0
  0
ARC
  5
3D
100
AcDbEntity
  8
_Y__________
  6
CONTINUOUS
 62
         7
100
AcDbCircle
 10
1418.7033403763
 20
-32.1933347407
 30
0.0
 40
0.4
100
AcDbArc
 50
0.0
 51
90.0
  0
LINE
  5
3E
100
AcDbEntity
  8
_Y__________
  6
CONTINUOUS
 62
         7
100
AcDbLine
 10
1417.6033403763
 20
-31.9933347407
 30
0.0
 11
1418.2988839188
 21
-31.8069644102
 31
0.0
  0
LINE
  5
3F
100
AcDbEntity
  8
_Y__________
  6
CONTINUOUS
 62
         7
100
AcDbLine
 10
1418.7033403763
 20
-31.7933347407
 30
0.0
 11
1418.4024115368
 21
-31.7933347407
 31
0.0
  0
LINE
  5
40
100
AcDbEntity
  8
_Y__________
  6
CONTINUOUS
 62
         4
100
AcDbLine
 10
1417.6033403763
 20
6.1066652593
 30
0.0
 11
1417.6033403763
 21
-31.9933347407
 31
0.0
  0
LINE
  5
41
100
AcDbEntity
  8
_Y__________
  6
CONTINUOUS
 62
         4
100
AcDbLine
 10
1418.7033403763
 20
-31.7933347407
 30
0.0
 11
1418.7033403763
 21
5.9066652593
 31
0.0
  0
LINE
  5
42
100
AcDbEntity
  8
_Y__________
  6
CONTINUOUS
 62
         4
100
AcDbLine
 10
1418.3497505378
 20
-31.7933347407
 30
0.0
 11
1418.3497505378
 21
5.9101468875
 31
0.0
  0
LINE
  5
43
100
AcDbEntity
  8
_Y__________
  6
CONTINUOUS
 62
         7
100
AcDbLine
 10
1352.3033403763
 20
6.1066652593
 30
0.0
 11
1350.8033403763
 21
4.6066652593
 31
0.0
  0
LINE
  5
44
100
AcDbEntity
  8
_Y__________
  6
CONTINUOUS
 62
         7
100
AcDbLine
 10
1352.3033403763
 20
-31.9933347407
 30
0.0
 11
1352.3033403763
 21
-22.199683913
 31
0.0
  0
LINE
  5
45
100
AcDbEntity
  8
_Y__________
  6
DASHED
 62
         2
100
AcDbLine
 10
1353.7414601609
 20
-13.7433347407
 30
0.0
 11
1353.7414601609
 21
-12.1433347407
 31
0.0
  0
LINE
  5
46
100
AcDbEntity
  8
_Y__________
  6
DASHED
 62
         2
100
AcDbLine
 10
1353.7414601609
 20
-12.1433347407
 30
0.0
 11
1354.2033403763
 21
-12.9433347407
 31
0.0
  0
LINE
  5
47
100
AcDbEntity
  8
_Y__________
  6
DASHED
 62
         2
100
AcDbLine
 10
1353.7414601609
 20
-13.7433347407
 30
0.0
 11
1354.2033403763
 21
-12.9433347407
 31
0.0
  0
LINE
  5
48
100
AcDbEntity
  8
_Y__________
  6
DASHED
 62
         2
100
AcDbLine
 10
1352.795198805
 20
-13.7433347407
 30
0.0
 11
1352.795198805
 21
-12.1433347407
 31
0.0
  0
LINE
  5
49
100
AcDbEntity
  8
_Y__________
  6
DASHED
 62
         2
100
AcDbLine
 10
1350.8033403763
 20
-10.9933347407
 30
0.0
 11
1352.795198805
 21
-12.1433347407
 31
0.0
  0
LINE
  5
4A
100
AcDbEntity
  8
_Y__________
  6
DASHED
 62
         2
100
AcDbLine
 10
1350.8033403763
 20
-14.8933347407
 30
0.0
 11
1352.795198805
 21
-13.7433347407
 31
0.0
  0
LINE
  5
4B
100
AcDbEntity
  8
_Y__________
  6
DASHED
 62
         2
100
AcDbLine
 10
1353.7414601609
 20
-12.1433347407
 30
0.0
 11
1352.795198805
 21
-12.1433347407
 31
0.0
  0
LINE
  5
4C
100
AcDbEntity
  8
_Y__________
  6
DASHED
 62
         2
100
AcDbLine
 10
1353.7414601609
 20
-13.7433347407
 30
0.0
 11
1352.795198805
 21
-13.7433347407
 31
0.0
  0
LINE
  5
4D
100
AcDbEntity
  8
_Y__________
  6
CONTINUOUS
 62
         7
100
AcDbLine
 10
1352.3033403763
 20
-31.9933347407
 30
0.0
 11
1350.8033403763
 21
-30.4933347407
 31
0.0
  0
LINE
  5
4E
100
AcDbEntity
  8
_Y__________
  6
CONTINUOUS
 62
         7
100
AcDbLine
 10
1387.4933403763
 20
-3.6869855683
 30
0.0
 11
1374.4133403763
 21
-3.6869855683
 31
0.0
  0
LINE
  5
4F
100
AcDbEntity
  8
_Y__________
  6
CONTINUOUS
 62
         7
100
AcDbLine
 10
1387.4933403763
 20
-22.199683913
 30
0.0
 11
1374.4133403763
 21
-22.199683913
 31
0.0
  0
LINE
  5
50
100
AcDbEntity
  8
_Y__________
  6
CONTINUOUS
 62
         4
100
AcDbLine
 10
1387.4933403763
 20
-22.199683913
 30
0.0
 11
1387.4933403763
 21
-3.6869855683
 31
0.0
  0
LINE
  5
51
100
AcDbEntity
  8
_Y__________
  6
CONTINUOUS
 62
         4
100
AcDbLine
 10
1374.4133403763
 20
-22.199683913
 30
0.0
 11
1374.4133403763
 21
-3.6869855683
 31
0.0
  0
LINE
  5
52
100
AcDbEntity
  8
_Y__________
  6
CONTINUOUS
 62
         4
100
AcDbLine
 10
1365.1033403763
 20
-22.199683913
 30
0.0
 11
1365.1033403763
 21
-3.6869855683
 31
0.0
  0
ARC
  5
53
100
AcDbEntity
  8
_Y__________
  6
CONTINUOUS
 62
         7
100
AcDbCircle
 10
1348.4533403763
 20
-12.9433347407
 30
0.0
 40
19.05
100
AcDbArc
 50
330.9287029026
 51
389.0712970974
  0
ARC
  5
54
100
AcDbEntity
  8
_Y__________
  6
CONTINUOUS
 62
         7
100
AcDbCircle
 10
1391.0633403763
 20
-12.9433347407
 30
0.0
 40
19.05
100
AcDbArc
 50
150.9287029026
 51
209.0712970974
  0
ARC
  5
55
100
AcDbEntity
  8
_Y__________
  6
CONTINUOUS
 62
         7
100
AcDbCircle
 10
1370.8433403763
 20
-12.9433347407
 30
0.0
 40
19.05
100
AcDbArc
 50
330.9287029026
 51
389.0712970974
  0
LINE
  5
56
100
AcDbEntity
  8
_Y__________
  6
CONTINUOUS
 62
         7
100
AcDbLine
 10
1365.1033403763
 20
-3.6869855683
 30
0.0
 11
1350.8033403763
 21
-3.6869855683
 31
0.0
  0
LINE
  5
57
100
AcDbEntity
  8
_Y__________
  6
CONTINUOUS
 62
         7
100
AcDbLine
 10
1365.1033403763
 20
-22.199683913
 30
0.0
 11
1350.8033403763
 21
-22.199683913
 31
0.0
  0
LINE
  5
58
100
AcDbEntity
  8
_Y__________
  6
CONTINUOUS
 62
         4
100
AcDbLine
 10
1365.1033403763
 20
-3.6869855683
 30
0.0
 11
1350.8033403763
 21
-22.199683913
 31
0.0
  0
LINE
  5
59
100
AcDbEntity
  8
_Y__________
  6
CONTINUOUS
 62
         4
100
AcDbLine
 10
1350.8033403763
 20
-3.6869855683
 30
0.0
 11
1365.1033403763
 21
-22.199683913
 31
0.0
  0
LINE
  5
5A
100
AcDbEntity
  8
_Y__________
  6
CONTINUOUS
 62
         4
100
AcDbLine
 10
1374.4133403763
 20
-22.199683913
 30
0.0
 11
1387.4933403763
 21
-3.6869855683
 31
0.0
  0
LINE
  5
5B
100
AcDbEntity
  8
_Y__________
  6
CONTINUOUS
 62
         4
100
AcDbLine
 10
1374.4133403763
 20
-3.6869855683
 30
0.0
 11
1387.4933403763
 21
-22.199683913
 31
0.0
  0
LINE
  5
5C
100
AcDbEntity
  8
_Y__________
  6
CONTINUOUS
 62
         7
100
AcDbLine
 10
1352.3033403763
 20
-3.6869855683
 30
0.0
 11
1352.3033403763
 21
6.1066652593
 31
0.0
  0
LINE
  5
5D
100
AcDbEntity
  8
_Y__________
  6
CONTINUOUS
 62
         7
100
AcDbLine
 10
1358.1033403763
 20
4.0066652593
 30
0.0
 11
1358.1033403763
 21
6.1066652593
 31
0.0
  0
LINE
  5
5E
100
AcDbEntity
  8
_Y__________
  6
CONTINUOUS
 62
         7
100
AcDbLine
 10
1388.8033403763
 20
6.1066652593
 30
0.0
 11
1384.9300319936
 21
2.2333568767
 31
0.0
  0
LINE
  5
5F
100
AcDbEntity
  8
_Y__________
  6
CONTINUOUS
 62
         7
100
AcDbLine
 10
1358.1033403763
 20
4.0066652593
 30
0.0
 11
1383.6592119553
 21
1.7708162096
 31
0.0
  0
ARC
  5
60
100
AcDbEntity
  8
_Y__________
  6
CONTINUOUS
 62
         7
100
AcDbCircle
 10
1383.7986611437
 20
3.3647277266
 30
0.0
 40
1.6
100
AcDbArc
 50
265.0
 51
315.0
  0
LINE
  5
61
100
AcDbEntity
  8
_Y__________
  6
CONTINUOUS
 62
         7
100
AcDbLine
 10
1358.1033403763
 20
6.1066652593
 30
0.0
 11
1352.3033403763
 21
6.1066652593
 31
0.0
  0
LINE
  5
62
100
AcDbEntity
  8
_Y__________
  6
DASHED
 62
         2
100
AcDbLine
 10
1227.0227726692
 20
1.7708162096
 30
0.0
 11
1202.8239080833
 21
1.7708162096
 31
0.0
  0
LINE
  5
63
100
AcDbEntity
  8
_Y__________
  6
DASHED
 62
         2
100
AcDbLine
 10
1223.618166424
 20
4.0066652593
 30
0.0
 11
1206.2285143285
 21
4.0066652593
 31
0.0
  0
LINE
  5
64
100
AcDbEntity
  8
_Y__________
  6
CONTINUOUS
 62
         7
100
AcDbLine
 10
1231.5733403763
 20
-3.6869855683
 30
0.0
 11
1231.5733403763
 21
-22.199683913
 31
0.0
  0
CIRCLE
  5
65
100
AcDbEntity
  8
_Y__________
  6
CONTINUOUS
 62
         7
100
AcDbCircle
 10
1214.9233403763
 20
-12.9433347407
 30
0.0
 40
19.05
  0
ARC
  5
66
100
AcDbEntity
  8
_Y__________
  6
CONTINUOUS
 62
         7
100
AcDbCircle
 10
1214.9233403763
 20
-12.9433347407
 30
0.0
 40
17.55
100
AcDbArc
 50
18.4286696038
 51
341.5713303962
  0
LINE
  5
67
100
AcDbEntity
  8
_Y__________
  6
CENTER
 62
         1
100
AcDbLine
 10
1214.9233403763
 20
9.5435577516
 30
0.0
 11
1214.9233403763
 21
-34.3742913533
 31
0.0
  0
LINE
  5
68
100
AcDbEntity
  8
_Y__________
  6
CENTER
 62
         1
100
AcDbLine
 10
1238.7051432069
 20
-12.9433347407
 30
0.0
 11
1192.1409875489
 21
-12.9433347407
 31
0.0
  0
CIRCLE
  5
69
100
AcDbEntity
  8
_Y__________
  6
CONTINUOUS
 62
         7
100
AcDbCircle
 10
1214.9233403763
 20
-12.9433347407
 30
0.0
 40
1.95
  0
CIRCLE
  5
6A
100
AcDbEntity
  8
_Y__________
  6
CONTINUOUS
 62
         7
100
AcDbCircle
 10
1214.9233403763
 20
-12.9433347407
 30
0.0
 40
0.8
  0
LINE
  5
6B
100
AcDbEntity
  8
_Y__________
  6
CONTINUOUS
 62
         7
100
AcDbLine
 10
1419.1033403763
 20
130.1346417294
 30
0.0
 11
1419.1033403763
 21
170.2346417294
 31
0.0
  0
LINE
  5
6C
100
AcDbEntity
  8
_Y__________
  6
CONTINUOUS
 62
         4
100
AcDbLine
 10
1358.1033403763
 20
158.8794677771
 30
0.0
 11
1384.4024651021
 21
138.0852094364
 31
0.0
  0
LINE
  5
6D
100
AcDbEntity
  8
_Y__________
  6
CONTINUOUS
 62
         4
100
AcDbLine
 10
1384.4024651021
 20
162.2840740223
 30
0.0
 11
1358.1033403763
 21
141.4898156817
 31
0.0
  0
ARC
  5
6E
100
AcDbEntity
  8
_Y__________
  6
CONTINUOUS
 62
         7
100
AcDbCircle
 10
1369.9702725586
 20
150.1846417294
 30
0.0
 40
18.8330678176
100
AcDbArc
 50
320.0247389674
 51
399.9752610326
  0
LINE
  5
6F
100
AcDbEntity
  8
_Y__________
  6
CONTINUOUS
 62
         7
100
AcDbLine
 10
1358.1033403763
 20
141.4898156817
 30
0.0
 11
1384.4024651021
 21
138.0852094364
 31
0.0
  0
LINE
  5
70
100
AcDbEntity
  8
_Y__________
  6
CONTINUOUS
 62
         7
100
AcDbLine
 10
1358.1033403763
 20
158.8794677771
 30
0.0
 11
1384.4024651021
 21
162.2840740223
 31
0.0
  0
LINE
  5
71
100
AcDbEntity
  8
_Y__________
  6
CONTINUOUS
 62
         4
100
AcDbLine
 10
1384.4024651021
 20
138.0852094364
 30
0.0
 11
1384.4024651021
 21
162.2840740223
 31
0.0
  0
LINE
  5
72
100
AcDbEntity
  8
_Y__________
  6
CONTINUOUS
 62
         7
100
AcDbLine
 10
1358.1033403763
 20
141.4898156817
 30
0.0
 11
1358.1033403763
 21
158.8794677771
 31
0.0
  0
LINE
  5
73
100
AcDbEntity
  8
_Y__________
  6
DASHED
 62
         2
100
AcDbLine
 10
1353.7414601609
 20
149.3846417294
 30
0.0
 11
1352.795198805
 21
149.3846417294
 31
0.0
  0
LINE
  5
74
100
AcDbEntity
  8
_Y__________
  6
DASHED
 62
         2
100
AcDbLine
 10
1353.7414601609
 20
150.9846417294
 30
0.0
 11
1352.795198805
 21
150.9846417294
 31
0.0
  0
LINE
  5
75
100
AcDbEntity
  8
_Y__________
  6
DASHED
 62
         2
100
AcDbLine
 10
1350.8033403763
 20
148.2346417294
 30
0.0
 11
1352.795198805
 21
149.3846417294
 31
0.0
  0
LINE
  5
76
100
AcDbEntity
  8
_Y__________
  6
DASHED
 62
         2
100
AcDbLine
 10
1350.8033403763
 20
152.1346417294
 30
0.0
 11
1352.795198805
 21
150.9846417294
 31
0.0
  0
LINE
  5
77
100
AcDbEntity
  8
_Y__________
  6
DASHED
 62
         2
100
AcDbLine
 10
1352.795198805
 20
149.3846417294
 30
0.0
 11
1352.795198805
 21
150.9846417294
 31
0.0
  0
LINE
  5
78
100
AcDbEntity
  8
_Y__________
  6
DASHED
 62
         2
100
AcDbLine
 10
1353.7414601609
 20
149.3846417294
 30
0.0
 11
1354.2033403763
 21
150.1846417294
 31
0.0
  0
LINE
  5
79
100
AcDbEntity
  8
_Y__________
  6
DASHED
 62
         2
100
AcDbLine
 10
1353.7414601609
 20
150.9846417294
 30
0.0
 11
1354.2033403763
 21
150.1846417294
 31
0.0
  0
LINE
  5
7A
100
AcDbEntity
  8
_Y__________
  6
DASHED
 62
         2
100
AcDbLine
 10
1353.7414601609
 20
149.3846417294
 30
0.0
 11
1353.7414601609
 21
150.9846417294
 31
0.0
  0
LINE
  5
7B
100
AcDbEntity
  8
_Y__________
  6
CONTINUOUS
 62
         7
100
AcDbLine
 10
1352.3033403763
 20
133.5346417294
 30
0.0
 11
1352.3033403763
 21
169.2346417294
 31
0.0
  0
LINE
  5
7C
100
AcDbEntity
  8
_Y__________
  6
CONTINUOUS
 62
         7
100
AcDbLine
 10
1352.3033403763
 20
169.2346417294
 30
0.0
 11
1350.8033403763
 21
167.7346417294
 31
0.0
  0
LINE
  5
7D
100
AcDbEntity
  8
_Y__________
  6
CONTINUOUS
 62
         4
100
AcDbLine
 10
1418.3497505378
 20
131.3346417294
 30
0.0
 11
1418.3497505378
 21
169.0381233576
 31
0.0
  0
LINE
  5
7E
100
AcDbEntity
  8
_Y__________
  6
CONTINUOUS
 62
         4
100
AcDbLine
 10
1418.7033403763
 20
131.3346417294
 30
0.0
 11
1418.7033403763
 21
169.0346417294
 31
0.0
  0
LINE
  5
7F
100
AcDbEntity
  8
_Y__________
  6
CONTINUOUS
 62
         4
100
AcDbLine
 10
1417.6033403763
 20
169.2346417294
 30
0.0
 11
1417.6033403763
 21
131.1346417294
 31
0.0
  0
LINE
  5
80
100
AcDbEntity
  8
_Y__________
  6
CONTINUOUS
 62
         7
100
AcDbLine
 10
1418.7033403763
 20
131.3346417294
 30
0.0
 11
1418.4024115368
 21
131.3346417294
 31
0.0
  0
LINE
  5
81
100
AcDbEntity
  8
_Y__________
  6
CONTINUOUS
 62
         7
100
AcDbLine
 10
1417.6033403763
 20
131.1346417294
 30
0.0
 11
1418.2988839188
 21
131.3210120599
 31
0.0
  0
ARC
  5
82
100
AcDbEntity
  8
_Y__________
  6
CONTINUOUS
 62
         7
100
AcDbCircle
 10
1418.7033403763
 20
130.9346417294
 30
0.0
 40
0.4
100
AcDbArc
 50
0.0
 51
90.0
  0
ARC
  5
83
100
AcDbEntity
  8
_Y__________
  6
CONTINUOUS
 62
         7
100
AcDbCircle
 10
1418.4024115368
 20
130.9346417294
 30
0.0
 40
0.4
100
AcDbArc
 50
90.0
 51
105.0
  0
ARC
  5
84
100
AcDbEntity
  8
_Y__________
  6
CONTINUOUS
 62
         7
100
AcDbCircle
 10
1418.4024115368
 20
169.4346417294
 30
0.0
 40
0.4
100
AcDbArc
 50
255.0
 51
270.0
  0
ARC
  5
85
100
AcDbEntity
  8
_Y__________
  6
CONTINUOUS
 62
         7
100
AcDbCircle
 10
1418.7033403763
 20
169.4346417294
 30
0.0
 40
0.4
100
AcDbArc
 50
270.0
 51
360.0
  0
LINE
  5
86
100
AcDbEntity
  8
_Y__________
  6
CONTINUOUS
 62
         7
100
AcDbLine
 10
1417.6033403763
 20
169.2346417294
 30
0.0
 11
1418.2988839188
 21
169.0482713989
 31
0.0
  0
LINE
  5
87
100
AcDbEntity
  8
_Y__________
  6
CONTINUOUS
 62
         7
100
AcDbLine
 10
1418.7033403763
 20
169.0346417294
 30
0.0
 11
1418.4024115368
 21
169.0346417294
 31
0.0
  0
LINE
  5
88
100
AcDbEntity
  8
_Y__________
  6
CONTINUOUS
 62
         7
100
AcDbLine
 10
1417.6033403763
 20
131.1346417294
 30
0.0
 11
1389.8933403763
 21
131.1346417294
 31
0.0
  0
LINE
  5
89
100
AcDbEntity
  8
_Y__________
  6
CONTINUOUS
 62
         7
100
AcDbLine
 10
1417.6033403763
 20
169.2346417294
 30
0.0
 11
1352.3033403763
 21
169.2346417294
 31
0.0
  0
LINE
  5
8A
100
AcDbEntity
  8
_Y__________
  6
CONTINUOUS
 62
         7
100
AcDbLine
 10
1350.8033403763
 20
133.5346417294
 30
0.0
 11
1350.8033403763
 21
167.7346417294
 31
0.0
  0
LINE
  5
8B
100
AcDbEntity
  8
_Y__________
  6
CENTER
 62
         1
100
AcDbLine
 10
1419.1033403763
 20
150.1846417294
 30
0.0
 11
1343.1043095065
 21
150.1846417294
 31
0.0
  0
LINE
  5
8C
100
AcDbEntity
  8
_Y__________
  6
CONTINUOUS
 62
         7
100
AcDbLine
 10
1387.4933403763
 20
133.5346417294
 30
0.0
 11
1374.4133403763
 21
133.5346417294
 31
0.0
  0
LINE
  5
8D
100
AcDbEntity
  8
_Y__________
  6
CONTINUOUS
 62
         7
100
AcDbLine
 10
1367.5033403763
 20
131.1346417294
 30
0.0
 11
1365.1033403763
 21
133.5346417294
 31
0.0
  0
LINE
  5
8E
100
AcDbEntity
  8
_Y__________
  6
CENTER
 62
         1
100
AcDbLine
 10
1380.9533403763
 20
133.5346417294
 30
0.0
 11
1380.9533403763
 21
167.7346417294
 31
0.0
  0
LINE
  5
8F
100
AcDbEntity
  8
_Y__________
  6
CONTINUOUS
 62
         7
100
AcDbLine
 10
1389.8933403763
 20
131.1346417294
 30
0.0
 11
1387.4933403763
 21
133.5346417294
 31
0.0
  0
LINE
  5
90
100
AcDbEntity
  8
_Y__________
  6
CONTINUOUS
 62
         7
100
AcDbLine
 10
1372.0133403763
 20
131.1346417294
 30
0.0
 11
1374.4133403763
 21
133.5346417294
 31
0.0
  0
LINE
  5
91
100
AcDbEntity
  8
_Y__________
  6
CONTINUOUS
 62
         7
100
AcDbLine
 10
1365.1033403763
 20
133.5346417294
 30
0.0
 11
1350.8033403763
 21
133.5346417294
 31
0.0
  0
LINE
  5
92
100
AcDbEntity
  8
_Y__________
  6
CONTINUOUS
 62
         7
100
AcDbLine
 10
1372.0133403763
 20
131.1346417294
 30
0.0
 11
1367.5033403763
 21
131.1346417294
 31
0.0
  0
LINE
  5
93
100
AcDbEntity
  8
_Y__________
  6
DASHED
 62
         2
100
AcDbLine
 10
1231.8733403763
 20
141.4898156817
 30
0.0
 11
1231.8733403763
 21
158.8794677771
 31
0.0
  0
LINE
  5
94
100
AcDbEntity
  8
_Y__________
  6
DASHED
 62
         2
100
AcDbLine
 10
1229.6374913266
 20
138.0852094364
 30
0.0
 11
1229.6374913266
 21
162.2840740223
 31
0.0
  0
CIRCLE
  5
95
100
AcDbEntity
  8
_Y__________
  6
CONTINUOUS
 62
         7
100
AcDbCircle
 10
1214.9233403763
 20
150.1846417294
 30
0.0
 40
0.8
  0
CIRCLE
  5
96
100
AcDbEntity
  8
_Y__________
  6
CONTINUOUS
 62
         7
100
AcDbCircle
 10
1214.9233403763
 20
150.1846417294
 30
0.0
 40
1.95
  0
LINE
  5
97
100
AcDbEntity
  8
_Y__________
  6
CENTER
 62
         1
100
AcDbLine
 10
1214.9233403763
 20
126.4028388987
 30
0.0
 11
1214.9233403763
 21
172.9669945567
 31
0.0
  0
LINE
  5
98
100
AcDbEntity
  8
_Y__________
  6
CENTER
 62
         1
100
AcDbLine
 10
1237.4102328685
 20
150.1846417294
 30
0.0
 11
1193.4923837637
 21
150.1846417294
 31
0.0
  0
ARC
  5
99
100
AcDbEntity
  8
_Y__________
  6
CONTINUOUS
 62
         7
100
AcDbCircle
 10
1214.9233403763
 20
150.1846417294
 30
0.0
 40
17.55
100
AcDbArc
 50
288.4286696038
 51
611.5713303962
  0
CIRCLE
  5
9A
100
AcDbEntity
  8
_Y__________
  6
CONTINUOUS
 62
         7
100
AcDbCircle
 10
1214.9233403763
 20
150.1846417294
 30
0.0
 40
19.05
  0
LINE
  5
9B
100
AcDbEntity
  8
_Y__________
  6
CONTINUOUS
 62
         7
100
AcDbLine
 10
1224.1796895486
 20
133.5346417294
 30
0.0
 11
1205.6669912039
 21
133.5346417294
 31
0.0
  0
ARC
  5
9C
100
AcDbEntity
  8
L1_105
  6
CONTINUOUS
 62
         7
100
AcDbCircle
 10
1421.1033403763
 20
-33.4433347407
 30
0.0
 40
2.0
100
AcDbArc
 50
180.0
 51
270.0
  0
ARC
  5
9D
100
AcDbEntity
  8
L1_105
  6
CONTINUOUS
 62
         7
100
AcDbCircle
 10
1421.1033403763
 20
7.5566652593
 30
0.0
 40
2.0
100
AcDbArc
 50
90.0
 51
180.0
  0
LINE
  5
9E
100
AcDbEntity
  8
L1_105
  6
CONTINUOUS
 62
         7
100
AcDbLine
 10
1419.1033403763
 20
-33.4433347407
 30
0.0
 11
1419.1033403763
 21
7.5566652593
 31
0.0
  0
ARC
  5
9F
100
AcDbEntity
  8
L1_105
  6
CONTINUOUS
 62
         7
100
AcDbCircle
 10
1421.1033403763
 20
129.6846417294
 30
0.0
 40
2.0
100
AcDbArc
 50
180.0
 51
270.0
  0
ARC
  5
A0
100
AcDbEntity
  8
L1_105
  6
CONTINUOUS
 62
         7
100
AcDbCircle
 10
1421.1033403763
 20
170.6846417294
 30
0.0
 40
2.0
100
AcDbArc
 50
90.0
 51
180.0
  0
LINE
  5
A1
100
AcDbEntity
  8
L1_105
  6
CONTINUOUS
 62
         7
100
AcDbLine
 10
1419.1033403763
 20
129.6846417294
 30
0.0
 11
1419.1033403763
 21
170.6846417294
 31
0.0
  0
LINE
  5
A2
100
AcDbEntity
  8
L1_105
  6
DASHED
 62
         2
100
AcDbLine
 10
1636.1143616913
 20
162.80862256
 30
0.0
 11
1637.4053262881
 21
165.0446388325
 31
0.0
  0
LINE
  5
A3
100
AcDbEntity
  8
L1_105
  6
DASHED
 62
         2
100
AcDbLine
 10
1627.800517815
 20
167.60862256
 30
0.0
 11
1629.0914824118
 21
169.8446388325
 31
0.0
  0
LINE
  5
A4
100
AcDbEntity
  8
L1_105
  6
DASHED
 62
         2
100
AcDbLine
 10
1627.800517815
 20
132.7606608987
 30
0.0
 11
1629.0914824118
 21
130.5246446263
 31
0.0
  0
LINE
  5
A5
100
AcDbEntity
  8
L1_105
  6
DASHED
 62
         2
100
AcDbLine
 10
1636.1143616913
 20
137.5606608987
 30
0.0
 11
1637.4053262881
 21
135.3246446263
 31
0.0
  0
LINE
  5
A6
100
AcDbEntity
  8
L1_105
  6
DASHED
 62
         2
100
AcDbLine
 10
1605.9351416225
 20
145.3846417294
 30
0.0
 11
1603.3532124288
 21
145.3846417294
 31
0.0
  0
LINE
  5
A7
100
AcDbEntity
  8
L1_105
  6
DASHED
 62
         2
100
AcDbLine
 10
1605.9351416225
 20
154.9846417294
 30
0.0
 11
1603.3532124288
 21
154.9846417294
 31
0.0
  0
LINE
  5
A8
100
AcDbEntity
  8
L1_105
  6
CONTINUOUS
 62
         7
100
AcDbLine
 10
1455.7383403763
 20
3.0566652593
 30
0.0
 11
1455.7383403763
 21
7.5566652593
 31
0.0
  0
LINE
  5
A9
100
AcDbEntity
  8
L1_105
  6
CONTINUOUS
 62
         7
100
AcDbLine
 10
1480.3382741959
 20
4.5566652593
 30
0.0
 11
1480.3382741959
 21
7.5566652593
 31
0.0
  0
ARC
  5
AA
100
AcDbEntity
  8
L1_105
  6
CONTINUOUS
 62
         7
100
AcDbCircle
 10
1460.5383403763
 20
150.1846417294
 30
0.0
 40
4.8
100
AcDbArc
 50
90.0
 51
270.0
  0
ARC
  5
AB
100
AcDbEntity
  8
L1_105
  6
CONTINUOUS
 62
         7
100
AcDbCircle
 10
1475.5382741959
 20
150.1846417294
 30
0.0
 40
4.8
100
AcDbArc
 50
270.0
 51
450.0
  0
LINE
  5
AC
100
AcDbEntity
  8
L1_105
  6
CONTINUOUS
 62
         7
100
AcDbLine
 10
1475.5382741959
 20
145.3846417294
 30
0.0
 11
1460.5383403763
 21
145.3846417294
 31
0.0
  0
LINE
  5
AD
100
AcDbEntity
  8
L1_105
  6
CONTINUOUS
 62
         7
100
AcDbLine
 10
1475.5382741959
 20
154.9846417294
 30
0.0
 11
1460.5383403763
 21
154.9846417294
 31
0.0
  0
DIMENSION
  5
B0
100
AcDbEntity
  8
L1_105
  6
CONTINUOUS
 62
         4
100
AcDbDimension
  2
*D1
 10
1424.1320155108
 20
-80.3619234481
 30
0.0
 11
1461.7076779435
 21
-77.2299234481
 31
0.0
  3
DIMSTYLE1
100
AcDbAlignedDimension
 13
1424.1320155108
 23
-15.4433347407
 33
0.0
 14
1505.1333403763
 24
-30.6546596061
 34
0.0
100
AcDbRotatedDimension
  0
LINE
  5
BC
100
AcDbEntity
  8
L1_105
  6
CONTINUOUS
 62
         7
100
AcDbLine
 10
1480.1333403763
 20
-25.5806430779
 30
0.0
 11
1480.1333403763
 21
4.5566652593
 31
0.0
  0
LINE
  5
BD
100
AcDbEntity
  8
L1_105
  6
CONTINUOUS
 62
         4
100
AcDbLine
 10
1479.1333403763
 20
-24.6572882157
 30
0.0
 11
1479.1333403763
 21
3.0566652593
 31
0.0
  0
POLYLINE
  5
BF
100
AcDbEntity
  8
L1_105
  6
CONTINUOUS
 62
         7
100
AcDb2dPolyline
 66
         1
 10
0.0
 20
0.0
 30
0.0
 70
         2
  0
VERTEX
  5
C1
100
AcDbEntity
  8
L1_105
  6
CONTINUOUS
 62
         7
100
AcDbVertex
100
AcDb2dVertex
 10
1475.7832741959
 20
-28.555793389
 30
0.0
 70
         1
  0
VERTEX
  5
C3
100
AcDbEntity
  8
L1_105
  6
CONTINUOUS
 62
         7
100
AcDbVertex
100
AcDb2dVertex
 10
1476.8118757807
 20
-28.5142144948
 30
0.0
 70
         1
  0
VERTEX
  5
C5
100
AcDbEntity
  8
L1_105
  6
CONTINUOUS
 62
         7
100
AcDbVertex
100
AcDb2dVertex
 10
1477.2634173717
 20
-28.46854881
 30
0.0
 70
         1
  0
VERTEX
  5
C7
100
AcDbEntity
  8
L1_105
  6
CONTINUOUS
 62
         7
100
AcDbVertex
100
AcDb2dVertex
 10
1477.6703817474
 20
-28.4115787889
 30
0.0
 70
         1
  0
VERTEX
  5
C9
100
AcDbEntity
  8
L1_105
  6
CONTINUOUS
 62
         7
100
AcDbVertex
100
AcDb2dVertex
 10
1478.0334759438
 20
-28.3467172746
 30
0.0
 70
         1
  0
VERTEX
  5
CB
100
AcDbEntity
  8
L1_105
  6
CONTINUOUS
 62
         7
100
AcDbVertex
100
AcDb2dVertex
 10
1478.3548356266
 20
-28.2768329894
 30
0.0
 70
         1
  0
VERTEX
  5
CD
100
AcDbEntity
  8
L1_105
  6
CONTINUOUS
 62
         7
100
AcDbVertex
100
AcDb2dVertex
 10
1478.6374782947
 20
-28.2042493303
 30
0.0
 70
         1
  0
VERTEX
  5
CF
100
AcDbEntity
  8
L1_105
  6
CONTINUOUS
 62
         7
100
AcDbVertex
100
AcDb2dVertex
 10
1478.9630704075
 20
-28.105380338
 30
0.0
 70
         1
  0
VERTEX
  5
D1
100
AcDbEntity
  8
L1_105
  6
CONTINUOUS
 62
         7
100
AcDbVertex
100
AcDb2dVertex
 10
1479.2335582159
 20
-28.008088282
 30
0.0
 70
         1
  0
VERTEX
  5
D3
100
AcDbEntity
  8
L1_105
  6
CONTINUOUS
 62
         7
100
AcDbVertex
100
AcDb2dVertex
 10
1479.4573796738
 20
-27.9144702006
 30
0.0
 70
         1
  0
VERTEX
  5
D5
100
AcDbEntity
  8
L1_105
  6
CONTINUOUS
 62
         7
100
AcDbVertex
100
AcDb2dVertex
 10
1479.6421680588
 20
-27.825786137
 30
0.0
 70
         1
  0
VERTEX
  5
D7
100
AcDbEntity
  8
L1_105
  6
CONTINUOUS
 62
         7
100
AcDbVertex
100
AcDb2dVertex
 10
1479.8415368066
 20
-27.7148859904
 30
0.0
 70
         1
  0
VERTEX
  5
D9
100
AcDbEntity
  8
L1_105
  6
CONTINUOUS
 62
         7
100
AcDbVertex
100
AcDb2dVertex
 10
1479.9952222816
 20
-27.6146892033
 30
0.0
 70
         1
  0
VERTEX
  5
DB
100
AcDbEntity
  8
L1_105
  6
CONTINUOUS
 62
         7
100
AcDbVertex
100
AcDb2dVertex
 10
1480.1494727235
 20
-27.4952086406
 30
0.0
 70
         1
  0
VERTEX
  5
DD
100
AcDbEntity
  8
L1_105
  6
CONTINUOUS
 62
         7
100
AcDbVertex
100
AcDb2dVertex
 10
1480.25848735
 20
-27.3932216393
 30
0.0
 70
         1
  0
VERTEX
  5
DF
100
AcDbEntity
  8
L1_105
  6
CONTINUOUS
 62
         7
100
AcDbVertex
100
AcDb2dVertex
 10
1480.3584835226
 20
-27.2780585908
 30
0.0
 70
         1
  0
VERTEX
  5
E1
100
AcDbEntity
  8
L1_105
  6
CONTINUOUS
 62
         7
100
AcDbVertex
100
AcDb2dVertex
 10
1480.4394033716
 20
-27.155980512
 30
0.0
 70
         1
  0
VERTEX
  5
E3
100
AcDbEntity
  8
L1_105
  6
CONTINUOUS
 62
         7
100
AcDbVertex
100
AcDb2dVertex
 10
1480.4946742951
 20
-27.0369998626
 30
0.0
 70
         1
  0
VERTEX
  5
E5
100
AcDbEntity
  8
L1_105
  6
CONTINUOUS
 62
         7
100
AcDbVertex
100
AcDb2dVertex
 10
1480.5305020396
 20
-26.9001034487
 30
0.0
 70
         1
  0
VERTEX
  5
E7
100
AcDbEntity
  8
L1_105
  6
CONTINUOUS
 62
         7
100
AcDbVertex
100
AcDb2dVertex
 10
1480.5382741959
 20
-26.7997412012
 30
0.0
 70
         1
  0
SEQEND
  5
E9
100
AcDbEntity
  8
L1_105
  6
CONTINUOUS
 62
         7
  0
POLYLINE
  5
EB
100
AcDbEntity
  8
L1_105
  6
CONTINUOUS
 62
         7
100
AcDb2dPolyline
 66
         1
 10
0.0
 20
0.0
 30
0.0
 70
         2
  0
VERTEX
  5
ED
100
AcDbEntity
  8
L1_105
  6
CONTINUOUS
 62
         7
100
AcDbVertex
100
AcDb2dVertex
 10
1480.5382741959
 20
-26.7997412012
 30
0.0
 70
         1
  0
VERTEX
  5
EF
100
AcDbEntity
  8
L1_105
  6
CONTINUOUS
 62
         7
100
AcDbVertex
100
AcDb2dVertex
 10
1480.4736953644
 20
-26.303879188
 30
0.0
 70
         1
  0
VERTEX
  5
F1
100
AcDbEntity
  8
L1_105
  6
CONTINUOUS
 62
         7
100
AcDbVertex
100
AcDb2dVertex
 10
1480.4000860658
 20
-26.0772172717
 30
0.0
 70
         1
  0
VERTEX
  5
F3
100
AcDbEntity
  8
L1_105
  6
CONTINUOUS
 62
         7
100
AcDbVertex
100
AcDb2dVertex
 10
1480.3051135935
 20
-25.8659867446
 30
0.0
 70
         1
  0
VERTEX
  5
F5
100
AcDbEntity
  8
L1_105
  6
CONTINUOUS
 62
         7
100
AcDbVertex
100
AcDb2dVertex
 10
1480.1930799965
 20
-25.6704694554
 30
0.0
 70
         1
  0
VERTEX
  5
F7
100
AcDbEntity
  8
L1_105
  6
CONTINUOUS
 62
         7
100
AcDbVertex
100
AcDb2dVertex
 10
1480.0225348213
 20
-25.4323179417
 30
0.0
 70
         1
  0
VERTEX
  5
F9
100
AcDbEntity
  8
L1_105
  6
CONTINUOUS
 62
         7
100
AcDbVertex
100
AcDb2dVertex
 10
1479.8363846546
 20
-25.2211094049
 30
0.0
 70
         1
  0
VERTEX
  5
FB
100
AcDbEntity
  8
L1_105
  6
CONTINUOUS
 62
         7
100
AcDbVertex
100
AcDb2dVertex
 10
1479.6413227132
 20
-25.0350528979
 30
0.0
 70
         1
  0
VERTEX
  5
FD
100
AcDbEntity
  8
L1_105
  6
CONTINUOUS
 62
         7
100
AcDbVertex
100
AcDb2dVertex
 10
1479.373696699
 20
-24.8204329025
 30
0.0
 70
         1
  0
VERTEX
  5
FF
100
AcDbEntity
  8
L1_105
  6
CONTINUOUS
 62
         7
100
AcDbVertex
100
AcDb2dVertex
 10
1479.1088192027
 20
-24.641943858
 30
0.0
 70
         1
  0
VERTEX
  5
101
100
AcDbEntity
  8
L1_105
  6
CONTINUOUS
 62
         7
100
AcDbVertex
100
AcDb2dVertex
 10
1478.7658978364
 20
-24.4485558922
 30
0.0
 70
         1
  0
VERTEX
  5
103
100
AcDbEntity
  8
L1_105
  6
CONTINUOUS
 62
         7
100
AcDbVertex
100
AcDb2dVertex
 10
1478.4478235669
 20
-24.2993163516
 30
0.0
 70
         1
  0
VERTEX
  5
105
100
AcDbEntity
  8
L1_105
  6
CONTINUOUS
 62
         7
100
AcDbVertex
100
AcDb2dVertex
 10
1478.0614641061
 20
-24.1498526392
 30
0.0
 70
         1
  0
VERTEX
  5
107
100
AcDbEntity
  8
L1_105
  6
CONTINUOUS
 62
         7
100
AcDbVertex
100
AcDb2dVertex
 10
1477.7277358477
 20
-24.0447526734
 30
0.0
 70
         1
  0
VERTEX
  5
109
100
AcDbEntity
  8
L1_105
  6
CONTINUOUS
 62
         7
100
AcDbVertex
100
AcDb2dVertex
 10
1477.3485870831
 20
-23.9490615515
 30
0.0
 70
         1
  0
VERTEX
  5
10B
100
AcDbEntity
  8
L1_105
  6
CONTINUOUS
 62
         7
100
AcDbVertex
100
AcDb2dVertex
 10
1476.9459979367
 20
-23.872440803
 30
0.0
 70
         1
  0
VERTEX
  5
10D
100
AcDbEntity
  8
L1_105
  6
CONTINUOUS
 62
         7
100
AcDbVertex
100
AcDb2dVertex
 10
1476.5547064987
 20
-23.8207884671
 30
0.0
 70
         1
  0
VERTEX
  5
10F
100
AcDbEntity
  8
L1_105
  6
CONTINUOUS
 62
         7
100
AcDbVertex
100
AcDb2dVertex
 10
1476.2163788912
 20
-23.7933425279
 30
0.0
 70
         1
  0
VERTEX
  5
111
100
AcDbEntity
  8
L1_105
  6
CONTINUOUS
 62
         7
100
AcDbVertex
100
AcDb2dVertex
 10
1475.8881722611
 20
-23.781528093
 30
0.0
 70
         1
  0
VERTEX
  5
113
100
AcDbEntity
  8
L1_105
  6
CONTINUOUS
 62
         7
100
AcDbVertex
100
AcDb2dVertex
 10
1475.7832741959
 20
-23.780793389
 30
0.0
 70
         1
  0
SEQEND
  5
115
100
AcDbEntity
  8
L1_105
  6
CONTINUOUS
 62
         7
  0
LINE
  5
116
100
AcDbEntity
  8
L1_105
  6
CONTINUOUS
 62
         7
100
AcDbLine
 10
1475.7832741959
 20
-23.780793389
 30
0.0
 11
1460.2933403762
 21
-23.7807932717
 31
0.0
  0
LINE
  5
117
100
AcDbEntity
  8
L1_105
  6
CONTINUOUS
 62
         7
100
AcDbLine
 10
1475.7832780192
 20
-28.555793389
 30
0.0
 11
1460.2933403632
 21
-28.5557932717
 31
0.0
  0
POLYLINE
  5
119
100
AcDbEntity
  8
L1_105
  6
CONTINUOUS
 62
         7
100
AcDb2dPolyline
 66
         1
 10
0.0
 20
0.0
 30
0.0
 70
         2
  0
VERTEX
  5
11B
100
AcDbEntity
  8
L1_105
  6
CONTINUOUS
 62
         7
100
AcDbVertex
100
AcDb2dVertex
 10
1455.5383403763
 20
-26.7997410839
 30
0.0
 70
         1
  0
VERTEX
  5
11D
100
AcDbEntity
  8
L1_105
  6
CONTINUOUS
 62
         7
100
AcDbVertex
100
AcDb2dVertex
 10
1455.5956955029
 20
-27.0716664298
 30
0.0
 70
         1
  0
VERTEX
  5
11F
100
AcDbEntity
  8
L1_105
  6
CONTINUOUS
 62
         7
100
AcDbVertex
100
AcDb2dVertex
 10
1455.6657868256
 20
-27.2035829066
 30
0.0
 70
         1
  0
VERTEX
  5
121
100
AcDbEntity
  8
L1_105
  6
CONTINUOUS
 62
         7
100
AcDbVertex
100
AcDb2dVertex
 10
1455.7610372714
 20
-27.330856354
 30
0.0
 70
         1
  0
VERTEX
  5
123
100
AcDbEntity
  8
L1_105
  6
CONTINUOUS
 62
         7
100
AcDbVertex
100
AcDb2dVertex
 10
1455.8788111988
 20
-27.4522709073
 30
0.0
 70
         1
  0
VERTEX
  5
125
100
AcDbEntity
  8
L1_105
  6
CONTINUOUS
 62
         7
100
AcDbVertex
100
AcDb2dVertex
 10
1456.0160308305
 20
-27.566854512
 30
0.0
 70
         1
  0
VERTEX
  5
127
100
AcDbEntity
  8
L1_105
  6
CONTINUOUS
 62
         7
100
AcDbVertex
100
AcDb2dVertex
 10
1456.1693565047
 20
-27.6738967172
 30
0.0
 70
         1
  0
VERTEX
  5
129
100
AcDbEntity
  8
L1_105
  6
CONTINUOUS
 62
         7
100
AcDbVertex
100
AcDb2dVertex
 10
1456.3353607744
 20
-27.7729475013
 30
0.0
 70
         1
  0
VERTEX
  5
12B
100
AcDbEntity
  8
L1_105
  6
CONTINUOUS
 62
         7
100
AcDbVertex
100
AcDb2dVertex
 10
1456.5106822679
 20
-27.8638002456
 30
0.0
 70
         1
  0
VERTEX
  5
12D
100
AcDbEntity
  8
L1_105
  6
CONTINUOUS
 62
         7
100
AcDbVertex
100
AcDb2dVertex
 10
1456.7568416869
 20
-27.9736013858
 30
0.0
 70
         1
  0
VERTEX
  5
12F
100
AcDbEntity
  8
L1_105
  6
CONTINUOUS
 62
         7
100
AcDbVertex
100
AcDb2dVertex
 10
1457.0072832493
 20
-28.0689874369
 30
0.0
 70
         1
  0
VERTEX
  5
131
100
AcDbEntity
  8
L1_105
  6
CONTINUOUS
 62
         7
100
AcDbVertex
100
AcDb2dVertex
 10
1457.2561894914
 20
-28.1509051343
 30
0.0
 70
         1
  0
VERTEX
  5
133
100
AcDbEntity
  8
L1_105
  6
CONTINUOUS
 62
         7
100
AcDbVertex
100
AcDb2dVertex
 10
1457.5837735911
 20
-28.242792659
 30
0.0
 70
         1
  0
VERTEX
  5
135
100
AcDbEntity
  8
L1_105
  6
CONTINUOUS
 62
         7
100
AcDbVertex
100
AcDb2dVertex
 10
1457.8921399662
 20
-28.315439811
 30
0.0
 70
         1
  0
VERTEX
  5
137
100
AcDbEntity
  8
L1_105
  6
CONTINUOUS
 62
         7
100
AcDbVertex
100
AcDb2dVertex
 10
1458.2747036819
 20
-28.3896956925
 30
0.0
 70
         1
  0
VERTEX
  5
139
100
AcDbEntity
  8
L1_105
  6
CONTINUOUS
 62
         7
100
AcDbVertex
100
AcDb2dVertex
 10
1458.7226638464
 20
-28.457223677
 30
0.0
 70
         1
  0
VERTEX
  5
13B
100
AcDbEntity
  8
L1_105
  6
CONTINUOUS
 62
         7
100
AcDbVertex
100
AcDb2dVertex
 10
1459.2033395777
 20
-28.5090325596
 30
0.0
 70
         1
  0
VERTEX
  5
13D
100
AcDbEntity
  8
L1_105
  6
CONTINUOUS
 62
         7
100
AcDbVertex
100
AcDb2dVertex
 10
1459.8112752366
 20
-28.5467455739
 30
0.0
 70
         1
  0
VERTEX
  5
13F
100
AcDbEntity
  8
L1_105
  6
CONTINUOUS
 62
         7
100
AcDbVertex
100
AcDb2dVertex
 10
1460.2933403762
 20
-28.5557932717
 30
0.0
 70
         1
  0
SEQEND
  5
141
100
AcDbEntity
  8
L1_105
  6
CONTINUOUS
 62
         7
  0
POLYLINE
  5
143
100
AcDbEntity
  8
L1_105
  6
CONTINUOUS
 62
         7
100
AcDb2dPolyline
 66
         1
 10
0.0
 20
0.0
 30
0.0
 70
         2
  0
VERTEX
  5
145
100
AcDbEntity
  8
L1_105
  6
CONTINUOUS
 62
         7
100
AcDbVertex
100
AcDb2dVertex
 10
1460.2933403762
 20
-23.7807932717
 30
0.0
 70
         1
  0
VERTEX
  5
147
100
AcDbEntity
  8
L1_105
  6
CONTINUOUS
 62
         7
100
AcDbVertex
100
AcDb2dVertex
 10
1459.5570268265
 20
-23.8172080212
 30
0.0
 70
         1
  0
VERTEX
  5
149
100
AcDbEntity
  8
L1_105
  6
CONTINUOUS
 62
         7
100
AcDbVertex
100
AcDb2dVertex
 10
1459.1998262537
 20
-23.8617089771
 30
0.0
 70
         1
  0
VERTEX
  5
14B
100
AcDbEntity
  8
L1_105
  6
CONTINUOUS
 62
         7
100
AcDbVertex
100
AcDb2dVertex
 10
1458.8551979753
 20
-23.9221834513
 30
0.0
 70
         1
  0
VERTEX
  5
14D
100
AcDbEntity
  8
L1_105
  6
CONTINUOUS
 62
         7
100
AcDbVertex
100
AcDb2dVertex
 10
1458.5264342832
 20
-23.996958076
 30
0.0
 70
         1
  0
VERTEX
  5
14F
100
AcDbEntity
  8
L1_105
  6
CONTINUOUS
 62
         7
100
AcDbVertex
100
AcDb2dVertex
 10
1458.1118920548
 20
-24.1172387495
 30
0.0
 70
         1
  0
VERTEX
  5
151
100
AcDbEntity
  8
L1_105
  6
CONTINUOUS
 62
         7
100
AcDbVertex
100
AcDb2dVertex
 10
1457.7354854529
 20
-24.2547988428
 30
0.0
 70
         1
  0
VERTEX
  5
153
100
AcDbEntity
  8
L1_105
  6
CONTINUOUS
 62
         7
100
AcDbVertex
100
AcDb2dVertex
 10
1457.3993614076
 20
-24.4043167433
 30
0.0
 70
         1
  0
VERTEX
  5
155
100
AcDbEntity
  8
L1_105
  6
CONTINUOUS
 62
         7
100
AcDbVertex
100
AcDb2dVertex
 10
1457.1036517259
 20
-24.5607936753
 30
0.0
 70
         1
  0
VERTEX
  5
157
100
AcDbEntity
  8
L1_105
  6
CONTINUOUS
 62
         7
100
AcDbVertex
100
AcDb2dVertex
 10
1456.8468909215
 20
-24.7198258204
 30
0.0
 70
         1
  0
VERTEX
  5
159
100
AcDbEntity
  8
L1_105
  6
CONTINUOUS
 62
         7
100
AcDbVertex
100
AcDb2dVertex
 10
1456.5557447951
 20
-24.9334812217
 30
0.0
 70
         1
  0
VERTEX
  5
15B
100
AcDbEntity
  8
L1_105
  6
CONTINUOUS
 62
         7
100
AcDbVertex
100
AcDb2dVertex
 10
1456.3231782752
 20
-25.138311958
 30
0.0
 70
         1
  0
VERTEX
  5
15D
100
AcDbEntity
  8
L1_105
  6
CONTINUOUS
 62
         7
100
AcDbVertex
100
AcDb2dVertex
 10
1456.140007375
 20
-25.3298627061
 30
0.0
 70
         1
  0
VERTEX
  5
15F
100
AcDbEntity
  8
L1_105
  6
CONTINUOUS
 62
         7
100
AcDbVertex
100
AcDb2dVertex
 10
1455.9534141246
 20
-25.5661611148
 30
0.0
 70
         1
  0
VERTEX
  5
161
100
AcDbEntity
  8
L1_105
  6
CONTINUOUS
 62
         7
100
AcDbVertex
100
AcDb2dVertex
 10
1455.8228404172
 20
-25.7711536684
 30
0.0
 70
         1
  0
VERTEX
  5
163
100
AcDbEntity
  8
L1_105
  6
CONTINUOUS
 62
         7
100
AcDbVertex
100
AcDb2dVertex
 10
1455.7059324227
 20
-26.0053009057
 30
0.0
 70
         1
  0
VERTEX
  5
165
100
AcDbEntity
  8
L1_105
  6
CONTINUOUS
 62
         7
100
AcDbVertex
100
AcDb2dVertex
 10
1455.6173983751
 20
-26.2515202576
 30
0.0
 70
         1
  0
VERTEX
  5
167
100
AcDbEntity
  8
L1_105
  6
CONTINUOUS
 62
         7
100
AcDbVertex
100
AcDb2dVertex
 10
1455.5649108724
 20
-26.4810370018
 30
0.0
 70
         1
  0
VERTEX
  5
169
100
AcDbEntity
  8
L1_105
  6
CONTINUOUS
 62
         7
100
AcDbVertex
100
AcDb2dVertex
 10
1455.5400053935
 20
-26.7198558174
 30
0.0
 70
         1
  0
VERTEX
  5
16B
100
AcDbEntity
  8
L1_105
  6
CONTINUOUS
 62
         7
100
AcDbVertex
100
AcDb2dVertex
 10
1455.5383403763
 20
-26.7997410839
 30
0.0
 70
         1
  0
SEQEND
  5
16D
100
AcDbEntity
  8
L1_105
  6
CONTINUOUS
 62
         7
  0
LINE
  5
16E
100
AcDbEntity
  8
L1_105
  6
CONTINUOUS
 62
         4
100
AcDbLine
 10
1424.1320155108
 20
-15.4433347407
 30
0.0
 11
1424.1320155108
 21
-10.4433347407
 31
0.0
  0
LINE
  5
16F
100
AcDbEntity
  8
L1_105
  6
CONTINUOUS
 62
         4
100
AcDbLine
 10
1500.8032133573
 20
129.7577756414
 30
0.0
 11
1500.8032133573
 21
170.6115078174
 31
0.0
  0
DIMENSION
  5
172
100
AcDbEntity
  8
L1_105
  6
CONTINUOUS
 62
         4
100
AcDbDimension
  2
*D2
 10
1350.8033403763
 20
209.9473019056
 30
0.0
 11
1428.7769739524
 21
211.9723019056
 31
0.0
  3
DIMSTYLE1
100
AcDbAlignedDimension
 13
1350.8033403763
 23
167.7346417294
 33
0.0
 14
1505.1333403763
 24
150.1846417294
 34
0.0
100
AcDbRotatedDimension
  0
LINE
  5
17E
100
AcDbEntity
  8
L1_105
  6
CONTINUOUS
 62
         7
100
AcDbLine
 10
1419.1033403763
 20
130.1346417294
 30
0.0
 11
1419.1033403763
 21
170.2346417294
 31
0.0
  0
LINE
  5
17F
100
AcDbEntity
  8
L1_105
  6
CONTINUOUS
 62
         7
100
AcDbLine
 10
1350.8033403763
 20
132.6346417294
 30
0.0
 11
1350.8033403763
 21
167.7346417294
 31
0.0
  0
LINE
  5
180
100
AcDbEntity
  8
L1_105
  6
CENTER
 62
         1
100
AcDbLine
 10
1623.2833403763
 20
113.5414140613
 30
0.0
 11
1623.2833403763
 21
183.3893116386
 31
0.0
  0
LINE
  5
181
100
AcDbEntity
  8
L1_105
  6
CENTER
 62
         1
100
AcDbLine
 10
1645.7833403763
 20
150.1846417294
 30
0.0
 11
1590.7833403763
 21
150.1846417294
 31
0.0
  0
CIRCLE
  5
182
100
AcDbEntity
  8
L1_105
  6
CONTINUOUS
 62
         7
100
AcDbCircle
 10
1623.2833403763
 20
150.1846417294
 30
0.0
 40
18.0
  0
CIRCLE
  5
183
100
AcDbEntity
  8
L1_105
  6
CONTINUOUS
 62
         7
100
AcDbCircle
 10
1623.2833403763
 20
150.1846417294
 30
0.0
 40
22.5
  0
CIRCLE
  5
184
100
AcDbEntity
  8
L1_105
  6
CONTINUOUS
 62
         7
100
AcDbCircle
 10
1623.2833403763
 20
150.1846417294
 30
0.0
 40
20.5
  0
LINE
  5
185
100
AcDbEntity
  8
L1_105
  6
CENTER
 62
         1
100
AcDbLine
 10
1505.1333403763
 20
-12.9433347407
 30
0.0
 11
1430.1333403763
 21
-12.9433347407
 31
0.0
  0
LINE
  5
186
100
AcDbEntity
  8
L1_105
  6
CONTINUOUS
 62
         7
100
AcDbLine
 10
1487.1333403763
 20
-33.3433347407
 30
0.0
 11
1487.2333403763
 21
-33.4433347407
 31
0.0
  0
LINE
  5
187
100
AcDbEntity
  8
L1_105
  6
CONTINUOUS
 62
         7
100
AcDbLine
 10
1500.2673149725
 20
-33.4433347407
 30
0.0
 11
1487.2333403763
 21
-33.4433347407
 31
0.0
  0
LINE
  5
188
100
AcDbEntity
  8
L1_105
  6
CONTINUOUS
 62
         7
100
AcDbLine
 10
1487.1333403763
 20
-32.4433347407
 30
0.0
 11
1487.1333403763
 21
-33.3433347407
 31
0.0
  0
LINE
  5
189
100
AcDbEntity
  8
L1_105
  6
CONTINUOUS
 62
         7
100
AcDbLine
 10
1485.1333403763
 20
-33.3433347407
 30
0.0
 11
1485.0333403763
 21
-33.4433347407
 31
0.0
  0
LINE
  5
18A
100
AcDbEntity
  8
L1_105
  6
CONTINUOUS
 62
         7
100
AcDbLine
 10
1485.0333403763
 20
-33.4433347407
 30
0.0
 11
1454.6333403763
 21
-33.4433347407
 31
0.0
  0
LINE
  5
18B
100
AcDbEntity
  8
L1_105
  6
CONTINUOUS
 62
         7
100
AcDbLine
 10
1485.1333403763
 20
-32.4433347407
 30
0.0
 11
1485.1333403763
 21
-33.3433347407
 31
0.0
  0
LINE
  5
18C
100
AcDbEntity
  8
L1_105
  6
CONTINUOUS
 62
         7
100
AcDbLine
 10
1487.1333403763
 20
7.4566652593
 30
0.0
 11
1487.2333403763
 21
7.5566652593
 31
0.0
  0
LINE
  5
18D
100
AcDbEntity
  8
L1_105
  6
CONTINUOUS
 62
         7
100
AcDbLine
 10
1500.2673149725
 20
7.5566652593
 30
0.0
 11
1487.2333403763
 21
7.5566652593
 31
0.0
  0
LINE
  5
18E
100
AcDbEntity
  8
L1_105
  6
CONTINUOUS
 62
         7
100
AcDbLine
 10
1487.1333403763
 20
6.5566652593
 30
0.0
 11
1487.1333403763
 21
7.4566652593
 31
0.0
  0
LINE
  5
18F
100
AcDbEntity
  8
L1_105
  6
CONTINUOUS
 62
         7
100
AcDbLine
 10
1485.0333403763
 20
7.5566652593
 30
0.0
 11
1485.1333403763
 21
7.4566652593
 31
0.0
  0
LINE
  5
190
100
AcDbEntity
  8
L1_105
  6
CONTINUOUS
 62
         7
100
AcDbLine
 10
1485.1333403763
 20
6.5566652593
 30
0.0
 11
1485.1333403763
 21
7.4566652593
 31
0.0
  0
LINE
  5
191
100
AcDbEntity
  8
L1_105
  6
CONTINUOUS
 62
         7
100
AcDbLine
 10
1485.0333403763
 20
7.5566652593
 30
0.0
 11
1454.6333403763
 21
7.5566652593
 31
0.0
  0
LINE
  5
192
100
AcDbEntity
  8
L1_105
  6
CONTINUOUS
 62
         4
100
AcDbLine
 10
1479.1333403763
 20
-28.9433347407
 30
0.0
 11
1479.1333403763
 21
-28.0459566002
 31
0.0
  0
ARC
  5
193
100
AcDbEntity
  8
L1_105
  6
CONTINUOUS
 62
         7
100
AcDbCircle
 10
1479.1333403763
 20
4.0566652593
 30
0.0
 40
1.0
100
AcDbArc
 50
270.0
 51
360.0
  0
ARC
  5
194
100
AcDbEntity
  8
L1_105
  6
CONTINUOUS
 62
         7
100
AcDbCircle
 10
1479.1333403763
 20
-29.9433347407
 30
0.0
 40
1.0
100
AcDbArc
 50
0.0
 51
90.0
  0
ARC
  5
195
100
AcDbEntity
  8
L1_105
  6
CONTINUOUS
 62
         7
100
AcDbCircle
 10
1504.6333403763
 20
-30.6546596061
 30
0.0
 40
0.5
100
AcDbArc
 50
300.0
 51
360.0
  0
ARC
  5
196
100
AcDbEntity
  8
L1_105
  6
CONTINUOUS
 62
         7
100
AcDbCircle
 10
1504.6333403763
 20
4.7679901247
 30
0.0
 40
0.5
100
AcDbArc
 50
0.0
 51
60.0
  0
LINE
  5
197
100
AcDbEntity
  8
L1_105
  6
CENTER
 62
         1
100
AcDbLine
 10
1460.5383403763
 20
-0.354140038
 30
0.0
 11
1460.5383403763
 21
12.7589287345
 31
0.0
  0
LINE
  5
198
100
AcDbEntity
  8
L1_105
  6
CENTER
 62
         1
100
AcDbLine
 10
1475.5382741959
 20
-0.354140038
 30
0.0
 11
1475.5382741959
 21
12.7589287345
 31
0.0
  0
ARC
  5
199
100
AcDbEntity
  8
L1_105
  6
CONTINUOUS
 62
         7
100
AcDbCircle
 10
1451.6333403763
 20
-34.9433347407
 30
0.0
 40
0.5
100
AcDbArc
 50
270.0
 51
360.0
  0
ARC
  5
19A
100
AcDbEntity
  8
L1_105
  6
CONTINUOUS
 62
         7
100
AcDbCircle
 10
1451.6333403763
 20
9.0566652593
 30
0.0
 40
0.5
100
AcDbArc
 50
0.0
 51
90.0
  0
LINE
  5
19B
100
AcDbEntity
  8
L1_105
  6
CONTINUOUS
 62
         7
100
AcDbLine
 10
1424.1320155108
 20
-10.4433347407
 30
0.0
 11
1422.6886398379
 21
-12.9433347407
 31
0.0
  0
LINE
  5
19C
100
AcDbEntity
  8
L1_105
  6
CONTINUOUS
 62
         7
100
AcDbLine
 10
1424.1320155108
 20
-15.4433347407
 30
0.0
 11
1422.6886398379
 21
-12.9433347407
 31
0.0
  0
LINE
  5
19D
100
AcDbEntity
  8
L1_105
  6
CONTINUOUS
 62
         7
100
AcDbLine
 10
1505.1333403763
 20
-30.6546596061
 30
0.0
 11
1505.1333403763
 21
4.7679901247
 31
0.0
  0
LINE
  5
19E
100
AcDbEntity
  8
L1_105
  6
CONTINUOUS
 62
         7
100
AcDbLine
 10
1480.1333403763
 20
-30.4433347407
 30
0.0
 11
1480.1333403763
 21
-27.5088624116
 31
0.0
  0
LINE
  5
19F
100
AcDbEntity
  8
L1_105
  6
CONTINUOUS
 62
         7
100
AcDbLine
 10
1485.1333403763
 20
-30.4433347407
 30
0.0
 11
1485.1333403763
 21
4.5566652593
 31
0.0
  0
LINE
  5
1A0
100
AcDbEntity
  8
L1_105
  6
CONTINUOUS
 62
         7
100
AcDbLine
 10
1479.1333403763
 20
3.0566652593
 30
0.0
 11
1444.1333403763
 21
3.0566652593
 31
0.0
  0
LINE
  5
1A1
100
AcDbEntity
  8
L1_105
  6
CONTINUOUS
 62
         7
100
AcDbLine
 10
1479.1333403763
 20
-28.9433347407
 30
0.0
 11
1444.1333403763
 21
-28.9433347407
 31
0.0
  0
LINE
  5
1A2
100
AcDbEntity
  8
L1_105
  6
CONTINUOUS
 62
         7
100
AcDbLine
 10
1485.1333403763
 20
4.5566652593
 30
0.0
 11
1480.1333403763
 21
4.5566652593
 31
0.0
  0
LINE
  5
1A3
100
AcDbEntity
  8
L1_105
  6
CONTINUOUS
 62
         7
100
AcDbLine
 10
1485.1333403763
 20
-30.4433347407
 30
0.0
 11
1480.1333403763
 21
-30.4433347407
 31
0.0
  0
LINE
  5
1A4
100
AcDbEntity
  8
L1_105
  6
CONTINUOUS
 62
         7
100
AcDbLine
 10
1487.1333403763
 20
-32.4433347407
 30
0.0
 11
1485.1333403763
 21
-32.4433347407
 31
0.0
  0
LINE
  5
1A5
100
AcDbEntity
  8
L1_105
  6
CONTINUOUS
 62
         7
100
AcDbLine
 10
1487.1333403763
 20
6.5566652593
 30
0.0
 11
1485.1333403763
 21
6.5566652593
 31
0.0
  0
LINE
  5
1A6
100
AcDbEntity
  8
L1_105
  6
CONTINUOUS
 62
         4
100
AcDbLine
 10
1427.1333403763
 20
-15.9433347407
 30
0.0
 11
1427.1333403763
 21
-9.9433347407
 31
0.0
  0
LINE
  5
1A7
100
AcDbEntity
  8
L1_105
  6
CONTINUOUS
 62
         4
100
AcDbLine
 10
1439.1333403763
 20
-15.9433347407
 30
0.0
 11
1427.1333403763
 21
-15.9433347407
 31
0.0
  0
LINE
  5
1A8
100
AcDbEntity
  8
L1_105
  6
CONTINUOUS
 62
         4
100
AcDbLine
 10
1439.1333403763
 20
-9.9433347407
 30
0.0
 11
1427.1333403763
 21
-9.9433347407
 31
0.0
  0
LINE
  5
1A9
100
AcDbEntity
  8
L1_105
  6
CONTINUOUS
 62
         7
100
AcDbLine
 10
1439.1333403763
 20
-29.4433347407
 30
0.0
 11
1439.1333403763
 21
3.5566652593
 31
0.0
  0
LINE
  5
1AA
100
AcDbEntity
  8
L1_105
  6
CONTINUOUS
 62
         7
100
AcDbLine
 10
1444.1333403763
 20
-29.4433347407
 30
0.0
 11
1444.1333403763
 21
3.5566652593
 31
0.0
  0
LINE
  5
1AB
100
AcDbEntity
  8
L1_105
  6
CONTINUOUS
 62
         7
100
AcDbLine
 10
1444.1333403763
 20
3.5566652593
 30
0.0
 11
1439.1333403763
 21
3.5566652593
 31
0.0
  0
LINE
  5
1AC
100
AcDbEntity
  8
L1_105
  6
CONTINUOUS
 62
         7
100
AcDbLine
 10
1444.1333403763
 20
-29.4433347407
 30
0.0
 11
1439.1333403763
 21
-29.4433347407
 31
0.0
  0
LINE
  5
1AD
100
AcDbEntity
  8
L1_105
  6
CONTINUOUS
 62
         7
100
AcDbLine
 10
1451.6333403763
 20
9.5566652593
 30
0.0
 11
1421.1033403763
 21
9.5566652593
 31
0.0
  0
LINE
  5
1AE
100
AcDbEntity
  8
L1_105
  6
CONTINUOUS
 62
         7
100
AcDbLine
 10
1451.6333403763
 20
-35.4433347407
 30
0.0
 11
1421.1033403763
 21
-35.4433347407
 31
0.0
  0
LINE
  5
1AF
100
AcDbEntity
  8
L1_105
  6
CONTINUOUS
 62
         7
100
AcDbLine
 10
1504.8833403763
 20
5.2010028266
 30
0.0
 11
1501.2673149725
 21
7.2887160669
 31
0.0
  0
ARC
  5
1B0
100
AcDbEntity
  8
L1_105
  6
CONTINUOUS
 62
         7
100
AcDbCircle
 10
1500.2673149725
 20
5.5566652593
 30
0.0
 40
2.0
100
AcDbArc
 50
60.0
 51
90.0000000001
  0
ARC
  5
1B1
100
AcDbEntity
  8
L1_105
  6
CONTINUOUS
 62
         7
100
AcDbCircle
 10
1500.2673149725
 20
-31.4433347407
 30
0.0
 40
2.0
100
AcDbArc
 50
269.9999999999
 51
300.0
  0
LINE
  5
1B2
100
AcDbEntity
  8
L1_105
  6
CONTINUOUS
 62
         7
100
AcDbLine
 10
1504.8833403763
 20
-31.087672308
 30
0.0
 11
1501.2673149725
 21
-33.1753855482
 31
0.0
  0
LINE
  5
1B3
100
AcDbEntity
  8
L1_105
  6
CENTER
 62
         1
100
AcDbLine
 10
1441.6333403763
 20
-36.883636675
 30
0.0
 11
1441.6333403763
 21
-28.2483828809
 31
0.0
  0
LINE
  5
1B4
100
AcDbEntity
  8
L1_105
  6
CONTINUOUS
 62
         7
100
AcDbLine
 10
1442.6333403763
 20
-35.4433347407
 30
0.0
 11
1442.6333403763
 21
-29.4433347407
 31
0.0
  0
LINE
  5
1B5
100
AcDbEntity
  8
L1_105
  6
CONTINUOUS
 62
         7
100
AcDbLine
 10
1440.6333403763
 20
-35.4433347407
 30
0.0
 11
1440.6333403763
 21
-29.4433347407
 31
0.0
  0
LINE
  5
1B6
100
AcDbEntity
  8
L1_105
  6
CONTINUOUS
 62
         7
100
AcDbLine
 10
1453.8342692157
 20
-33.2433347407
 30
0.0
 11
1452.4333403763
 21
-33.2433347407
 31
0.0
  0
LINE
  5
1B7
100
AcDbEntity
  8
L1_105
  6
CONTINUOUS
 62
         7
100
AcDbLine
 10
1453.9377968337
 20
-33.2569644102
 30
0.0
 11
1454.6333403763
 21
-33.4433347407
 31
0.0
  0
ARC
  5
1B8
100
AcDbEntity
  8
L1_105
  6
CONTINUOUS
 62
         7
100
AcDbCircle
 10
1453.8342692157
 20
-33.6433347407
 30
0.0
 40
0.4
100
AcDbArc
 50
75.0
 51
90.0
  0
LINE
  5
1B9
100
AcDbEntity
  8
L1_105
  6
CONTINUOUS
 62
         7
100
AcDbLine
 10
1455.2698320494
 20
-33.4433347407
 30
0.0
 11
1454.6333403763
 21
-33.4433347407
 31
0.0
  0
LINE
  5
1BA
100
AcDbEntity
  8
L1_105
  6
CONTINUOUS
 62
         7
100
AcDbLine
 10
1452.0334794587
 20
-33.6327873912
 30
0.0
 11
1452.1333403763
 21
-34.3433347407
 31
0.0
  0
ARC
  5
1BB
100
AcDbEntity
  8
L1_105
  6
CONTINUOUS
 62
         7
100
AcDbCircle
 10
1452.4333403763
 20
-33.6433347407
 30
0.0
 40
0.4
100
AcDbArc
 50
90.0
 51
178.4890283439
  0
LINE
  5
1BC
100
AcDbEntity
  8
L1_105
  6
CONTINUOUS
 62
         7
100
AcDbLine
 10
1452.1333403763
 20
-34.3433347407
 30
0.0
 11
1452.1333403763
 21
-34.9433347407
 31
0.0
  0
LINE
  5
1BD
100
AcDbEntity
  8
L1_105
  6
CONTINUOUS
 62
         7
100
AcDbLine
 10
1453.8342692157
 20
7.3566652593
 30
0.0
 11
1452.4333403763
 21
7.3566652593
 31
0.0
  0
LINE
  5
1BE
100
AcDbEntity
  8
L1_105
  6
CONTINUOUS
 62
         7
100
AcDbLine
 10
1453.9377968337
 20
7.3702949288
 30
0.0
 11
1454.6333403763
 21
7.5566652593
 31
0.0
  0
ARC
  5
1BF
100
AcDbEntity
  8
L1_105
  6
CONTINUOUS
 62
         7
100
AcDbCircle
 10
1453.8342692157
 20
7.7566652593
 30
0.0
 40
0.4
100
AcDbArc
 50
270.0
 51
285.0
  0
LINE
  5
1C0
100
AcDbEntity
  8
L1_105
  6
CONTINUOUS
 62
         7
100
AcDbLine
 10
1455.3198320494
 20
7.5566652593
 30
0.0
 11
1454.6333403763
 21
7.5566652593
 31
0.0
  0
LINE
  5
1C1
100
AcDbEntity
  8
L1_105
  6
CONTINUOUS
 62
         7
100
AcDbLine
 10
1452.0334794587
 20
7.7461179098
 30
0.0
 11
1452.1333403763
 21
8.4566652593
 31
0.0
  0
ARC
  5
1C2
100
AcDbEntity
  8
L1_105
  6
CONTINUOUS
 62
         7
100
AcDbCircle
 10
1452.4333403763
 20
7.7566652593
 30
0.0
 40
0.4
100
AcDbArc
 50
181.5109716561
 51
270.0
  0
LINE
  5
1C3
100
AcDbEntity
  8
L1_105
  6
CONTINUOUS
 62
         7
100
AcDbLine
 10
1452.1333403763
 20
8.4566652593
 30
0.0
 11
1452.1333403763
 21
9.0566652593
 31
0.0
  0
LINE
  5
1C4
100
AcDbEntity
  8
L1_105
  6
CENTER
 62
         1
100
AcDbLine
 10
1505.1333403763
 20
150.1846417294
 30
0.0
 11
1419.1033403763
 21
150.1846417294
 31
0.0
  0
LINE
  5
1C5
100
AcDbEntity
  8
L1_105
  6
CONTINUOUS
 62
         7
100
AcDbLine
 10
1486.1333403763
 20
129.7846417294
 30
0.0
 11
1486.2333403763
 21
129.6846417294
 31
0.0
  0
LINE
  5
1C6
100
AcDbEntity
  8
L1_105
  6
CONTINUOUS
 62
         7
100
AcDbLine
 10
1500.2673149725
 20
129.6846417294
 30
0.0
 11
1486.2333403763
 21
129.6846417294
 31
0.0
  0
LINE
  5
1C7
100
AcDbEntity
  8
L1_105
  6
CONTINUOUS
 62
         7
100
AcDbLine
 10
1486.1333403763
 20
170.5846417294
 30
0.0
 11
1486.1333403763
 21
129.7846417294
 31
0.0
  0
LINE
  5
1C8
100
AcDbEntity
  8
L1_105
  6
CONTINUOUS
 62
         7
100
AcDbLine
 10
1484.1333403763
 20
129.7846417294
 30
0.0
 11
1484.0333403763
 21
129.6846417294
 31
0.0
  0
LINE
  5
1C9
100
AcDbEntity
  8
L1_105
  6
CONTINUOUS
 62
         7
100
AcDbLine
 10
1484.0333403763
 20
129.6846417294
 30
0.0
 11
1454.6333403763
 21
129.6846417294
 31
0.0
  0
LINE
  5
1CA
100
AcDbEntity
  8
L1_105
  6
CONTINUOUS
 62
         7
100
AcDbLine
 10
1484.1333403763
 20
170.5846417294
 30
0.0
 11
1484.1333403763
 21
129.7846417294
 31
0.0
  0
LINE
  5
1CB
100
AcDbEntity
  8
L1_105
  6
CONTINUOUS
 62
         7
100
AcDbLine
 10
1486.1333403763
 20
170.5846417294
 30
0.0
 11
1486.2333403763
 21
170.6846417294
 31
0.0
  0
LINE
  5
1CC
100
AcDbEntity
  8
L1_105
  6
CONTINUOUS
 62
         7
100
AcDbLine
 10
1500.2673149725
 20
170.6846417294
 30
0.0
 11
1486.2333403763
 21
170.6846417294
 31
0.0
  0
LINE
  5
1CD
100
AcDbEntity
  8
L1_105
  6
CONTINUOUS
 62
         7
100
AcDbLine
 10
1484.0333403763
 20
170.6846417294
 30
0.0
 11
1484.1333403763
 21
170.5846417294
 31
0.0
  0
LINE
  5
1CE
100
AcDbEntity
  8
L1_105
  6
CONTINUOUS
 62
         7
100
AcDbLine
 10
1484.0333403763
 20
170.6846417294
 30
0.0
 11
1454.6333403763
 21
170.6846417294
 31
0.0
  0
ARC
  5
1CF
100
AcDbEntity
  8
L1_105
  6
CONTINUOUS
 62
         7
100
AcDbCircle
 10
1451.6333403763
 20
128.1846417294
 30
0.0
 40
0.5
100
AcDbArc
 50
270.0
 51
360.0
  0
ARC
  5
1D0
100
AcDbEntity
  8
L1_105
  6
CONTINUOUS
 62
         7
100
AcDbCircle
 10
1451.6333403763
 20
172.1846417294
 30
0.0
 40
0.5
100
AcDbArc
 50
0.0
 51
90.0
  0
LINE
  5
1D1
100
AcDbEntity
  8
L1_105
  6
CONTINUOUS
 62
         4
100
AcDbLine
 10
1454.6333403763
 20
129.6846417294
 30
0.0
 11
1454.6333403763
 21
170.6846417294
 31
0.0
  0
LINE
  5
1D2
100
AcDbEntity
  8
L1_105
  6
CENTER
 62
         1
100
AcDbLine
 10
1460.5383403763
 20
145.1846417294
 30
0.0
 11
1460.5383403763
 21
155.0346417294
 31
0.0
  0
LINE
  5
1D3
100
AcDbEntity
  8
L1_105
  6
CENTER
 62
         1
100
AcDbLine
 10
1475.5382741959
 20
145.1846417294
 30
0.0
 11
1475.5382741959
 21
155.0346417294
 31
0.0
  0
DIMENSION
  5
1D6
100
AcDbEntity
  8
L1_105
  6
CONTINUOUS
 62
         4
100
AcDbDimension
  2
*D3
 10
1552.6826483081
 20
172.6846417294
 30
0.0
 11
1549.5506483081
 21
144.1273538612
 31
0.0
  3
DIMSTYLE1
100
AcDbAlignedDimension
 13
1451.1333403763
 23
172.6846417294
 33
0.0
 14
1451.1333403763
 24
127.6846417294
 34
0.0
 50
90.0
100
AcDbRotatedDimension
  0
LINE
  5
1E2
100
AcDbEntity
  8
L1_105
  6
CONTINUOUS
 62
         7
100
AcDbLine
 10
1505.1333403763
 20
132.7619919986
 30
0.0
 11
1505.1333403763
 21
167.6072914602
 31
0.0
  0
LINE
  5
1E3
100
AcDbEntity
  8
L1_105
  6
CONTINUOUS
 62
         7
100
AcDbLine
 10
1486.1333403763
 20
130.6846417294
 30
0.0
 11
1484.1333403763
 21
130.6846417294
 31
0.0
  0
LINE
  5
1E4
100
AcDbEntity
  8
L1_105
  6
CONTINUOUS
 62
         7
100
AcDbLine
 10
1486.1333403763
 20
169.6846417294
 30
0.0
 11
1484.1333403763
 21
169.6846417294
 31
0.0
  0
LINE
  5
1E5
100
AcDbEntity
  8
L1_105
  6
CONTINUOUS
 62
         7
100
AcDbLine
 10
1452.1333403763
 20
129.7492168605
 30
0.0
 11
1452.1333403763
 21
170.6200665983
 31
0.0
  0
LINE
  5
1E6
100
AcDbEntity
  8
L1_105
  6
CONTINUOUS
 62
         7
100
AcDbLine
 10
1451.6333403763
 20
172.6846417294
 30
0.0
 11
1421.1033403763
 21
172.6846417294
 31
0.0
  0
LINE
  5
1E7
100
AcDbEntity
  8
L1_105
  6
CONTINUOUS
 62
         7
100
AcDbLine
 10
1451.6333403763
 20
127.6846417294
 30
0.0
 11
1421.1033403763
 21
127.6846417294
 31
0.0
  0
ARC
  5
1E8
100
AcDbEntity
  8
L1_105
  6
CONTINUOUS
 62
         7
100
AcDbCircle
 10
1500.2673149725
 20
131.6846417294
 30
0.0
 40
2.0
100
AcDbArc
 50
269.9999999999
 51
300.0
  0
LINE
  5
1E9
100
AcDbEntity
  8
L1_105
  6
CONTINUOUS
 62
         7
100
AcDbLine
 10
1504.6333403763
 20
131.8959665948
 30
0.0
 11
1501.2673149725
 21
129.9525909218
 31
0.0
  0
ARC
  5
1EA
100
AcDbEntity
  8
L1_105
  6
CONTINUOUS
 62
         7
100
AcDbCircle
 10
1504.1333403763
 20
132.7619919986
 30
0.0
 40
1.0
100
AcDbArc
 50
300.0
 51
360.0
  0
ARC
  5
1EB
100
AcDbEntity
  8
L1_105
  6
CONTINUOUS
 62
         7
100
AcDbCircle
 10
1500.2673149725
 20
168.6846417294
 30
0.0
 40
2.0
100
AcDbArc
 50
60.0
 51
90.0000000001
  0
LINE
  5
1EC
100
AcDbEntity
  8
L1_105
  6
CONTINUOUS
 62
         7
100
AcDbLine
 10
1504.6333403763
 20
168.473316864
 30
0.0
 11
1501.2673149725
 21
170.416692537
 31
0.0
  0
ARC
  5
1ED
100
AcDbEntity
  8
L1_105
  6
CONTINUOUS
 62
         7
100
AcDbCircle
 10
1504.1333403763
 20
167.6072914602
 30
0.0
 40
1.0
100
AcDbArc
 50
0.0
 51
60.0
  0
DIMENSION
  5
1F0
100
AcDbEntity
  8
L1_105
  6
CONTINUOUS
 62
         4
100
AcDbDimension
  2
*D4
 10
1525.5667069289
 20
168.1846417294
 30
0.0
 11
1522.4347069289
 21
142.3329165641
 31
0.0
  3
DIMSTYLE1
100
AcDbAlignedDimension
 13
1505.1333403763
 23
168.1846417294
 33
0.0
 14
1505.1333403763
 24
132.1846417294
 34
0.0
 50
90.0
100
AcDbRotatedDimension
  0
LINE
  5
1FC
100
AcDbEntity
  8
L1_105
  6
CONTINUOUS
 62
         7
100
AcDbLine
 10
1453.8342692157
 20
170.4846417294
 30
0.0
 11
1452.4333403763
 21
170.4846417294
 31
0.0
  0
LINE
  5
1FD
100
AcDbEntity
  8
L1_105
  6
CONTINUOUS
 62
         7
100
AcDbLine
 10
1453.9377968337
 20
170.4982713989
 30
0.0
 11
1454.6333403763
 21
170.6846417294
 31
0.0
  0
ARC
  5
1FE
100
AcDbEntity
  8
L1_105
  6
CONTINUOUS
 62
         7
100
AcDbCircle
 10
1453.8342692157
 20
170.8846417294
 30
0.0
 40
0.4
100
AcDbArc
 50
270.0
 51
285.0
  0
LINE
  5
1FF
100
AcDbEntity
  8
L1_105
  6
CONTINUOUS
 62
         7
100
AcDbLine
 10
1455.2698320494
 20
170.6846417294
 30
0.0
 11
1454.6333403763
 21
170.6846417294
 31
0.0
  0
LINE
  5
200
100
AcDbEntity
  8
L1_105
  6
CONTINUOUS
 62
         7
100
AcDbLine
 10
1452.0334794587
 20
170.8740943799
 30
0.0
 11
1452.1333403763
 21
171.5846417294
 31
0.0
  0
ARC
  5
201
100
AcDbEntity
  8
L1_105
  6
CONTINUOUS
 62
         7
100
AcDbCircle
 10
1452.4333403763
 20
170.8846417294
 30
0.0
 40
0.4
100
AcDbArc
 50
181.5109716561
 51
270.0
  0
LINE
  5
202
100
AcDbEntity
  8
L1_105
  6
CONTINUOUS
 62
         7
100
AcDbLine
 10
1452.1333403763
 20
171.5846417294
 30
0.0
 11
1452.1333403763
 21
172.1846417294
 31
0.0
  0
LINE
  5
203
100
AcDbEntity
  8
L1_105
  6
CONTINUOUS
 62
         7
100
AcDbLine
 10
1453.8342692157
 20
129.8846417294
 30
0.0
 11
1452.4333403763
 21
129.8846417294
 31
0.0
  0
LINE
  5
204
100
AcDbEntity
  8
L1_105
  6
CONTINUOUS
 62
         7
100
AcDbLine
 10
1453.9377968337
 20
129.8710120599
 30
0.0
 11
1454.6333403763
 21
129.6846417294
 31
0.0
  0
ARC
  5
205
100
AcDbEntity
  8
L1_105
  6
CONTINUOUS
 62
         7
100
AcDbCircle
 10
1453.8342692157
 20
129.4846417294
 30
0.0
 40
0.4
100
AcDbArc
 50
75.0
 51
90.0
  0
LINE
  5
206
100
AcDbEntity
  8
L1_105
  6
CONTINUOUS
 62
         7
100
AcDbLine
 10
1455.2698320494
 20
129.6846417294
 30
0.0
 11
1454.6333403763
 21
129.6846417294
 31
0.0
  0
LINE
  5
207
100
AcDbEntity
  8
L1_105
  6
CONTINUOUS
 62
         7
100
AcDbLine
 10
1452.0334794587
 20
129.4951890789
 30
0.0
 11
1452.1333403763
 21
128.7846417294
 31
0.0
  0
ARC
  5
208
100
AcDbEntity
  8
L1_105
  6
CONTINUOUS
 62
         7
100
AcDbCircle
 10
1452.4333403763
 20
129.4846417294
 30
0.0
 40
0.4
100
AcDbArc
 50
90.0
 51
178.4890283439
  0
LINE
  5
209
100
AcDbEntity
  8
L1_105
  6
CONTINUOUS
 62
         7
100
AcDbLine
 10
1452.1333403763
 20
128.7846417294
 30
0.0
 11
1452.1333403763
 21
128.1846417294
 31
0.0
  0
CIRCLE
  5
20A
100
AcDbEntity
  8
L1_105
  6
DASHED
 62
         2
100
AcDbCircle
 10
1623.2833403763
 20
150.1846417294
 30
0.0
 40
19.5
  0
CIRCLE
  5
20B
100
AcDbEntity
  8
L1_105
  6
CONTINUOUS
 62
         7
100
AcDbCircle
 10
1623.2833403763
 20
150.1846417294
 30
0.0
 40
2.0
  0
ARC
  5
20C
100
AcDbEntity
  8
L1_105
  6
CONTINUOUS
 62
         4
100
AcDbCircle
 10
1623.2833403763
 20
150.1846417294
 30
0.0
 40
3.0
100
AcDbArc
 50
270.0
 51
540.0
  0
CIRCLE
  5
20D
100
AcDbEntity
  8
L1_105
  6
CONTINUOUS
 62
         7
100
AcDbCircle
 10
1623.2833403763
 20
150.1846417294
 30
0.0
 40
17.0
  0
CIRCLE
  5
20E
100
AcDbEntity
  8
L1_105
  6
CONTINUOUS
 62
         7
100
AcDbCircle
 10
1623.2833403763
 20
150.1846417294
 30
0.0
 40
16.0
  0
CIRCLE
  5
20F
100
AcDbEntity
  8
L1_105
  6
DASHED
 62
         2
100
AcDbCircle
 10
1623.2833403763
 20
150.1846417294
 30
0.0
 40
16.5
  0
CIRCLE
  5
210
100
AcDbEntity
  8
L1_105
  6
DASHED
 62
         2
100
AcDbCircle
 10
1623.2833403763
 20
150.1846417294
 30
0.0
 40
17.5
  0
LINE
  5
211
100
AcDbEntity
  8
L1_105
  6
CENTER
 62
         1
100
AcDbLine
 10
1623.2833403763
 20
150.1846417294
 30
0.0
 11
1637.8590744375
 21
124.9387297777
 31
0.0
  0
LINE
  5
212
100
AcDbEntity
  8
L1_105
  6
CENTER
 62
         1
100
AcDbLine
 10
1623.2833403763
 20
150.1846417294
 30
0.0
 11
1640.2920346599
 21
179.644564399
 31
0.0
  0
LINE
  5
213
100
AcDbEntity
  8
L1_105
  6
CONTINUOUS
 62
         7
100
AcDbLine
 10
1439.1333403763
 20
-10.4433347407
 30
0.0
 11
1424.1320155108
 21
-10.4433347407
 31
0.0
  0
LINE
  5
214
100
AcDbEntity
  8
L1_105
  6
CONTINUOUS
 62
         7
100
AcDbLine
 10
1439.1333403763
 20
-15.4433347407
 30
0.0
 11
1424.1320155108
 21
-15.4433347407
 31
0.0
  0
LINE
  5
215
100
AcDbEntity
  8
L1_105
  6
CONTINUOUS
 62
         4
100
AcDbLine
 10
1595.5012659414
 20
54.4872179209
 30
0.0
 11
1595.5012659414
 21
73.2872179209
 31
0.0
  0
LINE
  5
216
100
AcDbEntity
  8
L1_105
  6
CONTINUOUS
 62
         4
100
AcDbLine
 10
1585.3012659414
 20
56.3872179209
 30
0.0
 11
1585.3012659414
 21
71.3872179209
 31
0.0
  0
LINE
  5
217
100
AcDbEntity
  8
L1_105
  6
CONTINUOUS
 62
         7
100
AcDbLine
 10
1595.3012659414
 20
54.6872179209
 30
0.0
 11
1595.5012659414
 21
54.4872179209
 31
0.0
  0
LINE
  5
218
100
AcDbEntity
  8
L1_105
  6
CONTINUOUS
 62
         7
100
AcDbLine
 10
1595.3012659414
 20
73.0872179209
 30
0.0
 11
1595.5012659414
 21
73.2872179209
 31
0.0
  0
LINE
  5
219
100
AcDbEntity
  8
L1_105
  6
CONTINUOUS
 62
         7
100
AcDbLine
 10
1584.8012659414
 20
56.8872179209
 30
0.0
 11
1585.3012659414
 21
56.3872179209
 31
0.0
  0
LINE
  5
21A
100
AcDbEntity
  8
L1_105
  6
CONTINUOUS
 62
         7
100
AcDbLine
 10
1584.8012659414
 20
70.8872179209
 30
0.0
 11
1585.3012659414
 21
71.3872179209
 31
0.0
  0
LINE
  5
21B
100
AcDbEntity
  8
L1_105
  6
CONTINUOUS
 62
         4
100
AcDbLine
 10
1594.8012659414
 20
71.3872179209
 30
0.0
 11
1594.8012659414
 21
56.3872179209
 31
0.0
  0
LINE
  5
21C
100
AcDbEntity
  8
L1_105
  6
CONTINUOUS
 62
         4
100
AcDbLine
 10
1599.8012659414
 20
73.2872179209
 30
0.0
 11
1599.8012659414
 21
54.4872179209
 31
0.0
  0
LINE
  5
21D
100
AcDbEntity
  8
L1_105
  6
CONTINUOUS
 62
         7
100
AcDbLine
 10
1600.3012659414
 20
54.9872179209
 30
0.0
 11
1599.8012659414
 21
54.4872179209
 31
0.0
  0
LINE
  5
21E
100
AcDbEntity
  8
L1_105
  6
CONTINUOUS
 62
         7
100
AcDbLine
 10
1599.8012659414
 20
54.4872179209
 30
0.0
 11
1595.5012659414
 21
54.4872179209
 31
0.0
  0
LINE
  5
21F
100
AcDbEntity
  8
L1_105
  6
CONTINUOUS
 62
         7
100
AcDbLine
 10
1600.3012659414
 20
54.9872179209
 30
0.0
 11
1600.3012659414
 21
72.7872179209
 31
0.0
  0
LINE
  5
220
100
AcDbEntity
  8
L1_105
  6
CONTINUOUS
 62
         7
100
AcDbLine
 10
1599.8012659414
 20
73.2872179209
 30
0.0
 11
1600.3012659414
 21
72.7872179209
 31
0.0
  0
LINE
  5
221
100
AcDbEntity
  8
L1_105
  6
CONTINUOUS
 62
         7
100
AcDbLine
 10
1599.8012659414
 20
73.2872179209
 30
0.0
 11
1595.5012659414
 21
73.2872179209
 31
0.0
  0
ARC
  5
222
100
AcDbEntity
  8
L1_105
  6
CONTINUOUS
 62
         7
100
AcDbCircle
 10
1594.8012659414
 20
55.8872179209
 30
0.0
 40
0.5
100
AcDbArc
 50
0.0
 51
90.0
  0
LINE
  5
223
100
AcDbEntity
  8
L1_105
  6
CONTINUOUS
 62
         7
100
AcDbLine
 10
1594.8012659414
 20
56.3872179209
 30
0.0
 11
1585.3012659414
 21
56.3872179209
 31
0.0
  0
LINE
  5
224
100
AcDbEntity
  8
L1_105
  6
CONTINUOUS
 62
         7
100
AcDbLine
 10
1594.8012659414
 20
71.3872179209
 30
0.0
 11
1585.3012659414
 21
71.3872179209
 31
0.0
  0
LINE
  5
225
100
AcDbEntity
  8
L1_105
  6
CONTINUOUS
 62
         7
100
AcDbLine
 10
1595.3012659414
 20
54.6872179209
 30
0.0
 11
1595.3012659414
 21
73.0872179209
 31
0.0
  0
ARC
  5
226
100
AcDbEntity
  8
L1_105
  6
CONTINUOUS
 62
         7
100
AcDbCircle
 10
1594.8012659414
 20
71.8872179209
 30
0.0
 40
0.5
100
AcDbArc
 50
270.0
 51
360.0
  0
LINE
  5
227
100
AcDbEntity
  8
L1_105
  6
CONTINUOUS
 62
         7
100
AcDbLine
 10
1584.8012659414
 20
56.8872179209
 30
0.0
 11
1584.8012659414
 21
70.8872179209
 31
0.0
  0
DIMENSION
  5
22A
100
AcDbEntity
  8
L1_105
  6
CONTINUOUS
 62
         4
100
AcDbDimension
  2
*D5
 10
1600.3012659414
 20
75.8608563818
 30
0.0
 11
1587.3036222668
 21
77.8858563818
 31
0.0
  3
DIMSTYLE1
100
AcDbAlignedDimension
 13
1600.3012659414
 23
72.7872179209
 33
0.0
 14
1584.8012659414
 24
71.2872179209
 34
0.0
100
AcDbRotatedDimension
  0
DIMENSION
  5
238
100
AcDbEntity
  8
L1_105
  6
CONTINUOUS
 62
         4
100
AcDbDimension
  2
*D6
 10
1606.9961697435
 20
73.2872179209
 30
0.0
 11
1604.9711697435
 21
55.7333698022
 31
0.0
  3
DIMSTYLE1
100
AcDbAlignedDimension
 13
1599.8012659414
 23
73.2872179209
 33
0.0
 14
1599.8012659414
 24
54.4872179209
 34
0.0
 50
90.0
100
AcDbRotatedDimension
  0
DIMENSION
  5
246
100
AcDbEntity
  8
L1_105
  6
CONTINUOUS
 62
         4
100
AcDbDimension
  2
*D7
 10
1583.0411626588
 20
71.3872179209
 30
0.0
 11
1581.0161626588
 21
57.9365153964
 31
0.0
  3
DIMSTYLE1
100
AcDbAlignedDimension
 13
1584.9012659414
 23
71.3872179209
 33
0.0
 14
1584.9012659414
 24
56.3872179209
 34
0.0
 50
90.0
100
AcDbRotatedDimension
  0
LINE
  5
252
100
AcDbEntity
  8
L1_105
  6
CONTINUOUS
 62
         4
100
AcDbLine
 10
1564.1692151338
 20
41.4603518329
 30
0.0
 11
1564.1692151338
 21
86.3140840089
 31
0.0
  0
ARC
  5
253
100
AcDbEntity
  8
L1_105
  6
CONTINUOUS
 62
         7
100
AcDbCircle
 10
1563.6333167489
 20
43.3872179209
 30
0.0
 40
2.0
100
AcDbArc
 50
270.0
 51
300.0
  0
LINE
  5
254
100
AcDbEntity
  8
L1_105
  6
CONTINUOUS
 62
         7
100
AcDbLine
 10
1564.6333167489
 20
41.6551671133
 30
0.0
 11
1565.6512659414
 21
42.2428803536
 31
0.0
  0
ARC
  5
255
100
AcDbEntity
  8
L1_105
  6
CONTINUOUS
 62
         7
100
AcDbCircle
 10
1565.4012659414
 20
42.6758930555
 30
0.0
 40
0.5
100
AcDbArc
 50
300.0
 51
360.0
  0
ARC
  5
256
100
AcDbEntity
  8
L1_105
  6
CONTINUOUS
 62
         7
100
AcDbCircle
 10
1565.4012659414
 20
85.0985427863
 30
0.0
 40
0.5
100
AcDbArc
 50
0.0
 51
60.0
  0
LINE
  5
257
100
AcDbEntity
  8
L1_105
  6
CONTINUOUS
 62
         7
100
AcDbLine
 10
1564.6333167489
 20
86.1192687285
 30
0.0
 11
1565.6512659414
 21
85.5315554882
 31
0.0
  0
ARC
  5
258
100
AcDbEntity
  8
L1_105
  6
CONTINUOUS
 62
         7
100
AcDbCircle
 10
1563.6333167489
 20
84.3872179209
 30
0.0
 40
2.0
100
AcDbArc
 50
60.0
 51
90.0
  0
LINE
  5
259
100
AcDbEntity
  8
L1_105
  6
CONTINUOUS
 62
         4
100
AcDbLine
 10
1534.4012659414
 20
86.3872179209
 30
0.0
 11
1534.4012659414
 21
41.3872179209
 31
0.0
  0
LINE
  5
25A
100
AcDbEntity
  8
L1_105
  6
CONTINUOUS
 62
         7
100
AcDbLine
 10
1533.9012659414
 20
41.8872179209
 30
0.0
 11
1534.4012659414
 21
41.3872179209
 31
0.0
  0
LINE
  5
25B
100
AcDbEntity
  8
L1_105
  6
CONTINUOUS
 62
         7
100
AcDbLine
 10
1563.6333167489
 20
41.3872179209
 30
0.0
 11
1534.4012659414
 21
41.3872179209
 31
0.0
  0
LINE
  5
25C
100
AcDbEntity
  8
L1_105
  6
CONTINUOUS
 62
         7
100
AcDbLine
 10
1533.9012659414
 20
41.8872179209
 30
0.0
 11
1533.9012659414
 21
85.8872179209
 31
0.0
  0
LINE
  5
25D
100
AcDbEntity
  8
L1_105
  6
CONTINUOUS
 62
         7
100
AcDbLine
 10
1533.9012659414
 20
85.8872179209
 30
0.0
 11
1534.4012659414
 21
86.3872179209
 31
0.0
  0
LINE
  5
25E
100
AcDbEntity
  8
L1_105
  6
CONTINUOUS
 62
         7
100
AcDbLine
 10
1563.6333167489
 20
86.3872179209
 30
0.0
 11
1534.4012659414
 21
86.3872179209
 31
0.0
  0
LINE
  5
25F
100
AcDbEntity
  8
L1_105
  6
CONTINUOUS
 62
         7
100
AcDbLine
 10
1565.9012659414
 20
42.6758930555
 30
0.0
 11
1565.9012659414
 21
85.0985427863
 31
0.0
  0
DIMENSION
  5
262
100
AcDbEntity
  8
L1_105
  6
CONTINUOUS
 62
         4
100
AcDbDimension
  2
*D8
 10
1533.9012659414
 20
89.3775292973
 30
0.0
 11
1547.9034903879
 21
91.4025292973
 31
0.0
  3
DIMSTYLE1
100
AcDbAlignedDimension
 13
1533.9012659414
 23
85.8872179209
 33
0.0
 14
1565.9012659414
 24
85.0985427863
 34
0.0
100
AcDbRotatedDimension
  0
DIMENSION
  5
270
100
AcDbEntity
  8
L1_105
  6
CONTINUOUS
 62
         4
100
AcDbDimension
  2
*D9
 10
1572.8242796636
 20
86.3872179209
 30
0.0
 11
1570.7992796636
 21
58.583514695
 31
0.0
  3
DIMSTYLE1
100
AcDbAlignedDimension
 13
1562.7672913452
 23
86.3872179209
 33
0.0
 14
1562.7672913452
 24
41.3872179209
 34
0.0
 50
90.0
100
AcDbRotatedDimension
  0
ARC
  5
27C
100
AcDbEntity
  8
L1_105
  6
CONTINUOUS
 62
         7
100
AcDbCircle
 10
1625.1352405376
 20
48.3872179209
 30
0.0
 40
0.5
100
AcDbArc
 50
240.0
 51
270.0
  0
ARC
  5
27D
100
AcDbEntity
  8
L1_105
  6
CONTINUOUS
 62
         7
100
AcDbCircle
 10
1623.0012659414
 20
49.6192687285
 30
0.0
 40
0.5
100
AcDbArc
 50
180.0
 51
240.0
  0
ARC
  5
27E
100
AcDbEntity
  8
L1_105
  6
CONTINUOUS
 62
         7
100
AcDbCircle
 10
1623.0012659414
 20
78.1551671133
 30
0.0
 40
0.5
100
AcDbArc
 50
120.0
 51
180.0
  0
ARC
  5
27F
100
AcDbEntity
  8
L1_105
  6
CONTINUOUS
 62
         7
100
AcDbCircle
 10
1625.1352405376
 20
79.3872179209
 30
0.0
 40
0.5
100
AcDbArc
 50
90.0
 51
120.0
  0
LINE
  5
280
100
AcDbEntity
  8
L1_105
  6
CONTINUOUS
 62
         7
100
AcDbLine
 10
1622.7512659414
 20
49.1862560266
 30
0.0
 11
1624.8852405376
 21
47.954205219
 31
0.0
  0
LINE
  5
281
100
AcDbEntity
  8
L1_105
  6
CONTINUOUS
 62
         7
100
AcDbLine
 10
1622.7512659414
 20
78.5881798152
 30
0.0
 11
1624.8852405376
 21
79.8202306228
 31
0.0
  0
LINE
  5
282
100
AcDbEntity
  8
L1_105
  6
CONTINUOUS
 62
         4
100
AcDbLine
 10
1625.0012659414
 20
47.8872179209
 30
0.0
 11
1625.0012659414
 21
79.8872179209
 31
0.0
  0
LINE
  5
283
100
AcDbEntity
  8
L1_105
  6
CONTINUOUS
 62
         7
100
AcDbLine
 10
1648.6008790013
 20
60.8872179209
 30
0.0
 11
1635.7046553748
 21
60.8872179209
 31
0.0
  0
LINE
  5
284
100
AcDbEntity
  8
L1_105
  6
CONTINUOUS
 62
         7
100
AcDbLine
 10
1648.6008790013
 20
66.8872179209
 30
0.0
 11
1635.7046553748
 21
66.8872179209
 31
0.0
  0
LINE
  5
285
100
AcDbEntity
  8
L1_105
  6
CONTINUOUS
 62
         4
100
AcDbLine
 10
1668.5012659414
 20
51.1872179209
 30
0.0
 11
1668.5012659414
 21
76.5872179209
 31
0.0
  0
ARC
  5
286
100
AcDbEntity
  8
L1_105
  6
CONTINUOUS
 62
         7
100
AcDbCircle
 10
1665.0012659414
 20
48.8872179209
 30
0.0
 40
1.0
100
AcDbArc
 50
270.0
 51
360.0
  0
ARC
  5
287
100
AcDbEntity
  8
L1_105
  6
CONTINUOUS
 62
         7
100
AcDbCircle
 10
1665.0012659414
 20
78.8872179209
 30
0.0
 40
1.0
100
AcDbArc
 50
0.0
 51
90.0
  0
LINE
  5
288
100
AcDbEntity
  8
L1_105
  6
CENTER
 62
         1
100
AcDbLine
 10
1648.6008790013
 20
58.0361561243
 30
0.0
 11
1648.6008790013
 21
70.5572055209
 31
0.0
  0
LINE
  5
289
100
AcDbEntity
  8
L1_105
  6
CENTER
 62
         1
100
AcDbLine
 10
1635.7046553748
 20
58.0361561243
 30
0.0
 11
1635.7046553748
 21
70.5572055209
 31
0.0
  0
LINE
  5
28A
100
AcDbEntity
  8
L1_105
  6
CENTER
 62
         1
100
AcDbLine
 10
1673.8012659414
 20
46.2117582463
 30
0.0
 11
1673.8012659414
 21
79.9280658189
 31
0.0
  0
LINE
  5
28B
100
AcDbEntity
  8
L1_105
  6
CENTER
 62
         1
100
AcDbLine
 10
1680.2012659414
 20
56.4153776433
 30
0.0
 11
1680.2012659414
 21
70.1680820479
 31
0.0
  0
CIRCLE
  5
28C
100
AcDbEntity
  8
L1_105
  6
CONTINUOUS
 62
         7
100
AcDbCircle
 10
1680.2012659414
 20
63.8872179209
 30
0.0
 40
2.5
  0
POLYLINE
  5
28E
100
AcDbEntity
  8
L1_105
  6
CONTINUOUS
 62
         7
100
AcDb2dPolyline
 66
         1
 10
0.0
 20
0.0
 30
0.0
 70
         2
  0
VERTEX
  5
290
100
AcDbEntity
  8
L1_105
  6
CONTINUOUS
 62
         7
100
AcDbVertex
100
AcDb2dVertex
 10
1671.8012659414
 20
52.7629201903
 30
0.0
 70
         1
  0
VERTEX
  5
292
100
AcDbEntity
  8
L1_105
  6
CONTINUOUS
 62
         7
100
AcDbVertex
100
AcDb2dVertex
 10
1671.8460454009
 20
52.5524964284
 30
0.0
 70
         1
  0
VERTEX
  5
294
100
AcDbEntity
  8
L1_105
  6
CONTINUOUS
 62
         7
100
AcDbVertex
100
AcDb2dVertex
 10
1671.8953393882
 20
52.4598344046
 30
0.0
 70
         1
  0
VERTEX
  5
296
100
AcDbEntity
  8
L1_105
  6
CONTINUOUS
 62
         7
100
AcDbVertex
100
AcDb2dVertex
 10
1671.9643032023
 20
52.3674559393
 30
0.0
 70
         1
  0
VERTEX
  5
298
100
AcDbEntity
  8
L1_105
  6
CONTINUOUS
 62
         7
100
AcDbVertex
100
AcDb2dVertex
 10
1672.0533075458
 20
52.2769568564
 30
0.0
 70
         1
  0
VERTEX
  5
29A
100
AcDbEntity
  8
L1_105
  6
CONTINUOUS
 62
         7
100
AcDbVertex
100
AcDb2dVertex
 10
1672.1620355112
 20
52.1900057994
 30
0.0
 70
         1
  0
VERTEX
  5
29C
100
AcDbEntity
  8
L1_105
  6
CONTINUOUS
 62
         7
100
AcDbVertex
100
AcDb2dVertex
 10
1672.2894355054
 20
52.1082506681
 30
0.0
 70
         1
  0
VERTEX
  5
29E
100
AcDbEntity
  8
L1_105
  6
CONTINUOUS
 62
         7
100
AcDbVertex
100
AcDb2dVertex
 10
1672.4337361116
 20
52.0332178255
 30
0.0
 70
         1
  0
VERTEX
  5
2A0
100
AcDbEntity
  8
L1_105
  6
CONTINUOUS
 62
         7
100
AcDbVertex
100
AcDb2dVertex
 10
1672.5925267102
 20
51.9662161249
 30
0.0
 70
         1
  0
VERTEX
  5
2A2
100
AcDbEntity
  8
L1_105
  6
CONTINUOUS
 62
         7
100
AcDbVertex
100
AcDb2dVertex
 10
1672.8234541003
 20
51.8905836721
 30
0.0
 70
         1
  0
VERTEX
  5
2A4
100
AcDbEntity
  8
L1_105
  6
CONTINUOUS
 62
         7
100
AcDbVertex
100
AcDb2dVertex
 10
1673.067377496
 20
51.8326772449
 30
0.0
 70
         1
  0
VERTEX
  5
2A6
100
AcDbEntity
  8
L1_105
  6
CONTINUOUS
 62
         7
100
AcDbVertex
100
AcDb2dVertex
 10
1673.3162783162
 20
51.792767238
 30
0.0
 70
         1
  0
VERTEX
  5
2A8
100
AcDbEntity
  8
L1_105
  6
CONTINUOUS
 62
         7
100
AcDbVertex
100
AcDb2dVertex
 10
1673.6464690326
 20
51.7659199499
 30
0.0
 70
         1
  0
VERTEX
  5
2AA
100
AcDbEntity
  8
L1_105
  6
CONTINUOUS
 62
         7
100
AcDbVertex
100
AcDb2dVertex
 10
1673.9579743244
 20
51.7659946059
 30
0.0
 70
         1
  0
VERTEX
  5
2AC
100
AcDbEntity
  8
L1_105
  6
CONTINUOUS
 62
         7
100
AcDbVertex
100
AcDb2dVertex
 10
1674.2413112301
 20
51.7874254256
 30
0.0
 70
         1
  0
VERTEX
  5
2AE
100
AcDbEntity
  8
L1_105
  6
CONTINUOUS
 62
         7
100
AcDbVertex
100
AcDb2dVertex
 10
1674.4917564411
 20
51.8244076877
 30
0.0
 70
         1
  0
VERTEX
  5
2B0
100
AcDbEntity
  8
L1_105
  6
CONTINUOUS
 62
         7
100
AcDbVertex
100
AcDb2dVertex
 10
1674.7083420409
 20
51.871683276
 30
0.0
 70
         1
  0
VERTEX
  5
2B2
100
AcDbEntity
  8
L1_105
  6
CONTINUOUS
 62
         7
100
AcDbVertex
100
AcDb2dVertex
 10
1674.950254536
 20
51.9444116061
 30
0.0
 70
         1
  0
VERTEX
  5
2B4
100
AcDbEntity
  8
L1_105
  6
CONTINUOUS
 62
         7
100
AcDbVertex
100
AcDb2dVertex
 10
1675.1409170349
 20
52.0204016808
 30
0.0
 70
         1
  0
VERTEX
  5
2B6
100
AcDbEntity
  8
L1_105
  6
CONTINUOUS
 62
         7
100
AcDbVertex
100
AcDb2dVertex
 10
1675.28934421
 20
52.0947841513
 30
0.0
 70
         1
  0
VERTEX
  5
2B8
100
AcDbEntity
  8
L1_105
  6
CONTINUOUS
 62
         7
100
AcDbVertex
100
AcDb2dVertex
 10
1675.4385026541
 20
52.1885823222
 30
0.0
 70
         1
  0
VERTEX
  5
2BA
100
AcDbEntity
  8
L1_105
  6
CONTINUOUS
 62
         7
100
AcDbVertex
100
AcDb2dVertex
 10
1675.5432525823
 20
52.2716253341
 30
0.0
 70
         1
  0
VERTEX
  5
2BC
100
AcDbEntity
  8
L1_105
  6
CONTINUOUS
 62
         7
100
AcDbVertex
100
AcDb2dVertex
 10
1675.6381083861
 20
52.3673162743
 30
0.0
 70
         1
  0
VERTEX
  5
2BE
100
AcDbEntity
  8
L1_105
  6
CONTINUOUS
 62
         7
100
AcDbVertex
100
AcDb2dVertex
 10
1675.7133146607
 20
52.4696329186
 30
0.0
 70
         1
  0
VERTEX
  5
2C0
100
AcDbEntity
  8
L1_105
  6
CONTINUOUS
 62
         7
100
AcDbVertex
100
AcDb2dVertex
 10
1675.7633261369
 20
52.5690647098
 30
0.0
 70
         1
  0
VERTEX
  5
2C2
100
AcDbEntity
  8
L1_105
  6
CONTINUOUS
 62
         7
100
AcDbVertex
100
AcDb2dVertex
 10
1675.7946903547
 20
52.6818968784
 30
0.0
 70
         1
  0
VERTEX
  5
2C4
100
AcDbEntity
  8
L1_105
  6
CONTINUOUS
 62
         7
100
AcDbVertex
100
AcDb2dVertex
 10
1675.8012659414
 20
52.7629201903
 30
0.0
 70
         1
  0
VERTEX
  5
2C6
100
AcDbEntity
  8
L1_105
  6
CONTINUOUS
 62
         7
100
AcDbVertex
100
AcDb2dVertex
 10
1675.8012659414
 20
52.7629201903
 30
0.0
 70
         1
  0
VERTEX
  5
2C8
100
AcDbEntity
  8
L1_105
  6
CONTINUOUS
 62
         7
100
AcDbVertex
100
AcDb2dVertex
 10
1675.7564864818
 20
52.9733439522
 30
0.0
 70
         1
  0
VERTEX
  5
2CA
100
AcDbEntity
  8
L1_105
  6
CONTINUOUS
 62
         7
100
AcDbVertex
100
AcDb2dVertex
 10
1675.7071924945
 20
53.0660059759
 30
0.0
 70
         1
  0
VERTEX
  5
2CC
100
AcDbEntity
  8
L1_105
  6
CONTINUOUS
 62
         7
100
AcDbVertex
100
AcDb2dVertex
 10
1675.6382286805
 20
53.1583844412
 30
0.0
 70
         1
  0
VERTEX
  5
2CE
100
AcDbEntity
  8
L1_105
  6
CONTINUOUS
 62
         7
100
AcDbVertex
100
AcDb2dVertex
 10
1675.5492243369
 20
53.2488835241
 30
0.0
 70
         1
  0
VERTEX
  5
2D0
100
AcDbEntity
  8
L1_105
  6
CONTINUOUS
 62
         7
100
AcDbVertex
100
AcDb2dVertex
 10
1675.4404963715
 20
53.3358345811
 30
0.0
 70
         1
  0
VERTEX
  5
2D2
100
AcDbEntity
  8
L1_105
  6
CONTINUOUS
 62
         7
100
AcDbVertex
100
AcDb2dVertex
 10
1675.3130963773
 20
53.4175897124
 30
0.0
 70
         1
  0
VERTEX
  5
2D4
100
AcDbEntity
  8
L1_105
  6
CONTINUOUS
 62
         7
100
AcDbVertex
100
AcDb2dVertex
 10
1675.1687957712
 20
53.492622555
 30
0.0
 70
         1
  0
VERTEX
  5
2D6
100
AcDbEntity
  8
L1_105
  6
CONTINUOUS
 62
         7
100
AcDbVertex
100
AcDb2dVertex
 10
1675.0100051725
 20
53.5596242556
 30
0.0
 70
         1
  0
VERTEX
  5
2D8
100
AcDbEntity
  8
L1_105
  6
CONTINUOUS
 62
         7
100
AcDbVertex
100
AcDb2dVertex
 10
1674.7790777824
 20
53.6352567084
 30
0.0
 70
         1
  0
VERTEX
  5
2DA
100
AcDbEntity
  8
L1_105
  6
CONTINUOUS
 62
         7
100
AcDbVertex
100
AcDb2dVertex
 10
1674.5351543868
 20
53.6931631356
 30
0.0
 70
         1
  0
VERTEX
  5
2DC
100
AcDbEntity
  8
L1_105
  6
CONTINUOUS
 62
         7
100
AcDbVertex
100
AcDb2dVertex
 10
1674.2862535666
 20
53.7330731426
 30
0.0
 70
         1
  0
VERTEX
  5
2DE
100
AcDbEntity
  8
L1_105
  6
CONTINUOUS
 62
         7
100
AcDbVertex
100
AcDb2dVertex
 10
1673.9560628502
 20
53.7599204306
 30
0.0
 70
         1
  0
VERTEX
  5
2E0
100
AcDbEntity
  8
L1_105
  6
CONTINUOUS
 62
         7
100
AcDbVertex
100
AcDb2dVertex
 10
1673.6445575583
 20
53.7598457746
 30
0.0
 70
         1
  0
VERTEX
  5
2E2
100
AcDbEntity
  8
L1_105
  6
CONTINUOUS
 62
         7
100
AcDbVertex
100
AcDb2dVertex
 10
1673.3612206527
 20
53.738414955
 30
0.0
 70
         1
  0
VERTEX
  5
2E4
100
AcDbEntity
  8
L1_105
  6
CONTINUOUS
 62
         7
100
AcDbVertex
100
AcDb2dVertex
 10
1673.1107754416
 20
53.7014326928
 30
0.0
 70
         1
  0
VERTEX
  5
2E6
100
AcDbEntity
  8
L1_105
  6
CONTINUOUS
 62
         7
100
AcDbVertex
100
AcDb2dVertex
 10
1672.8941898419
 20
53.6541571046
 30
0.0
 70
         1
  0
VERTEX
  5
2E8
100
AcDbEntity
  8
L1_105
  6
CONTINUOUS
 62
         7
100
AcDbVertex
100
AcDb2dVertex
 10
1672.6522773468
 20
53.5814287744
 30
0.0
 70
         1
  0
VERTEX
  5
2EA
100
AcDbEntity
  8
L1_105
  6
CONTINUOUS
 62
         7
100
AcDbVertex
100
AcDb2dVertex
 10
1672.4616148478
 20
53.5054386997
 30
0.0
 70
         1
  0
VERTEX
  5
2EC
100
AcDbEntity
  8
L1_105
  6
CONTINUOUS
 62
         7
100
AcDbVertex
100
AcDb2dVertex
 10
1672.3131876727
 20
53.4310562293
 30
0.0
 70
         1
  0
VERTEX
  5
2EE
100
AcDbEntity
  8
L1_105
  6
CONTINUOUS
 62
         7
100
AcDbVertex
100
AcDb2dVertex
 10
1672.1640292287
 20
53.3372580583
 30
0.0
 70
         1
  0
VERTEX
  5
2F0
100
AcDbEntity
  8
L1_105
  6
CONTINUOUS
 62
         7
100
AcDbVertex
100
AcDb2dVertex
 10
1672.0592793005
 20
53.2542150465
 30
0.0
 70
         1
  0
VERTEX
  5
2F2
100
AcDbEntity
  8
L1_105
  6
CONTINUOUS
 62
         7
100
AcDbVertex
100
AcDb2dVertex
 10
1671.9644234966
 20
53.1585241062
 30
0.0
 70
         1
  0
VERTEX
  5
2F4
100
AcDbEntity
  8
L1_105
  6
CONTINUOUS
 62
         7
100
AcDbVertex
100
AcDb2dVertex
 10
1671.889217222
 20
53.0562074619
 30
0.0
 70
         1
  0
VERTEX
  5
2F6
100
AcDbEntity
  8
L1_105
  6
CONTINUOUS
 62
         7
100
AcDbVertex
100
AcDb2dVertex
 10
1671.8392057459
 20
52.9567756707
 30
0.0
 70
         1
  0
VERTEX
  5
2F8
100
AcDbEntity
  8
L1_105
  6
CONTINUOUS
 62
         7
100
AcDbVertex
100
AcDb2dVertex
 10
1671.807841528
 20
52.8439435021
 30
0.0
 70
         1
  0
VERTEX
  5
2FA
100
AcDbEntity
  8
L1_105
  6
CONTINUOUS
 62
         7
100
AcDbVertex
100
AcDb2dVertex
 10
1671.8012659414
 20
52.7629201903
 30
0.0
 70
         1
  0
SEQEND
  5
2FC
100
AcDbEntity
  8
L1_105
  6
CONTINUOUS
 62
         7
  0
POLYLINE
  5
2FE
100
AcDbEntity
  8
L1_105
  6
CONTINUOUS
 62
         7
100
AcDb2dPolyline
 66
         1
 10
0.0
 20
0.0
 30
0.0
 70
         2
  0
VERTEX
  5
300
100
AcDbEntity
  8
L1_105
  6
CONTINUOUS
 62
         7
100
AcDbVertex
100
AcDb2dVertex
 10
1671.8012659414
 20
75.0115156515
 30
0.0
 70
         1
  0
VERTEX
  5
302
100
AcDbEntity
  8
L1_105
  6
CONTINUOUS
 62
         7
100
AcDbVertex
100
AcDb2dVertex
 10
1671.8460454009
 20
74.8010918896
 30
0.0
 70
         1
  0
VERTEX
  5
304
100
AcDbEntity
  8
L1_105
  6
CONTINUOUS
 62
         7
100
AcDbVertex
100
AcDb2dVertex
 10
1671.8953393882
 20
74.7084298659
 30
0.0
 70
         1
  0
VERTEX
  5
306
100
AcDbEntity
  8
L1_105
  6
CONTINUOUS
 62
         7
100
AcDbVertex
100
AcDb2dVertex
 10
1671.9643032023
 20
74.6160514006
 30
0.0
 70
         1
  0
VERTEX
  5
308
100
AcDbEntity
  8
L1_105
  6
CONTINUOUS
 62
         7
100
AcDbVertex
100
AcDb2dVertex
 10
1672.0533075458
 20
74.5255523177
 30
0.0
 70
         1
  0
VERTEX
  5
30A
100
AcDbEntity
  8
L1_105
  6
CONTINUOUS
 62
         7
100
AcDbVertex
100
AcDb2dVertex
 10
1672.1620355112
 20
74.4386012607
 30
0.0
 70
         1
  0
VERTEX
  5
30C
100
AcDbEntity
  8
L1_105
  6
CONTINUOUS
 62
         7
100
AcDbVertex
100
AcDb2dVertex
 10
1672.2894355054
 20
74.3568461294
 30
0.0
 70
         1
  0
VERTEX
  5
30E
100
AcDbEntity
  8
L1_105
  6
CONTINUOUS
 62
         7
100
AcDbVertex
100
AcDb2dVertex
 10
1672.4337361116
 20
74.2818132868
 30
0.0
 70
         1
  0
VERTEX
  5
310
100
AcDbEntity
  8
L1_105
  6
CONTINUOUS
 62
         7
100
AcDbVertex
100
AcDb2dVertex
 10
1672.5925267102
 20
74.2148115862
 30
0.0
 70
         1
  0
VERTEX
  5
312
100
AcDbEntity
  8
L1_105
  6
CONTINUOUS
 62
         7
100
AcDbVertex
100
AcDb2dVertex
 10
1672.8234541003
 20
74.1391791334
 30
0.0
 70
         1
  0
VERTEX
  5
314
100
AcDbEntity
  8
L1_105
  6
CONTINUOUS
 62
         7
100
AcDbVertex
100
AcDb2dVertex
 10
1673.067377496
 20
74.0812727062
 30
0.0
 70
         1
  0
VERTEX
  5
316
100
AcDbEntity
  8
L1_105
  6
CONTINUOUS
 62
         7
100
AcDbVertex
100
AcDb2dVertex
 10
1673.3162783162
 20
74.0413626993
 30
0.0
 70
         1
  0
VERTEX
  5
318
100
AcDbEntity
  8
L1_105
  6
CONTINUOUS
 62
         7
100
AcDbVertex
100
AcDb2dVertex
 10
1673.6464690326
 20
74.0145154112
 30
0.0
 70
         1
  0
VERTEX
  5
31A
100
AcDbEntity
  8
L1_105
  6
CONTINUOUS
 62
         7
100
AcDbVertex
100
AcDb2dVertex
 10
1673.9579743244
 20
74.0145900672
 30
0.0
 70
         1
  0
VERTEX
  5
31C
100
AcDbEntity
  8
L1_105
  6
CONTINUOUS
 62
         7
100
AcDbVertex
100
AcDb2dVertex
 10
1674.2413112301
 20
74.0360208868
 30
0.0
 70
         1
  0
VERTEX
  5
31E
100
AcDbEntity
  8
L1_105
  6
CONTINUOUS
 62
         7
100
AcDbVertex
100
AcDb2dVertex
 10
1674.4917564411
 20
74.073003149
 30
0.0
 70
         1
  0
VERTEX
  5
320
100
AcDbEntity
  8
L1_105
  6
CONTINUOUS
 62
         7
100
AcDbVertex
100
AcDb2dVertex
 10
1674.7083420409
 20
74.1202787372
 30
0.0
 70
         1
  0
VERTEX
  5
322
100
AcDbEntity
  8
L1_105
  6
CONTINUOUS
 62
         7
100
AcDbVertex
100
AcDb2dVertex
 10
1674.950254536
 20
74.1930070674
 30
0.0
 70
         1
  0
VERTEX
  5
324
100
AcDbEntity
  8
L1_105
  6
CONTINUOUS
 62
         7
100
AcDbVertex
100
AcDb2dVertex
 10
1675.1409170349
 20
74.2689971421
 30
0.0
 70
         1
  0
VERTEX
  5
326
100
AcDbEntity
  8
L1_105
  6
CONTINUOUS
 62
         7
100
AcDbVertex
100
AcDb2dVertex
 10
1675.28934421
 20
74.3433796125
 30
0.0
 70
         1
  0
VERTEX
  5
328
100
AcDbEntity
  8
L1_105
  6
CONTINUOUS
 62
         7
100
AcDbVertex
100
AcDb2dVertex
 10
1675.4385026541
 20
74.4371777835
 30
0.0
 70
         1
  0
VERTEX
  5
32A
100
AcDbEntity
  8
L1_105
  6
CONTINUOUS
 62
         7
100
AcDbVertex
100
AcDb2dVertex
 10
1675.5432525823
 20
74.5202207953
 30
0.0
 70
         1
  0
VERTEX
  5
32C
100
AcDbEntity
  8
L1_105
  6
CONTINUOUS
 62
         7
100
AcDbVertex
100
AcDb2dVertex
 10
1675.6381083861
 20
74.6159117356
 30
0.0
 70
         1
  0
VERTEX
  5
32E
100
AcDbEntity
  8
L1_105
  6
CONTINUOUS
 62
         7
100
AcDbVertex
100
AcDb2dVertex
 10
1675.7133146607
 20
74.7182283799
 30
0.0
 70
         1
  0
VERTEX
  5
330
100
AcDbEntity
  8
L1_105
  6
CONTINUOUS
 62
         7
100
AcDbVertex
100
AcDb2dVertex
 10
1675.7633261369
 20
74.8176601711
 30
0.0
 70
         1
  0
VERTEX
  5
332
100
AcDbEntity
  8
L1_105
  6
CONTINUOUS
 62
         7
100
AcDbVertex
100
AcDb2dVertex
 10
1675.7946903547
 20
74.9304923397
 30
0.0
 70
         1
  0
VERTEX
  5
334
100
AcDbEntity
  8
L1_105
  6
CONTINUOUS
 62
         7
100
AcDbVertex
100
AcDb2dVertex
 10
1675.8012659414
 20
75.0115156515
 30
0.0
 70
         1
  0
VERTEX
  5
336
100
AcDbEntity
  8
L1_105
  6
CONTINUOUS
 62
         7
100
AcDbVertex
100
AcDb2dVertex
 10
1675.8012659414
 20
75.0115156515
 30
0.0
 70
         1
  0
VERTEX
  5
338
100
AcDbEntity
  8
L1_105
  6
CONTINUOUS
 62
         7
100
AcDbVertex
100
AcDb2dVertex
 10
1675.7564864818
 20
75.2219394135
 30
0.0
 70
         1
  0
VERTEX
  5
33A
100
AcDbEntity
  8
L1_105
  6
CONTINUOUS
 62
         7
100
AcDbVertex
100
AcDb2dVertex
 10
1675.7071924945
 20
75.3146014372
 30
0.0
 70
         1
  0
VERTEX
  5
33C
100
AcDbEntity
  8
L1_105
  6
CONTINUOUS
 62
         7
100
AcDbVertex
100
AcDb2dVertex
 10
1675.6382286805
 20
75.4069799025
 30
0.0
 70
         1
  0
VERTEX
  5
33E
100
AcDbEntity
  8
L1_105
  6
CONTINUOUS
 62
         7
100
AcDbVertex
100
AcDb2dVertex
 10
1675.5492243369
 20
75.4974789854
 30
0.0
 70
         1
  0
VERTEX
  5
340
100
AcDbEntity
  8
L1_105
  6
CONTINUOUS
 62
         7
100
AcDbVertex
100
AcDb2dVertex
 10
1675.4404963715
 20
75.5844300424
 30
0.0
 70
         1
  0
VERTEX
  5
342
100
AcDbEntity
  8
L1_105
  6
CONTINUOUS
 62
         7
100
AcDbVertex
100
AcDb2dVertex
 10
1675.3130963773
 20
75.6661851737
 30
0.0
 70
         1
  0
VERTEX
  5
344
100
AcDbEntity
  8
L1_105
  6
CONTINUOUS
 62
         7
100
AcDbVertex
100
AcDb2dVertex
 10
1675.1687957712
 20
75.7412180163
 30
0.0
 70
         1
  0
VERTEX
  5
346
100
AcDbEntity
  8
L1_105
  6
CONTINUOUS
 62
         7
100
AcDbVertex
100
AcDb2dVertex
 10
1675.0100051725
 20
75.8082197169
 30
0.0
 70
         1
  0
VERTEX
  5
348
100
AcDbEntity
  8
L1_105
  6
CONTINUOUS
 62
         7
100
AcDbVertex
100
AcDb2dVertex
 10
1674.7790777824
 20
75.8838521697
 30
0.0
 70
         1
  0
VERTEX
  5
34A
100
AcDbEntity
  8
L1_105
  6
CONTINUOUS
 62
         7
100
AcDbVertex
100
AcDb2dVertex
 10
1674.5351543868
 20
75.9417585969
 30
0.0
 70
         1
  0
VERTEX
  5
34C
100
AcDbEntity
  8
L1_105
  6
CONTINUOUS
 62
         7
100
AcDbVertex
100
AcDb2dVertex
 10
1674.2862535666
 20
75.9816686038
 30
0.0
 70
         1
  0
VERTEX
  5
34E
100
AcDbEntity
  8
L1_105
  6
CONTINUOUS
 62
         7
100
AcDbVertex
100
AcDb2dVertex
 10
1673.9560628502
 20
76.0085158919
 30
0.0
 70
         1
  0
VERTEX
  5
350
100
AcDbEntity
  8
L1_105
  6
CONTINUOUS
 62
         7
100
AcDbVertex
100
AcDb2dVertex
 10
1673.6445575583
 20
76.0084412359
 30
0.0
 70
         1
  0
VERTEX
  5
352
100
AcDbEntity
  8
L1_105
  6
CONTINUOUS
 62
         7
100
AcDbVertex
100
AcDb2dVertex
 10
1673.3612206527
 20
75.9870104163
 30
0.0
 70
         1
  0
VERTEX
  5
354
100
AcDbEntity
  8
L1_105
  6
CONTINUOUS
 62
         7
100
AcDbVertex
100
AcDb2dVertex
 10
1673.1107754416
 20
75.9500281541
 30
0.0
 70
         1
  0
VERTEX
  5
356
100
AcDbEntity
  8
L1_105
  6
CONTINUOUS
 62
         7
100
AcDbVertex
100
AcDb2dVertex
 10
1672.8941898419
 20
75.9027525659
 30
0.0
 70
         1
  0
VERTEX
  5
358
100
AcDbEntity
  8
L1_105
  6
CONTINUOUS
 62
         7
100
AcDbVertex
100
AcDb2dVertex
 10
1672.6522773468
 20
75.8300242357
 30
0.0
 70
         1
  0
VERTEX
  5
35A
100
AcDbEntity
  8
L1_105
  6
CONTINUOUS
 62
         7
100
AcDbVertex
100
AcDb2dVertex
 10
1672.4616148478
 20
75.754034161
 30
0.0
 70
         1
  0
VERTEX
  5
35C
100
AcDbEntity
  8
L1_105
  6
CONTINUOUS
 62
         7
100
AcDbVertex
100
AcDb2dVertex
 10
1672.3131876727
 20
75.6796516905
 30
0.0
 70
         1
  0
VERTEX
  5
35E
100
AcDbEntity
  8
L1_105
  6
CONTINUOUS
 62
         7
100
AcDbVertex
100
AcDb2dVertex
 10
1672.1640292287
 20
75.5858535196
 30
0.0
 70
         1
  0
VERTEX
  5
360
100
AcDbEntity
  8
L1_105
  6
CONTINUOUS
 62
         7
100
AcDbVertex
100
AcDb2dVertex
 10
1672.0592793005
 20
75.5028105078
 30
0.0
 70
         1
  0
VERTEX
  5
362
100
AcDbEntity
  8
L1_105
  6
CONTINUOUS
 62
         7
100
AcDbVertex
100
AcDb2dVertex
 10
1671.9644234966
 20
75.4071195675
 30
0.0
 70
         1
  0
VERTEX
  5
364
100
AcDbEntity
  8
L1_105
  6
CONTINUOUS
 62
         7
100
AcDbVertex
100
AcDb2dVertex
 10
1671.889217222
 20
75.3048029232
 30
0.0
 70
         1
  0
VERTEX
  5
366
100
AcDbEntity
  8
L1_105
  6
CONTINUOUS
 62
         7
100
AcDbVertex
100
AcDb2dVertex
 10
1671.8392057459
 20
75.205371132
 30
0.0
 70
         1
  0
VERTEX
  5
368
100
AcDbEntity
  8
L1_105
  6
CONTINUOUS
 62
         7
100
AcDbVertex
100
AcDb2dVertex
 10
1671.807841528
 20
75.0925389634
 30
0.0
 70
         1
  0
VERTEX
  5
36A
100
AcDbEntity
  8
L1_105
  6
CONTINUOUS
 62
         7
100
AcDbVertex
100
AcDb2dVertex
 10
1671.8012659414
 20
75.0115156515
 30
0.0
 70
         1
  0
SEQEND
  5
36C
100
AcDbEntity
  8
L1_105
  6
CONTINUOUS
 62
         7
  0
LINE
  5
36D
100
AcDbEntity
  8
L1_105
  6
CONTINUOUS
 62
         7
100
AcDbLine
 10
1697.5012659414
 20
69.6372179209
 30
0.0
 11
1697.5012659414
 21
76.0872179209
 31
0.0
  0
LINE
  5
36E
100
AcDbEntity
  8
L1_105
  6
CONTINUOUS
 62
         7
100
AcDbLine
 10
1697.5012659414
 20
51.6872179209
 30
0.0
 11
1697.5012659414
 21
58.1372179209
 31
0.0
  0
LINE
  5
36F
100
AcDbEntity
  8
L1_105
  6
CONTINUOUS
 62
         7
100
AcDbLine
 10
1697.5012659414
 20
69.6372179209
 30
0.0
 11
1697.0012659414
 21
69.1372179209
 31
0.0
  0
LINE
  5
370
100
AcDbEntity
  8
L1_105
  6
CONTINUOUS
 62
         4
100
AcDbLine
 10
1697.0012659414
 20
76.5872179209
 30
0.0
 11
1697.0012659414
 21
69.1372179209
 31
0.0
  0
LINE
  5
371
100
AcDbEntity
  8
L1_105
  6
CONTINUOUS
 62
         7
100
AcDbLine
 10
1697.0012659414
 20
58.6372179209
 30
0.0
 11
1697.5012659414
 21
58.1372179209
 31
0.0
  0
LINE
  5
372
100
AcDbEntity
  8
L1_105
  6
CONTINUOUS
 62
         4
100
AcDbLine
 10
1697.0012659414
 20
58.6372179209
 30
0.0
 11
1697.0012659414
 21
51.1872179209
 31
0.0
  0
LINE
  5
373
100
AcDbEntity
  8
L1_105
  6
CONTINUOUS
 62
         7
100
AcDbLine
 10
1697.0012659414
 20
58.6372179209
 30
0.0
 11
1693.1512659414
 21
58.6372179209
 31
0.0
  0
ARC
  5
374
100
AcDbEntity
  8
L1_105
  6
CONTINUOUS
 62
         7
100
AcDbCircle
 10
1693.1512659414
 20
59.1372179209
 30
0.0
 40
0.5
100
AcDbArc
 50
180.0
 51
270.0
  0
LINE
  5
375
100
AcDbEntity
  8
L1_105
  6
CONTINUOUS
 62
         7
100
AcDbLine
 10
1697.0012659414
 20
69.1372179209
 30
0.0
 11
1693.1512659414
 21
69.1372179209
 31
0.0
  0
ARC
  5
376
100
AcDbEntity
  8
L1_105
  6
CONTINUOUS
 62
         7
100
AcDbCircle
 10
1693.1512659414
 20
68.6372179209
 30
0.0
 40
0.5
100
AcDbArc
 50
90.0
 51
180.0
  0
LINE
  5
377
100
AcDbEntity
  8
L1_105
  6
CONTINUOUS
 62
         7
100
AcDbLine
 10
1692.6512659414
 20
59.1372179209
 30
0.0
 11
1692.6512659414
 21
68.6372179209
 31
0.0
  0
LINE
  5
378
100
AcDbEntity
  8
L1_105
  6
CONTINUOUS
 62
         7
100
AcDbLine
 10
1692.6512659414
 20
51.2872179209
 30
0.0
 11
1692.6512659414
 21
76.4872179209
 31
0.0
  0
LINE
  5
379
100
AcDbEntity
  8
L1_105
  6
CONTINUOUS
 62
         7
100
AcDbLine
 10
1691.1512659414
 20
51.2872179209
 30
0.0
 11
1691.1512659414
 21
76.4872179209
 31
0.0
  0
LINE
  5
37A
100
AcDbEntity
  8
L1_105
  6
CONTINUOUS
 62
         7
100
AcDbLine
 10
1666.0012659414
 20
51.251793052
 30
0.0
 11
1666.0012659414
 21
76.5226427898
 31
0.0
  0
LINE
  5
37B
100
AcDbEntity
  8
L1_105
  6
CONTINUOUS
 62
         4
100
AcDbLine
 10
1665.0012659414
 20
79.8872179209
 30
0.0
 11
1665.0012659414
 21
47.8872179209
 31
0.0
  0
LINE
  5
37C
100
AcDbEntity
  8
L1_105
  6
CONTINUOUS
 62
         7
100
AcDbLine
 10
1622.5012659414
 20
49.6192687285
 30
0.0
 11
1622.5012659414
 21
78.1551671133
 31
0.0
  0
LINE
  5
37D
100
AcDbEntity
  8
L1_105
  6
CONTINUOUS
 62
         7
100
AcDbLine
 10
1665.0012659414
 20
47.8872179209
 30
0.0
 11
1625.1352405376
 21
47.8872179209
 31
0.0
  0
LINE
  5
37E
100
AcDbEntity
  8
L1_105
  6
CONTINUOUS
 62
         7
100
AcDbLine
 10
1665.0012659414
 20
79.8872179209
 30
0.0
 11
1625.1352405376
 21
79.8872179209
 31
0.0
  0
LINE
  5
37F
100
AcDbEntity
  8
L1_105
  6
CONTINUOUS
 62
         7
100
AcDbLine
 10
1697.0012659414
 20
76.5872179209
 30
0.0
 11
1697.5012659414
 21
76.0872179209
 31
0.0
  0
LINE
  5
380
100
AcDbEntity
  8
L1_105
  6
CONTINUOUS
 62
         7
100
AcDbLine
 10
1697.5012659414
 20
51.6872179209
 30
0.0
 11
1697.0012659414
 21
51.1872179209
 31
0.0
  0
LINE
  5
381
100
AcDbEntity
  8
L1_105
  6
CONTINUOUS
 62
         7
100
AcDbLine
 10
1697.0012659414
 20
76.5872179209
 30
0.0
 11
1692.7512659414
 21
76.5872179209
 31
0.0
  0
LINE
  5
382
100
AcDbEntity
  8
L1_105
  6
CONTINUOUS
 62
         7
100
AcDbLine
 10
1697.0012659414
 20
51.1872179209
 30
0.0
 11
1692.7512659414
 21
51.1872179209
 31
0.0
  0
LINE
  5
383
100
AcDbEntity
  8
L1_105
  6
CONTINUOUS
 62
         7
100
AcDbLine
 10
1668.5012659414
 20
76.5872179209
 30
0.0
 11
1691.0512659414
 21
76.5872179209
 31
0.0
  0
LINE
  5
384
100
AcDbEntity
  8
L1_105
  6
CONTINUOUS
 62
         7
100
AcDbLine
 10
1691.0512659414
 20
51.1872179209
 30
0.0
 11
1668.5012659414
 21
51.1872179209
 31
0.0
  0
LINE
  5
385
100
AcDbEntity
  8
L1_105
  6
CONTINUOUS
 62
         7
100
AcDbLine
 10
1692.6512659414
 20
75.6872179209
 30
0.0
 11
1691.1512659414
 21
75.6872179209
 31
0.0
  0
LINE
  5
386
100
AcDbEntity
  8
L1_105
  6
CONTINUOUS
 62
         7
100
AcDbLine
 10
1692.6512659414
 20
52.0872179209
 30
0.0
 11
1691.1512659414
 21
52.0872179209
 31
0.0
  0
LINE
  5
387
100
AcDbEntity
  8
L1_105
  6
CONTINUOUS
 62
         7
100
AcDbLine
 10
1667.7021947808
 20
76.3872179209
 30
0.0
 11
1666.3012659414
 21
76.3872179209
 31
0.0
  0
LINE
  5
388
100
AcDbEntity
  8
L1_105
  6
CONTINUOUS
 62
         7
100
AcDbLine
 10
1667.8057223989
 20
76.4008475904
 30
0.0
 11
1668.5012659414
 21
76.5872179209
 31
0.0
  0
ARC
  5
389
100
AcDbEntity
  8
L1_105
  6
CONTINUOUS
 62
         7
100
AcDbCircle
 10
1667.7021947808
 20
76.7872179209
 30
0.0
 40
0.4
100
AcDbArc
 50
270.0
 51
285.0
  0
LINE
  5
38A
100
AcDbEntity
  8
L1_105
  6
CONTINUOUS
 62
         7
100
AcDbLine
 10
1669.1377576145
 20
76.5872179209
 30
0.0
 11
1668.5012659414
 21
76.5872179209
 31
0.0
  0
LINE
  5
38B
100
AcDbEntity
  8
L1_105
  6
CONTINUOUS
 62
         7
100
AcDbLine
 10
1665.9014050238
 20
76.7766705714
 30
0.0
 11
1666.0012659414
 21
77.4872179209
 31
0.0
  0
ARC
  5
38C
100
AcDbEntity
  8
L1_105
  6
CONTINUOUS
 62
         7
100
AcDbCircle
 10
1666.3012659414
 20
76.7872179209
 30
0.0
 40
0.4
100
AcDbArc
 50
181.5109716561
 51
270.0
  0
LINE
  5
38D
100
AcDbEntity
  8
L1_105
  6
CONTINUOUS
 62
         7
100
AcDbLine
 10
1666.0012659414
 20
77.4872179209
 30
0.0
 11
1666.0012659414
 21
78.8872179209
 31
0.0
  0
LINE
  5
38E
100
AcDbEntity
  8
L1_105
  6
CONTINUOUS
 62
         7
100
AcDbLine
 10
1667.7021947808
 20
51.3872179209
 30
0.0
 11
1666.3012659414
 21
51.3872179209
 31
0.0
  0
LINE
  5
38F
100
AcDbEntity
  8
L1_105
  6
CONTINUOUS
 62
         7
100
AcDbLine
 10
1667.8057223989
 20
51.3735882514
 30
0.0
 11
1668.5012659414
 21
51.1872179209
 31
0.0
  0
ARC
  5
390
100
AcDbEntity
  8
L1_105
  6
CONTINUOUS
 62
         7
100
AcDbCircle
 10
1667.7021947808
 20
50.9872179209
 30
0.0
 40
0.4
100
AcDbArc
 50
75.0
 51
90.0
  0
LINE
  5
391
100
AcDbEntity
  8
L1_105
  6
CONTINUOUS
 62
         7
100
AcDbLine
 10
1669.1377576145
 20
51.1872179209
 30
0.0
 11
1668.5012659414
 21
51.1872179209
 31
0.0
  0
LINE
  5
392
100
AcDbEntity
  8
L1_105
  6
CONTINUOUS
 62
         7
100
AcDbLine
 10
1665.9014050238
 20
50.9977652704
 30
0.0
 11
1666.0012659414
 21
50.2872179209
 31
0.0
  0
ARC
  5
393
100
AcDbEntity
  8
L1_105
  6
CONTINUOUS
 62
         7
100
AcDbCircle
 10
1666.3012659414
 20
50.9872179209
 30
0.0
 40
0.4
100
AcDbArc
 50
90.0
 51
178.4890283439
  0
LINE
  5
394
100
AcDbEntity
  8
L1_105
  6
CONTINUOUS
 62
         7
100
AcDbLine
 10
1666.0012659414
 20
50.2872179209
 30
0.0
 11
1666.0012659414
 21
48.8872179209
 31
0.0
  0
ARC
  5
395
100
AcDbEntity
  8
L1_105
  6
CONTINUOUS
 62
         7
100
AcDbCircle
 10
1635.7046553748
 20
63.8872179209
 30
0.0
 40
3.0
100
AcDbArc
 50
90.0
 51
270.0
  0
LINE
  5
396
100
AcDbEntity
  8
L1_105
  6
CONTINUOUS
 62
         7
100
AcDbLine
 10
1648.5477118233
 20
68.7272179209
 30
0.0
 11
1635.7578225528
 21
68.7272179209
 31
0.0
  0
LINE
  5
397
100
AcDbEntity
  8
L1_105
  6
CONTINUOUS
 62
         7
100
AcDbLine
 10
1648.5477118233
 20
59.0472179209
 30
0.0
 11
1635.7578225528
 21
59.0472179209
 31
0.0
  0
ARC
  5
398
100
AcDbEntity
  8
L1_105
  6
CONTINUOUS
 62
         7
100
AcDbCircle
 10
1635.7578225528
 20
63.8872179209
 30
0.0
 40
4.84
100
AcDbArc
 50
90.0
 51
270.0
  0
ARC
  5
399
100
AcDbEntity
  8
L1_105
  6
CONTINUOUS
 62
         7
100
AcDbCircle
 10
1648.5477118233
 20
63.8872179209
 30
0.0
 40
4.84
100
AcDbArc
 50
270.0
 51
450.0
  0
LINE
  5
39A
100
AcDbEntity
  8
L1_105
  6
CONTINUOUS
 62
         4
100
AcDbLine
 10
1650.1371286327
 20
69.2272179209
 30
0.0
 11
1634.1684057391
 21
69.2272179209
 31
0.0
  0
LINE
  5
39B
100
AcDbEntity
  8
L1_105
  6
CONTINUOUS
 62
         4
100
AcDbLine
 10
1650.1371286327
 20
58.5472179209
 30
0.0
 11
1634.1684057391
 21
58.5472179209
 31
0.0
  0
ARC
  5
39C
100
AcDbEntity
  8
L1_105
  6
CONTINUOUS
 62
         4
100
AcDbCircle
 10
1650.1371286327
 20
63.8872179209
 30
0.0
 40
5.34
100
AcDbArc
 50
270.0
 51
450.0
  0
ARC
  5
39D
100
AcDbEntity
  8
L1_105
  6
CONTINUOUS
 62
         4
100
AcDbCircle
 10
1634.1684057391
 20
63.8872179209
 30
0.0
 40
5.34
100
AcDbArc
 50
90.0
 51
270.0
  0
LINE
  5
39E
100
AcDbEntity
  8
L1_105
  6
CONTINUOUS
 62
         7
100
AcDbLine
 10
1691.0512659414
 20
76.5872179209
 30
0.0
 11
1691.1512659414
 21
76.4872179209
 31
0.0
  0
LINE
  5
39F
100
AcDbEntity
  8
L1_105
  6
CONTINUOUS
 62
         7
100
AcDbLine
 10
1692.6512659414
 20
76.4872179209
 30
0.0
 11
1692.7512659414
 21
76.5872179209
 31
0.0
  0
LINE
  5
3A0
100
AcDbEntity
  8
L1_105
  6
CONTINUOUS
 62
         7
100
AcDbLine
 10
1691.1512659414
 20
51.2872179209
 30
0.0
 11
1691.0512659414
 21
51.1872179209
 31
0.0
  0
LINE
  5
3A1
100
AcDbEntity
  8
L1_105
  6
CONTINUOUS
 62
         7
100
AcDbLine
 10
1692.6512659414
 20
51.2872179209
 30
0.0
 11
1692.7512659414
 21
51.1872179209
 31
0.0
  0
DIMENSION
  5
3A4
100
AcDbEntity
  8
L1_105
  6
CONTINUOUS
 62
         4
100
AcDbDimension
  2
*D10
 10
1666.0012659414
 20
85.0177080503
 30
0.0
 11
1675.6575803425
 21
87.0427080503
 31
0.0
  3
DIMSTYLE1
100
AcDbAlignedDimension
 13
1666.0012659414
 23
78.8872179209
 33
0.0
 14
1697.5012659414
 24
76.0872179209
 34
0.0
100
AcDbRotatedDimension
  0
DIMENSION
  5
3B2
100
AcDbEntity
  8
L1_105
  6
CONTINUOUS
 62
         4
100
AcDbDimension
  2
*D11
 10
1697.5012659414
 20
91.2852152854
 30
0.0
 11
1658.4686907163
 21
93.3102152854
 31
0.0
  3
DIMSTYLE1
100
AcDbAlignedDimension
 13
1697.5012659414
 23
76.0872179209
 33
0.0
 14
1622.5012659414
 24
78.8872179209
 34
0.0
100
AcDbRotatedDimension
  0
DIMENSION
  5
3C0
100
AcDbEntity
  8
L1_105
  6
CONTINUOUS
 62
         4
100
AcDbDimension
  2
*D12
 10
1617.5791698342
 20
79.8872179209
 30
0.0
 11
1615.5541698342
 21
56.7895559185
 31
0.0
  3
DIMSTYLE1
100
AcDbAlignedDimension
 13
1623.5012659414
 23
79.8872179209
 33
0.0
 14
1623.5012659414
 24
47.8872179209
 34
0.0
 50
90.0
100
AcDbRotatedDimension
  0
DIMENSION
  5
3CE
100
AcDbEntity
  8
L1_105
  6
CONTINUOUS
 62
         4
100
AcDbDimension
  2
*D13
 10
1704.3178892242
 20
69.1372179209
 30
0.0
 11
1702.2928892242
 21
58.3596655386
 31
0.0
  3
DIMSTYLE1
100
AcDbAlignedDimension
 13
1697.0012659414
 23
69.1372179209
 33
0.0
 14
1697.0012659414
 24
58.6372179209
 34
0.0
 50
90.0
100
AcDbRotatedDimension
  0
DIMENSION
  5
3DC
100
AcDbEntity
  8
L1_105
  6
CONTINUOUS
 62
         4
100
AcDbDimension
  2
*D14
 10
1711.0387492221
 20
76.5872179209
 30
0.0
 11
1709.0137492221
 21
52.3995938721
 31
0.0
  3
DIMSTYLE1
100
AcDbAlignedDimension
 13
1696.3012659414
 23
76.5872179209
 33
0.0
 14
1696.3012659414
 24
51.1872179209
 34
0.0
 50
90.0
100
AcDbRotatedDimension
  0
LINE
  5
3E8
100
AcDbEntity
  8
L1_105
  6
CONTINUOUS
 62
         7
100
AcDbLine
 10
1725.2612659414
 20
54.8872179209
 30
0.0
 11
1725.2612659414
 21
72.8872179209
 31
0.0
  0
LINE
  5
3E9
100
AcDbEntity
  8
L1_105
  6
CONTINUOUS
 62
         7
100
AcDbLine
 10
1729.2612659414
 20
73.3872179209
 30
0.0
 11
1725.7612659414
 21
73.3872179209
 31
0.0
  0
LINE
  5
3EA
100
AcDbEntity
  8
L1_105
  6
CONTINUOUS
 62
         7
100
AcDbLine
 10
1729.7612659414
 20
54.8872179209
 30
0.0
 11
1729.7612659414
 21
72.8872179209
 31
0.0
  0
LINE
  5
3EB
100
AcDbEntity
  8
L1_105
  6
CONTINUOUS
 62
         7
100
AcDbLine
 10
1729.2612659414
 20
54.3872179209
 30
0.0
 11
1725.7612659414
 21
54.3872179209
 31
0.0
  0
LINE
  5
3EC
100
AcDbEntity
  8
L1_105
  6
CONTINUOUS
 62
         7
100
AcDbLine
 10
1737.3112659414
 20
54.3872179209
 30
0.0
 11
1736.0112659414
 21
54.3872179209
 31
0.0
  0
LINE
  5
3ED
100
AcDbEntity
  8
L1_105
  6
CONTINUOUS
 62
         7
100
AcDbLine
 10
1737.3112659414
 20
73.3872179209
 30
0.0
 11
1736.0112659414
 21
73.3872179209
 31
0.0
  0
LINE
  5
3EE
100
AcDbEntity
  8
L1_105
  6
CONTINUOUS
 62
         7
100
AcDbLine
 10
1737.4112659414
 20
54.4872179209
 30
0.0
 11
1737.4112659414
 21
73.2872179209
 31
0.0
  0
LINE
  5
3EF
100
AcDbEntity
  8
L1_105
  6
CONTINUOUS
 62
         7
100
AcDbLine
 10
1735.9112659414
 20
54.4872179209
 30
0.0
 11
1735.9112659414
 21
73.2872179209
 31
0.0
  0
LINE
  5
3F0
100
AcDbEntity
  8
L1_105
  6
CONTINUOUS
 62
         7
100
AcDbLine
 10
1735.9112659414
 20
71.3872179209
 30
0.0
 11
1729.7612659414
 21
71.3872179209
 31
0.0
  0
LINE
  5
3F1
100
AcDbEntity
  8
L1_105
  6
CONTINUOUS
 62
         7
100
AcDbLine
 10
1735.9112659414
 20
56.3872179209
 30
0.0
 11
1729.7612659414
 21
56.3872179209
 31
0.0
  0
LINE
  5
3F2
100
AcDbEntity
  8
L1_105
  6
CONTINUOUS
 62
         7
100
AcDbLine
 10
1735.9112659414
 20
73.2872179209
 30
0.0
 11
1736.0112659414
 21
73.3872179209
 31
0.0
  0
LINE
  5
3F3
100
AcDbEntity
  8
L1_105
  6
CONTINUOUS
 62
         7
100
AcDbLine
 10
1737.3112659414
 20
73.3872179209
 30
0.0
 11
1737.4112659414
 21
73.2872179209
 31
0.0
  0
LINE
  5
3F4
100
AcDbEntity
  8
L1_105
  6
CONTINUOUS
 62
         7
100
AcDbLine
 10
1735.9112659414
 20
54.4872179209
 30
0.0
 11
1736.0112659414
 21
54.3872179209
 31
0.0
  0
LINE
  5
3F5
100
AcDbEntity
  8
L1_105
  6
CONTINUOUS
 62
         7
100
AcDbLine
 10
1737.4112659414
 20
54.4872179209
 30
0.0
 11
1737.3112659414
 21
54.3872179209
 31
0.0
  0
LINE
  5
3F6
100
AcDbEntity
  8
L1_105
  6
CONTINUOUS
 62
         7
100
AcDbLine
 10
1725.2612659414
 20
54.8872179209
 30
0.0
 11
1725.7612659414
 21
54.3872179209
 31
0.0
  0
LINE
  5
3F7
100
AcDbEntity
  8
L1_105
  6
CONTINUOUS
 62
         7
100
AcDbLine
 10
1729.7612659414
 20
54.8872179209
 30
0.0
 11
1729.2612659414
 21
54.3872179209
 31
0.0
  0
LINE
  5
3F8
100
AcDbEntity
  8
L1_105
  6
CONTINUOUS
 62
         7
100
AcDbLine
 10
1729.7612659414
 20
72.8872179209
 30
0.0
 11
1729.2612659414
 21
73.3872179209
 31
0.0
  0
LINE
  5
3F9
100
AcDbEntity
  8
L1_105
  6
CONTINUOUS
 62
         7
100
AcDbLine
 10
1725.2612659414
 20
72.8872179209
 30
0.0
 11
1725.7612659414
 21
73.3872179209
 31
0.0
  0
LINE
  5
3FA
100
AcDbEntity
  8
L1_105
  6
CONTINUOUS
 62
         4
100
AcDbLine
 10
1725.7612659414
 20
54.3872179209
 30
0.0
 11
1725.7612659414
 21
73.3872179209
 31
0.0
  0
LINE
  5
3FB
100
AcDbEntity
  8
L1_105
  6
CONTINUOUS
 62
         4
100
AcDbLine
 10
1729.2612659414
 20
54.3872179209
 30
0.0
 11
1729.2612659414
 21
73.3872179209
 31
0.0
  0
LINE
  5
3FC
100
AcDbEntity
  8
L1_105
  6
CONTINUOUS
 62
         4
100
AcDbLine
 10
1736.0112659414
 20
54.3872179209
 30
0.0
 11
1736.0112659414
 21
73.3872179209
 31
0.0
  0
LINE
  5
3FD
100
AcDbEntity
  8
L1_105
  6
CONTINUOUS
 62
         4
100
AcDbLine
 10
1737.3112659414
 20
54.3872179209
 30
0.0
 11
1737.3112659414
 21
73.3872179209
 31
0.0
  0
DIMENSION
  5
400
100
AcDbEntity
  8
L1_105
  6
CONTINUOUS
 62
         4
100
AcDbDimension
  2
*D15
 10
1721.9371671559
 20
73.3872179209
 30
0.0
 11
1719.9121671559
 21
58.6868227861
 31
0.0
  3
DIMSTYLE1
100
AcDbAlignedDimension
 13
1725.7612659414
 23
73.3872179209
 33
0.0
 14
1725.7612659414
 24
54.3872179209
 34
0.0
 50
90.0
100
AcDbRotatedDimension
  0
DIMENSION
  5
40E
100
AcDbEntity
  8
L1_105
  6
CONTINUOUS
 62
         4
100
AcDbDimension
  2
*D16
 10
1725.2612659414
 20
81.940693068
 30
0.0
 11
1724.8115741434
 21
83.965693068
 31
0.0
  3
DIMSTYLE1
100
AcDbAlignedDimension
 13
1725.2612659414
 23
72.8872179209
 33
0.0
 14
1737.4112659414
 24
73.2872179209
 34
0.0
100
AcDbRotatedDimension
  0
DIMENSION
  5
41C
100
AcDbEntity
  8
L1_105
  6
CONTINUOUS
 62
         4
100
AcDbDimension
  2
*D17
 10
1725.2612659414
 20
76.3386300769
 30
0.0
 11
1715.8750082111
 21
78.3636300769
 31
0.0
  3
DIMSTYLE1
100
AcDbAlignedDimension
 13
1725.2612659414
 23
73.0872179209
 33
0.0
 14
1729.7612659414
 24
73.0872179209
 34
0.0
100
AcDbRotatedDimension
  0
DIMENSION
  5
42C
100
AcDbEntity
  8
L1_105
  6
CONTINUOUS
 62
         4
100
AcDbDimension
  2
*D18
 10
1735.9112659414
 20
78.402548021
 30
0.0
 11
1738.8336382937
 21
80.427548021
 31
0.0
  3
DIMSTYLE1
100
AcDbAlignedDimension
 13
1735.9112659414
 23
73.2872179209
 33
0.0
 14
1737.4112659414
 24
73.2872179209
 34
0.0
100
AcDbRotatedDimension
  0
LINE
  5
43A
100
AcDbEntity
  8
L1_105
  6
CONTINUOUS
 62
         4
100
AcDbLine
 10
1754.8012659414
 20
46.8872179209
 30
0.0
 11
1754.8012659414
 21
80.8872179209
 31
0.0
  0
LINE
  5
43B
100
AcDbEntity
  8
L1_105
  6
CONTINUOUS
 62
         7
100
AcDbLine
 10
1754.3012659414
 20
80.5985427863
 30
0.0
 11
1754.8012659414
 21
80.8872179209
 31
0.0
  0
LINE
  5
43C
100
AcDbEntity
  8
L1_105
  6
CONTINUOUS
 62
         7
100
AcDbLine
 10
1754.3012659414
 20
47.1758930555
 30
0.0
 11
1754.8012659414
 21
46.8872179209
 31
0.0
  0
LINE
  5
43D
100
AcDbEntity
  8
L1_105
  6
CONTINUOUS
 62
         4
100
AcDbLine
 10
1776.3012659414
 20
46.8872179209
 30
0.0
 11
1776.3012659414
 21
80.8872179209
 31
0.0
  0
LINE
  5
43E
100
AcDbEntity
  8
L1_105
  6
CONTINUOUS
 62
         4
100
AcDbLine
 10
1779.3012659414
 20
44.3872179209
 30
0.0
 11
1779.3012659414
 21
83.3872179209
 31
0.0
  0
LINE
  5
43F
100
AcDbEntity
  8
L1_105
  6
CONTINUOUS
 62
         4
100
AcDbLine
 10
1785.3012659414
 20
83.3872179209
 30
0.0
 11
1785.3012659414
 21
44.3872179209
 31
0.0
  0
LINE
  5
440
100
AcDbEntity
  8
L1_105
  6
CONTINUOUS
 62
         7
100
AcDbLine
 10
1776.3012659414
 20
46.8872179209
 30
0.0
 11
1754.8012659414
 21
46.8872179209
 31
0.0
  0
LINE
  5
441
100
AcDbEntity
  8
L1_105
  6
CONTINUOUS
 62
         7
100
AcDbLine
 10
1754.3012659414
 20
80.5985427863
 30
0.0
 11
1754.3012659414
 21
47.1758930555
 31
0.0
  0
LINE
  5
442
100
AcDbEntity
  8
L1_105
  6
CONTINUOUS
 62
         7
100
AcDbLine
 10
1776.3012659414
 20
80.8872179209
 30
0.0
 11
1754.8012659414
 21
80.8872179209
 31
0.0
  0
LINE
  5
443
100
AcDbEntity
  8
L1_105
  6
CONTINUOUS
 62
         7
100
AcDbLine
 10
1785.8012659414
 20
44.8872179209
 30
0.0
 11
1785.3012659414
 21
44.3872179209
 31
0.0
  0
LINE
  5
444
100
AcDbEntity
  8
L1_105
  6
CONTINUOUS
 62
         7
100
AcDbLine
 10
1785.3012659414
 20
44.3872179209
 30
0.0
 11
1779.3012659414
 21
44.3872179209
 31
0.0
  0
LINE
  5
445
100
AcDbEntity
  8
L1_105
  6
CONTINUOUS
 62
         7
100
AcDbLine
 10
1785.8012659414
 20
44.8872179209
 30
0.0
 11
1785.8012659414
 21
82.8872179209
 31
0.0
  0
LINE
  5
446
100
AcDbEntity
  8
L1_105
  6
CONTINUOUS
 62
         7
100
AcDbLine
 10
1778.8012659414
 20
44.8872179209
 30
0.0
 11
1779.3012659414
 21
44.3872179209
 31
0.0
  0
LINE
  5
447
100
AcDbEntity
  8
L1_105
  6
CONTINUOUS
 62
         7
100
AcDbLine
 10
1778.8012659414
 20
46.951793052
 30
0.0
 11
1778.8012659414
 21
80.8226427898
 31
0.0
  0
LINE
  5
448
100
AcDbEntity
  8
L1_105
  6
CONTINUOUS
 62
         7
100
AcDbLine
 10
1785.3012659414
 20
83.3872179209
 30
0.0
 11
1785.8012659414
 21
82.8872179209
 31
0.0
  0
LINE
  5
449
100
AcDbEntity
  8
L1_105
  6
CONTINUOUS
 62
         7
100
AcDbLine
 10
1785.3012659414
 20
83.3872179209
 30
0.0
 11
1779.3012659414
 21
83.3872179209
 31
0.0
  0
LINE
  5
44A
100
AcDbEntity
  8
L1_105
  6
CONTINUOUS
 62
         7
100
AcDbLine
 10
1779.3012659414
 20
83.3872179209
 30
0.0
 11
1778.8012659414
 21
82.8872179209
 31
0.0
  0
LINE
  5
44B
100
AcDbEntity
  8
L1_105
  6
CONTINUOUS
 62
         7
100
AcDbLine
 10
1777.1003371019
 20
80.6872179209
 30
0.0
 11
1778.5012659414
 21
80.6872179209
 31
0.0
  0
LINE
  5
44C
100
AcDbEntity
  8
L1_105
  6
CONTINUOUS
 62
         7
100
AcDbLine
 10
1776.9968094839
 20
80.7008475904
 30
0.0
 11
1776.3012659414
 21
80.8872179209
 31
0.0
  0
ARC
  5
44D
100
AcDbEntity
  8
L1_105
  6
CONTINUOUS
 62
         7
100
AcDbCircle
 10
1777.1003371019
 20
81.0872179209
 30
0.0
 40
0.4
100
AcDbArc
 50
255.0
 51
270.0
  0
LINE
  5
44E
100
AcDbEntity
  8
L1_105
  6
CONTINUOUS
 62
         7
100
AcDbLine
 10
1775.6647742683
 20
80.8872179209
 30
0.0
 11
1776.3012659414
 21
80.8872179209
 31
0.0
  0
LINE
  5
44F
100
AcDbEntity
  8
L1_105
  6
CONTINUOUS
 62
         7
100
AcDbLine
 10
1778.901126859
 20
81.0766705714
 30
0.0
 11
1778.8012659414
 21
81.7872179209
 31
0.0
  0
ARC
  5
450
100
AcDbEntity
  8
L1_105
  6
CONTINUOUS
 62
         7
100
AcDbCircle
 10
1778.5012659414
 20
81.0872179209
 30
0.0
 40
0.4
100
AcDbArc
 50
270.0
 51
358.4890283439
  0
LINE
  5
451
100
AcDbEntity
  8
L1_105
  6
CONTINUOUS
 62
         7
100
AcDbLine
 10
1778.8012659414
 20
81.7872179209
 30
0.0
 11
1778.8012659414
 21
82.8872179209
 31
0.0
  0
LINE
  5
452
100
AcDbEntity
  8
L1_105
  6
CONTINUOUS
 62
         7
100
AcDbLine
 10
1777.1003371019
 20
47.0872179209
 30
0.0
 11
1778.5012659414
 21
47.0872179209
 31
0.0
  0
LINE
  5
453
100
AcDbEntity
  8
L1_105
  6
CONTINUOUS
 62
         7
100
AcDbLine
 10
1776.9968094839
 20
47.0735882514
 30
0.0
 11
1776.3012659414
 21
46.8872179209
 31
0.0
  0
ARC
  5
454
100
AcDbEntity
  8
L1_105
  6
CONTINUOUS
 62
         7
100
AcDbCircle
 10
1777.1003371019
 20
46.6872179209
 30
0.0
 40
0.4
100
AcDbArc
 50
90.0
 51
105.0
  0
LINE
  5
455
100
AcDbEntity
  8
L1_105
  6
CONTINUOUS
 62
         7
100
AcDbLine
 10
1775.6647742683
 20
46.8872179209
 30
0.0
 11
1776.3012659414
 21
46.8872179209
 31
0.0
  0
LINE
  5
456
100
AcDbEntity
  8
L1_105
  6
CONTINUOUS
 62
         7
100
AcDbLine
 10
1778.901126859
 20
46.6977652704
 30
0.0
 11
1778.8012659414
 21
45.9872179209
 31
0.0
  0
ARC
  5
457
100
AcDbEntity
  8
L1_105
  6
CONTINUOUS
 62
         7
100
AcDbCircle
 10
1778.5012659414
 20
46.6872179209
 30
0.0
 40
0.4
100
AcDbArc
 50
1.5109716561
 51
90.0
  0
LINE
  5
458
100
AcDbEntity
  8
L1_105
  6
CONTINUOUS
 62
         7
100
AcDbLine
 10
1778.8012659414
 20
45.9872179209
 30
0.0
 11
1778.8012659414
 21
44.8872179209
 31
0.0
  0
DIMENSION
  5
45B
100
AcDbEntity
  8
L1_105
  6
CONTINUOUS
 62
         4
100
AcDbDimension
  2
*D19
 10
1751.5536550778
 20
80.8872179209
 30
0.0
 11
1749.5286550778
 21
52.7094334466
 31
0.0
  3
DIMSTYLE1
100
AcDbAlignedDimension
 13
1754.5012659414
 23
80.8872179209
 33
0.0
 14
1754.5012659414
 24
46.8872179209
 34
0.0
 50
90.0
100
AcDbRotatedDimension
  0
DIMENSION
  5
469
100
AcDbEntity
  8
L1_105
  6
CONTINUOUS
 62
         4
100
AcDbDimension
  2
*D20
 10
1792.7435916127
 20
83.3872179209
 30
0.0
 11
1790.7185916127
 21
59.4182100876
 31
0.0
  3
DIMSTYLE1
100
AcDbAlignedDimension
 13
1785.3012659414
 23
83.3872179209
 33
0.0
 14
1785.3012659414
 24
44.3872179209
 34
0.0
 50
90.0
100
AcDbRotatedDimension
  0
DIMENSION
  5
477
100
AcDbEntity
  8
L1_105
  6
CONTINUOUS
 62
         4
100
AcDbDimension
  2
*D21
 10
1785.8012659414
 20
86.6382839722
 30
0.0
 11
1780.996045056
 21
88.6632839722
 31
0.0
  3
DIMSTYLE1
100
AcDbAlignedDimension
 13
1785.8012659414
 23
82.8872179209
 33
0.0
 14
1778.8012659414
 24
82.8872179209
 34
0.0
100
AcDbRotatedDimension
  0
DIMENSION
  5
485
100
AcDbEntity
  8
L1_105
  6
CONTINUOUS
 62
         4
100
AcDbDimension
  2
*D22
 10
1785.8012659414
 20
93.3485297807
 30
0.0
 11
1763.5761968036
 21
95.3735297807
 31
0.0
  3
DIMSTYLE1
100
AcDbAlignedDimension
 13
1785.8012659414
 23
82.8872179209
 33
0.0
 14
1754.3012659414
 24
80.6872179209
 34
0.0
100
AcDbRotatedDimension
  0
LINE
  5
491
100
AcDbEntity
  8
L1_105
  6
CENTER
 62
         1
100
AcDbLine
 10
1798.270626177
 20
63.8872179209
 30
0.0
 11
1518.1586054742
 21
63.8872179209
 31
0.0
  0
CIRCLE
  5
492
100
AcDbEntity
  8
L1_105
  6
CONTINUOUS
 62
         7
100
AcDbCircle
 10
1684.9661164369
 20
-67.2951392792
 30
0.0
 40
4.7625
  0
LINE
  5
493
100
AcDbEntity
  8
L1_105
  6
CONTINUOUS
 62
         7
100
AcDbLine
 10
1578.2078058991
 20
-63.3196392792
 30
0.0
 11
1577.2323058991
 21
-64.2951392792
 31
0.0
  0
LINE
  5
494
100
AcDbEntity
  8
L1_105
  6
CONTINUOUS
 62
         7
100
AcDbLine
 10
1578.2078058991
 20
-71.2706392792
 30
0.0
 11
1577.2323058991
 21
-70.2951392792
 31
0.0
  0
LINE
  5
495
100
AcDbEntity
  8
L1_105
  6
CONTINUOUS
 62
         7
100
AcDbLine
 10
1577.2323058991
 20
-70.2951392792
 30
0.0
 11
1577.2323058991
 21
-64.2951392792
 31
0.0
  0
LINE
  5
496
100
AcDbEntity
  8
L1_105
  6
CONTINUOUS
 62
         4
100
AcDbLine
 10
1578.2078058991
 20
-63.3196392792
 30
0.0
 11
1578.2078058991
 21
-71.2706392792
 31
0.0
  0
LINE
  5
497
100
AcDbEntity
  8
L1_105
  6
CONTINUOUS
 62
         7
100
AcDbLine
 10
1577.2323058991
 20
-64.2951392792
 30
0.0
 11
1566.4823058991
 21
-64.2951392792
 31
0.0
  0
LINE
  5
498
100
AcDbEntity
  8
L1_105
  6
CONTINUOUS
 62
         7
100
AcDbLine
 10
1566.4823058991
 20
-64.2951392792
 30
0.0
 11
1565.9823058991
 21
-64.7951392792
 31
0.0
  0
LINE
  5
499
100
AcDbEntity
  8
L1_105
  6
CONTINUOUS
 62
         7
100
AcDbLine
 10
1565.9823058991
 20
-69.7951392792
 30
0.0
 11
1565.9823058991
 21
-64.7951392792
 31
0.0
  0
LINE
  5
49A
100
AcDbEntity
  8
L1_105
  6
CONTINUOUS
 62
         7
100
AcDbLine
 10
1566.4823058991
 20
-70.2951392792
 30
0.0
 11
1565.9823058991
 21
-69.7951392792
 31
0.0
  0
LINE
  5
49B
100
AcDbEntity
  8
L1_105
  6
CONTINUOUS
 62
         7
100
AcDbLine
 10
1577.2323058991
 20
-70.2951392792
 30
0.0
 11
1566.4823058991
 21
-70.2951392792
 31
0.0
  0
LINE
  5
49C
100
AcDbEntity
  8
L1_105
  6
CONTINUOUS
 62
         4
100
AcDbLine
 10
1577.2323058991
 20
-64.7951392792
 30
0.0
 11
1565.9823058991
 21
-64.7951392792
 31
0.0
  0
LINE
  5
49D
100
AcDbEntity
  8
L1_105
  6
CONTINUOUS
 62
         4
100
AcDbLine
 10
1577.2323058991
 20
-69.7951392792
 30
0.0
 11
1565.9823058991
 21
-69.7951392792
 31
0.0
  0
LINE
  5
49E
100
AcDbEntity
  8
L1_105
  6
CONTINUOUS
 62
         7
100
AcDbLine
 10
1612.7323058991
 20
-60.7951392792
 30
0.0
 11
1612.2323058991
 21
-61.2951392792
 31
0.0
  0
LINE
  5
49F
100
AcDbEntity
  8
L1_105
  6
CONTINUOUS
 62
         7
100
AcDbLine
 10
1612.2323058991
 20
-73.2951392792
 30
0.0
 11
1612.2323058991
 21
-61.2951392792
 31
0.0
  0
LINE
  5
4A0
100
AcDbEntity
  8
L1_105
  6
CONTINUOUS
 62
         7
100
AcDbLine
 10
1612.2323058991
 20
-73.2951392792
 30
0.0
 11
1612.7323058991
 21
-73.7951392792
 31
0.0
  0
LINE
  5
4A1
100
AcDbEntity
  8
L1_105
  6
CONTINUOUS
 62
         7
100
AcDbLine
 10
1617.2323058991
 20
-73.7951392792
 30
0.0
 11
1612.7323058991
 21
-73.7951392792
 31
0.0
  0
LINE
  5
4A2
100
AcDbEntity
  8
L1_105
  6
CONTINUOUS
 62
         7
100
AcDbLine
 10
1617.7323058991
 20
-73.2951392792
 30
0.0
 11
1617.2323058991
 21
-73.7951392792
 31
0.0
  0
LINE
  5
4A3
100
AcDbEntity
  8
L1_105
  6
CONTINUOUS
 62
         7
100
AcDbLine
 10
1617.7323058991
 20
-73.2951392792
 30
0.0
 11
1617.7323058991
 21
-61.2951392792
 31
0.0
  0
LINE
  5
4A4
100
AcDbEntity
  8
L1_105
  6
CONTINUOUS
 62
         7
100
AcDbLine
 10
1617.2323058991
 20
-60.7951392792
 30
0.0
 11
1612.7323058991
 21
-60.7951392792
 31
0.0
  0
LINE
  5
4A5
100
AcDbEntity
  8
L1_105
  6
CONTINUOUS
 62
         7
100
AcDbLine
 10
1617.7323058991
 20
-61.2951392792
 30
0.0
 11
1617.2323058991
 21
-60.7951392792
 31
0.0
  0
LINE
  5
4A6
100
AcDbEntity
  8
L1_105
  6
CONTINUOUS
 62
         7
100
AcDbLine
 10
1612.2323058991
 20
-63.3196392792
 30
0.0
 11
1578.2078058991
 21
-63.3196392792
 31
0.0
  0
LINE
  5
4A7
100
AcDbEntity
  8
L1_105
  6
CONTINUOUS
 62
         7
100
AcDbLine
 10
1612.2323058991
 20
-71.2706392792
 30
0.0
 11
1578.2078058991
 21
-71.2706392792
 31
0.0
  0
LINE
  5
4A8
100
AcDbEntity
  8
L1_105
  6
CONTINUOUS
 62
         4
100
AcDbLine
 10
1617.2323058991
 20
-60.7951392792
 30
0.0
 11
1617.2323058991
 21
-73.7951392792
 31
0.0
  0
LINE
  5
4A9
100
AcDbEntity
  8
L1_105
  6
CONTINUOUS
 62
         4
100
AcDbLine
 10
1612.7323058991
 20
-60.7951392792
 30
0.0
 11
1612.7323058991
 21
-73.7951392792
 31
0.0
  0
DIMENSION
  5
4AC
100
AcDbEntity
  8
L1_105
  6
CONTINUOUS
 62
         4
100
AcDbDimension
  2
*D23
 10
1565.9823058991
 20
-78.0081191884
 30
0.0
 11
1564.8573058991
 21
-75.9831191884
 31
0.0
  3
DIMSTYLE1
100
AcDbAlignedDimension
 13
1565.9823058991
 23
-69.7951392792
 33
0.0
 14
1577.2323058991
 24
-70.2951392792
 34
0.0
100
AcDbRotatedDimension
  0
DIMENSION
  5
4BA
100
AcDbEntity
  8
L1_105
  6
CONTINUOUS
 62
         4
100
AcDbDimension
  2
*D24
 10
1590.2381342991
 20
-63.3196392792
 30
0.0
 11
1588.2131342991
 21
-76.7451392792
 31
0.0
  3
DIMSTYLE1
100
AcDbAlignedDimension
 13
1578.2078058991
 23
-63.3196392792
 33
0.0
 14
1578.2078058991
 24
-71.2706392792
 34
0.0
 50
90.0
100
AcDbRotatedDimension
  0
LINE
  5
4C6
100
AcDbEntity
  8
L1_105
  6
CONTINUOUS
 62
         7
100
AcDbLine
 10
1722.302057461
 20
-59.5451392792
 30
0.0
 11
1721.302057461
 21
-59.5451392792
 31
0.0
  0
LINE
  5
4C7
100
AcDbEntity
  8
L1_105
  6
CONTINUOUS
 62
         7
100
AcDbLine
 10
1722.302057461
 20
-75.0451392792
 30
0.0
 11
1721.302057461
 21
-75.0451392792
 31
0.0
  0
LINE
  5
4C8
100
AcDbEntity
  8
L1_105
  6
CONTINUOUS
 62
         7
100
AcDbLine
 10
1722.302057461
 20
-57.0451392792
 30
0.0
 11
1721.302057461
 21
-57.0451392792
 31
0.0
  0
LINE
  5
4C9
100
AcDbEntity
  8
L1_105
  6
CONTINUOUS
 62
         7
100
AcDbLine
 10
1722.302057461
 20
-77.5451392792
 30
0.0
 11
1721.302057461
 21
-77.5451392792
 31
0.0
  0
LINE
  5
4CA
100
AcDbEntity
  8
L1_105
  6
CONTINUOUS
 62
         7
100
AcDbLine
 10
1722.302057461
 20
-77.5451392792
 30
0.0
 11
1722.302057461
 21
-57.0451392792
 31
0.0
  0
LINE
  5
4CB
100
AcDbEntity
  8
L1_105
  6
CONTINUOUS
 62
         7
100
AcDbLine
 10
1721.302057461
 20
-77.5451392792
 30
0.0
 11
1721.302057461
 21
-57.0451392792
 31
0.0
  0
TEXT
  5
4CD
100
AcDbEntity
  8
L1_105
  6
CONTINUOUS
 62
         4
100
AcDbText
 10
1724.3441261135
 20
-43.7668805493
 30
0.0
 40
1.7
  1
%%p 0.05
  7
BOX
100
AcDbText
  0
DIMENSION
  5
4D0
100
AcDbEntity
  8
L1_105
  6
CONTINUOUS
 62
         4
100
AcDbDimension
  2
*D25
 10
1735.9694191856
 20
-45.7951392792
 30
0.0
 11
1733.9444191856
 21
-72.6951392792
 31
0.0
  3
DIMSTYLE1
100
AcDbAlignedDimension
 13
1745.2369502264
 23
-45.7951392792
 33
0.0
 14
1745.2369502264
 24
-88.7951392792
 34
0.0
 50
90.0
100
AcDbRotatedDimension
  0
TEXT
  5
4DD
100
AcDbEntity
  8
L1_105
  6
CONTINUOUS
 62
         4
100
AcDbText
 10
1711.8299119917
 20
-58.2534721084
 30
0.0
 40
1.7
  1
%%p 0.2
 50
90.0
  7
BOX
100
AcDbText
  0
DIMENSION
  5
4E0
100
AcDbEntity
  8
L1_105
  6
CONTINUOUS
 62
         4
100
AcDbDimension
  2
*D26
 10
1714.227605368
 20
-57.0451392792
 30
0.0
 11
1712.202605368
 21
-75.3951392792
 31
0.0
  3
DIMSTYLE1
100
AcDbAlignedDimension
 13
1721.302057461
 23
-57.0451392792
 33
0.0
 14
1721.302057461
 24
-77.5451392792
 34
0.0
 50
90.0
100
AcDbRotatedDimension
  0
CIRCLE
  5
4EC
100
AcDbEntity
  8
L1_105
  6
CONTINUOUS
 62
         7
100
AcDbCircle
 10
1745.2369502264
 20
-46.7951392792
 30
0.0
 40
1.0
  0
CIRCLE
  5
4ED
100
AcDbEntity
  8
L1_105
  6
CONTINUOUS
 62
         7
100
AcDbCircle
 10
1745.2369502264
 20
-87.7951392792
 30
0.0
 40
1.0
  0
LINE
  5
4EE
100
AcDbEntity
  8
L1_105
  6
CONTINUOUS
 62
         7
100
AcDbLine
 10
1746.2369502264
 20
-87.7951392792
 30
0.0
 11
1746.2369502264
 21
-46.7951392792
 31
0.0
  0
LINE
  5
4EF
100
AcDbEntity
  8
L1_105
  6
CONTINUOUS
 62
         7
100
AcDbLine
 10
1744.2369502264
 20
-87.7951392792
 30
0.0
 11
1744.2369502264
 21
-46.7951392792
 31
0.0
  0
DIMENSION
  5
4F2
100
AcDbEntity
  8
L1_105
  6
CONTINUOUS
 62
         4
100
AcDbDimension
  2
*D27
 10
1680.3823292963
 20
-68.5875408034
 30
0.0
 11
1690.3877490369
 21
-64.4122608921
 31
0.0
 70
         3
  3
DIMSTYLE1
100
AcDbDiametricDimension
 15
1689.5499035775
 25
-66.002737755
 35
0.0
 40
0.0
  0
LINE
  5
4FD
100
AcDbEntity
  8
L1_105
  6
CENTER
 62
         1
100
AcDbLine
 10
1805.2938672991
 20
-67.2951392792
 30
0.0
 11
1541.8062759869
 21
-67.2951392792
 31
0.0
  0
DIMENSION
  5
500
100
AcDbEntity
  8
L1_105
  6
CONTINUOUS
 62
         4
100
AcDbDimension
  2
*D28
 10
1577.2323058991
 20
-57.8955326158
 30
0.0
 11
1590.8404111802
 21
-55.8705326158
 31
0.0
  3
DIMSTYLE1
100
AcDbAlignedDimension
 13
1577.2323058991
 23
-64.2951392792
 33
0.0
 14
1612.2323058991
 24
-61.2951392792
 34
0.0
100
AcDbRotatedDimension
  0
DIMENSION
  5
50E
100
AcDbEntity
  8
L1_105
  6
CONTINUOUS
 62
         4
100
AcDbDimension
  2
*D29
 10
1639.9853517045
 20
-65.2951392792
 30
0.0
 11
1637.9603517045
 21
-68.6451392792
 31
0.0
  3
DIMSTYLE1
100
AcDbAlignedDimension
 13
1632.2958137226
 23
-65.2951392792
 33
0.0
 14
1632.2958137226
 24
-69.2951392792
 34
0.0
 50
90.0
100
AcDbRotatedDimension
  0
LINE
  5
51A
100
AcDbEntity
  8
L1_105
  6
CONTINUOUS
 62
         7
100
AcDbLine
 10
1632.2958137226
 20
-69.2951392792
 30
0.0
 11
1633.450514261
 21
-67.2951392792
 31
0.0
  0
LINE
  5
51B
100
AcDbEntity
  8
L1_105
  6
CONTINUOUS
 62
         7
100
AcDbLine
 10
1633.450514261
 20
-67.2951392792
 30
0.0
 11
1632.2958137226
 21
-65.2951392792
 31
0.0
  0
LINE
  5
51C
100
AcDbEntity
  8
L1_105
  6
CONTINUOUS
 62
         7
100
AcDbLine
 10
1632.2958137226
 20
-65.2951392792
 30
0.0
 11
1629.9864126458
 21
-65.2951392792
 31
0.0
  0
LINE
  5
51D
100
AcDbEntity
  8
L1_105
  6
CONTINUOUS
 62
         7
100
AcDbLine
 10
1629.9864126458
 20
-65.2951392792
 30
0.0
 11
1628.8317121074
 21
-67.2951392792
 31
0.0
  0
LINE
  5
51E
100
AcDbEntity
  8
L1_105
  6
CONTINUOUS
 62
         7
100
AcDbLine
 10
1628.8317121074
 20
-67.2951392792
 30
0.0
 11
1629.9864126458
 21
-69.2951392792
 31
0.0
  0
LINE
  5
51F
100
AcDbEntity
  8
L1_105
  6
CONTINUOUS
 62
         7
100
AcDbLine
 10
1629.9864126458
 20
-69.2951392792
 30
0.0
 11
1632.2958137226
 21
-69.2951392792
 31
0.0
  0
DIMENSION
  5
522
100
AcDbEntity
  8
L1_105
  6
CONTINUOUS
 62
         4
100
AcDbDimension
  2
*D30
 10
1628.8317121074
 20
-58.9720861539
 30
0.0
 11
1618.9911131842
 21
-56.9470861539
 31
0.0
  3
DIMSTYLE1
100
AcDbAlignedDimension
 13
1628.8317121074
 23
-67.2951392792
 33
0.0
 14
1633.450514261
 24
-67.2951392792
 34
0.0
100
AcDbRotatedDimension
  0
DIMENSION
  5
530
100
AcDbEntity
  8
L1_105
  6
CONTINUOUS
 62
         4
100
AcDbDimension
  2
*D31
 10
1624.7665357018
 20
-60.7951392792
 30
0.0
 11
1622.7415357018
 21
-72.8757216845
 31
0.0
  3
DIMSTYLE1
100
AcDbAlignedDimension
 13
1617.2323058991
 23
-60.7951392792
 33
0.0
 14
1617.2323058991
 24
-73.7951392792
 34
0.0
 50
90.0
100
AcDbRotatedDimension
  0
DIMENSION
  5
53E
100
AcDbEntity
  8
L1_105
  6
CONTINUOUS
 62
         4
100
AcDbDimension
  2
*D32
 10
1762.6036038641
 20
-56.8951392792
 30
0.0
 11
1760.5786038641
 21
-72.6951392792
 31
0.0
  3
DIMSTYLE1
100
AcDbAlignedDimension
 13
1766.5369502264
 23
-56.8951392792
 33
0.0
 14
1766.5369502264
 24
-77.6951392792
 34
0.0
 50
90.0
100
AcDbRotatedDimension
  0
LINE
  5
54A
100
AcDbEntity
  8
L1_105
  6
CONTINUOUS
 62
         7
100
AcDbLine
 10
1767.2869502264
 20
-76.9451392792
 30
0.0
 11
1767.2869502264
 21
-57.6451392792
 31
0.0
  0
LINE
  5
54B
100
AcDbEntity
  8
L1_105
  6
CONTINUOUS
 62
         7
100
AcDbLine
 10
1765.7869502264
 20
-76.9451392792
 30
0.0
 11
1765.7869502264
 21
-57.6451392792
 31
0.0
  0
CIRCLE
  5
54C
100
AcDbEntity
  8
L1_105
  6
CONTINUOUS
 62
         7
100
AcDbCircle
 10
1766.5369502264
 20
-76.9451392792
 30
0.0
 40
0.75
  0
CIRCLE
  5
54D
100
AcDbEntity
  8
L1_105
  6
CONTINUOUS
 62
         7
100
AcDbCircle
 10
1766.5369502264
 20
-57.6451392792
 30
0.0
 40
0.75
  0
DIMENSION
  5
550
100
AcDbEntity
  8
L1_105
  6
CONTINUOUS
 62
         4
100
AcDbDimension
  2
*D33
 10
1790.8819776703
 20
-53.5451392792
 30
0.0
 11
1788.8569776703
 21
-75.3951392792
 31
0.0
  3
DIMSTYLE1
100
AcDbAlignedDimension
 13
1794.9869502264
 23
-53.5451392792
 33
0.0
 14
1794.9869502264
 24
-81.0451392792
 34
0.0
 50
90.0
100
AcDbRotatedDimension
  0
LINE
  5
55C
100
AcDbEntity
  8
L1_105
  6
CONTINUOUS
 62
         7
100
AcDbLine
 10
1794.2369502264
 20
-80.2951392792
 30
0.0
 11
1794.2369502264
 21
-54.2951392792
 31
0.0
  0
CIRCLE
  5
55D
100
AcDbEntity
  8
L1_105
  6
CONTINUOUS
 62
         7
100
AcDbCircle
 10
1794.9869502264
 20
-54.2951392792
 30
0.0
 40
0.75
  0
LINE
  5
55E
100
AcDbEntity
  8
L1_105
  6
CONTINUOUS
 62
         7
100
AcDbLine
 10
1795.7369502264
 20
-80.2951392792
 30
0.0
 11
1795.7369502264
 21
-54.2951392792
 31
0.0
  0
CIRCLE
  5
55F
100
AcDbEntity
  8
L1_105
  6
CONTINUOUS
 62
         7
100
AcDbCircle
 10
1794.9869502264
 20
-80.2951392792
 30
0.0
 40
0.75
  0
CIRCLE
  5
560
100
AcDbEntity
  8
L1_105
  6
CONTINUOUS
 62
         7
100
AcDbCircle
 10
1653.0308559567
 20
-67.2951392792
 30
0.0
 40
2.381
  0
DIMENSION
  5
563
100
AcDbEntity
  8
L1_105
  6
CONTINUOUS
 62
         4
100
AcDbDimension
  2
*D34
 10
1744.7667890879
 20
-45.9125586858
 30
0.0
 11
1747.8065485808
 21
-49.0708744894
 31
0.0
 70
         3
  3
DIMSTYLE1
100
AcDbDiametricDimension
 15
1745.707111365
 25
-47.6777198725
 35
0.0
 40
0.0
  0
DIMENSION
  5
570
100
AcDbEntity
  8
L1_105
  6
CONTINUOUS
 62
         4
100
AcDbDimension
  2
*D35
 10
1766.0149642643
 20
-57.1065943364
 30
0.0
 11
1769.965321727
 21
-59.3606098977
 31
0.0
 70
         3
  3
DIMSTYLE1
100
AcDbDiametricDimension
 15
1767.0589361886
 25
-58.1836842219
 35
0.0
 40
0.0
  0
DIMENSION
  5
57D
100
AcDbEntity
  8
L1_105
  6
CONTINUOUS
 62
         4
100
AcDbDimension
  2
*D36
 10
1794.5987243779
 20
-53.6534378763
 30
0.0
 11
1797.4292752744
 21
-55.9131641231
 31
0.0
 70
         3
  3
DIMSTYLE1
100
AcDbDiametricDimension
 15
1795.375176075
 25
-54.9368406821
 35
0.0
 40
0.0
  0
DIMENSION
  5
58A
100
AcDbEntity
  8
L1_105
  6
CONTINUOUS
 62
         4
100
AcDbDimension
  2
*D37
 10
1721.302057461
 20
-46.2041673773
 30
0.0
 11
1720.452057461
 21
-44.1791673773
 31
0.0
  3
DIMSTYLE1
100
AcDbAlignedDimension
 13
1721.302057461
 23
-57.0451392792
 33
0.0
 14
1722.302057461
 24
-57.0451392792
 34
0.0
100
AcDbRotatedDimension
  0
DIMENSION
  5
59A
100
AcDbEntity
  8
L1_105
  6
CONTINUOUS
 62
         4
100
AcDbDimension
  2
*D38
 10
1650.7518827727
 20
-67.9846624674
 30
0.0
 11
1658.6698740953
 21
-64.2254171697
 31
0.0
 70
         3
  3
DIMSTYLE1
100
AcDbDiametricDimension
 15
1655.3098291406
 25
-66.605616091
 35
0.0
 40
0.0
  0
DIMENSION
  5
5A7
100
AcDbEntity
  8
L1_105
  6
CONTINUOUS
 62
         4
100
AcDbDimension
  2
*D39
 10
1558.0500323958
 20
-64.2951392792
 30
0.0
 11
1556.0250323958
 21
-74.0451392792
 31
0.0
  3
DIMSTYLE1
100
AcDbAlignedDimension
 13
1566.4823058991
 23
-64.2951392792
 33
0.0
 14
1566.4823058991
 24
-70.2951392792
 34
0.0
 50
90.0
100
AcDbRotatedDimension
  0
DIMENSION
  5
5B7
100
AcDbEntity
  8
L1_105
  6
CONTINUOUS
 62
         4
100
AcDbDimension
  2
*D40
 10
1617.7323058991
 20
-80.4396216051
 30
0.0
 11
1610.9323058991
 21
-78.4146216051
 31
0.0
  3
DIMSTYLE1
100
AcDbAlignedDimension
 13
1617.7323058991
 23
-73.2951392792
 33
0.0
 14
1612.2323058991
 24
-73.2951392792
 34
0.0
100
AcDbRotatedDimension
  0
DIMENSION
  5
5C7
100
AcDbEntity
  8
L1_105
  6
CONTINUOUS
 62
         4
100
AcDbDimension
  2
*D41
 10
1595.3012659414
 20
48.8319767067
 30
0.0
 11
1596.5474069887
 21
50.8569767067
 31
0.0
  3
DIMSTYLE1
100
AcDbAlignedDimension
 13
1595.3012659414
 23
54.5872179209
 33
0.0
 14
1600.3012659414
 24
54.9872179209
 34
0.0
100
AcDbRotatedDimension
  0
LINE
  5
5D5
100
AcDbEntity
  8
L1_105
  6
CONTINUOUS
 62
         7
100
AcDbLine
 10
1677.6929422263
 20
-6.2375632398
 30
0.0
 11
1678.4429422263
 21
4.0624367602
 31
0.0
  0
LINE
  5
5D6
100
AcDbEntity
  8
L1_105
  6
CONTINUOUS
 62
         7
100
AcDbLine
 10
1679.9429422263
 20
4.0624367602
 30
0.0
 11
1679.1929422263
 21
-6.2375632398
 31
0.0
  0
LINE
  5
5D7
100
AcDbEntity
  8
L1_105
  6
CONTINUOUS
 62
         7
100
AcDbLine
 10
1680.6929422263
 20
-6.2375632398
 30
0.0
 11
1681.4429422263
 21
4.0624367602
 31
0.0
  0
LINE
  5
5D8
100
AcDbEntity
  8
L1_105
  6
CONTINUOUS
 62
         7
100
AcDbLine
 10
1682.9429422263
 20
4.0624367602
 30
0.0
 11
1682.1929422263
 21
-6.2375632398
 31
0.0
  0
LINE
  5
5D9
100
AcDbEntity
  8
L1_105
  6
CONTINUOUS
 62
         7
100
AcDbLine
 10
1683.6929422263
 20
-6.2375632398
 30
0.0
 11
1684.4429422263
 21
4.0624367602
 31
0.0
  0
LINE
  5
5DA
100
AcDbEntity
  8
L1_105
  6
CONTINUOUS
 62
         7
100
AcDbLine
 10
1685.9429422263
 20
4.0624367602
 30
0.0
 11
1685.1929422263
 21
-6.2375632398
 31
0.0
  0
LINE
  5
5DB
100
AcDbEntity
  8
L1_105
  6
CONTINUOUS
 62
         7
100
AcDbLine
 10
1686.6929422263
 20
-6.2375632398
 30
0.0
 11
1687.4429422263
 21
4.0624367602
 31
0.0
  0
LINE
  5
5DC
100
AcDbEntity
  8
L1_105
  6
CONTINUOUS
 62
         7
100
AcDbLine
 10
1688.9429422263
 20
4.0624367602
 30
0.0
 11
1688.1929422263
 21
-6.2375632398
 31
0.0
  0
LINE
  5
5DD
100
AcDbEntity
  8
L1_105
  6
CONTINUOUS
 62
         7
100
AcDbLine
 10
1689.6929422263
 20
-6.2375632398
 30
0.0
 11
1690.4429422263
 21
4.0624367602
 31
0.0
  0
LINE
  5
5DE
100
AcDbEntity
  8
L1_105
  6
CONTINUOUS
 62
         7
100
AcDbLine
 10
1691.9429422263
 20
4.0624367602
 30
0.0
 11
1691.1929422263
 21
-6.2375632398
 31
0.0
  0
LINE
  5
5DF
100
AcDbEntity
  8
L1_105
  6
CONTINUOUS
 62
         7
100
AcDbLine
 10
1693.4429422263
 20
4.0624367602
 30
0.0
 11
1692.6929422263
 21
-6.2375632398
 31
0.0
  0
LINE
  5
5E0
100
AcDbEntity
  8
L1_105
  6
CONTINUOUS
 62
         7
100
AcDbLine
 10
1694.9429422263
 20
4.0624367602
 30
0.0
 11
1694.1929422263
 21
-6.2375632398
 31
0.0
  0
CIRCLE
  5
5E1
100
AcDbEntity
  8
L1_105
  6
CONTINUOUS
 62
         7
100
AcDbCircle
 10
1687.4429422263
 20
-6.2375632398
 30
0.0
 40
0.75
  0
CIRCLE
  5
5E2
100
AcDbEntity
  8
L1_105
  6
CONTINUOUS
 62
         7
100
AcDbCircle
 10
1688.9429422263
 20
-6.2375632398
 30
0.0
 40
0.75
  0
CIRCLE
  5
5E3
100
AcDbEntity
  8
L1_105
  6
CONTINUOUS
 62
         7
100
AcDbCircle
 10
1690.4429422263
 20
-6.2375632398
 30
0.0
 40
0.75
  0
CIRCLE
  5
5E4
100
AcDbEntity
  8
L1_105
  6
CONTINUOUS
 62
         7
100
AcDbCircle
 10
1691.9429422263
 20
-6.2375632398
 30
0.0
 40
0.75
  0
CIRCLE
  5
5E5
100
AcDbEntity
  8
L1_105
  6
CONTINUOUS
 62
         7
100
AcDbCircle
 10
1693.4429422263
 20
-6.2375632398
 30
0.0
 40
0.75
  0
CIRCLE
  5
5E6
100
AcDbEntity
  8
L1_105
  6
CONTINUOUS
 62
         7
100
AcDbCircle
 10
1679.9429422263
 20
-6.2375632398
 30
0.0
 40
0.75
  0
CIRCLE
  5
5E7
100
AcDbEntity
  8
L1_105
  6
CONTINUOUS
 62
         7
100
AcDbCircle
 10
1681.4429422263
 20
-6.2375632398
 30
0.0
 40
0.75
  0
CIRCLE
  5
5E8
100
AcDbEntity
  8
L1_105
  6
CONTINUOUS
 62
         7
100
AcDbCircle
 10
1682.9429422263
 20
-6.2375632398
 30
0.0
 40
0.75
  0
CIRCLE
  5
5E9
100
AcDbEntity
  8
L1_105
  6
CONTINUOUS
 62
         7
100
AcDbCircle
 10
1684.4429422263
 20
-6.2375632398
 30
0.0
 40
0.75
  0
CIRCLE
  5
5EA
100
AcDbEntity
  8
L1_105
  6
CONTINUOUS
 62
         7
100
AcDbCircle
 10
1685.9429422263
 20
-6.2375632398
 30
0.0
 40
0.75
  0
CIRCLE
  5
5EB
100
AcDbEntity
  8
L1_105
  6
CONTINUOUS
 62
         7
100
AcDbCircle
 10
1678.4429422263
 20
-6.2375632398
 30
0.0
 40
0.75
  0
CIRCLE
  5
5EC
100
AcDbEntity
  8
L1_105
  6
CONTINUOUS
 62
         7
100
AcDbCircle
 10
1688.1929422263
 20
4.0624367602
 30
0.0
 40
0.75
  0
CIRCLE
  5
5ED
100
AcDbEntity
  8
L1_105
  6
CONTINUOUS
 62
         7
100
AcDbCircle
 10
1689.6929422263
 20
4.0624367602
 30
0.0
 40
0.75
  0
CIRCLE
  5
5EE
100
AcDbEntity
  8
L1_105
  6
CONTINUOUS
 62
         7
100
AcDbCircle
 10
1691.1929422263
 20
4.0624367602
 30
0.0
 40
0.75
  0
CIRCLE
  5
5EF
100
AcDbEntity
  8
L1_105
  6
CONTINUOUS
 62
         7
100
AcDbCircle
 10
1692.6929422263
 20
4.0624367602
 30
0.0
 40
0.75
  0
CIRCLE
  5
5F0
100
AcDbEntity
  8
L1_105
  6
CONTINUOUS
 62
         7
100
AcDbCircle
 10
1694.1929422263
 20
4.0624367602
 30
0.0
 40
0.75
  0
CIRCLE
  5
5F1
100
AcDbEntity
  8
L1_105
  6
CONTINUOUS
 62
         7
100
AcDbCircle
 10
1680.6929422263
 20
4.0624367602
 30
0.0
 40
0.75
  0
CIRCLE
  5
5F2
100
AcDbEntity
  8
L1_105
  6
CONTINUOUS
 62
         7
100
AcDbCircle
 10
1682.1929422263
 20
4.0624367602
 30
0.0
 40
0.75
  0
CIRCLE
  5
5F3
100
AcDbEntity
  8
L1_105
  6
CONTINUOUS
 62
         7
100
AcDbCircle
 10
1683.6929422263
 20
4.0624367602
 30
0.0
 40
0.75
  0
CIRCLE
  5
5F4
100
AcDbEntity
  8
L1_105
  6
CONTINUOUS
 62
         7
100
AcDbCircle
 10
1685.1929422263
 20
4.0624367602
 30
0.0
 40
0.75
  0
CIRCLE
  5
5F5
100
AcDbEntity
  8
L1_105
  6
CONTINUOUS
 62
         7
100
AcDbCircle
 10
1686.6929422263
 20
4.0624367602
 30
0.0
 40
0.75
  0
CIRCLE
  5
5F6
100
AcDbEntity
  8
L1_105
  6
CONTINUOUS
 62
         7
100
AcDbCircle
 10
1679.1929422263
 20
4.0624367602
 30
0.0
 40
0.75
  0
LINE
  5
5F7
100
AcDbEntity
  8
L1_105
  6
CONTINUOUS
 62
         7
100
AcDbLine
 10
1712.0257127914
 20
7.5124367602
 30
0.0
 11
1709.0257127914
 21
-9.6875632398
 31
0.0
  0
LINE
  5
5F8
100
AcDbEntity
  8
L1_105
  6
CONTINUOUS
 62
         7
100
AcDbLine
 10
1710.5257127914
 20
-9.6875632398
 30
0.0
 11
1712.0257127914
 21
7.5124367602
 31
0.0
  0
LINE
  5
5F9
100
AcDbEntity
  8
L1_105
  6
CONTINUOUS
 62
         7
100
AcDbLine
 10
1713.5257127914
 20
7.5124367602
 30
0.0
 11
1712.0257127914
 21
-9.6875632398
 31
0.0
  0
LINE
  5
5FA
100
AcDbEntity
  8
L1_105
  6
CONTINUOUS
 62
         7
100
AcDbLine
 10
1713.5257127914
 20
-9.6875632398
 30
0.0
 11
1715.0257127914
 21
7.5124367602
 31
0.0
  0
LINE
  5
5FB
100
AcDbEntity
  8
L1_105
  6
CONTINUOUS
 62
         7
100
AcDbLine
 10
1716.5257127914
 20
7.5124367602
 30
0.0
 11
1715.0257127914
 21
-9.6875632398
 31
0.0
  0
LINE
  5
5FC
100
AcDbEntity
  8
L1_105
  6
CONTINUOUS
 62
         7
100
AcDbLine
 10
1716.5257127914
 20
-9.6875632398
 30
0.0
 11
1718.0257127914
 21
7.5124367602
 31
0.0
  0
LINE
  5
5FD
100
AcDbEntity
  8
L1_105
  6
CONTINUOUS
 62
         7
100
AcDbLine
 10
1719.5257127914
 20
7.5124367602
 30
0.0
 11
1718.0257127914
 21
-9.6875632398
 31
0.0
  0
LINE
  5
5FE
100
AcDbEntity
  8
L1_105
  6
CONTINUOUS
 62
         7
100
AcDbLine
 10
1719.5257127914
 20
-9.6875632398
 30
0.0
 11
1721.0257127914
 21
7.5124367602
 31
0.0
  0
LINE
  5
5FF
100
AcDbEntity
  8
L1_105
  6
CONTINUOUS
 62
         7
100
AcDbLine
 10
1722.5257127914
 20
7.5124367602
 30
0.0
 11
1721.0257127914
 21
-9.6875632398
 31
0.0
  0
CIRCLE
  5
600
100
AcDbEntity
  8
L1_105
  6
CONTINUOUS
 62
         7
100
AcDbCircle
 10
1709.7757127914
 20
-9.6875632398
 30
0.0
 40
0.75
  0
CIRCLE
  5
601
100
AcDbEntity
  8
L1_105
  6
CONTINUOUS
 62
         7
100
AcDbCircle
 10
1711.2757127914
 20
-9.6875632398
 30
0.0
 40
0.75
  0
CIRCLE
  5
602
100
AcDbEntity
  8
L1_105
  6
CONTINUOUS
 62
         7
100
AcDbCircle
 10
1712.7757127914
 20
-9.6875632398
 30
0.0
 40
0.75
  0
CIRCLE
  5
603
100
AcDbEntity
  8
L1_105
  6
CONTINUOUS
 62
         7
100
AcDbCircle
 10
1714.2757127914
 20
-9.6875632398
 30
0.0
 40
0.75
  0
CIRCLE
  5
604
100
AcDbEntity
  8
L1_105
  6
CONTINUOUS
 62
         7
100
AcDbCircle
 10
1715.7757127914
 20
-9.6875632398
 30
0.0
 40
0.75
  0
CIRCLE
  5
605
100
AcDbEntity
  8
L1_105
  6
CONTINUOUS
 62
         7
100
AcDbCircle
 10
1717.2757127914
 20
-9.6875632398
 30
0.0
 40
0.75
  0
CIRCLE
  5
606
100
AcDbEntity
  8
L1_105
  6
CONTINUOUS
 62
         7
100
AcDbCircle
 10
1718.7757127914
 20
-9.6875632398
 30
0.0
 40
0.75
  0
CIRCLE
  5
607
100
AcDbEntity
  8
L1_105
  6
CONTINUOUS
 62
         7
100
AcDbCircle
 10
1720.2757127914
 20
-9.6875632398
 30
0.0
 40
0.75
  0
CIRCLE
  5
608
100
AcDbEntity
  8
L1_105
  6
CONTINUOUS
 62
         7
100
AcDbCircle
 10
1712.7757127914
 20
7.5124367602
 30
0.0
 40
0.75
  0
CIRCLE
  5
609
100
AcDbEntity
  8
L1_105
  6
CONTINUOUS
 62
         7
100
AcDbCircle
 10
1714.2757127914
 20
7.5124367602
 30
0.0
 40
0.75
  0
CIRCLE
  5
60A
100
AcDbEntity
  8
L1_105
  6
CONTINUOUS
 62
         7
100
AcDbCircle
 10
1715.7757127914
 20
7.5124367602
 30
0.0
 40
0.75
  0
CIRCLE
  5
60B
100
AcDbEntity
  8
L1_105
  6
CONTINUOUS
 62
         7
100
AcDbCircle
 10
1717.2757127914
 20
7.5124367602
 30
0.0
 40
0.75
  0
CIRCLE
  5
60C
100
AcDbEntity
  8
L1_105
  6
CONTINUOUS
 62
         7
100
AcDbCircle
 10
1718.7757127914
 20
7.5124367602
 30
0.0
 40
0.75
  0
CIRCLE
  5
60D
100
AcDbEntity
  8
L1_105
  6
CONTINUOUS
 62
         7
100
AcDbCircle
 10
1720.2757127914
 20
7.5124367602
 30
0.0
 40
0.75
  0
CIRCLE
  5
60E
100
AcDbEntity
  8
L1_105
  6
CONTINUOUS
 62
         7
100
AcDbCircle
 10
1721.7757127914
 20
7.5124367602
 30
0.0
 40
0.75
  0
LINE
  5
60F
100
AcDbEntity
  8
L1_105
  6
CONTINUOUS
 62
         7
100
AcDbLine
 10
1739.734607678
 20
12.7124367602
 30
0.0
 11
1738.234607678
 21
-14.8875632398
 31
0.0
  0
LINE
  5
610
100
AcDbEntity
  8
L1_105
  6
CONTINUOUS
 62
         7
100
AcDbLine
 10
1736.734607678
 20
-14.8875632398
 30
0.0
 11
1738.234607678
 21
12.7124367602
 31
0.0
  0
LINE
  5
611
100
AcDbEntity
  8
L1_105
  6
CONTINUOUS
 62
         7
100
AcDbLine
 10
1736.734607678
 20
12.7124367602
 30
0.0
 11
1735.234607678
 21
-14.8875632398
 31
0.0
  0
LINE
  5
612
100
AcDbEntity
  8
L1_105
  6
CONTINUOUS
 62
         7
100
AcDbLine
 10
1733.734607678
 20
-14.8875632398
 30
0.0
 11
1735.234607678
 21
12.7124367602
 31
0.0
  0
LINE
  5
613
100
AcDbEntity
  8
L1_105
  6
CONTINUOUS
 62
         7
100
AcDbLine
 10
1741.234607678
 20
12.7124367602
 30
0.0
 11
1739.734607678
 21
-14.8875632398
 31
0.0
  0
CIRCLE
  5
614
100
AcDbEntity
  8
L1_105
  6
CONTINUOUS
 62
         7
100
AcDbCircle
 10
1734.484607678
 20
-14.8875632398
 30
0.0
 40
0.75
  0
CIRCLE
  5
615
100
AcDbEntity
  8
L1_105
  6
CONTINUOUS
 62
         7
100
AcDbCircle
 10
1735.984607678
 20
-14.8875632398
 30
0.0
 40
0.75
  0
CIRCLE
  5
616
100
AcDbEntity
  8
L1_105
  6
CONTINUOUS
 62
         7
100
AcDbCircle
 10
1737.484607678
 20
-14.8875632398
 30
0.0
 40
0.75
  0
CIRCLE
  5
617
100
AcDbEntity
  8
L1_105
  6
CONTINUOUS
 62
         7
100
AcDbCircle
 10
1738.984607678
 20
-14.8875632398
 30
0.0
 40
0.75
  0
CIRCLE
  5
618
100
AcDbEntity
  8
L1_105
  6
CONTINUOUS
 62
         7
100
AcDbCircle
 10
1735.984607678
 20
12.7124367602
 30
0.0
 40
0.75
  0
CIRCLE
  5
619
100
AcDbEntity
  8
L1_105
  6
CONTINUOUS
 62
         7
100
AcDbCircle
 10
1737.484607678
 20
12.7124367602
 30
0.0
 40
0.75
  0
CIRCLE
  5
61A
100
AcDbEntity
  8
L1_105
  6
CONTINUOUS
 62
         7
100
AcDbCircle
 10
1738.984607678
 20
12.7124367602
 30
0.0
 40
0.75
  0
CIRCLE
  5
61B
100
AcDbEntity
  8
L1_105
  6
CONTINUOUS
 62
         7
100
AcDbCircle
 10
1740.484607678
 20
12.7124367602
 30
0.0
 40
0.75
  0
LINE
  5
61C
100
AcDbEntity
  8
L1_105
  6
CONTINUOUS
 62
         7
100
AcDbLine
 10
1755.5098308608
 20
-6.8875632398
 30
0.0
 11
1756.7098308608
 21
4.7124367602
 31
0.0
  0
LINE
  5
61D
100
AcDbEntity
  8
L1_105
  6
CONTINUOUS
 62
         7
100
AcDbLine
 10
1755.5098308608
 20
4.7124367602
 30
0.0
 11
1754.3098308608
 21
-6.8875632398
 31
0.0
  0
LINE
  5
61E
100
AcDbEntity
  8
L1_105
  6
CONTINUOUS
 62
         7
100
AcDbLine
 10
1753.1098308608
 20
-6.8875632398
 30
0.0
 11
1754.3098308608
 21
4.7124367602
 31
0.0
  0
LINE
  5
61F
100
AcDbEntity
  8
L1_105
  6
CONTINUOUS
 62
         7
100
AcDbLine
 10
1753.1098308608
 20
4.7124367602
 30
0.0
 11
1751.9098308608
 21
-6.8875632398
 31
0.0
  0
LINE
  5
620
100
AcDbEntity
  8
L1_105
  6
CONTINUOUS
 62
         7
100
AcDbLine
 10
1751.9098308608
 20
4.7124367602
 30
0.0
 11
1750.7098308608
 21
-6.8875632398
 31
0.0
  0
LINE
  5
621
100
AcDbEntity
  8
L1_105
  6
CONTINUOUS
 62
         7
100
AcDbLine
 10
1750.7098308608
 20
4.7124367602
 30
0.0
 11
1749.5098308608
 21
-6.8875632398
 31
0.0
  0
LINE
  5
622
100
AcDbEntity
  8
L1_105
  6
CONTINUOUS
 62
         7
100
AcDbLine
 10
1757.9098308608
 20
4.7124367602
 30
0.0
 11
1756.7098308608
 21
-6.8875632398
 31
0.0
  0
CIRCLE
  5
623
100
AcDbEntity
  8
L1_105
  6
CONTINUOUS
 62
         7
100
AcDbCircle
 10
1750.1098308608
 20
-6.8875632398
 30
0.0
 40
0.6
  0
CIRCLE
  5
624
100
AcDbEntity
  8
L1_105
  6
CONTINUOUS
 62
         7
100
AcDbCircle
 10
1751.3098308608
 20
-6.8875632398
 30
0.0
 40
0.6
  0
CIRCLE
  5
625
100
AcDbEntity
  8
L1_105
  6
CONTINUOUS
 62
         7
100
AcDbCircle
 10
1752.5098308608
 20
-6.8875632398
 30
0.0
 40
0.6
  0
CIRCLE
  5
626
100
AcDbEntity
  8
L1_105
  6
CONTINUOUS
 62
         7
100
AcDbCircle
 10
1753.7098308608
 20
-6.8875632398
 30
0.0
 40
0.6
  0
CIRCLE
  5
627
100
AcDbEntity
  8
L1_105
  6
CONTINUOUS
 62
         7
100
AcDbCircle
 10
1754.9098308608
 20
-6.8875632398
 30
0.0
 40
0.6
  0
CIRCLE
  5
628
100
AcDbEntity
  8
L1_105
  6
CONTINUOUS
 62
         7
100
AcDbCircle
 10
1756.1098308608
 20
-6.8875632398
 30
0.0
 40
0.6
  0
CIRCLE
  5
629
100
AcDbEntity
  8
L1_105
  6
CONTINUOUS
 62
         7
100
AcDbCircle
 10
1751.3098308608
 20
4.7124367602
 30
0.0
 40
0.6
  0
CIRCLE
  5
62A
100
AcDbEntity
  8
L1_105
  6
CONTINUOUS
 62
         7
100
AcDbCircle
 10
1752.5098308608
 20
4.7124367602
 30
0.0
 40
0.6
  0
CIRCLE
  5
62B
100
AcDbEntity
  8
L1_105
  6
CONTINUOUS
 62
         7
100
AcDbCircle
 10
1753.7098308608
 20
4.7124367602
 30
0.0
 40
0.6
  0
CIRCLE
  5
62C
100
AcDbEntity
  8
L1_105
  6
CONTINUOUS
 62
         7
100
AcDbCircle
 10
1754.9098308608
 20
4.7124367602
 30
0.0
 40
0.6
  0
CIRCLE
  5
62D
100
AcDbEntity
  8
L1_105
  6
CONTINUOUS
 62
         7
100
AcDbCircle
 10
1756.1098308608
 20
4.7124367602
 30
0.0
 40
0.6
  0
CIRCLE
  5
62E
100
AcDbEntity
  8
L1_105
  6
CONTINUOUS
 62
         7
100
AcDbCircle
 10
1757.3098308608
 20
4.7124367602
 30
0.0
 40
0.6
  0
LINE
  5
62F
100
AcDbEntity
  8
L1_105
  6
CENTER
 62
         1
100
AcDbLine
 10
1773.9954846801
 20
-1.0875632398
 30
0.0
 11
1658.4290764681
 21
-1.0875632398
 31
0.0
  0
ARC
  5
630
100
AcDbEntity
  8
L1_105
  6
CONTINUOUS
 62
         7
100
AcDbCircle
 10
1648.6008790013
 20
63.8872179209
 30
0.0
 40
3.0
100
AcDbArc
 50
270.0
 51
450.0
  0
ARC
  5
631
100
AcDbEntity
  8
L1_105
  6
CONTINUOUS
 62
         7
100
AcDbCircle
 10
1504.6333403763
 20
4.5566652593
 30
0.0
 40
0.5
100
AcDbArc
 50
270.0
 51
360.0
  0
LINE
  5
632
100
AcDbEntity
  8
L1_105
  6
CONTINUOUS
 62
         7
100
AcDbLine
 10
1504.6333403763
 20
4.0566652593
 30
0.0
 11
1485.1333403763
 21
4.0566652593
 31
0.0
  0
LINE
  5
633
100
AcDbEntity
  8
L1_105
  6
CONTINUOUS
 62
         4
100
AcDbLine
 10
1504.6333403763
 20
-29.9433347407
 30
0.0
 11
1504.6333403763
 21
4.0566652593
 31
0.0
  0
LINE
  5
634
100
AcDbEntity
  8
L1_105
  6
CONTINUOUS
 62
         7
100
AcDbLine
 10
1504.6333403763
 20
-29.9433347407
 30
0.0
 11
1485.1333403763
 21
-29.9433347407
 31
0.0
  0
ARC
  5
635
100
AcDbEntity
  8
L1_105
  6
CONTINUOUS
 62
         7
100
AcDbCircle
 10
1504.6333403763
 20
-30.4433347407
 30
0.0
 40
0.5
100
AcDbArc
 50
0.0
 51
90.0
  0
INSERT
  5
669
100
AcDbEntity
  8
0
  6
CONTINUOUS
100
AcDbBlockReference
  2
*X42
 10
0.0
 20
0.0
 30
0.0
  0
DIMENSION
  5
66C
100
AcDbEntity
  8
L1_105
  6
CONTINUOUS
 62
         4
100
AcDbDimension
  2
*D43
 10
1505.1333403763
 20
195.1232216464
 30
0.0
 11
1472.9187829808
 21
198.2552216464
 31
0.0
  3
DIMSTYLE1
100
AcDbAlignedDimension
 13
1505.1333403763
 23
167.6072914602
 33
0.0
 14
1452.1333403763
 24
171.6846417294
 34
0.0
100
AcDbRotatedDimension
  0
DIMENSION
  5
67A
100
AcDbEntity
  8
L1_105
  6
CONTINUOUS
 62
         4
100
AcDbDimension
  2
*D44
 10
1505.1333403763
 20
187.5298379314
 30
0.0
 11
1487.3707068253
 21
190.6618379314
 31
0.0
  3
DIMSTYLE1
100
AcDbAlignedDimension
 13
1505.1333403763
 23
167.6072914602
 33
0.0
 14
1484.1333403763
 24
170.6846417294
 34
0.0
100
AcDbRotatedDimension
  0
DIMENSION
  5
688
100
AcDbEntity
  8
L1_105
  6
CONTINUOUS
 62
         4
100
AcDbDimension
  2
*D45
 10
1484.1333403763
 20
179.4465584929
 30
0.0
 11
1487.4959675165
 21
182.5785584929
 31
0.0
  3
DIMSTYLE1
100
AcDbAlignedDimension
 13
1484.1333403763
 23
170.6846417294
 33
0.0
 14
1486.1333403763
 24
170.6846417294
 34
0.0
100
AcDbRotatedDimension
  0
DIMENSION
  5
698
100
AcDbEntity
  8
L1_105
  6
CONTINUOUS
 62
         4
100
AcDbDimension
  2
*D46
 10
1534.8180281053
 20
169.6846417294
 30
0.0
 11
1531.6860281053
 21
140.3473538612
 31
0.0
  3
DIMSTYLE1
100
AcDbAlignedDimension
 13
1486.1333403763
 23
169.6846417294
 33
0.0
 14
1486.1333403763
 24
130.6846417294
 34
0.0
 50
90.0
100
AcDbRotatedDimension
  0
DIMENSION
  5
6A6
100
AcDbEntity
  8
L1_105
  6
CONTINUOUS
 62
         4
100
AcDbDimension
  2
*D47
 10
1544.0693492817
 20
170.6846417294
 30
0.0
 11
1540.9373492817
 21
139.2528174198
 31
0.0
  3
DIMSTYLE1
100
AcDbAlignedDimension
 13
1499.4012895687
 23
170.6846417294
 33
0.0
 14
1499.4012895687
 24
129.6846417294
 34
0.0
 50
90.0
100
AcDbRotatedDimension
  0
DIMENSION
  5
6B4
100
AcDbEntity
  8
L1_105
  6
CONTINUOUS
 62
         4
100
AcDbDimension
  2
*D48
 10
1468.0203301475
 20
154.9846417294
 30
0.0
 11
1464.8883301475
 21
107.4178145242
 31
0.0
  3
DIMSTYLE1
100
AcDbAlignedDimension
 13
1460.5383403763
 23
154.9846417294
 33
0.0
 14
1460.5383403763
 24
145.3846417294
 34
0.0
 50
90.0
100
AcDbRotatedDimension
  0
DIMENSION
  5
6C4
100
AcDbEntity
  8
L1_105
  6
CONTINUOUS
 62
         4
100
AcDbDimension
  2
*D49
 10
1460.5383403763
 20
105.7739192814
 30
0.0
 11
1471.6989703403
 21
108.9059192814
 31
0.0
  3
DIMSTYLE1
100
AcDbAlignedDimension
 13
1460.5383403763
 23
145.2146417294
 33
0.0
 14
1505.1333403763
 24
132.7619919986
 34
0.0
100
AcDbRotatedDimension
  0
DIMENSION
  5
6D2
100
AcDbEntity
  8
L1_105
  6
CONTINUOUS
 62
         4
100
AcDbDimension
  2
*D50
 10
1475.5382741959
 20
115.714967216
 30
0.0
 11
1484.7108072861
 21
118.846967216
 31
0.0
  3
DIMSTYLE1
100
AcDbAlignedDimension
 13
1475.5382741959
 23
145.2146417294
 33
0.0
 14
1505.1333403763
 24
132.7619919986
 34
0.0
100
AcDbRotatedDimension
  0
LINE
  5
6DE
100
AcDbEntity
  8
_Y__________
  6
CENTER
 62
         1
100
AcDbLine
 10
1419.1033403763
 20
-12.9433347407
 30
0.0
 11
1346.032617842
 21
-12.9433347407
 31
0.0
  0
DIMENSION
  5
6E1
100
AcDbEntity
  8
L1_105
  6
CONTINUOUS
 62
         4
100
AcDbDimension
  2
*D51
 10
1505.1333403763
 20
-69.7717555683
 30
0.0
 11
1465.2485899024
 21
-66.6397555683
 31
0.0
  3
DIMSTYLE1
100
AcDbAlignedDimension
 13
1505.1333403763
 23
-30.3278646868
 33
0.0
 14
1439.1333403763
 24
-29.4433347407
 34
0.0
100
AcDbRotatedDimension
  0
DIMENSION
  5
6EF
100
AcDbEntity
  8
L1_105
  6
CONTINUOUS
 62
         4
100
AcDbDimension
  2
*D52
 10
1505.1333403763
 20
-48.9530593812
 30
0.0
 11
1487.0110669833
 21
-45.8210593812
 31
0.0
  3
DIMSTYLE1
100
AcDbAlignedDimension
 13
1505.1333403763
 23
-30.3278646868
 33
0.0
 14
1480.1333403763
 24
-30.4433347407
 34
0.0
100
AcDbRotatedDimension
  0
DIMENSION
  5
6FD
100
AcDbEntity
  8
L1_105
  6
CONTINUOUS
 62
         4
100
AcDbDimension
  2
*D53
 10
1455.7383403763
 20
14.1917360085
 30
0.0
 11
1457.1725313366
 21
17.3237360085
 31
0.0
  3
DIMSTYLE1
100
AcDbAlignedDimension
 13
1455.7383403763
 23
7.5566652593
 33
0.0
 14
1480.3382741959
 24
7.5566652593
 34
0.0
100
AcDbRotatedDimension
  0
DIMENSION
  5
70B
100
AcDbEntity
  8
L1_105
  6
CONTINUOUS
 62
         4
100
AcDbDimension
  2
*D54
 10
1528.6941711857
 20
3.0566652593
 30
0.0
 11
1525.5621711857
 21
-20.9507516815
 31
0.0
  3
DIMSTYLE1
100
AcDbAlignedDimension
 13
1480.1333403763
 23
3.0566652593
 33
0.0
 14
1480.1333403763
 24
-28.9433347407
 34
0.0
 50
90.0
100
AcDbRotatedDimension
  0
DIMENSION
  5
719
100
AcDbEntity
  8
L1_105
  6
CONTINUOUS
 62
         4
100
AcDbDimension
  2
*D55
 10
1540.8015864264
 20
4.0566652593
 30
0.0
 11
1537.6695864264
 21
-21.6075939878
 31
0.0
  3
DIMSTYLE1
100
AcDbAlignedDimension
 13
1504.9333403763
 23
4.0566652593
 33
0.0
 14
1504.9333403763
 24
-29.9433347407
 34
0.0
 50
90.0
100
AcDbRotatedDimension
  0
TEXT
  5
726
100
AcDbEntity
  8
L1_105
  6
CONTINUOUS
 62
         2
100
AcDbText
 10
1607.8551181589
 20
224.3704784082
 30
0.0
 40
4.5
  1
534532
 41
0.98
  7
BOX
100
AcDbText
  0
ENDSEC
  0
SECTION
  2
OBJECTS
  0
DICTIONARY
  5
19
100
AcDbDictionary
  3
ACAD_GROUP
350
1A
  3
ACAD_MLINESTYLE
350
1B
  0
DICTIONARY
  5
1A
102
{ACAD_REACTORS
330
19
102
}
100
AcDbDictionary
  0
DICTIONARY
  5
1B
102
{ACAD_REACTORS
330
19
102
}
100
AcDbDictionary
  3
STANDARD
350
1C
  0
MLINESTYLE
  5
1C
102
{ACAD_REACTORS
330
1B
102
}
100
AcDbMlineStyle
  2
STANDARD
 70
         0
  3

 62
         0
 51
90.0
 52
90.0
 71
         2
 49
0.5
 62
       256
  6
BYLAYER
 49
-0.5
 62
       256
  6
BYLAYER
  0
ENDSEC
  0
EOF
