  0
SECTION
  2
HEADER
  9
$ACADVER
  1
AC1014
  9
$ACADMAINTVER
 70
         0
  9
$DWGCODEPAGE
  3
BIG5
  9
$INSBASE
 10
0.0
 20
0.0
 30
0.0
  9
$EXTMIN
 10
1085.0932623939
 20
-156.0658279449
 30
0.0
  9
$EXTMAX
 10
1884.9572374473
 20
247.2007787107
 30
0.0
  9
$LIMMIN
 10
0.0
 20
0.0
  9
$LIMMAX
 10
0.0
 20
0.0
  9
$ORTHOMODE
 70
         0
  9
$REGENMODE
 70
         1
  9
$FILLMODE
 70
         1
  9
$QTEXTMODE
 70
         0
  9
$MIRRTEXT
 70
         1
  9
$DRAGMODE
 70
         2
  9
$LTSCALE
 40
1.0
  9
$OSMODE
 70
         0
  9
$ATTMODE
 70
         1
  9
$TEXTSIZE
 40
1.0
  9
$TRACEWID
 40
0.05
  9
$TEXTSTYLE
  7
STANDARD
  9
$CLAYER
  8
0
  9
$CELTYPE
  6
CONTINUOUS
  9
$CECOLOR
 62
         4
  9
$CELTSCALE
 40
1.0
  9
$DELOBJ
 70
         1
  9
$DISPSILH
 70
         0
  9
$DIMSCALE
 40
1.0
  9
$DIMASZ
 40
0.18
  9
$DIMEXO
 40
0.0625
  9
$DIMDLI
 40
0.38
  9
$DIMRND
 40
0.0
  9
$DIMDLE
 40
0.0
  9
$DIMEXE
 40
0.25
  9
$DIMTP
 40
0.01
  9
$DIMTM
 40
-0.01
  9
$DIMTXT
 40
2.7
  9
$DIMCEN
 40
0.09
  9
$DIMTSZ
 40
0.0
  9
$DIMTOL
 70
         0
  9
$DIMLIM
 70
         0
  9
$DIMTIH
 70
         1
  9
$DIMTOH
 70
         1
  9
$DIMSE1
 70
         0
  9
$DIMSE2
 70
         0
  9
$DIMTAD
 70
         0
  9
$DIMZIN
 70
         0
  9
$DIMBLK
  1

  9
$DIMASO
 70
         1
  9
$DIMSHO
 70
         1
  9
$DIMPOST
  1

  9
$DIMAPOST
  1

  9
$DIMALT
 70
         0
  9
$DIMALTD
 70
         2
  9
$DIMALTF
 40
25.4
  9
$DIMLFAC
 40
1.0
  9
$DIMTOFL
 70
         0
  9
$DIMTVP
 40
0.0
  9
$DIMTIX
 70
         0
  9
$DIMSOXD
 70
         0
  9
$DIMSAH
 70
         0
  9
$DIMBLK1
  1

  9
$DIMBLK2
  1

  9
$DIMSTYLE
  2
STANDARD
  9
$DIMCLRD
 70
         0
  9
$DIMCLRE
 70
         0
  9
$DIMCLRT
 70
         4
  9
$DIMTFAC
 40
1.0
  9
$DIMGAP
 40
0.09
  9
$DIMJUST
 70
         0
  9
$DIMSD1
 70
         0
  9
$DIMSD2
 70
         0
  9
$DIMTOLJ
 70
         1
  9
$DIMTZIN
 70
         0
  9
$DIMALTZ
 70
         0
  9
$DIMALTTZ
 70
         0
  9
$DIMFIT
 70
         3
  9
$DIMUPT
 70
         0
  9
$DIMUNIT
 70
         2
  9
$DIMDEC
 70
         4
  9
$DIMTDEC
 70
         4
  9
$DIMALTU
 70
         2
  9
$DIMALTTD
 70
         2
  9
$DIMTXSTY
  7
STANDARD
  9
$DIMAUNIT
 70
         0
  9
$LUNITS
 70
         2
  9
$LUPREC
 70
        10
  9
$SKETCHINC
 40
0.1
  9
$FILLETRAD
 40
0.0
  9
$AUNITS
 70
         0
  9
$AUPREC
 70
         0
  9
$MENU
  1
acad
  9
$ELEVATION
 40
0.0
  9
$PELEVATION
 40
0.0
  9
$THICKNESS
 40
0.0
  9
$LIMCHECK
 70
         0
  9
$BLIPMODE
 70
         1
  9
$CHAMFERA
 40
0.0
  9
$CHAMFERB
 40
0.0
  9
$CHAMFERC
 40
0.0
  9
$CHAMFERD
 40
0.0
  9
$SKPOLY
 70
         0
  9
$TDCREATE
 40
0.000000000
  9
$TDUPDATE
 40
0.000000000
  9
$TDINDWG
 40
0.0000000000
  9
$TDUSRTIMER
 40
0.0000000000
  9
$USRTIMER
 70
         1
  9
$ANGBASE
 50
0.0
  9
$ANGDIR
 70
         0
  9
$PDMODE
 70
         2
  9
$PDSIZE
 40
0.0
  9
$PLINEWID
 40
0.0
  9
$COORDS
 70
         1
  9
$SPLFRAME
 70
         0
  9
$SPLINETYPE
 70
         6
  9
$SPLINESEGS
 70
         8
  9
$ATTDIA
 70
         0
  9
$ATTREQ
 70
         1
  9
$HANDLING
 70
         1
  9
$HANDSEED
  5
72B
  9
$SURFTAB1
 70
         6
  9
$SURFTAB2
 70
         6
  9
$SURFTYPE
 70
         6
  9
$SURFU
 70
         6
  9
$SURFV
 70
         6
  9
$UCSNAME
  2

  9
$UCSORG
 10
0.0
 20
0.0
 30
0.0
  9
$UCSXDIR
 10
1.0
 20
0.0
 30
0.0
  9
$UCSYDIR
 10
0.0
 20
1.0
 30
0.0
  9
$PUCSNAME
  2

  9
$PUCSORG
 10
0.0
 20
0.0
 30
0.0
  9
$PUCSXDIR
 10
1.0
 20
0.0
 30
0.0
  9
$PUCSYDIR
 10
0.0
 20
1.0
 30
0.0
  9
$USERI1
 70
         0
  9
$USERI2
 70
         0
  9
$USERI3
 70
         0
  9
$USERI4
 70
         0
  9
$USERI5
 70
         0
  9
$USERR1
 40
0.0
  9
$USERR2
 40
0.0
  9
$USERR3
 40
0.0
  9
$USERR4
 40
0.0
  9
$USERR5
 40
0.0
  9
$WORLDVIEW
 70
         1
  9
$SHADEDGE
 70
         3
  9
$SHADEDIF
 70
        70
  9
$TILEMODE
 70
         1
  9
$MAXACTVP
 70
        16
  9
$PINSBASE
 10
0.0
 20
0.0
 30
0.0
  9
$PLIMCHECK
 70
         0
  9
$PEXTMIN
 10
1.0000000000E+20
 20
1.0000000000E+20
 30
1.0000000000E+20
  9
$PEXTMAX
 10
-1.0000000000E+20
 20
-1.0000000000E+20
 30
-1.0000000000E+20
  9
$PLIMMIN
 10
0.0
 20
0.0
  9
$PLIMMAX
 10
12.0
 20
9.0
  9
$UNITMODE
 70
         0
  9
$VISRETAIN
 70
         0
  9
$PLINEGEN
 70
         1
  9
$PSLTSCALE
 70
         0
  9
$TREEDEPTH
 70
      3020
  9
$PICKSTYLE
 70
         1
  9
$CMLSTYLE
  2
STANDARD
  9
$CMLJUST
 70
         0
  9
$CMLSCALE
 40
1.0
  9
$PROXYGRAPHICS
 70
         0
  9
$MEASUREMENT
 70
         0
  0
ENDSEC
  0
SECTION
  2
CLASSES
  0
CLASS
  1
LWPOLYLINE
  2
AcDbPolyline
  3
"AutoCAD"
 90
        0
280
         0
281
         1
  0
CLASS
  1
IMAGE
  2
AcDbRasterImage
  3
ISM
 90
      127
280
         0
281
         1
  0
CLASS
  1
OLE2FRAME
  2
AcDbOle2Frame
  3
""
 90
        0
280
         0
281
         1
  0
CLASS
  1
HATCH
  2
AcDbHatch
  3
"ACAD_SEDONA"
 90
        0
280
         0
281
         1
  0
CLASS
  1
DICTIONARYVAR
  2
AcDbDictionaryVar
  3
"AutoCAD"
 90
        0
280
         0
281
         0
  0
CLASS
  1
RASTERVARIABLES
  2
AcDbRasterVariables
  3
ISM
 90
        0
280
         0
281
         0
  0
CLASS
  1
IMAGEDEF
  2
AcDbRasterImageDef
  3
ISM
 90
        0
280
         0
281
         0
  0
CLASS
  1
IMAGEDEF_REACTOR
  2
AcDbRasterImageDefReactor
  3
ISM
 90
        1
280
         0
281
         0
  0
CLASS
  1
IDBUFFER
  2
AcDbIdBuffer
  3
"Acad"
 90
        0
280
         0
281
         0
  0
CLASS
  1
SPATIAL_FILTER
  2
AcDbSpatialFilter
  3
"Acad"
 90
        0
280
         0
281
         0
  0
CLASS
  1
XRECORD
  2
AcDbXrecord
  3
"<Built In>"
 90
        0
280
         0
281
         0
  0
CLASS
  1
SORTENTSTABLE
  2
AcDbSortentsTable
  3
"AutoCAD"
 90
        0
280
         0
281
         0
  0
CLASS
  1
LAYER_INDEX
  2
AcDbLayerIndex
  3
"Acad"
 90
        0
280
         0
281
         0
  0
CLASS
  1
SPATIAL_INDEX
  2
AcDbSpatialIndex
  3
"Acad"
 90
        0
280
         0
281
         0
  0
CLASS
  1
OBJECT_PTR
  2
CAseDLPNTableRecord
  3
"ASE-LPNTableRecord"
 90
        1
280
         0
281
         0
  0
CLASS
  1
LAYOUT
  2
AcDbLayout
  3
"AutoCAD 2000"
 90
        1
280
         0
281
         0
  0
CLASS
  1
PLOTSETTINGS
  2
AcDbPlotSettings
  3
"AutoCAD 2000"
 90
        1
280
         0
281
         0
  0
CLASS
  1
ACDBDICTIONARYWDFLT
  2
AcDbDictionaryWithDefault
  3
"AutoCAD 2000"
 90
        1
280
         0
281
         0
  0
CLASS
  1
ACDBPLACEHOLDER
  2
AcDbPlaceHolder
  3
"AutoCAD 2000"
 90
        1
280
         0
281
         0
  0
CLASS
  1
VBA_PROJECT
  2
AcDbVbaProject
  3
"acadvba"
 90
        1
280
         0
281
         0
  0
CLASS
  1
WIPEOUT
  2
AcDbWipeout
  3
WipeOut|AutoCAD Express Tool|expresstools@autodesk.com
 90
      127
280
         0
281
         1
  0
CLASS
  1
WIPEOUTVARIABLES
  2
AcDbWipeoutVariables
  3
WipeOut|AutoCAD Express Tool|expresstools@autodesk.com
 90
        0
280
         0
281
         0
  0
CLASS
  1
RTEXT
  2
RText
  3
RText|AutoCAD Express Tool|expresstools@autodesk.com
 90
        0
280
         0
281
         1
  0
CLASS
  1
ARCALIGNEDTEXT
  2
AcDbArcAlignedText
  3
ATEXT|AutoCAD Express Tool|expresstools@autodesk.com
 90
        0
280
         0
281
         1
  0
ENDSEC
  0
SECTION
  2
TABLES
  0
TABLE
  2
VPORT
  5
7
100
AcDbSymbolTable
 70
         1
  0
VPORT
  5
15
100
AcDbSymbolTableRecord
100
AcDbViewportTableRecord
  2
*ACTIVE
 70
         0
 10
0.0
 20
0.0
 11
1.0
 21
1.0
 12
1485.0252499206
 22
45.5674753829
 13
0.0
 23
0.0
 14
1.0
 24
1.0
 15
0.0
 25
0.0
 16
0.0
 26
0.0
 36
1.0
 17
0.0
 27
0.0
 37
0.0
 40
403.2666066556
 41
1.9834619625
 42
50.0
 43
0.0
 44
0.0
 50
0.0
 51
0.0
 71
         0
 72
       100
 73
         1
 74
         1
 75
         0
 76
         0
 77
         0
 78
         0
  0
ENDTAB
  0
TABLE
  2
LTYPE
  5
4
100
AcDbSymbolTable
 70
         6
  0
LTYPE
  5
11
100
AcDbSymbolTableRecord
100
AcDbLinetypeTableRecord
  2
BYBLOCK
 70
        64
  3

 72
        65
 73
         0
 40
0.0
  0
LTYPE
  5
12
100
AcDbSymbolTableRecord
100
AcDbLinetypeTableRecord
  2
BYLAYER
 70
        64
  3

 72
        65
 73
         0
 40
0.0
  0
LTYPE
  5
13
100
AcDbSymbolTableRecord
100
AcDbLinetypeTableRecord
  2
CONTINUOUS
 70
        64
  3
Solid line
 72
        65
 73
         0
 40
0.0
  0
LTYPE
  5
1D
100
AcDbSymbolTableRecord
100
AcDbLinetypeTableRecord
  2
DASHED
 70
        64
  3
_ _ _ _ _ _ _ _ _ _ _ _ _ _ _ _
 72
        65
 73
         2
 40
0.2
 49
0.1
 74
         0
 49
-0.1
 74
         0
  0
LTYPE
  5
1E
100
AcDbSymbolTableRecord
100
AcDbLinetypeTableRecord
  2
CENTER
 70
        64
  3
___ _ ___ _ ___ _ ___ _ ___ _ ___ _ ___ _ ___ _
 72
        65
 73
         4
 40
0.95
 49
0.625
 74
         0
 49
-0.125
 74
         0
 49
0.075
 74
         0
 49
-0.125
 74
         0
  0
LTYPE
  5
1F
100
AcDbSymbolTableRecord
100
AcDbLinetypeTableRecord
  2
PHANTOM
 70
        64
  3
______  __  __  ______  __  __  ______  __  __  
 72
        65
 73
         6
 40
1.025
 49
0.625
 74
         0
 49
-0.125
 74
         0
 49
0.075
 74
         0
 49
-0.125
 74
         0
 49
0.075
 74
         0
 49
-0.125
 74
         0
  0
ENDTAB
  0
TABLE
  2
LAYER
  5
2
100
AcDbSymbolTable
 70
         5
  0
LAYER
  5
14
100
AcDbSymbolTableRecord
100
AcDbLayerTableRecord
  2
0
 70
         0
 62
         7
  6
CONTINUOUS
  0
LAYER
  5
21
100
AcDbSymbolTableRecord
100
AcDbLayerTableRecord
  2
_____U
 70
         1
 62
         7
  6
CONTINUOUS
  0
LAYER
  5
22
100
AcDbSymbolTableRecord
100
AcDbLayerTableRecord
  2
_Y__________
 70
         0
 62
         7
  6
CONTINUOUS
  0
LAYER
  5
23
100
AcDbSymbolTableRecord
100
AcDbLayerTableRecord
  2
L1_120
 70
         0
 62
         7
  6
CONTINUOUS
  0
LAYER
  5
1AA
100
AcDbSymbolTableRecord
100
AcDbLayerTableRecord
  2
DEFPOINTS
 70
         0
 62
        -7
  6
CONTINUOUS
  0
ENDTAB
  0
TABLE
  2
STYLE
  5
3
100
AcDbSymbolTable
 70
        62
  0
STYLE
  5
17
100
AcDbSymbolTableRecord
100
AcDbTextStyleTableRecord
  2
STANDARD
 70
         0
 40
0.0
 41
1.0
 50
0.0
 71
         0
 42
0.0
  3
txt
  4

  0
STYLE
  5
1B5
100
AcDbSymbolTableRecord
100
AcDbTextStyleTableRecord
  2
BOX
 70
         0
 40
1.0
 41
1.0
 50
0.0
 71
         0
 42
0.2
  3
txt.shx
  4

  0
STYLE
  5
1C4
100
AcDbSymbolTableRecord
100
AcDbTextStyleTableRecord
  2
BOX
 70
         0
 40
1.0
 41
1.0
 50
0.0
 71
         0
 42
0.2
  3
txt.shx
  4

  0
STYLE
  5
1D2
100
AcDbSymbolTableRecord
100
AcDbTextStyleTableRecord
  2
BOX
 70
         0
 40
1.0
 41
1.0
 50
0.0
 71
         0
 42
0.2
  3
txt.shx
  4

  0
STYLE
  5
1E0
100
AcDbSymbolTableRecord
100
AcDbTextStyleTableRecord
  2
BOX
 70
         0
 40
1.0
 41
1.0
 50
0.0
 71
         0
 42
0.2
  3
txt.shx
  4

  0
STYLE
  5
1EE
100
AcDbSymbolTableRecord
100
AcDbTextStyleTableRecord
  2
BOX
 70
         0
 40
1.0
 41
1.0
 50
0.0
 71
         0
 42
0.2
  3
txt.shx
  4

  0
STYLE
  5
21D
100
AcDbSymbolTableRecord
100
AcDbTextStyleTableRecord
  2
BOX
 70
         0
 40
1.0
 41
1.0
 50
0.0
 71
         0
 42
0.2
  3
txt.shx
  4

  0
STYLE
  5
22D
100
AcDbSymbolTableRecord
100
AcDbTextStyleTableRecord
  2
BOX
 70
         0
 40
1.0
 41
1.0
 50
0.0
 71
         0
 42
0.2
  3
txt.shx
  4

  0
STYLE
  5
23B
100
AcDbSymbolTableRecord
100
AcDbTextStyleTableRecord
  2
BOX
 70
         0
 40
1.0
 41
1.0
 50
0.0
 71
         0
 42
0.2
  3
txt.shx
  4

  0
STYLE
  5
249
100
AcDbSymbolTableRecord
100
AcDbTextStyleTableRecord
  2
BOX
 70
         0
 40
1.0
 41
1.0
 50
0.0
 71
         0
 42
0.2
  3
txt.shx
  4

  0
STYLE
  5
26D
100
AcDbSymbolTableRecord
100
AcDbTextStyleTableRecord
  2
BOX
 70
         0
 40
1.0
 41
1.0
 50
0.0
 71
         0
 42
0.2
  3
txt.shx
  4

  0
STYLE
  5
27B
100
AcDbSymbolTableRecord
100
AcDbTextStyleTableRecord
  2
BOX
 70
         0
 40
1.0
 41
1.0
 50
0.0
 71
         0
 42
0.2
  3
txt.shx
  4

  0
STYLE
  5
289
100
AcDbSymbolTableRecord
100
AcDbTextStyleTableRecord
  2
BOX
 70
         0
 40
1.0
 41
1.0
 50
0.0
 71
         0
 42
0.2
  3
txt.shx
  4

  0
STYLE
  5
297
100
AcDbSymbolTableRecord
100
AcDbTextStyleTableRecord
  2
BOX
 70
         0
 40
1.0
 41
1.0
 50
0.0
 71
         0
 42
0.2
  3
txt.shx
  4

  0
STYLE
  5
2A5
100
AcDbSymbolTableRecord
100
AcDbTextStyleTableRecord
  2
BOX
 70
         0
 40
1.0
 41
1.0
 50
0.0
 71
         0
 42
0.2
  3
txt.shx
  4

  0
STYLE
  5
3DA
100
AcDbSymbolTableRecord
100
AcDbTextStyleTableRecord
  2
BOX
 70
         0
 40
1.0
 41
1.0
 50
0.0
 71
         0
 42
0.2
  3
txt.shx
  4

  0
STYLE
  5
3E8
100
AcDbSymbolTableRecord
100
AcDbTextStyleTableRecord
  2
BOX
 70
         0
 40
1.0
 41
1.0
 50
0.0
 71
         0
 42
0.2
  3
txt.shx
  4

  0
STYLE
  5
404
100
AcDbSymbolTableRecord
100
AcDbTextStyleTableRecord
  2
BOX
 70
         0
 40
1.0
 41
1.0
 50
0.0
 71
         0
 42
0.2
  3
txt.shx
  4

  0
STYLE
  5
412
100
AcDbSymbolTableRecord
100
AcDbTextStyleTableRecord
  2
BOX
 70
         0
 40
1.0
 41
1.0
 50
0.0
 71
         0
 42
0.2
  3
txt.shx
  4

  0
STYLE
  5
420
100
AcDbSymbolTableRecord
100
AcDbTextStyleTableRecord
  2
BOX
 70
         0
 40
1.0
 41
1.0
 50
0.0
 71
         0
 42
0.2
  3
txt.shx
  4

  0
STYLE
  5
443
100
AcDbSymbolTableRecord
100
AcDbTextStyleTableRecord
  2
BOX
 70
         0
 40
1.0
 41
1.0
 50
0.0
 71
         0
 42
0.2
  3
txt.shx
  4

  0
STYLE
  5
453
100
AcDbSymbolTableRecord
100
AcDbTextStyleTableRecord
  2
BOX
 70
         0
 40
1.0
 41
1.0
 50
0.0
 71
         0
 42
0.2
  3
txt.shx
  4

  0
STYLE
  5
460
100
AcDbSymbolTableRecord
100
AcDbTextStyleTableRecord
  2
BOX
 70
         0
 40
1.0
 41
1.0
 50
0.0
 71
         0
 42
0.2
  3
txt.shx
  4

  0
STYLE
  5
470
100
AcDbSymbolTableRecord
100
AcDbTextStyleTableRecord
  2
BOX
 70
         0
 40
1.0
 41
1.0
 50
0.0
 71
         0
 42
0.2
  3
txt.shx
  4

  0
STYLE
  5
47D
100
AcDbSymbolTableRecord
100
AcDbTextStyleTableRecord
  2
BOX
 70
         0
 40
1.0
 41
1.0
 50
0.0
 71
         0
 42
0.2
  3
txt.shx
  4

  0
STYLE
  5
48A
100
AcDbSymbolTableRecord
100
AcDbTextStyleTableRecord
  2
BOX
 70
         0
 40
1.0
 41
1.0
 50
0.0
 71
         0
 42
0.2
  3
txt.shx
  4

  0
STYLE
  5
497
100
AcDbSymbolTableRecord
100
AcDbTextStyleTableRecord
  2
BOX
 70
         0
 40
1.0
 41
1.0
 50
0.0
 71
         0
 42
0.2
  3
txt.shx
  4

  0
STYLE
  5
4AA
100
AcDbSymbolTableRecord
100
AcDbTextStyleTableRecord
  2
BOX
 70
         0
 40
1.0
 41
1.0
 50
0.0
 71
         0
 42
0.2
  3
txt.shx
  4

  0
STYLE
  5
4BC
100
AcDbSymbolTableRecord
100
AcDbTextStyleTableRecord
  2
BOX
 70
         0
 40
1.0
 41
1.0
 50
0.0
 71
         0
 42
0.2
  3
txt.shx
  4

  0
STYLE
  5
4CA
100
AcDbSymbolTableRecord
100
AcDbTextStyleTableRecord
  2
BOX
 70
         0
 40
1.0
 41
1.0
 50
0.0
 71
         0
 42
0.2
  3
txt.shx
  4

  0
STYLE
  5
4D8
100
AcDbSymbolTableRecord
100
AcDbTextStyleTableRecord
  2
BOX
 70
         0
 40
1.0
 41
1.0
 50
0.0
 71
         0
 42
0.2
  3
txt.shx
  4

  0
STYLE
  5
4EC
100
AcDbSymbolTableRecord
100
AcDbTextStyleTableRecord
  2
BOX
 70
         0
 40
1.0
 41
1.0
 50
0.0
 71
         0
 42
0.2
  3
txt.shx
  4

  0
STYLE
  5
4FA
100
AcDbSymbolTableRecord
100
AcDbTextStyleTableRecord
  2
BOX
 70
         0
 40
1.0
 41
1.0
 50
0.0
 71
         0
 42
0.2
  3
txt.shx
  4

  0
STYLE
  5
508
100
AcDbSymbolTableRecord
100
AcDbTextStyleTableRecord
  2
BOX
 70
         0
 40
1.0
 41
1.0
 50
0.0
 71
         0
 42
0.2
  3
txt.shx
  4

  0
STYLE
  5
51A
100
AcDbSymbolTableRecord
100
AcDbTextStyleTableRecord
  2
BOX
 70
         0
 40
1.0
 41
1.0
 50
0.0
 71
         0
 42
0.2
  3
txt.shx
  4

  0
STYLE
  5
51D
100
AcDbSymbolTableRecord
100
AcDbTextStyleTableRecord
  2
BOX
 70
         0
 40
1.0
 41
1.0
 50
0.0
 71
         0
 42
0.2
  3
txt.shx
  4

  0
STYLE
  5
52A
100
AcDbSymbolTableRecord
100
AcDbTextStyleTableRecord
  2
BOX
 70
         0
 40
1.0
 41
1.0
 50
0.0
 71
         0
 42
0.2
  3
txt.shx
  4

  0
STYLE
  5
52D
100
AcDbSymbolTableRecord
100
AcDbTextStyleTableRecord
  2
BOX
 70
         0
 40
1.0
 41
1.0
 50
0.0
 71
         0
 42
0.2
  3
txt.shx
  4

  0
STYLE
  5
540
100
AcDbSymbolTableRecord
100
AcDbTextStyleTableRecord
  2
BOX
 70
         0
 40
1.0
 41
1.0
 50
0.0
 71
         0
 42
0.2
  3
txt.shx
  4

  0
STYLE
  5
54E
100
AcDbSymbolTableRecord
100
AcDbTextStyleTableRecord
  2
BOX
 70
         0
 40
1.0
 41
1.0
 50
0.0
 71
         0
 42
0.2
  3
txt.shx
  4

  0
STYLE
  5
5CF
100
AcDbSymbolTableRecord
100
AcDbTextStyleTableRecord
  2
BOX
 70
         0
 40
1.0
 41
1.0
 50
0.0
 71
         0
 42
0.2
  3
txt.shx
  4

  0
STYLE
  5
5DD
100
AcDbSymbolTableRecord
100
AcDbTextStyleTableRecord
  2
BOX
 70
         0
 40
1.0
 41
1.0
 50
0.0
 71
         0
 42
0.2
  3
txt.shx
  4

  0
STYLE
  5
5EB
100
AcDbSymbolTableRecord
100
AcDbTextStyleTableRecord
  2
BOX
 70
         0
 40
1.0
 41
1.0
 50
0.0
 71
         0
 42
0.2
  3
txt.shx
  4

  0
STYLE
  5
5F9
100
AcDbSymbolTableRecord
100
AcDbTextStyleTableRecord
  2
BOX
 70
         0
 40
1.0
 41
1.0
 50
0.0
 71
         0
 42
0.2
  3
txt.shx
  4

  0
STYLE
  5
607
100
AcDbSymbolTableRecord
100
AcDbTextStyleTableRecord
  2
BOX
 70
         0
 40
1.0
 41
1.0
 50
0.0
 71
         0
 42
0.2
  3
txt.shx
  4

  0
STYLE
  5
615
100
AcDbSymbolTableRecord
100
AcDbTextStyleTableRecord
  2
BOX
 70
         0
 40
1.0
 41
1.0
 50
0.0
 71
         0
 42
0.2
  3
txt.shx
  4

  0
STYLE
  5
623
100
AcDbSymbolTableRecord
100
AcDbTextStyleTableRecord
  2
BOX
 70
         0
 40
1.0
 41
1.0
 50
0.0
 71
         0
 42
0.2
  3
txt.shx
  4

  0
STYLE
  5
631
100
AcDbSymbolTableRecord
100
AcDbTextStyleTableRecord
  2
BOX
 70
         0
 40
1.0
 41
1.0
 50
0.0
 71
         0
 42
0.2
  3
txt.shx
  4

  0
STYLE
  5
63F
100
AcDbSymbolTableRecord
100
AcDbTextStyleTableRecord
  2
BOX
 70
         0
 40
1.0
 41
1.0
 50
0.0
 71
         0
 42
0.2
  3
txt.shx
  4

  0
STYLE
  5
64D
100
AcDbSymbolTableRecord
100
AcDbTextStyleTableRecord
  2
BOX
 70
         0
 40
1.0
 41
1.0
 50
0.0
 71
         0
 42
0.2
  3
txt.shx
  4

  0
STYLE
  5
65D
100
AcDbSymbolTableRecord
100
AcDbTextStyleTableRecord
  2
BOX
 70
         0
 40
1.0
 41
1.0
 50
0.0
 71
         0
 42
0.2
  3
txt.shx
  4

  0
STYLE
  5
66B
100
AcDbSymbolTableRecord
100
AcDbTextStyleTableRecord
  2
BOX
 70
         0
 40
1.0
 41
1.0
 50
0.0
 71
         0
 42
0.2
  3
txt.shx
  4

  0
STYLE
  5
679
100
AcDbSymbolTableRecord
100
AcDbTextStyleTableRecord
  2
BOX
 70
         0
 40
1.0
 41
1.0
 50
0.0
 71
         0
 42
0.2
  3
txt.shx
  4

  0
STYLE
  5
689
100
AcDbSymbolTableRecord
100
AcDbTextStyleTableRecord
  2
BOX
 70
         0
 40
1.0
 41
1.0
 50
0.0
 71
         0
 42
0.2
  3
txt.shx
  4

  0
STYLE
  5
697
100
AcDbSymbolTableRecord
100
AcDbTextStyleTableRecord
  2
BOX
 70
         0
 40
1.0
 41
1.0
 50
0.0
 71
         0
 42
0.2
  3
txt.shx
  4

  0
STYLE
  5
6A5
100
AcDbSymbolTableRecord
100
AcDbTextStyleTableRecord
  2
BOX
 70
         0
 40
1.0
 41
1.0
 50
0.0
 71
         0
 42
0.2
  3
txt.shx
  4

  0
STYLE
  5
6EE
100
AcDbSymbolTableRecord
100
AcDbTextStyleTableRecord
  2
BOX
 70
         0
 40
1.0
 41
1.0
 50
0.0
 71
         0
 42
0.2
  3
txt.shx
  4

  0
STYLE
  5
6FC
100
AcDbSymbolTableRecord
100
AcDbTextStyleTableRecord
  2
BOX
 70
         0
 40
1.0
 41
1.0
 50
0.0
 71
         0
 42
0.2
  3
txt.shx
  4

  0
STYLE
  5
70A
100
AcDbSymbolTableRecord
100
AcDbTextStyleTableRecord
  2
BOX
 70
         0
 40
1.0
 41
1.0
 50
0.0
 71
         0
 42
0.2
  3
txt.shx
  4

  0
STYLE
  5
718
100
AcDbSymbolTableRecord
100
AcDbTextStyleTableRecord
  2
BOX
 70
         0
 40
1.0
 41
1.0
 50
0.0
 71
         0
 42
0.2
  3
txt.shx
  4

  0
STYLE
  5
726
100
AcDbSymbolTableRecord
100
AcDbTextStyleTableRecord
  2
BOX
 70
         0
 40
1.0
 41
1.0
 50
0.0
 71
         0
 42
0.2
  3
txt.shx
  4

  0
STYLE
  5
729
100
AcDbSymbolTableRecord
100
AcDbTextStyleTableRecord
  2
BOX
 70
         0
 40
1.0
 41
1.0
 50
0.0
 71
         0
 42
0.2
  3
txt.shx
  4

  0
ENDTAB
  0
TABLE
  2
VIEW
  5
5
100
AcDbSymbolTable
 70
         0
  0
ENDTAB
  0
TABLE
  2
UCS
  5
6
100
AcDbSymbolTable
 70
         1
  0
UCS
  5
20
100
AcDbSymbolTableRecord
100
AcDbUCSTableRecord
  2
CK_VIEW_1
 70
         0
 10
0.0
 20
0.0
 30
1.0
 11
1.0
 21
0.0
 31
0.0
 12
0.0
 22
1.0
 32
0.0
  0
ENDTAB
  0
TABLE
  2
APPID
  5
8
100
AcDbSymbolTable
 70
         1
  0
APPID
  5
16
100
AcDbSymbolTableRecord
100
AcDbRegAppTableRecord
  2
ACAD
 70
         0
  0
ENDTAB
  0
TABLE
  2
DIMSTYLE
  5
9
100
AcDbSymbolTable
 70
         2
  0
DIMSTYLE
105
18
100
AcDbSymbolTableRecord
100
AcDbDimStyleTableRecord
  2
STANDARD
 70
         0
  3

  4

  5

  6

  7

 40
1.0
 41
0.18
 42
0.0625
 43
0.38
 44
0.18
 45
0.0
 46
0.0
 47
0.0
 48
0.0
 71
         0
 72
         0
 73
         1
 74
         1
 75
         0
 76
         0
 77
         0
 78
         0
140
0.18
141
0.09
142
0.0
143
25.4
144
1.0
145
0.0
146
1.0
147
0.09
170
         0
171
         2
172
         0
173
         0
174
         0
175
         0
176
         0
177
         0
178
         0
270
         2
271
         4
272
         4
273
         2
274
         2
275
         0
280
         0
281
         0
282
         0
283
         1
284
         0
285
         0
286
         0
287
         0
288
         0
340
17
  0
DIMSTYLE
105
1A6
100
AcDbSymbolTableRecord
100
AcDbDimStyleTableRecord
  2
DIMSTYLE1
 70
         0
  3

  4

  5

  6

  7

 40
1.0
 41
2.7
 42
0.0625
 43
0.38
 44
2.7
 45
0.0
 46
0.0
 47
0.0
 48
0.0
 71
         0
 72
         0
 73
         1
 74
         1
 75
         0
 76
         0
 77
         0
 78
         0
140
2.7
141
0.09
142
0.0
143
25.4
144
1.0
145
0.0
146
1.0
147
0.09
170
         0
171
         2
172
         0
173
         0
174
         0
175
         0
176
         0
177
         0
178
         0
270
         2
271
         4
272
         4
273
         2
274
         2
275
         0
280
         0
281
         0
282
         0
283
         1
284
         0
285
         0
286
         0
287
         0
288
         0
340
17
  0
ENDTAB
  0
TABLE
  2
BLOCK_RECORD
  5
1
100
AcDbSymbolTable
 70
        59
  0
BLOCK_RECORD
  5
A
100
AcDbSymbolTableRecord
100
AcDbBlockTableRecord
  2
*MODEL_SPACE
  0
BLOCK_RECORD
  5
B
100
AcDbSymbolTableRecord
100
AcDbBlockTableRecord
  2
*PAPER_SPACE
  0
BLOCK_RECORD
  5
1A7
100
AcDbSymbolTableRecord
100
AcDbBlockTableRecord
  2
*D0
  0
BLOCK_RECORD
  5
1B9
100
AcDbSymbolTableRecord
100
AcDbBlockTableRecord
  2
*D1
  0
BLOCK_RECORD
  5
1C7
100
AcDbSymbolTableRecord
100
AcDbBlockTableRecord
  2
*D2
  0
BLOCK_RECORD
  5
1D5
100
AcDbSymbolTableRecord
100
AcDbBlockTableRecord
  2
*D3
  0
BLOCK_RECORD
  5
1E3
100
AcDbSymbolTableRecord
100
AcDbBlockTableRecord
  2
*D4
  0
BLOCK_RECORD
  5
210
100
AcDbSymbolTableRecord
100
AcDbBlockTableRecord
  2
*D5
  0
BLOCK_RECORD
  5
220
100
AcDbSymbolTableRecord
100
AcDbBlockTableRecord
  2
*D6
  0
BLOCK_RECORD
  5
230
100
AcDbSymbolTableRecord
100
AcDbBlockTableRecord
  2
*D7
  0
BLOCK_RECORD
  5
23E
100
AcDbSymbolTableRecord
100
AcDbBlockTableRecord
  2
*D8
  0
BLOCK_RECORD
  5
262
100
AcDbSymbolTableRecord
100
AcDbBlockTableRecord
  2
*D9
  0
BLOCK_RECORD
  5
270
100
AcDbSymbolTableRecord
100
AcDbBlockTableRecord
  2
*D10
  0
BLOCK_RECORD
  5
27E
100
AcDbSymbolTableRecord
100
AcDbBlockTableRecord
  2
*D11
  0
BLOCK_RECORD
  5
28C
100
AcDbSymbolTableRecord
100
AcDbBlockTableRecord
  2
*D12
  0
BLOCK_RECORD
  5
29A
100
AcDbSymbolTableRecord
100
AcDbBlockTableRecord
  2
*D13
  0
BLOCK_RECORD
  5
3CF
100
AcDbSymbolTableRecord
100
AcDbBlockTableRecord
  2
*D14
  0
BLOCK_RECORD
  5
3DD
100
AcDbSymbolTableRecord
100
AcDbBlockTableRecord
  2
*D15
  0
BLOCK_RECORD
  5
3F9
100
AcDbSymbolTableRecord
100
AcDbBlockTableRecord
  2
*D16
  0
BLOCK_RECORD
  5
407
100
AcDbSymbolTableRecord
100
AcDbBlockTableRecord
  2
*D17
  0
BLOCK_RECORD
  5
415
100
AcDbSymbolTableRecord
100
AcDbBlockTableRecord
  2
*D18
  0
BLOCK_RECORD
  5
436
100
AcDbSymbolTableRecord
100
AcDbBlockTableRecord
  2
*D19
  0
BLOCK_RECORD
  5
446
100
AcDbSymbolTableRecord
100
AcDbBlockTableRecord
  2
*D20
  0
BLOCK_RECORD
  5
456
100
AcDbSymbolTableRecord
100
AcDbBlockTableRecord
  2
*D21
  0
BLOCK_RECORD
  5
463
100
AcDbSymbolTableRecord
100
AcDbBlockTableRecord
  2
*D22
  0
BLOCK_RECORD
  5
473
100
AcDbSymbolTableRecord
100
AcDbBlockTableRecord
  2
*D23
  0
BLOCK_RECORD
  5
480
100
AcDbSymbolTableRecord
100
AcDbBlockTableRecord
  2
*D24
  0
BLOCK_RECORD
  5
48D
100
AcDbSymbolTableRecord
100
AcDbBlockTableRecord
  2
*D25
  0
BLOCK_RECORD
  5
49F
100
AcDbSymbolTableRecord
100
AcDbBlockTableRecord
  2
*D26
  0
BLOCK_RECORD
  5
4B1
100
AcDbSymbolTableRecord
100
AcDbBlockTableRecord
  2
*D27
  0
BLOCK_RECORD
  5
4BF
100
AcDbSymbolTableRecord
100
AcDbBlockTableRecord
  2
*D28
  0
BLOCK_RECORD
  5
4CD
100
AcDbSymbolTableRecord
100
AcDbBlockTableRecord
  2
*D29
  0
BLOCK_RECORD
  5
4E1
100
AcDbSymbolTableRecord
100
AcDbBlockTableRecord
  2
*D30
  0
BLOCK_RECORD
  5
4EF
100
AcDbSymbolTableRecord
100
AcDbBlockTableRecord
  2
*D31
  0
BLOCK_RECORD
  5
4FE
100
AcDbSymbolTableRecord
100
AcDbBlockTableRecord
  2
*D32
  0
BLOCK_RECORD
  5
50F
100
AcDbSymbolTableRecord
100
AcDbBlockTableRecord
  2
*D33
  0
BLOCK_RECORD
  5
51F
100
AcDbSymbolTableRecord
100
AcDbBlockTableRecord
  2
*D34
  0
BLOCK_RECORD
  5
535
100
AcDbSymbolTableRecord
100
AcDbBlockTableRecord
  2
*D35
  0
BLOCK_RECORD
  5
543
100
AcDbSymbolTableRecord
100
AcDbBlockTableRecord
  2
*D36
  0
BLOCK_RECORD
  5
5C4
100
AcDbSymbolTableRecord
100
AcDbBlockTableRecord
  2
*D37
  0
BLOCK_RECORD
  5
5D2
100
AcDbSymbolTableRecord
100
AcDbBlockTableRecord
  2
*D38
  0
BLOCK_RECORD
  5
5E0
100
AcDbSymbolTableRecord
100
AcDbBlockTableRecord
  2
*D39
  0
BLOCK_RECORD
  5
5EE
100
AcDbSymbolTableRecord
100
AcDbBlockTableRecord
  2
*D40
  0
BLOCK_RECORD
  5
5FC
100
AcDbSymbolTableRecord
100
AcDbBlockTableRecord
  2
*D41
  0
BLOCK_RECORD
  5
60A
100
AcDbSymbolTableRecord
100
AcDbBlockTableRecord
  2
*D42
  0
BLOCK_RECORD
  5
618
100
AcDbSymbolTableRecord
100
AcDbBlockTableRecord
  2
*D43
  0
BLOCK_RECORD
  5
626
100
AcDbSymbolTableRecord
100
AcDbBlockTableRecord
  2
*D44
  0
BLOCK_RECORD
  5
634
100
AcDbSymbolTableRecord
100
AcDbBlockTableRecord
  2
*D45
  0
BLOCK_RECORD
  5
642
100
AcDbSymbolTableRecord
100
AcDbBlockTableRecord
  2
*D46
  0
BLOCK_RECORD
  5
650
100
AcDbSymbolTableRecord
100
AcDbBlockTableRecord
  2
*D47
  0
BLOCK_RECORD
  5
660
100
AcDbSymbolTableRecord
100
AcDbBlockTableRecord
  2
*D48
  0
BLOCK_RECORD
  5
66E
100
AcDbSymbolTableRecord
100
AcDbBlockTableRecord
  2
*D49
  0
BLOCK_RECORD
  5
67C
100
AcDbSymbolTableRecord
100
AcDbBlockTableRecord
  2
*D50
  0
BLOCK_RECORD
  5
68C
100
AcDbSymbolTableRecord
100
AcDbBlockTableRecord
  2
*D51
  0
BLOCK_RECORD
  5
69A
100
AcDbSymbolTableRecord
100
AcDbBlockTableRecord
  2
*D52
  0
BLOCK_RECORD
  5
6A8
100
AcDbSymbolTableRecord
100
AcDbBlockTableRecord
  2
*X53
  0
BLOCK_RECORD
  5
6E3
100
AcDbSymbolTableRecord
100
AcDbBlockTableRecord
  2
*D54
  0
BLOCK_RECORD
  5
6F1
100
AcDbSymbolTableRecord
100
AcDbBlockTableRecord
  2
*D55
  0
BLOCK_RECORD
  5
6FF
100
AcDbSymbolTableRecord
100
AcDbBlockTableRecord
  2
*D56
  0
BLOCK_RECORD
  5
70D
100
AcDbSymbolTableRecord
100
AcDbBlockTableRecord
  2
*D57
  0
BLOCK_RECORD
  5
71B
100
AcDbSymbolTableRecord
100
AcDbBlockTableRecord
  2
*D58
  0
ENDTAB
  0
ENDSEC
  0
SECTION
  2
BLOCKS
  0
BLOCK
  5
D
100
AcDbEntity
  8
0
100
AcDbBlockBegin
  2
*MODEL_SPACE
 70
         0
 10
0.0
 20
0.0
 30
0.0
  3
*MODEL_SPACE
  1

  0
ENDBLK
  5
E
100
AcDbEntity
  8
0
100
AcDbBlockEnd
  0
BLOCK
  5
F
100
AcDbEntity
 67
         1
  8
0
100
AcDbBlockBegin
  2
*PAPER_SPACE
 70
         0
 10
0.0
 20
0.0
 30
0.0
  3
*PAPER_SPACE
  1

  0
ENDBLK
  5
10
100
AcDbEntity
 67
         1
  8
0
100
AcDbBlockEnd
  0
BLOCK
  5
1A8
100
AcDbEntity
  8
0
100
AcDbBlockBegin
  2
*D0
 70
        65
 10
0.0
 20
0.0
 30
0.0
  3
*D0
  1

  0
POINT
  5
1AB
100
AcDbEntity
  8
DEFPOINTS
  6
CONTINUOUS
 62
         0
100
AcDbPoint
 10
1589.2241670941
 20
43.1301557934
 30
0.0
  0
POINT
  5
1AC
100
AcDbEntity
  8
DEFPOINTS
  6
CONTINUOUS
 62
         0
100
AcDbPoint
 10
1589.2241670941
 20
48.8853970076
 30
0.0
  0
POINT
  5
1AD
100
AcDbEntity
  8
DEFPOINTS
  6
CONTINUOUS
 62
         0
100
AcDbPoint
 10
1594.2241670941
 20
49.2853970076
 30
0.0
  0
LINE
  5
1AE
100
AcDbEntity
  8
L1_120
  6
CONTINUOUS
 62
         4
100
AcDbLine
 10
1589.2241670941
 20
47.5353970076
 30
0.0
 11
1589.2241670941
 21
42.4551557934
 31
0.0
  0
LINE
  5
1AF
100
AcDbEntity
  8
L1_120
  6
CONTINUOUS
 62
         4
100
AcDbLine
 10
1594.2241670941
 20
47.9353970076
 30
0.0
 11
1594.2241670941
 21
42.4551557934
 31
0.0
  0
LINE
  5
1B0
100
AcDbEntity
  8
L1_120
  6
CONTINUOUS
 62
         4
100
AcDbLine
 10
1589.2241670941
 20
43.1301557934
 30
0.0
 11
1583.8241670941
 21
43.1301557934
 31
0.0
  0
SOLID
  5
1B1
100
AcDbEntity
  8
L1_120
  6
CONTINUOUS
 62
         4
100
AcDbTrace
 10
1589.2241670941
 20
43.1301557934
 30
0.0
 11
1586.5241670941
 21
42.7251557934
 31
0.0
 12
1586.5241670941
 22
43.5351557934
 32
0.0
 13
1589.2241670941
 23
43.1301557934
 33
0.0
  0
LINE
  5
1B2
100
AcDbEntity
  8
L1_120
  6
CONTINUOUS
 62
         4
100
AcDbLine
 10
1594.2241670941
 20
43.1301557934
 30
0.0
 11
1599.6241670941
 21
43.1301557934
 31
0.0
  0
SOLID
  5
1B3
100
AcDbEntity
  8
L1_120
  6
CONTINUOUS
 62
         4
100
AcDbTrace
 10
1594.2241670941
 20
43.1301557934
 30
0.0
 11
1596.9241670941
 21
43.5351557934
 31
0.0
 12
1596.9241670941
 22
42.7251557934
 32
0.0
 13
1594.2241670941
 23
43.1301557934
 33
0.0
  0
LINE
  5
1B4
100
AcDbEntity
  8
L1_120
  6
CONTINUOUS
 62
         4
100
AcDbLine
 10
1589.2241670941
 20
43.1301557934
 30
0.0
 11
1594.2241670941
 21
43.1301557934
 31
0.0
  0
TEXT
  5
1B6
100
AcDbEntity
  8
L1_120
  6
CONTINUOUS
 62
         4
100
AcDbText
 10
1590.4703081415
 20
45.1551557934
 30
0.0
 40
2.7
  1
5
  7
BOX
100
AcDbText
  0
ENDBLK
  5
1B7
100
AcDbEntity
  8
0
  6
CONTINUOUS
100
AcDbBlockEnd
  0
BLOCK
  5
1BA
100
AcDbEntity
  8
0
100
AcDbBlockBegin
  2
*D1
 70
        65
 10
0.0
 20
0.0
 30
0.0
  3
*D1
  1

  0
POINT
  5
1BC
100
AcDbEntity
  8
DEFPOINTS
  6
CONTINUOUS
 62
         0
100
AcDbPoint
 10
1790.7241670941
 20
87.6467088674
 30
0.0
  0
POINT
  5
1BD
100
AcDbEntity
  8
DEFPOINTS
  6
CONTINUOUS
 62
         0
100
AcDbPoint
 10
1790.7241670941
 20
77.1853970076
 30
0.0
  0
POINT
  5
1BE
100
AcDbEntity
  8
DEFPOINTS
  6
CONTINUOUS
 62
         0
100
AcDbPoint
 10
1759.2241670941
 20
74.9853970076
 30
0.0
  0
LINE
  5
1BF
100
AcDbEntity
  8
L1_120
  6
CONTINUOUS
 62
         4
100
AcDbLine
 10
1790.7241670941
 20
78.5353970076
 30
0.0
 11
1790.7241670941
 21
88.3217088674
 31
0.0
  0
LINE
  5
1C0
100
AcDbEntity
  8
L1_120
  6
CONTINUOUS
 62
         4
100
AcDbLine
 10
1759.2241670941
 20
76.3353970076
 30
0.0
 11
1759.2241670941
 21
88.3217088674
 31
0.0
  0
LINE
  5
1C1
100
AcDbEntity
  8
L1_120
  6
CONTINUOUS
 62
         4
100
AcDbLine
 10
1790.7241670941
 20
87.6467088674
 30
0.0
 11
1759.2241670941
 21
87.6467088674
 31
0.0
  0
SOLID
  5
1C2
100
AcDbEntity
  8
L1_120
  6
CONTINUOUS
 62
         4
100
AcDbTrace
 10
1790.7241670941
 20
87.6467088674
 30
0.0
 11
1788.0241670941
 21
87.2417088674
 31
0.0
 12
1788.0241670941
 22
88.0517088674
 32
0.0
 13
1790.7241670941
 23
87.6467088674
 33
0.0
  0
SOLID
  5
1C3
100
AcDbEntity
  8
L1_120
  6
CONTINUOUS
 62
         4
100
AcDbTrace
 10
1759.2241670941
 20
87.6467088674
 30
0.0
 11
1761.9241670941
 21
88.0517088674
 31
0.0
 12
1761.9241670941
 22
87.2417088674
 32
0.0
 13
1759.2241670941
 23
87.6467088674
 33
0.0
  0
TEXT
  5
1C5
100
AcDbEntity
  8
L1_120
  6
CONTINUOUS
 62
         4
100
AcDbText
 10
1768.4990979564
 20
89.6717088674
 30
0.0
 40
2.7
  1
31.5
  7
BOX
100
AcDbText
  0
ENDBLK
  5
1C6
100
AcDbEntity
  8
0
  6
CONTINUOUS
100
AcDbBlockEnd
  0
BLOCK
  5
1C8
100
AcDbEntity
  8
0
100
AcDbBlockBegin
  2
*D2
 70
        65
 10
0.0
 20
0.0
 30
0.0
  3
*D2
  1

  0
POINT
  5
1CA
100
AcDbEntity
  8
DEFPOINTS
  6
CONTINUOUS
 62
         0
100
AcDbPoint
 10
1790.7241670941
 20
80.936463059
 30
0.0
  0
POINT
  5
1CB
100
AcDbEntity
  8
DEFPOINTS
  6
CONTINUOUS
 62
         0
100
AcDbPoint
 10
1790.7241670941
 20
77.1853970076
 30
0.0
  0
POINT
  5
1CC
100
AcDbEntity
  8
DEFPOINTS
  6
CONTINUOUS
 62
         0
100
AcDbPoint
 10
1783.7241670941
 20
77.1853970076
 30
0.0
  0
LINE
  5
1CD
100
AcDbEntity
  8
L1_120
  6
CONTINUOUS
 62
         4
100
AcDbLine
 10
1790.7241670941
 20
78.5353970076
 30
0.0
 11
1790.7241670941
 21
81.611463059
 31
0.0
  0
LINE
  5
1CE
100
AcDbEntity
  8
L1_120
  6
CONTINUOUS
 62
         4
100
AcDbLine
 10
1783.7241670941
 20
78.5353970076
 30
0.0
 11
1783.7241670941
 21
81.611463059
 31
0.0
  0
LINE
  5
1CF
100
AcDbEntity
  8
L1_120
  6
CONTINUOUS
 62
         4
100
AcDbLine
 10
1790.7241670941
 20
80.936463059
 30
0.0
 11
1783.7241670941
 21
80.936463059
 31
0.0
  0
SOLID
  5
1D0
100
AcDbEntity
  8
L1_120
  6
CONTINUOUS
 62
         4
100
AcDbTrace
 10
1790.7241670941
 20
80.936463059
 30
0.0
 11
1788.0241670941
 21
80.531463059
 31
0.0
 12
1788.0241670941
 22
81.341463059
 32
0.0
 13
1790.7241670941
 23
80.936463059
 33
0.0
  0
SOLID
  5
1D1
100
AcDbEntity
  8
L1_120
  6
CONTINUOUS
 62
         4
100
AcDbTrace
 10
1783.7241670941
 20
80.936463059
 30
0.0
 11
1786.4241670941
 21
81.341463059
 31
0.0
 12
1786.4241670941
 22
80.531463059
 32
0.0
 13
1783.7241670941
 23
80.936463059
 33
0.0
  0
TEXT
  5
1D3
100
AcDbEntity
  8
L1_120
  6
CONTINUOUS
 62
         4
100
AcDbText
 10
1785.9189462087
 20
82.961463059
 30
0.0
 40
2.7
  1
7
  7
BOX
100
AcDbText
  0
ENDBLK
  5
1D4
100
AcDbEntity
  8
0
  6
CONTINUOUS
100
AcDbBlockEnd
  0
BLOCK
  5
1D6
100
AcDbEntity
  8
0
100
AcDbBlockBegin
  2
*D3
 70
        65
 10
0.0
 20
0.0
 30
0.0
  3
*D3
  1

  0
POINT
  5
1D8
100
AcDbEntity
  8
DEFPOINTS
  6
CONTINUOUS
 62
         0
100
AcDbPoint
 10
1797.6664927655
 20
77.6853970076
 30
0.0
  0
POINT
  5
1D9
100
AcDbEntity
  8
DEFPOINTS
  6
CONTINUOUS
 62
         0
100
AcDbPoint
 10
1790.2241670941
 20
77.6853970076
 30
0.0
  0
POINT
  5
1DA
100
AcDbEntity
  8
DEFPOINTS
  6
CONTINUOUS
 62
         0
100
AcDbPoint
 10
1790.2241670941
 20
38.6853970076
 30
0.0
  0
LINE
  5
1DB
100
AcDbEntity
  8
L1_120
  6
CONTINUOUS
 62
         4
100
AcDbLine
 10
1791.5741670941
 20
77.6853970076
 30
0.0
 11
1798.3414927655
 21
77.6853970076
 31
0.0
  0
LINE
  5
1DC
100
AcDbEntity
  8
L1_120
  6
CONTINUOUS
 62
         4
100
AcDbLine
 10
1791.5741670941
 20
38.6853970076
 30
0.0
 11
1798.3414927655
 21
38.6853970076
 31
0.0
  0
LINE
  5
1DD
100
AcDbEntity
  8
L1_120
  6
CONTINUOUS
 62
         4
100
AcDbLine
 10
1797.6664927655
 20
77.6853970076
 30
0.0
 11
1797.6664927655
 21
38.6853970076
 31
0.0
  0
SOLID
  5
1DE
100
AcDbEntity
  8
L1_120
  6
CONTINUOUS
 62
         4
100
AcDbTrace
 10
1797.6664927655
 20
77.6853970076
 30
0.0
 11
1798.0714927655
 21
74.9853970076
 31
0.0
 12
1797.2614927655
 22
74.9853970076
 32
0.0
 13
1797.6664927655
 23
77.6853970076
 33
0.0
  0
SOLID
  5
1DF
100
AcDbEntity
  8
L1_120
  6
CONTINUOUS
 62
         4
100
AcDbTrace
 10
1797.6664927655
 20
38.6853970076
 30
0.0
 11
1797.2614927655
 21
41.3853970076
 31
0.0
 12
1798.0714927655
 22
41.3853970076
 32
0.0
 13
1797.6664927655
 23
38.6853970076
 33
0.0
  0
TEXT
  5
1E1
100
AcDbEntity
  8
L1_120
  6
CONTINUOUS
 62
         4
100
AcDbText
 10
1795.6414927655
 20
53.7163891744
 30
0.0
 40
2.7
  1
崷39
 50
90.0
  7
BOX
100
AcDbText
  0
ENDBLK
  5
1E2
100
AcDbEntity
  8
0
  6
CONTINUOUS
100
AcDbBlockEnd
  0
BLOCK
  5
1E4
100
AcDbEntity
  8
0
100
AcDbBlockBegin
  2
*D4
 70
        65
 10
0.0
 20
0.0
 30
0.0
  3
*D4
  1

  0
POINT
  5
1E6
100
AcDbEntity
  8
DEFPOINTS
  6
CONTINUOUS
 62
         0
100
AcDbPoint
 10
1756.4765562305
 20
75.1853970076
 30
0.0
  0
POINT
  5
1E7
100
AcDbEntity
  8
DEFPOINTS
  6
CONTINUOUS
 62
         0
100
AcDbPoint
 10
1759.4241670941
 20
75.1853970076
 30
0.0
  0
POINT
  5
1E8
100
AcDbEntity
  8
DEFPOINTS
  6
CONTINUOUS
 62
         0
100
AcDbPoint
 10
1759.4241670941
 20
41.1853970076
 30
0.0
  0
LINE
  5
1E9
100
AcDbEntity
  8
L1_120
  6
CONTINUOUS
 62
         4
100
AcDbLine
 10
1758.0741670941
 20
75.1853970076
 30
0.0
 11
1755.8015562305
 21
75.1853970076
 31
0.0
  0
LINE
  5
1EA
100
AcDbEntity
  8
L1_120
  6
CONTINUOUS
 62
         4
100
AcDbLine
 10
1758.0741670941
 20
41.1853970076
 30
0.0
 11
1755.8015562305
 21
41.1853970076
 31
0.0
  0
LINE
  5
1EB
100
AcDbEntity
  8
L1_120
  6
CONTINUOUS
 62
         4
100
AcDbLine
 10
1756.4765562305
 20
75.1853970076
 30
0.0
 11
1756.4765562305
 21
41.1853970076
 31
0.0
  0
SOLID
  5
1EC
100
AcDbEntity
  8
L1_120
  6
CONTINUOUS
 62
         4
100
AcDbTrace
 10
1756.4765562305
 20
75.1853970076
 30
0.0
 11
1756.8815562305
 21
72.4853970076
 31
0.0
 12
1756.0715562305
 22
72.4853970076
 32
0.0
 13
1756.4765562305
 23
75.1853970076
 33
0.0
  0
SOLID
  5
1ED
100
AcDbEntity
  8
L1_120
  6
CONTINUOUS
 62
         4
100
AcDbTrace
 10
1756.4765562305
 20
41.1853970076
 30
0.0
 11
1756.0715562305
 21
43.8853970076
 31
0.0
 12
1756.8815562305
 22
43.8853970076
 32
0.0
 13
1756.4765562305
 23
41.1853970076
 33
0.0
  0
TEXT
  5
1EF
100
AcDbEntity
  8
L1_120
  6
CONTINUOUS
 62
         4
100
AcDbText
 10
1754.4515562305
 20
47.0076125333
 30
0.0
 40
2.7
  1
崷33.99
 50
90.0
  7
BOX
100
AcDbText
  0
ENDBLK
  5
1F0
100
AcDbEntity
  8
0
  6
CONTINUOUS
100
AcDbBlockEnd
  0
BLOCK
  5
211
100
AcDbEntity
  8
0
100
AcDbBlockBegin
  2
*D5
 70
        65
 10
0.0
 20
0.0
 30
0.0
  3
*D5
  1

  0
POINT
  5
213
100
AcDbEntity
  8
DEFPOINTS
  6
CONTINUOUS
 62
         0
100
AcDbPoint
 10
1737.8341670941
 20
72.7007271077
 30
0.0
  0
POINT
  5
214
100
AcDbEntity
  8
DEFPOINTS
  6
CONTINUOUS
 62
         0
100
AcDbPoint
 10
1737.8341670941
 20
67.5853970076
 30
0.0
  0
POINT
  5
215
100
AcDbEntity
  8
DEFPOINTS
  6
CONTINUOUS
 62
         0
100
AcDbPoint
 10
1739.3341670941
 20
67.5853970076
 30
0.0
  0
LINE
  5
216
100
AcDbEntity
  8
L1_120
  6
CONTINUOUS
 62
         4
100
AcDbLine
 10
1737.8341670941
 20
68.9353970076
 30
0.0
 11
1737.8341670941
 21
73.3757271077
 31
0.0
  0
LINE
  5
217
100
AcDbEntity
  8
L1_120
  6
CONTINUOUS
 62
         4
100
AcDbLine
 10
1739.3341670941
 20
68.9353970076
 30
0.0
 11
1739.3341670941
 21
73.3757271077
 31
0.0
  0
LINE
  5
218
100
AcDbEntity
  8
L1_120
  6
CONTINUOUS
 62
         4
100
AcDbLine
 10
1737.8341670941
 20
72.7007271077
 30
0.0
 11
1732.4341670941
 21
72.7007271077
 31
0.0
  0
SOLID
  5
219
100
AcDbEntity
  8
L1_120
  6
CONTINUOUS
 62
         4
100
AcDbTrace
 10
1737.8341670941
 20
72.7007271077
 30
0.0
 11
1735.1341670941
 21
72.2957271077
 31
0.0
 12
1735.1341670941
 22
73.1057271077
 32
0.0
 13
1737.8341670941
 23
72.7007271077
 33
0.0
  0
LINE
  5
21A
100
AcDbEntity
  8
L1_120
  6
CONTINUOUS
 62
         4
100
AcDbLine
 10
1739.3341670941
 20
72.7007271077
 30
0.0
 11
1750.2065394465
 21
72.7007271077
 31
0.0
  0
SOLID
  5
21B
100
AcDbEntity
  8
L1_120
  6
CONTINUOUS
 62
         4
100
AcDbTrace
 10
1739.3341670941
 20
72.7007271077
 30
0.0
 11
1742.0341670941
 21
73.1057271077
 31
0.0
 12
1742.0341670941
 22
72.2957271077
 32
0.0
 13
1739.3341670941
 23
72.7007271077
 33
0.0
  0
LINE
  5
21C
100
AcDbEntity
  8
L1_120
  6
CONTINUOUS
 62
         4
100
AcDbLine
 10
1737.8341670941
 20
72.7007271077
 30
0.0
 11
1739.3341670941
 21
72.7007271077
 31
0.0
  0
TEXT
  5
21E
100
AcDbEntity
  8
L1_120
  6
CONTINUOUS
 62
         4
100
AcDbText
 10
1740.7565394465
 20
74.7257271077
 30
0.0
 40
2.7
  1
1.5
  7
BOX
100
AcDbText
  0
ENDBLK
  5
21F
100
AcDbEntity
  8
0
  6
CONTINUOUS
100
AcDbBlockEnd
  0
BLOCK
  5
221
100
AcDbEntity
  8
0
100
AcDbBlockBegin
  2
*D6
 70
        65
 10
0.0
 20
0.0
 30
0.0
  3
*D6
  1

  0
POINT
  5
223
100
AcDbEntity
  8
DEFPOINTS
  6
CONTINUOUS
 62
         0
100
AcDbPoint
 10
1727.1841670941
 20
70.6368091636
 30
0.0
  0
POINT
  5
224
100
AcDbEntity
  8
DEFPOINTS
  6
CONTINUOUS
 62
         0
100
AcDbPoint
 10
1727.1841670941
 20
67.3853970076
 30
0.0
  0
POINT
  5
225
100
AcDbEntity
  8
DEFPOINTS
  6
CONTINUOUS
 62
         0
100
AcDbPoint
 10
1731.6841670941
 20
67.3853970076
 30
0.0
  0
LINE
  5
226
100
AcDbEntity
  8
L1_120
  6
CONTINUOUS
 62
         4
100
AcDbLine
 10
1727.1841670941
 20
68.7353970076
 30
0.0
 11
1727.1841670941
 21
71.3118091636
 31
0.0
  0
LINE
  5
227
100
AcDbEntity
  8
L1_120
  6
CONTINUOUS
 62
         4
100
AcDbLine
 10
1731.6841670941
 20
68.7353970076
 30
0.0
 11
1731.6841670941
 21
71.3118091636
 31
0.0
  0
LINE
  5
228
100
AcDbEntity
  8
L1_120
  6
CONTINUOUS
 62
         4
100
AcDbLine
 10
1727.1841670941
 20
70.6368091636
 30
0.0
 11
1716.4479093638
 21
70.6368091636
 31
0.0
  0
SOLID
  5
229
100
AcDbEntity
  8
L1_120
  6
CONTINUOUS
 62
         4
100
AcDbTrace
 10
1727.1841670941
 20
70.6368091636
 30
0.0
 11
1724.4841670941
 21
70.2318091636
 31
0.0
 12
1724.4841670941
 22
71.0418091636
 32
0.0
 13
1727.1841670941
 23
70.6368091636
 33
0.0
  0
LINE
  5
22A
100
AcDbEntity
  8
L1_120
  6
CONTINUOUS
 62
         4
100
AcDbLine
 10
1731.6841670941
 20
70.6368091636
 30
0.0
 11
1737.0841670941
 21
70.6368091636
 31
0.0
  0
SOLID
  5
22B
100
AcDbEntity
  8
L1_120
  6
CONTINUOUS
 62
         4
100
AcDbTrace
 10
1731.6841670941
 20
70.6368091636
 30
0.0
 11
1734.3841670941
 21
71.0418091636
 31
0.0
 12
1734.3841670941
 22
70.2318091636
 32
0.0
 13
1731.6841670941
 23
70.6368091636
 33
0.0
  0
LINE
  5
22C
100
AcDbEntity
  8
L1_120
  6
CONTINUOUS
 62
         4
100
AcDbLine
 10
1727.1841670941
 20
70.6368091636
 30
0.0
 11
1731.6841670941
 21
70.6368091636
 31
0.0
  0
TEXT
  5
22E
100
AcDbEntity
  8
L1_120
  6
CONTINUOUS
 62
         4
100
AcDbText
 10
1717.7979093638
 20
72.6618091636
 30
0.0
 40
2.7
  1
4.5
  7
BOX
100
AcDbText
  0
ENDBLK
  5
22F
100
AcDbEntity
  8
0
  6
CONTINUOUS
100
AcDbBlockEnd
  0
BLOCK
  5
231
100
AcDbEntity
  8
0
100
AcDbBlockBegin
  2
*D7
 70
        65
 10
0.0
 20
0.0
 30
0.0
  3
*D7
  1

  0
POINT
  5
233
100
AcDbEntity
  8
DEFPOINTS
  6
CONTINUOUS
 62
         0
100
AcDbPoint
 10
1727.1841670941
 20
76.2388721547
 30
0.0
  0
POINT
  5
234
100
AcDbEntity
  8
DEFPOINTS
  6
CONTINUOUS
 62
         0
100
AcDbPoint
 10
1727.1841670941
 20
67.1853970076
 30
0.0
  0
POINT
  5
235
100
AcDbEntity
  8
DEFPOINTS
  6
CONTINUOUS
 62
         0
100
AcDbPoint
 10
1739.3341670941
 20
67.5853970076
 30
0.0
  0
LINE
  5
236
100
AcDbEntity
  8
L1_120
  6
CONTINUOUS
 62
         4
100
AcDbLine
 10
1727.1841670941
 20
68.5353970076
 30
0.0
 11
1727.1841670941
 21
76.9138721547
 31
0.0
  0
LINE
  5
237
100
AcDbEntity
  8
L1_120
  6
CONTINUOUS
 62
         4
100
AcDbLine
 10
1739.3341670941
 20
68.9353970076
 30
0.0
 11
1739.3341670941
 21
76.9138721547
 31
0.0
  0
LINE
  5
238
100
AcDbEntity
  8
L1_120
  6
CONTINUOUS
 62
         4
100
AcDbLine
 10
1727.1841670941
 20
76.2388721547
 30
0.0
 11
1739.3341670941
 21
76.2388721547
 31
0.0
  0
SOLID
  5
239
100
AcDbEntity
  8
L1_120
  6
CONTINUOUS
 62
         4
100
AcDbTrace
 10
1727.1841670941
 20
76.2388721547
 30
0.0
 11
1729.8841670941
 21
76.6438721547
 31
0.0
 12
1729.8841670941
 22
75.8338721547
 32
0.0
 13
1727.1841670941
 23
76.2388721547
 33
0.0
  0
SOLID
  5
23A
100
AcDbEntity
  8
L1_120
  6
CONTINUOUS
 62
         4
100
AcDbTrace
 10
1739.3341670941
 20
76.2388721547
 30
0.0
 11
1736.6341670941
 21
75.8338721547
 31
0.0
 12
1736.6341670941
 22
76.6438721547
 32
0.0
 13
1739.3341670941
 23
76.2388721547
 33
0.0
  0
TEXT
  5
23C
100
AcDbEntity
  8
L1_120
  6
CONTINUOUS
 62
         4
100
AcDbText
 10
1726.7344752961
 20
78.2638721547
 30
0.0
 40
2.7
  1
12.15
  7
BOX
100
AcDbText
  0
ENDBLK
  5
23D
100
AcDbEntity
  8
0
  6
CONTINUOUS
100
AcDbBlockEnd
  0
BLOCK
  5
23F
100
AcDbEntity
  8
0
100
AcDbBlockBegin
  2
*D8
 70
        65
 10
0.0
 20
0.0
 30
0.0
  3
*D8
  1

  0
POINT
  5
241
100
AcDbEntity
  8
DEFPOINTS
  6
CONTINUOUS
 62
         0
100
AcDbPoint
 10
1723.8600683087
 20
67.6853970076
 30
0.0
  0
POINT
  5
242
100
AcDbEntity
  8
DEFPOINTS
  6
CONTINUOUS
 62
         0
100
AcDbPoint
 10
1727.6841670941
 20
67.6853970076
 30
0.0
  0
POINT
  5
243
100
AcDbEntity
  8
DEFPOINTS
  6
CONTINUOUS
 62
         0
100
AcDbPoint
 10
1727.6841670941
 20
48.6853970076
 30
0.0
  0
LINE
  5
244
100
AcDbEntity
  8
L1_120
  6
CONTINUOUS
 62
         4
100
AcDbLine
 10
1726.3341670941
 20
67.6853970076
 30
0.0
 11
1723.1850683087
 21
67.6853970076
 31
0.0
  0
LINE
  5
245
100
AcDbEntity
  8
L1_120
  6
CONTINUOUS
 62
         4
100
AcDbLine
 10
1726.3341670941
 20
48.6853970076
 30
0.0
 11
1723.1850683087
 21
48.6853970076
 31
0.0
  0
LINE
  5
246
100
AcDbEntity
  8
L1_120
  6
CONTINUOUS
 62
         4
100
AcDbLine
 10
1723.8600683087
 20
67.6853970076
 30
0.0
 11
1723.8600683087
 21
48.6853970076
 31
0.0
  0
SOLID
  5
247
100
AcDbEntity
  8
L1_120
  6
CONTINUOUS
 62
         4
100
AcDbTrace
 10
1723.8600683087
 20
67.6853970076
 30
0.0
 11
1724.2650683087
 21
64.9853970076
 31
0.0
 12
1723.4550683087
 22
64.9853970076
 32
0.0
 13
1723.8600683087
 23
67.6853970076
 33
0.0
  0
SOLID
  5
248
100
AcDbEntity
  8
L1_120
  6
CONTINUOUS
 62
         4
100
AcDbTrace
 10
1723.8600683087
 20
48.6853970076
 30
0.0
 11
1723.4550683087
 21
51.3853970076
 31
0.0
 12
1724.2650683087
 22
51.3853970076
 32
0.0
 13
1723.8600683087
 23
48.6853970076
 33
0.0
  0
TEXT
  5
24A
100
AcDbEntity
  8
L1_120
  6
CONTINUOUS
 62
         4
100
AcDbText
 10
1721.8350683087
 20
52.9850018728
 30
0.0
 40
2.7
  1
崷19
 50
90.0
  7
BOX
100
AcDbText
  0
ENDBLK
  5
24B
100
AcDbEntity
  8
0
  6
CONTINUOUS
100
AcDbBlockEnd
  0
BLOCK
  5
263
100
AcDbEntity
  8
0
100
AcDbBlockBegin
  2
*D9
 70
        65
 10
0.0
 20
0.0
 30
0.0
  3
*D9
  1

  0
POINT
  5
265
100
AcDbEntity
  8
DEFPOINTS
  6
CONTINUOUS
 62
         0
100
AcDbPoint
 10
1709.9616503749
 20
70.8853970076
 30
0.0
  0
POINT
  5
266
100
AcDbEntity
  8
DEFPOINTS
  6
CONTINUOUS
 62
         0
100
AcDbPoint
 10
1695.2241670941
 20
70.8853970076
 30
0.0
  0
POINT
  5
267
100
AcDbEntity
  8
DEFPOINTS
  6
CONTINUOUS
 62
         0
100
AcDbPoint
 10
1695.2241670941
 20
45.4853970076
 30
0.0
  0
LINE
  5
268
100
AcDbEntity
  8
L1_120
  6
CONTINUOUS
 62
         4
100
AcDbLine
 10
1696.5741670941
 20
70.8853970076
 30
0.0
 11
1710.6366503749
 21
70.8853970076
 31
0.0
  0
LINE
  5
269
100
AcDbEntity
  8
L1_120
  6
CONTINUOUS
 62
         4
100
AcDbLine
 10
1696.5741670941
 20
45.4853970076
 30
0.0
 11
1710.6366503749
 21
45.4853970076
 31
0.0
  0
LINE
  5
26A
100
AcDbEntity
  8
L1_120
  6
CONTINUOUS
 62
         4
100
AcDbLine
 10
1709.9616503749
 20
70.8853970076
 30
0.0
 11
1709.9616503749
 21
45.4853970076
 31
0.0
  0
SOLID
  5
26B
100
AcDbEntity
  8
L1_120
  6
CONTINUOUS
 62
         4
100
AcDbTrace
 10
1709.9616503749
 20
70.8853970076
 30
0.0
 11
1710.3666503749
 21
68.1853970076
 31
0.0
 12
1709.5566503749
 22
68.1853970076
 32
0.0
 13
1709.9616503749
 23
70.8853970076
 33
0.0
  0
SOLID
  5
26C
100
AcDbEntity
  8
L1_120
  6
CONTINUOUS
 62
         4
100
AcDbTrace
 10
1709.9616503749
 20
45.4853970076
 30
0.0
 11
1709.5566503749
 21
48.1853970076
 31
0.0
 12
1710.3666503749
 22
48.1853970076
 32
0.0
 13
1709.9616503749
 23
45.4853970076
 33
0.0
  0
TEXT
  5
26E
100
AcDbEntity
  8
L1_120
  6
CONTINUOUS
 62
         4
100
AcDbText
 10
1707.9366503749
 20
46.6977729588
 30
0.0
 40
2.7
  1
崷25.4g6
 50
90.0
  7
BOX
100
AcDbText
  0
ENDBLK
  5
26F
100
AcDbEntity
  8
0
  6
CONTINUOUS
100
AcDbBlockEnd
  0
BLOCK
  5
271
100
AcDbEntity
  8
0
100
AcDbBlockBegin
  2
*D10
 70
        65
 10
0.0
 20
0.0
 30
0.0
  3
*D10
  1

  0
POINT
  5
273
100
AcDbEntity
  8
DEFPOINTS
  6
CONTINUOUS
 62
         0
100
AcDbPoint
 10
1703.240790377
 20
63.4353970076
 30
0.0
  0
POINT
  5
274
100
AcDbEntity
  8
DEFPOINTS
  6
CONTINUOUS
 62
         0
100
AcDbPoint
 10
1695.9241670941
 20
63.4353970076
 30
0.0
  0
POINT
  5
275
100
AcDbEntity
  8
DEFPOINTS
  6
CONTINUOUS
 62
         0
100
AcDbPoint
 10
1695.9241670941
 20
52.9353970076
 30
0.0
  0
LINE
  5
276
100
AcDbEntity
  8
L1_120
  6
CONTINUOUS
 62
         4
100
AcDbLine
 10
1697.2741670941
 20
63.4353970076
 30
0.0
 11
1703.915790377
 21
63.4353970076
 31
0.0
  0
LINE
  5
277
100
AcDbEntity
  8
L1_120
  6
CONTINUOUS
 62
         4
100
AcDbLine
 10
1697.2741670941
 20
52.9353970076
 30
0.0
 11
1703.915790377
 21
52.9353970076
 31
0.0
  0
LINE
  5
278
100
AcDbEntity
  8
L1_120
  6
CONTINUOUS
 62
         4
100
AcDbLine
 10
1703.240790377
 20
63.4353970076
 30
0.0
 11
1703.240790377
 21
52.9353970076
 31
0.0
  0
SOLID
  5
279
100
AcDbEntity
  8
L1_120
  6
CONTINUOUS
 62
         4
100
AcDbTrace
 10
1703.240790377
 20
63.4353970076
 30
0.0
 11
1703.645790377
 21
60.7353970076
 31
0.0
 12
1702.835790377
 22
60.7353970076
 32
0.0
 13
1703.240790377
 23
63.4353970076
 33
0.0
  0
SOLID
  5
27A
100
AcDbEntity
  8
L1_120
  6
CONTINUOUS
 62
         4
100
AcDbTrace
 10
1703.240790377
 20
52.9353970076
 30
0.0
 11
1702.835790377
 21
55.6353970076
 31
0.0
 12
1703.645790377
 22
55.6353970076
 32
0.0
 13
1703.240790377
 23
52.9353970076
 33
0.0
  0
TEXT
  5
27C
100
AcDbEntity
  8
L1_120
  6
CONTINUOUS
 62
         4
100
AcDbText
 10
1701.215790377
 20
52.6578446253
 30
0.0
 40
2.7
  1
10.5
 50
90.0
  7
BOX
100
AcDbText
  0
ENDBLK
  5
27D
100
AcDbEntity
  8
0
  6
CONTINUOUS
100
AcDbBlockEnd
  0
BLOCK
  5
27F
100
AcDbEntity
  8
0
100
AcDbBlockBegin
  2
*D11
 70
        65
 10
0.0
 20
0.0
 30
0.0
  3
*D11
  1

  0
POINT
  5
281
100
AcDbEntity
  8
DEFPOINTS
  6
CONTINUOUS
 62
         0
100
AcDbPoint
 10
1616.5020709869
 20
74.1853970076
 30
0.0
  0
POINT
  5
282
100
AcDbEntity
  8
DEFPOINTS
  6
CONTINUOUS
 62
         0
100
AcDbPoint
 10
1622.4241670941
 20
74.1853970076
 30
0.0
  0
POINT
  5
283
100
AcDbEntity
  8
DEFPOINTS
  6
CONTINUOUS
 62
         0
100
AcDbPoint
 10
1622.4241670941
 20
42.1853970076
 30
0.0
  0
LINE
  5
284
100
AcDbEntity
  8
L1_120
  6
CONTINUOUS
 62
         4
100
AcDbLine
 10
1621.0741670941
 20
74.1853970076
 30
0.0
 11
1615.8270709869
 21
74.1853970076
 31
0.0
  0
LINE
  5
285
100
AcDbEntity
  8
L1_120
  6
CONTINUOUS
 62
         4
100
AcDbLine
 10
1621.0741670941
 20
42.1853970076
 30
0.0
 11
1615.8270709869
 21
42.1853970076
 31
0.0
  0
LINE
  5
286
100
AcDbEntity
  8
L1_120
  6
CONTINUOUS
 62
         4
100
AcDbLine
 10
1616.5020709869
 20
74.1853970076
 30
0.0
 11
1616.5020709869
 21
42.1853970076
 31
0.0
  0
SOLID
  5
287
100
AcDbEntity
  8
L1_120
  6
CONTINUOUS
 62
         4
100
AcDbTrace
 10
1616.5020709869
 20
74.1853970076
 30
0.0
 11
1616.9070709869
 21
71.4853970076
 31
0.0
 12
1616.0970709869
 22
71.4853970076
 32
0.0
 13
1616.5020709869
 23
74.1853970076
 33
0.0
  0
SOLID
  5
288
100
AcDbEntity
  8
L1_120
  6
CONTINUOUS
 62
         4
100
AcDbTrace
 10
1616.5020709869
 20
42.1853970076
 30
0.0
 11
1616.0970709869
 21
44.8853970076
 31
0.0
 12
1616.9070709869
 22
44.8853970076
 32
0.0
 13
1616.5020709869
 23
42.1853970076
 33
0.0
  0
TEXT
  5
28A
100
AcDbEntity
  8
L1_120
  6
CONTINUOUS
 62
         4
100
AcDbText
 10
1614.4770709869
 20
51.0877350052
 30
0.0
 40
2.7
  1
崷32f7
 50
90.0
  7
BOX
100
AcDbText
  0
ENDBLK
  5
28B
100
AcDbEntity
  8
0
  6
CONTINUOUS
100
AcDbBlockEnd
  0
BLOCK
  5
28D
100
AcDbEntity
  8
0
100
AcDbBlockBegin
  2
*D12
 70
        65
 10
0.0
 20
0.0
 30
0.0
  3
*D12
  1

  0
POINT
  5
28F
100
AcDbEntity
  8
DEFPOINTS
  6
CONTINUOUS
 62
         0
100
AcDbPoint
 10
1696.4241670941
 20
85.5833943722
 30
0.0
  0
POINT
  5
290
100
AcDbEntity
  8
DEFPOINTS
  6
CONTINUOUS
 62
         0
100
AcDbPoint
 10
1696.4241670941
 20
70.3853970076
 30
0.0
  0
POINT
  5
291
100
AcDbEntity
  8
DEFPOINTS
  6
CONTINUOUS
 62
         0
100
AcDbPoint
 10
1621.4241670941
 20
73.1853970076
 30
0.0
  0
LINE
  5
292
100
AcDbEntity
  8
L1_120
  6
CONTINUOUS
 62
         4
100
AcDbLine
 10
1696.4241670941
 20
71.7353970076
 30
0.0
 11
1696.4241670941
 21
86.2583943722
 31
0.0
  0
LINE
  5
293
100
AcDbEntity
  8
L1_120
  6
CONTINUOUS
 62
         4
100
AcDbLine
 10
1621.4241670941
 20
74.5353970076
 30
0.0
 11
1621.4241670941
 21
86.2583943722
 31
0.0
  0
LINE
  5
294
100
AcDbEntity
  8
L1_120
  6
CONTINUOUS
 62
         4
100
AcDbLine
 10
1696.4241670941
 20
85.5833943722
 30
0.0
 11
1621.4241670941
 21
85.5833943722
 31
0.0
  0
SOLID
  5
295
100
AcDbEntity
  8
L1_120
  6
CONTINUOUS
 62
         4
100
AcDbTrace
 10
1696.4241670941
 20
85.5833943722
 30
0.0
 11
1693.7241670941
 21
85.1783943722
 31
0.0
 12
1693.7241670941
 22
85.9883943722
 32
0.0
 13
1696.4241670941
 23
85.5833943722
 33
0.0
  0
SOLID
  5
296
100
AcDbEntity
  8
L1_120
  6
CONTINUOUS
 62
         4
100
AcDbTrace
 10
1621.4241670941
 20
85.5833943722
 30
0.0
 11
1624.1241670941
 21
85.9883943722
 31
0.0
 12
1624.1241670941
 22
85.1783943722
 32
0.0
 13
1621.4241670941
 23
85.5833943722
 33
0.0
  0
TEXT
  5
298
100
AcDbEntity
  8
L1_120
  6
CONTINUOUS
 62
         4
100
AcDbText
 10
1657.391591869
 20
87.6083943722
 30
0.0
 40
2.7
  1
75
  7
BOX
100
AcDbText
  0
ENDBLK
  5
299
100
AcDbEntity
  8
0
  6
CONTINUOUS
100
AcDbBlockEnd
  0
BLOCK
  5
29B
100
AcDbEntity
  8
0
100
AcDbBlockBegin
  2
*D13
 70
        65
 10
0.0
 20
0.0
 30
0.0
  3
*D13
  1

  0
POINT
  5
29D
100
AcDbEntity
  8
DEFPOINTS
  6
CONTINUOUS
 62
         0
100
AcDbPoint
 10
1664.9241670941
 20
79.315887137
 30
0.0
  0
POINT
  5
29E
100
AcDbEntity
  8
DEFPOINTS
  6
CONTINUOUS
 62
         0
100
AcDbPoint
 10
1664.9241670941
 20
73.1853970076
 30
0.0
  0
POINT
  5
29F
100
AcDbEntity
  8
DEFPOINTS
  6
CONTINUOUS
 62
         0
100
AcDbPoint
 10
1696.4241670941
 20
70.3853970076
 30
0.0
  0
LINE
  5
2A0
100
AcDbEntity
  8
L1_120
  6
CONTINUOUS
 62
         4
100
AcDbLine
 10
1664.9241670941
 20
74.5353970076
 30
0.0
 11
1664.9241670941
 21
79.990887137
 31
0.0
  0
LINE
  5
2A1
100
AcDbEntity
  8
L1_120
  6
CONTINUOUS
 62
         4
100
AcDbLine
 10
1696.4241670941
 20
71.7353970076
 30
0.0
 11
1696.4241670941
 21
79.990887137
 31
0.0
  0
LINE
  5
2A2
100
AcDbEntity
  8
L1_120
  6
CONTINUOUS
 62
         4
100
AcDbLine
 10
1664.9241670941
 20
79.315887137
 30
0.0
 11
1696.4241670941
 21
79.315887137
 31
0.0
  0
SOLID
  5
2A3
100
AcDbEntity
  8
L1_120
  6
CONTINUOUS
 62
         4
100
AcDbTrace
 10
1664.9241670941
 20
79.315887137
 30
0.0
 11
1667.6241670941
 21
79.720887137
 31
0.0
 12
1667.6241670941
 22
78.910887137
 32
0.0
 13
1664.9241670941
 23
79.315887137
 33
0.0
  0
SOLID
  5
2A4
100
AcDbEntity
  8
L1_120
  6
CONTINUOUS
 62
         4
100
AcDbTrace
 10
1696.4241670941
 20
79.315887137
 30
0.0
 11
1693.7241670941
 21
78.910887137
 31
0.0
 12
1693.7241670941
 22
79.720887137
 32
0.0
 13
1696.4241670941
 23
79.315887137
 33
0.0
  0
TEXT
  5
2A6
100
AcDbEntity
  8
L1_120
  6
CONTINUOUS
 62
         4
100
AcDbText
 10
1674.5804814952
 20
81.340887137
 30
0.0
 40
2.7
  1
31.5
  7
BOX
100
AcDbText
  0
ENDBLK
  5
2A7
100
AcDbEntity
  8
0
  6
CONTINUOUS
100
AcDbBlockEnd
  0
BLOCK
  5
3D0
100
AcDbEntity
  8
0
100
AcDbBlockBegin
  2
*D14
 70
        65
 10
0.0
 20
0.0
 30
0.0
  3
*D14
  1

  0
POINT
  5
3D2
100
AcDbEntity
  8
DEFPOINTS
  6
CONTINUOUS
 62
         0
100
AcDbPoint
 10
1561.7471808163
 20
80.6853970076
 30
0.0
  0
POINT
  5
3D3
100
AcDbEntity
  8
DEFPOINTS
  6
CONTINUOUS
 62
         0
100
AcDbPoint
 10
1551.6901924979
 20
80.6853970076
 30
0.0
  0
POINT
  5
3D4
100
AcDbEntity
  8
DEFPOINTS
  6
CONTINUOUS
 62
         0
100
AcDbPoint
 10
1551.6901924979
 20
35.6853970076
 30
0.0
  0
LINE
  5
3D5
100
AcDbEntity
  8
L1_120
  6
CONTINUOUS
 62
         4
100
AcDbLine
 10
1553.0401924979
 20
80.6853970076
 30
0.0
 11
1562.4221808163
 21
80.6853970076
 31
0.0
  0
LINE
  5
3D6
100
AcDbEntity
  8
L1_120
  6
CONTINUOUS
 62
         4
100
AcDbLine
 10
1553.0401924979
 20
35.6853970076
 30
0.0
 11
1562.4221808163
 21
35.6853970076
 31
0.0
  0
LINE
  5
3D7
100
AcDbEntity
  8
L1_120
  6
CONTINUOUS
 62
         4
100
AcDbLine
 10
1561.7471808163
 20
80.6853970076
 30
0.0
 11
1561.7471808163
 21
35.6853970076
 31
0.0
  0
SOLID
  5
3D8
100
AcDbEntity
  8
L1_120
  6
CONTINUOUS
 62
         4
100
AcDbTrace
 10
1561.7471808163
 20
80.6853970076
 30
0.0
 11
1562.1521808163
 21
77.9853970076
 31
0.0
 12
1561.3421808163
 22
77.9853970076
 32
0.0
 13
1561.7471808163
 23
80.6853970076
 33
0.0
  0
SOLID
  5
3D9
100
AcDbEntity
  8
L1_120
  6
CONTINUOUS
 62
         4
100
AcDbTrace
 10
1561.7471808163
 20
35.6853970076
 30
0.0
 11
1561.3421808163
 21
38.3853970076
 31
0.0
 12
1562.1521808163
 22
38.3853970076
 32
0.0
 13
1561.7471808163
 23
35.6853970076
 33
0.0
  0
TEXT
  5
3DB
100
AcDbEntity
  8
L1_120
  6
CONTINUOUS
 62
         4
100
AcDbText
 10
1559.7221808163
 20
52.8816937817
 30
0.0
 40
2.7
  1
崷45
 50
90.0
  7
BOX
100
AcDbText
  0
ENDBLK
  5
3DC
100
AcDbEntity
  8
0
  6
CONTINUOUS
100
AcDbBlockEnd
  0
BLOCK
  5
3DE
100
AcDbEntity
  8
0
100
AcDbBlockBegin
  2
*D15
 70
        65
 10
0.0
 20
0.0
 30
0.0
  3
*D15
  1

  0
POINT
  5
3E0
100
AcDbEntity
  8
DEFPOINTS
  6
CONTINUOUS
 62
         0
100
AcDbPoint
 10
1522.8241670941
 20
83.675708384
 30
0.0
  0
POINT
  5
3E1
100
AcDbEntity
  8
DEFPOINTS
  6
CONTINUOUS
 62
         0
100
AcDbPoint
 10
1522.8241670941
 20
80.1853970076
 30
0.0
  0
POINT
  5
3E2
100
AcDbEntity
  8
DEFPOINTS
  6
CONTINUOUS
 62
         0
100
AcDbPoint
 10
1554.8241670941
 20
79.396721873
 30
0.0
  0
LINE
  5
3E3
100
AcDbEntity
  8
L1_120
  6
CONTINUOUS
 62
         4
100
AcDbLine
 10
1522.8241670941
 20
81.5353970076
 30
0.0
 11
1522.8241670941
 21
84.350708384
 31
0.0
  0
LINE
  5
3E4
100
AcDbEntity
  8
L1_120
  6
CONTINUOUS
 62
         4
100
AcDbLine
 10
1554.8241670941
 20
80.746721873
 30
0.0
 11
1554.8241670941
 21
84.350708384
 31
0.0
  0
LINE
  5
3E5
100
AcDbEntity
  8
L1_120
  6
CONTINUOUS
 62
         4
100
AcDbLine
 10
1522.8241670941
 20
83.675708384
 30
0.0
 11
1554.8241670941
 21
83.675708384
 31
0.0
  0
SOLID
  5
3E6
100
AcDbEntity
  8
L1_120
  6
CONTINUOUS
 62
         4
100
AcDbTrace
 10
1522.8241670941
 20
83.675708384
 30
0.0
 11
1525.5241670941
 21
84.080708384
 31
0.0
 12
1525.5241670941
 22
83.270708384
 32
0.0
 13
1522.8241670941
 23
83.675708384
 33
0.0
  0
SOLID
  5
3E7
100
AcDbEntity
  8
L1_120
  6
CONTINUOUS
 62
         4
100
AcDbTrace
 10
1554.8241670941
 20
83.675708384
 30
0.0
 11
1552.1241670941
 21
83.270708384
 31
0.0
 12
1552.1241670941
 22
84.080708384
 32
0.0
 13
1554.8241670941
 23
83.675708384
 33
0.0
  0
TEXT
  5
3E9
100
AcDbEntity
  8
L1_120
  6
CONTINUOUS
 62
         4
100
AcDbText
 10
1536.8263915407
 20
85.700708384
 30
0.0
 40
2.7
  1
32
  7
BOX
100
AcDbText
  0
ENDBLK
  5
3EA
100
AcDbEntity
  8
0
  6
CONTINUOUS
100
AcDbBlockEnd
  0
BLOCK
  5
3FA
100
AcDbEntity
  8
0
100
AcDbBlockBegin
  2
*D16
 70
        65
 10
0.0
 20
0.0
 30
0.0
  3
*D16
  1

  0
POINT
  5
3FC
100
AcDbEntity
  8
DEFPOINTS
  6
CONTINUOUS
 62
         0
100
AcDbPoint
 10
1576.9640638116
 20
65.6853970076
 30
0.0
  0
POINT
  5
3FD
100
AcDbEntity
  8
DEFPOINTS
  6
CONTINUOUS
 62
         0
100
AcDbPoint
 10
1578.8241670941
 20
65.6853970076
 30
0.0
  0
POINT
  5
3FE
100
AcDbEntity
  8
DEFPOINTS
  6
CONTINUOUS
 62
         0
100
AcDbPoint
 10
1578.8241670941
 20
50.6853970076
 30
0.0
  0
LINE
  5
3FF
100
AcDbEntity
  8
L1_120
  6
CONTINUOUS
 62
         4
100
AcDbLine
 10
1577.4741670941
 20
65.6853970076
 30
0.0
 11
1576.2890638116
 21
65.6853970076
 31
0.0
  0
LINE
  5
400
100
AcDbEntity
  8
L1_120
  6
CONTINUOUS
 62
         4
100
AcDbLine
 10
1577.4741670941
 20
50.6853970076
 30
0.0
 11
1576.2890638116
 21
50.6853970076
 31
0.0
  0
LINE
  5
401
100
AcDbEntity
  8
L1_120
  6
CONTINUOUS
 62
         4
100
AcDbLine
 10
1576.9640638116
 20
65.6853970076
 30
0.0
 11
1576.9640638116
 21
50.6853970076
 31
0.0
  0
SOLID
  5
402
100
AcDbEntity
  8
L1_120
  6
CONTINUOUS
 62
         4
100
AcDbTrace
 10
1576.9640638116
 20
65.6853970076
 30
0.0
 11
1577.3690638116
 21
62.9853970076
 31
0.0
 12
1576.5590638116
 22
62.9853970076
 32
0.0
 13
1576.9640638116
 23
65.6853970076
 33
0.0
  0
SOLID
  5
403
100
AcDbEntity
  8
L1_120
  6
CONTINUOUS
 62
         4
100
AcDbTrace
 10
1576.9640638116
 20
50.6853970076
 30
0.0
 11
1576.5590638116
 21
53.3853970076
 31
0.0
 12
1577.3690638116
 22
53.3853970076
 32
0.0
 13
1576.9640638116
 23
50.6853970076
 33
0.0
  0
TEXT
  5
405
100
AcDbEntity
  8
L1_120
  6
CONTINUOUS
 62
         4
100
AcDbText
 10
1574.9390638116
 20
52.2346944831
 30
0.0
 40
2.7
  1
崷15
 50
90.0
  7
BOX
100
AcDbText
  0
ENDBLK
  5
406
100
AcDbEntity
  8
0
  6
CONTINUOUS
100
AcDbBlockEnd
  0
BLOCK
  5
408
100
AcDbEntity
  8
0
100
AcDbBlockBegin
  2
*D17
 70
        65
 10
0.0
 20
0.0
 30
0.0
  3
*D17
  1

  0
POINT
  5
40A
100
AcDbEntity
  8
DEFPOINTS
  6
CONTINUOUS
 62
         0
100
AcDbPoint
 10
1600.9190708962
 20
67.5853970076
 30
0.0
  0
POINT
  5
40B
100
AcDbEntity
  8
DEFPOINTS
  6
CONTINUOUS
 62
         0
100
AcDbPoint
 10
1593.7241670941
 20
67.5853970076
 30
0.0
  0
POINT
  5
40C
100
AcDbEntity
  8
DEFPOINTS
  6
CONTINUOUS
 62
         0
100
AcDbPoint
 10
1593.7241670941
 20
48.7853970076
 30
0.0
  0
LINE
  5
40D
100
AcDbEntity
  8
L1_120
  6
CONTINUOUS
 62
         4
100
AcDbLine
 10
1595.0741670941
 20
67.5853970076
 30
0.0
 11
1601.5940708962
 21
67.5853970076
 31
0.0
  0
LINE
  5
40E
100
AcDbEntity
  8
L1_120
  6
CONTINUOUS
 62
         4
100
AcDbLine
 10
1595.0741670941
 20
48.7853970076
 30
0.0
 11
1601.5940708962
 21
48.7853970076
 31
0.0
  0
LINE
  5
40F
100
AcDbEntity
  8
L1_120
  6
CONTINUOUS
 62
         4
100
AcDbLine
 10
1600.9190708962
 20
67.5853970076
 30
0.0
 11
1600.9190708962
 21
48.7853970076
 31
0.0
  0
SOLID
  5
410
100
AcDbEntity
  8
L1_120
  6
CONTINUOUS
 62
         4
100
AcDbTrace
 10
1600.9190708962
 20
67.5853970076
 30
0.0
 11
1601.3240708962
 21
64.8853970076
 31
0.0
 12
1600.5140708962
 22
64.8853970076
 32
0.0
 13
1600.9190708962
 23
67.5853970076
 33
0.0
  0
SOLID
  5
411
100
AcDbEntity
  8
L1_120
  6
CONTINUOUS
 62
         4
100
AcDbTrace
 10
1600.9190708962
 20
48.7853970076
 30
0.0
 11
1600.5140708962
 21
51.4853970076
 31
0.0
 12
1601.3240708962
 22
51.4853970076
 32
0.0
 13
1600.9190708962
 23
48.7853970076
 33
0.0
  0
TEXT
  5
413
100
AcDbEntity
  8
L1_120
  6
CONTINUOUS
 62
         4
100
AcDbText
 10
1598.8940708962
 20
50.0315488889
 30
0.0
 40
2.7
  1
崷18.8
 50
90.0
  7
BOX
100
AcDbText
  0
ENDBLK
  5
414
100
AcDbEntity
  8
0
  6
CONTINUOUS
100
AcDbBlockEnd
  0
BLOCK
  5
416
100
AcDbEntity
  8
0
100
AcDbBlockBegin
  2
*D18
 70
        65
 10
0.0
 20
0.0
 30
0.0
  3
*D18
  1

  0
POINT
  5
418
100
AcDbEntity
  8
DEFPOINTS
  6
CONTINUOUS
 62
         0
100
AcDbPoint
 10
1594.2241670941
 20
70.1590354685
 30
0.0
  0
POINT
  5
419
100
AcDbEntity
  8
DEFPOINTS
  6
CONTINUOUS
 62
         0
100
AcDbPoint
 10
1594.2241670941
 20
67.0853970076
 30
0.0
  0
POINT
  5
41A
100
AcDbEntity
  8
DEFPOINTS
  6
CONTINUOUS
 62
         0
100
AcDbPoint
 10
1578.7241670941
 20
65.5853970076
 30
0.0
  0
LINE
  5
41B
100
AcDbEntity
  8
L1_120
  6
CONTINUOUS
 62
         4
100
AcDbLine
 10
1594.2241670941
 20
68.4353970076
 30
0.0
 11
1594.2241670941
 21
70.8340354685
 31
0.0
  0
LINE
  5
41C
100
AcDbEntity
  8
L1_120
  6
CONTINUOUS
 62
         4
100
AcDbLine
 10
1578.7241670941
 20
66.9353970076
 30
0.0
 11
1578.7241670941
 21
70.8340354685
 31
0.0
  0
LINE
  5
41D
100
AcDbEntity
  8
L1_120
  6
CONTINUOUS
 62
         4
100
AcDbLine
 10
1594.2241670941
 20
70.1590354685
 30
0.0
 11
1578.7241670941
 21
70.1590354685
 31
0.0
  0
SOLID
  5
41E
100
AcDbEntity
  8
L1_120
  6
CONTINUOUS
 62
         4
100
AcDbTrace
 10
1594.2241670941
 20
70.1590354685
 30
0.0
 11
1591.5241670941
 21
69.7540354685
 31
0.0
 12
1591.5241670941
 22
70.5640354685
 32
0.0
 13
1594.2241670941
 23
70.1590354685
 33
0.0
  0
SOLID
  5
41F
100
AcDbEntity
  8
L1_120
  6
CONTINUOUS
 62
         4
100
AcDbTrace
 10
1578.7241670941
 20
70.1590354685
 30
0.0
 11
1581.4241670941
 21
70.5640354685
 31
0.0
 12
1581.4241670941
 22
69.7540354685
 32
0.0
 13
1578.7241670941
 23
70.1590354685
 33
0.0
  0
TEXT
  5
421
100
AcDbEntity
  8
L1_120
  6
CONTINUOUS
 62
         4
100
AcDbText
 10
1581.2265234196
 20
72.1840354685
 30
0.0
 40
2.7
  1
15.5
  7
BOX
100
AcDbText
  0
ENDBLK
  5
422
100
AcDbEntity
  8
0
  6
CONTINUOUS
100
AcDbBlockEnd
  0
BLOCK
  5
437
100
AcDbEntity
  8
0
100
AcDbBlockBegin
  2
*D19
 70
        65
 10
0.0
 20
0.0
 30
0.0
  3
*D19
  1

  0
POINT
  5
439
100
AcDbEntity
  8
DEFPOINTS
  6
CONTINUOUS
 62
         0
100
AcDbPoint
 10
1240.9959194325
 20
-129.3800099683
 30
0.0
  0
POINT
  5
43A
100
AcDbEntity
  8
DEFPOINTS
  6
CONTINUOUS
 62
         0
100
AcDbPoint
 10
1240.9959194325
 20
-122.2355276424
 30
0.0
  0
POINT
  5
43B
100
AcDbEntity
  8
DEFPOINTS
  6
CONTINUOUS
 62
         0
100
AcDbPoint
 10
1235.4959194325
 20
-122.2355276424
 30
0.0
  0
LINE
  5
43C
100
AcDbEntity
  8
L1_120
  6
CONTINUOUS
 62
         4
100
AcDbLine
 10
1240.9959194325
 20
-123.5855276424
 30
0.0
 11
1240.9959194325
 21
-130.0550099683
 31
0.0
  0
LINE
  5
43D
100
AcDbEntity
  8
L1_120
  6
CONTINUOUS
 62
         4
100
AcDbLine
 10
1235.4959194325
 20
-123.5855276424
 30
0.0
 11
1235.4959194325
 21
-130.0550099683
 31
0.0
  0
LINE
  5
43E
100
AcDbEntity
  8
L1_120
  6
CONTINUOUS
 62
         4
100
AcDbLine
 10
1240.9959194325
 20
-129.3800099683
 30
0.0
 11
1246.3959194325
 21
-129.3800099683
 31
0.0
  0
SOLID
  5
43F
100
AcDbEntity
  8
L1_120
  6
CONTINUOUS
 62
         4
100
AcDbTrace
 10
1240.9959194325
 20
-129.3800099683
 30
0.0
 11
1243.6959194325
 21
-128.9750099683
 31
0.0
 12
1243.6959194325
 22
-129.7850099683
 32
0.0
 13
1240.9959194325
 23
-129.3800099683
 33
0.0
  0
LINE
  5
440
100
AcDbEntity
  8
L1_120
  6
CONTINUOUS
 62
         4
100
AcDbLine
 10
1235.4959194325
 20
-129.3800099683
 30
0.0
 11
1230.0959194325
 21
-129.3800099683
 31
0.0
  0
SOLID
  5
441
100
AcDbEntity
  8
L1_120
  6
CONTINUOUS
 62
         4
100
AcDbTrace
 10
1235.4959194325
 20
-129.3800099683
 30
0.0
 11
1232.7959194325
 21
-129.7850099683
 31
0.0
 12
1232.7959194325
 22
-128.9750099683
 32
0.0
 13
1235.4959194325
 23
-129.3800099683
 33
0.0
  0
LINE
  5
442
100
AcDbEntity
  8
L1_120
  6
CONTINUOUS
 62
         4
100
AcDbLine
 10
1240.9959194325
 20
-129.3800099683
 30
0.0
 11
1235.4959194325
 21
-129.3800099683
 31
0.0
  0
TEXT
  5
444
100
AcDbEntity
  8
L1_120
  6
CONTINUOUS
 62
         4
100
AcDbText
 10
1234.1959194325
 20
-127.3550099683
 30
0.0
 40
2.7
  1
5.5
  7
BOX
100
AcDbText
  0
ENDBLK
  5
445
100
AcDbEntity
  8
0
  6
CONTINUOUS
100
AcDbBlockEnd
  0
BLOCK
  5
447
100
AcDbEntity
  8
0
100
AcDbBlockBegin
  2
*D20
 70
        65
 10
0.0
 20
0.0
 30
0.0
  3
*D20
  1

  0
POINT
  5
449
100
AcDbEntity
  8
DEFPOINTS
  6
CONTINUOUS
 62
         0
100
AcDbPoint
 10
1181.3136459292
 20
-113.2355276424
 30
0.0
  0
POINT
  5
44A
100
AcDbEntity
  8
DEFPOINTS
  6
CONTINUOUS
 62
         0
100
AcDbPoint
 10
1189.7459194325
 20
-113.2355276424
 30
0.0
  0
POINT
  5
44B
100
AcDbEntity
  8
DEFPOINTS
  6
CONTINUOUS
 62
         0
100
AcDbPoint
 10
1189.7459194325
 20
-119.2355276424
 30
0.0
  0
LINE
  5
44C
100
AcDbEntity
  8
L1_120
  6
CONTINUOUS
 62
         4
100
AcDbLine
 10
1188.3959194325
 20
-113.2355276424
 30
0.0
 11
1180.6386459292
 21
-113.2355276424
 31
0.0
  0
LINE
  5
44D
100
AcDbEntity
  8
L1_120
  6
CONTINUOUS
 62
         4
100
AcDbLine
 10
1188.3959194325
 20
-119.2355276424
 30
0.0
 11
1180.6386459292
 21
-119.2355276424
 31
0.0
  0
LINE
  5
44E
100
AcDbEntity
  8
L1_120
  6
CONTINUOUS
 62
         4
100
AcDbLine
 10
1181.3136459292
 20
-113.2355276424
 30
0.0
 11
1181.3136459292
 21
-107.8355276424
 31
0.0
  0
SOLID
  5
44F
100
AcDbEntity
  8
L1_120
  6
CONTINUOUS
 62
         4
100
AcDbTrace
 10
1181.3136459292
 20
-113.2355276424
 30
0.0
 11
1180.9086459292
 21
-110.5355276424
 31
0.0
 12
1181.7186459292
 22
-110.5355276424
 32
0.0
 13
1181.3136459292
 23
-113.2355276424
 33
0.0
  0
LINE
  5
450
100
AcDbEntity
  8
L1_120
  6
CONTINUOUS
 62
         4
100
AcDbLine
 10
1181.3136459292
 20
-119.2355276424
 30
0.0
 11
1181.3136459292
 21
-124.6355276424
 31
0.0
  0
SOLID
  5
451
100
AcDbEntity
  8
L1_120
  6
CONTINUOUS
 62
         4
100
AcDbTrace
 10
1181.3136459292
 20
-119.2355276424
 30
0.0
 11
1181.7186459292
 21
-121.9355276424
 31
0.0
 12
1180.9086459292
 22
-121.9355276424
 32
0.0
 13
1181.3136459292
 23
-119.2355276424
 33
0.0
  0
LINE
  5
452
100
AcDbEntity
  8
L1_120
  6
CONTINUOUS
 62
         4
100
AcDbLine
 10
1181.3136459292
 20
-113.2355276424
 30
0.0
 11
1181.3136459292
 21
-119.2355276424
 31
0.0
  0
TEXT
  5
454
100
AcDbEntity
  8
L1_120
  6
CONTINUOUS
 62
         4
100
AcDbText
 10
1179.2886459292
 20
-122.9855276424
 30
0.0
 40
2.7
  1
M6xP1
 50
90.0
  7
BOX
100
AcDbText
  0
ENDBLK
  5
455
100
AcDbEntity
  8
0
  6
CONTINUOUS
100
AcDbBlockEnd
  0
BLOCK
  5
457
100
AcDbEntity
  8
0
100
AcDbBlockBegin
  2
*D21
 70
        65
 10
0.0
 20
0.0
 30
0.0
  3
*D21
  1

  0
POINT
  5
459
100
AcDbEntity
  8
DEFPOINTS
  6
CONTINUOUS
 62
         0
100
AcDbPoint
 10
1282.0154963061
 20
-116.9250508305
 30
0.0
  0
POINT
  5
45A
100
AcDbEntity
  8
DEFPOINTS
  6
CONTINUOUS
 62
         0
100
AcDbPoint
 10
1286.5734426739
 20
-115.5460044542
 30
0.0
  0
LINE
  5
45B
100
AcDbEntity
  8
L1_120
  6
CONTINUOUS
 62
         4
100
AcDbLine
 10
1286.5734426739
 20
-115.5460044542
 30
0.0
 11
1306.9223291004
 21
-109.3892716134
 31
0.0
  0
SOLID
  5
45C
100
AcDbEntity
  8
L1_120
  6
CONTINUOUS
 62
         4
100
AcDbTrace
 10
1286.5734426739
 20
-115.5460044542
 30
0.0
 11
1289.0404610298
 21
-114.3764552112
 31
0.0
 12
1289.275032127
 22
-115.1517463825
 32
0.0
 13
1286.5734426739
 23
-115.5460044542
 33
0.0
  0
LINE
  5
45D
100
AcDbEntity
  8
L1_120
  6
CONTINUOUS
 62
         4
100
AcDbLine
 10
1282.0154963061
 20
-116.9250508305
 30
0.0
 11
1276.8468884972
 21
-118.4888581452
 31
0.0
  0
SOLID
  5
45E
100
AcDbEntity
  8
L1_120
  6
CONTINUOUS
 62
         4
100
AcDbTrace
 10
1282.0154963061
 20
-116.9250508305
 30
0.0
 11
1279.5484779503
 21
-118.0946000735
 31
0.0
 12
1279.3139068531
 22
-117.3193089022
 32
0.0
 13
1282.0154963061
 23
-116.9250508305
 33
0.0
  0
LINE
  5
45F
100
AcDbEntity
  8
L1_120
  6
CONTINUOUS
 62
         4
100
AcDbLine
 10
1282.0154963061
 20
-116.9250508305
 30
0.0
 11
1286.5734426739
 21
-115.5460044542
 31
0.0
  0
TEXT
  5
461
100
AcDbEntity
  8
L1_120
  6
CONTINUOUS
 62
         4
100
AcDbText
 10
1289.9334876287
 20
-113.1658055329
 30
0.0
 40
2.7
  1
崷4.76
 50
16.8336477968
  7
BOX
100
AcDbText
  0
ENDBLK
  5
462
100
AcDbEntity
  8
0
  6
CONTINUOUS
100
AcDbBlockEnd
  0
BLOCK
  5
464
100
AcDbEntity
  8
0
100
AcDbBlockBegin
  2
*D22
 70
        65
 10
0.0
 20
0.0
 30
0.0
  3
*D22
  1

  0
POINT
  5
466
100
AcDbEntity
  8
DEFPOINTS
  6
CONTINUOUS
 62
         0
100
AcDbPoint
 10
1354.5656709944
 20
-95.1445557404
 30
0.0
  0
POINT
  5
467
100
AcDbEntity
  8
DEFPOINTS
  6
CONTINUOUS
 62
         0
100
AcDbPoint
 10
1354.5656709944
 20
-105.9855276424
 30
0.0
  0
POINT
  5
468
100
AcDbEntity
  8
DEFPOINTS
  6
CONTINUOUS
 62
         0
100
AcDbPoint
 10
1355.5656709944
 20
-105.9855276424
 30
0.0
  0
LINE
  5
469
100
AcDbEntity
  8
L1_120
  6
CONTINUOUS
 62
         4
100
AcDbLine
 10
1354.5656709944
 20
-104.6355276424
 30
0.0
 11
1354.5656709944
 21
-94.4695557404
 31
0.0
  0
LINE
  5
46A
100
AcDbEntity
  8
L1_120
  6
CONTINUOUS
 62
         4
100
AcDbLine
 10
1355.5656709944
 20
-104.6355276424
 30
0.0
 11
1355.5656709944
 21
-94.4695557404
 31
0.0
  0
LINE
  5
46B
100
AcDbEntity
  8
L1_120
  6
CONTINUOUS
 62
         4
100
AcDbLine
 10
1354.5656709944
 20
-95.1445557404
 30
0.0
 11
1349.1656709944
 21
-95.1445557404
 31
0.0
  0
SOLID
  5
46C
100
AcDbEntity
  8
L1_120
  6
CONTINUOUS
 62
         4
100
AcDbTrace
 10
1354.5656709944
 20
-95.1445557404
 30
0.0
 11
1351.8656709944
 21
-95.5495557404
 31
0.0
 12
1351.8656709944
 22
-94.7395557404
 32
0.0
 13
1354.5656709944
 23
-95.1445557404
 33
0.0
  0
LINE
  5
46D
100
AcDbEntity
  8
L1_120
  6
CONTINUOUS
 62
         4
100
AcDbLine
 10
1355.5656709944
 20
-95.1445557404
 30
0.0
 11
1360.9656709944
 21
-95.1445557404
 31
0.0
  0
SOLID
  5
46E
100
AcDbEntity
  8
L1_120
  6
CONTINUOUS
 62
         4
100
AcDbTrace
 10
1355.5656709944
 20
-95.1445557404
 30
0.0
 11
1358.2656709944
 21
-94.7395557404
 31
0.0
 12
1358.2656709944
 22
-95.5495557404
 32
0.0
 13
1355.5656709944
 23
-95.1445557404
 33
0.0
  0
LINE
  5
46F
100
AcDbEntity
  8
L1_120
  6
CONTINUOUS
 62
         4
100
AcDbLine
 10
1354.5656709944
 20
-95.1445557404
 30
0.0
 11
1355.5656709944
 21
-95.1445557404
 31
0.0
  0
TEXT
  5
471
100
AcDbEntity
  8
L1_120
  6
CONTINUOUS
 62
         4
100
AcDbText
 10
1353.7156709944
 20
-93.1195557404
 30
0.0
 40
2.7
  1
1
  7
BOX
100
AcDbText
  0
ENDBLK
  5
472
100
AcDbEntity
  8
0
  6
CONTINUOUS
100
AcDbBlockEnd
  0
BLOCK
  5
474
100
AcDbEntity
  8
0
100
AcDbBlockBegin
  2
*D23
 70
        65
 10
0.0
 20
0.0
 30
0.0
  3
*D23
  1

  0
POINT
  5
476
100
AcDbEntity
  8
DEFPOINTS
  6
CONTINUOUS
 62
         0
100
AcDbPoint
 10
1432.8623379113
 20
-102.5938262395
 30
0.0
  0
POINT
  5
477
100
AcDbEntity
  8
DEFPOINTS
  6
CONTINUOUS
 62
         0
100
AcDbPoint
 10
1433.6387896084
 20
-103.8772290453
 30
0.0
  0
LINE
  5
478
100
AcDbEntity
  8
L1_120
  6
CONTINUOUS
 62
         4
100
AcDbLine
 10
1433.6387896084
 20
-103.8772290453
 30
0.0
 11
1442.6074009366
 21
-118.7015136533
 31
0.0
  0
SOLID
  5
479
100
AcDbEntity
  8
L1_120
  6
CONTINUOUS
 62
         4
100
AcDbTrace
 10
1433.6387896084
 20
-103.8772290453
 30
0.0
 11
1435.3829214209
 21
-105.9777121375
 31
0.0
 12
1434.6898839057
 22
-106.396996054
 32
0.0
 13
1433.6387896084
 23
-103.8772290453
 33
0.0
  0
LINE
  5
47A
100
AcDbEntity
  8
L1_120
  6
CONTINUOUS
 62
         4
100
AcDbLine
 10
1432.8623379113
 20
-102.5938262395
 30
0.0
 11
1430.0671118015
 21
-97.9735761385
 31
0.0
  0
SOLID
  5
47B
100
AcDbEntity
  8
L1_120
  6
CONTINUOUS
 62
         4
100
AcDbTrace
 10
1432.8623379113
 20
-102.5938262395
 30
0.0
 11
1431.1182060988
 21
-100.4933431472
 31
0.0
 12
1431.811243614
 22
-100.0740592307
 32
0.0
 13
1432.8623379113
 23
-102.5938262395
 33
0.0
  0
LINE
  5
47C
100
AcDbEntity
  8
L1_120
  6
CONTINUOUS
 62
         4
100
AcDbLine
 10
1432.8623379113
 20
-102.5938262395
 30
0.0
 11
1433.6387896084
 21
-103.8772290453
 31
0.0
  0
TEXT
  5
47E
100
AcDbEntity
  8
L1_120
  6
CONTINUOUS
 62
         4
100
AcDbText
 10
1435.6928888078
 20
-104.8535524863
 30
0.0
 40
2.7
  1
崷1.5
 50
301.1737094167
  7
BOX
100
AcDbText
  0
ENDBLK
  5
47F
100
AcDbEntity
  8
0
  6
CONTINUOUS
100
AcDbBlockEnd
  0
BLOCK
  5
481
100
AcDbEntity
  8
0
100
AcDbBlockBegin
  2
*D24
 70
        65
 10
0.0
 20
0.0
 30
0.0
  3
*D24
  1

  0
POINT
  5
483
100
AcDbEntity
  8
DEFPOINTS
  6
CONTINUOUS
 62
         0
100
AcDbPoint
 10
1404.2785777977
 20
-106.0469826996
 30
0.0
  0
POINT
  5
484
100
AcDbEntity
  8
DEFPOINTS
  6
CONTINUOUS
 62
         0
100
AcDbPoint
 10
1405.3225497219
 20
-107.1240725851
 30
0.0
  0
LINE
  5
485
100
AcDbEntity
  8
L1_120
  6
CONTINUOUS
 62
         4
100
AcDbLine
 10
1405.3225497219
 20
-107.1240725851
 30
0.0
 11
1417.9912071679
 21
-120.1946183359
 31
0.0
  0
SOLID
  5
486
100
AcDbEntity
  8
L1_120
  6
CONTINUOUS
 62
         4
100
AcDbTrace
 10
1405.3225497219
 20
-107.1240725851
 30
0.0
 11
1407.4925134546
 21
-108.7809619595
 31
0.0
 12
1406.9108849164
 22
-109.3447067986
 32
0.0
 13
1405.3225497219
 23
-107.1240725851
 33
0.0
  0
LINE
  5
487
100
AcDbEntity
  8
L1_120
  6
CONTINUOUS
 62
         4
100
AcDbLine
 10
1404.2785777977
 20
-106.0469826996
 30
0.0
 11
1400.5202788706
 21
-102.1694591118
 31
0.0
  0
SOLID
  5
488
100
AcDbEntity
  8
L1_120
  6
CONTINUOUS
 62
         4
100
AcDbTrace
 10
1404.2785777977
 20
-106.0469826996
 30
0.0
 11
1402.1086140651
 21
-104.3900933252
 31
0.0
 12
1402.6902426032
 22
-103.8263484862
 32
0.0
 13
1404.2785777977
 23
-106.0469826996
 33
0.0
  0
LINE
  5
489
100
AcDbEntity
  8
L1_120
  6
CONTINUOUS
 62
         4
100
AcDbLine
 10
1404.2785777977
 20
-106.0469826996
 30
0.0
 11
1405.3225497219
 21
-107.1240725851
 31
0.0
  0
TEXT
  5
48B
100
AcDbEntity
  8
L1_120
  6
CONTINUOUS
 62
         4
100
AcDbText
 10
1408.2289352604
 20
-108.3009982609
 30
0.0
 40
2.7
  1
崷1.5
 50
314.1054644321
  7
BOX
100
AcDbText
  0
ENDBLK
  5
48C
100
AcDbEntity
  8
0
  6
CONTINUOUS
100
AcDbBlockEnd
  0
BLOCK
  5
48E
100
AcDbEntity
  8
0
100
AcDbBlockBegin
  2
*D25
 70
        65
 10
0.0
 20
0.0
 30
0.0
  3
*D25
  1

  0
POINT
  5
490
100
AcDbEntity
  8
DEFPOINTS
  6
CONTINUOUS
 62
         0
100
AcDbPoint
 10
1383.0304026213
 20
-94.852947049
 30
0.0
  0
POINT
  5
491
100
AcDbEntity
  8
DEFPOINTS
  6
CONTINUOUS
 62
         0
100
AcDbPoint
 10
1383.9707248984
 20
-96.6181082357
 30
0.0
  0
LINE
  5
492
100
AcDbEntity
  8
L1_120
  6
CONTINUOUS
 62
         4
100
AcDbLine
 10
1383.9707248984
 20
-96.6181082357
 30
0.0
 11
1389.7360226946
 21
-107.4406529602
 31
0.0
  0
SOLID
  5
493
100
AcDbEntity
  8
L1_120
  6
CONTINUOUS
 62
         4
100
AcDbTrace
 10
1383.9707248984
 20
-96.6181082357
 30
0.0
 11
1385.5976051129
 21
-98.8106605767
 31
0.0
 12
1384.8827148322
 22
-99.1914910989
 32
0.0
 13
1383.9707248984
 23
-96.6181082357
 33
0.0
  0
LINE
  5
494
100
AcDbEntity
  8
L1_120
  6
CONTINUOUS
 62
         4
100
AcDbLine
 10
1383.0304026213
 20
-94.852947049
 30
0.0
 11
1380.491532473
 21
-90.0870118449
 31
0.0
  0
SOLID
  5
495
100
AcDbEntity
  8
L1_120
  6
CONTINUOUS
 62
         4
100
AcDbTrace
 10
1383.0304026213
 20
-94.852947049
 30
0.0
 11
1381.4035224068
 21
-92.6603947081
 31
0.0
 12
1382.1184126874
 22
-92.2795641858
 32
0.0
 13
1383.0304026213
 23
-94.852947049
 33
0.0
  0
LINE
  5
496
100
AcDbEntity
  8
L1_120
  6
CONTINUOUS
 62
         4
100
AcDbLine
 10
1383.0304026213
 20
-94.852947049
 30
0.0
 11
1383.9707248984
 21
-96.6181082357
 31
0.0
  0
TEXT
  5
498
100
AcDbEntity
  8
L1_120
  6
CONTINUOUS
 62
         4
100
AcDbText
 10
1386.0701621142
 20
-98.0112628526
 30
0.0
 40
2.7
  1
崷2
 50
298.0447568953
  7
BOX
100
AcDbText
  0
ENDBLK
  5
499
100
AcDbEntity
  8
0
  6
CONTINUOUS
100
AcDbBlockEnd
  0
BLOCK
  5
4A0
100
AcDbEntity
  8
0
100
AcDbBlockBegin
  2
*D26
 70
        65
 10
0.0
 20
0.0
 30
0.0
  3
*D26
  1

  0
POINT
  5
4A2
100
AcDbEntity
  8
DEFPOINTS
  6
CONTINUOUS
 62
         0
100
AcDbPoint
 10
1429.1455912037
 20
-102.4855276424
 30
0.0
  0
POINT
  5
4A3
100
AcDbEntity
  8
DEFPOINTS
  6
CONTINUOUS
 62
         0
100
AcDbPoint
 10
1433.2505637598
 20
-102.4855276424
 30
0.0
  0
POINT
  5
4A4
100
AcDbEntity
  8
DEFPOINTS
  6
CONTINUOUS
 62
         0
100
AcDbPoint
 10
1433.2505637598
 20
-129.9855276424
 30
0.0
  0
LINE
  5
4A5
100
AcDbEntity
  8
L1_120
  6
CONTINUOUS
 62
         4
100
AcDbLine
 10
1431.9005637598
 20
-102.4855276424
 30
0.0
 11
1428.4705912037
 21
-102.4855276424
 31
0.0
  0
LINE
  5
4A6
100
AcDbEntity
  8
L1_120
  6
CONTINUOUS
 62
         4
100
AcDbLine
 10
1431.9005637598
 20
-129.9855276424
 30
0.0
 11
1428.4705912037
 21
-129.9855276424
 31
0.0
  0
LINE
  5
4A7
100
AcDbEntity
  8
L1_120
  6
CONTINUOUS
 62
         4
100
AcDbLine
 10
1429.1455912037
 20
-102.4855276424
 30
0.0
 11
1429.1455912037
 21
-129.9855276424
 31
0.0
  0
SOLID
  5
4A8
100
AcDbEntity
  8
L1_120
  6
CONTINUOUS
 62
         4
100
AcDbTrace
 10
1429.1455912037
 20
-102.4855276424
 30
0.0
 11
1429.5505912037
 21
-105.1855276424
 31
0.0
 12
1428.7405912037
 22
-105.1855276424
 32
0.0
 13
1429.1455912037
 23
-102.4855276424
 33
0.0
  0
SOLID
  5
4A9
100
AcDbEntity
  8
L1_120
  6
CONTINUOUS
 62
         4
100
AcDbTrace
 10
1429.1455912037
 20
-129.9855276424
 30
0.0
 11
1428.7405912037
 21
-127.2855276424
 31
0.0
 12
1429.5505912037
 22
-127.2855276424
 32
0.0
 13
1429.1455912037
 23
-129.9855276424
 33
0.0
  0
TEXT
  5
4AB
100
AcDbEntity
  8
L1_120
  6
CONTINUOUS
 62
         4
100
AcDbText
 10
1427.1205912037
 20
-124.3355276424
 30
0.0
 40
2.7
  1
崷26.5
 50
90.0
  7
BOX
100
AcDbText
  0
ENDBLK
  5
4AC
100
AcDbEntity
  8
0
  6
CONTINUOUS
100
AcDbBlockEnd
  0
BLOCK
  5
4B2
100
AcDbEntity
  8
0
100
AcDbBlockBegin
  2
*D27
 70
        65
 10
0.0
 20
0.0
 30
0.0
  3
*D27
  1

  0
POINT
  5
4B4
100
AcDbEntity
  8
DEFPOINTS
  6
CONTINUOUS
 62
         0
100
AcDbPoint
 10
1400.8672173975
 20
-105.8355276424
 30
0.0
  0
POINT
  5
4B5
100
AcDbEntity
  8
DEFPOINTS
  6
CONTINUOUS
 62
         0
100
AcDbPoint
 10
1404.8005637598
 20
-105.8355276424
 30
0.0
  0
POINT
  5
4B6
100
AcDbEntity
  8
DEFPOINTS
  6
CONTINUOUS
 62
         0
100
AcDbPoint
 10
1404.8005637598
 20
-126.6355276424
 30
0.0
  0
LINE
  5
4B7
100
AcDbEntity
  8
L1_120
  6
CONTINUOUS
 62
         4
100
AcDbLine
 10
1403.4505637598
 20
-105.8355276424
 30
0.0
 11
1400.1922173975
 21
-105.8355276424
 31
0.0
  0
LINE
  5
4B8
100
AcDbEntity
  8
L1_120
  6
CONTINUOUS
 62
         4
100
AcDbLine
 10
1403.4505637598
 20
-126.6355276424
 30
0.0
 11
1400.1922173975
 21
-126.6355276424
 31
0.0
  0
LINE
  5
4B9
100
AcDbEntity
  8
L1_120
  6
CONTINUOUS
 62
         4
100
AcDbLine
 10
1400.8672173975
 20
-105.8355276424
 30
0.0
 11
1400.8672173975
 21
-126.6355276424
 31
0.0
  0
SOLID
  5
4BA
100
AcDbEntity
  8
L1_120
  6
CONTINUOUS
 62
         4
100
AcDbTrace
 10
1400.8672173975
 20
-105.8355276424
 30
0.0
 11
1401.2722173975
 21
-108.5355276424
 31
0.0
 12
1400.4622173975
 22
-108.5355276424
 32
0.0
 13
1400.8672173975
 23
-105.8355276424
 33
0.0
  0
SOLID
  5
4BB
100
AcDbEntity
  8
L1_120
  6
CONTINUOUS
 62
         4
100
AcDbTrace
 10
1400.8672173975
 20
-126.6355276424
 30
0.0
 11
1400.4622173975
 21
-123.9355276424
 31
0.0
 12
1401.2722173975
 22
-123.9355276424
 32
0.0
 13
1400.8672173975
 23
-126.6355276424
 33
0.0
  0
TEXT
  5
4BD
100
AcDbEntity
  8
L1_120
  6
CONTINUOUS
 62
         4
100
AcDbText
 10
1398.8422173975
 20
-121.6355276424
 30
0.0
 40
2.7
  1
崷21
 50
90.0
  7
BOX
100
AcDbText
  0
ENDBLK
  5
4BE
100
AcDbEntity
  8
0
  6
CONTINUOUS
100
AcDbBlockEnd
  0
BLOCK
  5
4C0
100
AcDbEntity
  8
0
100
AcDbBlockBegin
  2
*D28
 70
        65
 10
0.0
 20
0.0
 30
0.0
  3
*D28
  1

  0
POINT
  5
4C2
100
AcDbEntity
  8
DEFPOINTS
  6
CONTINUOUS
 62
         0
100
AcDbPoint
 10
1248.0301492352
 20
-109.7355276424
 30
0.0
  0
POINT
  5
4C3
100
AcDbEntity
  8
DEFPOINTS
  6
CONTINUOUS
 62
         0
100
AcDbPoint
 10
1240.4959194325
 20
-109.7355276424
 30
0.0
  0
POINT
  5
4C4
100
AcDbEntity
  8
DEFPOINTS
  6
CONTINUOUS
 62
         0
100
AcDbPoint
 10
1240.4959194325
 20
-122.7355276424
 30
0.0
  0
LINE
  5
4C5
100
AcDbEntity
  8
L1_120
  6
CONTINUOUS
 62
         4
100
AcDbLine
 10
1241.8459194325
 20
-109.7355276424
 30
0.0
 11
1248.7051492352
 21
-109.7355276424
 31
0.0
  0
LINE
  5
4C6
100
AcDbEntity
  8
L1_120
  6
CONTINUOUS
 62
         4
100
AcDbLine
 10
1241.8459194325
 20
-122.7355276424
 30
0.0
 11
1248.7051492352
 21
-122.7355276424
 31
0.0
  0
LINE
  5
4C7
100
AcDbEntity
  8
L1_120
  6
CONTINUOUS
 62
         4
100
AcDbLine
 10
1248.0301492352
 20
-109.7355276424
 30
0.0
 11
1248.0301492352
 21
-122.7355276424
 31
0.0
  0
SOLID
  5
4C8
100
AcDbEntity
  8
L1_120
  6
CONTINUOUS
 62
         4
100
AcDbTrace
 10
1248.0301492352
 20
-109.7355276424
 30
0.0
 11
1248.4351492352
 21
-112.4355276424
 31
0.0
 12
1247.6251492352
 22
-112.4355276424
 32
0.0
 13
1248.0301492352
 23
-109.7355276424
 33
0.0
  0
SOLID
  5
4C9
100
AcDbEntity
  8
L1_120
  6
CONTINUOUS
 62
         4
100
AcDbTrace
 10
1248.0301492352
 20
-122.7355276424
 30
0.0
 11
1247.6251492352
 21
-120.0355276424
 31
0.0
 12
1248.4351492352
 22
-120.0355276424
 32
0.0
 13
1248.0301492352
 23
-122.7355276424
 33
0.0
  0
TEXT
  5
4CB
100
AcDbEntity
  8
L1_120
  6
CONTINUOUS
 62
         4
100
AcDbText
 10
1246.0051492352
 20
-121.8161100477
 30
0.0
 40
2.7
  1
崷13
 50
90.0
  7
BOX
100
AcDbText
  0
ENDBLK
  5
4CC
100
AcDbEntity
  8
0
  6
CONTINUOUS
100
AcDbBlockEnd
  0
BLOCK
  5
4CE
100
AcDbEntity
  8
0
100
AcDbBlockBegin
  2
*D29
 70
        65
 10
0.0
 20
0.0
 30
0.0
  3
*D29
  1

  0
POINT
  5
4D0
100
AcDbEntity
  8
DEFPOINTS
  6
CONTINUOUS
 62
         0
100
AcDbPoint
 10
1254.0953256408
 20
-107.9124745171
 30
0.0
  0
POINT
  5
4D1
100
AcDbEntity
  8
DEFPOINTS
  6
CONTINUOUS
 62
         0
100
AcDbPoint
 10
1254.0953256408
 20
-116.2355276424
 30
0.0
  0
POINT
  5
4D2
100
AcDbEntity
  8
DEFPOINTS
  6
CONTINUOUS
 62
         0
100
AcDbPoint
 10
1258.7141277943
 20
-116.2355276424
 30
0.0
  0
LINE
  5
4D3
100
AcDbEntity
  8
L1_120
  6
CONTINUOUS
 62
         4
100
AcDbLine
 10
1254.0953256408
 20
-114.8855276424
 30
0.0
 11
1254.0953256408
 21
-107.2374745171
 31
0.0
  0
LINE
  5
4D4
100
AcDbEntity
  8
L1_120
  6
CONTINUOUS
 62
         4
100
AcDbLine
 10
1258.7141277943
 20
-114.8855276424
 30
0.0
 11
1258.7141277943
 21
-107.2374745171
 31
0.0
  0
LINE
  5
4D5
100
AcDbEntity
  8
L1_120
  6
CONTINUOUS
 62
         4
100
AcDbLine
 10
1254.0953256408
 20
-107.9124745171
 30
0.0
 11
1258.7141277943
 21
-107.9124745171
 31
0.0
  0
SOLID
  5
4D6
100
AcDbEntity
  8
L1_120
  6
CONTINUOUS
 62
         4
100
AcDbTrace
 10
1254.0953256408
 20
-107.9124745171
 30
0.0
 11
1256.7953256408
 21
-107.5074745171
 31
0.0
 12
1256.7953256408
 22
-108.3174745171
 32
0.0
 13
1254.0953256408
 23
-107.9124745171
 33
0.0
  0
SOLID
  5
4D7
100
AcDbEntity
  8
L1_120
  6
CONTINUOUS
 62
         4
100
AcDbTrace
 10
1258.7141277943
 20
-107.9124745171
 30
0.0
 11
1256.0141277943
 21
-108.3174745171
 31
0.0
 12
1256.0141277943
 22
-107.5074745171
 32
0.0
 13
1258.7141277943
 23
-107.9124745171
 33
0.0
  0
TEXT
  5
4D9
100
AcDbEntity
  8
L1_120
  6
CONTINUOUS
 62
         4
100
AcDbText
 10
1244.2547267176
 20
-105.8874745171
 30
0.0
 40
2.7
  1
4.53~4.44
  7
BOX
100
AcDbText
  0
ENDBLK
  5
4DA
100
AcDbEntity
  8
0
  6
CONTINUOUS
100
AcDbBlockEnd
  0
BLOCK
  5
4E2
100
AcDbEntity
  8
0
100
AcDbBlockBegin
  2
*D30
 70
        65
 10
0.0
 20
0.0
 30
0.0
  3
*D30
  1

  0
POINT
  5
4E4
100
AcDbEntity
  8
DEFPOINTS
  6
CONTINUOUS
 62
         0
100
AcDbPoint
 10
1265.2489652379
 20
-114.2355276424
 30
0.0
  0
POINT
  5
4E5
100
AcDbEntity
  8
DEFPOINTS
  6
CONTINUOUS
 62
         0
100
AcDbPoint
 10
1257.559427256
 20
-114.2355276424
 30
0.0
  0
POINT
  5
4E6
100
AcDbEntity
  8
DEFPOINTS
  6
CONTINUOUS
 62
         0
100
AcDbPoint
 10
1257.559427256
 20
-118.2355276424
 30
0.0
  0
LINE
  5
4E7
100
AcDbEntity
  8
L1_120
  6
CONTINUOUS
 62
         4
100
AcDbLine
 10
1258.909427256
 20
-114.2355276424
 30
0.0
 11
1265.9239652379
 21
-114.2355276424
 31
0.0
  0
LINE
  5
4E8
100
AcDbEntity
  8
L1_120
  6
CONTINUOUS
 62
         4
100
AcDbLine
 10
1258.909427256
 20
-118.2355276424
 30
0.0
 11
1265.9239652379
 21
-118.2355276424
 31
0.0
  0
LINE
  5
4E9
100
AcDbEntity
  8
L1_120
  6
CONTINUOUS
 62
         4
100
AcDbLine
 10
1265.2489652379
 20
-114.2355276424
 30
0.0
 11
1265.2489652379
 21
-118.2355276424
 31
0.0
  0
SOLID
  5
4EA
100
AcDbEntity
  8
L1_120
  6
CONTINUOUS
 62
         4
100
AcDbTrace
 10
1265.2489652379
 20
-114.2355276424
 30
0.0
 11
1265.6539652379
 21
-116.9355276424
 31
0.0
 12
1264.8439652379
 22
-116.9355276424
 32
0.0
 13
1265.2489652379
 23
-114.2355276424
 33
0.0
  0
SOLID
  5
4EB
100
AcDbEntity
  8
L1_120
  6
CONTINUOUS
 62
         4
100
AcDbTrace
 10
1265.2489652379
 20
-118.2355276424
 30
0.0
 11
1264.8439652379
 21
-115.5355276424
 31
0.0
 12
1265.6539652379
 22
-115.5355276424
 32
0.0
 13
1265.2489652379
 23
-118.2355276424
 33
0.0
  0
TEXT
  5
4ED
100
AcDbEntity
  8
L1_120
  6
CONTINUOUS
 62
         4
100
AcDbText
 10
1263.2239652379
 20
-117.5855276424
 30
0.0
 40
2.7
  1
4
 50
90.0
  7
BOX
100
AcDbText
  0
ENDBLK
  5
4EE
100
AcDbEntity
  8
0
  6
CONTINUOUS
100
AcDbBlockEnd
  0
BLOCK
  5
4F0
100
AcDbEntity
  8
0
100
AcDbBlockBegin
  2
*D31
 70
        65
 10
0.0
 20
0.0
 30
0.0
  3
*D31
  1

  0
POINT
  5
4F2
100
AcDbEntity
  8
DEFPOINTS
  6
CONTINUOUS
 62
         0
100
AcDbPoint
 10
1200.4959194325
 20
-106.835920979
 30
0.0
  0
POINT
  5
4F3
100
AcDbEntity
  8
DEFPOINTS
  6
CONTINUOUS
 62
         0
100
AcDbPoint
 10
1200.4959194325
 20
-113.2355276424
 30
0.0
  0
POINT
  5
4F4
100
AcDbEntity
  8
DEFPOINTS
  6
CONTINUOUS
 62
         0
100
AcDbPoint
 10
1235.4959194325
 20
-110.2355276424
 30
0.0
  0
LINE
  5
4F5
100
AcDbEntity
  8
L1_120
  6
CONTINUOUS
 62
         4
100
AcDbLine
 10
1200.4959194325
 20
-111.8855276424
 30
0.0
 11
1200.4959194325
 21
-106.160920979
 31
0.0
  0
LINE
  5
4F6
100
AcDbEntity
  8
L1_120
  6
CONTINUOUS
 62
         4
100
AcDbLine
 10
1235.4959194325
 20
-108.8855276424
 30
0.0
 11
1235.4959194325
 21
-106.160920979
 31
0.0
  0
LINE
  5
4F7
100
AcDbEntity
  8
L1_120
  6
CONTINUOUS
 62
         4
100
AcDbLine
 10
1200.4959194325
 20
-106.835920979
 30
0.0
 11
1235.4959194325
 21
-106.835920979
 31
0.0
  0
SOLID
  5
4F8
100
AcDbEntity
  8
L1_120
  6
CONTINUOUS
 62
         4
100
AcDbTrace
 10
1200.4959194325
 20
-106.835920979
 30
0.0
 11
1203.1959194325
 21
-106.430920979
 31
0.0
 12
1203.1959194325
 22
-107.240920979
 32
0.0
 13
1200.4959194325
 23
-106.835920979
 33
0.0
  0
SOLID
  5
4F9
100
AcDbEntity
  8
L1_120
  6
CONTINUOUS
 62
         4
100
AcDbTrace
 10
1235.4959194325
 20
-106.835920979
 30
0.0
 11
1232.7959194325
 21
-107.240920979
 31
0.0
 12
1232.7959194325
 22
-106.430920979
 32
0.0
 13
1235.4959194325
 23
-106.835920979
 33
0.0
  0
TEXT
  5
4FB
100
AcDbEntity
  8
L1_120
  6
CONTINUOUS
 62
         4
100
AcDbText
 10
1214.1040247135
 20
-104.810920979
 30
0.0
 40
2.7
  1
35
  7
BOX
100
AcDbText
  0
ENDBLK
  5
4FC
100
AcDbEntity
  8
0
  6
CONTINUOUS
100
AcDbBlockEnd
  0
BLOCK
  5
4FF
100
AcDbEntity
  8
0
100
AcDbBlockBegin
  2
*D32
 70
        65
 10
0.0
 20
0.0
 30
0.0
  3
*D32
  1

  0
POINT
  5
501
100
AcDbEntity
  8
DEFPOINTS
  6
CONTINUOUS
 62
         0
100
AcDbPoint
 10
1311.6459428297
 20
-117.5279291666
 30
0.0
  0
POINT
  5
502
100
AcDbEntity
  8
DEFPOINTS
  6
CONTINUOUS
 62
         0
100
AcDbPoint
 10
1320.8135171109
 20
-114.9431261181
 30
0.0
  0
LINE
  5
503
100
AcDbEntity
  8
L1_120
  6
CONTINUOUS
 62
         4
100
AcDbLine
 10
1320.8135171109
 20
-114.9431261181
 30
0.0
 11
1316.2297299703
 21
-116.2355276424
 31
0.0
  0
SOLID
  5
504
100
AcDbEntity
  8
L1_120
  6
CONTINUOUS
 62
         4
100
AcDbTrace
 10
1320.8135171109
 20
-114.9431261181
 30
0.0
 11
1318.324739649
 21
-116.0656285659
 31
0.0
 12
1318.1049296259
 22
-115.2860238239
 32
0.0
 13
1320.8135171109
 23
-114.9431261181
 33
0.0
  0
LINE
  5
505
100
AcDbEntity
  8
L1_120
  6
CONTINUOUS
 62
         4
100
AcDbLine
 10
1316.2297299703
 20
-116.2355276424
 30
0.0
 11
1311.6459428297
 21
-117.5279291666
 31
0.0
  0
SOLID
  5
506
100
AcDbEntity
  8
L1_120
  6
CONTINUOUS
 62
         4
100
AcDbTrace
 10
1311.6459428297
 20
-117.5279291666
 30
0.0
 11
1314.1347202916
 21
-116.4054267189
 31
0.0
 12
1314.3545303146
 22
-117.1850314609
 32
0.0
 13
1311.6459428297
 23
-117.5279291666
 33
0.0
  0
LINE
  5
507
100
AcDbEntity
  8
L1_120
  6
CONTINUOUS
 62
         4
100
AcDbLine
 10
1320.8135171109
 20
-114.9431261181
 30
0.0
 11
1338.72020898
 21
-109.894323642
 31
0.0
  0
TEXT
  5
509
100
AcDbEntity
  8
L1_120
  6
CONTINUOUS
 62
         4
100
AcDbText
 10
1321.6513625703
 20
-113.3526492553
 30
0.0
 40
2.7
  1
崷9.53
 50
15.7458298425
  7
BOX
100
AcDbText
  0
ENDBLK
  5
50A
100
AcDbEntity
  8
0
  6
CONTINUOUS
100
AcDbBlockEnd
  0
BLOCK
  5
510
100
AcDbEntity
  8
0
100
AcDbBlockBegin
  2
*D33
 70
        65
 10
0.0
 20
0.0
 30
0.0
  3
*D33
  1

  0
POINT
  5
512
100
AcDbEntity
  8
DEFPOINTS
  6
CONTINUOUS
 62
         0
100
AcDbPoint
 10
1347.4912189014
 20
-105.9855276424
 30
0.0
  0
POINT
  5
513
100
AcDbEntity
  8
DEFPOINTS
  6
CONTINUOUS
 62
         0
100
AcDbPoint
 10
1354.5656709944
 20
-105.9855276424
 30
0.0
  0
POINT
  5
514
100
AcDbEntity
  8
DEFPOINTS
  6
CONTINUOUS
 62
         0
100
AcDbPoint
 10
1354.5656709944
 20
-126.4855276424
 30
0.0
  0
LINE
  5
515
100
AcDbEntity
  8
L1_120
  6
CONTINUOUS
 62
         4
100
AcDbLine
 10
1353.2156709944
 20
-105.9855276424
 30
0.0
 11
1346.8162189014
 21
-105.9855276424
 31
0.0
  0
LINE
  5
516
100
AcDbEntity
  8
L1_120
  6
CONTINUOUS
 62
         4
100
AcDbLine
 10
1353.2156709944
 20
-126.4855276424
 30
0.0
 11
1346.8162189014
 21
-126.4855276424
 31
0.0
  0
LINE
  5
517
100
AcDbEntity
  8
L1_120
  6
CONTINUOUS
 62
         4
100
AcDbLine
 10
1347.4912189014
 20
-105.9855276424
 30
0.0
 11
1347.4912189014
 21
-126.4855276424
 31
0.0
  0
SOLID
  5
518
100
AcDbEntity
  8
L1_120
  6
CONTINUOUS
 62
         4
100
AcDbTrace
 10
1347.4912189014
 20
-105.9855276424
 30
0.0
 11
1347.8962189014
 21
-108.6855276424
 31
0.0
 12
1347.0862189014
 22
-108.6855276424
 32
0.0
 13
1347.4912189014
 23
-105.9855276424
 33
0.0
  0
SOLID
  5
519
100
AcDbEntity
  8
L1_120
  6
CONTINUOUS
 62
         4
100
AcDbTrace
 10
1347.4912189014
 20
-126.4855276424
 30
0.0
 11
1347.0862189014
 21
-123.7855276424
 31
0.0
 12
1347.8962189014
 22
-123.7855276424
 32
0.0
 13
1347.4912189014
 23
-126.4855276424
 33
0.0
  0
TEXT
  5
51B
100
AcDbEntity
  8
L1_120
  6
CONTINUOUS
 62
         4
100
AcDbText
 10
1345.4662189014
 20
-124.3355276424
 30
0.0
 40
2.7
  1
崷20.5
 50
90.0
  7
BOX
100
AcDbText
  0
ENDBLK
  5
51C
100
AcDbEntity
  8
0
  6
CONTINUOUS
100
AcDbBlockEnd
  0
BLOCK
  5
520
100
AcDbEntity
  8
0
100
AcDbBlockBegin
  2
*D34
 70
        65
 10
0.0
 20
0.0
 30
0.0
  3
*D34
  1

  0
POINT
  5
522
100
AcDbEntity
  8
DEFPOINTS
  6
CONTINUOUS
 62
         0
100
AcDbPoint
 10
1374.233032719
 20
-94.7355276424
 30
0.0
  0
POINT
  5
523
100
AcDbEntity
  8
DEFPOINTS
  6
CONTINUOUS
 62
         0
100
AcDbPoint
 10
1383.5005637598
 20
-94.7355276424
 30
0.0
  0
POINT
  5
524
100
AcDbEntity
  8
DEFPOINTS
  6
CONTINUOUS
 62
         0
100
AcDbPoint
 10
1383.5005637598
 20
-137.7355276424
 30
0.0
  0
LINE
  5
525
100
AcDbEntity
  8
L1_120
  6
CONTINUOUS
 62
         4
100
AcDbLine
 10
1382.1505637598
 20
-94.7355276424
 30
0.0
 11
1373.558032719
 21
-94.7355276424
 31
0.0
  0
LINE
  5
526
100
AcDbEntity
  8
L1_120
  6
CONTINUOUS
 62
         4
100
AcDbLine
 10
1382.1505637598
 20
-137.7355276424
 30
0.0
 11
1373.558032719
 21
-137.7355276424
 31
0.0
  0
LINE
  5
527
100
AcDbEntity
  8
L1_120
  6
CONTINUOUS
 62
         4
100
AcDbLine
 10
1374.233032719
 20
-94.7355276424
 30
0.0
 11
1374.233032719
 21
-137.7355276424
 31
0.0
  0
SOLID
  5
528
100
AcDbEntity
  8
L1_120
  6
CONTINUOUS
 62
         4
100
AcDbTrace
 10
1374.233032719
 20
-94.7355276424
 30
0.0
 11
1374.638032719
 21
-97.4355276424
 31
0.0
 12
1373.828032719
 22
-97.4355276424
 32
0.0
 13
1374.233032719
 23
-94.7355276424
 33
0.0
  0
SOLID
  5
529
100
AcDbEntity
  8
L1_120
  6
CONTINUOUS
 62
         4
100
AcDbTrace
 10
1374.233032719
 20
-137.7355276424
 30
0.0
 11
1373.828032719
 21
-135.0355276424
 31
0.0
 12
1374.638032719
 22
-135.0355276424
 32
0.0
 13
1374.233032719
 23
-137.7355276424
 33
0.0
  0
TEXT
  5
52B
100
AcDbEntity
  8
L1_120
  6
CONTINUOUS
 62
         4
100
AcDbText
 10
1372.208032719
 20
-121.6355276424
 30
0.0
 40
2.7
  1
崷42
 50
90.0
  7
BOX
100
AcDbText
  0
ENDBLK
  5
52C
100
AcDbEntity
  8
0
  6
CONTINUOUS
100
AcDbBlockEnd
  0
BLOCK
  5
536
100
AcDbEntity
  8
0
100
AcDbBlockBegin
  2
*D35
 70
        65
 10
0.0
 20
0.0
 30
0.0
  3
*D35
  1

  0
POINT
  5
538
100
AcDbEntity
  8
DEFPOINTS
  6
CONTINUOUS
 62
         0
100
AcDbPoint
 10
1213.5017478325
 20
-112.2600276424
 30
0.0
  0
POINT
  5
539
100
AcDbEntity
  8
DEFPOINTS
  6
CONTINUOUS
 62
         0
100
AcDbPoint
 10
1201.4714194325
 20
-112.2600276424
 30
0.0
  0
POINT
  5
53A
100
AcDbEntity
  8
DEFPOINTS
  6
CONTINUOUS
 62
         0
100
AcDbPoint
 10
1201.4714194325
 20
-120.2110276424
 30
0.0
  0
LINE
  5
53B
100
AcDbEntity
  8
L1_120
  6
CONTINUOUS
 62
         4
100
AcDbLine
 10
1202.8214194325
 20
-112.2600276424
 30
0.0
 11
1214.1767478325
 21
-112.2600276424
 31
0.0
  0
LINE
  5
53C
100
AcDbEntity
  8
L1_120
  6
CONTINUOUS
 62
         4
100
AcDbLine
 10
1202.8214194325
 20
-120.2110276424
 30
0.0
 11
1214.1767478325
 21
-120.2110276424
 31
0.0
  0
LINE
  5
53D
100
AcDbEntity
  8
L1_120
  6
CONTINUOUS
 62
         4
100
AcDbLine
 10
1213.5017478325
 20
-112.2600276424
 30
0.0
 11
1213.5017478325
 21
-120.2110276424
 31
0.0
  0
SOLID
  5
53E
100
AcDbEntity
  8
L1_120
  6
CONTINUOUS
 62
         4
100
AcDbTrace
 10
1213.5017478325
 20
-112.2600276424
 30
0.0
 11
1213.9067478325
 21
-114.9600276424
 31
0.0
 12
1213.0967478325
 22
-114.9600276424
 32
0.0
 13
1213.5017478325
 23
-112.2600276424
 33
0.0
  0
SOLID
  5
53F
100
AcDbEntity
  8
L1_120
  6
CONTINUOUS
 62
         4
100
AcDbTrace
 10
1213.5017478325
 20
-120.2110276424
 30
0.0
 11
1213.0967478325
 21
-117.5110276424
 31
0.0
 12
1213.9067478325
 22
-117.5110276424
 32
0.0
 13
1213.5017478325
 23
-120.2110276424
 33
0.0
  0
TEXT
  5
541
100
AcDbEntity
  8
L1_120
  6
CONTINUOUS
 62
         4
100
AcDbText
 10
1211.4767478325
 20
-125.6855276424
 30
0.0
 40
2.7
  1
崷7.951
 50
90.0
  7
BOX
100
AcDbText
  0
ENDBLK
  5
542
100
AcDbEntity
  8
0
  6
CONTINUOUS
100
AcDbBlockEnd
  0
BLOCK
  5
544
100
AcDbEntity
  8
0
100
AcDbBlockBegin
  2
*D36
 70
        65
 10
0.0
 20
0.0
 30
0.0
  3
*D36
  1

  0
POINT
  5
546
100
AcDbEntity
  8
DEFPOINTS
  6
CONTINUOUS
 62
         0
100
AcDbPoint
 10
1189.2459194325
 20
-126.9485075516
 30
0.0
  0
POINT
  5
547
100
AcDbEntity
  8
DEFPOINTS
  6
CONTINUOUS
 62
         0
100
AcDbPoint
 10
1189.2459194325
 20
-118.7355276424
 30
0.0
  0
POINT
  5
548
100
AcDbEntity
  8
DEFPOINTS
  6
CONTINUOUS
 62
         0
100
AcDbPoint
 10
1200.4959194325
 20
-119.2355276424
 30
0.0
  0
LINE
  5
549
100
AcDbEntity
  8
L1_120
  6
CONTINUOUS
 62
         4
100
AcDbLine
 10
1189.2459194325
 20
-120.0855276424
 30
0.0
 11
1189.2459194325
 21
-127.6235075516
 31
0.0
  0
LINE
  5
54A
100
AcDbEntity
  8
L1_120
  6
CONTINUOUS
 62
         4
100
AcDbLine
 10
1200.4959194325
 20
-120.5855276424
 30
0.0
 11
1200.4959194325
 21
-127.6235075516
 31
0.0
  0
LINE
  5
54B
100
AcDbEntity
  8
L1_120
  6
CONTINUOUS
 62
         4
100
AcDbLine
 10
1189.2459194325
 20
-126.9485075516
 30
0.0
 11
1200.4959194325
 21
-126.9485075516
 31
0.0
  0
SOLID
  5
54C
100
AcDbEntity
  8
L1_120
  6
CONTINUOUS
 62
         4
100
AcDbTrace
 10
1189.2459194325
 20
-126.9485075516
 30
0.0
 11
1191.9459194325
 21
-126.5435075516
 31
0.0
 12
1191.9459194325
 22
-127.3535075516
 32
0.0
 13
1189.2459194325
 23
-126.9485075516
 33
0.0
  0
SOLID
  5
54D
100
AcDbEntity
  8
L1_120
  6
CONTINUOUS
 62
         4
100
AcDbTrace
 10
1200.4959194325
 20
-126.9485075516
 30
0.0
 11
1197.7959194325
 21
-127.3535075516
 31
0.0
 12
1197.7959194325
 22
-126.5435075516
 32
0.0
 13
1200.4959194325
 23
-126.9485075516
 33
0.0
  0
TEXT
  5
54F
100
AcDbEntity
  8
L1_120
  6
CONTINUOUS
 62
         4
100
AcDbText
 10
1188.1209194325
 20
-124.9235075516
 30
0.0
 40
2.7
  1
11.25
  7
BOX
100
AcDbText
  0
ENDBLK
  5
550
100
AcDbEntity
  8
0
  6
CONTINUOUS
100
AcDbBlockEnd
  0
BLOCK
  5
5C5
100
AcDbEntity
  8
0
100
AcDbBlockBegin
  2
*D37
 70
        65
 10
0.0
 20
0.0
 30
0.0
  3
*D37
  1

  0
POINT
  5
5C7
100
AcDbEntity
  8
DEFPOINTS
  6
CONTINUOUS
 62
         0
100
AcDbPoint
 10
1513.6033403763
 20
221.0031981167
 30
0.0
  0
POINT
  5
5C8
100
AcDbEntity
  8
DEFPOINTS
  6
CONTINUOUS
 62
         0
100
AcDbPoint
 10
1513.6033403763
 20
167.6072914602
 30
0.0
  0
POINT
  5
5C9
100
AcDbEntity
  8
DEFPOINTS
  6
CONTINUOUS
 62
         0
100
AcDbPoint
 10
1295.1033403763
 20
150.1846417294
 30
0.0
  0
LINE
  5
5CA
100
AcDbEntity
  8
_Y__________
  6
CONTINUOUS
 62
         4
100
AcDbLine
 10
1513.6033403763
 20
168.9572914602
 30
0.0
 11
1513.6033403763
 21
221.6781981167
 31
0.0
  0
LINE
  5
5CB
100
AcDbEntity
  8
_Y__________
  6
CONTINUOUS
 62
         4
100
AcDbLine
 10
1295.1033403763
 20
151.5346417294
 30
0.0
 11
1295.1033403763
 21
221.6781981167
 31
0.0
  0
LINE
  5
5CC
100
AcDbEntity
  8
_Y__________
  6
CONTINUOUS
 62
         4
100
AcDbLine
 10
1513.6033403763
 20
221.0031981167
 30
0.0
 11
1295.1033403763
 21
221.0031981167
 31
0.0
  0
SOLID
  5
5CD
100
AcDbEntity
  8
_Y__________
  6
CONTINUOUS
 62
         4
100
AcDbTrace
 10
1513.6033403763
 20
221.0031981167
 30
0.0
 11
1510.9033403763
 21
220.5981981167
 31
0.0
 12
1510.9033403763
 22
221.4081981167
 32
0.0
 13
1513.6033403763
 23
221.0031981167
 33
0.0
  0
SOLID
  5
5CE
100
AcDbEntity
  8
_Y__________
  6
CONTINUOUS
 62
         4
100
AcDbTrace
 10
1295.1033403763
 20
221.0031981167
 30
0.0
 11
1297.8033403763
 21
221.4081981167
 31
0.0
 12
1297.8033403763
 22
220.5981981167
 32
0.0
 13
1295.1033403763
 23
221.0031981167
 33
0.0
  0
TEXT
  5
5D0
100
AcDbEntity
  8
_Y__________
  6
CONTINUOUS
 62
         4
100
AcDbText
 10
1397.6033403763
 20
223.0281981167
 30
0.0
 40
2.7
  1
218.5
  7
BOX
100
AcDbText
  0
ENDBLK
  5
5D1
100
AcDbEntity
  8
0
  6
CONTINUOUS
100
AcDbBlockEnd
  0
BLOCK
  5
5D3
100
AcDbEntity
  8
0
100
AcDbBlockBegin
  2
*D38
 70
        65
 10
0.0
 20
0.0
 30
0.0
  3
*D38
  1

  0
POINT
  5
5D5
100
AcDbEntity
  8
DEFPOINTS
  6
CONTINUOUS
 62
         0
100
AcDbPoint
 10
1412.6033403763
 20
211.0066579331
 30
0.0
  0
POINT
  5
5D6
100
AcDbEntity
  8
DEFPOINTS
  6
CONTINUOUS
 62
         0
100
AcDbPoint
 10
1412.6033403763
 20
165.9846417294
 30
0.0
  0
POINT
  5
5D7
100
AcDbEntity
  8
DEFPOINTS
  6
CONTINUOUS
 62
         0
100
AcDbPoint
 10
1513.6033403763
 20
194.2885703556
 30
0.0
  0
LINE
  5
5D8
100
AcDbEntity
  8
_Y__________
  6
CONTINUOUS
 62
         4
100
AcDbLine
 10
1412.6033403763
 20
167.3346417294
 30
0.0
 11
1412.6033403763
 21
211.6816579331
 31
0.0
  0
LINE
  5
5D9
100
AcDbEntity
  8
_Y__________
  6
CONTINUOUS
 62
         4
100
AcDbLine
 10
1513.6033403763
 20
195.6385703556
 30
0.0
 11
1513.6033403763
 21
211.6816579331
 31
0.0
  0
LINE
  5
5DA
100
AcDbEntity
  8
_Y__________
  6
CONTINUOUS
 62
         4
100
AcDbLine
 10
1412.6033403763
 20
211.0066579331
 30
0.0
 11
1513.6033403763
 21
211.0066579331
 31
0.0
  0
SOLID
  5
5DB
100
AcDbEntity
  8
_Y__________
  6
CONTINUOUS
 62
         4
100
AcDbTrace
 10
1412.6033403763
 20
211.0066579331
 30
0.0
 11
1415.3033403763
 21
211.4116579331
 31
0.0
 12
1415.3033403763
 22
210.6016579331
 32
0.0
 13
1412.6033403763
 23
211.0066579331
 33
0.0
  0
SOLID
  5
5DC
100
AcDbEntity
  8
_Y__________
  6
CONTINUOUS
 62
         4
100
AcDbTrace
 10
1513.6033403763
 20
211.0066579331
 30
0.0
 11
1510.9033403763
 21
210.6016579331
 31
0.0
 12
1510.9033403763
 22
211.4116579331
 32
0.0
 13
1513.6033403763
 23
211.0066579331
 33
0.0
  0
TEXT
  5
5DE
100
AcDbEntity
  8
_Y__________
  6
CONTINUOUS
 62
         4
100
AcDbText
 10
1459.0533403763
 20
213.0316579331
 30
0.0
 40
2.7
  1
101
  7
BOX
100
AcDbText
  0
ENDBLK
  5
5DF
100
AcDbEntity
  8
0
  6
CONTINUOUS
100
AcDbBlockEnd
  0
BLOCK
  5
5E1
100
AcDbEntity
  8
0
100
AcDbBlockBegin
  2
*D39
 70
        65
 10
0.0
 20
0.0
 30
0.0
  3
*D39
  1

  0
POINT
  5
5E3
100
AcDbEntity
  8
DEFPOINTS
  6
CONTINUOUS
 62
         0
100
AcDbPoint
 10
1534.0367069289
 20
168.1846417294
 30
0.0
  0
POINT
  5
5E4
100
AcDbEntity
  8
DEFPOINTS
  6
CONTINUOUS
 62
         0
100
AcDbPoint
 10
1513.6033403763
 20
168.1846417294
 30
0.0
  0
POINT
  5
5E5
100
AcDbEntity
  8
DEFPOINTS
  6
CONTINUOUS
 62
         0
100
AcDbPoint
 10
1513.6033403763
 20
132.1846417294
 30
0.0
  0
LINE
  5
5E6
100
AcDbEntity
  8
_Y__________
  6
CONTINUOUS
 62
         4
100
AcDbLine
 10
1514.9533403763
 20
168.1846417294
 30
0.0
 11
1534.7117069289
 21
168.1846417294
 31
0.0
  0
LINE
  5
5E7
100
AcDbEntity
  8
_Y__________
  6
CONTINUOUS
 62
         4
100
AcDbLine
 10
1514.9533403763
 20
132.1846417294
 30
0.0
 11
1534.7117069289
 21
132.1846417294
 31
0.0
  0
LINE
  5
5E8
100
AcDbEntity
  8
_Y__________
  6
CONTINUOUS
 62
         4
100
AcDbLine
 10
1534.0367069289
 20
168.1846417294
 30
0.0
 11
1534.0367069289
 21
132.1846417294
 31
0.0
  0
SOLID
  5
5E9
100
AcDbEntity
  8
_Y__________
  6
CONTINUOUS
 62
         4
100
AcDbTrace
 10
1534.0367069289
 20
168.1846417294
 30
0.0
 11
1534.4417069289
 21
165.4846417294
 31
0.0
 12
1533.6317069289
 22
165.4846417294
 32
0.0
 13
1534.0367069289
 23
168.1846417294
 33
0.0
  0
SOLID
  5
5EA
100
AcDbEntity
  8
_Y__________
  6
CONTINUOUS
 62
         4
100
AcDbTrace
 10
1534.0367069289
 20
132.1846417294
 30
0.0
 11
1533.6317069289
 21
134.8846417294
 31
0.0
 12
1534.4417069289
 22
134.8846417294
 32
0.0
 13
1534.0367069289
 23
132.1846417294
 33
0.0
  0
TEXT
  5
5EC
100
AcDbEntity
  8
_Y__________
  6
CONTINUOUS
 62
         4
100
AcDbText
 10
1530.9047069289
 20
142.3329165641
 30
0.0
 40
2.7
  1
崷36
 50
90.0
  7
BOX
100
AcDbText
  0
ENDBLK
  5
5ED
100
AcDbEntity
  8
0
  6
CONTINUOUS
100
AcDbBlockEnd
  0
BLOCK
  5
5EF
100
AcDbEntity
  8
0
100
AcDbBlockBegin
  2
*D40
 70
        65
 10
0.0
 20
0.0
 30
0.0
  3
*D40
  1

  0
POINT
  5
5F1
100
AcDbEntity
  8
DEFPOINTS
  6
CONTINUOUS
 62
         0
100
AcDbPoint
 10
1561.1526483081
 20
172.6846417294
 30
0.0
  0
POINT
  5
5F2
100
AcDbEntity
  8
DEFPOINTS
  6
CONTINUOUS
 62
         0
100
AcDbPoint
 10
1459.6033403763
 20
172.6846417294
 30
0.0
  0
POINT
  5
5F3
100
AcDbEntity
  8
DEFPOINTS
  6
CONTINUOUS
 62
         0
100
AcDbPoint
 10
1459.6033403763
 20
127.6846417294
 30
0.0
  0
LINE
  5
5F4
100
AcDbEntity
  8
_Y__________
  6
CONTINUOUS
 62
         4
100
AcDbLine
 10
1460.9533403763
 20
172.6846417294
 30
0.0
 11
1561.8276483081
 21
172.6846417294
 31
0.0
  0
LINE
  5
5F5
100
AcDbEntity
  8
_Y__________
  6
CONTINUOUS
 62
         4
100
AcDbLine
 10
1460.9533403763
 20
127.6846417294
 30
0.0
 11
1561.8276483081
 21
127.6846417294
 31
0.0
  0
LINE
  5
5F6
100
AcDbEntity
  8
_Y__________
  6
CONTINUOUS
 62
         4
100
AcDbLine
 10
1561.1526483081
 20
172.6846417294
 30
0.0
 11
1561.1526483081
 21
127.6846417294
 31
0.0
  0
SOLID
  5
5F7
100
AcDbEntity
  8
_Y__________
  6
CONTINUOUS
 62
         4
100
AcDbTrace
 10
1561.1526483081
 20
172.6846417294
 30
0.0
 11
1561.5576483081
 21
169.9846417294
 31
0.0
 12
1560.7476483081
 22
169.9846417294
 32
0.0
 13
1561.1526483081
 23
172.6846417294
 33
0.0
  0
SOLID
  5
5F8
100
AcDbEntity
  8
_Y__________
  6
CONTINUOUS
 62
         4
100
AcDbTrace
 10
1561.1526483081
 20
127.6846417294
 30
0.0
 11
1560.7476483081
 21
130.3846417294
 31
0.0
 12
1561.5576483081
 22
130.3846417294
 32
0.0
 13
1561.1526483081
 23
127.6846417294
 33
0.0
  0
TEXT
  5
5FA
100
AcDbEntity
  8
_Y__________
  6
CONTINUOUS
 62
         4
100
AcDbText
 10
1558.0206483081
 20
144.1273538612
 30
0.0
 40
2.7
  1
崷45
 50
90.0
  7
BOX
100
AcDbText
  0
ENDBLK
  5
5FB
100
AcDbEntity
  8
0
  6
CONTINUOUS
100
AcDbBlockEnd
  0
BLOCK
  5
5FD
100
AcDbEntity
  8
0
100
AcDbBlockBegin
  2
*D41
 70
        65
 10
0.0
 20
0.0
 30
0.0
  3
*D41
  1

  0
POINT
  5
5FF
100
AcDbEntity
  8
DEFPOINTS
  6
CONTINUOUS
 62
         0
100
AcDbPoint
 10
1412.6033403763
 20
187.4838634794
 30
0.0
  0
POINT
  5
600
100
AcDbEntity
  8
DEFPOINTS
  6
CONTINUOUS
 62
         0
100
AcDbPoint
 10
1412.6033403763
 20
165.9846417294
 30
0.0
  0
POINT
  5
601
100
AcDbEntity
  8
DEFPOINTS
  6
CONTINUOUS
 62
         0
100
AcDbPoint
 10
1295.1033403763
 20
156.1346417294
 30
0.0
  0
LINE
  5
602
100
AcDbEntity
  8
_Y__________
  6
CONTINUOUS
 62
         4
100
AcDbLine
 10
1412.6033403763
 20
167.3346417294
 30
0.0
 11
1412.6033403763
 21
188.1588634794
 31
0.0
  0
LINE
  5
603
100
AcDbEntity
  8
_Y__________
  6
CONTINUOUS
 62
         4
100
AcDbLine
 10
1295.1033403763
 20
157.4846417294
 30
0.0
 11
1295.1033403763
 21
188.1588634794
 31
0.0
  0
LINE
  5
604
100
AcDbEntity
  8
_Y__________
  6
CONTINUOUS
 62
         4
100
AcDbLine
 10
1412.6033403763
 20
187.4838634794
 30
0.0
 11
1295.1033403763
 21
187.4838634794
 31
0.0
  0
SOLID
  5
605
100
AcDbEntity
  8
_Y__________
  6
CONTINUOUS
 62
         4
100
AcDbTrace
 10
1412.6033403763
 20
187.4838634794
 30
0.0
 11
1409.9033403763
 21
187.0788634794
 31
0.0
 12
1409.9033403763
 22
187.8888634794
 32
0.0
 13
1412.6033403763
 23
187.4838634794
 33
0.0
  0
SOLID
  5
606
100
AcDbEntity
  8
_Y__________
  6
CONTINUOUS
 62
         4
100
AcDbTrace
 10
1295.1033403763
 20
187.4838634794
 30
0.0
 11
1297.8033403763
 21
187.8888634794
 31
0.0
 12
1297.8033403763
 22
187.0788634794
 32
0.0
 13
1295.1033403763
 23
187.4838634794
 33
0.0
  0
TEXT
  5
608
100
AcDbEntity
  8
_Y__________
  6
CONTINUOUS
 62
         4
100
AcDbText
 10
1351.8554377613
 20
189.5088634794
 30
0.0
 40
2.7
  1
117.5
  7
BOX
100
AcDbText
  0
ENDBLK
  5
609
100
AcDbEntity
  8
0
  6
CONTINUOUS
100
AcDbBlockEnd
  0
BLOCK
  5
60B
100
AcDbEntity
  8
0
100
AcDbBlockBegin
  2
*D42
 70
        65
 10
0.0
 20
0.0
 30
0.0
  3
*D42
  1

  0
POINT
  5
60D
100
AcDbEntity
  8
DEFPOINTS
  6
CONTINUOUS
 62
         0
100
AcDbPoint
 10
1419.1033403763
 20
187.4838634794
 30
0.0
  0
POINT
  5
60E
100
AcDbEntity
  8
DEFPOINTS
  6
CONTINUOUS
 62
         0
100
AcDbPoint
 10
1419.1033403763
 20
165.9846417294
 30
0.0
  0
POINT
  5
60F
100
AcDbEntity
  8
DEFPOINTS
  6
CONTINUOUS
 62
         0
100
AcDbPoint
 10
1412.6033403763
 20
165.9846417294
 30
0.0
  0
LINE
  5
610
100
AcDbEntity
  8
_Y__________
  6
CONTINUOUS
 62
         4
100
AcDbLine
 10
1419.1033403763
 20
167.3346417294
 30
0.0
 11
1419.1033403763
 21
188.1588634794
 31
0.0
  0
LINE
  5
611
100
AcDbEntity
  8
_Y__________
  6
CONTINUOUS
 62
         4
100
AcDbLine
 10
1412.6033403763
 20
167.3346417294
 30
0.0
 11
1412.6033403763
 21
188.1588634794
 31
0.0
  0
LINE
  5
612
100
AcDbEntity
  8
_Y__________
  6
CONTINUOUS
 62
         4
100
AcDbLine
 10
1419.1033403763
 20
187.4838634794
 30
0.0
 11
1412.6033403763
 21
187.4838634794
 31
0.0
  0
SOLID
  5
613
100
AcDbEntity
  8
_Y__________
  6
CONTINUOUS
 62
         4
100
AcDbTrace
 10
1419.1033403763
 20
187.4838634794
 30
0.0
 11
1416.4033403763
 21
187.0788634794
 31
0.0
 12
1416.4033403763
 22
187.8888634794
 32
0.0
 13
1419.1033403763
 23
187.4838634794
 33
0.0
  0
SOLID
  5
614
100
AcDbEntity
  8
_Y__________
  6
CONTINUOUS
 62
         4
100
AcDbTrace
 10
1412.6033403763
 20
187.4838634794
 30
0.0
 11
1415.3033403763
 21
187.8888634794
 31
0.0
 12
1415.3033403763
 22
187.0788634794
 32
0.0
 13
1412.6033403763
 23
187.4838634794
 33
0.0
  0
TEXT
  5
616
100
AcDbEntity
  8
_Y__________
  6
CONTINUOUS
 62
         4
100
AcDbText
 10
1412.2826285563
 20
189.5088634794
 30
0.0
 40
2.7
  1
6.5
  7
BOX
100
AcDbText
  0
ENDBLK
  5
617
100
AcDbEntity
  8
0
  6
CONTINUOUS
100
AcDbBlockEnd
  0
BLOCK
  5
619
100
AcDbEntity
  8
0
100
AcDbBlockBegin
  2
*D43
 70
        65
 10
0.0
 20
0.0
 30
0.0
  3
*D43
  1

  0
POINT
  5
61B
100
AcDbEntity
  8
DEFPOINTS
  6
CONTINUOUS
 62
         0
100
AcDbPoint
 10
1410.3159260835
 20
165.8181417294
 30
0.0
  0
POINT
  5
61C
100
AcDbEntity
  8
DEFPOINTS
  6
CONTINUOUS
 62
         0
100
AcDbPoint
 10
1412.6033403763
 20
165.8181417294
 30
0.0
  0
POINT
  5
61D
100
AcDbEntity
  8
DEFPOINTS
  6
CONTINUOUS
 62
         0
100
AcDbPoint
 10
1412.6033403763
 20
134.5511417294
 30
0.0
  0
LINE
  5
61E
100
AcDbEntity
  8
_Y__________
  6
CONTINUOUS
 62
         4
100
AcDbLine
 10
1411.2533403763
 20
165.8181417294
 30
0.0
 11
1409.6409260835
 21
165.8181417294
 31
0.0
  0
LINE
  5
61F
100
AcDbEntity
  8
_Y__________
  6
CONTINUOUS
 62
         4
100
AcDbLine
 10
1411.2533403763
 20
134.5511417294
 30
0.0
 11
1409.6409260835
 21
134.5511417294
 31
0.0
  0
LINE
  5
620
100
AcDbEntity
  8
_Y__________
  6
CONTINUOUS
 62
         4
100
AcDbLine
 10
1410.3159260835
 20
165.8181417294
 30
0.0
 11
1410.3159260835
 21
134.5511417294
 31
0.0
  0
SOLID
  5
621
100
AcDbEntity
  8
_Y__________
  6
CONTINUOUS
 62
         4
100
AcDbTrace
 10
1410.3159260835
 20
165.8181417294
 30
0.0
 11
1410.7209260835
 21
163.1181417294
 31
0.0
 12
1409.9109260835
 22
163.1181417294
 32
0.0
 13
1410.3159260835
 23
165.8181417294
 33
0.0
  0
SOLID
  5
622
100
AcDbEntity
  8
_Y__________
  6
CONTINUOUS
 62
         4
100
AcDbTrace
 10
1410.3159260835
 20
134.5511417294
 30
0.0
 11
1409.9109260835
 21
137.2511417294
 31
0.0
 12
1410.7209260835
 22
137.2511417294
 32
0.0
 13
1410.3159260835
 23
134.5511417294
 33
0.0
  0
TEXT
  5
624
100
AcDbEntity
  8
_Y__________
  6
CONTINUOUS
 62
         4
100
AcDbText
 10
1408.2909260835
 20
138.957561448
 30
0.0
 40
2.7
  1
崷31.26
 50
90.0
  7
BOX
100
AcDbText
  0
ENDBLK
  5
625
100
AcDbEntity
  8
0
  6
CONTINUOUS
100
AcDbBlockEnd
  0
BLOCK
  5
627
100
AcDbEntity
  8
0
100
AcDbBlockBegin
  2
*D44
 70
        65
 10
0.0
 20
0.0
 30
0.0
  3
*D44
  1

  0
POINT
  5
629
100
AcDbEntity
  8
DEFPOINTS
  6
CONTINUOUS
 62
         0
100
AcDbPoint
 10
1280.0048439884
 20
156.1346417294
 30
0.0
  0
POINT
  5
62A
100
AcDbEntity
  8
DEFPOINTS
  6
CONTINUOUS
 62
         0
100
AcDbPoint
 10
1295.1033403763
 20
156.1346417294
 30
0.0
  0
POINT
  5
62B
100
AcDbEntity
  8
DEFPOINTS
  6
CONTINUOUS
 62
         0
100
AcDbPoint
 10
1295.1033403763
 20
144.2346417294
 30
0.0
  0
LINE
  5
62C
100
AcDbEntity
  8
_Y__________
  6
CONTINUOUS
 62
         4
100
AcDbLine
 10
1293.7533403763
 20
156.1346417294
 30
0.0
 11
1279.3298439884
 21
156.1346417294
 31
0.0
  0
LINE
  5
62D
100
AcDbEntity
  8
_Y__________
  6
CONTINUOUS
 62
         4
100
AcDbLine
 10
1293.7533403763
 20
144.2346417294
 30
0.0
 11
1279.3298439884
 21
144.2346417294
 31
0.0
  0
LINE
  5
62E
100
AcDbEntity
  8
_Y__________
  6
CONTINUOUS
 62
         4
100
AcDbLine
 10
1280.0048439884
 20
156.1346417294
 30
0.0
 11
1280.0048439884
 21
144.2346417294
 31
0.0
  0
SOLID
  5
62F
100
AcDbEntity
  8
_Y__________
  6
CONTINUOUS
 62
         4
100
AcDbTrace
 10
1280.0048439884
 20
156.1346417294
 30
0.0
 11
1280.4098439884
 21
153.4346417294
 31
0.0
 12
1279.5998439884
 22
153.4346417294
 32
0.0
 13
1280.0048439884
 23
156.1346417294
 33
0.0
  0
SOLID
  5
630
100
AcDbEntity
  8
_Y__________
  6
CONTINUOUS
 62
         4
100
AcDbTrace
 10
1280.0048439884
 20
144.2346417294
 30
0.0
 11
1279.5998439884
 21
146.9346417294
 31
0.0
 12
1280.4098439884
 22
146.9346417294
 32
0.0
 13
1280.0048439884
 23
144.2346417294
 33
0.0
  0
TEXT
  5
632
100
AcDbEntity
  8
_Y__________
  6
CONTINUOUS
 62
         4
100
AcDbText
 10
1277.9798439884
 20
144.7846417294
 30
0.0
 40
2.7
  1
11.9
 50
90.0
  7
BOX
100
AcDbText
  0
ENDBLK
  5
633
100
AcDbEntity
  8
0
  6
CONTINUOUS
100
AcDbBlockEnd
  0
BLOCK
  5
635
100
AcDbEntity
  8
0
100
AcDbBlockBegin
  2
*D45
 70
        65
 10
0.0
 20
0.0
 30
0.0
  3
*D45
  1

  0
POINT
  5
637
100
AcDbEntity
  8
DEFPOINTS
  6
CONTINUOUS
 62
         0
100
AcDbPoint
 10
1484.0082741959
 20
115.714967216
 30
0.0
  0
POINT
  5
638
100
AcDbEntity
  8
DEFPOINTS
  6
CONTINUOUS
 62
         0
100
AcDbPoint
 10
1484.0082741959
 20
145.2146417294
 30
0.0
  0
POINT
  5
639
100
AcDbEntity
  8
DEFPOINTS
  6
CONTINUOUS
 62
         0
100
AcDbPoint
 10
1513.6033403763
 20
132.7619919986
 30
0.0
  0
LINE
  5
63A
100
AcDbEntity
  8
_Y__________
  6
CONTINUOUS
 62
         4
100
AcDbLine
 10
1484.0082741959
 20
143.8646417294
 30
0.0
 11
1484.0082741959
 21
115.039967216
 31
0.0
  0
LINE
  5
63B
100
AcDbEntity
  8
_Y__________
  6
CONTINUOUS
 62
         4
100
AcDbLine
 10
1513.6033403763
 20
131.4119919986
 30
0.0
 11
1513.6033403763
 21
115.039967216
 31
0.0
  0
LINE
  5
63C
100
AcDbEntity
  8
_Y__________
  6
CONTINUOUS
 62
         4
100
AcDbLine
 10
1484.0082741959
 20
115.714967216
 30
0.0
 11
1513.6033403763
 21
115.714967216
 31
0.0
  0
SOLID
  5
63D
100
AcDbEntity
  8
_Y__________
  6
CONTINUOUS
 62
         4
100
AcDbTrace
 10
1484.0082741959
 20
115.714967216
 30
0.0
 11
1486.7082741959
 21
116.119967216
 31
0.0
 12
1486.7082741959
 22
115.309967216
 32
0.0
 13
1484.0082741959
 23
115.714967216
 33
0.0
  0
SOLID
  5
63E
100
AcDbEntity
  8
_Y__________
  6
CONTINUOUS
 62
         4
100
AcDbTrace
 10
1513.6033403763
 20
115.714967216
 30
0.0
 11
1510.9033403763
 21
115.309967216
 31
0.0
 12
1510.9033403763
 22
116.119967216
 32
0.0
 13
1513.6033403763
 23
115.714967216
 33
0.0
  0
TEXT
  5
640
100
AcDbEntity
  8
_Y__________
  6
CONTINUOUS
 62
         4
100
AcDbText
 10
1493.1808072861
 20
118.846967216
 30
0.0
 40
2.7
  1
29.6
  7
BOX
100
AcDbText
  0
ENDBLK
  5
641
100
AcDbEntity
  8
0
  6
CONTINUOUS
100
AcDbBlockEnd
  0
BLOCK
  5
643
100
AcDbEntity
  8
0
100
AcDbBlockBegin
  2
*D46
 70
        65
 10
0.0
 20
0.0
 30
0.0
  3
*D46
  1

  0
POINT
  5
645
100
AcDbEntity
  8
DEFPOINTS
  6
CONTINUOUS
 62
         0
100
AcDbPoint
 10
1469.0083403763
 20
105.7739192814
 30
0.0
  0
POINT
  5
646
100
AcDbEntity
  8
DEFPOINTS
  6
CONTINUOUS
 62
         0
100
AcDbPoint
 10
1469.0083403763
 20
145.2146417294
 30
0.0
  0
POINT
  5
647
100
AcDbEntity
  8
DEFPOINTS
  6
CONTINUOUS
 62
         0
100
AcDbPoint
 10
1513.6033403763
 20
132.7619919986
 30
0.0
  0
LINE
  5
648
100
AcDbEntity
  8
_Y__________
  6
CONTINUOUS
 62
         4
100
AcDbLine
 10
1469.0083403763
 20
143.8646417294
 30
0.0
 11
1469.0083403763
 21
105.0989192814
 31
0.0
  0
LINE
  5
649
100
AcDbEntity
  8
_Y__________
  6
CONTINUOUS
 62
         4
100
AcDbLine
 10
1513.6033403763
 20
131.4119919986
 30
0.0
 11
1513.6033403763
 21
105.0989192814
 31
0.0
  0
LINE
  5
64A
100
AcDbEntity
  8
_Y__________
  6
CONTINUOUS
 62
         4
100
AcDbLine
 10
1469.0083403763
 20
105.7739192814
 30
0.0
 11
1513.6033403763
 21
105.7739192814
 31
0.0
  0
SOLID
  5
64B
100
AcDbEntity
  8
_Y__________
  6
CONTINUOUS
 62
         4
100
AcDbTrace
 10
1469.0083403763
 20
105.7739192814
 30
0.0
 11
1471.7083403763
 21
106.1789192814
 31
0.0
 12
1471.7083403763
 22
105.3689192814
 32
0.0
 13
1469.0083403763
 23
105.7739192814
 33
0.0
  0
SOLID
  5
64C
100
AcDbEntity
  8
_Y__________
  6
CONTINUOUS
 62
         4
100
AcDbTrace
 10
1513.6033403763
 20
105.7739192814
 30
0.0
 11
1510.9033403763
 21
105.3689192814
 31
0.0
 12
1510.9033403763
 22
106.1789192814
 32
0.0
 13
1513.6033403763
 23
105.7739192814
 33
0.0
  0
TEXT
  5
64E
100
AcDbEntity
  8
_Y__________
  6
CONTINUOUS
 62
         4
100
AcDbText
 10
1480.1689703403
 20
108.9059192814
 30
0.0
 40
2.7
  1
44.6
  7
BOX
100
AcDbText
  0
ENDBLK
  5
64F
100
AcDbEntity
  8
0
  6
CONTINUOUS
100
AcDbBlockEnd
  0
BLOCK
  5
651
100
AcDbEntity
  8
0
100
AcDbBlockBegin
  2
*D47
 70
        65
 10
0.0
 20
0.0
 30
0.0
  3
*D47
  1

  0
POINT
  5
653
100
AcDbEntity
  8
DEFPOINTS
  6
CONTINUOUS
 62
         0
100
AcDbPoint
 10
1478.6839644772
 20
154.9846417294
 30
0.0
  0
POINT
  5
654
100
AcDbEntity
  8
DEFPOINTS
  6
CONTINUOUS
 62
         0
100
AcDbPoint
 10
1469.0083403763
 20
154.9846417294
 30
0.0
  0
POINT
  5
655
100
AcDbEntity
  8
DEFPOINTS
  6
CONTINUOUS
 62
         0
100
AcDbPoint
 10
1469.0083403763
 20
145.3846417294
 30
0.0
  0
LINE
  5
656
100
AcDbEntity
  8
_Y__________
  6
CONTINUOUS
 62
         4
100
AcDbLine
 10
1470.3583403763
 20
154.9846417294
 30
0.0
 11
1479.3589644772
 21
154.9846417294
 31
0.0
  0
LINE
  5
657
100
AcDbEntity
  8
_Y__________
  6
CONTINUOUS
 62
         4
100
AcDbLine
 10
1470.3583403763
 20
145.3846417294
 30
0.0
 11
1479.3589644772
 21
145.3846417294
 31
0.0
  0
LINE
  5
658
100
AcDbEntity
  8
_Y__________
  6
CONTINUOUS
 62
         4
100
AcDbLine
 10
1478.6839644772
 20
154.9846417294
 30
0.0
 11
1478.6839644772
 21
160.3846417294
 31
0.0
  0
SOLID
  5
659
100
AcDbEntity
  8
_Y__________
  6
CONTINUOUS
 62
         4
100
AcDbTrace
 10
1478.6839644772
 20
154.9846417294
 30
0.0
 11
1478.2789644772
 21
157.6846417294
 31
0.0
 12
1479.0889644772
 22
157.6846417294
 32
0.0
 13
1478.6839644772
 23
154.9846417294
 33
0.0
  0
LINE
  5
65A
100
AcDbEntity
  8
_Y__________
  6
CONTINUOUS
 62
         4
100
AcDbLine
 10
1478.6839644772
 20
145.3846417294
 30
0.0
 11
1478.6839644772
 21
113.6751447769
 31
0.0
  0
SOLID
  5
65B
100
AcDbEntity
  8
_Y__________
  6
CONTINUOUS
 62
         4
100
AcDbTrace
 10
1478.6839644772
 20
145.3846417294
 30
0.0
 11
1479.0889644772
 21
142.6846417294
 31
0.0
 12
1478.2789644772
 22
142.6846417294
 32
0.0
 13
1478.6839644772
 23
145.3846417294
 33
0.0
  0
LINE
  5
65C
100
AcDbEntity
  8
_Y__________
  6
CONTINUOUS
 62
         4
100
AcDbLine
 10
1478.6839644772
 20
154.9846417294
 30
0.0
 11
1478.6839644772
 21
145.3846417294
 31
0.0
  0
TEXT
  5
65E
100
AcDbEntity
  8
_Y__________
  6
CONTINUOUS
 62
         4
100
AcDbText
 10
1475.5519644772
 20
115.0251447769
 30
0.0
 40
2.7
  1
9.55
 50
90.0
  7
BOX
100
AcDbText
  0
ENDBLK
  5
65F
100
AcDbEntity
  8
0
  6
CONTINUOUS
100
AcDbBlockEnd
  0
BLOCK
  5
661
100
AcDbEntity
  8
0
100
AcDbBlockBegin
  2
*D48
 70
        65
 10
0.0
 20
0.0
 30
0.0
  3
*D48
  1

  0
POINT
  5
663
100
AcDbEntity
  8
DEFPOINTS
  6
CONTINUOUS
 62
         0
100
AcDbPoint
 10
1543.2880281053
 20
169.6846417294
 30
0.0
  0
POINT
  5
664
100
AcDbEntity
  8
DEFPOINTS
  6
CONTINUOUS
 62
         0
100
AcDbPoint
 10
1494.6033403763
 20
169.6846417294
 30
0.0
  0
POINT
  5
665
100
AcDbEntity
  8
DEFPOINTS
  6
CONTINUOUS
 62
         0
100
AcDbPoint
 10
1494.6033403763
 20
130.6846417294
 30
0.0
  0
LINE
  5
666
100
AcDbEntity
  8
_Y__________
  6
CONTINUOUS
 62
         4
100
AcDbLine
 10
1495.9533403763
 20
169.6846417294
 30
0.0
 11
1543.9630281053
 21
169.6846417294
 31
0.0
  0
LINE
  5
667
100
AcDbEntity
  8
_Y__________
  6
CONTINUOUS
 62
         4
100
AcDbLine
 10
1495.9533403763
 20
130.6846417294
 30
0.0
 11
1543.9630281053
 21
130.6846417294
 31
0.0
  0
LINE
  5
668
100
AcDbEntity
  8
_Y__________
  6
CONTINUOUS
 62
         4
100
AcDbLine
 10
1543.2880281053
 20
169.6846417294
 30
0.0
 11
1543.2880281053
 21
130.6846417294
 31
0.0
  0
SOLID
  5
669
100
AcDbEntity
  8
_Y__________
  6
CONTINUOUS
 62
         4
100
AcDbTrace
 10
1543.2880281053
 20
169.6846417294
 30
0.0
 11
1543.6930281053
 21
166.9846417294
 31
0.0
 12
1542.8830281053
 22
166.9846417294
 32
0.0
 13
1543.2880281053
 23
169.6846417294
 33
0.0
  0
SOLID
  5
66A
100
AcDbEntity
  8
_Y__________
  6
CONTINUOUS
 62
         4
100
AcDbTrace
 10
1543.2880281053
 20
130.6846417294
 30
0.0
 11
1542.8830281053
 21
133.3846417294
 31
0.0
 12
1543.6930281053
 22
133.3846417294
 32
0.0
 13
1543.2880281053
 23
130.6846417294
 33
0.0
  0
TEXT
  5
66C
100
AcDbEntity
  8
_Y__________
  6
CONTINUOUS
 62
         4
100
AcDbText
 10
1540.1560281053
 20
140.3473538612
 30
0.0
 40
2.7
  1
崷39
 50
90.0
  7
BOX
100
AcDbText
  0
ENDBLK
  5
66D
100
AcDbEntity
  8
0
  6
CONTINUOUS
100
AcDbBlockEnd
  0
BLOCK
  5
66F
100
AcDbEntity
  8
0
100
AcDbBlockBegin
  2
*D49
 70
        65
 10
0.0
 20
0.0
 30
0.0
  3
*D49
  1

  0
POINT
  5
671
100
AcDbEntity
  8
DEFPOINTS
  6
CONTINUOUS
 62
         0
100
AcDbPoint
 10
1552.5393492817
 20
170.6846417294
 30
0.0
  0
POINT
  5
672
100
AcDbEntity
  8
DEFPOINTS
  6
CONTINUOUS
 62
         0
100
AcDbPoint
 10
1507.8712895687
 20
170.6846417294
 30
0.0
  0
POINT
  5
673
100
AcDbEntity
  8
DEFPOINTS
  6
CONTINUOUS
 62
         0
100
AcDbPoint
 10
1507.8712895687
 20
129.6846417294
 30
0.0
  0
LINE
  5
674
100
AcDbEntity
  8
_Y__________
  6
CONTINUOUS
 62
         4
100
AcDbLine
 10
1509.2212895687
 20
170.6846417294
 30
0.0
 11
1553.2143492817
 21
170.6846417294
 31
0.0
  0
LINE
  5
675
100
AcDbEntity
  8
_Y__________
  6
CONTINUOUS
 62
         4
100
AcDbLine
 10
1509.2212895687
 20
129.6846417294
 30
0.0
 11
1553.2143492817
 21
129.6846417294
 31
0.0
  0
LINE
  5
676
100
AcDbEntity
  8
_Y__________
  6
CONTINUOUS
 62
         4
100
AcDbLine
 10
1552.5393492817
 20
170.6846417294
 30
0.0
 11
1552.5393492817
 21
129.6846417294
 31
0.0
  0
SOLID
  5
677
100
AcDbEntity
  8
_Y__________
  6
CONTINUOUS
 62
         4
100
AcDbTrace
 10
1552.5393492817
 20
170.6846417294
 30
0.0
 11
1552.9443492817
 21
167.9846417294
 31
0.0
 12
1552.1343492817
 22
167.9846417294
 32
0.0
 13
1552.5393492817
 23
170.6846417294
 33
0.0
  0
SOLID
  5
678
100
AcDbEntity
  8
_Y__________
  6
CONTINUOUS
 62
         4
100
AcDbTrace
 10
1552.5393492817
 20
129.6846417294
 30
0.0
 11
1552.1343492817
 21
132.3846417294
 31
0.0
 12
1552.9443492817
 22
132.3846417294
 32
0.0
 13
1552.5393492817
 23
129.6846417294
 33
0.0
  0
TEXT
  5
67A
100
AcDbEntity
  8
_Y__________
  6
CONTINUOUS
 62
         4
100
AcDbText
 10
1549.4073492817
 20
139.2528174198
 30
0.0
 40
2.7
  1
崷41
 50
90.0
  7
BOX
100
AcDbText
  0
ENDBLK
  5
67B
100
AcDbEntity
  8
0
  6
CONTINUOUS
100
AcDbBlockEnd
  0
BLOCK
  5
67D
100
AcDbEntity
  8
0
100
AcDbBlockBegin
  2
*D50
 70
        65
 10
0.0
 20
0.0
 30
0.0
  3
*D50
  1

  0
POINT
  5
67F
100
AcDbEntity
  8
DEFPOINTS
  6
CONTINUOUS
 62
         0
100
AcDbPoint
 10
1492.6033403763
 20
182.7299277772
 30
0.0
  0
POINT
  5
680
100
AcDbEntity
  8
DEFPOINTS
  6
CONTINUOUS
 62
         0
100
AcDbPoint
 10
1492.6033403763
 20
170.6846417294
 30
0.0
  0
POINT
  5
681
100
AcDbEntity
  8
DEFPOINTS
  6
CONTINUOUS
 62
         0
100
AcDbPoint
 10
1494.6033403763
 20
170.6846417294
 30
0.0
  0
LINE
  5
682
100
AcDbEntity
  8
_Y__________
  6
CONTINUOUS
 62
         4
100
AcDbLine
 10
1492.6033403763
 20
172.0346417294
 30
0.0
 11
1492.6033403763
 21
183.4049277772
 31
0.0
  0
LINE
  5
683
100
AcDbEntity
  8
_Y__________
  6
CONTINUOUS
 62
         4
100
AcDbLine
 10
1494.6033403763
 20
172.0346417294
 30
0.0
 11
1494.6033403763
 21
183.4049277772
 31
0.0
  0
LINE
  5
684
100
AcDbEntity
  8
_Y__________
  6
CONTINUOUS
 62
         4
100
AcDbLine
 10
1492.6033403763
 20
182.7299277772
 30
0.0
 11
1487.2033403763
 21
182.7299277772
 31
0.0
  0
SOLID
  5
685
100
AcDbEntity
  8
_Y__________
  6
CONTINUOUS
 62
         4
100
AcDbTrace
 10
1492.6033403763
 20
182.7299277772
 30
0.0
 11
1489.9033403763
 21
182.3249277772
 31
0.0
 12
1489.9033403763
 22
183.1349277772
 32
0.0
 13
1492.6033403763
 23
182.7299277772
 33
0.0
  0
LINE
  5
686
100
AcDbEntity
  8
_Y__________
  6
CONTINUOUS
 62
         4
100
AcDbLine
 10
1494.6033403763
 20
182.7299277772
 30
0.0
 11
1501.3302489371
 21
182.7299277772
 31
0.0
  0
SOLID
  5
687
100
AcDbEntity
  8
_Y__________
  6
CONTINUOUS
 62
         4
100
AcDbTrace
 10
1494.6033403763
 20
182.7299277772
 30
0.0
 11
1497.3033403763
 21
183.1349277772
 31
0.0
 12
1497.3033403763
 22
182.3249277772
 32
0.0
 13
1494.6033403763
 23
182.7299277772
 33
0.0
  0
LINE
  5
688
100
AcDbEntity
  8
_Y__________
  6
CONTINUOUS
 62
         4
100
AcDbLine
 10
1492.6033403763
 20
182.7299277772
 30
0.0
 11
1494.6033403763
 21
182.7299277772
 31
0.0
  0
TEXT
  5
68A
100
AcDbEntity
  8
_Y__________
  6
CONTINUOUS
 62
         4
100
AcDbText
 10
1496.3802489371
 20
185.8619277772
 30
0.0
 40
2.7
  1
2
  7
BOX
100
AcDbText
  0
ENDBLK
  5
68B
100
AcDbEntity
  8
0
  6
CONTINUOUS
100
AcDbBlockEnd
  0
BLOCK
  5
68D
100
AcDbEntity
  8
0
100
AcDbBlockBegin
  2
*D51
 70
        65
 10
0.0
 20
0.0
 30
0.0
  3
*D51
  1

  0
POINT
  5
68F
100
AcDbEntity
  8
DEFPOINTS
  6
CONTINUOUS
 62
         0
100
AcDbPoint
 10
1513.6033403763
 20
192.0000383803
 30
0.0
  0
POINT
  5
690
100
AcDbEntity
  8
DEFPOINTS
  6
CONTINUOUS
 62
         0
100
AcDbPoint
 10
1513.6033403763
 20
167.6072914602
 30
0.0
  0
POINT
  5
691
100
AcDbEntity
  8
DEFPOINTS
  6
CONTINUOUS
 62
         0
100
AcDbPoint
 10
1492.6033403763
 20
170.6846417294
 30
0.0
  0
LINE
  5
692
100
AcDbEntity
  8
_Y__________
  6
CONTINUOUS
 62
         4
100
AcDbLine
 10
1513.6033403763
 20
168.9572914602
 30
0.0
 11
1513.6033403763
 21
192.6750383803
 31
0.0
  0
LINE
  5
693
100
AcDbEntity
  8
_Y__________
  6
CONTINUOUS
 62
         4
100
AcDbLine
 10
1492.6033403763
 20
172.0346417294
 30
0.0
 11
1492.6033403763
 21
192.6750383803
 31
0.0
  0
LINE
  5
694
100
AcDbEntity
  8
_Y__________
  6
CONTINUOUS
 62
         4
100
AcDbLine
 10
1513.6033403763
 20
192.0000383803
 30
0.0
 11
1492.6033403763
 21
192.0000383803
 31
0.0
  0
SOLID
  5
695
100
AcDbEntity
  8
_Y__________
  6
CONTINUOUS
 62
         4
100
AcDbTrace
 10
1513.6033403763
 20
192.0000383803
 30
0.0
 11
1510.9033403763
 21
191.5950383803
 31
0.0
 12
1510.9033403763
 22
192.4050383803
 32
0.0
 13
1513.6033403763
 23
192.0000383803
 33
0.0
  0
SOLID
  5
696
100
AcDbEntity
  8
_Y__________
  6
CONTINUOUS
 62
         4
100
AcDbTrace
 10
1492.6033403763
 20
192.0000383803
 30
0.0
 11
1495.3033403763
 21
192.4050383803
 31
0.0
 12
1495.3033403763
 22
191.5950383803
 32
0.0
 13
1492.6033403763
 23
192.0000383803
 33
0.0
  0
TEXT
  5
698
100
AcDbEntity
  8
_Y__________
  6
CONTINUOUS
 62
         4
100
AcDbText
 10
1500.1783403763
 20
195.1320383803
 30
0.0
 40
2.7
  1
21
  7
BOX
100
AcDbText
  0
ENDBLK
  5
699
100
AcDbEntity
  8
0
  6
CONTINUOUS
100
AcDbBlockEnd
  0
BLOCK
  5
69B
100
AcDbEntity
  8
0
100
AcDbBlockBegin
  2
*D52
 70
        65
 10
0.0
 20
0.0
 30
0.0
  3
*D52
  1

  0
POINT
  5
69D
100
AcDbEntity
  8
DEFPOINTS
  6
CONTINUOUS
 62
         0
100
AcDbPoint
 10
1513.6033403763
 20
202.3890449723
 30
0.0
  0
POINT
  5
69E
100
AcDbEntity
  8
DEFPOINTS
  6
CONTINUOUS
 62
         0
100
AcDbPoint
 10
1513.6033403763
 20
167.6072914602
 30
0.0
  0
POINT
  5
69F
100
AcDbEntity
  8
DEFPOINTS
  6
CONTINUOUS
 62
         0
100
AcDbPoint
 10
1460.6033403763
 20
171.6846417294
 30
0.0
  0
LINE
  5
6A0
100
AcDbEntity
  8
_Y__________
  6
CONTINUOUS
 62
         4
100
AcDbLine
 10
1513.6033403763
 20
168.9572914602
 30
0.0
 11
1513.6033403763
 21
203.0640449723
 31
0.0
  0
LINE
  5
6A1
100
AcDbEntity
  8
_Y__________
  6
CONTINUOUS
 62
         4
100
AcDbLine
 10
1460.6033403763
 20
173.0346417294
 30
0.0
 11
1460.6033403763
 21
203.0640449723
 31
0.0
  0
LINE
  5
6A2
100
AcDbEntity
  8
_Y__________
  6
CONTINUOUS
 62
         4
100
AcDbLine
 10
1513.6033403763
 20
202.3890449723
 30
0.0
 11
1460.6033403763
 21
202.3890449723
 31
0.0
  0
SOLID
  5
6A3
100
AcDbEntity
  8
_Y__________
  6
CONTINUOUS
 62
         4
100
AcDbTrace
 10
1513.6033403763
 20
202.3890449723
 30
0.0
 11
1510.9033403763
 21
201.9840449723
 31
0.0
 12
1510.9033403763
 22
202.7940449723
 32
0.0
 13
1513.6033403763
 23
202.3890449723
 33
0.0
  0
SOLID
  5
6A4
100
AcDbEntity
  8
_Y__________
  6
CONTINUOUS
 62
         4
100
AcDbTrace
 10
1460.6033403763
 20
202.3890449723
 30
0.0
 11
1463.3033403763
 21
202.7940449723
 31
0.0
 12
1463.3033403763
 22
201.9840449723
 32
0.0
 13
1460.6033403763
 23
202.3890449723
 33
0.0
  0
TEXT
  5
6A6
100
AcDbEntity
  8
_Y__________
  6
CONTINUOUS
 62
         4
100
AcDbText
 10
1480.9393196251
 20
205.5210449723
 30
0.0
 40
2.7
  1
53
  7
BOX
100
AcDbText
  0
ENDBLK
  5
6A7
100
AcDbEntity
  8
0
  6
CONTINUOUS
100
AcDbBlockEnd
  0
BLOCK
  5
6A9
100
AcDbEntity
  8
0
100
AcDbBlockBegin
  2
*X53
 70
        65
 10
0.0
 20
0.0
 30
0.0
  3
*X53
  1

  0
LINE
  5
6AA
100
AcDbEntity
  8
_Y__________
  6
CONTINUOUS
 62
         4
100
AcDbLine
 10
1509.4670146626
 20
-33.3054674863
 30
0.0
 11
1512.8291474082
 21
-29.9433347407
 31
0.0
  0
LINE
  5
6AB
100
AcDbEntity
  8
_Y__________
  6
CONTINUOUS
 62
         4
100
AcDbLine
 10
1505.086506721
 20
-33.4433347407
 30
0.0
 11
1508.586506721
 21
-29.9433347407
 31
0.0
  0
LINE
  5
6AC
100
AcDbEntity
  8
_Y__________
  6
CONTINUOUS
 62
         4
100
AcDbLine
 10
1500.8438660339
 20
-33.4433347407
 30
0.0
 11
1504.3438660339
 21
-29.9433347407
 31
0.0
  0
LINE
  5
6AD
100
AcDbEntity
  8
_Y__________
  6
CONTINUOUS
 62
         4
100
AcDbLine
 10
1496.6012253468
 20
-33.4433347407
 30
0.0
 11
1500.1012253468
 21
-29.9433347407
 31
0.0
  0
LINE
  5
6AE
100
AcDbEntity
  8
_Y__________
  6
CONTINUOUS
 62
         4
100
AcDbLine
 10
1492.3585846597
 20
-33.4433347407
 30
0.0
 11
1492.6033403763
 21
-33.1985790241
 31
0.0
  0
LINE
  5
6AF
100
AcDbEntity
  8
_Y__________
  6
CONTINUOUS
 62
         4
100
AcDbLine
 10
1493.3585846597
 20
-32.4433347407
 30
0.0
 11
1495.8585846597
 21
-29.9433347407
 31
0.0
  0
LINE
  5
6B0
100
AcDbEntity
  8
_Y__________
  6
CONTINUOUS
 62
         4
100
AcDbLine
 10
1488.1159439726
 20
-33.4433347407
 30
0.0
 11
1491.1159439726
 21
-30.4433347407
 31
0.0
  0
LINE
  5
6B1
100
AcDbEntity
  8
_Y__________
  6
CONTINUOUS
 62
         4
100
AcDbLine
 10
1483.8733032855
 20
-33.4433347407
 30
0.0
 11
1488.1860113995
 21
-29.1306266266
 31
0.0
  0
LINE
  5
6B2
100
AcDbEntity
  8
_Y__________
  6
CONTINUOUS
 62
         4
100
AcDbLine
 10
1479.6306625983
 20
-33.4433347407
 30
0.0
 11
1484.1306625983
 21
-28.9433347407
 31
0.0
  0
LINE
  5
6B3
100
AcDbEntity
  8
_Y__________
  6
CONTINUOUS
 62
         4
100
AcDbLine
 10
1475.3880219112
 20
-33.4433347407
 30
0.0
 11
1479.8880219112
 21
-28.9433347407
 31
0.0
  0
LINE
  5
6B4
100
AcDbEntity
  8
_Y__________
  6
CONTINUOUS
 62
         4
100
AcDbLine
 10
1512.8880219112
 20
4.0566652593
 30
0.0
 11
1513.6033245533
 21
4.7719679014
 31
0.0
  0
LINE
  5
6B5
100
AcDbEntity
  8
_Y__________
  6
CONTINUOUS
 62
         4
100
AcDbLine
 10
1471.1453812241
 20
-33.4433347407
 30
0.0
 11
1475.6453812241
 21
-28.9433347407
 31
0.0
  0
LINE
  5
6B6
100
AcDbEntity
  8
_Y__________
  6
CONTINUOUS
 62
         4
100
AcDbLine
 10
1508.6453812241
 20
4.0566652593
 30
0.0
 11
1511.0940948209
 21
6.5053788562
 31
0.0
  0
LINE
  5
6B7
100
AcDbEntity
  8
_Y__________
  6
CONTINUOUS
 62
         4
100
AcDbLine
 10
1466.902740537
 20
-33.4433347407
 30
0.0
 11
1471.402740537
 21
-28.9433347407
 31
0.0
  0
LINE
  5
6B8
100
AcDbEntity
  8
_Y__________
  6
CONTINUOUS
 62
         4
100
AcDbLine
 10
1504.402740537
 20
4.0566652593
 30
0.0
 11
1507.902740537
 21
7.5566652593
 31
0.0
  0
LINE
  5
6B9
100
AcDbEntity
  8
_Y__________
  6
CONTINUOUS
 62
         4
100
AcDbLine
 10
1462.7537675944
 20
-33.3496669961
 30
0.0
 11
1467.1600998499
 21
-28.9433347407
 31
0.0
  0
LINE
  5
6BA
100
AcDbEntity
  8
_Y__________
  6
CONTINUOUS
 62
         4
100
AcDbLine
 10
1500.1600998499
 20
4.0566652593
 30
0.0
 11
1503.6600998499
 21
7.5566652593
 31
0.0
  0
LINE
  5
6BB
100
AcDbEntity
  8
_Y__________
  6
CONTINUOUS
 62
         4
100
AcDbLine
 10
1456.4174591627
 20
-35.4433347407
 30
0.0
 11
1462.9174591627
 21
-28.9433347407
 31
0.0
  0
LINE
  5
6BC
100
AcDbEntity
  8
_Y__________
  6
CONTINUOUS
 62
         4
100
AcDbLine
 10
1495.9174591627
 20
4.0566652593
 30
0.0
 11
1499.4174591627
 21
7.5566652593
 31
0.0
  0
LINE
  5
6BD
100
AcDbEntity
  8
_Y__________
  6
CONTINUOUS
 62
         4
100
AcDbLine
 10
1452.1748184756
 20
-35.4433347407
 30
0.0
 11
1458.6748184756
 21
-28.9433347407
 31
0.0
  0
LINE
  5
6BE
100
AcDbEntity
  8
_Y__________
  6
CONTINUOUS
 62
         4
100
AcDbLine
 10
1492.1748184756
 20
4.5566652593
 30
0.0
 11
1494.1748184756
 21
6.5566652593
 31
0.0
  0
LINE
  5
6BF
100
AcDbEntity
  8
_Y__________
  6
CONTINUOUS
 62
         4
100
AcDbLine
 10
1494.6033403763
 20
6.98518716
 30
0.0
 11
1495.1748184756
 21
7.5566652593
 31
0.0
  0
LINE
  5
6C0
100
AcDbEntity
  8
_Y__________
  6
CONTINUOUS
 62
         4
100
AcDbLine
 10
1447.9321777885
 20
-35.4433347407
 30
0.0
 11
1449.1033403763
 21
-34.2721721529
 31
0.0
  0
LINE
  5
6C1
100
AcDbEntity
  8
_Y__________
  6
CONTINUOUS
 62
         4
100
AcDbLine
 10
1451.1033403763
 20
-32.2721721529
 30
0.0
 11
1454.4321777885
 21
-28.9433347407
 31
0.0
  0
LINE
  5
6C2
100
AcDbEntity
  8
_Y__________
  6
CONTINUOUS
 62
         4
100
AcDbLine
 10
1488.8082741959
 20
5.4327616667
 30
0.0
 11
1490.9321777885
 21
7.5566652593
 31
0.0
  0
LINE
  5
6C3
100
AcDbEntity
  8
_Y__________
  6
CONTINUOUS
 62
         4
100
AcDbLine
 10
1443.6895371014
 20
-35.4433347407
 30
0.0
 11
1449.1033403763
 21
-30.0295314658
 31
0.0
  0
LINE
  5
6C4
100
AcDbEntity
  8
_Y__________
  6
CONTINUOUS
 62
         4
100
AcDbLine
 10
1439.4468964143
 20
-35.4433347407
 30
0.0
 11
1447.6033403763
 21
-27.2868907787
 31
0.0
  0
LINE
  5
6C5
100
AcDbEntity
  8
_Y__________
  6
CONTINUOUS
 62
         4
100
AcDbLine
 10
1435.2042557271
 20
-35.4433347407
 30
0.0
 11
1447.6033403763
 21
-23.0442500916
 31
0.0
  0
LINE
  5
6C6
100
AcDbEntity
  8
_Y__________
  6
CONTINUOUS
 62
         4
100
AcDbLine
 10
1430.96161504
 20
-35.4433347407
 30
0.0
 11
1447.6033403763
 21
-18.8016094044
 31
0.0
  0
LINE
  5
6C7
100
AcDbEntity
  8
_Y__________
  6
CONTINUOUS
 62
         4
100
AcDbLine
 10
1426.7189743529
 20
-35.4433347407
 30
0.0
 11
1446.7189743529
 21
-15.4433347407
 31
0.0
  0
LINE
  5
6C8
100
AcDbEntity
  8
_Y__________
  6
CONTINUOUS
 62
         4
100
AcDbLine
 10
1422.4763336658
 20
-35.4433347407
 30
0.0
 11
1442.4763336658
 21
-15.4433347407
 31
0.0
  0
LINE
  5
6C9
100
AcDbEntity
  8
_Y__________
  6
CONTINUOUS
 62
         4
100
AcDbLine
 10
1447.4763336658
 20
-10.4433347407
 30
0.0
 11
1447.6033403763
 21
-10.3163280302
 31
0.0
  0
LINE
  5
6CA
100
AcDbEntity
  8
_Y__________
  6
CONTINUOUS
 62
         4
100
AcDbLine
 10
1460.9763336658
 20
3.0566652593
 30
0.0
 11
1464.2083403763
 21
6.2886719698
 31
0.0
  0
LINE
  5
6CB
100
AcDbEntity
  8
_Y__________
  6
CONTINUOUS
 62
         4
100
AcDbLine
 10
1419.1685166775
 20
-34.5085110419
 30
0.0
 11
1438.2336929787
 21
-15.4433347407
 31
0.0
  0
LINE
  5
6CC
100
AcDbEntity
  8
_Y__________
  6
CONTINUOUS
 62
         4
100
AcDbLine
 10
1443.2336929787
 20
-10.4433347407
 30
0.0
 11
1447.6033403763
 21
-6.0736873431
 31
0.0
  0
LINE
  5
6CD
100
AcDbEntity
  8
_Y__________
  6
CONTINUOUS
 62
         4
100
AcDbLine
 10
1456.7336929787
 20
3.0566652593
 30
0.0
 11
1461.0336929787
 21
7.3566652593
 31
0.0
  0
LINE
  5
6CE
100
AcDbEntity
  8
_Y__________
  6
CONTINUOUS
 62
         4
100
AcDbLine
 10
1419.1033403763
 20
-30.331046656
 30
0.0
 11
1433.9910522915
 21
-15.4433347407
 31
0.0
  0
LINE
  5
6CF
100
AcDbEntity
  8
_Y__________
  6
CONTINUOUS
 62
         4
100
AcDbLine
 10
1438.9910522915
 20
-10.4433347407
 30
0.0
 11
1447.6033403763
 21
-1.831046656
 31
0.0
  0
LINE
  5
6D0
100
AcDbEntity
  8
_Y__________
  6
CONTINUOUS
 62
         4
100
AcDbLine
 10
1452.6033403763
 20
3.168953344
 30
0.0
 11
1458.9910522915
 21
9.5566652593
 31
0.0
  0
LINE
  5
6D1
100
AcDbEntity
  8
_Y__________
  6
CONTINUOUS
 62
         4
100
AcDbLine
 10
1419.1033403763
 20
-26.0884059688
 30
0.0
 11
1431.5575239888
 21
-13.6342223563
 31
0.0
  0
LINE
  5
6D2
100
AcDbEntity
  8
_Y__________
  6
CONTINUOUS
 62
         4
100
AcDbLine
 10
1434.7484116044
 20
-10.4433347407
 30
0.0
 11
1447.6033403763
 21
2.4115940312
 31
0.0
  0
LINE
  5
6D3
100
AcDbEntity
  8
_Y__________
  6
CONTINUOUS
 62
         4
100
AcDbLine
 10
1448.7484116044
 20
3.5566652593
 30
0.0
 11
1454.7484116044
 21
9.5566652593
 31
0.0
  0
LINE
  5
6D4
100
AcDbEntity
  8
_Y__________
  6
CONTINUOUS
 62
         4
100
AcDbLine
 10
1419.1033403763
 20
-21.8457652817
 30
0.0
 11
1450.5057709173
 21
9.5566652593
 31
0.0
  0
LINE
  5
6D5
100
AcDbEntity
  8
_Y__________
  6
CONTINUOUS
 62
         4
100
AcDbLine
 10
1419.1033403763
 20
-17.6031245946
 30
0.0
 11
1446.2631302302
 21
9.5566652593
 31
0.0
  0
LINE
  5
6D6
100
AcDbEntity
  8
_Y__________
  6
CONTINUOUS
 62
         4
100
AcDbLine
 10
1419.1033403763
 20
-13.3604839075
 30
0.0
 11
1442.0204895431
 21
9.5566652593
 31
0.0
  0
LINE
  5
6D7
100
AcDbEntity
  8
_Y__________
  6
CONTINUOUS
 62
         4
100
AcDbLine
 10
1419.1033403763
 20
-9.1178432204
 30
0.0
 11
1437.7778488559
 21
9.5566652593
 31
0.0
  0
LINE
  5
6D8
100
AcDbEntity
  8
_Y__________
  6
CONTINUOUS
 62
         4
100
AcDbLine
 10
1419.1033403763
 20
-4.8752025332
 30
0.0
 11
1433.5352081688
 21
9.5566652593
 31
0.0
  0
LINE
  5
6D9
100
AcDbEntity
  8
_Y__________
  6
CONTINUOUS
 62
         4
100
AcDbLine
 10
1419.1033403763
 20
-0.6325618461
 30
0.0
 11
1429.2925674817
 21
9.5566652593
 31
0.0
  0
LINE
  5
6DA
100
AcDbEntity
  8
_Y__________
  6
CONTINUOUS
 62
         4
100
AcDbLine
 10
1419.1033403763
 20
3.610078841
 30
0.0
 11
1425.0499267946
 21
9.5566652593
 31
0.0
  0
LINE
  5
6DB
100
AcDbEntity
  8
_Y__________
  6
CONTINUOUS
 62
         4
100
AcDbLine
 10
1419.1033403763
 20
7.8527195281
 30
0.0
 11
1420.8072861075
 21
9.5566652593
 31
0.0
  0
ENDBLK
  5
6DC
100
AcDbEntity
  8
0
  6
CONTINUOUS
100
AcDbBlockEnd
  0
BLOCK
  5
6E4
100
AcDbEntity
  8
0
100
AcDbBlockBegin
  2
*D54
 70
        65
 10
0.0
 20
0.0
 30
0.0
  3
*D54
  1

  0
POINT
  5
6E6
100
AcDbEntity
  8
DEFPOINTS
  6
CONTINUOUS
 62
         0
100
AcDbPoint
 10
1464.2083403763
 20
14.1917360085
 30
0.0
  0
POINT
  5
6E7
100
AcDbEntity
  8
DEFPOINTS
  6
CONTINUOUS
 62
         0
100
AcDbPoint
 10
1464.2083403763
 20
7.5566652593
 30
0.0
  0
POINT
  5
6E8
100
AcDbEntity
  8
DEFPOINTS
  6
CONTINUOUS
 62
         0
100
AcDbPoint
 10
1488.8082741959
 20
7.5566652593
 30
0.0
  0
LINE
  5
6E9
100
AcDbEntity
  8
_Y__________
  6
CONTINUOUS
 62
         4
100
AcDbLine
 10
1464.2083403763
 20
8.9066652593
 30
0.0
 11
1464.2083403763
 21
14.8667360085
 31
0.0
  0
LINE
  5
6EA
100
AcDbEntity
  8
_Y__________
  6
CONTINUOUS
 62
         4
100
AcDbLine
 10
1488.8082741959
 20
8.9066652593
 30
0.0
 11
1488.8082741959
 21
14.8667360085
 31
0.0
  0
LINE
  5
6EB
100
AcDbEntity
  8
_Y__________
  6
CONTINUOUS
 62
         4
100
AcDbLine
 10
1464.2083403763
 20
14.1917360085
 30
0.0
 11
1488.8082741959
 21
14.1917360085
 31
0.0
  0
SOLID
  5
6EC
100
AcDbEntity
  8
_Y__________
  6
CONTINUOUS
 62
         4
100
AcDbTrace
 10
1464.2083403763
 20
14.1917360085
 30
0.0
 11
1466.9083403763
 21
14.5967360085
 31
0.0
 12
1466.9083403763
 22
13.7867360085
 32
0.0
 13
1464.2083403763
 23
14.1917360085
 33
0.0
  0
SOLID
  5
6ED
100
AcDbEntity
  8
_Y__________
  6
CONTINUOUS
 62
         4
100
AcDbTrace
 10
1488.8082741959
 20
14.1917360085
 30
0.0
 11
1486.1082741959
 21
13.7867360085
 31
0.0
 12
1486.1082741959
 22
14.5967360085
 32
0.0
 13
1488.8082741959
 23
14.1917360085
 33
0.0
  0
TEXT
  5
6EF
100
AcDbEntity
  8
_Y__________
  6
CONTINUOUS
 62
         4
100
AcDbText
 10
1465.6425313366
 20
17.3237360085
 30
0.0
 40
2.7
  1
24.6
  7
BOX
100
AcDbText
  0
ENDBLK
  5
6F0
100
AcDbEntity
  8
0
  6
CONTINUOUS
100
AcDbBlockEnd
  0
BLOCK
  5
6F2
100
AcDbEntity
  8
0
100
AcDbBlockBegin
  2
*D55
 70
        65
 10
0.0
 20
0.0
 30
0.0
  3
*D55
  1

  0
POINT
  5
6F4
100
AcDbEntity
  8
DEFPOINTS
  6
CONTINUOUS
 62
         0
100
AcDbPoint
 10
1513.6033403763
 20
-69.7717555683
 30
0.0
  0
POINT
  5
6F5
100
AcDbEntity
  8
DEFPOINTS
  6
CONTINUOUS
 62
         0
100
AcDbPoint
 10
1513.6033403763
 20
-30.3278646868
 30
0.0
  0
POINT
  5
6F6
100
AcDbEntity
  8
DEFPOINTS
  6
CONTINUOUS
 62
         0
100
AcDbPoint
 10
1447.6033403763
 20
-29.4433347407
 30
0.0
  0
LINE
  5
6F7
100
AcDbEntity
  8
_Y__________
  6
CONTINUOUS
 62
         4
100
AcDbLine
 10
1513.6033403763
 20
-31.6778646868
 30
0.0
 11
1513.6033403763
 21
-70.4467555683
 31
0.0
  0
LINE
  5
6F8
100
AcDbEntity
  8
_Y__________
  6
CONTINUOUS
 62
         4
100
AcDbLine
 10
1447.6033403763
 20
-30.7933347407
 30
0.0
 11
1447.6033403763
 21
-70.4467555683
 31
0.0
  0
LINE
  5
6F9
100
AcDbEntity
  8
_Y__________
  6
CONTINUOUS
 62
         4
100
AcDbLine
 10
1513.6033403763
 20
-69.7717555683
 30
0.0
 11
1447.6033403763
 21
-69.7717555683
 31
0.0
  0
SOLID
  5
6FA
100
AcDbEntity
  8
_Y__________
  6
CONTINUOUS
 62
         4
100
AcDbTrace
 10
1513.6033403763
 20
-69.7717555683
 30
0.0
 11
1510.9033403763
 21
-70.1767555683
 31
0.0
 12
1510.9033403763
 22
-69.3667555683
 32
0.0
 13
1513.6033403763
 23
-69.7717555683
 33
0.0
  0
SOLID
  5
6FB
100
AcDbEntity
  8
_Y__________
  6
CONTINUOUS
 62
         4
100
AcDbTrace
 10
1447.6033403763
 20
-69.7717555683
 30
0.0
 11
1450.3033403763
 21
-69.3667555683
 31
0.0
 12
1450.3033403763
 22
-70.1767555683
 32
0.0
 13
1447.6033403763
 23
-69.7717555683
 33
0.0
  0
TEXT
  5
6FD
100
AcDbEntity
  8
_Y__________
  6
CONTINUOUS
 62
         4
100
AcDbText
 10
1473.7185899024
 20
-66.6397555683
 30
0.0
 40
2.7
  1
66
  7
BOX
100
AcDbText
  0
ENDBLK
  5
6FE
100
AcDbEntity
  8
0
  6
CONTINUOUS
100
AcDbBlockEnd
  0
BLOCK
  5
700
100
AcDbEntity
  8
0
100
AcDbBlockBegin
  2
*D56
 70
        65
 10
0.0
 20
0.0
 30
0.0
  3
*D56
  1

  0
POINT
  5
702
100
AcDbEntity
  8
DEFPOINTS
  6
CONTINUOUS
 62
         0
100
AcDbPoint
 10
1513.6033403763
 20
-48.9530593812
 30
0.0
  0
POINT
  5
703
100
AcDbEntity
  8
DEFPOINTS
  6
CONTINUOUS
 62
         0
100
AcDbPoint
 10
1513.6033403763
 20
-30.3278646868
 30
0.0
  0
POINT
  5
704
100
AcDbEntity
  8
DEFPOINTS
  6
CONTINUOUS
 62
         0
100
AcDbPoint
 10
1488.6033403763
 20
-30.4433347407
 30
0.0
  0
LINE
  5
705
100
AcDbEntity
  8
_Y__________
  6
CONTINUOUS
 62
         4
100
AcDbLine
 10
1513.6033403763
 20
-31.6778646868
 30
0.0
 11
1513.6033403763
 21
-49.6280593812
 31
0.0
  0
LINE
  5
706
100
AcDbEntity
  8
_Y__________
  6
CONTINUOUS
 62
         4
100
AcDbLine
 10
1488.6033403763
 20
-31.7933347407
 30
0.0
 11
1488.6033403763
 21
-49.6280593812
 31
0.0
  0
LINE
  5
707
100
AcDbEntity
  8
_Y__________
  6
CONTINUOUS
 62
         4
100
AcDbLine
 10
1513.6033403763
 20
-48.9530593812
 30
0.0
 11
1488.6033403763
 21
-48.9530593812
 31
0.0
  0
SOLID
  5
708
100
AcDbEntity
  8
_Y__________
  6
CONTINUOUS
 62
         4
100
AcDbTrace
 10
1513.6033403763
 20
-48.9530593812
 30
0.0
 11
1510.9033403763
 21
-49.3580593812
 31
0.0
 12
1510.9033403763
 22
-48.5480593812
 32
0.0
 13
1513.6033403763
 23
-48.9530593812
 33
0.0
  0
SOLID
  5
709
100
AcDbEntity
  8
_Y__________
  6
CONTINUOUS
 62
         4
100
AcDbTrace
 10
1488.6033403763
 20
-48.9530593812
 30
0.0
 11
1491.3033403763
 21
-48.5480593812
 31
0.0
 12
1491.3033403763
 22
-49.3580593812
 32
0.0
 13
1488.6033403763
 23
-48.9530593812
 33
0.0
  0
TEXT
  5
70B
100
AcDbEntity
  8
_Y__________
  6
CONTINUOUS
 62
         4
100
AcDbText
 10
1495.4810669833
 20
-45.8210593812
 30
0.0
 40
2.7
  1
25
  7
BOX
100
AcDbText
  0
ENDBLK
  5
70C
100
AcDbEntity
  8
0
  6
CONTINUOUS
100
AcDbBlockEnd
  0
BLOCK
  5
70E
100
AcDbEntity
  8
0
100
AcDbBlockBegin
  2
*D57
 70
        65
 10
0.0
 20
0.0
 30
0.0
  3
*D57
  1

  0
POINT
  5
710
100
AcDbEntity
  8
DEFPOINTS
  6
CONTINUOUS
 62
         0
100
AcDbPoint
 10
1537.1641711857
 20
3.0566652593
 30
0.0
  0
POINT
  5
711
100
AcDbEntity
  8
DEFPOINTS
  6
CONTINUOUS
 62
         0
100
AcDbPoint
 10
1488.6033403763
 20
3.0566652593
 30
0.0
  0
POINT
  5
712
100
AcDbEntity
  8
DEFPOINTS
  6
CONTINUOUS
 62
         0
100
AcDbPoint
 10
1488.6033403763
 20
-28.9433347407
 30
0.0
  0
LINE
  5
713
100
AcDbEntity
  8
_Y__________
  6
CONTINUOUS
 62
         4
100
AcDbLine
 10
1489.9533403763
 20
3.0566652593
 30
0.0
 11
1537.8391711857
 21
3.0566652593
 31
0.0
  0
LINE
  5
714
100
AcDbEntity
  8
_Y__________
  6
CONTINUOUS
 62
         4
100
AcDbLine
 10
1489.9533403763
 20
-28.9433347407
 30
0.0
 11
1537.8391711857
 21
-28.9433347407
 31
0.0
  0
LINE
  5
715
100
AcDbEntity
  8
_Y__________
  6
CONTINUOUS
 62
         4
100
AcDbLine
 10
1537.1641711857
 20
3.0566652593
 30
0.0
 11
1537.1641711857
 21
-28.9433347407
 31
0.0
  0
SOLID
  5
716
100
AcDbEntity
  8
_Y__________
  6
CONTINUOUS
 62
         4
100
AcDbTrace
 10
1537.1641711857
 20
3.0566652593
 30
0.0
 11
1537.5691711857
 21
0.3566652593
 31
0.0
 12
1536.7591711857
 22
0.3566652593
 32
0.0
 13
1537.1641711857
 23
3.0566652593
 33
0.0
  0
SOLID
  5
717
100
AcDbEntity
  8
_Y__________
  6
CONTINUOUS
 62
         4
100
AcDbTrace
 10
1537.1641711857
 20
-28.9433347407
 30
0.0
 11
1536.7591711857
 21
-26.2433347407
 31
0.0
 12
1537.5691711857
 22
-26.2433347407
 32
0.0
 13
1537.1641711857
 23
-28.9433347407
 33
0.0
  0
TEXT
  5
719
100
AcDbEntity
  8
_Y__________
  6
CONTINUOUS
 62
         4
100
AcDbText
 10
1534.0321711857
 20
-20.9507516815
 30
0.0
 40
2.7
  1
崷32
 50
90.0
  7
BOX
100
AcDbText
  0
ENDBLK
  5
71A
100
AcDbEntity
  8
0
  6
CONTINUOUS
100
AcDbBlockEnd
  0
BLOCK
  5
71C
100
AcDbEntity
  8
0
100
AcDbBlockBegin
  2
*D58
 70
        65
 10
0.0
 20
0.0
 30
0.0
  3
*D58
  1

  0
POINT
  5
71E
100
AcDbEntity
  8
DEFPOINTS
  6
CONTINUOUS
 62
         0
100
AcDbPoint
 10
1549.2715864264
 20
4.0566652593
 30
0.0
  0
POINT
  5
71F
100
AcDbEntity
  8
DEFPOINTS
  6
CONTINUOUS
 62
         0
100
AcDbPoint
 10
1513.4033403763
 20
4.0566652593
 30
0.0
  0
POINT
  5
720
100
AcDbEntity
  8
DEFPOINTS
  6
CONTINUOUS
 62
         0
100
AcDbPoint
 10
1513.4033403763
 20
-29.9433347407
 30
0.0
  0
LINE
  5
721
100
AcDbEntity
  8
_Y__________
  6
CONTINUOUS
 62
         4
100
AcDbLine
 10
1514.7533403763
 20
4.0566652593
 30
0.0
 11
1549.9465864264
 21
4.0566652593
 31
0.0
  0
LINE
  5
722
100
AcDbEntity
  8
_Y__________
  6
CONTINUOUS
 62
         4
100
AcDbLine
 10
1514.7533403763
 20
-29.9433347407
 30
0.0
 11
1549.9465864264
 21
-29.9433347407
 31
0.0
  0
LINE
  5
723
100
AcDbEntity
  8
_Y__________
  6
CONTINUOUS
 62
         4
100
AcDbLine
 10
1549.2715864264
 20
4.0566652593
 30
0.0
 11
1549.2715864264
 21
-29.9433347407
 31
0.0
  0
SOLID
  5
724
100
AcDbEntity
  8
_Y__________
  6
CONTINUOUS
 62
         4
100
AcDbTrace
 10
1549.2715864264
 20
4.0566652593
 30
0.0
 11
1549.6765864264
 21
1.3566652593
 31
0.0
 12
1548.8665864264
 22
1.3566652593
 32
0.0
 13
1549.2715864264
 23
4.0566652593
 33
0.0
  0
SOLID
  5
725
100
AcDbEntity
  8
_Y__________
  6
CONTINUOUS
 62
         4
100
AcDbTrace
 10
1549.2715864264
 20
-29.9433347407
 30
0.0
 11
1548.8665864264
 21
-27.2433347407
 31
0.0
 12
1549.6765864264
 22
-27.2433347407
 32
0.0
 13
1549.2715864264
 23
-29.9433347407
 33
0.0
  0
TEXT
  5
727
100
AcDbEntity
  8
_Y__________
  6
CONTINUOUS
 62
         4
100
AcDbText
 10
1546.1395864264
 20
-21.6075939878
 30
0.0
 40
2.7
  1
崷34
 50
90.0
  7
BOX
100
AcDbText
  0
ENDBLK
  5
728
100
AcDbEntity
  8
0
  6
CONTINUOUS
100
AcDbBlockEnd
  0
ENDSEC
  0
SECTION
  2
ENTITIES
  0
LINE
  5
24
100
AcDbEntity
  8
L1_120
  6
CONTINUOUS
 62
         7
100
AcDbLine
 10
1513.1033403763
 20
4.0566652593
 30
0.0
 11
1493.6033403763
 21
4.0566652593
 31
0.0
  0
ARC
  5
25
100
AcDbEntity
  8
L1_120
  6
CONTINUOUS
 62
         7
100
AcDbCircle
 10
1513.1033403763
 20
4.5566652593
 30
0.0
 40
0.5
100
AcDbArc
 50
270.0
 51
360.0
  0
LINE
  5
26
100
AcDbEntity
  8
L1_120
  6
CONTINUOUS
 62
         7
100
AcDbLine
 10
1513.1033403763
 20
-29.9433347407
 30
0.0
 11
1493.6033403763
 21
-29.9433347407
 31
0.0
  0
ARC
  5
27
100
AcDbEntity
  8
L1_120
  6
CONTINUOUS
 62
         7
100
AcDbCircle
 10
1513.1033403763
 20
-30.4433347407
 30
0.0
 40
0.5
100
AcDbArc
 50
0.0
 51
90.0
  0
LINE
  5
28
100
AcDbEntity
  8
L1_120
  6
CONTINUOUS
 62
         7
100
AcDbLine
 10
1419.1033403763
 20
-34.4433347407
 30
0.0
 11
1420.1033403763
 21
-35.4433347407
 31
0.0
  0
LINE
  5
29
100
AcDbEntity
  8
L1_120
  6
CONTINUOUS
 62
         7
100
AcDbLine
 10
1420.1033403763
 20
9.5566652593
 30
0.0
 11
1419.1033403763
 21
8.5566652593
 31
0.0
  0
LINE
  5
2A
100
AcDbEntity
  8
L1_120
  6
CONTINUOUS
 62
         7
100
AcDbLine
 10
1420.1033403763
 20
172.6846417294
 30
0.0
 11
1419.1033403763
 21
171.6846417294
 31
0.0
  0
LINE
  5
2B
100
AcDbEntity
  8
L1_120
  6
CONTINUOUS
 62
         7
100
AcDbLine
 10
1419.1033403763
 20
128.6846417294
 30
0.0
 11
1420.1033403763
 21
127.6846417294
 31
0.0
  0
LINE
  5
2C
100
AcDbEntity
  8
_Y__________
  6
CENTER
 62
         1
100
AcDbLine
 10
1419.1033403763
 20
150.1846417294
 30
0.0
 11
1295.1033403763
 21
150.1846417294
 31
0.0
  0
LINE
  5
2D
100
AcDbEntity
  8
_Y__________
  6
CONTINUOUS
 62
         7
100
AcDbLine
 10
1319.1033403763
 20
136.9791129894
 30
0.0
 11
1318.1478116363
 21
137.9346417294
 31
0.0
  0
ARC
  5
2E
100
AcDbEntity
  8
_Y__________
  6
CONTINUOUS
 62
         7
100
AcDbCircle
 10
1310.3305231038
 20
136.2346417294
 30
0.0
 40
8.0
100
AcDbArc
 50
12.268898996
 51
90.0
  0
ARC
  5
2F
100
AcDbEntity
  8
_Y__________
  6
CONTINUOUS
 62
         7
100
AcDbCircle
 10
1310.3305231038
 20
164.1346417294
 30
0.0
 40
8.0
100
AcDbArc
 50
270.0
 51
347.731101004
  0
LINE
  5
30
100
AcDbEntity
  8
_Y__________
  6
CONTINUOUS
 62
         7
100
AcDbLine
 10
1319.1033403763
 20
163.3901704693
 30
0.0
 11
1318.1478116363
 21
162.4346417294
 31
0.0
  0
LINE
  5
31
100
AcDbEntity
  8
_Y__________
  6
CONTINUOUS
 62
         7
100
AcDbLine
 10
1318.1478116363
 20
137.9346417294
 30
0.0
 11
1318.1478116363
 21
162.4346417294
 31
0.0
  0
LINE
  5
32
100
AcDbEntity
  8
_Y__________
  6
CONTINUOUS
 62
         7
100
AcDbLine
 10
1319.1033403763
 20
136.9791129894
 30
0.0
 11
1319.0649430251
 21
137.0175103406
 31
0.0
  0
LINE
  5
33
100
AcDbEntity
  8
_Y__________
  6
CONTINUOUS
 62
         7
100
AcDbLine
 10
1319.1033403763
 20
163.3901704693
 30
0.0
 11
1319.0649430251
 21
163.3517731181
 31
0.0
  0
LINE
  5
34
100
AcDbEntity
  8
_Y__________
  6
CONTINUOUS
 62
         7
100
AcDbLine
 10
1310.3305231038
 20
144.2346417294
 30
0.0
 11
1296.8249656014
 21
144.2346417294
 31
0.0
  0
LINE
  5
35
100
AcDbEntity
  8
_Y__________
  6
CONTINUOUS
 62
         7
100
AcDbLine
 10
1310.3305231038
 20
156.1346417294
 30
0.0
 11
1296.8249656014
 21
156.1346417294
 31
0.0
  0
LINE
  5
36
100
AcDbEntity
  8
_Y__________
  6
CONTINUOUS
 62
         7
100
AcDbLine
 10
1319.1033403763
 20
136.9791129894
 30
0.0
 11
1319.1033403763
 21
163.3901704693
 31
0.0
  0
LINE
  5
37
100
AcDbEntity
  8
_Y__________
  6
CENTER
 62
         1
100
AcDbLine
 10
1412.6033403763
 20
134.3846417294
 30
0.0
 11
1412.6033403763
 21
165.9846417294
 31
0.0
  0
LINE
  5
38
100
AcDbEntity
  8
_Y__________
  6
CONTINUOUS
 62
         7
100
AcDbLine
 10
1319.1033403763
 20
136.9791129894
 30
0.0
 11
1415.2071758014
 21
134.4835263542
 31
0.0
  0
LINE
  5
39
100
AcDbEntity
  8
_Y__________
  6
CONTINUOUS
 62
         7
100
AcDbLine
 10
1319.1033403763
 20
163.3901704693
 30
0.0
 11
1415.2071758014
 21
165.8857571046
 31
0.0
  0
LINE
  5
3A
100
AcDbEntity
  8
_Y__________
  6
CONTINUOUS
 62
         7
100
AcDbLine
 10
1419.1033403763
 20
130.4848743058
 30
0.0
 11
1419.1033403763
 21
171.6846417294
 31
0.0
  0
LINE
  5
3B
100
AcDbEntity
  8
_Y__________
  6
CENTER
 62
         1
100
AcDbLine
 10
1295.1033403763
 20
150.1846417294
 30
0.0
 11
1295.7217989222
 21
152.3220571755
 31
0.0
  0
LINE
  5
3C
100
AcDbEntity
  8
_Y__________
  6
CENTER
 62
         1
100
AcDbLine
 10
1295.7217989222
 20
148.0472262833
 30
0.0
 11
1295.1033403763
 21
150.1846417294
 31
0.0
  0
ARC
  5
3D
100
AcDbEntity
  8
_Y__________
  6
CONTINUOUS
 62
         7
100
AcDbCircle
 10
1289.1505546632
 20
150.1846417294
 30
0.0
 40
6.9101227124
100
AcDbArc
 50
341.9819514213
 51
378.0180485787
  0
LINE
  5
3E
100
AcDbEntity
  8
_Y__________
  6
DASHED
 62
         2
100
AcDbLine
 10
1295.7217989222
 20
152.3220571755
 30
0.0
 11
1298.0382704257
 21
150.9846417294
 31
0.0
  0
LINE
  5
3F
100
AcDbEntity
  8
_Y__________
  6
DASHED
 62
         2
100
AcDbLine
 10
1295.7217989222
 20
148.0472262833
 30
0.0
 11
1298.0382704257
 21
149.3846417294
 31
0.0
  0
LINE
  5
40
100
AcDbEntity
  8
_Y__________
  6
DASHED
 62
         2
100
AcDbLine
 10
1298.0382704257
 20
149.3846417294
 30
0.0
 11
1298.0382704257
 21
150.9846417294
 31
0.0
  0
LINE
  5
41
100
AcDbEntity
  8
_Y__________
  6
DASHED
 62
         2
100
AcDbLine
 10
1298.9845317817
 20
149.3846417294
 30
0.0
 11
1298.0382704257
 21
149.3846417294
 31
0.0
  0
LINE
  5
42
100
AcDbEntity
  8
_Y__________
  6
DASHED
 62
         2
100
AcDbLine
 10
1298.9845317817
 20
150.9846417294
 30
0.0
 11
1298.0382704257
 21
150.9846417294
 31
0.0
  0
LINE
  5
43
100
AcDbEntity
  8
_Y__________
  6
DASHED
 62
         2
100
AcDbLine
 10
1298.9845317817
 20
150.9846417294
 30
0.0
 11
1299.446411997
 21
150.1846417294
 31
0.0
  0
LINE
  5
44
100
AcDbEntity
  8
_Y__________
  6
DASHED
 62
         2
100
AcDbLine
 10
1298.9845317817
 20
149.3846417294
 30
0.0
 11
1298.9845317817
 21
150.9846417294
 31
0.0
  0
LINE
  5
45
100
AcDbEntity
  8
_Y__________
  6
DASHED
 62
         2
100
AcDbLine
 10
1298.9845317817
 20
149.3846417294
 30
0.0
 11
1299.446411997
 21
150.1846417294
 31
0.0
  0
LINE
  5
46
100
AcDbEntity
  8
_Y__________
  6
CONTINUOUS
 62
         7
100
AcDbLine
 10
1295.7217989222
 20
148.0472262833
 30
0.0
 11
1296.8249656014
 21
144.2346417294
 31
0.0
  0
LINE
  5
47
100
AcDbEntity
  8
_Y__________
  6
CONTINUOUS
 62
         7
100
AcDbLine
 10
1296.8249656014
 20
156.1346417294
 30
0.0
 11
1295.7217989222
 21
152.3220571755
 31
0.0
  0
LINE
  5
48
100
AcDbEntity
  8
_Y__________
  6
CONTINUOUS
 62
         7
100
AcDbLine
 10
1296.8249656014
 20
144.2346417294
 30
0.0
 11
1296.8249656014
 21
156.1346417294
 31
0.0
  0
LINE
  5
49
100
AcDbEntity
  8
_Y__________
  6
CENTER
 62
         1
100
AcDbLine
 10
1438.6033403763
 20
-12.9433347407
 30
0.0
 11
1295.1033403763
 21
-12.9433347407
 31
0.0
  0
ARC
  5
4A
100
AcDbEntity
  8
_Y__________
  6
CONTINUOUS
 62
         7
100
AcDbCircle
 10
1309.8562342316
 20
-3.6933347407
 30
0.0
 40
3.0
100
AcDbArc
 50
90.0
 51
111.4449568105
  0
ARC
  5
4B
100
AcDbEntity
  8
_Y__________
  6
CONTINUOUS
 62
         7
100
AcDbCircle
 10
1300.3504465209
 20
-3.6933347407
 30
0.0
 40
3.0
100
AcDbArc
 50
68.5550431895
 51
90.0
  0
ARC
  5
4C
100
AcDbEntity
  8
_Y__________
  6
CONTINUOUS
 62
         7
100
AcDbCircle
 10
1309.8562342316
 20
-22.1933347407
 30
0.0
 40
3.0
100
AcDbArc
 50
248.5550431895
 51
270.0
  0
ARC
  5
4D
100
AcDbEntity
  8
_Y__________
  6
CONTINUOUS
 62
         7
100
AcDbCircle
 10
1300.3504465209
 20
-22.1933347407
 30
0.0
 40
3.0
100
AcDbArc
 50
270.0
 51
291.4449568105
  0
ARC
  5
4E
100
AcDbEntity
  8
_Y__________
  6
CONTINUOUS
 62
         7
100
AcDbCircle
 10
1299.2155041304
 20
-22.4433347407
 30
0.0
 40
2.5
100
AcDbArc
 50
188.0
 51
270.0
  0
ARC
  5
4F
100
AcDbEntity
  8
_Y__________
  6
CONTINUOUS
 62
         7
100
AcDbCircle
 10
1299.2155041304
 20
-3.4433347407
 30
0.0
 40
2.5
100
AcDbArc
 50
90.0
 51
172.0
  0
LINE
  5
50
100
AcDbEntity
  8
_Y__________
  6
CONTINUOUS
 62
         7
100
AcDbLine
 10
1296.7398339585
 20
-3.0954019883
 30
0.0
 11
1295.5591841742
 21
-11.4961617161
 31
0.0
  0
LINE
  5
51
100
AcDbEntity
  8
_Y__________
  6
CONTINUOUS
 62
         7
100
AcDbLine
 10
1296.7398339585
 20
-22.7912674931
 30
0.0
 11
1295.5591841742
 21
-14.3905077652
 31
0.0
  0
ARC
  5
52
100
AcDbEntity
  8
_Y__________
  6
CONTINUOUS
 62
         7
100
AcDbCircle
 10
1298.9981824459
 20
-22.6933347407
 30
0.0
 40
2.5
100
AcDbArc
 50
188.0
 51
270.0
  0
ARC
  5
53
100
AcDbEntity
  8
_Y__________
  6
CONTINUOUS
 62
         7
100
AcDbCircle
 10
1298.9981824459
 20
-3.1933347407
 30
0.0
 40
2.5
100
AcDbArc
 50
90.0
 51
172.0
  0
LINE
  5
54
100
AcDbEntity
  8
_Y__________
  6
CONTINUOUS
 62
         7
100
AcDbLine
 10
1296.522512274
 20
-23.0412674931
 30
0.0
 11
1295.427605741
 21
-15.2506026992
 31
0.0
  0
LINE
  5
55
100
AcDbEntity
  8
_Y__________
  6
CONTINUOUS
 62
         7
100
AcDbLine
 10
1296.522512274
 20
-2.8454019883
 30
0.0
 11
1295.427605741
 21
-10.6360667822
 31
0.0
  0
ARC
  5
56
100
AcDbEntity
  8
_Y__________
  6
CONTINUOUS
 62
         7
100
AcDbCircle
 10
1310.1478116363
 20
-16.9433347407
 30
0.0
 40
8.0
100
AcDbArc
 50
270.0
 51
360.0
  0
ARC
  5
57
100
AcDbEntity
  8
_Y__________
  6
CONTINUOUS
 62
         7
100
AcDbCircle
 10
1310.1478116363
 20
-8.9433347407
 30
0.0
 40
8.0
100
AcDbArc
 50
0.0
 51
90.0
  0
LINE
  5
58
100
AcDbEntity
  8
_Y__________
  6
CONTINUOUS
 62
         7
100
AcDbLine
 10
1310.1478116363
 20
-24.9433347407
 30
0.0
 11
1308.6498175015
 21
-24.9433347407
 31
0.0
  0
LINE
  5
59
100
AcDbEntity
  8
_Y__________
  6
CONTINUOUS
 62
         7
100
AcDbLine
 10
1310.1478116363
 20
-0.9433347407
 30
0.0
 11
1308.6498175015
 21
-0.9433347407
 31
0.0
  0
LINE
  5
5A
100
AcDbEntity
  8
_Y__________
  6
CONTINUOUS
 62
         7
100
AcDbLine
 10
1318.1478116363
 20
-25.1933347407
 30
0.0
 11
1318.1478116363
 21
-0.6933347407
 31
0.0
  0
LINE
  5
5B
100
AcDbEntity
  8
_Y__________
  6
CONTINUOUS
 62
         7
100
AcDbLine
 10
1319.1033403763
 20
-26.1488634806
 30
0.0
 11
1318.1478116363
 21
-25.1933347407
 31
0.0
  0
LINE
  5
5C
100
AcDbEntity
  8
_Y__________
  6
CONTINUOUS
 62
         7
100
AcDbLine
 10
1319.1033403763
 20
0.2621939993
 30
0.0
 11
1318.1478116363
 21
-0.6933347407
 31
0.0
  0
LINE
  5
5D
100
AcDbEntity
  8
_Y__________
  6
CONTINUOUS
 62
         7
100
AcDbLine
 10
1318.1478116363
 20
-25.1933347407
 30
0.0
 11
1309.8562342316
 21
-25.1933347407
 31
0.0
  0
LINE
  5
5E
100
AcDbEntity
  8
_Y__________
  6
CONTINUOUS
 62
         7
100
AcDbLine
 10
1318.1478116363
 20
-0.6933347407
 30
0.0
 11
1309.8562342316
 21
-0.6933347407
 31
0.0
  0
LINE
  5
5F
100
AcDbEntity
  8
_Y__________
  6
CONTINUOUS
 62
         7
100
AcDbLine
 10
1319.1033403763
 20
-26.1488634806
 30
0.0
 11
1415.2071758014
 21
-28.6444501158
 31
0.0
  0
LINE
  5
60
100
AcDbEntity
  8
_Y__________
  6
CONTINUOUS
 62
         7
100
AcDbLine
 10
1319.1033403763
 20
0.2621939993
 30
0.0
 11
1415.2071758014
 21
2.7577806345
 31
0.0
  0
LINE
  5
61
100
AcDbEntity
  8
_Y__________
  6
CONTINUOUS
 62
         7
100
AcDbLine
 10
1319.1033403763
 20
-26.1488634806
 30
0.0
 11
1319.1033403763
 21
0.2621939993
 31
0.0
  0
ARC
  5
62
100
AcDbEntity
  8
_Y__________
  6
CONTINUOUS
 62
         7
100
AcDbCircle
 10
1283.222479463
 20
-12.9433347407
 30
0.0
 40
12.4212959427
100
AcDbArc
 50
349.2950803897
 51
370.7049196103
  0
LINE
  5
63
100
AcDbEntity
  8
_Y__________
  6
CONTINUOUS
 62
         1
100
AcDbLine
 10
1295.427605741
 20
-10.6360667822
 30
0.0
 11
1295.1033403763
 21
-12.9433347407
 31
0.0
  0
LINE
  5
64
100
AcDbEntity
  8
_Y__________
  6
CONTINUOUS
 62
         1
100
AcDbLine
 10
1295.427605741
 20
-15.2506026992
 30
0.0
 11
1295.1033403763
 21
-12.9433347407
 31
0.0
  0
LINE
  5
65
100
AcDbEntity
  8
_Y__________
  6
CENTER
 62
         1
100
AcDbLine
 10
1305.1033403763
 20
-28.9495994379
 30
0.0
 11
1305.1033403763
 21
1.7241972319
 31
0.0
  0
ARC
  5
66
100
AcDbEntity
  8
_Y__________
  6
CONTINUOUS
 62
         7
100
AcDbCircle
 10
1305.1033403763
 20
-34.2933347407
 30
0.0
 40
10.0
100
AcDbArc
 50
68.5550431895
 51
111.4449568105
  0
LINE
  5
67
100
AcDbEntity
  8
_Y__________
  6
CONTINUOUS
 62
         7
100
AcDbLine
 10
1300.3504465209
 20
-25.1933347407
 30
0.0
 11
1298.9981824459
 21
-25.1933347407
 31
0.0
  0
LINE
  5
68
100
AcDbEntity
  8
_Y__________
  6
CONTINUOUS
 62
         7
100
AcDbLine
 10
1301.556863251
 20
-24.9433347407
 30
0.0
 11
1299.2155041304
 21
-24.9433347407
 31
0.0
  0
ARC
  5
69
100
AcDbEntity
  8
_Y__________
  6
CONTINUOUS
 62
         7
100
AcDbCircle
 10
1305.1033403763
 20
8.4066652593
 30
0.0
 40
10.0
100
AcDbArc
 50
248.5550431895
 51
291.4449568105
  0
LINE
  5
6A
100
AcDbEntity
  8
_Y__________
  6
CONTINUOUS
 62
         7
100
AcDbLine
 10
1300.3504465209
 20
-0.6933347407
 30
0.0
 11
1298.9981824459
 21
-0.6933347407
 31
0.0
  0
LINE
  5
6B
100
AcDbEntity
  8
_Y__________
  6
CONTINUOUS
 62
         7
100
AcDbLine
 10
1301.556863251
 20
-0.9433347407
 30
0.0
 11
1299.2155041304
 21
-0.9433347407
 31
0.0
  0
LINE
  5
6C
100
AcDbEntity
  8
L1_120
  6
DASHED
 62
         2
100
AcDbLine
 10
1736.1143616913
 20
162.80862256
 30
0.0
 11
1737.4053262881
 21
165.0446388325
 31
0.0
  0
LINE
  5
6D
100
AcDbEntity
  8
L1_120
  6
DASHED
 62
         2
100
AcDbLine
 10
1727.800517815
 20
167.60862256
 30
0.0
 11
1729.0914824118
 21
169.8446388325
 31
0.0
  0
LINE
  5
6E
100
AcDbEntity
  8
L1_120
  6
DASHED
 62
         2
100
AcDbLine
 10
1727.800517815
 20
132.7606608987
 30
0.0
 11
1729.0914824118
 21
130.5246446263
 31
0.0
  0
LINE
  5
6F
100
AcDbEntity
  8
L1_120
  6
DASHED
 62
         2
100
AcDbLine
 10
1736.1143616913
 20
137.5606608987
 30
0.0
 11
1737.4053262881
 21
135.3246446263
 31
0.0
  0
LINE
  5
70
100
AcDbEntity
  8
L1_120
  6
DASHED
 62
         2
100
AcDbLine
 10
1705.9351416225
 20
145.3846417294
 30
0.0
 11
1703.3532124288
 21
145.3846417294
 31
0.0
  0
LINE
  5
71
100
AcDbEntity
  8
L1_120
  6
DASHED
 62
         2
100
AcDbLine
 10
1705.9351416225
 20
154.9846417294
 30
0.0
 11
1703.3532124288
 21
154.9846417294
 31
0.0
  0
LINE
  5
72
100
AcDbEntity
  8
L1_120
  6
CONTINUOUS
 62
         7
100
AcDbLine
 10
1464.2083403763
 20
3.0566652593
 30
0.0
 11
1464.2083403763
 21
7.5566652593
 31
0.0
  0
LINE
  5
73
100
AcDbEntity
  8
L1_120
  6
CONTINUOUS
 62
         7
100
AcDbLine
 10
1488.8082741959
 20
4.5566652593
 30
0.0
 11
1488.8082741959
 21
7.5566652593
 31
0.0
  0
ARC
  5
74
100
AcDbEntity
  8
L1_120
  6
CONTINUOUS
 62
         7
100
AcDbCircle
 10
1469.0083403763
 20
150.1846417294
 30
0.0
 40
4.8
100
AcDbArc
 50
90.0
 51
270.0
  0
ARC
  5
75
100
AcDbEntity
  8
L1_120
  6
CONTINUOUS
 62
         7
100
AcDbCircle
 10
1484.0082741959
 20
150.1846417294
 30
0.0
 40
4.8
100
AcDbArc
 50
270.0
 51
450.0
  0
LINE
  5
76
100
AcDbEntity
  8
L1_120
  6
CONTINUOUS
 62
         7
100
AcDbLine
 10
1484.0082741959
 20
145.3846417294
 30
0.0
 11
1469.0083403763
 21
145.3846417294
 31
0.0
  0
LINE
  5
77
100
AcDbEntity
  8
L1_120
  6
CONTINUOUS
 62
         7
100
AcDbLine
 10
1484.0082741959
 20
154.9846417294
 30
0.0
 11
1469.0083403763
 21
154.9846417294
 31
0.0
  0
LINE
  5
78
100
AcDbEntity
  8
L1_120
  6
CONTINUOUS
 62
         7
100
AcDbLine
 10
1488.6033403763
 20
-25.5806430779
 30
0.0
 11
1488.6033403763
 21
4.5566652593
 31
0.0
  0
POLYLINE
  5
7A
100
AcDbEntity
  8
L1_120
  6
CONTINUOUS
 62
         7
100
AcDb2dPolyline
 66
         1
 10
0.0
 20
0.0
 30
0.0
 70
         2
  0
VERTEX
  5
7C
100
AcDbEntity
  8
L1_120
  6
CONTINUOUS
 62
         7
100
AcDbVertex
100
AcDb2dVertex
 10
1484.2532741959
 20
-28.555793389
 30
0.0
 70
         1
  0
VERTEX
  5
7E
100
AcDbEntity
  8
L1_120
  6
CONTINUOUS
 62
         7
100
AcDbVertex
100
AcDb2dVertex
 10
1485.2818757807
 20
-28.5142144948
 30
0.0
 70
         1
  0
VERTEX
  5
80
100
AcDbEntity
  8
L1_120
  6
CONTINUOUS
 62
         7
100
AcDbVertex
100
AcDb2dVertex
 10
1485.7334173717
 20
-28.46854881
 30
0.0
 70
         1
  0
VERTEX
  5
82
100
AcDbEntity
  8
L1_120
  6
CONTINUOUS
 62
         7
100
AcDbVertex
100
AcDb2dVertex
 10
1486.1403817474
 20
-28.4115787889
 30
0.0
 70
         1
  0
VERTEX
  5
84
100
AcDbEntity
  8
L1_120
  6
CONTINUOUS
 62
         7
100
AcDbVertex
100
AcDb2dVertex
 10
1486.5034759438
 20
-28.3467172746
 30
0.0
 70
         1
  0
VERTEX
  5
86
100
AcDbEntity
  8
L1_120
  6
CONTINUOUS
 62
         7
100
AcDbVertex
100
AcDb2dVertex
 10
1486.8248356266
 20
-28.2768329894
 30
0.0
 70
         1
  0
VERTEX
  5
88
100
AcDbEntity
  8
L1_120
  6
CONTINUOUS
 62
         7
100
AcDbVertex
100
AcDb2dVertex
 10
1487.1074782947
 20
-28.2042493303
 30
0.0
 70
         1
  0
VERTEX
  5
8A
100
AcDbEntity
  8
L1_120
  6
CONTINUOUS
 62
         7
100
AcDbVertex
100
AcDb2dVertex
 10
1487.4330704075
 20
-28.105380338
 30
0.0
 70
         1
  0
VERTEX
  5
8C
100
AcDbEntity
  8
L1_120
  6
CONTINUOUS
 62
         7
100
AcDbVertex
100
AcDb2dVertex
 10
1487.7035582159
 20
-28.008088282
 30
0.0
 70
         1
  0
VERTEX
  5
8E
100
AcDbEntity
  8
L1_120
  6
CONTINUOUS
 62
         7
100
AcDbVertex
100
AcDb2dVertex
 10
1487.9273796738
 20
-27.9144702006
 30
0.0
 70
         1
  0
VERTEX
  5
90
100
AcDbEntity
  8
L1_120
  6
CONTINUOUS
 62
         7
100
AcDbVertex
100
AcDb2dVertex
 10
1488.1121680588
 20
-27.825786137
 30
0.0
 70
         1
  0
VERTEX
  5
92
100
AcDbEntity
  8
L1_120
  6
CONTINUOUS
 62
         7
100
AcDbVertex
100
AcDb2dVertex
 10
1488.3115368066
 20
-27.7148859904
 30
0.0
 70
         1
  0
VERTEX
  5
94
100
AcDbEntity
  8
L1_120
  6
CONTINUOUS
 62
         7
100
AcDbVertex
100
AcDb2dVertex
 10
1488.4652222816
 20
-27.6146892033
 30
0.0
 70
         1
  0
VERTEX
  5
96
100
AcDbEntity
  8
L1_120
  6
CONTINUOUS
 62
         7
100
AcDbVertex
100
AcDb2dVertex
 10
1488.6194727235
 20
-27.4952086406
 30
0.0
 70
         1
  0
VERTEX
  5
98
100
AcDbEntity
  8
L1_120
  6
CONTINUOUS
 62
         7
100
AcDbVertex
100
AcDb2dVertex
 10
1488.72848735
 20
-27.3932216393
 30
0.0
 70
         1
  0
VERTEX
  5
9A
100
AcDbEntity
  8
L1_120
  6
CONTINUOUS
 62
         7
100
AcDbVertex
100
AcDb2dVertex
 10
1488.8284835226
 20
-27.2780585908
 30
0.0
 70
         1
  0
VERTEX
  5
9C
100
AcDbEntity
  8
L1_120
  6
CONTINUOUS
 62
         7
100
AcDbVertex
100
AcDb2dVertex
 10
1488.9094033716
 20
-27.155980512
 30
0.0
 70
         1
  0
VERTEX
  5
9E
100
AcDbEntity
  8
L1_120
  6
CONTINUOUS
 62
         7
100
AcDbVertex
100
AcDb2dVertex
 10
1488.9646742951
 20
-27.0369998626
 30
0.0
 70
         1
  0
VERTEX
  5
A0
100
AcDbEntity
  8
L1_120
  6
CONTINUOUS
 62
         7
100
AcDbVertex
100
AcDb2dVertex
 10
1489.0005020396
 20
-26.9001034487
 30
0.0
 70
         1
  0
VERTEX
  5
A2
100
AcDbEntity
  8
L1_120
  6
CONTINUOUS
 62
         7
100
AcDbVertex
100
AcDb2dVertex
 10
1489.0082741959
 20
-26.7997412012
 30
0.0
 70
         1
  0
SEQEND
  5
A4
100
AcDbEntity
  8
L1_120
  6
CONTINUOUS
 62
         7
  0
POLYLINE
  5
A6
100
AcDbEntity
  8
L1_120
  6
CONTINUOUS
 62
         7
100
AcDb2dPolyline
 66
         1
 10
0.0
 20
0.0
 30
0.0
 70
         2
  0
VERTEX
  5
A8
100
AcDbEntity
  8
L1_120
  6
CONTINUOUS
 62
         7
100
AcDbVertex
100
AcDb2dVertex
 10
1489.0082741959
 20
-26.7997412012
 30
0.0
 70
         1
  0
VERTEX
  5
AA
100
AcDbEntity
  8
L1_120
  6
CONTINUOUS
 62
         7
100
AcDbVertex
100
AcDb2dVertex
 10
1488.9436953644
 20
-26.303879188
 30
0.0
 70
         1
  0
VERTEX
  5
AC
100
AcDbEntity
  8
L1_120
  6
CONTINUOUS
 62
         7
100
AcDbVertex
100
AcDb2dVertex
 10
1488.8700860658
 20
-26.0772172717
 30
0.0
 70
         1
  0
VERTEX
  5
AE
100
AcDbEntity
  8
L1_120
  6
CONTINUOUS
 62
         7
100
AcDbVertex
100
AcDb2dVertex
 10
1488.7751135935
 20
-25.8659867446
 30
0.0
 70
         1
  0
VERTEX
  5
B0
100
AcDbEntity
  8
L1_120
  6
CONTINUOUS
 62
         7
100
AcDbVertex
100
AcDb2dVertex
 10
1488.6630799965
 20
-25.6704694554
 30
0.0
 70
         1
  0
VERTEX
  5
B2
100
AcDbEntity
  8
L1_120
  6
CONTINUOUS
 62
         7
100
AcDbVertex
100
AcDb2dVertex
 10
1488.4925348213
 20
-25.4323179417
 30
0.0
 70
         1
  0
VERTEX
  5
B4
100
AcDbEntity
  8
L1_120
  6
CONTINUOUS
 62
         7
100
AcDbVertex
100
AcDb2dVertex
 10
1488.3063846546
 20
-25.2211094049
 30
0.0
 70
         1
  0
VERTEX
  5
B6
100
AcDbEntity
  8
L1_120
  6
CONTINUOUS
 62
         7
100
AcDbVertex
100
AcDb2dVertex
 10
1488.1113227132
 20
-25.0350528979
 30
0.0
 70
         1
  0
VERTEX
  5
B8
100
AcDbEntity
  8
L1_120
  6
CONTINUOUS
 62
         7
100
AcDbVertex
100
AcDb2dVertex
 10
1487.843696699
 20
-24.8204329025
 30
0.0
 70
         1
  0
VERTEX
  5
BA
100
AcDbEntity
  8
L1_120
  6
CONTINUOUS
 62
         7
100
AcDbVertex
100
AcDb2dVertex
 10
1487.5788192027
 20
-24.641943858
 30
0.0
 70
         1
  0
VERTEX
  5
BC
100
AcDbEntity
  8
L1_120
  6
CONTINUOUS
 62
         7
100
AcDbVertex
100
AcDb2dVertex
 10
1487.2358978364
 20
-24.4485558922
 30
0.0
 70
         1
  0
VERTEX
  5
BE
100
AcDbEntity
  8
L1_120
  6
CONTINUOUS
 62
         7
100
AcDbVertex
100
AcDb2dVertex
 10
1486.9178235669
 20
-24.2993163516
 30
0.0
 70
         1
  0
VERTEX
  5
C0
100
AcDbEntity
  8
L1_120
  6
CONTINUOUS
 62
         7
100
AcDbVertex
100
AcDb2dVertex
 10
1486.5314641061
 20
-24.1498526392
 30
0.0
 70
         1
  0
VERTEX
  5
C2
100
AcDbEntity
  8
L1_120
  6
CONTINUOUS
 62
         7
100
AcDbVertex
100
AcDb2dVertex
 10
1486.1977358477
 20
-24.0447526734
 30
0.0
 70
         1
  0
VERTEX
  5
C4
100
AcDbEntity
  8
L1_120
  6
CONTINUOUS
 62
         7
100
AcDbVertex
100
AcDb2dVertex
 10
1485.8185870831
 20
-23.9490615515
 30
0.0
 70
         1
  0
VERTEX
  5
C6
100
AcDbEntity
  8
L1_120
  6
CONTINUOUS
 62
         7
100
AcDbVertex
100
AcDb2dVertex
 10
1485.4159979367
 20
-23.872440803
 30
0.0
 70
         1
  0
VERTEX
  5
C8
100
AcDbEntity
  8
L1_120
  6
CONTINUOUS
 62
         7
100
AcDbVertex
100
AcDb2dVertex
 10
1485.0247064987
 20
-23.8207884671
 30
0.0
 70
         1
  0
VERTEX
  5
CA
100
AcDbEntity
  8
L1_120
  6
CONTINUOUS
 62
         7
100
AcDbVertex
100
AcDb2dVertex
 10
1484.6863788912
 20
-23.7933425279
 30
0.0
 70
         1
  0
VERTEX
  5
CC
100
AcDbEntity
  8
L1_120
  6
CONTINUOUS
 62
         7
100
AcDbVertex
100
AcDb2dVertex
 10
1484.3581722611
 20
-23.781528093
 30
0.0
 70
         1
  0
VERTEX
  5
CE
100
AcDbEntity
  8
L1_120
  6
CONTINUOUS
 62
         7
100
AcDbVertex
100
AcDb2dVertex
 10
1484.2532741959
 20
-23.780793389
 30
0.0
 70
         1
  0
SEQEND
  5
D0
100
AcDbEntity
  8
L1_120
  6
CONTINUOUS
 62
         7
  0
LINE
  5
D1
100
AcDbEntity
  8
L1_120
  6
CONTINUOUS
 62
         7
100
AcDbLine
 10
1484.2532741959
 20
-23.780793389
 30
0.0
 11
1468.7633403762
 21
-23.7807932717
 31
0.0
  0
LINE
  5
D2
100
AcDbEntity
  8
L1_120
  6
CONTINUOUS
 62
         7
100
AcDbLine
 10
1484.2532780192
 20
-28.555793389
 30
0.0
 11
1468.7633403632
 21
-28.5557932717
 31
0.0
  0
POLYLINE
  5
D4
100
AcDbEntity
  8
L1_120
  6
CONTINUOUS
 62
         7
100
AcDb2dPolyline
 66
         1
 10
0.0
 20
0.0
 30
0.0
 70
         2
  0
VERTEX
  5
D6
100
AcDbEntity
  8
L1_120
  6
CONTINUOUS
 62
         7
100
AcDbVertex
100
AcDb2dVertex
 10
1464.0083403763
 20
-26.7997410839
 30
0.0
 70
         1
  0
VERTEX
  5
D8
100
AcDbEntity
  8
L1_120
  6
CONTINUOUS
 62
         7
100
AcDbVertex
100
AcDb2dVertex
 10
1464.0656955029
 20
-27.0716664298
 30
0.0
 70
         1
  0
VERTEX
  5
DA
100
AcDbEntity
  8
L1_120
  6
CONTINUOUS
 62
         7
100
AcDbVertex
100
AcDb2dVertex
 10
1464.1357868256
 20
-27.2035829066
 30
0.0
 70
         1
  0
VERTEX
  5
DC
100
AcDbEntity
  8
L1_120
  6
CONTINUOUS
 62
         7
100
AcDbVertex
100
AcDb2dVertex
 10
1464.2310372714
 20
-27.330856354
 30
0.0
 70
         1
  0
VERTEX
  5
DE
100
AcDbEntity
  8
L1_120
  6
CONTINUOUS
 62
         7
100
AcDbVertex
100
AcDb2dVertex
 10
1464.3488111988
 20
-27.4522709073
 30
0.0
 70
         1
  0
VERTEX
  5
E0
100
AcDbEntity
  8
L1_120
  6
CONTINUOUS
 62
         7
100
AcDbVertex
100
AcDb2dVertex
 10
1464.4860308305
 20
-27.566854512
 30
0.0
 70
         1
  0
VERTEX
  5
E2
100
AcDbEntity
  8
L1_120
  6
CONTINUOUS
 62
         7
100
AcDbVertex
100
AcDb2dVertex
 10
1464.6393565047
 20
-27.6738967172
 30
0.0
 70
         1
  0
VERTEX
  5
E4
100
AcDbEntity
  8
L1_120
  6
CONTINUOUS
 62
         7
100
AcDbVertex
100
AcDb2dVertex
 10
1464.8053607744
 20
-27.7729475013
 30
0.0
 70
         1
  0
VERTEX
  5
E6
100
AcDbEntity
  8
L1_120
  6
CONTINUOUS
 62
         7
100
AcDbVertex
100
AcDb2dVertex
 10
1464.9806822679
 20
-27.8638002456
 30
0.0
 70
         1
  0
VERTEX
  5
E8
100
AcDbEntity
  8
L1_120
  6
CONTINUOUS
 62
         7
100
AcDbVertex
100
AcDb2dVertex
 10
1465.2268416869
 20
-27.9736013858
 30
0.0
 70
         1
  0
VERTEX
  5
EA
100
AcDbEntity
  8
L1_120
  6
CONTINUOUS
 62
         7
100
AcDbVertex
100
AcDb2dVertex
 10
1465.4772832493
 20
-28.0689874369
 30
0.0
 70
         1
  0
VERTEX
  5
EC
100
AcDbEntity
  8
L1_120
  6
CONTINUOUS
 62
         7
100
AcDbVertex
100
AcDb2dVertex
 10
1465.7261894914
 20
-28.1509051343
 30
0.0
 70
         1
  0
VERTEX
  5
EE
100
AcDbEntity
  8
L1_120
  6
CONTINUOUS
 62
         7
100
AcDbVertex
100
AcDb2dVertex
 10
1466.0537735911
 20
-28.242792659
 30
0.0
 70
         1
  0
VERTEX
  5
F0
100
AcDbEntity
  8
L1_120
  6
CONTINUOUS
 62
         7
100
AcDbVertex
100
AcDb2dVertex
 10
1466.3621399662
 20
-28.315439811
 30
0.0
 70
         1
  0
VERTEX
  5
F2
100
AcDbEntity
  8
L1_120
  6
CONTINUOUS
 62
         7
100
AcDbVertex
100
AcDb2dVertex
 10
1466.7447036819
 20
-28.3896956925
 30
0.0
 70
         1
  0
VERTEX
  5
F4
100
AcDbEntity
  8
L1_120
  6
CONTINUOUS
 62
         7
100
AcDbVertex
100
AcDb2dVertex
 10
1467.1926638464
 20
-28.457223677
 30
0.0
 70
         1
  0
VERTEX
  5
F6
100
AcDbEntity
  8
L1_120
  6
CONTINUOUS
 62
         7
100
AcDbVertex
100
AcDb2dVertex
 10
1467.6733395777
 20
-28.5090325596
 30
0.0
 70
         1
  0
VERTEX
  5
F8
100
AcDbEntity
  8
L1_120
  6
CONTINUOUS
 62
         7
100
AcDbVertex
100
AcDb2dVertex
 10
1468.2812752366
 20
-28.5467455739
 30
0.0
 70
         1
  0
VERTEX
  5
FA
100
AcDbEntity
  8
L1_120
  6
CONTINUOUS
 62
         7
100
AcDbVertex
100
AcDb2dVertex
 10
1468.7633403762
 20
-28.5557932717
 30
0.0
 70
         1
  0
SEQEND
  5
FC
100
AcDbEntity
  8
L1_120
  6
CONTINUOUS
 62
         7
  0
LINE
  5
FD
100
AcDbEntity
  8
L1_120
  6
CENTER
 62
         1
100
AcDbLine
 10
1723.2833403763
 20
127.6846417294
 30
0.0
 11
1723.2833403763
 21
172.6846417294
 31
0.0
  0
LINE
  5
FE
100
AcDbEntity
  8
L1_120
  6
CENTER
 62
         1
100
AcDbLine
 10
1745.7833403763
 20
150.1846417294
 30
0.0
 11
1700.7833403763
 21
150.1846417294
 31
0.0
  0
CIRCLE
  5
FF
100
AcDbEntity
  8
L1_120
  6
CONTINUOUS
 62
         7
100
AcDbCircle
 10
1723.2833403763
 20
150.1846417294
 30
0.0
 40
18.0
  0
CIRCLE
  5
100
100
AcDbEntity
  8
L1_120
  6
CONTINUOUS
 62
         7
100
AcDbCircle
 10
1723.2833403763
 20
150.1846417294
 30
0.0
 40
22.5
  0
CIRCLE
  5
101
100
AcDbEntity
  8
L1_120
  6
CONTINUOUS
 62
         7
100
AcDbCircle
 10
1723.2833403763
 20
150.1846417294
 30
0.0
 40
20.5
  0
LINE
  5
102
100
AcDbEntity
  8
L1_120
  6
CENTER
 62
         1
100
AcDbLine
 10
1513.6033403763
 20
-12.9433347407
 30
0.0
 11
1438.6033403763
 21
-12.9433347407
 31
0.0
  0
LINE
  5
103
100
AcDbEntity
  8
L1_120
  6
CONTINUOUS
 62
         7
100
AcDbLine
 10
1494.6033403763
 20
-33.3433347407
 30
0.0
 11
1494.7033403763
 21
-33.4433347407
 31
0.0
  0
LINE
  5
104
100
AcDbEntity
  8
L1_120
  6
CONTINUOUS
 62
         7
100
AcDbLine
 10
1508.7373149725
 20
-33.4433347407
 30
0.0
 11
1494.7033403763
 21
-33.4433347407
 31
0.0
  0
LINE
  5
105
100
AcDbEntity
  8
L1_120
  6
CONTINUOUS
 62
         7
100
AcDbLine
 10
1494.6033403763
 20
-32.4433347407
 30
0.0
 11
1494.6033403763
 21
-33.3433347407
 31
0.0
  0
LINE
  5
106
100
AcDbEntity
  8
L1_120
  6
CONTINUOUS
 62
         7
100
AcDbLine
 10
1492.6033403763
 20
-33.3433347407
 30
0.0
 11
1492.5033403763
 21
-33.4433347407
 31
0.0
  0
LINE
  5
107
100
AcDbEntity
  8
L1_120
  6
CONTINUOUS
 62
         7
100
AcDbLine
 10
1492.5033403763
 20
-33.4433347407
 30
0.0
 11
1463.1033403763
 21
-33.4433347407
 31
0.0
  0
LINE
  5
108
100
AcDbEntity
  8
L1_120
  6
CONTINUOUS
 62
         7
100
AcDbLine
 10
1492.6033403763
 20
-32.4433347407
 30
0.0
 11
1492.6033403763
 21
-33.3433347407
 31
0.0
  0
LINE
  5
109
100
AcDbEntity
  8
L1_120
  6
CONTINUOUS
 62
         7
100
AcDbLine
 10
1494.6033403763
 20
7.4566652593
 30
0.0
 11
1494.7033403763
 21
7.5566652593
 31
0.0
  0
LINE
  5
10A
100
AcDbEntity
  8
L1_120
  6
CONTINUOUS
 62
         7
100
AcDbLine
 10
1508.7373149725
 20
7.5566652593
 30
0.0
 11
1494.7033403763
 21
7.5566652593
 31
0.0
  0
LINE
  5
10B
100
AcDbEntity
  8
L1_120
  6
CONTINUOUS
 62
         7
100
AcDbLine
 10
1494.6033403763
 20
6.5566652593
 30
0.0
 11
1494.6033403763
 21
7.4566652593
 31
0.0
  0
LINE
  5
10C
100
AcDbEntity
  8
L1_120
  6
CONTINUOUS
 62
         7
100
AcDbLine
 10
1492.5033403763
 20
7.5566652593
 30
0.0
 11
1492.6033403763
 21
7.4566652593
 31
0.0
  0
LINE
  5
10D
100
AcDbEntity
  8
L1_120
  6
CONTINUOUS
 62
         7
100
AcDbLine
 10
1492.6033403763
 20
6.5566652593
 30
0.0
 11
1492.6033403763
 21
7.4566652593
 31
0.0
  0
LINE
  5
10E
100
AcDbEntity
  8
L1_120
  6
CONTINUOUS
 62
         7
100
AcDbLine
 10
1492.5033403763
 20
7.5566652593
 30
0.0
 11
1463.1033403763
 21
7.5566652593
 31
0.0
  0
ARC
  5
10F
100
AcDbEntity
  8
L1_120
  6
CONTINUOUS
 62
         7
100
AcDbCircle
 10
1487.6033403763
 20
4.0566652593
 30
0.0
 40
1.0
100
AcDbArc
 50
270.0
 51
360.0
  0
ARC
  5
110
100
AcDbEntity
  8
L1_120
  6
CONTINUOUS
 62
         7
100
AcDbCircle
 10
1487.6033403763
 20
-29.9433347407
 30
0.0
 40
1.0
100
AcDbArc
 50
0.0
 51
90.0
  0
ARC
  5
111
100
AcDbEntity
  8
L1_120
  6
CONTINUOUS
 62
         7
100
AcDbCircle
 10
1513.1033403763
 20
-30.6546596061
 30
0.0
 40
0.5
100
AcDbArc
 50
300.0
 51
360.0
  0
ARC
  5
112
100
AcDbEntity
  8
L1_120
  6
CONTINUOUS
 62
         7
100
AcDbCircle
 10
1513.1033403763
 20
4.7679901247
 30
0.0
 40
0.5
100
AcDbArc
 50
0.0
 51
60.0
  0
LINE
  5
113
100
AcDbEntity
  8
L1_120
  6
CENTER
 62
         1
100
AcDbLine
 10
1469.0083403763
 20
-0.354140038
 30
0.0
 11
1469.0083403763
 21
12.7589287345
 31
0.0
  0
LINE
  5
114
100
AcDbEntity
  8
L1_120
  6
CENTER
 62
         1
100
AcDbLine
 10
1484.0082741959
 20
-0.354140038
 30
0.0
 11
1484.0082741959
 21
12.7589287345
 31
0.0
  0
ARC
  5
115
100
AcDbEntity
  8
L1_120
  6
CONTINUOUS
 62
         7
100
AcDbCircle
 10
1460.1033403763
 20
-34.9433347407
 30
0.0
 40
0.5
100
AcDbArc
 50
270.0
 51
360.0
  0
ARC
  5
116
100
AcDbEntity
  8
L1_120
  6
CONTINUOUS
 62
         7
100
AcDbCircle
 10
1460.1033403763
 20
9.0566652593
 30
0.0
 40
0.5
100
AcDbArc
 50
0.0
 51
90.0
  0
LINE
  5
117
100
AcDbEntity
  8
L1_120
  6
CONTINUOUS
 62
         7
100
AcDbLine
 10
1432.6020155108
 20
-10.4433347407
 30
0.0
 11
1431.1586398379
 21
-12.9433347407
 31
0.0
  0
LINE
  5
118
100
AcDbEntity
  8
L1_120
  6
CONTINUOUS
 62
         7
100
AcDbLine
 10
1432.6020155108
 20
-15.4433347407
 30
0.0
 11
1431.1586398379
 21
-12.9433347407
 31
0.0
  0
LINE
  5
119
100
AcDbEntity
  8
L1_120
  6
CONTINUOUS
 62
         7
100
AcDbLine
 10
1513.6033403763
 20
-30.6546596061
 30
0.0
 11
1513.6033403763
 21
4.7679901247
 31
0.0
  0
LINE
  5
11A
100
AcDbEntity
  8
L1_120
  6
CONTINUOUS
 62
         7
100
AcDbLine
 10
1488.6033403763
 20
-30.4433347407
 30
0.0
 11
1488.6033403763
 21
-27.5088624116
 31
0.0
  0
LINE
  5
11B
100
AcDbEntity
  8
L1_120
  6
CONTINUOUS
 62
         7
100
AcDbLine
 10
1493.6033403763
 20
-30.4433347407
 30
0.0
 11
1493.6033403763
 21
4.5566652593
 31
0.0
  0
LINE
  5
11C
100
AcDbEntity
  8
L1_120
  6
CONTINUOUS
 62
         7
100
AcDbLine
 10
1487.6033403763
 20
3.0566652593
 30
0.0
 11
1452.6033403763
 21
3.0566652593
 31
0.0
  0
LINE
  5
11D
100
AcDbEntity
  8
L1_120
  6
CONTINUOUS
 62
         7
100
AcDbLine
 10
1487.6033403763
 20
-28.9433347407
 30
0.0
 11
1452.6033403763
 21
-28.9433347407
 31
0.0
  0
LINE
  5
11E
100
AcDbEntity
  8
L1_120
  6
CONTINUOUS
 62
         7
100
AcDbLine
 10
1493.6033403763
 20
4.5566652593
 30
0.0
 11
1488.6033403763
 21
4.5566652593
 31
0.0
  0
LINE
  5
11F
100
AcDbEntity
  8
L1_120
  6
CONTINUOUS
 62
         7
100
AcDbLine
 10
1493.6033403763
 20
-30.4433347407
 30
0.0
 11
1488.6033403763
 21
-30.4433347407
 31
0.0
  0
LINE
  5
120
100
AcDbEntity
  8
L1_120
  6
CONTINUOUS
 62
         7
100
AcDbLine
 10
1494.6033403763
 20
-32.4433347407
 30
0.0
 11
1492.6033403763
 21
-32.4433347407
 31
0.0
  0
LINE
  5
121
100
AcDbEntity
  8
L1_120
  6
CONTINUOUS
 62
         7
100
AcDbLine
 10
1494.6033403763
 20
6.5566652593
 30
0.0
 11
1492.6033403763
 21
6.5566652593
 31
0.0
  0
LINE
  5
122
100
AcDbEntity
  8
L1_120
  6
CONTINUOUS
 62
         7
100
AcDbLine
 10
1447.6033403763
 20
-29.4433347407
 30
0.0
 11
1447.6033403763
 21
3.5566652593
 31
0.0
  0
LINE
  5
123
100
AcDbEntity
  8
L1_120
  6
CONTINUOUS
 62
         7
100
AcDbLine
 10
1452.6033403763
 20
-29.4433347407
 30
0.0
 11
1452.6033403763
 21
3.5566652593
 31
0.0
  0
LINE
  5
124
100
AcDbEntity
  8
L1_120
  6
CONTINUOUS
 62
         7
100
AcDbLine
 10
1452.6033403763
 20
3.5566652593
 30
0.0
 11
1447.6033403763
 21
3.5566652593
 31
0.0
  0
LINE
  5
125
100
AcDbEntity
  8
L1_120
  6
CONTINUOUS
 62
         7
100
AcDbLine
 10
1452.6033403763
 20
-29.4433347407
 30
0.0
 11
1447.6033403763
 21
-29.4433347407
 31
0.0
  0
LINE
  5
126
100
AcDbEntity
  8
L1_120
  6
CONTINUOUS
 62
         7
100
AcDbLine
 10
1460.1033403763
 20
9.5566652593
 30
0.0
 11
1420.1033403763
 21
9.5566652593
 31
0.0
  0
LINE
  5
127
100
AcDbEntity
  8
L1_120
  6
CONTINUOUS
 62
         7
100
AcDbLine
 10
1460.1033403763
 20
-35.4433347407
 30
0.0
 11
1420.1033403763
 21
-35.4433347407
 31
0.0
  0
LINE
  5
128
100
AcDbEntity
  8
L1_120
  6
CONTINUOUS
 62
         7
100
AcDbLine
 10
1513.3533403763
 20
5.2010028266
 30
0.0
 11
1509.7373149725
 21
7.2887160669
 31
0.0
  0
ARC
  5
129
100
AcDbEntity
  8
L1_120
  6
CONTINUOUS
 62
         7
100
AcDbCircle
 10
1508.7373149725
 20
5.5566652593
 30
0.0
 40
2.0
100
AcDbArc
 50
60.0
 51
90.0000000001
  0
ARC
  5
12A
100
AcDbEntity
  8
L1_120
  6
CONTINUOUS
 62
         7
100
AcDbCircle
 10
1508.7373149725
 20
-31.4433347407
 30
0.0
 40
2.0
100
AcDbArc
 50
269.9999999999
 51
300.0
  0
LINE
  5
12B
100
AcDbEntity
  8
L1_120
  6
CONTINUOUS
 62
         7
100
AcDbLine
 10
1513.3533403763
 20
-31.087672308
 30
0.0
 11
1509.7373149725
 21
-33.1753855482
 31
0.0
  0
LINE
  5
12C
100
AcDbEntity
  8
L1_120
  6
CENTER
 62
         1
100
AcDbLine
 10
1450.1033403763
 20
-36.883636675
 30
0.0
 11
1450.1033403763
 21
-28.2483828809
 31
0.0
  0
LINE
  5
12D
100
AcDbEntity
  8
L1_120
  6
CONTINUOUS
 62
         7
100
AcDbLine
 10
1451.1033403763
 20
-35.4433347407
 30
0.0
 11
1451.1033403763
 21
-29.4433347407
 31
0.0
  0
LINE
  5
12E
100
AcDbEntity
  8
L1_120
  6
CONTINUOUS
 62
         7
100
AcDbLine
 10
1449.1033403763
 20
-35.4433347407
 30
0.0
 11
1449.1033403763
 21
-29.4433347407
 31
0.0
  0
LINE
  5
12F
100
AcDbEntity
  8
L1_120
  6
CONTINUOUS
 62
         7
100
AcDbLine
 10
1462.3042692157
 20
-33.2433347407
 30
0.0
 11
1460.9033403763
 21
-33.2433347407
 31
0.0
  0
LINE
  5
130
100
AcDbEntity
  8
L1_120
  6
CONTINUOUS
 62
         7
100
AcDbLine
 10
1462.4077968337
 20
-33.2569644102
 30
0.0
 11
1463.1033403763
 21
-33.4433347407
 31
0.0
  0
ARC
  5
131
100
AcDbEntity
  8
L1_120
  6
CONTINUOUS
 62
         7
100
AcDbCircle
 10
1462.3042692157
 20
-33.6433347407
 30
0.0
 40
0.4
100
AcDbArc
 50
75.0
 51
90.0
  0
LINE
  5
132
100
AcDbEntity
  8
L1_120
  6
CONTINUOUS
 62
         7
100
AcDbLine
 10
1463.7398320494
 20
-33.4433347407
 30
0.0
 11
1463.1033403763
 21
-33.4433347407
 31
0.0
  0
LINE
  5
133
100
AcDbEntity
  8
L1_120
  6
CONTINUOUS
 62
         7
100
AcDbLine
 10
1460.5034794587
 20
-33.6327873912
 30
0.0
 11
1460.6033403763
 21
-34.3433347407
 31
0.0
  0
ARC
  5
134
100
AcDbEntity
  8
L1_120
  6
CONTINUOUS
 62
         7
100
AcDbCircle
 10
1460.9033403763
 20
-33.6433347407
 30
0.0
 40
0.4
100
AcDbArc
 50
90.0
 51
178.4890283439
  0
LINE
  5
135
100
AcDbEntity
  8
L1_120
  6
CONTINUOUS
 62
         7
100
AcDbLine
 10
1460.6033403763
 20
-34.3433347407
 30
0.0
 11
1460.6033403763
 21
-34.9433347407
 31
0.0
  0
LINE
  5
136
100
AcDbEntity
  8
L1_120
  6
CONTINUOUS
 62
         7
100
AcDbLine
 10
1462.3042692157
 20
7.3566652593
 30
0.0
 11
1460.9033403763
 21
7.3566652593
 31
0.0
  0
LINE
  5
137
100
AcDbEntity
  8
L1_120
  6
CONTINUOUS
 62
         7
100
AcDbLine
 10
1462.4077968337
 20
7.3702949288
 30
0.0
 11
1463.1033403763
 21
7.5566652593
 31
0.0
  0
ARC
  5
138
100
AcDbEntity
  8
L1_120
  6
CONTINUOUS
 62
         7
100
AcDbCircle
 10
1462.3042692157
 20
7.7566652593
 30
0.0
 40
0.4
100
AcDbArc
 50
270.0
 51
285.0
  0
LINE
  5
139
100
AcDbEntity
  8
L1_120
  6
CONTINUOUS
 62
         7
100
AcDbLine
 10
1463.7898320494
 20
7.5566652593
 30
0.0
 11
1463.1033403763
 21
7.5566652593
 31
0.0
  0
LINE
  5
13A
100
AcDbEntity
  8
L1_120
  6
CONTINUOUS
 62
         7
100
AcDbLine
 10
1460.5034794587
 20
7.7461179098
 30
0.0
 11
1460.6033403763
 21
8.4566652593
 31
0.0
  0
ARC
  5
13B
100
AcDbEntity
  8
L1_120
  6
CONTINUOUS
 62
         7
100
AcDbCircle
 10
1460.9033403763
 20
7.7566652593
 30
0.0
 40
0.4
100
AcDbArc
 50
181.5109716561
 51
270.0
  0
LINE
  5
13C
100
AcDbEntity
  8
L1_120
  6
CONTINUOUS
 62
         7
100
AcDbLine
 10
1460.6033403763
 20
8.4566652593
 30
0.0
 11
1460.6033403763
 21
9.0566652593
 31
0.0
  0
LINE
  5
13D
100
AcDbEntity
  8
L1_120
  6
CENTER
 62
         1
100
AcDbLine
 10
1513.6033403763
 20
150.1846417294
 30
0.0
 11
1438.6033403763
 21
150.1846417294
 31
0.0
  0
LINE
  5
13E
100
AcDbEntity
  8
L1_120
  6
CONTINUOUS
 62
         7
100
AcDbLine
 10
1494.6033403763
 20
129.7846417294
 30
0.0
 11
1494.7033403763
 21
129.6846417294
 31
0.0
  0
LINE
  5
13F
100
AcDbEntity
  8
L1_120
  6
CONTINUOUS
 62
         7
100
AcDbLine
 10
1508.7373149725
 20
129.6846417294
 30
0.0
 11
1494.7033403763
 21
129.6846417294
 31
0.0
  0
LINE
  5
140
100
AcDbEntity
  8
L1_120
  6
CONTINUOUS
 62
         7
100
AcDbLine
 10
1494.6033403763
 20
170.5846417294
 30
0.0
 11
1494.6033403763
 21
129.7846417294
 31
0.0
  0
LINE
  5
141
100
AcDbEntity
  8
L1_120
  6
CONTINUOUS
 62
         7
100
AcDbLine
 10
1492.6033403763
 20
129.7846417294
 30
0.0
 11
1492.5033403763
 21
129.6846417294
 31
0.0
  0
LINE
  5
142
100
AcDbEntity
  8
L1_120
  6
CONTINUOUS
 62
         7
100
AcDbLine
 10
1492.5033403763
 20
129.6846417294
 30
0.0
 11
1463.1033403763
 21
129.6846417294
 31
0.0
  0
LINE
  5
143
100
AcDbEntity
  8
L1_120
  6
CONTINUOUS
 62
         7
100
AcDbLine
 10
1492.6033403763
 20
170.5846417294
 30
0.0
 11
1492.6033403763
 21
129.7846417294
 31
0.0
  0
LINE
  5
144
100
AcDbEntity
  8
L1_120
  6
CONTINUOUS
 62
         7
100
AcDbLine
 10
1494.6033403763
 20
170.5846417294
 30
0.0
 11
1494.7033403763
 21
170.6846417294
 31
0.0
  0
LINE
  5
145
100
AcDbEntity
  8
L1_120
  6
CONTINUOUS
 62
         7
100
AcDbLine
 10
1508.7373149725
 20
170.6846417294
 30
0.0
 11
1494.7033403763
 21
170.6846417294
 31
0.0
  0
LINE
  5
146
100
AcDbEntity
  8
L1_120
  6
CONTINUOUS
 62
         7
100
AcDbLine
 10
1492.5033403763
 20
170.6846417294
 30
0.0
 11
1492.6033403763
 21
170.5846417294
 31
0.0
  0
LINE
  5
147
100
AcDbEntity
  8
L1_120
  6
CONTINUOUS
 62
         7
100
AcDbLine
 10
1492.5033403763
 20
170.6846417294
 30
0.0
 11
1463.1033403763
 21
170.6846417294
 31
0.0
  0
ARC
  5
148
100
AcDbEntity
  8
L1_120
  6
CONTINUOUS
 62
         7
100
AcDbCircle
 10
1460.1033403763
 20
128.1846417294
 30
0.0
 40
0.5
100
AcDbArc
 50
270.0
 51
360.0
  0
ARC
  5
149
100
AcDbEntity
  8
L1_120
  6
CONTINUOUS
 62
         7
100
AcDbCircle
 10
1460.1033403763
 20
172.1846417294
 30
0.0
 40
0.5
100
AcDbArc
 50
0.0
 51
90.0
  0
LINE
  5
14A
100
AcDbEntity
  8
L1_120
  6
CENTER
 62
         1
100
AcDbLine
 10
1469.0083403763
 20
145.1846417294
 30
0.0
 11
1469.0083403763
 21
155.0346417294
 31
0.0
  0
LINE
  5
14B
100
AcDbEntity
  8
L1_120
  6
CENTER
 62
         1
100
AcDbLine
 10
1484.0082741959
 20
145.1846417294
 30
0.0
 11
1484.0082741959
 21
155.0346417294
 31
0.0
  0
LINE
  5
14C
100
AcDbEntity
  8
L1_120
  6
CONTINUOUS
 62
         7
100
AcDbLine
 10
1513.6033403763
 20
132.7619919986
 30
0.0
 11
1513.6033403763
 21
167.6072914602
 31
0.0
  0
LINE
  5
14D
100
AcDbEntity
  8
L1_120
  6
CONTINUOUS
 62
         7
100
AcDbLine
 10
1494.6033403763
 20
130.6846417294
 30
0.0
 11
1492.6033403763
 21
130.6846417294
 31
0.0
  0
LINE
  5
14E
100
AcDbEntity
  8
L1_120
  6
CONTINUOUS
 62
         7
100
AcDbLine
 10
1494.6033403763
 20
169.6846417294
 30
0.0
 11
1492.6033403763
 21
169.6846417294
 31
0.0
  0
LINE
  5
14F
100
AcDbEntity
  8
L1_120
  6
CONTINUOUS
 62
         7
100
AcDbLine
 10
1460.6033403763
 20
129.7492168605
 30
0.0
 11
1460.6033403763
 21
170.6200665983
 31
0.0
  0
LINE
  5
150
100
AcDbEntity
  8
L1_120
  6
CONTINUOUS
 62
         7
100
AcDbLine
 10
1460.1033403763
 20
172.6846417294
 30
0.0
 11
1420.1033403763
 21
172.6846417294
 31
0.0
  0
LINE
  5
151
100
AcDbEntity
  8
L1_120
  6
CONTINUOUS
 62
         7
100
AcDbLine
 10
1460.1033403763
 20
127.6846417294
 30
0.0
 11
1420.1033403763
 21
127.6846417294
 31
0.0
  0
ARC
  5
152
100
AcDbEntity
  8
L1_120
  6
CONTINUOUS
 62
         7
100
AcDbCircle
 10
1508.7373149725
 20
131.6846417294
 30
0.0
 40
2.0
100
AcDbArc
 50
269.9999999999
 51
300.0
  0
LINE
  5
153
100
AcDbEntity
  8
L1_120
  6
CONTINUOUS
 62
         7
100
AcDbLine
 10
1513.1033403763
 20
131.8959665948
 30
0.0
 11
1509.7373149725
 21
129.9525909218
 31
0.0
  0
ARC
  5
154
100
AcDbEntity
  8
L1_120
  6
CONTINUOUS
 62
         7
100
AcDbCircle
 10
1512.6033403763
 20
132.7619919986
 30
0.0
 40
1.0
100
AcDbArc
 50
300.0
 51
360.0
  0
ARC
  5
155
100
AcDbEntity
  8
L1_120
  6
CONTINUOUS
 62
         7
100
AcDbCircle
 10
1508.7373149725
 20
168.6846417294
 30
0.0
 40
2.0
100
AcDbArc
 50
60.0
 51
90.0000000001
  0
LINE
  5
156
100
AcDbEntity
  8
L1_120
  6
CONTINUOUS
 62
         7
100
AcDbLine
 10
1513.1033403763
 20
168.473316864
 30
0.0
 11
1509.7373149725
 21
170.416692537
 31
0.0
  0
ARC
  5
157
100
AcDbEntity
  8
L1_120
  6
CONTINUOUS
 62
         7
100
AcDbCircle
 10
1512.6033403763
 20
167.6072914602
 30
0.0
 40
1.0
100
AcDbArc
 50
0.0
 51
60.0
  0
LINE
  5
158
100
AcDbEntity
  8
L1_120
  6
CONTINUOUS
 62
         7
100
AcDbLine
 10
1462.3042692157
 20
170.4846417294
 30
0.0
 11
1460.9033403763
 21
170.4846417294
 31
0.0
  0
LINE
  5
159
100
AcDbEntity
  8
L1_120
  6
CONTINUOUS
 62
         7
100
AcDbLine
 10
1462.4077968337
 20
170.4982713989
 30
0.0
 11
1463.1033403763
 21
170.6846417294
 31
0.0
  0
ARC
  5
15A
100
AcDbEntity
  8
L1_120
  6
CONTINUOUS
 62
         7
100
AcDbCircle
 10
1462.3042692157
 20
170.8846417294
 30
0.0
 40
0.4
100
AcDbArc
 50
270.0
 51
285.0
  0
LINE
  5
15B
100
AcDbEntity
  8
L1_120
  6
CONTINUOUS
 62
         7
100
AcDbLine
 10
1463.7398320494
 20
170.6846417294
 30
0.0
 11
1463.1033403763
 21
170.6846417294
 31
0.0
  0
LINE
  5
15C
100
AcDbEntity
  8
L1_120
  6
CONTINUOUS
 62
         7
100
AcDbLine
 10
1460.5034794587
 20
170.8740943799
 30
0.0
 11
1460.6033403763
 21
171.5846417294
 31
0.0
  0
ARC
  5
15D
100
AcDbEntity
  8
L1_120
  6
CONTINUOUS
 62
         7
100
AcDbCircle
 10
1460.9033403763
 20
170.8846417294
 30
0.0
 40
0.4
100
AcDbArc
 50
181.5109716561
 51
270.0
  0
LINE
  5
15E
100
AcDbEntity
  8
L1_120
  6
CONTINUOUS
 62
         7
100
AcDbLine
 10
1460.6033403763
 20
171.5846417294
 30
0.0
 11
1460.6033403763
 21
172.1846417294
 31
0.0
  0
LINE
  5
15F
100
AcDbEntity
  8
L1_120
  6
CONTINUOUS
 62
         7
100
AcDbLine
 10
1462.3042692157
 20
129.8846417294
 30
0.0
 11
1460.9033403763
 21
129.8846417294
 31
0.0
  0
LINE
  5
160
100
AcDbEntity
  8
L1_120
  6
CONTINUOUS
 62
         7
100
AcDbLine
 10
1462.4077968337
 20
129.8710120599
 30
0.0
 11
1463.1033403763
 21
129.6846417294
 31
0.0
  0
ARC
  5
161
100
AcDbEntity
  8
L1_120
  6
CONTINUOUS
 62
         7
100
AcDbCircle
 10
1462.3042692157
 20
129.4846417294
 30
0.0
 40
0.4
100
AcDbArc
 50
75.0
 51
90.0
  0
LINE
  5
162
100
AcDbEntity
  8
L1_120
  6
CONTINUOUS
 62
         7
100
AcDbLine
 10
1463.7398320494
 20
129.6846417294
 30
0.0
 11
1463.1033403763
 21
129.6846417294
 31
0.0
  0
LINE
  5
163
100
AcDbEntity
  8
L1_120
  6
CONTINUOUS
 62
         7
100
AcDbLine
 10
1460.5034794587
 20
129.4951890789
 30
0.0
 11
1460.6033403763
 21
128.7846417294
 31
0.0
  0
ARC
  5
164
100
AcDbEntity
  8
L1_120
  6
CONTINUOUS
 62
         7
100
AcDbCircle
 10
1460.9033403763
 20
129.4846417294
 30
0.0
 40
0.4
100
AcDbArc
 50
90.0
 51
178.4890283439
  0
LINE
  5
165
100
AcDbEntity
  8
L1_120
  6
CONTINUOUS
 62
         7
100
AcDbLine
 10
1460.6033403763
 20
128.7846417294
 30
0.0
 11
1460.6033403763
 21
128.1846417294
 31
0.0
  0
CIRCLE
  5
166
100
AcDbEntity
  8
L1_120
  6
DASHED
 62
         2
100
AcDbCircle
 10
1723.2833403763
 20
150.1846417294
 30
0.0
 40
19.5
  0
CIRCLE
  5
167
100
AcDbEntity
  8
L1_120
  6
CONTINUOUS
 62
         7
100
AcDbCircle
 10
1723.2833403763
 20
150.1846417294
 30
0.0
 40
2.0
  0
ARC
  5
168
100
AcDbEntity
  8
L1_120
  6
CONTINUOUS
 62
         4
100
AcDbCircle
 10
1723.2833403763
 20
150.1846417294
 30
0.0
 40
3.0
100
AcDbArc
 50
270.0
 51
540.0
  0
CIRCLE
  5
169
100
AcDbEntity
  8
L1_120
  6
CONTINUOUS
 62
         7
100
AcDbCircle
 10
1723.2833403763
 20
150.1846417294
 30
0.0
 40
17.0
  0
CIRCLE
  5
16A
100
AcDbEntity
  8
L1_120
  6
CONTINUOUS
 62
         7
100
AcDbCircle
 10
1723.2833403763
 20
150.1846417294
 30
0.0
 40
16.0
  0
CIRCLE
  5
16B
100
AcDbEntity
  8
L1_120
  6
DASHED
 62
         2
100
AcDbCircle
 10
1723.2833403763
 20
150.1846417294
 30
0.0
 40
16.5
  0
CIRCLE
  5
16C
100
AcDbEntity
  8
L1_120
  6
DASHED
 62
         2
100
AcDbCircle
 10
1723.2833403763
 20
150.1846417294
 30
0.0
 40
17.5
  0
LINE
  5
16D
100
AcDbEntity
  8
L1_120
  6
CENTER
 62
         1
100
AcDbLine
 10
1723.2833403763
 20
150.1846417294
 30
0.0
 11
1734.5333403763
 21
130.6990701442
 31
0.0
  0
LINE
  5
16E
100
AcDbEntity
  8
L1_120
  6
CENTER
 62
         1
100
AcDbLine
 10
1723.2833403763
 20
150.1846417294
 30
0.0
 11
1734.5333403763
 21
169.6702133145
 31
0.0
  0
LINE
  5
16F
100
AcDbEntity
  8
L1_120
  6
CONTINUOUS
 62
         7
100
AcDbLine
 10
1447.6033403763
 20
-10.4433347407
 30
0.0
 11
1432.6020155108
 21
-10.4433347407
 31
0.0
  0
LINE
  5
170
100
AcDbEntity
  8
L1_120
  6
CONTINUOUS
 62
         7
100
AcDbLine
 10
1447.6033403763
 20
-15.4433347407
 30
0.0
 11
1432.6020155108
 21
-15.4433347407
 31
0.0
  0
LINE
  5
171
100
AcDbEntity
  8
L1_120
  6
CONTINUOUS
 62
         7
100
AcDbLine
 10
1419.1033403763
 20
128.6846417294
 30
0.0
 11
1419.1033403763
 21
130.4848743058
 31
0.0
  0
ARC
  5
172
100
AcDbEntity
  8
L1_120
  6
CONTINUOUS
 62
         7
100
AcDbCircle
 10
1415.1033403763
 20
130.4848743058
 30
0.0
 40
4.0
100
AcDbArc
 50
0.0
 51
88.5125
  0
ARC
  5
173
100
AcDbEntity
  8
L1_120
  6
CONTINUOUS
 62
         7
100
AcDbCircle
 10
1415.1033403763
 20
169.884409153
 30
0.0
 40
4.0
100
AcDbArc
 50
271.4875
 51
360.0
  0
LINE
  5
174
100
AcDbEntity
  8
L1_120
  6
CONTINUOUS
 62
         7
100
AcDbLine
 10
1419.1033403763
 20
169.884409153
 30
0.0
 11
1419.1033403763
 21
172.1846417294
 31
0.0
  0
LINE
  5
175
100
AcDbEntity
  8
L1_120
  6
CONTINUOUS
 62
         7
100
AcDbLine
 10
1419.1033403763
 20
-34.4433347407
 30
0.0
 11
1419.1033403763
 21
-32.6431021643
 31
0.0
  0
LINE
  5
176
100
AcDbEntity
  8
L1_120
  6
CONTINUOUS
 62
         7
100
AcDbLine
 10
1419.1033403763
 20
6.7564326829
 30
0.0
 11
1419.1033403763
 21
8.5566652593
 31
0.0
  0
ARC
  5
177
100
AcDbEntity
  8
L1_120
  6
CONTINUOUS
 62
         7
100
AcDbCircle
 10
1415.1033403763
 20
6.7564326829
 30
0.0
 40
4.0
100
AcDbArc
 50
271.4875
 51
360.0
  0
ARC
  5
178
100
AcDbEntity
  8
L1_120
  6
CONTINUOUS
 62
         7
100
AcDbCircle
 10
1415.1033403763
 20
-32.6431021643
 30
0.0
 40
4.0
100
AcDbArc
 50
0.0
 51
88.5125
  0
LINE
  5
179
100
AcDbEntity
  8
L1_120
  6
CONTINUOUS
 62
         7
100
AcDbLine
 10
1419.1033403763
 20
8.5566652593
 30
0.0
 11
1419.1033403763
 21
-32.6431021643
 31
0.0
  0
POLYLINE
  5
17B
100
AcDbEntity
  8
L1_120
  6
CONTINUOUS
 62
         7
100
AcDb2dPolyline
 66
         1
 10
0.0
 20
0.0
 30
0.0
 70
         2
  0
VERTEX
  5
17D
100
AcDbEntity
  8
L1_120
  6
CONTINUOUS
 62
         7
100
AcDbVertex
100
AcDb2dVertex
 10
1468.7633403762
 20
-23.7807932717
 30
0.0
 70
         1
  0
VERTEX
  5
17F
100
AcDbEntity
  8
L1_120
  6
CONTINUOUS
 62
         7
100
AcDbVertex
100
AcDb2dVertex
 10
1468.0270268265
 20
-23.8172080212
 30
0.0
 70
         1
  0
VERTEX
  5
181
100
AcDbEntity
  8
L1_120
  6
CONTINUOUS
 62
         7
100
AcDbVertex
100
AcDb2dVertex
 10
1467.6698262537
 20
-23.8617089771
 30
0.0
 70
         1
  0
VERTEX
  5
183
100
AcDbEntity
  8
L1_120
  6
CONTINUOUS
 62
         7
100
AcDbVertex
100
AcDb2dVertex
 10
1467.3251979753
 20
-23.9221834513
 30
0.0
 70
         1
  0
VERTEX
  5
185
100
AcDbEntity
  8
L1_120
  6
CONTINUOUS
 62
         7
100
AcDbVertex
100
AcDb2dVertex
 10
1466.9964342832
 20
-23.996958076
 30
0.0
 70
         1
  0
VERTEX
  5
187
100
AcDbEntity
  8
L1_120
  6
CONTINUOUS
 62
         7
100
AcDbVertex
100
AcDb2dVertex
 10
1466.5818920548
 20
-24.1172387495
 30
0.0
 70
         1
  0
VERTEX
  5
189
100
AcDbEntity
  8
L1_120
  6
CONTINUOUS
 62
         7
100
AcDbVertex
100
AcDb2dVertex
 10
1466.2054854529
 20
-24.2547988428
 30
0.0
 70
         1
  0
VERTEX
  5
18B
100
AcDbEntity
  8
L1_120
  6
CONTINUOUS
 62
         7
100
AcDbVertex
100
AcDb2dVertex
 10
1465.8693614076
 20
-24.4043167433
 30
0.0
 70
         1
  0
VERTEX
  5
18D
100
AcDbEntity
  8
L1_120
  6
CONTINUOUS
 62
         7
100
AcDbVertex
100
AcDb2dVertex
 10
1465.5736517259
 20
-24.5607936753
 30
0.0
 70
         1
  0
VERTEX
  5
18F
100
AcDbEntity
  8
L1_120
  6
CONTINUOUS
 62
         7
100
AcDbVertex
100
AcDb2dVertex
 10
1465.3168909215
 20
-24.7198258204
 30
0.0
 70
         1
  0
VERTEX
  5
191
100
AcDbEntity
  8
L1_120
  6
CONTINUOUS
 62
         7
100
AcDbVertex
100
AcDb2dVertex
 10
1465.0257447951
 20
-24.9334812217
 30
0.0
 70
         1
  0
VERTEX
  5
193
100
AcDbEntity
  8
L1_120
  6
CONTINUOUS
 62
         7
100
AcDbVertex
100
AcDb2dVertex
 10
1464.7931782752
 20
-25.138311958
 30
0.0
 70
         1
  0
VERTEX
  5
195
100
AcDbEntity
  8
L1_120
  6
CONTINUOUS
 62
         7
100
AcDbVertex
100
AcDb2dVertex
 10
1464.610007375
 20
-25.3298627061
 30
0.0
 70
         1
  0
VERTEX
  5
197
100
AcDbEntity
  8
L1_120
  6
CONTINUOUS
 62
         7
100
AcDbVertex
100
AcDb2dVertex
 10
1464.4234141246
 20
-25.5661611148
 30
0.0
 70
         1
  0
VERTEX
  5
199
100
AcDbEntity
  8
L1_120
  6
CONTINUOUS
 62
         7
100
AcDbVertex
100
AcDb2dVertex
 10
1464.2928404172
 20
-25.7711536684
 30
0.0
 70
         1
  0
VERTEX
  5
19B
100
AcDbEntity
  8
L1_120
  6
CONTINUOUS
 62
         7
100
AcDbVertex
100
AcDb2dVertex
 10
1464.1759324227
 20
-26.0053009057
 30
0.0
 70
         1
  0
VERTEX
  5
19D
100
AcDbEntity
  8
L1_120
  6
CONTINUOUS
 62
         7
100
AcDbVertex
100
AcDb2dVertex
 10
1464.0873983751
 20
-26.2515202576
 30
0.0
 70
         1
  0
VERTEX
  5
19F
100
AcDbEntity
  8
L1_120
  6
CONTINUOUS
 62
         7
100
AcDbVertex
100
AcDb2dVertex
 10
1464.0349108724
 20
-26.4810370018
 30
0.0
 70
         1
  0
VERTEX
  5
1A1
100
AcDbEntity
  8
L1_120
  6
CONTINUOUS
 62
         7
100
AcDbVertex
100
AcDb2dVertex
 10
1464.0100053935
 20
-26.7198558174
 30
0.0
 70
         1
  0
VERTEX
  5
1A3
100
AcDbEntity
  8
L1_120
  6
CONTINUOUS
 62
         7
100
AcDbVertex
100
AcDb2dVertex
 10
1464.0083403763
 20
-26.7997410839
 30
0.0
 70
         1
  0
SEQEND
  5
1A5
100
AcDbEntity
  8
L1_120
  6
CONTINUOUS
 62
         7
  0
DIMENSION
  5
1A9
100
AcDbEntity
  8
L1_120
  6
CONTINUOUS
 62
         4
100
AcDbDimension
  2
*D0
 10
1589.2241670941
 20
43.1301557934
 30
0.0
 11
1590.4703081415
 21
45.1551557934
 31
0.0
  3
DIMSTYLE1
100
AcDbAlignedDimension
 13
1589.2241670941
 23
48.8853970076
 33
0.0
 14
1594.2241670941
 24
49.2853970076
 34
0.0
100
AcDbRotatedDimension
  0
LINE
  5
1B8
100
AcDbEntity
  8
L1_120
  6
CENTER
 62
         1
100
AcDbLine
 10
1804.9806103209
 20
58.1853970076
 30
0.0
 11
1507.081506627
 21
58.1853970076
 31
0.0
  0
DIMENSION
  5
1BB
100
AcDbEntity
  8
L1_120
  6
CONTINUOUS
 62
         4
100
AcDbDimension
  2
*D1
 10
1790.7241670941
 20
87.6467088674
 30
0.0
 11
1768.4990979564
 21
89.6717088674
 31
0.0
  3
DIMSTYLE1
100
AcDbAlignedDimension
 13
1790.7241670941
 23
77.1853970076
 33
0.0
 14
1759.2241670941
 24
74.9853970076
 34
0.0
100
AcDbRotatedDimension
  0
DIMENSION
  5
1C9
100
AcDbEntity
  8
L1_120
  6
CONTINUOUS
 62
         4
100
AcDbDimension
  2
*D2
 10
1790.7241670941
 20
80.936463059
 30
0.0
 11
1785.9189462087
 21
82.961463059
 31
0.0
  3
DIMSTYLE1
100
AcDbAlignedDimension
 13
1790.7241670941
 23
77.1853970076
 33
0.0
 14
1783.7241670941
 24
77.1853970076
 34
0.0
100
AcDbRotatedDimension
  0
DIMENSION
  5
1D7
100
AcDbEntity
  8
L1_120
  6
CONTINUOUS
 62
         4
100
AcDbDimension
  2
*D3
 10
1797.6664927655
 20
77.6853970076
 30
0.0
 11
1795.6414927655
 21
53.7163891744
 31
0.0
  3
DIMSTYLE1
100
AcDbAlignedDimension
 13
1790.2241670941
 23
77.6853970076
 33
0.0
 14
1790.2241670941
 24
38.6853970076
 34
0.0
 50
90.0
100
AcDbRotatedDimension
  0
DIMENSION
  5
1E5
100
AcDbEntity
  8
L1_120
  6
CONTINUOUS
 62
         4
100
AcDbDimension
  2
*D4
 10
1756.4765562305
 20
75.1853970076
 30
0.0
 11
1754.4515562305
 21
47.0076125333
 31
0.0
  3
DIMSTYLE1
100
AcDbAlignedDimension
 13
1759.4241670941
 23
75.1853970076
 33
0.0
 14
1759.4241670941
 24
41.1853970076
 34
0.0
 50
90.0
100
AcDbRotatedDimension
  0
LINE
  5
1F1
100
AcDbEntity
  8
L1_120
  6
CONTINUOUS
 62
         7
100
AcDbLine
 10
1783.7241670941
 20
40.2853970076
 30
0.0
 11
1783.7241670941
 21
39.1853970076
 31
0.0
  0
ARC
  5
1F2
100
AcDbEntity
  8
L1_120
  6
CONTINUOUS
 62
         7
100
AcDbCircle
 10
1783.4241670941
 20
40.9853970076
 30
0.0
 40
0.4
100
AcDbArc
 50
1.5109716561
 51
90.0
  0
LINE
  5
1F3
100
AcDbEntity
  8
L1_120
  6
CONTINUOUS
 62
         7
100
AcDbLine
 10
1783.8240280117
 20
40.9959443571
 30
0.0
 11
1783.7241670941
 21
40.2853970076
 31
0.0
  0
LINE
  5
1F4
100
AcDbEntity
  8
L1_120
  6
CONTINUOUS
 62
         7
100
AcDbLine
 10
1780.587675421
 20
41.1853970076
 30
0.0
 11
1781.2241670941
 21
41.1853970076
 31
0.0
  0
ARC
  5
1F5
100
AcDbEntity
  8
L1_120
  6
CONTINUOUS
 62
         7
100
AcDbCircle
 10
1782.0232382547
 20
40.9853970076
 30
0.0
 40
0.4
100
AcDbArc
 50
90.0
 51
105.0
  0
LINE
  5
1F6
100
AcDbEntity
  8
L1_120
  6
CONTINUOUS
 62
         7
100
AcDbLine
 10
1781.9197106366
 20
41.3717673381
 30
0.0
 11
1781.2241670941
 21
41.1853970076
 31
0.0
  0
LINE
  5
1F7
100
AcDbEntity
  8
L1_120
  6
CONTINUOUS
 62
         7
100
AcDbLine
 10
1782.0232382547
 20
41.3853970076
 30
0.0
 11
1783.4241670941
 21
41.3853970076
 31
0.0
  0
LINE
  5
1F8
100
AcDbEntity
  8
L1_120
  6
CONTINUOUS
 62
         7
100
AcDbLine
 10
1783.7241670941
 20
76.0853970076
 30
0.0
 11
1783.7241670941
 21
77.1853970076
 31
0.0
  0
ARC
  5
1F9
100
AcDbEntity
  8
L1_120
  6
CONTINUOUS
 62
         7
100
AcDbCircle
 10
1783.4241670941
 20
75.3853970076
 30
0.0
 40
0.4
100
AcDbArc
 50
270.0
 51
358.4890283439
  0
LINE
  5
1FA
100
AcDbEntity
  8
L1_120
  6
CONTINUOUS
 62
         7
100
AcDbLine
 10
1783.8240280117
 20
75.3748496581
 30
0.0
 11
1783.7241670941
 21
76.0853970076
 31
0.0
  0
LINE
  5
1FB
100
AcDbEntity
  8
L1_120
  6
CONTINUOUS
 62
         7
100
AcDbLine
 10
1780.587675421
 20
75.1853970076
 30
0.0
 11
1781.2241670941
 21
75.1853970076
 31
0.0
  0
ARC
  5
1FC
100
AcDbEntity
  8
L1_120
  6
CONTINUOUS
 62
         7
100
AcDbCircle
 10
1782.0232382547
 20
75.3853970076
 30
0.0
 40
0.4
100
AcDbArc
 50
255.0
 51
270.0
  0
LINE
  5
1FD
100
AcDbEntity
  8
L1_120
  6
CONTINUOUS
 62
         7
100
AcDbLine
 10
1781.9197106366
 20
74.9990266771
 30
0.0
 11
1781.2241670941
 21
75.1853970076
 31
0.0
  0
LINE
  5
1FE
100
AcDbEntity
  8
L1_120
  6
CONTINUOUS
 62
         7
100
AcDbLine
 10
1782.0232382547
 20
74.9853970076
 30
0.0
 11
1783.4241670941
 21
74.9853970076
 31
0.0
  0
LINE
  5
1FF
100
AcDbEntity
  8
L1_120
  6
CONTINUOUS
 62
         7
100
AcDbLine
 10
1784.2241670941
 20
77.6853970076
 30
0.0
 11
1783.7241670941
 21
77.1853970076
 31
0.0
  0
LINE
  5
200
100
AcDbEntity
  8
L1_120
  6
CONTINUOUS
 62
         7
100
AcDbLine
 10
1790.2241670941
 20
77.6853970076
 30
0.0
 11
1784.2241670941
 21
77.6853970076
 31
0.0
  0
LINE
  5
201
100
AcDbEntity
  8
L1_120
  6
CONTINUOUS
 62
         7
100
AcDbLine
 10
1790.2241670941
 20
77.6853970076
 30
0.0
 11
1790.7241670941
 21
77.1853970076
 31
0.0
  0
LINE
  5
202
100
AcDbEntity
  8
L1_120
  6
CONTINUOUS
 62
         7
100
AcDbLine
 10
1783.7241670941
 20
41.2499721387
 30
0.0
 11
1783.7241670941
 21
75.1208218765
 31
0.0
  0
LINE
  5
203
100
AcDbEntity
  8
L1_120
  6
CONTINUOUS
 62
         7
100
AcDbLine
 10
1783.7241670941
 20
39.1853970076
 30
0.0
 11
1784.2241670941
 21
38.6853970076
 31
0.0
  0
LINE
  5
204
100
AcDbEntity
  8
L1_120
  6
CONTINUOUS
 62
         7
100
AcDbLine
 10
1790.7241670941
 20
39.1853970076
 30
0.0
 11
1790.7241670941
 21
77.1853970076
 31
0.0
  0
LINE
  5
205
100
AcDbEntity
  8
L1_120
  6
CONTINUOUS
 62
         7
100
AcDbLine
 10
1790.2241670941
 20
38.6853970076
 30
0.0
 11
1784.2241670941
 21
38.6853970076
 31
0.0
  0
LINE
  5
206
100
AcDbEntity
  8
L1_120
  6
CONTINUOUS
 62
         7
100
AcDbLine
 10
1790.7241670941
 20
39.1853970076
 30
0.0
 11
1790.2241670941
 21
38.6853970076
 31
0.0
  0
LINE
  5
207
100
AcDbEntity
  8
L1_120
  6
CONTINUOUS
 62
         7
100
AcDbLine
 10
1781.2241670941
 20
75.1853970076
 30
0.0
 11
1759.7241670941
 21
75.1853970076
 31
0.0
  0
LINE
  5
208
100
AcDbEntity
  8
L1_120
  6
CONTINUOUS
 62
         7
100
AcDbLine
 10
1759.2241670941
 20
74.896721873
 30
0.0
 11
1759.2241670941
 21
41.4740721422
 31
0.0
  0
LINE
  5
209
100
AcDbEntity
  8
L1_120
  6
CONTINUOUS
 62
         7
100
AcDbLine
 10
1781.2241670941
 20
41.1853970076
 30
0.0
 11
1759.7241670941
 21
41.1853970076
 31
0.0
  0
LINE
  5
20A
100
AcDbEntity
  8
L1_120
  6
CONTINUOUS
 62
         4
100
AcDbLine
 10
1790.2241670941
 20
77.6853970076
 30
0.0
 11
1790.2241670941
 21
38.6853970076
 31
0.0
  0
LINE
  5
20B
100
AcDbEntity
  8
L1_120
  6
CONTINUOUS
 62
         4
100
AcDbLine
 10
1784.2241670941
 20
38.6853970076
 30
0.0
 11
1784.2241670941
 21
77.6853970076
 31
0.0
  0
LINE
  5
20C
100
AcDbEntity
  8
L1_120
  6
CONTINUOUS
 62
         4
100
AcDbLine
 10
1781.2241670941
 20
41.1853970076
 30
0.0
 11
1781.2241670941
 21
75.1853970076
 31
0.0
  0
LINE
  5
20D
100
AcDbEntity
  8
L1_120
  6
CONTINUOUS
 62
         7
100
AcDbLine
 10
1759.2241670941
 20
41.4740721422
 30
0.0
 11
1759.7241670941
 21
41.1853970076
 31
0.0
  0
LINE
  5
20E
100
AcDbEntity
  8
L1_120
  6
CONTINUOUS
 62
         7
100
AcDbLine
 10
1759.2241670941
 20
74.896721873
 30
0.0
 11
1759.7241670941
 21
75.1853970076
 31
0.0
  0
LINE
  5
20F
100
AcDbEntity
  8
L1_120
  6
CONTINUOUS
 62
         4
100
AcDbLine
 10
1759.7241670941
 20
41.1853970076
 30
0.0
 11
1759.7241670941
 21
75.1853970076
 31
0.0
  0
DIMENSION
  5
212
100
AcDbEntity
  8
L1_120
  6
CONTINUOUS
 62
         4
100
AcDbDimension
  2
*D5
 10
1737.8341670941
 20
72.7007271077
 30
0.0
 11
1740.7565394465
 21
74.7257271077
 31
0.0
  3
DIMSTYLE1
100
AcDbAlignedDimension
 13
1737.8341670941
 23
67.5853970076
 33
0.0
 14
1739.3341670941
 24
67.5853970076
 34
0.0
100
AcDbRotatedDimension
  0
DIMENSION
  5
222
100
AcDbEntity
  8
L1_120
  6
CONTINUOUS
 62
         4
100
AcDbDimension
  2
*D6
 10
1727.1841670941
 20
70.6368091636
 30
0.0
 11
1717.7979093638
 21
72.6618091636
 31
0.0
  3
DIMSTYLE1
100
AcDbAlignedDimension
 13
1727.1841670941
 23
67.3853970076
 33
0.0
 14
1731.6841670941
 24
67.3853970076
 34
0.0
100
AcDbRotatedDimension
  0
DIMENSION
  5
232
100
AcDbEntity
  8
L1_120
  6
CONTINUOUS
 62
         4
100
AcDbDimension
  2
*D7
 10
1727.1841670941
 20
76.2388721547
 30
0.0
 11
1726.7344752961
 21
78.2638721547
 31
0.0
  3
DIMSTYLE1
100
AcDbAlignedDimension
 13
1727.1841670941
 23
67.1853970076
 33
0.0
 14
1739.3341670941
 24
67.5853970076
 34
0.0
100
AcDbRotatedDimension
  0
DIMENSION
  5
240
100
AcDbEntity
  8
L1_120
  6
CONTINUOUS
 62
         4
100
AcDbDimension
  2
*D8
 10
1723.8600683087
 20
67.6853970076
 30
0.0
 11
1721.8350683087
 21
52.9850018728
 31
0.0
  3
DIMSTYLE1
100
AcDbAlignedDimension
 13
1727.6841670941
 23
67.6853970076
 33
0.0
 14
1727.6841670941
 24
48.6853970076
 34
0.0
 50
90.0
100
AcDbRotatedDimension
  0
LINE
  5
24C
100
AcDbEntity
  8
L1_120
  6
CONTINUOUS
 62
         4
100
AcDbLine
 10
1739.2341670941
 20
48.6853970076
 30
0.0
 11
1739.2341670941
 21
67.6853970076
 31
0.0
  0
LINE
  5
24D
100
AcDbEntity
  8
L1_120
  6
CONTINUOUS
 62
         4
100
AcDbLine
 10
1737.9341670941
 20
48.6853970076
 30
0.0
 11
1737.9341670941
 21
67.6853970076
 31
0.0
  0
LINE
  5
24E
100
AcDbEntity
  8
L1_120
  6
CONTINUOUS
 62
         4
100
AcDbLine
 10
1731.1841670941
 20
48.6853970076
 30
0.0
 11
1731.1841670941
 21
67.6853970076
 31
0.0
  0
LINE
  5
24F
100
AcDbEntity
  8
L1_120
  6
CONTINUOUS
 62
         4
100
AcDbLine
 10
1727.6841670941
 20
48.6853970076
 30
0.0
 11
1727.6841670941
 21
67.6853970076
 31
0.0
  0
LINE
  5
250
100
AcDbEntity
  8
L1_120
  6
CONTINUOUS
 62
         7
100
AcDbLine
 10
1727.1841670941
 20
67.1853970076
 30
0.0
 11
1727.6841670941
 21
67.6853970076
 31
0.0
  0
LINE
  5
251
100
AcDbEntity
  8
L1_120
  6
CONTINUOUS
 62
         7
100
AcDbLine
 10
1731.6841670941
 20
67.1853970076
 30
0.0
 11
1731.1841670941
 21
67.6853970076
 31
0.0
  0
LINE
  5
252
100
AcDbEntity
  8
L1_120
  6
CONTINUOUS
 62
         7
100
AcDbLine
 10
1731.6841670941
 20
49.1853970076
 30
0.0
 11
1731.1841670941
 21
48.6853970076
 31
0.0
  0
LINE
  5
253
100
AcDbEntity
  8
L1_120
  6
CONTINUOUS
 62
         7
100
AcDbLine
 10
1727.1841670941
 20
49.1853970076
 30
0.0
 11
1727.6841670941
 21
48.6853970076
 31
0.0
  0
LINE
  5
254
100
AcDbEntity
  8
L1_120
  6
CONTINUOUS
 62
         7
100
AcDbLine
 10
1739.3341670941
 20
48.7853970076
 30
0.0
 11
1739.2341670941
 21
48.6853970076
 31
0.0
  0
LINE
  5
255
100
AcDbEntity
  8
L1_120
  6
CONTINUOUS
 62
         7
100
AcDbLine
 10
1737.8341670941
 20
48.7853970076
 30
0.0
 11
1737.9341670941
 21
48.6853970076
 31
0.0
  0
LINE
  5
256
100
AcDbEntity
  8
L1_120
  6
CONTINUOUS
 62
         7
100
AcDbLine
 10
1739.2341670941
 20
67.6853970076
 30
0.0
 11
1739.3341670941
 21
67.5853970076
 31
0.0
  0
LINE
  5
257
100
AcDbEntity
  8
L1_120
  6
CONTINUOUS
 62
         7
100
AcDbLine
 10
1737.8341670941
 20
67.5853970076
 30
0.0
 11
1737.9341670941
 21
67.6853970076
 31
0.0
  0
LINE
  5
258
100
AcDbEntity
  8
L1_120
  6
CONTINUOUS
 62
         7
100
AcDbLine
 10
1737.8341670941
 20
50.6853970076
 30
0.0
 11
1731.6841670941
 21
50.6853970076
 31
0.0
  0
LINE
  5
259
100
AcDbEntity
  8
L1_120
  6
CONTINUOUS
 62
         7
100
AcDbLine
 10
1737.8341670941
 20
65.6853970076
 30
0.0
 11
1731.6841670941
 21
65.6853970076
 31
0.0
  0
LINE
  5
25A
100
AcDbEntity
  8
L1_120
  6
CONTINUOUS
 62
         7
100
AcDbLine
 10
1737.8341670941
 20
48.7853970076
 30
0.0
 11
1737.8341670941
 21
67.5853970076
 31
0.0
  0
LINE
  5
25B
100
AcDbEntity
  8
L1_120
  6
CONTINUOUS
 62
         7
100
AcDbLine
 10
1739.3341670941
 20
48.7853970076
 30
0.0
 11
1739.3341670941
 21
67.5853970076
 31
0.0
  0
LINE
  5
25C
100
AcDbEntity
  8
L1_120
  6
CONTINUOUS
 62
         7
100
AcDbLine
 10
1739.2341670941
 20
67.6853970076
 30
0.0
 11
1737.9341670941
 21
67.6853970076
 31
0.0
  0
LINE
  5
25D
100
AcDbEntity
  8
L1_120
  6
CONTINUOUS
 62
         7
100
AcDbLine
 10
1739.2341670941
 20
48.6853970076
 30
0.0
 11
1737.9341670941
 21
48.6853970076
 31
0.0
  0
LINE
  5
25E
100
AcDbEntity
  8
L1_120
  6
CONTINUOUS
 62
         7
100
AcDbLine
 10
1731.1841670941
 20
48.6853970076
 30
0.0
 11
1727.6841670941
 21
48.6853970076
 31
0.0
  0
LINE
  5
25F
100
AcDbEntity
  8
L1_120
  6
CONTINUOUS
 62
         7
100
AcDbLine
 10
1731.6841670941
 20
49.1853970076
 30
0.0
 11
1731.6841670941
 21
67.1853970076
 31
0.0
  0
LINE
  5
260
100
AcDbEntity
  8
L1_120
  6
CONTINUOUS
 62
         7
100
AcDbLine
 10
1731.1841670941
 20
67.6853970076
 30
0.0
 11
1727.6841670941
 21
67.6853970076
 31
0.0
  0
LINE
  5
261
100
AcDbEntity
  8
L1_120
  6
CONTINUOUS
 62
         7
100
AcDbLine
 10
1727.1841670941
 20
49.1853970076
 30
0.0
 11
1727.1841670941
 21
67.1853970076
 31
0.0
  0
DIMENSION
  5
264
100
AcDbEntity
  8
L1_120
  6
CONTINUOUS
 62
         4
100
AcDbDimension
  2
*D9
 10
1709.9616503749
 20
70.8853970076
 30
0.0
 11
1707.9366503749
 21
46.6977729588
 31
0.0
  3
DIMSTYLE1
100
AcDbAlignedDimension
 13
1695.2241670941
 23
70.8853970076
 33
0.0
 14
1695.2241670941
 24
45.4853970076
 34
0.0
 50
90.0
100
AcDbRotatedDimension
  0
DIMENSION
  5
272
100
AcDbEntity
  8
L1_120
  6
CONTINUOUS
 62
         4
100
AcDbDimension
  2
*D10
 10
1703.240790377
 20
63.4353970076
 30
0.0
 11
1701.215790377
 21
52.6578446253
 31
0.0
  3
DIMSTYLE1
100
AcDbAlignedDimension
 13
1695.9241670941
 23
63.4353970076
 33
0.0
 14
1695.9241670941
 24
52.9353970076
 34
0.0
 50
90.0
100
AcDbRotatedDimension
  0
DIMENSION
  5
280
100
AcDbEntity
  8
L1_120
  6
CONTINUOUS
 62
         4
100
AcDbDimension
  2
*D11
 10
1616.5020709869
 20
74.1853970076
 30
0.0
 11
1614.4770709869
 21
51.0877350052
 31
0.0
  3
DIMSTYLE1
100
AcDbAlignedDimension
 13
1622.4241670941
 23
74.1853970076
 33
0.0
 14
1622.4241670941
 24
42.1853970076
 34
0.0
 50
90.0
100
AcDbRotatedDimension
  0
DIMENSION
  5
28E
100
AcDbEntity
  8
L1_120
  6
CONTINUOUS
 62
         4
100
AcDbDimension
  2
*D12
 10
1696.4241670941
 20
85.5833943722
 30
0.0
 11
1657.391591869
 21
87.6083943722
 31
0.0
  3
DIMSTYLE1
100
AcDbAlignedDimension
 13
1696.4241670941
 23
70.3853970076
 33
0.0
 14
1621.4241670941
 24
73.1853970076
 34
0.0
100
AcDbRotatedDimension
  0
DIMENSION
  5
29C
100
AcDbEntity
  8
L1_120
  6
CONTINUOUS
 62
         4
100
AcDbDimension
  2
*D13
 10
1664.9241670941
 20
79.315887137
 30
0.0
 11
1674.5804814952
 21
81.340887137
 31
0.0
  3
DIMSTYLE1
100
AcDbAlignedDimension
 13
1664.9241670941
 23
73.1853970076
 33
0.0
 14
1696.4241670941
 24
70.3853970076
 34
0.0
100
AcDbRotatedDimension
  0
LINE
  5
2A8
100
AcDbEntity
  8
L1_120
  6
CONTINUOUS
 62
         7
100
AcDbLine
 10
1691.5741670941
 20
45.5853970076
 30
0.0
 11
1691.6741670941
 21
45.4853970076
 31
0.0
  0
LINE
  5
2A9
100
AcDbEntity
  8
L1_120
  6
CONTINUOUS
 62
         7
100
AcDbLine
 10
1690.0741670941
 20
45.5853970076
 30
0.0
 11
1689.9741670941
 21
45.4853970076
 31
0.0
  0
LINE
  5
2AA
100
AcDbEntity
  8
L1_120
  6
CONTINUOUS
 62
         7
100
AcDbLine
 10
1691.5741670941
 20
70.7853970076
 30
0.0
 11
1691.6741670941
 21
70.8853970076
 31
0.0
  0
LINE
  5
2AB
100
AcDbEntity
  8
L1_120
  6
CONTINUOUS
 62
         7
100
AcDbLine
 10
1689.9741670941
 20
70.8853970076
 30
0.0
 11
1690.0741670941
 21
70.7853970076
 31
0.0
  0
ARC
  5
2AC
100
AcDbEntity
  8
L1_120
  6
CONTINUOUS
 62
         4
100
AcDbCircle
 10
1633.0913068918
 20
58.1853970076
 30
0.0
 40
5.34
100
AcDbArc
 50
90.0
 51
270.0
  0
ARC
  5
2AD
100
AcDbEntity
  8
L1_120
  6
CONTINUOUS
 62
         4
100
AcDbCircle
 10
1649.0600297854
 20
58.1853970076
 30
0.0
 40
5.34
100
AcDbArc
 50
270.0
 51
450.0
  0
LINE
  5
2AE
100
AcDbEntity
  8
L1_120
  6
CONTINUOUS
 62
         4
100
AcDbLine
 10
1649.0600297854
 20
52.8453970076
 30
0.0
 11
1633.0913068918
 21
52.8453970076
 31
0.0
  0
LINE
  5
2AF
100
AcDbEntity
  8
L1_120
  6
CONTINUOUS
 62
         4
100
AcDbLine
 10
1649.0600297854
 20
63.5253970076
 30
0.0
 11
1633.0913068918
 21
63.5253970076
 31
0.0
  0
ARC
  5
2B0
100
AcDbEntity
  8
L1_120
  6
CONTINUOUS
 62
         7
100
AcDbCircle
 10
1647.470612976
 20
58.1853970076
 30
0.0
 40
4.84
100
AcDbArc
 50
270.0
 51
450.0
  0
ARC
  5
2B1
100
AcDbEntity
  8
L1_120
  6
CONTINUOUS
 62
         7
100
AcDbCircle
 10
1634.6807237055
 20
58.1853970076
 30
0.0
 40
4.84
100
AcDbArc
 50
90.0
 51
270.0
  0
LINE
  5
2B2
100
AcDbEntity
  8
L1_120
  6
CONTINUOUS
 62
         7
100
AcDbLine
 10
1647.470612976
 20
53.3453970076
 30
0.0
 11
1634.6807237055
 21
53.3453970076
 31
0.0
  0
LINE
  5
2B3
100
AcDbEntity
  8
L1_120
  6
CONTINUOUS
 62
         7
100
AcDbLine
 10
1647.470612976
 20
63.0253970076
 30
0.0
 11
1634.6807237055
 21
63.0253970076
 31
0.0
  0
ARC
  5
2B4
100
AcDbEntity
  8
L1_120
  6
CONTINUOUS
 62
         7
100
AcDbCircle
 10
1634.6275565276
 20
58.1853970076
 30
0.0
 40
3.0
100
AcDbArc
 50
90.0
 51
270.0
  0
ARC
  5
2B5
100
AcDbEntity
  8
L1_120
  6
CONTINUOUS
 62
         7
100
AcDbCircle
 10
1647.523780154
 20
58.1853970076
 30
0.0
 40
3.0
100
AcDbArc
 50
270.0
 51
450.0
  0
LINE
  5
2B6
100
AcDbEntity
  8
L1_120
  6
CONTINUOUS
 62
         7
100
AcDbLine
 10
1664.9241670941
 20
44.5853970076
 30
0.0
 11
1664.9241670941
 21
43.1853970076
 31
0.0
  0
ARC
  5
2B7
100
AcDbEntity
  8
L1_120
  6
CONTINUOUS
 62
         7
100
AcDbCircle
 10
1665.2241670941
 20
45.2853970076
 30
0.0
 40
0.4
100
AcDbArc
 50
90.0
 51
178.4890283439
  0
LINE
  5
2B8
100
AcDbEntity
  8
L1_120
  6
CONTINUOUS
 62
         7
100
AcDbLine
 10
1664.8243061765
 20
45.2959443571
 30
0.0
 11
1664.9241670941
 21
44.5853970076
 31
0.0
  0
LINE
  5
2B9
100
AcDbEntity
  8
L1_120
  6
CONTINUOUS
 62
         7
100
AcDbLine
 10
1668.0606587672
 20
45.4853970076
 30
0.0
 11
1667.4241670941
 21
45.4853970076
 31
0.0
  0
ARC
  5
2BA
100
AcDbEntity
  8
L1_120
  6
CONTINUOUS
 62
         7
100
AcDbCircle
 10
1666.6250959336
 20
45.2853970076
 30
0.0
 40
0.4
100
AcDbArc
 50
75.0
 51
90.0
  0
LINE
  5
2BB
100
AcDbEntity
  8
L1_120
  6
CONTINUOUS
 62
         7
100
AcDbLine
 10
1666.7286235516
 20
45.6717673381
 30
0.0
 11
1667.4241670941
 21
45.4853970076
 31
0.0
  0
LINE
  5
2BC
100
AcDbEntity
  8
L1_120
  6
CONTINUOUS
 62
         7
100
AcDbLine
 10
1666.6250959336
 20
45.6853970076
 30
0.0
 11
1665.2241670941
 21
45.6853970076
 31
0.0
  0
LINE
  5
2BD
100
AcDbEntity
  8
L1_120
  6
CONTINUOUS
 62
         7
100
AcDbLine
 10
1664.9241670941
 20
71.7853970076
 30
0.0
 11
1664.9241670941
 21
73.1853970076
 31
0.0
  0
ARC
  5
2BE
100
AcDbEntity
  8
L1_120
  6
CONTINUOUS
 62
         7
100
AcDbCircle
 10
1665.2241670941
 20
71.0853970076
 30
0.0
 40
0.4
100
AcDbArc
 50
181.5109716561
 51
270.0
  0
LINE
  5
2BF
100
AcDbEntity
  8
L1_120
  6
CONTINUOUS
 62
         7
100
AcDbLine
 10
1664.8243061765
 20
71.0748496581
 30
0.0
 11
1664.9241670941
 21
71.7853970076
 31
0.0
  0
LINE
  5
2C0
100
AcDbEntity
  8
L1_120
  6
CONTINUOUS
 62
         7
100
AcDbLine
 10
1668.0606587672
 20
70.8853970076
 30
0.0
 11
1667.4241670941
 21
70.8853970076
 31
0.0
  0
ARC
  5
2C1
100
AcDbEntity
  8
L1_120
  6
CONTINUOUS
 62
         7
100
AcDbCircle
 10
1666.6250959336
 20
71.0853970076
 30
0.0
 40
0.4
100
AcDbArc
 50
270.0
 51
285.0
  0
LINE
  5
2C2
100
AcDbEntity
  8
L1_120
  6
CONTINUOUS
 62
         7
100
AcDbLine
 10
1666.7286235516
 20
70.6990266771
 30
0.0
 11
1667.4241670941
 21
70.8853970076
 31
0.0
  0
LINE
  5
2C3
100
AcDbEntity
  8
L1_120
  6
CONTINUOUS
 62
         7
100
AcDbLine
 10
1666.6250959336
 20
70.6853970076
 30
0.0
 11
1665.2241670941
 21
70.6853970076
 31
0.0
  0
LINE
  5
2C4
100
AcDbEntity
  8
L1_120
  6
CONTINUOUS
 62
         7
100
AcDbLine
 10
1691.5741670941
 20
46.3853970076
 30
0.0
 11
1690.0741670941
 21
46.3853970076
 31
0.0
  0
LINE
  5
2C5
100
AcDbEntity
  8
L1_120
  6
CONTINUOUS
 62
         7
100
AcDbLine
 10
1691.5741670941
 20
69.9853970076
 30
0.0
 11
1690.0741670941
 21
69.9853970076
 31
0.0
  0
LINE
  5
2C6
100
AcDbEntity
  8
L1_120
  6
CONTINUOUS
 62
         7
100
AcDbLine
 10
1689.9741670941
 20
45.4853970076
 30
0.0
 11
1667.4241670941
 21
45.4853970076
 31
0.0
  0
LINE
  5
2C7
100
AcDbEntity
  8
L1_120
  6
CONTINUOUS
 62
         7
100
AcDbLine
 10
1667.4241670941
 20
70.8853970076
 30
0.0
 11
1689.9741670941
 21
70.8853970076
 31
0.0
  0
LINE
  5
2C8
100
AcDbEntity
  8
L1_120
  6
CONTINUOUS
 62
         7
100
AcDbLine
 10
1695.9241670941
 20
45.4853970076
 30
0.0
 11
1691.6741670941
 21
45.4853970076
 31
0.0
  0
LINE
  5
2C9
100
AcDbEntity
  8
L1_120
  6
CONTINUOUS
 62
         7
100
AcDbLine
 10
1695.9241670941
 20
70.8853970076
 30
0.0
 11
1691.6741670941
 21
70.8853970076
 31
0.0
  0
LINE
  5
2CA
100
AcDbEntity
  8
L1_120
  6
CONTINUOUS
 62
         7
100
AcDbLine
 10
1696.4241670941
 20
45.9853970076
 30
0.0
 11
1695.9241670941
 21
45.4853970076
 31
0.0
  0
LINE
  5
2CB
100
AcDbEntity
  8
L1_120
  6
CONTINUOUS
 62
         7
100
AcDbLine
 10
1695.9241670941
 20
70.8853970076
 30
0.0
 11
1696.4241670941
 21
70.3853970076
 31
0.0
  0
LINE
  5
2CC
100
AcDbEntity
  8
L1_120
  6
CONTINUOUS
 62
         7
100
AcDbLine
 10
1663.9241670941
 20
74.1853970076
 30
0.0
 11
1624.0581416903
 21
74.1853970076
 31
0.0
  0
LINE
  5
2CD
100
AcDbEntity
  8
L1_120
  6
CONTINUOUS
 62
         7
100
AcDbLine
 10
1663.9241670941
 20
42.1853970076
 30
0.0
 11
1624.0581416903
 21
42.1853970076
 31
0.0
  0
LINE
  5
2CE
100
AcDbEntity
  8
L1_120
  6
CONTINUOUS
 62
         7
100
AcDbLine
 10
1621.4241670941
 20
43.9174478152
 30
0.0
 11
1621.4241670941
 21
72.4533462001
 31
0.0
  0
LINE
  5
2CF
100
AcDbEntity
  8
L1_120
  6
CONTINUOUS
 62
         4
100
AcDbLine
 10
1663.9241670941
 20
74.1853970076
 30
0.0
 11
1663.9241670941
 21
42.1853970076
 31
0.0
  0
LINE
  5
2D0
100
AcDbEntity
  8
L1_120
  6
CONTINUOUS
 62
         7
100
AcDbLine
 10
1664.9241670941
 20
45.5499721387
 30
0.0
 11
1664.9241670941
 21
70.8208218765
 31
0.0
  0
LINE
  5
2D1
100
AcDbEntity
  8
L1_120
  6
CONTINUOUS
 62
         7
100
AcDbLine
 10
1690.0741670941
 20
45.5853970076
 30
0.0
 11
1690.0741670941
 21
70.7853970076
 31
0.0
  0
LINE
  5
2D2
100
AcDbEntity
  8
L1_120
  6
CONTINUOUS
 62
         7
100
AcDbLine
 10
1691.5741670941
 20
45.5853970076
 30
0.0
 11
1691.5741670941
 21
70.7853970076
 31
0.0
  0
LINE
  5
2D3
100
AcDbEntity
  8
L1_120
  6
CONTINUOUS
 62
         7
100
AcDbLine
 10
1691.5741670941
 20
53.4353970076
 30
0.0
 11
1691.5741670941
 21
62.9353970076
 31
0.0
  0
ARC
  5
2D4
100
AcDbEntity
  8
L1_120
  6
CONTINUOUS
 62
         7
100
AcDbCircle
 10
1692.0741670941
 20
62.9353970076
 30
0.0
 40
0.5
100
AcDbArc
 50
90.0
 51
180.0
  0
LINE
  5
2D5
100
AcDbEntity
  8
L1_120
  6
CONTINUOUS
 62
         7
100
AcDbLine
 10
1695.9241670941
 20
63.4353970076
 30
0.0
 11
1692.0741670941
 21
63.4353970076
 31
0.0
  0
ARC
  5
2D6
100
AcDbEntity
  8
L1_120
  6
CONTINUOUS
 62
         7
100
AcDbCircle
 10
1692.0741670941
 20
53.4353970076
 30
0.0
 40
0.5
100
AcDbArc
 50
180.0
 51
270.0
  0
LINE
  5
2D7
100
AcDbEntity
  8
L1_120
  6
CONTINUOUS
 62
         7
100
AcDbLine
 10
1695.9241670941
 20
52.9353970076
 30
0.0
 11
1692.0741670941
 21
52.9353970076
 31
0.0
  0
LINE
  5
2D8
100
AcDbEntity
  8
L1_120
  6
CONTINUOUS
 62
         4
100
AcDbLine
 10
1695.9241670941
 20
52.9353970076
 30
0.0
 11
1695.9241670941
 21
45.4853970076
 31
0.0
  0
LINE
  5
2D9
100
AcDbEntity
  8
L1_120
  6
CONTINUOUS
 62
         7
100
AcDbLine
 10
1695.9241670941
 20
52.9353970076
 30
0.0
 11
1696.4241670941
 21
52.4353970076
 31
0.0
  0
LINE
  5
2DA
100
AcDbEntity
  8
L1_120
  6
CONTINUOUS
 62
         4
100
AcDbLine
 10
1695.9241670941
 20
70.8853970076
 30
0.0
 11
1695.9241670941
 21
63.4353970076
 31
0.0
  0
LINE
  5
2DB
100
AcDbEntity
  8
L1_120
  6
CONTINUOUS
 62
         7
100
AcDbLine
 10
1696.4241670941
 20
63.9353970076
 30
0.0
 11
1695.9241670941
 21
63.4353970076
 31
0.0
  0
LINE
  5
2DC
100
AcDbEntity
  8
L1_120
  6
CONTINUOUS
 62
         7
100
AcDbLine
 10
1696.4241670941
 20
45.9853970076
 30
0.0
 11
1696.4241670941
 21
52.4353970076
 31
0.0
  0
LINE
  5
2DD
100
AcDbEntity
  8
L1_120
  6
CONTINUOUS
 62
         7
100
AcDbLine
 10
1696.4241670941
 20
63.9353970076
 30
0.0
 11
1696.4241670941
 21
70.3853970076
 31
0.0
  0
POLYLINE
  5
2DF
100
AcDbEntity
  8
L1_120
  6
CONTINUOUS
 62
         7
100
AcDb2dPolyline
 66
         1
 10
0.0
 20
0.0
 30
0.0
 70
         2
  0
VERTEX
  5
2E1
100
AcDbEntity
  8
L1_120
  6
CONTINUOUS
 62
         7
100
AcDbVertex
100
AcDb2dVertex
 10
1670.7241670941
 20
69.3096947383
 30
0.0
 70
         1
  0
VERTEX
  5
2E3
100
AcDbEntity
  8
L1_120
  6
CONTINUOUS
 62
         7
100
AcDbVertex
100
AcDb2dVertex
 10
1670.7689465537
 20
69.0992709764
 30
0.0
 70
         1
  0
VERTEX
  5
2E5
100
AcDbEntity
  8
L1_120
  6
CONTINUOUS
 62
         7
100
AcDbVertex
100
AcDb2dVertex
 10
1670.818240541
 20
69.0066089526
 30
0.0
 70
         1
  0
VERTEX
  5
2E7
100
AcDbEntity
  8
L1_120
  6
CONTINUOUS
 62
         7
100
AcDbVertex
100
AcDb2dVertex
 10
1670.887204355
 20
68.9142304873
 30
0.0
 70
         1
  0
VERTEX
  5
2E9
100
AcDbEntity
  8
L1_120
  6
CONTINUOUS
 62
         7
100
AcDbVertex
100
AcDb2dVertex
 10
1670.9762086986
 20
68.8237314044
 30
0.0
 70
         1
  0
VERTEX
  5
2EB
100
AcDbEntity
  8
L1_120
  6
CONTINUOUS
 62
         7
100
AcDbVertex
100
AcDb2dVertex
 10
1671.084936664
 20
68.7367803475
 30
0.0
 70
         1
  0
VERTEX
  5
2ED
100
AcDbEntity
  8
L1_120
  6
CONTINUOUS
 62
         7
100
AcDbVertex
100
AcDb2dVertex
 10
1671.2123366582
 20
68.6550252161
 30
0.0
 70
         1
  0
VERTEX
  5
2EF
100
AcDbEntity
  8
L1_120
  6
CONTINUOUS
 62
         7
100
AcDbVertex
100
AcDb2dVertex
 10
1671.3566372643
 20
68.5799923735
 30
0.0
 70
         1
  0
VERTEX
  5
2F1
100
AcDbEntity
  8
L1_120
  6
CONTINUOUS
 62
         7
100
AcDbVertex
100
AcDb2dVertex
 10
1671.515427863
 20
68.5129906729
 30
0.0
 70
         1
  0
VERTEX
  5
2F3
100
AcDbEntity
  8
L1_120
  6
CONTINUOUS
 62
         7
100
AcDbVertex
100
AcDb2dVertex
 10
1671.7463552531
 20
68.4373582201
 30
0.0
 70
         1
  0
VERTEX
  5
2F5
100
AcDbEntity
  8
L1_120
  6
CONTINUOUS
 62
         7
100
AcDbVertex
100
AcDb2dVertex
 10
1671.9902786487
 20
68.3794517929
 30
0.0
 70
         1
  0
VERTEX
  5
2F7
100
AcDbEntity
  8
L1_120
  6
CONTINUOUS
 62
         7
100
AcDbVertex
100
AcDb2dVertex
 10
1672.2391794689
 20
68.339541786
 30
0.0
 70
         1
  0
VERTEX
  5
2F9
100
AcDbEntity
  8
L1_120
  6
CONTINUOUS
 62
         7
100
AcDbVertex
100
AcDb2dVertex
 10
1672.5693701853
 20
68.3126944979
 30
0.0
 70
         1
  0
VERTEX
  5
2FB
100
AcDbEntity
  8
L1_120
  6
CONTINUOUS
 62
         7
100
AcDbVertex
100
AcDb2dVertex
 10
1672.8808754771
 20
68.312769154
 30
0.0
 70
         1
  0
VERTEX
  5
2FD
100
AcDbEntity
  8
L1_120
  6
CONTINUOUS
 62
         7
100
AcDbVertex
100
AcDb2dVertex
 10
1673.1642123828
 20
68.3341999736
 30
0.0
 70
         1
  0
VERTEX
  5
2FF
100
AcDbEntity
  8
L1_120
  6
CONTINUOUS
 62
         7
100
AcDbVertex
100
AcDb2dVertex
 10
1673.4146575939
 20
68.3711822357
 30
0.0
 70
         1
  0
VERTEX
  5
301
100
AcDbEntity
  8
L1_120
  6
CONTINUOUS
 62
         7
100
AcDbVertex
100
AcDb2dVertex
 10
1673.6312431936
 20
68.418457824
 30
0.0
 70
         1
  0
VERTEX
  5
303
100
AcDbEntity
  8
L1_120
  6
CONTINUOUS
 62
         7
100
AcDbVertex
100
AcDb2dVertex
 10
1673.8731556887
 20
68.4911861541
 30
0.0
 70
         1
  0
VERTEX
  5
305
100
AcDbEntity
  8
L1_120
  6
CONTINUOUS
 62
         7
100
AcDbVertex
100
AcDb2dVertex
 10
1674.0638181877
 20
68.5671762288
 30
0.0
 70
         1
  0
VERTEX
  5
307
100
AcDbEntity
  8
L1_120
  6
CONTINUOUS
 62
         7
100
AcDbVertex
100
AcDb2dVertex
 10
1674.2122453627
 20
68.6415586993
 30
0.0
 70
         1
  0
VERTEX
  5
309
100
AcDbEntity
  8
L1_120
  6
CONTINUOUS
 62
         7
100
AcDbVertex
100
AcDb2dVertex
 10
1674.3614038068
 20
68.7353568702
 30
0.0
 70
         1
  0
VERTEX
  5
30B
100
AcDbEntity
  8
L1_120
  6
CONTINUOUS
 62
         7
100
AcDbVertex
100
AcDb2dVertex
 10
1674.466153735
 20
68.8183998821
 30
0.0
 70
         1
  0
VERTEX
  5
30D
100
AcDbEntity
  8
L1_120
  6
CONTINUOUS
 62
         7
100
AcDbVertex
100
AcDb2dVertex
 10
1674.5610095389
 20
68.9140908223
 30
0.0
 70
         1
  0
VERTEX
  5
30F
100
AcDbEntity
  8
L1_120
  6
CONTINUOUS
 62
         7
100
AcDbVertex
100
AcDb2dVertex
 10
1674.6362158134
 20
69.0164074666
 30
0.0
 70
         1
  0
VERTEX
  5
311
100
AcDbEntity
  8
L1_120
  6
CONTINUOUS
 62
         7
100
AcDbVertex
100
AcDb2dVertex
 10
1674.6862272896
 20
69.1158392578
 30
0.0
 70
         1
  0
VERTEX
  5
313
100
AcDbEntity
  8
L1_120
  6
CONTINUOUS
 62
         7
100
AcDbVertex
100
AcDb2dVertex
 10
1674.7175915075
 20
69.2286714264
 30
0.0
 70
         1
  0
VERTEX
  5
315
100
AcDbEntity
  8
L1_120
  6
CONTINUOUS
 62
         7
100
AcDbVertex
100
AcDb2dVertex
 10
1674.7241670941
 20
69.3096947383
 30
0.0
 70
         1
  0
VERTEX
  5
317
100
AcDbEntity
  8
L1_120
  6
CONTINUOUS
 62
         7
100
AcDbVertex
100
AcDb2dVertex
 10
1674.7241670941
 20
69.3096947383
 30
0.0
 70
         1
  0
VERTEX
  5
319
100
AcDbEntity
  8
L1_120
  6
CONTINUOUS
 62
         7
100
AcDbVertex
100
AcDb2dVertex
 10
1674.6793876345
 20
69.5201185002
 30
0.0
 70
         1
  0
VERTEX
  5
31B
100
AcDbEntity
  8
L1_120
  6
CONTINUOUS
 62
         7
100
AcDbVertex
100
AcDb2dVertex
 10
1674.6300936473
 20
69.612780524
 30
0.0
 70
         1
  0
VERTEX
  5
31D
100
AcDbEntity
  8
L1_120
  6
CONTINUOUS
 62
         7
100
AcDbVertex
100
AcDb2dVertex
 10
1674.5611298332
 20
69.7051589893
 30
0.0
 70
         1
  0
VERTEX
  5
31F
100
AcDbEntity
  8
L1_120
  6
CONTINUOUS
 62
         7
100
AcDbVertex
100
AcDb2dVertex
 10
1674.4721254897
 20
69.7956580721
 30
0.0
 70
         1
  0
VERTEX
  5
321
100
AcDbEntity
  8
L1_120
  6
CONTINUOUS
 62
         7
100
AcDbVertex
100
AcDb2dVertex
 10
1674.3633975243
 20
69.8826091291
 30
0.0
 70
         1
  0
VERTEX
  5
323
100
AcDbEntity
  8
L1_120
  6
CONTINUOUS
 62
         7
100
AcDbVertex
100
AcDb2dVertex
 10
1674.2359975301
 20
69.9643642604
 30
0.0
 70
         1
  0
VERTEX
  5
325
100
AcDbEntity
  8
L1_120
  6
CONTINUOUS
 62
         7
100
AcDbVertex
100
AcDb2dVertex
 10
1674.0916969239
 20
70.039397103
 30
0.0
 70
         1
  0
VERTEX
  5
327
100
AcDbEntity
  8
L1_120
  6
CONTINUOUS
 62
         7
100
AcDbVertex
100
AcDb2dVertex
 10
1673.9329063253
 20
70.1063988036
 30
0.0
 70
         1
  0
VERTEX
  5
329
100
AcDbEntity
  8
L1_120
  6
CONTINUOUS
 62
         7
100
AcDbVertex
100
AcDb2dVertex
 10
1673.7019789352
 20
70.1820312564
 30
0.0
 70
         1
  0
VERTEX
  5
32B
100
AcDbEntity
  8
L1_120
  6
CONTINUOUS
 62
         7
100
AcDbVertex
100
AcDb2dVertex
 10
1673.4580555395
 20
70.2399376837
 30
0.0
 70
         1
  0
VERTEX
  5
32D
100
AcDbEntity
  8
L1_120
  6
CONTINUOUS
 62
         7
100
AcDbVertex
100
AcDb2dVertex
 10
1673.2091547193
 20
70.2798476906
 30
0.0
 70
         1
  0
VERTEX
  5
32F
100
AcDbEntity
  8
L1_120
  6
CONTINUOUS
 62
         7
100
AcDbVertex
100
AcDb2dVertex
 10
1672.8789640029
 20
70.3066949786
 30
0.0
 70
         1
  0
VERTEX
  5
331
100
AcDbEntity
  8
L1_120
  6
CONTINUOUS
 62
         7
100
AcDbVertex
100
AcDb2dVertex
 10
1672.5674587111
 20
70.3066203226
 30
0.0
 70
         1
  0
VERTEX
  5
333
100
AcDbEntity
  8
L1_120
  6
CONTINUOUS
 62
         7
100
AcDbVertex
100
AcDb2dVertex
 10
1672.2841218054
 20
70.285189503
 30
0.0
 70
         1
  0
VERTEX
  5
335
100
AcDbEntity
  8
L1_120
  6
CONTINUOUS
 62
         7
100
AcDbVertex
100
AcDb2dVertex
 10
1672.0336765944
 20
70.2482072408
 30
0.0
 70
         1
  0
VERTEX
  5
337
100
AcDbEntity
  8
L1_120
  6
CONTINUOUS
 62
         7
100
AcDbVertex
100
AcDb2dVertex
 10
1671.8170909946
 20
70.2009316526
 30
0.0
 70
         1
  0
VERTEX
  5
339
100
AcDbEntity
  8
L1_120
  6
CONTINUOUS
 62
         7
100
AcDbVertex
100
AcDb2dVertex
 10
1671.5751784995
 20
70.1282033224
 30
0.0
 70
         1
  0
VERTEX
  5
33B
100
AcDbEntity
  8
L1_120
  6
CONTINUOUS
 62
         7
100
AcDbVertex
100
AcDb2dVertex
 10
1671.3845160006
 20
70.0522132477
 30
0.0
 70
         1
  0
VERTEX
  5
33D
100
AcDbEntity
  8
L1_120
  6
CONTINUOUS
 62
         7
100
AcDbVertex
100
AcDb2dVertex
 10
1671.2360888255
 20
69.9778307773
 30
0.0
 70
         1
  0
VERTEX
  5
33F
100
AcDbEntity
  8
L1_120
  6
CONTINUOUS
 62
         7
100
AcDbVertex
100
AcDb2dVertex
 10
1671.0869303814
 20
69.8840326063
 30
0.0
 70
         1
  0
VERTEX
  5
341
100
AcDbEntity
  8
L1_120
  6
CONTINUOUS
 62
         7
100
AcDbVertex
100
AcDb2dVertex
 10
1670.9821804532
 20
69.8009895945
 30
0.0
 70
         1
  0
VERTEX
  5
343
100
AcDbEntity
  8
L1_120
  6
CONTINUOUS
 62
         7
100
AcDbVertex
100
AcDb2dVertex
 10
1670.8873246494
 20
69.7052986542
 30
0.0
 70
         1
  0
VERTEX
  5
345
100
AcDbEntity
  8
L1_120
  6
CONTINUOUS
 62
         7
100
AcDbVertex
100
AcDb2dVertex
 10
1670.8121183748
 20
69.60298201
 30
0.0
 70
         1
  0
VERTEX
  5
347
100
AcDbEntity
  8
L1_120
  6
CONTINUOUS
 62
         7
100
AcDbVertex
100
AcDb2dVertex
 10
1670.7621068986
 20
69.5035502187
 30
0.0
 70
         1
  0
VERTEX
  5
349
100
AcDbEntity
  8
L1_120
  6
CONTINUOUS
 62
         7
100
AcDbVertex
100
AcDb2dVertex
 10
1670.7307426808
 20
69.3907180501
 30
0.0
 70
         1
  0
VERTEX
  5
34B
100
AcDbEntity
  8
L1_120
  6
CONTINUOUS
 62
         7
100
AcDbVertex
100
AcDb2dVertex
 10
1670.7241670941
 20
69.3096947383
 30
0.0
 70
         1
  0
SEQEND
  5
34D
100
AcDbEntity
  8
L1_120
  6
CONTINUOUS
 62
         7
  0
POLYLINE
  5
34F
100
AcDbEntity
  8
L1_120
  6
CONTINUOUS
 62
         7
100
AcDb2dPolyline
 66
         1
 10
0.0
 20
0.0
 30
0.0
 70
         2
  0
VERTEX
  5
351
100
AcDbEntity
  8
L1_120
  6
CONTINUOUS
 62
         7
100
AcDbVertex
100
AcDb2dVertex
 10
1670.7241670941
 20
47.061099277
 30
0.0
 70
         1
  0
VERTEX
  5
353
100
AcDbEntity
  8
L1_120
  6
CONTINUOUS
 62
         7
100
AcDbVertex
100
AcDb2dVertex
 10
1670.7689465537
 20
46.8506755151
 30
0.0
 70
         1
  0
VERTEX
  5
355
100
AcDbEntity
  8
L1_120
  6
CONTINUOUS
 62
         7
100
AcDbVertex
100
AcDb2dVertex
 10
1670.818240541
 20
46.7580134913
 30
0.0
 70
         1
  0
VERTEX
  5
357
100
AcDbEntity
  8
L1_120
  6
CONTINUOUS
 62
         7
100
AcDbVertex
100
AcDb2dVertex
 10
1670.887204355
 20
46.665635026
 30
0.0
 70
         1
  0
VERTEX
  5
359
100
AcDbEntity
  8
L1_120
  6
CONTINUOUS
 62
         7
100
AcDbVertex
100
AcDb2dVertex
 10
1670.9762086986
 20
46.5751359431
 30
0.0
 70
         1
  0
VERTEX
  5
35B
100
AcDbEntity
  8
L1_120
  6
CONTINUOUS
 62
         7
100
AcDbVertex
100
AcDb2dVertex
 10
1671.084936664
 20
46.4881848862
 30
0.0
 70
         1
  0
VERTEX
  5
35D
100
AcDbEntity
  8
L1_120
  6
CONTINUOUS
 62
         7
100
AcDbVertex
100
AcDb2dVertex
 10
1671.2123366582
 20
46.4064297548
 30
0.0
 70
         1
  0
VERTEX
  5
35F
100
AcDbEntity
  8
L1_120
  6
CONTINUOUS
 62
         7
100
AcDbVertex
100
AcDb2dVertex
 10
1671.3566372643
 20
46.3313969122
 30
0.0
 70
         1
  0
VERTEX
  5
361
100
AcDbEntity
  8
L1_120
  6
CONTINUOUS
 62
         7
100
AcDbVertex
100
AcDb2dVertex
 10
1671.515427863
 20
46.2643952116
 30
0.0
 70
         1
  0
VERTEX
  5
363
100
AcDbEntity
  8
L1_120
  6
CONTINUOUS
 62
         7
100
AcDbVertex
100
AcDb2dVertex
 10
1671.7463552531
 20
46.1887627588
 30
0.0
 70
         1
  0
VERTEX
  5
365
100
AcDbEntity
  8
L1_120
  6
CONTINUOUS
 62
         7
100
AcDbVertex
100
AcDb2dVertex
 10
1671.9902786487
 20
46.1308563316
 30
0.0
 70
         1
  0
VERTEX
  5
367
100
AcDbEntity
  8
L1_120
  6
CONTINUOUS
 62
         7
100
AcDbVertex
100
AcDb2dVertex
 10
1672.2391794689
 20
46.0909463247
 30
0.0
 70
         1
  0
VERTEX
  5
369
100
AcDbEntity
  8
L1_120
  6
CONTINUOUS
 62
         7
100
AcDbVertex
100
AcDb2dVertex
 10
1672.5693701853
 20
46.0640990366
 30
0.0
 70
         1
  0
VERTEX
  5
36B
100
AcDbEntity
  8
L1_120
  6
CONTINUOUS
 62
         7
100
AcDbVertex
100
AcDb2dVertex
 10
1672.8808754771
 20
46.0641736927
 30
0.0
 70
         1
  0
VERTEX
  5
36D
100
AcDbEntity
  8
L1_120
  6
CONTINUOUS
 62
         7
100
AcDbVertex
100
AcDb2dVertex
 10
1673.1642123828
 20
46.0856045123
 30
0.0
 70
         1
  0
VERTEX
  5
36F
100
AcDbEntity
  8
L1_120
  6
CONTINUOUS
 62
         7
100
AcDbVertex
100
AcDb2dVertex
 10
1673.4146575939
 20
46.1225867744
 30
0.0
 70
         1
  0
VERTEX
  5
371
100
AcDbEntity
  8
L1_120
  6
CONTINUOUS
 62
         7
100
AcDbVertex
100
AcDb2dVertex
 10
1673.6312431936
 20
46.1698623627
 30
0.0
 70
         1
  0
VERTEX
  5
373
100
AcDbEntity
  8
L1_120
  6
CONTINUOUS
 62
         7
100
AcDbVertex
100
AcDb2dVertex
 10
1673.8731556887
 20
46.2425906928
 30
0.0
 70
         1
  0
VERTEX
  5
375
100
AcDbEntity
  8
L1_120
  6
CONTINUOUS
 62
         7
100
AcDbVertex
100
AcDb2dVertex
 10
1674.0638181877
 20
46.3185807675
 30
0.0
 70
         1
  0
VERTEX
  5
377
100
AcDbEntity
  8
L1_120
  6
CONTINUOUS
 62
         7
100
AcDbVertex
100
AcDb2dVertex
 10
1674.2122453627
 20
46.392963238
 30
0.0
 70
         1
  0
VERTEX
  5
379
100
AcDbEntity
  8
L1_120
  6
CONTINUOUS
 62
         7
100
AcDbVertex
100
AcDb2dVertex
 10
1674.3614038068
 20
46.486761409
 30
0.0
 70
         1
  0
VERTEX
  5
37B
100
AcDbEntity
  8
L1_120
  6
CONTINUOUS
 62
         7
100
AcDbVertex
100
AcDb2dVertex
 10
1674.466153735
 20
46.5698044208
 30
0.0
 70
         1
  0
VERTEX
  5
37D
100
AcDbEntity
  8
L1_120
  6
CONTINUOUS
 62
         7
100
AcDbVertex
100
AcDb2dVertex
 10
1674.5610095389
 20
46.6654953611
 30
0.0
 70
         1
  0
VERTEX
  5
37F
100
AcDbEntity
  8
L1_120
  6
CONTINUOUS
 62
         7
100
AcDbVertex
100
AcDb2dVertex
 10
1674.6362158134
 20
46.7678120053
 30
0.0
 70
         1
  0
VERTEX
  5
381
100
AcDbEntity
  8
L1_120
  6
CONTINUOUS
 62
         7
100
AcDbVertex
100
AcDb2dVertex
 10
1674.6862272896
 20
46.8672437966
 30
0.0
 70
         1
  0
VERTEX
  5
383
100
AcDbEntity
  8
L1_120
  6
CONTINUOUS
 62
         7
100
AcDbVertex
100
AcDb2dVertex
 10
1674.7175915075
 20
46.9800759651
 30
0.0
 70
         1
  0
VERTEX
  5
385
100
AcDbEntity
  8
L1_120
  6
CONTINUOUS
 62
         7
100
AcDbVertex
100
AcDb2dVertex
 10
1674.7241670941
 20
47.061099277
 30
0.0
 70
         1
  0
VERTEX
  5
387
100
AcDbEntity
  8
L1_120
  6
CONTINUOUS
 62
         7
100
AcDbVertex
100
AcDb2dVertex
 10
1674.7241670941
 20
47.061099277
 30
0.0
 70
         1
  0
VERTEX
  5
389
100
AcDbEntity
  8
L1_120
  6
CONTINUOUS
 62
         7
100
AcDbVertex
100
AcDb2dVertex
 10
1674.6793876345
 20
47.2715230389
 30
0.0
 70
         1
  0
VERTEX
  5
38B
100
AcDbEntity
  8
L1_120
  6
CONTINUOUS
 62
         7
100
AcDbVertex
100
AcDb2dVertex
 10
1674.6300936473
 20
47.3641850627
 30
0.0
 70
         1
  0
VERTEX
  5
38D
100
AcDbEntity
  8
L1_120
  6
CONTINUOUS
 62
         7
100
AcDbVertex
100
AcDb2dVertex
 10
1674.5611298332
 20
47.456563528
 30
0.0
 70
         1
  0
VERTEX
  5
38F
100
AcDbEntity
  8
L1_120
  6
CONTINUOUS
 62
         7
100
AcDbVertex
100
AcDb2dVertex
 10
1674.4721254897
 20
47.5470626109
 30
0.0
 70
         1
  0
VERTEX
  5
391
100
AcDbEntity
  8
L1_120
  6
CONTINUOUS
 62
         7
100
AcDbVertex
100
AcDb2dVertex
 10
1674.3633975243
 20
47.6340136678
 30
0.0
 70
         1
  0
VERTEX
  5
393
100
AcDbEntity
  8
L1_120
  6
CONTINUOUS
 62
         7
100
AcDbVertex
100
AcDb2dVertex
 10
1674.2359975301
 20
47.7157687991
 30
0.0
 70
         1
  0
VERTEX
  5
395
100
AcDbEntity
  8
L1_120
  6
CONTINUOUS
 62
         7
100
AcDbVertex
100
AcDb2dVertex
 10
1674.0916969239
 20
47.7908016418
 30
0.0
 70
         1
  0
VERTEX
  5
397
100
AcDbEntity
  8
L1_120
  6
CONTINUOUS
 62
         7
100
AcDbVertex
100
AcDb2dVertex
 10
1673.9329063253
 20
47.8578033423
 30
0.0
 70
         1
  0
VERTEX
  5
399
100
AcDbEntity
  8
L1_120
  6
CONTINUOUS
 62
         7
100
AcDbVertex
100
AcDb2dVertex
 10
1673.7019789352
 20
47.9334357951
 30
0.0
 70
         1
  0
VERTEX
  5
39B
100
AcDbEntity
  8
L1_120
  6
CONTINUOUS
 62
         7
100
AcDbVertex
100
AcDb2dVertex
 10
1673.4580555395
 20
47.9913422224
 30
0.0
 70
         1
  0
VERTEX
  5
39D
100
AcDbEntity
  8
L1_120
  6
CONTINUOUS
 62
         7
100
AcDbVertex
100
AcDb2dVertex
 10
1673.2091547193
 20
48.0312522293
 30
0.0
 70
         1
  0
VERTEX
  5
39F
100
AcDbEntity
  8
L1_120
  6
CONTINUOUS
 62
         7
100
AcDbVertex
100
AcDb2dVertex
 10
1672.8789640029
 20
48.0580995173
 30
0.0
 70
         1
  0
VERTEX
  5
3A1
100
AcDbEntity
  8
L1_120
  6
CONTINUOUS
 62
         7
100
AcDbVertex
100
AcDb2dVertex
 10
1672.5674587111
 20
48.0580248613
 30
0.0
 70
         1
  0
VERTEX
  5
3A3
100
AcDbEntity
  8
L1_120
  6
CONTINUOUS
 62
         7
100
AcDbVertex
100
AcDb2dVertex
 10
1672.2841218054
 20
48.0365940417
 30
0.0
 70
         1
  0
VERTEX
  5
3A5
100
AcDbEntity
  8
L1_120
  6
CONTINUOUS
 62
         7
100
AcDbVertex
100
AcDb2dVertex
 10
1672.0336765944
 20
47.9996117795
 30
0.0
 70
         1
  0
VERTEX
  5
3A7
100
AcDbEntity
  8
L1_120
  6
CONTINUOUS
 62
         7
100
AcDbVertex
100
AcDb2dVertex
 10
1671.8170909946
 20
47.9523361913
 30
0.0
 70
         1
  0
VERTEX
  5
3A9
100
AcDbEntity
  8
L1_120
  6
CONTINUOUS
 62
         7
100
AcDbVertex
100
AcDb2dVertex
 10
1671.5751784995
 20
47.8796078612
 30
0.0
 70
         1
  0
VERTEX
  5
3AB
100
AcDbEntity
  8
L1_120
  6
CONTINUOUS
 62
         7
100
AcDbVertex
100
AcDb2dVertex
 10
1671.3845160006
 20
47.8036177865
 30
0.0
 70
         1
  0
VERTEX
  5
3AD
100
AcDbEntity
  8
L1_120
  6
CONTINUOUS
 62
         7
100
AcDbVertex
100
AcDb2dVertex
 10
1671.2360888255
 20
47.729235316
 30
0.0
 70
         1
  0
VERTEX
  5
3AF
100
AcDbEntity
  8
L1_120
  6
CONTINUOUS
 62
         7
100
AcDbVertex
100
AcDb2dVertex
 10
1671.0869303814
 20
47.635437145
 30
0.0
 70
         1
  0
VERTEX
  5
3B1
100
AcDbEntity
  8
L1_120
  6
CONTINUOUS
 62
         7
100
AcDbVertex
100
AcDb2dVertex
 10
1670.9821804532
 20
47.5523941332
 30
0.0
 70
         1
  0
VERTEX
  5
3B3
100
AcDbEntity
  8
L1_120
  6
CONTINUOUS
 62
         7
100
AcDbVertex
100
AcDb2dVertex
 10
1670.8873246494
 20
47.4567031929
 30
0.0
 70
         1
  0
VERTEX
  5
3B5
100
AcDbEntity
  8
L1_120
  6
CONTINUOUS
 62
         7
100
AcDbVertex
100
AcDb2dVertex
 10
1670.8121183748
 20
47.3543865487
 30
0.0
 70
         1
  0
VERTEX
  5
3B7
100
AcDbEntity
  8
L1_120
  6
CONTINUOUS
 62
         7
100
AcDbVertex
100
AcDb2dVertex
 10
1670.7621068986
 20
47.2549547574
 30
0.0
 70
         1
  0
VERTEX
  5
3B9
100
AcDbEntity
  8
L1_120
  6
CONTINUOUS
 62
         7
100
AcDbVertex
100
AcDb2dVertex
 10
1670.7307426808
 20
47.1421225889
 30
0.0
 70
         1
  0
VERTEX
  5
3BB
100
AcDbEntity
  8
L1_120
  6
CONTINUOUS
 62
         7
100
AcDbVertex
100
AcDb2dVertex
 10
1670.7241670941
 20
47.061099277
 30
0.0
 70
         1
  0
SEQEND
  5
3BD
100
AcDbEntity
  8
L1_120
  6
CONTINUOUS
 62
         7
  0
CIRCLE
  5
3BE
100
AcDbEntity
  8
L1_120
  6
CONTINUOUS
 62
         7
100
AcDbCircle
 10
1679.1241670941
 20
58.1853970076
 30
0.0
 40
2.5
  0
LINE
  5
3BF
100
AcDbEntity
  8
L1_120
  6
CENTER
 62
         1
100
AcDbLine
 10
1679.1241670941
 20
50.71355673
 30
0.0
 11
1679.1241670941
 21
64.4662611346
 31
0.0
  0
LINE
  5
3C0
100
AcDbEntity
  8
L1_120
  6
CENTER
 62
         1
100
AcDbLine
 10
1672.7241670941
 20
40.509937333
 30
0.0
 11
1672.7241670941
 21
74.2262449056
 31
0.0
  0
LINE
  5
3C1
100
AcDbEntity
  8
L1_120
  6
CENTER
 62
         1
100
AcDbLine
 10
1634.6275565276
 20
52.3343352111
 30
0.0
 11
1634.6275565276
 21
64.8553846076
 31
0.0
  0
LINE
  5
3C2
100
AcDbEntity
  8
L1_120
  6
CENTER
 62
         1
100
AcDbLine
 10
1647.523780154
 20
52.3343352111
 30
0.0
 11
1647.523780154
 21
64.8553846076
 31
0.0
  0
ARC
  5
3C3
100
AcDbEntity
  8
L1_120
  6
CONTINUOUS
 62
         7
100
AcDbCircle
 10
1663.9241670941
 20
73.1853970076
 30
0.0
 40
1.0
100
AcDbArc
 50
0.0
 51
90.0
  0
ARC
  5
3C4
100
AcDbEntity
  8
L1_120
  6
CONTINUOUS
 62
         7
100
AcDbCircle
 10
1663.9241670941
 20
43.1853970076
 30
0.0
 40
1.0
100
AcDbArc
 50
270.0
 51
360.0
  0
LINE
  5
3C5
100
AcDbEntity
  8
L1_120
  6
CONTINUOUS
 62
         4
100
AcDbLine
 10
1667.4241670941
 20
45.4853970076
 30
0.0
 11
1667.4241670941
 21
70.8853970076
 31
0.0
  0
LINE
  5
3C6
100
AcDbEntity
  8
L1_120
  6
CONTINUOUS
 62
         7
100
AcDbLine
 10
1647.523780154
 20
61.1853970076
 30
0.0
 11
1634.6275565276
 21
61.1853970076
 31
0.0
  0
LINE
  5
3C7
100
AcDbEntity
  8
L1_120
  6
CONTINUOUS
 62
         7
100
AcDbLine
 10
1647.523780154
 20
55.1853970076
 30
0.0
 11
1634.6275565276
 21
55.1853970076
 31
0.0
  0
LINE
  5
3C8
100
AcDbEntity
  8
L1_120
  6
CONTINUOUS
 62
         4
100
AcDbLine
 10
1623.9241670941
 20
42.1853970076
 30
0.0
 11
1623.9241670941
 21
74.1853970076
 31
0.0
  0
LINE
  5
3C9
100
AcDbEntity
  8
L1_120
  6
CONTINUOUS
 62
         7
100
AcDbLine
 10
1621.6741670941
 20
72.886358902
 30
0.0
 11
1623.8081416903
 21
74.1184097095
 31
0.0
  0
LINE
  5
3CA
100
AcDbEntity
  8
L1_120
  6
CONTINUOUS
 62
         7
100
AcDbLine
 10
1621.6741670941
 20
43.4844351133
 30
0.0
 11
1623.8081416903
 21
42.2523843057
 31
0.0
  0
ARC
  5
3CB
100
AcDbEntity
  8
L1_120
  6
CONTINUOUS
 62
         7
100
AcDbCircle
 10
1624.0581416903
 20
73.6853970076
 30
0.0
 40
0.5
100
AcDbArc
 50
90.0
 51
120.0
  0
ARC
  5
3CC
100
AcDbEntity
  8
L1_120
  6
CONTINUOUS
 62
         7
100
AcDbCircle
 10
1621.9241670941
 20
72.4533462001
 30
0.0
 40
0.5
100
AcDbArc
 50
120.0
 51
180.0
  0
ARC
  5
3CD
100
AcDbEntity
  8
L1_120
  6
CONTINUOUS
 62
         7
100
AcDbCircle
 10
1621.9241670941
 20
43.9174478152
 30
0.0
 40
0.5
100
AcDbArc
 50
180.0
 51
240.0
  0
ARC
  5
3CE
100
AcDbEntity
  8
L1_120
  6
CONTINUOUS
 62
         7
100
AcDbCircle
 10
1624.0581416903
 20
42.6853970076
 30
0.0
 40
0.5
100
AcDbArc
 50
240.0
 51
270.0
  0
DIMENSION
  5
3D1
100
AcDbEntity
  8
L1_120
  6
CONTINUOUS
 62
         4
100
AcDbDimension
  2
*D14
 10
1561.7471808163
 20
80.6853970076
 30
0.0
 11
1559.7221808163
 21
52.8816937817
 31
0.0
  3
DIMSTYLE1
100
AcDbAlignedDimension
 13
1551.6901924979
 23
80.6853970076
 33
0.0
 14
1551.6901924979
 24
35.6853970076
 34
0.0
 50
90.0
100
AcDbRotatedDimension
  0
DIMENSION
  5
3DF
100
AcDbEntity
  8
L1_120
  6
CONTINUOUS
 62
         4
100
AcDbDimension
  2
*D15
 10
1522.8241670941
 20
83.675708384
 30
0.0
 11
1536.8263915407
 21
85.700708384
 31
0.0
  3
DIMSTYLE1
100
AcDbAlignedDimension
 13
1522.8241670941
 23
80.1853970076
 33
0.0
 14
1554.8241670941
 24
79.396721873
 34
0.0
100
AcDbRotatedDimension
  0
LINE
  5
3EB
100
AcDbEntity
  8
L1_120
  6
CONTINUOUS
 62
         7
100
AcDbLine
 10
1554.8241670941
 20
36.9740721422
 30
0.0
 11
1554.8241670941
 21
79.396721873
 31
0.0
  0
LINE
  5
3EC
100
AcDbEntity
  8
L1_120
  6
CONTINUOUS
 62
         7
100
AcDbLine
 10
1552.5562179017
 20
80.6853970076
 30
0.0
 11
1523.3241670941
 21
80.6853970076
 31
0.0
  0
LINE
  5
3ED
100
AcDbEntity
  8
L1_120
  6
CONTINUOUS
 62
         7
100
AcDbLine
 10
1522.8241670941
 20
80.1853970076
 30
0.0
 11
1523.3241670941
 21
80.6853970076
 31
0.0
  0
LINE
  5
3EE
100
AcDbEntity
  8
L1_120
  6
CONTINUOUS
 62
         7
100
AcDbLine
 10
1522.8241670941
 20
36.1853970076
 30
0.0
 11
1522.8241670941
 21
80.1853970076
 31
0.0
  0
LINE
  5
3EF
100
AcDbEntity
  8
L1_120
  6
CONTINUOUS
 62
         7
100
AcDbLine
 10
1552.5562179017
 20
35.6853970076
 30
0.0
 11
1523.3241670941
 21
35.6853970076
 31
0.0
  0
LINE
  5
3F0
100
AcDbEntity
  8
L1_120
  6
CONTINUOUS
 62
         7
100
AcDbLine
 10
1522.8241670941
 20
36.1853970076
 30
0.0
 11
1523.3241670941
 21
35.6853970076
 31
0.0
  0
LINE
  5
3F1
100
AcDbEntity
  8
L1_120
  6
CONTINUOUS
 62
         4
100
AcDbLine
 10
1523.3241670941
 20
80.6853970076
 30
0.0
 11
1523.3241670941
 21
35.6853970076
 31
0.0
  0
ARC
  5
3F2
100
AcDbEntity
  8
L1_120
  6
CONTINUOUS
 62
         7
100
AcDbCircle
 10
1552.5562179017
 20
78.6853970076
 30
0.0
 40
2.0
100
AcDbArc
 50
60.0
 51
90.0
  0
LINE
  5
3F3
100
AcDbEntity
  8
L1_120
  6
CONTINUOUS
 62
         7
100
AcDbLine
 10
1553.5562179017
 20
80.4174478152
 30
0.0
 11
1554.5741670941
 21
79.8297345749
 31
0.0
  0
ARC
  5
3F4
100
AcDbEntity
  8
L1_120
  6
CONTINUOUS
 62
         7
100
AcDbCircle
 10
1554.3241670941
 20
79.396721873
 30
0.0
 40
0.5
100
AcDbArc
 50
0.0
 51
60.0
  0
ARC
  5
3F5
100
AcDbEntity
  8
L1_120
  6
CONTINUOUS
 62
         7
100
AcDbCircle
 10
1554.3241670941
 20
36.9740721422
 30
0.0
 40
0.5
100
AcDbArc
 50
300.0
 51
360.0
  0
LINE
  5
3F6
100
AcDbEntity
  8
L1_120
  6
CONTINUOUS
 62
         7
100
AcDbLine
 10
1553.5562179017
 20
35.9533462001
 30
0.0
 11
1554.5741670941
 21
36.5410594403
 31
0.0
  0
ARC
  5
3F7
100
AcDbEntity
  8
L1_120
  6
CONTINUOUS
 62
         7
100
AcDbCircle
 10
1552.5562179017
 20
37.6853970076
 30
0.0
 40
2.0
100
AcDbArc
 50
270.0
 51
300.0
  0
LINE
  5
3F8
100
AcDbEntity
  8
L1_120
  6
CONTINUOUS
 62
         4
100
AcDbLine
 10
1553.0921162866
 20
35.7585309196
 30
0.0
 11
1553.0921162866
 21
80.6122630956
 31
0.0
  0
DIMENSION
  5
3FB
100
AcDbEntity
  8
L1_120
  6
CONTINUOUS
 62
         4
100
AcDbDimension
  2
*D16
 10
1576.9640638116
 20
65.6853970076
 30
0.0
 11
1574.9390638116
 21
52.2346944831
 31
0.0
  3
DIMSTYLE1
100
AcDbAlignedDimension
 13
1578.8241670941
 23
65.6853970076
 33
0.0
 14
1578.8241670941
 24
50.6853970076
 34
0.0
 50
90.0
100
AcDbRotatedDimension
  0
DIMENSION
  5
409
100
AcDbEntity
  8
L1_120
  6
CONTINUOUS
 62
         4
100
AcDbDimension
  2
*D17
 10
1600.9190708962
 20
67.5853970076
 30
0.0
 11
1598.8940708962
 21
50.0315488889
 31
0.0
  3
DIMSTYLE1
100
AcDbAlignedDimension
 13
1593.7241670941
 23
67.5853970076
 33
0.0
 14
1593.7241670941
 24
48.7853970076
 34
0.0
 50
90.0
100
AcDbRotatedDimension
  0
DIMENSION
  5
417
100
AcDbEntity
  8
L1_120
  6
CONTINUOUS
 62
         4
100
AcDbDimension
  2
*D18
 10
1594.2241670941
 20
70.1590354685
 30
0.0
 11
1581.2265234196
 21
72.1840354685
 31
0.0
  3
DIMSTYLE1
100
AcDbAlignedDimension
 13
1594.2241670941
 23
67.0853970076
 33
0.0
 14
1578.7241670941
 24
65.5853970076
 34
0.0
100
AcDbRotatedDimension
  0
LINE
  5
423
100
AcDbEntity
  8
L1_120
  6
CONTINUOUS
 62
         7
100
AcDbLine
 10
1578.7241670941
 20
51.1853970076
 30
0.0
 11
1578.7241670941
 21
65.1853970076
 31
0.0
  0
ARC
  5
424
100
AcDbEntity
  8
L1_120
  6
CONTINUOUS
 62
         7
100
AcDbCircle
 10
1588.7241670941
 20
66.1853970076
 30
0.0
 40
0.5
100
AcDbArc
 50
270.0
 51
360.0
  0
LINE
  5
425
100
AcDbEntity
  8
L1_120
  6
CONTINUOUS
 62
         7
100
AcDbLine
 10
1589.2241670941
 20
48.9853970076
 30
0.0
 11
1589.2241670941
 21
67.3853970076
 31
0.0
  0
LINE
  5
426
100
AcDbEntity
  8
L1_120
  6
CONTINUOUS
 62
         7
100
AcDbLine
 10
1588.7241670941
 20
65.6853970076
 30
0.0
 11
1579.2241670941
 21
65.6853970076
 31
0.0
  0
LINE
  5
427
100
AcDbEntity
  8
L1_120
  6
CONTINUOUS
 62
         7
100
AcDbLine
 10
1588.7241670941
 20
50.6853970076
 30
0.0
 11
1579.2241670941
 21
50.6853970076
 31
0.0
  0
ARC
  5
428
100
AcDbEntity
  8
L1_120
  6
CONTINUOUS
 62
         7
100
AcDbCircle
 10
1588.7241670941
 20
50.1853970076
 30
0.0
 40
0.5
100
AcDbArc
 50
0.0
 51
90.0
  0
LINE
  5
429
100
AcDbEntity
  8
L1_120
  6
CONTINUOUS
 62
         7
100
AcDbLine
 10
1593.7241670941
 20
67.5853970076
 30
0.0
 11
1589.4241670941
 21
67.5853970076
 31
0.0
  0
LINE
  5
42A
100
AcDbEntity
  8
L1_120
  6
CONTINUOUS
 62
         7
100
AcDbLine
 10
1593.7241670941
 20
67.5853970076
 30
0.0
 11
1594.2241670941
 21
67.0853970076
 31
0.0
  0
LINE
  5
42B
100
AcDbEntity
  8
L1_120
  6
CONTINUOUS
 62
         7
100
AcDbLine
 10
1594.2241670941
 20
49.2853970076
 30
0.0
 11
1594.2241670941
 21
67.0853970076
 31
0.0
  0
LINE
  5
42C
100
AcDbEntity
  8
L1_120
  6
CONTINUOUS
 62
         7
100
AcDbLine
 10
1593.7241670941
 20
48.7853970076
 30
0.0
 11
1589.4241670941
 21
48.7853970076
 31
0.0
  0
LINE
  5
42D
100
AcDbEntity
  8
L1_120
  6
CONTINUOUS
 62
         7
100
AcDbLine
 10
1594.2241670941
 20
49.2853970076
 30
0.0
 11
1593.7241670941
 21
48.7853970076
 31
0.0
  0
LINE
  5
42E
100
AcDbEntity
  8
L1_120
  6
CONTINUOUS
 62
         4
100
AcDbLine
 10
1593.7241670941
 20
67.5853970076
 30
0.0
 11
1593.7241670941
 21
48.7853970076
 31
0.0
  0
LINE
  5
42F
100
AcDbEntity
  8
L1_120
  6
CONTINUOUS
 62
         4
100
AcDbLine
 10
1588.7241670941
 20
65.6853970076
 30
0.0
 11
1588.7241670941
 21
50.6853970076
 31
0.0
  0
LINE
  5
430
100
AcDbEntity
  8
L1_120
  6
CONTINUOUS
 62
         7
100
AcDbLine
 10
1578.7241670941
 20
65.1853970076
 30
0.0
 11
1579.2241670941
 21
65.6853970076
 31
0.0
  0
LINE
  5
431
100
AcDbEntity
  8
L1_120
  6
CONTINUOUS
 62
         7
100
AcDbLine
 10
1578.7241670941
 20
51.1853970076
 30
0.0
 11
1579.2241670941
 21
50.6853970076
 31
0.0
  0
LINE
  5
432
100
AcDbEntity
  8
L1_120
  6
CONTINUOUS
 62
         7
100
AcDbLine
 10
1589.2241670941
 20
67.3853970076
 30
0.0
 11
1589.4241670941
 21
67.5853970076
 31
0.0
  0
LINE
  5
433
100
AcDbEntity
  8
L1_120
  6
CONTINUOUS
 62
         7
100
AcDbLine
 10
1589.2241670941
 20
48.9853970076
 30
0.0
 11
1589.4241670941
 21
48.7853970076
 31
0.0
  0
LINE
  5
434
100
AcDbEntity
  8
L1_120
  6
CONTINUOUS
 62
         4
100
AcDbLine
 10
1579.2241670941
 20
50.6853970076
 30
0.0
 11
1579.2241670941
 21
65.6853970076
 31
0.0
  0
LINE
  5
435
100
AcDbEntity
  8
L1_120
  6
CONTINUOUS
 62
         4
100
AcDbLine
 10
1589.4241670941
 20
48.7853970076
 30
0.0
 11
1589.4241670941
 21
67.5853970076
 31
0.0
  0
DIMENSION
  5
438
100
AcDbEntity
  8
L1_120
  6
CONTINUOUS
 62
         4
100
AcDbDimension
  2
*D19
 10
1240.9959194325
 20
-129.3800099683
 30
0.0
 11
1234.1959194325
 21
-127.3550099683
 31
0.0
  3
DIMSTYLE1
100
AcDbAlignedDimension
 13
1240.9959194325
 23
-122.2355276424
 33
0.0
 14
1235.4959194325
 24
-122.2355276424
 34
0.0
100
AcDbRotatedDimension
  0
DIMENSION
  5
448
100
AcDbEntity
  8
L1_120
  6
CONTINUOUS
 62
         4
100
AcDbDimension
  2
*D20
 10
1181.3136459292
 20
-113.2355276424
 30
0.0
 11
1179.2886459292
 21
-122.9855276424
 31
0.0
  3
DIMSTYLE1
100
AcDbAlignedDimension
 13
1189.7459194325
 23
-113.2355276424
 33
0.0
 14
1189.7459194325
 24
-119.2355276424
 34
0.0
 50
90.0
100
AcDbRotatedDimension
  0
DIMENSION
  5
458
100
AcDbEntity
  8
L1_120
  6
CONTINUOUS
 62
         4
100
AcDbDimension
  2
*D21
 10
1282.0154963061
 20
-116.9250508305
 30
0.0
 11
1289.9334876287
 21
-113.1658055329
 31
0.0
 70
         3
  3
DIMSTYLE1
100
AcDbDiametricDimension
 15
1286.5734426739
 25
-115.5460044542
 35
0.0
 40
0.0
  0
DIMENSION
  5
465
100
AcDbEntity
  8
L1_120
  6
CONTINUOUS
 62
         4
100
AcDbDimension
  2
*D22
 10
1354.5656709944
 20
-95.1445557404
 30
0.0
 11
1353.7156709944
 21
-93.1195557404
 31
0.0
  3
DIMSTYLE1
100
AcDbAlignedDimension
 13
1354.5656709944
 23
-105.9855276424
 33
0.0
 14
1355.5656709944
 24
-105.9855276424
 34
0.0
100
AcDbRotatedDimension
  0
DIMENSION
  5
475
100
AcDbEntity
  8
L1_120
  6
CONTINUOUS
 62
         4
100
AcDbDimension
  2
*D23
 10
1432.8623379113
 20
-102.5938262395
 30
0.0
 11
1435.6928888078
 21
-104.8535524863
 31
0.0
 70
         3
  3
DIMSTYLE1
100
AcDbDiametricDimension
 15
1433.6387896084
 25
-103.8772290453
 35
0.0
 40
0.0
  0
DIMENSION
  5
482
100
AcDbEntity
  8
L1_120
  6
CONTINUOUS
 62
         4
100
AcDbDimension
  2
*D24
 10
1404.2785777977
 20
-106.0469826996
 30
0.0
 11
1408.2289352604
 21
-108.3009982609
 31
0.0
 70
         3
  3
DIMSTYLE1
100
AcDbDiametricDimension
 15
1405.3225497219
 25
-107.1240725851
 35
0.0
 40
0.0
  0
DIMENSION
  5
48F
100
AcDbEntity
  8
L1_120
  6
CONTINUOUS
 62
         4
100
AcDbDimension
  2
*D25
 10
1383.0304026213
 20
-94.852947049
 30
0.0
 11
1386.0701621142
 21
-98.0112628526
 31
0.0
 70
         3
  3
DIMSTYLE1
100
AcDbDiametricDimension
 15
1383.9707248984
 25
-96.6181082357
 35
0.0
 40
0.0
  0
CIRCLE
  5
49A
100
AcDbEntity
  8
L1_120
  6
CONTINUOUS
 62
         7
100
AcDbCircle
 10
1284.29446949
 20
-116.2355276424
 30
0.0
 40
2.381
  0
CIRCLE
  5
49B
100
AcDbEntity
  8
L1_120
  6
CONTINUOUS
 62
         7
100
AcDbCircle
 10
1433.2505637598
 20
-129.2355276424
 30
0.0
 40
0.75
  0
LINE
  5
49C
100
AcDbEntity
  8
L1_120
  6
CONTINUOUS
 62
         7
100
AcDbLine
 10
1434.0005637598
 20
-129.2355276424
 30
0.0
 11
1434.0005637598
 21
-103.2355276424
 31
0.0
  0
CIRCLE
  5
49D
100
AcDbEntity
  8
L1_120
  6
CONTINUOUS
 62
         7
100
AcDbCircle
 10
1433.2505637598
 20
-103.2355276424
 30
0.0
 40
0.75
  0
LINE
  5
49E
100
AcDbEntity
  8
L1_120
  6
CONTINUOUS
 62
         7
100
AcDbLine
 10
1432.5005637598
 20
-129.2355276424
 30
0.0
 11
1432.5005637598
 21
-103.2355276424
 31
0.0
  0
DIMENSION
  5
4A1
100
AcDbEntity
  8
L1_120
  6
CONTINUOUS
 62
         4
100
AcDbDimension
  2
*D26
 10
1429.1455912037
 20
-102.4855276424
 30
0.0
 11
1427.1205912037
 21
-124.3355276424
 31
0.0
  3
DIMSTYLE1
100
AcDbAlignedDimension
 13
1433.2505637598
 23
-102.4855276424
 33
0.0
 14
1433.2505637598
 24
-129.9855276424
 34
0.0
 50
90.0
100
AcDbRotatedDimension
  0
CIRCLE
  5
4AD
100
AcDbEntity
  8
L1_120
  6
CONTINUOUS
 62
         7
100
AcDbCircle
 10
1404.8005637598
 20
-106.5855276424
 30
0.0
 40
0.75
  0
CIRCLE
  5
4AE
100
AcDbEntity
  8
L1_120
  6
CONTINUOUS
 62
         7
100
AcDbCircle
 10
1404.8005637598
 20
-125.8855276424
 30
0.0
 40
0.75
  0
LINE
  5
4AF
100
AcDbEntity
  8
L1_120
  6
CONTINUOUS
 62
         7
100
AcDbLine
 10
1404.0505637598
 20
-125.8855276424
 30
0.0
 11
1404.0505637598
 21
-106.5855276424
 31
0.0
  0
LINE
  5
4B0
100
AcDbEntity
  8
L1_120
  6
CONTINUOUS
 62
         7
100
AcDbLine
 10
1405.5505637598
 20
-125.8855276424
 30
0.0
 11
1405.5505637598
 21
-106.5855276424
 31
0.0
  0
DIMENSION
  5
4B3
100
AcDbEntity
  8
L1_120
  6
CONTINUOUS
 62
         4
100
AcDbDimension
  2
*D27
 10
1400.8672173975
 20
-105.8355276424
 30
0.0
 11
1398.8422173975
 21
-121.6355276424
 31
0.0
  3
DIMSTYLE1
100
AcDbAlignedDimension
 13
1404.8005637598
 23
-105.8355276424
 33
0.0
 14
1404.8005637598
 24
-126.6355276424
 34
0.0
 50
90.0
100
AcDbRotatedDimension
  0
DIMENSION
  5
4C1
100
AcDbEntity
  8
L1_120
  6
CONTINUOUS
 62
         4
100
AcDbDimension
  2
*D28
 10
1248.0301492352
 20
-109.7355276424
 30
0.0
 11
1246.0051492352
 21
-121.8161100477
 31
0.0
  3
DIMSTYLE1
100
AcDbAlignedDimension
 13
1240.4959194325
 23
-109.7355276424
 33
0.0
 14
1240.4959194325
 24
-122.7355276424
 34
0.0
 50
90.0
100
AcDbRotatedDimension
  0
DIMENSION
  5
4CF
100
AcDbEntity
  8
L1_120
  6
CONTINUOUS
 62
         4
100
AcDbDimension
  2
*D29
 10
1254.0953256408
 20
-107.9124745171
 30
0.0
 11
1244.2547267176
 21
-105.8874745171
 31
0.0
  3
DIMSTYLE1
100
AcDbAlignedDimension
 13
1254.0953256408
 23
-116.2355276424
 33
0.0
 14
1258.7141277943
 24
-116.2355276424
 34
0.0
100
AcDbRotatedDimension
  0
LINE
  5
4DB
100
AcDbEntity
  8
L1_120
  6
CONTINUOUS
 62
         7
100
AcDbLine
 10
1257.559427256
 20
-118.2355276424
 30
0.0
 11
1258.7141277943
 21
-116.2355276424
 31
0.0
  0
LINE
  5
4DC
100
AcDbEntity
  8
L1_120
  6
CONTINUOUS
 62
         7
100
AcDbLine
 10
1258.7141277943
 20
-116.2355276424
 30
0.0
 11
1257.559427256
 21
-114.2355276424
 31
0.0
  0
LINE
  5
4DD
100
AcDbEntity
  8
L1_120
  6
CONTINUOUS
 62
         7
100
AcDbLine
 10
1257.559427256
 20
-114.2355276424
 30
0.0
 11
1255.2500261792
 21
-114.2355276424
 31
0.0
  0
LINE
  5
4DE
100
AcDbEntity
  8
L1_120
  6
CONTINUOUS
 62
         7
100
AcDbLine
 10
1255.2500261792
 20
-114.2355276424
 30
0.0
 11
1254.0953256408
 21
-116.2355276424
 31
0.0
  0
LINE
  5
4DF
100
AcDbEntity
  8
L1_120
  6
CONTINUOUS
 62
         7
100
AcDbLine
 10
1254.0953256408
 20
-116.2355276424
 30
0.0
 11
1255.2500261792
 21
-118.2355276424
 31
0.0
  0
LINE
  5
4E0
100
AcDbEntity
  8
L1_120
  6
CONTINUOUS
 62
         7
100
AcDbLine
 10
1255.2500261792
 20
-118.2355276424
 30
0.0
 11
1257.559427256
 21
-118.2355276424
 31
0.0
  0
DIMENSION
  5
4E3
100
AcDbEntity
  8
L1_120
  6
CONTINUOUS
 62
         4
100
AcDbDimension
  2
*D30
 10
1265.2489652379
 20
-114.2355276424
 30
0.0
 11
1263.2239652379
 21
-117.5855276424
 31
0.0
  3
DIMSTYLE1
100
AcDbAlignedDimension
 13
1257.559427256
 23
-114.2355276424
 33
0.0
 14
1257.559427256
 24
-118.2355276424
 34
0.0
 50
90.0
100
AcDbRotatedDimension
  0
DIMENSION
  5
4F1
100
AcDbEntity
  8
L1_120
  6
CONTINUOUS
 62
         4
100
AcDbDimension
  2
*D31
 10
1200.4959194325
 20
-106.835920979
 30
0.0
 11
1214.1040247135
 21
-104.810920979
 31
0.0
  3
DIMSTYLE1
100
AcDbAlignedDimension
 13
1200.4959194325
 23
-113.2355276424
 33
0.0
 14
1235.4959194325
 24
-110.2355276424
 34
0.0
100
AcDbRotatedDimension
  0
LINE
  5
4FD
100
AcDbEntity
  8
L1_120
  6
CENTER
 62
         1
100
AcDbLine
 10
1466.2968438461
 20
-116.2355276424
 30
0.0
 11
1165.0698895203
 21
-116.2355276424
 31
0.0
  0
DIMENSION
  5
500
100
AcDbEntity
  8
L1_120
  6
CONTINUOUS
 62
         4
100
AcDbDimension
  2
*D32
 10
1311.6459428297
 20
-117.5279291666
 30
0.0
 11
1321.6513625703
 21
-113.3526492553
 31
0.0
 70
         3
  3
DIMSTYLE1
100
AcDbDiametricDimension
 15
1320.8135171109
 25
-114.9431261181
 35
0.0
 40
0.0
  0
LINE
  5
50B
100
AcDbEntity
  8
L1_120
  6
CONTINUOUS
 62
         7
100
AcDbLine
 10
1382.5005637598
 20
-136.7355276424
 30
0.0
 11
1382.5005637598
 21
-95.7355276424
 31
0.0
  0
LINE
  5
50C
100
AcDbEntity
  8
L1_120
  6
CONTINUOUS
 62
         7
100
AcDbLine
 10
1384.5005637598
 20
-136.7355276424
 30
0.0
 11
1384.5005637598
 21
-95.7355276424
 31
0.0
  0
CIRCLE
  5
50D
100
AcDbEntity
  8
L1_120
  6
CONTINUOUS
 62
         7
100
AcDbCircle
 10
1383.5005637598
 20
-136.7355276424
 30
0.0
 40
1.0
  0
CIRCLE
  5
50E
100
AcDbEntity
  8
L1_120
  6
CONTINUOUS
 62
         7
100
AcDbCircle
 10
1383.5005637598
 20
-95.7355276424
 30
0.0
 40
1.0
  0
DIMENSION
  5
511
100
AcDbEntity
  8
L1_120
  6
CONTINUOUS
 62
         4
100
AcDbDimension
  2
*D33
 10
1347.4912189014
 20
-105.9855276424
 30
0.0
 11
1345.4662189014
 21
-124.3355276424
 31
0.0
  3
DIMSTYLE1
100
AcDbAlignedDimension
 13
1354.5656709944
 23
-105.9855276424
 33
0.0
 14
1354.5656709944
 24
-126.4855276424
 34
0.0
 50
90.0
100
AcDbRotatedDimension
  0
TEXT
  5
51E
100
AcDbEntity
  8
L1_120
  6
CONTINUOUS
 62
         4
100
AcDbText
 10
1345.093525525
 20
-107.1938604716
 30
0.0
 40
1.7
  1
%%p 0.2
 50
90.0
  7
BOX
100
AcDbText
  0
DIMENSION
  5
521
100
AcDbEntity
  8
L1_120
  6
CONTINUOUS
 62
         4
100
AcDbDimension
  2
*D34
 10
1374.233032719
 20
-94.7355276424
 30
0.0
 11
1372.208032719
 21
-121.6355276424
 31
0.0
  3
DIMSTYLE1
100
AcDbAlignedDimension
 13
1383.5005637598
 23
-94.7355276424
 33
0.0
 14
1383.5005637598
 24
-137.7355276424
 34
0.0
 50
90.0
100
AcDbRotatedDimension
  0
TEXT
  5
52E
100
AcDbEntity
  8
L1_120
  6
CONTINUOUS
 62
         4
100
AcDbText
 10
1357.6077396469
 20
-92.7072689125
 30
0.0
 40
1.7
  1
%%p 0.05
  7
BOX
100
AcDbText
  0
LINE
  5
52F
100
AcDbEntity
  8
L1_120
  6
CONTINUOUS
 62
         7
100
AcDbLine
 10
1354.5656709944
 20
-126.4855276424
 30
0.0
 11
1354.5656709944
 21
-105.9855276424
 31
0.0
  0
LINE
  5
530
100
AcDbEntity
  8
L1_120
  6
CONTINUOUS
 62
         7
100
AcDbLine
 10
1355.5656709944
 20
-126.4855276424
 30
0.0
 11
1355.5656709944
 21
-105.9855276424
 31
0.0
  0
LINE
  5
531
100
AcDbEntity
  8
L1_120
  6
CONTINUOUS
 62
         7
100
AcDbLine
 10
1355.5656709944
 20
-126.4855276424
 30
0.0
 11
1354.5656709944
 21
-126.4855276424
 31
0.0
  0
LINE
  5
532
100
AcDbEntity
  8
L1_120
  6
CONTINUOUS
 62
         7
100
AcDbLine
 10
1355.5656709944
 20
-105.9855276424
 30
0.0
 11
1354.5656709944
 21
-105.9855276424
 31
0.0
  0
LINE
  5
533
100
AcDbEntity
  8
L1_120
  6
CONTINUOUS
 62
         7
100
AcDbLine
 10
1355.5656709944
 20
-123.9855276424
 30
0.0
 11
1354.5656709944
 21
-123.9855276424
 31
0.0
  0
LINE
  5
534
100
AcDbEntity
  8
L1_120
  6
CONTINUOUS
 62
         7
100
AcDbLine
 10
1355.5656709944
 20
-108.4855276424
 30
0.0
 11
1354.5656709944
 21
-108.4855276424
 31
0.0
  0
DIMENSION
  5
537
100
AcDbEntity
  8
L1_120
  6
CONTINUOUS
 62
         4
100
AcDbDimension
  2
*D35
 10
1213.5017478325
 20
-112.2600276424
 30
0.0
 11
1211.4767478325
 21
-125.6855276424
 31
0.0
  3
DIMSTYLE1
100
AcDbAlignedDimension
 13
1201.4714194325
 23
-112.2600276424
 33
0.0
 14
1201.4714194325
 24
-120.2110276424
 34
0.0
 50
90.0
100
AcDbRotatedDimension
  0
DIMENSION
  5
545
100
AcDbEntity
  8
L1_120
  6
CONTINUOUS
 62
         4
100
AcDbDimension
  2
*D36
 10
1189.2459194325
 20
-126.9485075516
 30
0.0
 11
1188.1209194325
 21
-124.9235075516
 31
0.0
  3
DIMSTYLE1
100
AcDbAlignedDimension
 13
1189.2459194325
 23
-118.7355276424
 33
0.0
 14
1200.4959194325
 24
-119.2355276424
 34
0.0
100
AcDbRotatedDimension
  0
LINE
  5
551
100
AcDbEntity
  8
L1_120
  6
CONTINUOUS
 62
         4
100
AcDbLine
 10
1235.9959194325
 20
-109.7355276424
 30
0.0
 11
1235.9959194325
 21
-122.7355276424
 31
0.0
  0
LINE
  5
552
100
AcDbEntity
  8
L1_120
  6
CONTINUOUS
 62
         4
100
AcDbLine
 10
1240.4959194325
 20
-109.7355276424
 30
0.0
 11
1240.4959194325
 21
-122.7355276424
 31
0.0
  0
LINE
  5
553
100
AcDbEntity
  8
L1_120
  6
CONTINUOUS
 62
         7
100
AcDbLine
 10
1235.4959194325
 20
-120.2110276424
 30
0.0
 11
1201.4714194325
 21
-120.2110276424
 31
0.0
  0
LINE
  5
554
100
AcDbEntity
  8
L1_120
  6
CONTINUOUS
 62
         7
100
AcDbLine
 10
1235.4959194325
 20
-112.2600276424
 30
0.0
 11
1201.4714194325
 21
-112.2600276424
 31
0.0
  0
LINE
  5
555
100
AcDbEntity
  8
L1_120
  6
CONTINUOUS
 62
         7
100
AcDbLine
 10
1240.9959194325
 20
-110.2355276424
 30
0.0
 11
1240.4959194325
 21
-109.7355276424
 31
0.0
  0
LINE
  5
556
100
AcDbEntity
  8
L1_120
  6
CONTINUOUS
 62
         7
100
AcDbLine
 10
1240.4959194325
 20
-109.7355276424
 30
0.0
 11
1235.9959194325
 21
-109.7355276424
 31
0.0
  0
LINE
  5
557
100
AcDbEntity
  8
L1_120
  6
CONTINUOUS
 62
         7
100
AcDbLine
 10
1240.9959194325
 20
-122.2355276424
 30
0.0
 11
1240.9959194325
 21
-110.2355276424
 31
0.0
  0
LINE
  5
558
100
AcDbEntity
  8
L1_120
  6
CONTINUOUS
 62
         7
100
AcDbLine
 10
1240.9959194325
 20
-122.2355276424
 30
0.0
 11
1240.4959194325
 21
-122.7355276424
 31
0.0
  0
LINE
  5
559
100
AcDbEntity
  8
L1_120
  6
CONTINUOUS
 62
         7
100
AcDbLine
 10
1240.4959194325
 20
-122.7355276424
 30
0.0
 11
1235.9959194325
 21
-122.7355276424
 31
0.0
  0
LINE
  5
55A
100
AcDbEntity
  8
L1_120
  6
CONTINUOUS
 62
         7
100
AcDbLine
 10
1235.4959194325
 20
-122.2355276424
 30
0.0
 11
1235.9959194325
 21
-122.7355276424
 31
0.0
  0
LINE
  5
55B
100
AcDbEntity
  8
L1_120
  6
CONTINUOUS
 62
         7
100
AcDbLine
 10
1235.4959194325
 20
-122.2355276424
 30
0.0
 11
1235.4959194325
 21
-110.2355276424
 31
0.0
  0
LINE
  5
55C
100
AcDbEntity
  8
L1_120
  6
CONTINUOUS
 62
         7
100
AcDbLine
 10
1235.9959194325
 20
-109.7355276424
 30
0.0
 11
1235.4959194325
 21
-110.2355276424
 31
0.0
  0
LINE
  5
55D
100
AcDbEntity
  8
L1_120
  6
CONTINUOUS
 62
         4
100
AcDbLine
 10
1200.4959194325
 20
-118.7355276424
 30
0.0
 11
1189.2459194325
 21
-118.7355276424
 31
0.0
  0
LINE
  5
55E
100
AcDbEntity
  8
L1_120
  6
CONTINUOUS
 62
         4
100
AcDbLine
 10
1200.4959194325
 20
-113.7355276424
 30
0.0
 11
1189.2459194325
 21
-113.7355276424
 31
0.0
  0
LINE
  5
55F
100
AcDbEntity
  8
L1_120
  6
CONTINUOUS
 62
         7
100
AcDbLine
 10
1200.4959194325
 20
-119.2355276424
 30
0.0
 11
1189.7459194325
 21
-119.2355276424
 31
0.0
  0
LINE
  5
560
100
AcDbEntity
  8
L1_120
  6
CONTINUOUS
 62
         7
100
AcDbLine
 10
1189.7459194325
 20
-119.2355276424
 30
0.0
 11
1189.2459194325
 21
-118.7355276424
 31
0.0
  0
LINE
  5
561
100
AcDbEntity
  8
L1_120
  6
CONTINUOUS
 62
         7
100
AcDbLine
 10
1189.2459194325
 20
-118.7355276424
 30
0.0
 11
1189.2459194325
 21
-113.7355276424
 31
0.0
  0
LINE
  5
562
100
AcDbEntity
  8
L1_120
  6
CONTINUOUS
 62
         7
100
AcDbLine
 10
1189.7459194325
 20
-113.2355276424
 30
0.0
 11
1189.2459194325
 21
-113.7355276424
 31
0.0
  0
LINE
  5
563
100
AcDbEntity
  8
L1_120
  6
CONTINUOUS
 62
         7
100
AcDbLine
 10
1200.4959194325
 20
-113.2355276424
 30
0.0
 11
1189.7459194325
 21
-113.2355276424
 31
0.0
  0
LINE
  5
564
100
AcDbEntity
  8
L1_120
  6
CONTINUOUS
 62
         4
100
AcDbLine
 10
1201.4714194325
 20
-112.2600276424
 30
0.0
 11
1201.4714194325
 21
-120.2110276424
 31
0.0
  0
LINE
  5
565
100
AcDbEntity
  8
L1_120
  6
CONTINUOUS
 62
         7
100
AcDbLine
 10
1200.4959194325
 20
-119.2355276424
 30
0.0
 11
1200.4959194325
 21
-113.2355276424
 31
0.0
  0
LINE
  5
566
100
AcDbEntity
  8
L1_120
  6
CONTINUOUS
 62
         7
100
AcDbLine
 10
1201.4714194325
 20
-120.2110276424
 30
0.0
 11
1200.4959194325
 21
-119.2355276424
 31
0.0
  0
LINE
  5
567
100
AcDbEntity
  8
L1_120
  6
CONTINUOUS
 62
         7
100
AcDbLine
 10
1201.4714194325
 20
-112.2600276424
 30
0.0
 11
1200.4959194325
 21
-113.2355276424
 31
0.0
  0
CIRCLE
  5
568
100
AcDbEntity
  8
L1_120
  6
CONTINUOUS
 62
         7
100
AcDbCircle
 10
1316.2297299703
 20
-116.2355276424
 30
0.0
 40
4.7625
  0
LINE
  5
569
100
AcDbEntity
  8
L1_120
  6
CENTER
 62
         1
100
AcDbLine
 10
1768.4341060481
 20
-29.8689828127
 30
0.0
 11
1652.8676978362
 21
-29.8689828127
 31
0.0
  0
CIRCLE
  5
56A
100
AcDbEntity
  8
L1_120
  6
CONTINUOUS
 62
         7
100
AcDbCircle
 10
1751.7484522289
 20
-24.0689828127
 30
0.0
 40
0.6
  0
CIRCLE
  5
56B
100
AcDbEntity
  8
L1_120
  6
CONTINUOUS
 62
         7
100
AcDbCircle
 10
1750.5484522289
 20
-24.0689828127
 30
0.0
 40
0.6
  0
CIRCLE
  5
56C
100
AcDbEntity
  8
L1_120
  6
CONTINUOUS
 62
         7
100
AcDbCircle
 10
1749.3484522289
 20
-24.0689828127
 30
0.0
 40
0.6
  0
CIRCLE
  5
56D
100
AcDbEntity
  8
L1_120
  6
CONTINUOUS
 62
         7
100
AcDbCircle
 10
1748.1484522289
 20
-24.0689828127
 30
0.0
 40
0.6
  0
CIRCLE
  5
56E
100
AcDbEntity
  8
L1_120
  6
CONTINUOUS
 62
         7
100
AcDbCircle
 10
1746.9484522289
 20
-24.0689828127
 30
0.0
 40
0.6
  0
CIRCLE
  5
56F
100
AcDbEntity
  8
L1_120
  6
CONTINUOUS
 62
         7
100
AcDbCircle
 10
1745.7484522289
 20
-24.0689828127
 30
0.0
 40
0.6
  0
CIRCLE
  5
570
100
AcDbEntity
  8
L1_120
  6
CONTINUOUS
 62
         7
100
AcDbCircle
 10
1750.5484522289
 20
-35.6689828127
 30
0.0
 40
0.6
  0
CIRCLE
  5
571
100
AcDbEntity
  8
L1_120
  6
CONTINUOUS
 62
         7
100
AcDbCircle
 10
1749.3484522289
 20
-35.6689828127
 30
0.0
 40
0.6
  0
CIRCLE
  5
572
100
AcDbEntity
  8
L1_120
  6
CONTINUOUS
 62
         7
100
AcDbCircle
 10
1748.1484522289
 20
-35.6689828127
 30
0.0
 40
0.6
  0
CIRCLE
  5
573
100
AcDbEntity
  8
L1_120
  6
CONTINUOUS
 62
         7
100
AcDbCircle
 10
1746.9484522289
 20
-35.6689828127
 30
0.0
 40
0.6
  0
CIRCLE
  5
574
100
AcDbEntity
  8
L1_120
  6
CONTINUOUS
 62
         7
100
AcDbCircle
 10
1745.7484522289
 20
-35.6689828127
 30
0.0
 40
0.6
  0
CIRCLE
  5
575
100
AcDbEntity
  8
L1_120
  6
CONTINUOUS
 62
         7
100
AcDbCircle
 10
1744.5484522289
 20
-35.6689828127
 30
0.0
 40
0.6
  0
LINE
  5
576
100
AcDbEntity
  8
L1_120
  6
CONTINUOUS
 62
         7
100
AcDbLine
 10
1752.3484522289
 20
-24.0689828127
 30
0.0
 11
1751.1484522289
 21
-35.6689828127
 31
0.0
  0
LINE
  5
577
100
AcDbEntity
  8
L1_120
  6
CONTINUOUS
 62
         7
100
AcDbLine
 10
1745.1484522289
 20
-24.0689828127
 30
0.0
 11
1743.9484522289
 21
-35.6689828127
 31
0.0
  0
LINE
  5
578
100
AcDbEntity
  8
L1_120
  6
CONTINUOUS
 62
         7
100
AcDbLine
 10
1746.3484522289
 20
-24.0689828127
 30
0.0
 11
1745.1484522289
 21
-35.6689828127
 31
0.0
  0
LINE
  5
579
100
AcDbEntity
  8
L1_120
  6
CONTINUOUS
 62
         7
100
AcDbLine
 10
1747.5484522289
 20
-24.0689828127
 30
0.0
 11
1746.3484522289
 21
-35.6689828127
 31
0.0
  0
LINE
  5
57A
100
AcDbEntity
  8
L1_120
  6
CONTINUOUS
 62
         7
100
AcDbLine
 10
1747.5484522289
 20
-35.6689828127
 30
0.0
 11
1748.7484522289
 21
-24.0689828127
 31
0.0
  0
LINE
  5
57B
100
AcDbEntity
  8
L1_120
  6
CONTINUOUS
 62
         7
100
AcDbLine
 10
1749.9484522289
 20
-24.0689828127
 30
0.0
 11
1748.7484522289
 21
-35.6689828127
 31
0.0
  0
LINE
  5
57C
100
AcDbEntity
  8
L1_120
  6
CONTINUOUS
 62
         7
100
AcDbLine
 10
1749.9484522289
 20
-35.6689828127
 30
0.0
 11
1751.1484522289
 21
-24.0689828127
 31
0.0
  0
CIRCLE
  5
57D
100
AcDbEntity
  8
L1_120
  6
CONTINUOUS
 62
         7
100
AcDbCircle
 10
1734.9232290461
 20
-16.0689828127
 30
0.0
 40
0.75
  0
CIRCLE
  5
57E
100
AcDbEntity
  8
L1_120
  6
CONTINUOUS
 62
         7
100
AcDbCircle
 10
1733.4232290461
 20
-16.0689828127
 30
0.0
 40
0.75
  0
CIRCLE
  5
57F
100
AcDbEntity
  8
L1_120
  6
CONTINUOUS
 62
         7
100
AcDbCircle
 10
1731.9232290461
 20
-16.0689828127
 30
0.0
 40
0.75
  0
CIRCLE
  5
580
100
AcDbEntity
  8
L1_120
  6
CONTINUOUS
 62
         7
100
AcDbCircle
 10
1730.4232290461
 20
-16.0689828127
 30
0.0
 40
0.75
  0
CIRCLE
  5
581
100
AcDbEntity
  8
L1_120
  6
CONTINUOUS
 62
         7
100
AcDbCircle
 10
1733.4232290461
 20
-43.6689828127
 30
0.0
 40
0.75
  0
CIRCLE
  5
582
100
AcDbEntity
  8
L1_120
  6
CONTINUOUS
 62
         7
100
AcDbCircle
 10
1731.9232290461
 20
-43.6689828127
 30
0.0
 40
0.75
  0
CIRCLE
  5
583
100
AcDbEntity
  8
L1_120
  6
CONTINUOUS
 62
         7
100
AcDbCircle
 10
1730.4232290461
 20
-43.6689828127
 30
0.0
 40
0.75
  0
CIRCLE
  5
584
100
AcDbEntity
  8
L1_120
  6
CONTINUOUS
 62
         7
100
AcDbCircle
 10
1728.9232290461
 20
-43.6689828127
 30
0.0
 40
0.75
  0
LINE
  5
585
100
AcDbEntity
  8
L1_120
  6
CONTINUOUS
 62
         7
100
AcDbLine
 10
1735.6732290461
 20
-16.0689828127
 30
0.0
 11
1734.1732290461
 21
-43.6689828127
 31
0.0
  0
LINE
  5
586
100
AcDbEntity
  8
L1_120
  6
CONTINUOUS
 62
         7
100
AcDbLine
 10
1728.1732290461
 20
-43.6689828127
 30
0.0
 11
1729.6732290461
 21
-16.0689828127
 31
0.0
  0
LINE
  5
587
100
AcDbEntity
  8
L1_120
  6
CONTINUOUS
 62
         7
100
AcDbLine
 10
1731.1732290461
 20
-16.0689828127
 30
0.0
 11
1729.6732290461
 21
-43.6689828127
 31
0.0
  0
LINE
  5
588
100
AcDbEntity
  8
L1_120
  6
CONTINUOUS
 62
         7
100
AcDbLine
 10
1731.1732290461
 20
-43.6689828127
 30
0.0
 11
1732.6732290461
 21
-16.0689828127
 31
0.0
  0
LINE
  5
589
100
AcDbEntity
  8
L1_120
  6
CONTINUOUS
 62
         7
100
AcDbLine
 10
1734.1732290461
 20
-16.0689828127
 30
0.0
 11
1732.6732290461
 21
-43.6689828127
 31
0.0
  0
CIRCLE
  5
58A
100
AcDbEntity
  8
L1_120
  6
CONTINUOUS
 62
         7
100
AcDbCircle
 10
1716.2143341595
 20
-21.2689828127
 30
0.0
 40
0.75
  0
CIRCLE
  5
58B
100
AcDbEntity
  8
L1_120
  6
CONTINUOUS
 62
         7
100
AcDbCircle
 10
1714.7143341595
 20
-21.2689828127
 30
0.0
 40
0.75
  0
CIRCLE
  5
58C
100
AcDbEntity
  8
L1_120
  6
CONTINUOUS
 62
         7
100
AcDbCircle
 10
1713.2143341595
 20
-21.2689828127
 30
0.0
 40
0.75
  0
CIRCLE
  5
58D
100
AcDbEntity
  8
L1_120
  6
CONTINUOUS
 62
         7
100
AcDbCircle
 10
1711.7143341595
 20
-21.2689828127
 30
0.0
 40
0.75
  0
CIRCLE
  5
58E
100
AcDbEntity
  8
L1_120
  6
CONTINUOUS
 62
         7
100
AcDbCircle
 10
1710.2143341595
 20
-21.2689828127
 30
0.0
 40
0.75
  0
CIRCLE
  5
58F
100
AcDbEntity
  8
L1_120
  6
CONTINUOUS
 62
         7
100
AcDbCircle
 10
1708.7143341595
 20
-21.2689828127
 30
0.0
 40
0.75
  0
CIRCLE
  5
590
100
AcDbEntity
  8
L1_120
  6
CONTINUOUS
 62
         7
100
AcDbCircle
 10
1707.2143341595
 20
-21.2689828127
 30
0.0
 40
0.75
  0
CIRCLE
  5
591
100
AcDbEntity
  8
L1_120
  6
CONTINUOUS
 62
         7
100
AcDbCircle
 10
1714.7143341595
 20
-38.4689828127
 30
0.0
 40
0.75
  0
CIRCLE
  5
592
100
AcDbEntity
  8
L1_120
  6
CONTINUOUS
 62
         7
100
AcDbCircle
 10
1713.2143341595
 20
-38.4689828127
 30
0.0
 40
0.75
  0
CIRCLE
  5
593
100
AcDbEntity
  8
L1_120
  6
CONTINUOUS
 62
         7
100
AcDbCircle
 10
1711.7143341595
 20
-38.4689828127
 30
0.0
 40
0.75
  0
CIRCLE
  5
594
100
AcDbEntity
  8
L1_120
  6
CONTINUOUS
 62
         7
100
AcDbCircle
 10
1710.2143341595
 20
-38.4689828127
 30
0.0
 40
0.75
  0
CIRCLE
  5
595
100
AcDbEntity
  8
L1_120
  6
CONTINUOUS
 62
         7
100
AcDbCircle
 10
1708.7143341595
 20
-38.4689828127
 30
0.0
 40
0.75
  0
CIRCLE
  5
596
100
AcDbEntity
  8
L1_120
  6
CONTINUOUS
 62
         7
100
AcDbCircle
 10
1707.2143341595
 20
-38.4689828127
 30
0.0
 40
0.75
  0
CIRCLE
  5
597
100
AcDbEntity
  8
L1_120
  6
CONTINUOUS
 62
         7
100
AcDbCircle
 10
1705.7143341595
 20
-38.4689828127
 30
0.0
 40
0.75
  0
CIRCLE
  5
598
100
AcDbEntity
  8
L1_120
  6
CONTINUOUS
 62
         7
100
AcDbCircle
 10
1704.2143341595
 20
-38.4689828127
 30
0.0
 40
0.75
  0
LINE
  5
599
100
AcDbEntity
  8
L1_120
  6
CONTINUOUS
 62
         7
100
AcDbLine
 10
1716.9643341595
 20
-21.2689828127
 30
0.0
 11
1715.4643341595
 21
-38.4689828127
 31
0.0
  0
LINE
  5
59A
100
AcDbEntity
  8
L1_120
  6
CONTINUOUS
 62
         7
100
AcDbLine
 10
1713.9643341595
 20
-38.4689828127
 30
0.0
 11
1715.4643341595
 21
-21.2689828127
 31
0.0
  0
LINE
  5
59B
100
AcDbEntity
  8
L1_120
  6
CONTINUOUS
 62
         7
100
AcDbLine
 10
1713.9643341595
 20
-21.2689828127
 30
0.0
 11
1712.4643341595
 21
-38.4689828127
 31
0.0
  0
LINE
  5
59C
100
AcDbEntity
  8
L1_120
  6
CONTINUOUS
 62
         7
100
AcDbLine
 10
1710.9643341595
 20
-38.4689828127
 30
0.0
 11
1712.4643341595
 21
-21.2689828127
 31
0.0
  0
LINE
  5
59D
100
AcDbEntity
  8
L1_120
  6
CONTINUOUS
 62
         7
100
AcDbLine
 10
1710.9643341595
 20
-21.2689828127
 30
0.0
 11
1709.4643341595
 21
-38.4689828127
 31
0.0
  0
LINE
  5
59E
100
AcDbEntity
  8
L1_120
  6
CONTINUOUS
 62
         7
100
AcDbLine
 10
1707.9643341595
 20
-38.4689828127
 30
0.0
 11
1709.4643341595
 21
-21.2689828127
 31
0.0
  0
LINE
  5
59F
100
AcDbEntity
  8
L1_120
  6
CONTINUOUS
 62
         7
100
AcDbLine
 10
1707.9643341595
 20
-21.2689828127
 30
0.0
 11
1706.4643341595
 21
-38.4689828127
 31
0.0
  0
LINE
  5
5A0
100
AcDbEntity
  8
L1_120
  6
CONTINUOUS
 62
         7
100
AcDbLine
 10
1704.9643341595
 20
-38.4689828127
 30
0.0
 11
1706.4643341595
 21
-21.2689828127
 31
0.0
  0
LINE
  5
5A1
100
AcDbEntity
  8
L1_120
  6
CONTINUOUS
 62
         7
100
AcDbLine
 10
1706.4643341595
 20
-21.2689828127
 30
0.0
 11
1703.4643341595
 21
-38.4689828127
 31
0.0
  0
CIRCLE
  5
5A2
100
AcDbEntity
  8
L1_120
  6
CONTINUOUS
 62
         7
100
AcDbCircle
 10
1673.6315635944
 20
-24.7189828127
 30
0.0
 40
0.75
  0
CIRCLE
  5
5A3
100
AcDbEntity
  8
L1_120
  6
CONTINUOUS
 62
         7
100
AcDbCircle
 10
1681.1315635944
 20
-24.7189828127
 30
0.0
 40
0.75
  0
CIRCLE
  5
5A4
100
AcDbEntity
  8
L1_120
  6
CONTINUOUS
 62
         7
100
AcDbCircle
 10
1679.6315635944
 20
-24.7189828127
 30
0.0
 40
0.75
  0
CIRCLE
  5
5A5
100
AcDbEntity
  8
L1_120
  6
CONTINUOUS
 62
         7
100
AcDbCircle
 10
1678.1315635944
 20
-24.7189828127
 30
0.0
 40
0.75
  0
CIRCLE
  5
5A6
100
AcDbEntity
  8
L1_120
  6
CONTINUOUS
 62
         7
100
AcDbCircle
 10
1676.6315635944
 20
-24.7189828127
 30
0.0
 40
0.75
  0
CIRCLE
  5
5A7
100
AcDbEntity
  8
L1_120
  6
CONTINUOUS
 62
         7
100
AcDbCircle
 10
1675.1315635944
 20
-24.7189828127
 30
0.0
 40
0.75
  0
CIRCLE
  5
5A8
100
AcDbEntity
  8
L1_120
  6
CONTINUOUS
 62
         7
100
AcDbCircle
 10
1688.6315635944
 20
-24.7189828127
 30
0.0
 40
0.75
  0
CIRCLE
  5
5A9
100
AcDbEntity
  8
L1_120
  6
CONTINUOUS
 62
         7
100
AcDbCircle
 10
1687.1315635944
 20
-24.7189828127
 30
0.0
 40
0.75
  0
CIRCLE
  5
5AA
100
AcDbEntity
  8
L1_120
  6
CONTINUOUS
 62
         7
100
AcDbCircle
 10
1685.6315635944
 20
-24.7189828127
 30
0.0
 40
0.75
  0
CIRCLE
  5
5AB
100
AcDbEntity
  8
L1_120
  6
CONTINUOUS
 62
         7
100
AcDbCircle
 10
1684.1315635944
 20
-24.7189828127
 30
0.0
 40
0.75
  0
CIRCLE
  5
5AC
100
AcDbEntity
  8
L1_120
  6
CONTINUOUS
 62
         7
100
AcDbCircle
 10
1682.6315635944
 20
-24.7189828127
 30
0.0
 40
0.75
  0
CIRCLE
  5
5AD
100
AcDbEntity
  8
L1_120
  6
CONTINUOUS
 62
         7
100
AcDbCircle
 10
1672.8815635944
 20
-35.0189828127
 30
0.0
 40
0.75
  0
CIRCLE
  5
5AE
100
AcDbEntity
  8
L1_120
  6
CONTINUOUS
 62
         7
100
AcDbCircle
 10
1680.3815635944
 20
-35.0189828127
 30
0.0
 40
0.75
  0
CIRCLE
  5
5AF
100
AcDbEntity
  8
L1_120
  6
CONTINUOUS
 62
         7
100
AcDbCircle
 10
1678.8815635944
 20
-35.0189828127
 30
0.0
 40
0.75
  0
CIRCLE
  5
5B0
100
AcDbEntity
  8
L1_120
  6
CONTINUOUS
 62
         7
100
AcDbCircle
 10
1677.3815635944
 20
-35.0189828127
 30
0.0
 40
0.75
  0
CIRCLE
  5
5B1
100
AcDbEntity
  8
L1_120
  6
CONTINUOUS
 62
         7
100
AcDbCircle
 10
1675.8815635944
 20
-35.0189828127
 30
0.0
 40
0.75
  0
CIRCLE
  5
5B2
100
AcDbEntity
  8
L1_120
  6
CONTINUOUS
 62
         7
100
AcDbCircle
 10
1674.3815635944
 20
-35.0189828127
 30
0.0
 40
0.75
  0
CIRCLE
  5
5B3
100
AcDbEntity
  8
L1_120
  6
CONTINUOUS
 62
         7
100
AcDbCircle
 10
1687.8815635944
 20
-35.0189828127
 30
0.0
 40
0.75
  0
CIRCLE
  5
5B4
100
AcDbEntity
  8
L1_120
  6
CONTINUOUS
 62
         7
100
AcDbCircle
 10
1686.3815635944
 20
-35.0189828127
 30
0.0
 40
0.75
  0
CIRCLE
  5
5B5
100
AcDbEntity
  8
L1_120
  6
CONTINUOUS
 62
         7
100
AcDbCircle
 10
1684.8815635944
 20
-35.0189828127
 30
0.0
 40
0.75
  0
CIRCLE
  5
5B6
100
AcDbEntity
  8
L1_120
  6
CONTINUOUS
 62
         7
100
AcDbCircle
 10
1683.3815635944
 20
-35.0189828127
 30
0.0
 40
0.75
  0
CIRCLE
  5
5B7
100
AcDbEntity
  8
L1_120
  6
CONTINUOUS
 62
         7
100
AcDbCircle
 10
1681.8815635944
 20
-35.0189828127
 30
0.0
 40
0.75
  0
LINE
  5
5B8
100
AcDbEntity
  8
L1_120
  6
CONTINUOUS
 62
         7
100
AcDbLine
 10
1689.3815635944
 20
-24.7189828127
 30
0.0
 11
1688.6315635944
 21
-35.0189828127
 31
0.0
  0
LINE
  5
5B9
100
AcDbEntity
  8
L1_120
  6
CONTINUOUS
 62
         7
100
AcDbLine
 10
1687.8815635944
 20
-24.7189828127
 30
0.0
 11
1687.1315635944
 21
-35.0189828127
 31
0.0
  0
LINE
  5
5BA
100
AcDbEntity
  8
L1_120
  6
CONTINUOUS
 62
         7
100
AcDbLine
 10
1686.3815635944
 20
-24.7189828127
 30
0.0
 11
1685.6315635944
 21
-35.0189828127
 31
0.0
  0
LINE
  5
5BB
100
AcDbEntity
  8
L1_120
  6
CONTINUOUS
 62
         7
100
AcDbLine
 10
1684.1315635944
 20
-35.0189828127
 30
0.0
 11
1684.8815635944
 21
-24.7189828127
 31
0.0
  0
LINE
  5
5BC
100
AcDbEntity
  8
L1_120
  6
CONTINUOUS
 62
         7
100
AcDbLine
 10
1683.3815635944
 20
-24.7189828127
 30
0.0
 11
1682.6315635944
 21
-35.0189828127
 31
0.0
  0
LINE
  5
5BD
100
AcDbEntity
  8
L1_120
  6
CONTINUOUS
 62
         7
100
AcDbLine
 10
1681.1315635944
 20
-35.0189828127
 30
0.0
 11
1681.8815635944
 21
-24.7189828127
 31
0.0
  0
LINE
  5
5BE
100
AcDbEntity
  8
L1_120
  6
CONTINUOUS
 62
         7
100
AcDbLine
 10
1680.3815635944
 20
-24.7189828127
 30
0.0
 11
1679.6315635944
 21
-35.0189828127
 31
0.0
  0
LINE
  5
5BF
100
AcDbEntity
  8
L1_120
  6
CONTINUOUS
 62
         7
100
AcDbLine
 10
1678.1315635944
 20
-35.0189828127
 30
0.0
 11
1678.8815635944
 21
-24.7189828127
 31
0.0
  0
LINE
  5
5C0
100
AcDbEntity
  8
L1_120
  6
CONTINUOUS
 62
         7
100
AcDbLine
 10
1677.3815635944
 20
-24.7189828127
 30
0.0
 11
1676.6315635944
 21
-35.0189828127
 31
0.0
  0
LINE
  5
5C1
100
AcDbEntity
  8
L1_120
  6
CONTINUOUS
 62
         7
100
AcDbLine
 10
1675.1315635944
 20
-35.0189828127
 30
0.0
 11
1675.8815635944
 21
-24.7189828127
 31
0.0
  0
LINE
  5
5C2
100
AcDbEntity
  8
L1_120
  6
CONTINUOUS
 62
         7
100
AcDbLine
 10
1674.3815635944
 20
-24.7189828127
 30
0.0
 11
1673.6315635944
 21
-35.0189828127
 31
0.0
  0
LINE
  5
5C3
100
AcDbEntity
  8
L1_120
  6
CONTINUOUS
 62
         7
100
AcDbLine
 10
1672.1315635944
 20
-35.0189828127
 30
0.0
 11
1672.8815635944
 21
-24.7189828127
 31
0.0
  0
DIMENSION
  5
5C6
100
AcDbEntity
  8
_Y__________
  6
CONTINUOUS
 62
         4
100
AcDbDimension
  2
*D37
 10
1513.6033403763
 20
221.0031981167
 30
0.0
 11
1397.6033403763
 21
223.0281981167
 31
0.0
  3
DIMSTYLE1
100
AcDbAlignedDimension
 13
1513.6033403763
 23
167.6072914602
 33
0.0
 14
1295.1033403763
 24
150.1846417294
 34
0.0
100
AcDbRotatedDimension
  0
DIMENSION
  5
5D4
100
AcDbEntity
  8
_Y__________
  6
CONTINUOUS
 62
         4
100
AcDbDimension
  2
*D38
 10
1412.6033403763
 20
211.0066579331
 30
0.0
 11
1459.0533403763
 21
213.0316579331
 31
0.0
  3
DIMSTYLE1
100
AcDbAlignedDimension
 13
1412.6033403763
 23
165.9846417294
 33
0.0
 14
1513.6033403763
 24
194.2885703556
 34
0.0
100
AcDbRotatedDimension
  0
DIMENSION
  5
5E2
100
AcDbEntity
  8
_Y__________
  6
CONTINUOUS
 62
         4
100
AcDbDimension
  2
*D39
 10
1534.0367069289
 20
168.1846417294
 30
0.0
 11
1530.9047069289
 21
142.3329165641
 31
0.0
  3
DIMSTYLE1
100
AcDbAlignedDimension
 13
1513.6033403763
 23
168.1846417294
 33
0.0
 14
1513.6033403763
 24
132.1846417294
 34
0.0
 50
90.0
100
AcDbRotatedDimension
  0
DIMENSION
  5
5F0
100
AcDbEntity
  8
_Y__________
  6
CONTINUOUS
 62
         4
100
AcDbDimension
  2
*D40
 10
1561.1526483081
 20
172.6846417294
 30
0.0
 11
1558.0206483081
 21
144.1273538612
 31
0.0
  3
DIMSTYLE1
100
AcDbAlignedDimension
 13
1459.6033403763
 23
172.6846417294
 33
0.0
 14
1459.6033403763
 24
127.6846417294
 34
0.0
 50
90.0
100
AcDbRotatedDimension
  0
DIMENSION
  5
5FE
100
AcDbEntity
  8
_Y__________
  6
CONTINUOUS
 62
         4
100
AcDbDimension
  2
*D41
 10
1412.6033403763
 20
187.4838634794
 30
0.0
 11
1351.8554377613
 21
189.5088634794
 31
0.0
  3
DIMSTYLE1
100
AcDbAlignedDimension
 13
1412.6033403763
 23
165.9846417294
 33
0.0
 14
1295.1033403763
 24
156.1346417294
 34
0.0
100
AcDbRotatedDimension
  0
DIMENSION
  5
60C
100
AcDbEntity
  8
_Y__________
  6
CONTINUOUS
 62
         4
100
AcDbDimension
  2
*D42
 10
1419.1033403763
 20
187.4838634794
 30
0.0
 11
1412.2826285563
 21
189.5088634794
 31
0.0
  3
DIMSTYLE1
100
AcDbAlignedDimension
 13
1419.1033403763
 23
165.9846417294
 33
0.0
 14
1412.6033403763
 24
165.9846417294
 34
0.0
100
AcDbRotatedDimension
  0
DIMENSION
  5
61A
100
AcDbEntity
  8
_Y__________
  6
CONTINUOUS
 62
         4
100
AcDbDimension
  2
*D43
 10
1410.3159260835
 20
165.8181417294
 30
0.0
 11
1408.2909260835
 21
138.957561448
 31
0.0
  3
DIMSTYLE1
100
AcDbAlignedDimension
 13
1412.6033403763
 23
165.8181417294
 33
0.0
 14
1412.6033403763
 24
134.5511417294
 34
0.0
 50
90.0
100
AcDbRotatedDimension
  0
DIMENSION
  5
628
100
AcDbEntity
  8
_Y__________
  6
CONTINUOUS
 62
         4
100
AcDbDimension
  2
*D44
 10
1280.0048439884
 20
156.1346417294
 30
0.0
 11
1277.9798439884
 21
144.7846417294
 31
0.0
  3
DIMSTYLE1
100
AcDbAlignedDimension
 13
1295.1033403763
 23
156.1346417294
 33
0.0
 14
1295.1033403763
 24
144.2346417294
 34
0.0
 50
90.0
100
AcDbRotatedDimension
  0
DIMENSION
  5
636
100
AcDbEntity
  8
_Y__________
  6
CONTINUOUS
 62
         4
100
AcDbDimension
  2
*D45
 10
1484.0082741959
 20
115.714967216
 30
0.0
 11
1493.1808072861
 21
118.846967216
 31
0.0
  3
DIMSTYLE1
100
AcDbAlignedDimension
 13
1484.0082741959
 23
145.2146417294
 33
0.0
 14
1513.6033403763
 24
132.7619919986
 34
0.0
100
AcDbRotatedDimension
  0
DIMENSION
  5
644
100
AcDbEntity
  8
_Y__________
  6
CONTINUOUS
 62
         4
100
AcDbDimension
  2
*D46
 10
1469.0083403763
 20
105.7739192814
 30
0.0
 11
1480.1689703403
 21
108.9059192814
 31
0.0
  3
DIMSTYLE1
100
AcDbAlignedDimension
 13
1469.0083403763
 23
145.2146417294
 33
0.0
 14
1513.6033403763
 24
132.7619919986
 34
0.0
100
AcDbRotatedDimension
  0
DIMENSION
  5
652
100
AcDbEntity
  8
_Y__________
  6
CONTINUOUS
 62
         4
100
AcDbDimension
  2
*D47
 10
1478.6839644772
 20
154.9846417294
 30
0.0
 11
1475.5519644772
 21
115.0251447769
 31
0.0
  3
DIMSTYLE1
100
AcDbAlignedDimension
 13
1469.0083403763
 23
154.9846417294
 33
0.0
 14
1469.0083403763
 24
145.3846417294
 34
0.0
 50
90.0
100
AcDbRotatedDimension
  0
DIMENSION
  5
662
100
AcDbEntity
  8
_Y__________
  6
CONTINUOUS
 62
         4
100
AcDbDimension
  2
*D48
 10
1543.2880281053
 20
169.6846417294
 30
0.0
 11
1540.1560281053
 21
140.3473538612
 31
0.0
  3
DIMSTYLE1
100
AcDbAlignedDimension
 13
1494.6033403763
 23
169.6846417294
 33
0.0
 14
1494.6033403763
 24
130.6846417294
 34
0.0
 50
90.0
100
AcDbRotatedDimension
  0
DIMENSION
  5
670
100
AcDbEntity
  8
_Y__________
  6
CONTINUOUS
 62
         4
100
AcDbDimension
  2
*D49
 10
1552.5393492817
 20
170.6846417294
 30
0.0
 11
1549.4073492817
 21
139.2528174198
 31
0.0
  3
DIMSTYLE1
100
AcDbAlignedDimension
 13
1507.8712895687
 23
170.6846417294
 33
0.0
 14
1507.8712895687
 24
129.6846417294
 34
0.0
 50
90.0
100
AcDbRotatedDimension
  0
DIMENSION
  5
67E
100
AcDbEntity
  8
_Y__________
  6
CONTINUOUS
 62
         4
100
AcDbDimension
  2
*D50
 10
1492.6033403763
 20
182.7299277772
 30
0.0
 11
1496.3802489371
 21
185.8619277772
 31
0.0
  3
DIMSTYLE1
100
AcDbAlignedDimension
 13
1492.6033403763
 23
170.6846417294
 33
0.0
 14
1494.6033403763
 24
170.6846417294
 34
0.0
100
AcDbRotatedDimension
  0
DIMENSION
  5
68E
100
AcDbEntity
  8
_Y__________
  6
CONTINUOUS
 62
         4
100
AcDbDimension
  2
*D51
 10
1513.6033403763
 20
192.0000383803
 30
0.0
 11
1500.1783403763
 21
195.1320383803
 31
0.0
  3
DIMSTYLE1
100
AcDbAlignedDimension
 13
1513.6033403763
 23
167.6072914602
 33
0.0
 14
1492.6033403763
 24
170.6846417294
 34
0.0
100
AcDbRotatedDimension
  0
DIMENSION
  5
69C
100
AcDbEntity
  8
_Y__________
  6
CONTINUOUS
 62
         4
100
AcDbDimension
  2
*D52
 10
1513.6033403763
 20
202.3890449723
 30
0.0
 11
1480.9393196251
 21
205.5210449723
 31
0.0
  3
DIMSTYLE1
100
AcDbAlignedDimension
 13
1513.6033403763
 23
167.6072914602
 33
0.0
 14
1460.6033403763
 24
171.6846417294
 34
0.0
100
AcDbRotatedDimension
  0
INSERT
  5
6DE
100
AcDbEntity
  8
0
  6
CONTINUOUS
100
AcDbBlockReference
  2
*X53
 10
0.0
 20
0.0
 30
0.0
  0
LINE
  5
6DF
100
AcDbEntity
  8
L1_120
  6
CONTINUOUS
 62
         4
100
AcDbLine
 10
1447.6033403763
 20
-9.9433347407
 30
0.0
 11
1435.6033403763
 21
-9.9433347407
 31
0.0
  0
LINE
  5
6E0
100
AcDbEntity
  8
L1_120
  6
CONTINUOUS
 62
         4
100
AcDbLine
 10
1432.6020155108
 20
-15.4433347407
 30
0.0
 11
1432.6020155108
 21
-10.4433347407
 31
0.0
  0
LINE
  5
6E1
100
AcDbEntity
  8
L1_120
  6
CONTINUOUS
 62
         4
100
AcDbLine
 10
1435.6033403763
 20
-15.9433347407
 30
0.0
 11
1435.6033403763
 21
-9.9433347407
 31
0.0
  0
LINE
  5
6E2
100
AcDbEntity
  8
L1_120
  6
CONTINUOUS
 62
         4
100
AcDbLine
 10
1447.6033403763
 20
-15.9433347407
 30
0.0
 11
1435.6033403763
 21
-15.9433347407
 31
0.0
  0
DIMENSION
  5
6E5
100
AcDbEntity
  8
_Y__________
  6
CONTINUOUS
 62
         4
100
AcDbDimension
  2
*D54
 10
1464.2083403763
 20
14.1917360085
 30
0.0
 11
1465.6425313366
 21
17.3237360085
 31
0.0
  3
DIMSTYLE1
100
AcDbAlignedDimension
 13
1464.2083403763
 23
7.5566652593
 33
0.0
 14
1488.8082741959
 24
7.5566652593
 34
0.0
100
AcDbRotatedDimension
  0
DIMENSION
  5
6F3
100
AcDbEntity
  8
_Y__________
  6
CONTINUOUS
 62
         4
100
AcDbDimension
  2
*D55
 10
1513.6033403763
 20
-69.7717555683
 30
0.0
 11
1473.7185899024
 21
-66.6397555683
 31
0.0
  3
DIMSTYLE1
100
AcDbAlignedDimension
 13
1513.6033403763
 23
-30.3278646868
 33
0.0
 14
1447.6033403763
 24
-29.4433347407
 34
0.0
100
AcDbRotatedDimension
  0
DIMENSION
  5
701
100
AcDbEntity
  8
_Y__________
  6
CONTINUOUS
 62
         4
100
AcDbDimension
  2
*D56
 10
1513.6033403763
 20
-48.9530593812
 30
0.0
 11
1495.4810669833
 21
-45.8210593812
 31
0.0
  3
DIMSTYLE1
100
AcDbAlignedDimension
 13
1513.6033403763
 23
-30.3278646868
 33
0.0
 14
1488.6033403763
 24
-30.4433347407
 34
0.0
100
AcDbRotatedDimension
  0
DIMENSION
  5
70F
100
AcDbEntity
  8
_Y__________
  6
CONTINUOUS
 62
         4
100
AcDbDimension
  2
*D57
 10
1537.1641711857
 20
3.0566652593
 30
0.0
 11
1534.0321711857
 21
-20.9507516815
 31
0.0
  3
DIMSTYLE1
100
AcDbAlignedDimension
 13
1488.6033403763
 23
3.0566652593
 33
0.0
 14
1488.6033403763
 24
-28.9433347407
 34
0.0
 50
90.0
100
AcDbRotatedDimension
  0
DIMENSION
  5
71D
100
AcDbEntity
  8
_Y__________
  6
CONTINUOUS
 62
         4
100
AcDbDimension
  2
*D58
 10
1549.2715864264
 20
4.0566652593
 30
0.0
 11
1546.1395864264
 21
-21.6075939878
 31
0.0
  3
DIMSTYLE1
100
AcDbAlignedDimension
 13
1513.4033403763
 23
4.0566652593
 33
0.0
 14
1513.4033403763
 24
-29.9433347407
 34
0.0
 50
90.0
100
AcDbRotatedDimension
  0
TEXT
  5
72A
100
AcDbEntity
  8
_Y__________
  6
CONTINUOUS
 62
         2
100
AcDbText
 10
1707.8551181589
 20
224.3704784082
 30
0.0
 40
4.5
  1
534554
 41
0.98
  7
BOX
100
AcDbText
  0
ENDSEC
  0
SECTION
  2
OBJECTS
  0
DICTIONARY
  5
19
100
AcDbDictionary
  3
ACAD_GROUP
350
1A
  3
ACAD_MLINESTYLE
350
1B
  0
DICTIONARY
  5
1A
102
{ACAD_REACTORS
330
19
102
}
100
AcDbDictionary
  0
DICTIONARY
  5
1B
102
{ACAD_REACTORS
330
19
102
}
100
AcDbDictionary
  3
STANDARD
350
1C
  0
MLINESTYLE
  5
1C
102
{ACAD_REACTORS
330
1B
102
}
100
AcDbMlineStyle
  2
STANDARD
 70
         0
  3

 62
         0
 51
90.0
 52
90.0
 71
         2
 49
0.5
 62
       256
  6
BYLAYER
 49
-0.5
 62
       256
  6
BYLAYER
  0
ENDSEC
  0
EOF
