  0
SECTION
  2
HEADER
  9
$ACADVER
  1
AC1014
  9
$ACADMAINTVER
 70
         0
  9
$DWGCODEPAGE
  3
BIG5
  9
$INSBASE
 10
0.0
 20
0.0
 30
0.0
  9
$EXTMIN
 10
1090.7838386987
 20
-426.0333675828
 30
0.0
  9
$EXTMAX
 10
1837.1737412392
 20
-61.6702175809
 30
0.0
  9
$LIMMIN
 10
0.0
 20
0.0
  9
$LIMMAX
 10
0.0
 20
0.0
  9
$ORTHOMODE
 70
         0
  9
$REGENMODE
 70
         1
  9
$FILLMODE
 70
         1
  9
$QTEXTMODE
 70
         0
  9
$MIRRTEXT
 70
         1
  9
$DRAGMODE
 70
         2
  9
$LTSCALE
 40
1.0
  9
$OSMODE
 70
         0
  9
$ATTMODE
 70
         1
  9
$TEXTSIZE
 40
1.7
  9
$TRACEWID
 40
0.05
  9
$TEXTSTYLE
  7
STANDARD
  9
$CLAYER
  8
0
  9
$CELTYPE
  6
CONTINUOUS
  9
$CECOLOR
 62
        16
  9
$CELTSCALE
 40
1.0
  9
$DELOBJ
 70
         1
  9
$DISPSILH
 70
         0
  9
$DIMSCALE
 40
1.0
  9
$DIMASZ
 40
0.18
  9
$DIMEXO
 40
0.0625
  9
$DIMDLI
 40
0.38
  9
$DIMRND
 40
0.0
  9
$DIMDLE
 40
0.0
  9
$DIMEXE
 40
0.25
  9
$DIMTP
 40
0.01
  9
$DIMTM
 40
-0.01
  9
$DIMTXT
 40
2.7
  9
$DIMCEN
 40
0.09
  9
$DIMTSZ
 40
0.0
  9
$DIMTOL
 70
         0
  9
$DIMLIM
 70
         0
  9
$DIMTIH
 70
         1
  9
$DIMTOH
 70
         1
  9
$DIMSE1
 70
         0
  9
$DIMSE2
 70
         0
  9
$DIMTAD
 70
         0
  9
$DIMZIN
 70
         0
  9
$DIMBLK
  1

  9
$DIMASO
 70
         1
  9
$DIMSHO
 70
         1
  9
$DIMPOST
  1

  9
$DIMAPOST
  1

  9
$DIMALT
 70
         0
  9
$DIMALTD
 70
         2
  9
$DIMALTF
 40
25.4
  9
$DIMLFAC
 40
1.0
  9
$DIMTOFL
 70
         0
  9
$DIMTVP
 40
0.0
  9
$DIMTIX
 70
         0
  9
$DIMSOXD
 70
         0
  9
$DIMSAH
 70
         0
  9
$DIMBLK1
  1

  9
$DIMBLK2
  1

  9
$DIMSTYLE
  2
STANDARD
  9
$DIMCLRD
 70
         0
  9
$DIMCLRE
 70
         0
  9
$DIMCLRT
 70
        16
  9
$DIMTFAC
 40
1.0
  9
$DIMGAP
 40
0.09
  9
$DIMJUST
 70
         0
  9
$DIMSD1
 70
         0
  9
$DIMSD2
 70
         0
  9
$DIMTOLJ
 70
         1
  9
$DIMTZIN
 70
         0
  9
$DIMALTZ
 70
         0
  9
$DIMALTTZ
 70
         0
  9
$DIMFIT
 70
         3
  9
$DIMUPT
 70
         0
  9
$DIMUNIT
 70
         2
  9
$DIMDEC
 70
         4
  9
$DIMTDEC
 70
         4
  9
$DIMALTU
 70
         2
  9
$DIMALTTD
 70
         2
  9
$DIMTXSTY
  7
STANDARD
  9
$DIMAUNIT
 70
         0
  9
$LUNITS
 70
         2
  9
$LUPREC
 70
        10
  9
$SKETCHINC
 40
0.1
  9
$FILLETRAD
 40
0.0
  9
$AUNITS
 70
         0
  9
$AUPREC
 70
         0
  9
$MENU
  1
acad
  9
$ELEVATION
 40
0.0
  9
$PELEVATION
 40
0.0
  9
$THICKNESS
 40
0.0
  9
$LIMCHECK
 70
         0
  9
$BLIPMODE
 70
         1
  9
$CHAMFERA
 40
0.0
  9
$CHAMFERB
 40
0.0
  9
$CHAMFERC
 40
0.0
  9
$CHAMFERD
 40
0.0
  9
$SKPOLY
 70
         0
  9
$TDCREATE
 40
0.000000000
  9
$TDUPDATE
 40
0.000000000
  9
$TDINDWG
 40
0.0000000000
  9
$TDUSRTIMER
 40
0.0000000000
  9
$USRTIMER
 70
         1
  9
$ANGBASE
 50
0.0
  9
$ANGDIR
 70
         0
  9
$PDMODE
 70
         2
  9
$PDSIZE
 40
0.0
  9
$PLINEWID
 40
0.0
  9
$COORDS
 70
         0
  9
$SPLFRAME
 70
         0
  9
$SPLINETYPE
 70
         6
  9
$SPLINESEGS
 70
         8
  9
$ATTDIA
 70
         0
  9
$ATTREQ
 70
         1
  9
$HANDLING
 70
         1
  9
$HANDSEED
  5
370
  9
$SURFTAB1
 70
         6
  9
$SURFTAB2
 70
         6
  9
$SURFTYPE
 70
         6
  9
$SURFU
 70
         6
  9
$SURFV
 70
         6
  9
$UCSNAME
  2

  9
$UCSORG
 10
0.0
 20
0.0
 30
0.0
  9
$UCSXDIR
 10
1.0
 20
0.0
 30
0.0
  9
$UCSYDIR
 10
0.0
 20
1.0
 30
0.0
  9
$PUCSNAME
  2

  9
$PUCSORG
 10
0.0
 20
0.0
 30
0.0
  9
$PUCSXDIR
 10
1.0
 20
0.0
 30
0.0
  9
$PUCSYDIR
 10
0.0
 20
1.0
 30
0.0
  9
$USERI1
 70
         0
  9
$USERI2
 70
         0
  9
$USERI3
 70
         0
  9
$USERI4
 70
         0
  9
$USERI5
 70
         0
  9
$USERR1
 40
0.0
  9
$USERR2
 40
0.0
  9
$USERR3
 40
0.0
  9
$USERR4
 40
0.0
  9
$USERR5
 40
0.0
  9
$WORLDVIEW
 70
         1
  9
$SHADEDGE
 70
         3
  9
$SHADEDIF
 70
        70
  9
$TILEMODE
 70
         1
  9
$MAXACTVP
 70
        16
  9
$PINSBASE
 10
0.0
 20
0.0
 30
0.0
  9
$PLIMCHECK
 70
         0
  9
$PEXTMIN
 10
1.0000000000E+20
 20
1.0000000000E+20
 30
1.0000000000E+20
  9
$PEXTMAX
 10
-1.0000000000E+20
 20
-1.0000000000E+20
 30
-1.0000000000E+20
  9
$PLIMMIN
 10
0.0
 20
0.0
  9
$PLIMMAX
 10
12.0
 20
9.0
  9
$UNITMODE
 70
         0
  9
$VISRETAIN
 70
         0
  9
$PLINEGEN
 70
         1
  9
$PSLTSCALE
 70
         0
  9
$TREEDEPTH
 70
      3020
  9
$PICKSTYLE
 70
         1
  9
$CMLSTYLE
  2
STANDARD
  9
$CMLJUST
 70
         0
  9
$CMLSCALE
 40
1.0
  9
$PROXYGRAPHICS
 70
         0
  9
$MEASUREMENT
 70
         0
  0
ENDSEC
  0
SECTION
  2
CLASSES
  0
CLASS
  1
LWPOLYLINE
  2
AcDbPolyline
  3
"AutoCAD"
 90
        0
280
         0
281
         1
  0
CLASS
  1
IMAGE
  2
AcDbRasterImage
  3
ISM
 90
      127
280
         0
281
         1
  0
CLASS
  1
OLE2FRAME
  2
AcDbOle2Frame
  3
""
 90
        0
280
         0
281
         1
  0
CLASS
  1
HATCH
  2
AcDbHatch
  3
"ACAD_SEDONA"
 90
        0
280
         0
281
         1
  0
CLASS
  1
DICTIONARYVAR
  2
AcDbDictionaryVar
  3
"AutoCAD"
 90
        0
280
         0
281
         0
  0
CLASS
  1
RASTERVARIABLES
  2
AcDbRasterVariables
  3
ISM
 90
        0
280
         0
281
         0
  0
CLASS
  1
IMAGEDEF
  2
AcDbRasterImageDef
  3
ISM
 90
        0
280
         0
281
         0
  0
CLASS
  1
IMAGEDEF_REACTOR
  2
AcDbRasterImageDefReactor
  3
ISM
 90
        1
280
         0
281
         0
  0
CLASS
  1
IDBUFFER
  2
AcDbIdBuffer
  3
"Acad"
 90
        0
280
         0
281
         0
  0
CLASS
  1
SPATIAL_FILTER
  2
AcDbSpatialFilter
  3
"Acad"
 90
        0
280
         0
281
         0
  0
CLASS
  1
XRECORD
  2
AcDbXrecord
  3
"<Built In>"
 90
        0
280
         0
281
         0
  0
CLASS
  1
SORTENTSTABLE
  2
AcDbSortentsTable
  3
"AutoCAD"
 90
        0
280
         0
281
         0
  0
CLASS
  1
LAYER_INDEX
  2
AcDbLayerIndex
  3
"Acad"
 90
        0
280
         0
281
         0
  0
CLASS
  1
SPATIAL_INDEX
  2
AcDbSpatialIndex
  3
"Acad"
 90
        0
280
         0
281
         0
  0
CLASS
  1
OBJECT_PTR
  2
CAseDLPNTableRecord
  3
"ASE-LPNTableRecord"
 90
        1
280
         0
281
         0
  0
CLASS
  1
LAYOUT
  2
AcDbLayout
  3
"AutoCAD 2000"
 90
        1
280
         0
281
         0
  0
CLASS
  1
PLOTSETTINGS
  2
AcDbPlotSettings
  3
"AutoCAD 2000"
 90
        1
280
         0
281
         0
  0
CLASS
  1
ACDBDICTIONARYWDFLT
  2
AcDbDictionaryWithDefault
  3
"AutoCAD 2000"
 90
        1
280
         0
281
         0
  0
CLASS
  1
ACDBPLACEHOLDER
  2
AcDbPlaceHolder
  3
"AutoCAD 2000"
 90
        1
280
         0
281
         0
  0
CLASS
  1
VBA_PROJECT
  2
AcDbVbaProject
  3
"acadvba"
 90
        1
280
         0
281
         0
  0
CLASS
  1
WIPEOUT
  2
AcDbWipeout
  3
WipeOut|AutoCAD Express Tool|expresstools@autodesk.com
 90
      127
280
         0
281
         1
  0
CLASS
  1
WIPEOUTVARIABLES
  2
AcDbWipeoutVariables
  3
WipeOut|AutoCAD Express Tool|expresstools@autodesk.com
 90
        0
280
         0
281
         0
  0
CLASS
  1
RTEXT
  2
RText
  3
RText|AutoCAD Express Tool|expresstools@autodesk.com
 90
        0
280
         0
281
         1
  0
CLASS
  1
ARCALIGNEDTEXT
  2
AcDbArcAlignedText
  3
ATEXT|AutoCAD Express Tool|expresstools@autodesk.com
 90
        0
280
         0
281
         1
  0
ENDSEC
  0
SECTION
  2
TABLES
  0
TABLE
  2
VPORT
  5
7
100
AcDbSymbolTable
 70
         1
  0
VPORT
  5
15
100
AcDbSymbolTableRecord
100
AcDbViewportTableRecord
  2
*ACTIVE
 70
         0
 10
0.0
 20
0.0
 11
1.0
 21
1.0
 12
1463.9787899689
 22
-243.8517925819
 13
0.0
 23
0.0
 14
1.0
 24
1.0
 15
0.0
 25
0.0
 16
0.0
 26
0.0
 36
1.0
 17
0.0
 27
0.0
 37
0.0
 40
364.3631500019
 41
2.0484780158
 42
50.0
 43
0.0
 44
0.0
 50
0.0
 51
0.0
 71
         0
 72
       100
 73
         1
 74
         1
 75
         0
 76
         0
 77
         0
 78
         0
  0
ENDTAB
  0
TABLE
  2
LTYPE
  5
4
100
AcDbSymbolTable
 70
         6
  0
LTYPE
  5
11
100
AcDbSymbolTableRecord
100
AcDbLinetypeTableRecord
  2
BYBLOCK
 70
        64
  3

 72
        65
 73
         0
 40
0.0
  0
LTYPE
  5
12
100
AcDbSymbolTableRecord
100
AcDbLinetypeTableRecord
  2
BYLAYER
 70
        64
  3

 72
        65
 73
         0
 40
0.0
  0
LTYPE
  5
13
100
AcDbSymbolTableRecord
100
AcDbLinetypeTableRecord
  2
CONTINUOUS
 70
        64
  3
Solid line
 72
        65
 73
         0
 40
0.0
  0
LTYPE
  5
1D
100
AcDbSymbolTableRecord
100
AcDbLinetypeTableRecord
  2
DASHED
 70
        64
  3
_ _ _ _ _ _ _ _ _ _ _ _ _ _ _ _
 72
        65
 73
         2
 40
0.2
 49
0.1
 74
         0
 49
-0.1
 74
         0
  0
LTYPE
  5
1E
100
AcDbSymbolTableRecord
100
AcDbLinetypeTableRecord
  2
CENTER
 70
        64
  3
___ _ ___ _ ___ _ ___ _ ___ _ ___ _ ___ _ ___ _
 72
        65
 73
         4
 40
0.95
 49
0.625
 74
         0
 49
-0.125
 74
         0
 49
0.075
 74
         0
 49
-0.125
 74
         0
  0
LTYPE
  5
1F
100
AcDbSymbolTableRecord
100
AcDbLinetypeTableRecord
  2
PHANTOM
 70
        64
  3
______  __  __  ______  __  __  ______  __  __  
 72
        65
 73
         6
 40
1.025
 49
0.625
 74
         0
 49
-0.125
 74
         0
 49
0.075
 74
         0
 49
-0.125
 74
         0
 49
0.075
 74
         0
 49
-0.125
 74
         0
  0
ENDTAB
  0
TABLE
  2
LAYER
  5
2
100
AcDbSymbolTable
 70
         6
  0
LAYER
  5
14
100
AcDbSymbolTableRecord
100
AcDbLayerTableRecord
  2
0
 70
         0
 62
         7
  6
CONTINUOUS
  0
LAYER
  5
21
100
AcDbSymbolTableRecord
100
AcDbLayerTableRecord
  2
_____U
 70
         1
 62
         7
  6
CONTINUOUS
  0
LAYER
  5
22
100
AcDbSymbolTableRecord
100
AcDbLayerTableRecord
  2
_____T______
 70
         1
 62
         7
  6
CONTINUOUS
  0
LAYER
  5
23
100
AcDbSymbolTableRecord
100
AcDbLayerTableRecord
  2
______L_______
 70
         1
 62
         7
  6
CONTINUOUS
  0
LAYER
  5
24
100
AcDbSymbolTableRecord
100
AcDbLayerTableRecord
  2
L1_120
 70
         0
 62
         7
  6
CONTINUOUS
  0
LAYER
  5
197
100
AcDbSymbolTableRecord
100
AcDbLayerTableRecord
  2
DEFPOINTS
 70
         0
 62
        -7
  6
CONTINUOUS
  0
ENDTAB
  0
TABLE
  2
STYLE
  5
3
100
AcDbSymbolTable
 70
        11
  0
STYLE
  5
17
100
AcDbSymbolTableRecord
100
AcDbTextStyleTableRecord
  2
STANDARD
 70
         0
 40
0.0
 41
1.0
 50
0.0
 71
         0
 42
0.0
  3
txt
  4

  0
STYLE
  5
1A1
100
AcDbSymbolTableRecord
100
AcDbTextStyleTableRecord
  2
BOX
 70
         0
 40
1.0
 41
1.0
 50
0.0
 71
         0
 42
0.2
  3
txt.shx
  4

  0
STYLE
  5
1B0
100
AcDbSymbolTableRecord
100
AcDbTextStyleTableRecord
  2
BOX
 70
         0
 40
1.0
 41
1.0
 50
0.0
 71
         0
 42
0.2
  3
txt.shx
  4

  0
STYLE
  5
1C5
100
AcDbSymbolTableRecord
100
AcDbTextStyleTableRecord
  2
BOX
 70
         0
 40
1.0
 41
1.0
 50
0.0
 71
         0
 42
0.2
  3
txt.shx
  4

  0
STYLE
  5
293
100
AcDbSymbolTableRecord
100
AcDbTextStyleTableRecord
  2
BOX
 70
         0
 40
1.0
 41
1.0
 50
0.0
 71
         0
 42
0.2
  3
txt.shx
  4

  0
STYLE
  5
2A1
100
AcDbSymbolTableRecord
100
AcDbTextStyleTableRecord
  2
BOX
 70
         0
 40
1.0
 41
1.0
 50
0.0
 71
         0
 42
0.2
  3
txt.shx
  4

  0
STYLE
  5
2A4
100
AcDbSymbolTableRecord
100
AcDbTextStyleTableRecord
  2
BOX
 70
         0
 40
1.0
 41
1.0
 50
0.0
 71
         0
 42
0.2
  3
txt.shx
  4

  0
STYLE
  5
31E
100
AcDbSymbolTableRecord
100
AcDbTextStyleTableRecord
  2
BOX
 70
         0
 40
1.0
 41
1.0
 50
0.0
 71
         0
 42
0.2
  3
txt.shx
  4

  0
STYLE
  5
341
100
AcDbSymbolTableRecord
100
AcDbTextStyleTableRecord
  2
BOX
 70
         0
 40
1.0
 41
1.0
 50
0.0
 71
         0
 42
0.2
  3
txt.shx
  4

  0
STYLE
  5
34F
100
AcDbSymbolTableRecord
100
AcDbTextStyleTableRecord
  2
BOX
 70
         0
 40
1.0
 41
1.0
 50
0.0
 71
         0
 42
0.2
  3
txt.shx
  4

  0
STYLE
  5
36B
100
AcDbSymbolTableRecord
100
AcDbTextStyleTableRecord
  2
BOX
 70
         0
 40
1.0
 41
1.0
 50
0.0
 71
         0
 42
0.2
  3
txt.shx
  4

  0
ENDTAB
  0
TABLE
  2
VIEW
  5
5
100
AcDbSymbolTable
 70
         0
  0
ENDTAB
  0
TABLE
  2
UCS
  5
6
100
AcDbSymbolTable
 70
         1
  0
UCS
  5
20
100
AcDbSymbolTableRecord
100
AcDbUCSTableRecord
  2
CK_VIEW_1
 70
         0
 10
0.0
 20
0.0
 30
1.0
 11
1.0
 21
0.0
 31
0.0
 12
0.0
 22
1.0
 32
0.0
  0
ENDTAB
  0
TABLE
  2
APPID
  5
8
100
AcDbSymbolTable
 70
         1
  0
APPID
  5
16
100
AcDbSymbolTableRecord
100
AcDbRegAppTableRecord
  2
ACAD
 70
         0
  0
ENDTAB
  0
TABLE
  2
DIMSTYLE
  5
9
100
AcDbSymbolTable
 70
         2
  0
DIMSTYLE
105
18
100
AcDbSymbolTableRecord
100
AcDbDimStyleTableRecord
  2
STANDARD
 70
         0
  3

  4

  5

  6

  7

 40
1.0
 41
0.18
 42
0.0625
 43
0.38
 44
0.18
 45
0.0
 46
0.0
 47
0.0
 48
0.0
 71
         0
 72
         0
 73
         1
 74
         1
 75
         0
 76
         0
 77
         0
 78
         0
140
0.18
141
0.09
142
0.0
143
25.4
144
1.0
145
0.0
146
1.0
147
0.09
170
         0
171
         2
172
         0
173
         0
174
         0
175
         0
176
         0
177
         0
178
         0
270
         2
271
         4
272
         4
273
         2
274
         2
275
         0
280
         0
281
         0
282
         0
283
         1
284
         0
285
         0
286
         0
287
         0
288
         0
340
17
  0
DIMSTYLE
105
193
100
AcDbSymbolTableRecord
100
AcDbDimStyleTableRecord
  2
DIMSTYLE1
 70
         0
  3

  4

  5

  6

  7

 40
1.0
 41
3.5
 42
0.0625
 43
0.38
 44
3.5
 45
0.0
 46
0.0
 47
0.0
 48
0.0
 71
         0
 72
         0
 73
         1
 74
         1
 75
         0
 76
         0
 77
         0
 78
         0
140
3.5
141
0.09
142
0.0
143
25.4
144
1.0
145
0.0
146
1.0
147
0.09
170
         0
171
         2
172
         0
173
         0
174
         0
175
         0
176
         0
177
         0
178
         0
270
         2
271
         4
272
         4
273
         2
274
         2
275
         0
280
         0
281
         0
282
         0
283
         1
284
         0
285
         0
286
         0
287
         0
288
         0
340
17
  0
ENDTAB
  0
TABLE
  2
BLOCK_RECORD
  5
1
100
AcDbSymbolTable
 70
        10
  0
BLOCK_RECORD
  5
A
100
AcDbSymbolTableRecord
100
AcDbBlockTableRecord
  2
*MODEL_SPACE
  0
BLOCK_RECORD
  5
B
100
AcDbSymbolTableRecord
100
AcDbBlockTableRecord
  2
*PAPER_SPACE
  0
BLOCK_RECORD
  5
194
100
AcDbSymbolTableRecord
100
AcDbBlockTableRecord
  2
*D0
  0
BLOCK_RECORD
  5
1A4
100
AcDbSymbolTableRecord
100
AcDbBlockTableRecord
  2
*D1
  0
BLOCK_RECORD
  5
1B8
100
AcDbSymbolTableRecord
100
AcDbBlockTableRecord
  2
*D2
  0
BLOCK_RECORD
  5
218
100
AcDbSymbolTableRecord
100
AcDbBlockTableRecord
  2
*X3
  0
BLOCK_RECORD
  5
288
100
AcDbSymbolTableRecord
100
AcDbBlockTableRecord
  2
*D4
  0
BLOCK_RECORD
  5
296
100
AcDbSymbolTableRecord
100
AcDbBlockTableRecord
  2
*D5
  0
BLOCK_RECORD
  5
313
100
AcDbSymbolTableRecord
100
AcDbBlockTableRecord
  2
*D6
  0
BLOCK_RECORD
  5
334
100
AcDbSymbolTableRecord
100
AcDbBlockTableRecord
  2
*D7
  0
BLOCK_RECORD
  5
344
100
AcDbSymbolTableRecord
100
AcDbBlockTableRecord
  2
*D8
  0
BLOCK_RECORD
  5
35E
100
AcDbSymbolTableRecord
100
AcDbBlockTableRecord
  2
*D9
  0
ENDTAB
  0
ENDSEC
  0
SECTION
  2
BLOCKS
  0
BLOCK
  5
D
100
AcDbEntity
  8
0
100
AcDbBlockBegin
  2
*MODEL_SPACE
 70
         0
 10
0.0
 20
0.0
 30
0.0
  3
*MODEL_SPACE
  1

  0
ENDBLK
  5
E
100
AcDbEntity
  8
0
100
AcDbBlockEnd
  0
BLOCK
  5
F
100
AcDbEntity
 67
         1
  8
0
100
AcDbBlockBegin
  2
*PAPER_SPACE
 70
         0
 10
0.0
 20
0.0
 30
0.0
  3
*PAPER_SPACE
  1

  0
ENDBLK
  5
10
100
AcDbEntity
 67
         1
  8
0
100
AcDbBlockEnd
  0
BLOCK
  5
195
100
AcDbEntity
  8
0
100
AcDbBlockBegin
  2
*D0
 70
        65
 10
0.0
 20
0.0
 30
0.0
  3
*D0
  1

  0
POINT
  5
198
100
AcDbEntity
  8
DEFPOINTS
  6
CONTINUOUS
 62
         0
100
AcDbPoint
 10
1544.2082620898
 20
-207.2741419623
 30
0.0
  0
POINT
  5
199
100
AcDbEntity
  8
DEFPOINTS
  6
CONTINUOUS
 62
         0
100
AcDbPoint
 10
1463.7894887089
 20
-207.2741419623
 30
0.0
  0
POINT
  5
19A
100
AcDbEntity
  8
DEFPOINTS
  6
CONTINUOUS
 62
         0
100
AcDbPoint
 10
1463.7894887089
 20
-241.2781419623
 30
0.0
  0
LINE
  5
19B
100
AcDbEntity
  8
L1_120
  6
CONTINUOUS
 62
         4
100
AcDbLine
 10
1465.5394887089
 20
-207.2741419623
 30
0.0
 11
1545.0832620898
 21
-207.2741419623
 31
0.0
  0
LINE
  5
19C
100
AcDbEntity
  8
L1_120
  6
CONTINUOUS
 62
         4
100
AcDbLine
 10
1465.5394887089
 20
-241.2781419623
 30
0.0
 11
1545.0832620898
 21
-241.2781419623
 31
0.0
  0
LINE
  5
19D
100
AcDbEntity
  8
L1_120
  6
CONTINUOUS
 62
         4
100
AcDbLine
 10
1544.2082620898
 20
-207.2741419623
 30
0.0
 11
1544.2082620898
 21
-241.2781419623
 31
0.0
  0
SOLID
  5
19E
100
AcDbEntity
  8
L1_120
  6
CONTINUOUS
 62
         4
100
AcDbTrace
 10
1544.2082620898
 20
-207.2741419623
 30
0.0
 11
1544.7332620898
 21
-210.7741419623
 31
0.0
 12
1543.6832620898
 22
-210.7741419623
 32
0.0
 13
1544.2082620898
 23
-207.2741419623
 33
0.0
  0
LINE
  5
19F
100
AcDbEntity
  8
L1_120
  6
CONTINUOUS
 62
         4
100
AcDbLine
 10
1544.2082620898
 20
-207.2741419623
 30
0.0
 11
1544.2082620898
 21
-189.1334664868
 31
0.0
  0
SOLID
  5
1A0
100
AcDbEntity
  8
L1_120
  6
CONTINUOUS
 62
         4
100
AcDbTrace
 10
1544.2082620898
 20
-241.2781419623
 30
0.0
 11
1543.6832620898
 21
-237.7781419623
 31
0.0
 12
1544.7332620898
 22
-237.7781419623
 32
0.0
 13
1544.2082620898
 23
-241.2781419623
 33
0.0
  0
TEXT
  5
1A2
100
AcDbEntity
  8
L1_120
  6
CONTINUOUS
 62
         4
100
AcDbText
 10
1541.5832620898
 20
-204.8834664868
 30
0.0
 40
3.5
  1
崷34
 50
90.0
  7
BOX
100
AcDbText
  0
ENDBLK
  5
1A3
100
AcDbEntity
  8
0
  6
CONTINUOUS
100
AcDbBlockEnd
  0
BLOCK
  5
1A5
100
AcDbEntity
  8
0
100
AcDbBlockBegin
  2
*D1
 70
        65
 10
0.0
 20
0.0
 30
0.0
  3
*D1
  1

  0
POINT
  5
1A7
100
AcDbEntity
  8
DEFPOINTS
  6
CONTINUOUS
 62
         0
100
AcDbPoint
 10
1533.9272156661
 20
-211.3381419623
 30
0.0
  0
POINT
  5
1A8
100
AcDbEntity
  8
DEFPOINTS
  6
CONTINUOUS
 62
         0
100
AcDbPoint
 10
1510.3475047567
 20
-211.3381419623
 30
0.0
  0
POINT
  5
1A9
100
AcDbEntity
  8
DEFPOINTS
  6
CONTINUOUS
 62
         0
100
AcDbPoint
 10
1510.3475047567
 20
-237.2141419623
 30
0.0
  0
LINE
  5
1AA
100
AcDbEntity
  8
L1_120
  6
CONTINUOUS
 62
         4
100
AcDbLine
 10
1512.0975047567
 20
-211.3381419623
 30
0.0
 11
1534.8022156661
 21
-211.3381419623
 31
0.0
  0
LINE
  5
1AB
100
AcDbEntity
  8
L1_120
  6
CONTINUOUS
 62
         4
100
AcDbLine
 10
1512.0975047567
 20
-237.2141419623
 30
0.0
 11
1534.8022156661
 21
-237.2141419623
 31
0.0
  0
LINE
  5
1AC
100
AcDbEntity
  8
L1_120
  6
CONTINUOUS
 62
         4
100
AcDbLine
 10
1533.9272156661
 20
-211.3381419623
 30
0.0
 11
1533.9272156661
 21
-237.2141419623
 31
0.0
  0
SOLID
  5
1AD
100
AcDbEntity
  8
L1_120
  6
CONTINUOUS
 62
         4
100
AcDbTrace
 10
1533.9272156661
 20
-211.3381419623
 30
0.0
 11
1534.4522156661
 21
-214.8381419623
 31
0.0
 12
1533.4022156661
 22
-214.8381419623
 32
0.0
 13
1533.9272156661
 23
-211.3381419623
 33
0.0
  0
LINE
  5
1AE
100
AcDbEntity
  8
L1_120
  6
CONTINUOUS
 62
         4
100
AcDbLine
 10
1533.9272156661
 20
-211.3381419623
 30
0.0
 11
1533.9272156661
 21
-188.264493249
 31
0.0
  0
SOLID
  5
1AF
100
AcDbEntity
  8
L1_120
  6
CONTINUOUS
 62
         4
100
AcDbTrace
 10
1533.9272156661
 20
-237.2141419623
 30
0.0
 11
1533.4022156661
 21
-233.7141419623
 31
0.0
 12
1534.4522156661
 22
-233.7141419623
 32
0.0
 13
1533.9272156661
 23
-237.2141419623
 33
0.0
  0
TEXT
  5
1B1
100
AcDbEntity
  8
L1_120
  6
CONTINUOUS
 62
         4
100
AcDbText
 10
1531.3022156661
 20
-204.014493249
 30
0.0
 40
3.5
  1
崷27
 50
90.0
  7
BOX
100
AcDbText
  0
ENDBLK
  5
1B2
100
AcDbEntity
  8
0
  6
CONTINUOUS
100
AcDbBlockEnd
  0
BLOCK
  5
1B9
100
AcDbEntity
  8
0
100
AcDbBlockBegin
  2
*D2
 70
        65
 10
0.0
 20
0.0
 30
0.0
  3
*D2
  1

  0
POINT
  5
1BB
100
AcDbEntity
  8
DEFPOINTS
  6
CONTINUOUS
 62
         0
100
AcDbPoint
 10
1339.158202381
 20
-208.2741364209
 30
0.0
  0
POINT
  5
1BC
100
AcDbEntity
  8
DEFPOINTS
  6
CONTINUOUS
 62
         0
100
AcDbPoint
 10
1520.1487064707
 20
-207.2741364209
 30
0.0
  0
POINT
  5
1BD
100
AcDbEntity
  8
DEFPOINTS
  6
CONTINUOUS
 62
         0
100
AcDbPoint
 10
1458.7094887089
 20
-207.2741364209
 30
0.0
  0
POINT
  5
1BE
100
AcDbEntity
  8
DEFPOINTS
  6
CONTINUOUS
 62
         0
100
AcDbPoint
 10
1508.5044229482
 20
-211.1930827367
 30
0.0
  0
ARC
  5
1BF
100
AcDbEntity
  8
L1_120
  6
CONTINUOUS
 62
         4
100
AcDbCircle
 10
1462.7398064383
 20
-207.5913293052
 30
0.0
 40
20.2208325758
100
AcDbArc
 50
335.6654825494
 51
355.5
  0
SOLID
  5
1C0
100
AcDbEntity
  8
L1_120
  6
CONTINUOUS
 62
         4
100
AcDbTrace
 10
1482.8983049357
 20
-209.177837544
 30
0.0
 11
1482.8413755278
 21
-212.7165356156
 31
0.0
 12
1481.8056321555
 22
-212.5440952874
 32
0.0
 13
1482.8983049357
 23
-209.177837544
 33
0.0
  0
ARC
  5
1C1
100
AcDbEntity
  8
L1_120
  6
CONTINUOUS
 62
         4
100
AcDbCircle
 10
1462.7398064383
 20
-207.5913293052
 30
0.0
 40
20.2208325758
100
AcDbArc
 50
0.3165646551
 51
12.5134905232
  0
SOLID
  5
1C2
100
AcDbEntity
  8
L1_120
  6
CONTINUOUS
 62
         4
100
AcDbTrace
 10
1482.9603303775
 20
-207.479607842
 30
0.0
 11
1482.1161369448
 21
-204.0426087952
 31
0.0
 12
1483.1617001903
 22
-203.9461852522
 32
0.0
 13
1482.9603303775
 23
-207.479607842
 33
0.0
  0
ARC
  5
1C3
100
AcDbEntity
  8
L1_120
  6
CONTINUOUS
 62
         4
100
AcDbCircle
 10
1462.7398064383
 20
-207.5913293052
 30
0.0
 40
20.2208325758
100
AcDbArc
 50
355.5
 51
360.3165646551
  0
SOLID
  5
1C4
100
AcDbEntity
  8
L1_120
  6
CONTINUOUS
 62
         4
100
AcDbTrace
 10
1462.7398064383
 20
-207.5913293052
 30
0.0
 11
1464.1317090488
 21
-204.3373729252
 31
0.0
 12
1465.0251577496
 22
-204.8889610135
 32
0.0
 13
1462.7398064383
 23
-207.5913293052
 33
0.0
  0
TEXT
  5
1C6
100
AcDbEntity
  8
L1_120
  6
CONTINUOUS
 62
         4
100
AcDbText
 10
1484.2302935099
 20
-201.46009201
 30
0.0
 40
3.5
  1
4.5%%d 
  7
BOX
100
AcDbText
  0
ENDBLK
  5
1C7
100
AcDbEntity
  8
0
  6
CONTINUOUS
100
AcDbBlockEnd
  0
BLOCK
  5
219
100
AcDbEntity
  8
0
100
AcDbBlockBegin
  2
*X3
 70
        65
 10
0.0
 20
0.0
 30
0.0
  3
*X3
  1

  0
LINE
  5
21A
100
AcDbEntity
  8
L1_120
  6
CONTINUOUS
 62
         4
100
AcDbLine
 10
1505.4899884395
 20
-351.4889252376
 30
0.0
 11
1510.2693529668
 21
-346.7095607104
 31
0.0
  0
LINE
  5
21B
100
AcDbEntity
  8
L1_120
  6
CONTINUOUS
 62
         4
100
AcDbLine
 10
1500.8849210921
 20
-351.8513518979
 30
0.0
 11
1506.6391431724
 21
-346.0971298176
 31
0.0
  0
LINE
  5
21C
100
AcDbEntity
  8
L1_120
  6
CONTINUOUS
 62
         4
100
AcDbLine
 10
1496.2798537447
 20
-352.2137785582
 30
0.0
 11
1502.3965024853
 21
-346.0971298176
 31
0.0
  0
LINE
  5
21D
100
AcDbEntity
  8
L1_120
  6
CONTINUOUS
 62
         4
100
AcDbLine
 10
1491.6747863973
 20
-352.5762052184
 30
0.0
 11
1498.1538617981
 21
-346.0971298176
 31
0.0
  0
LINE
  5
21E
100
AcDbEntity
  8
L1_120
  6
CONTINUOUS
 62
         4
100
AcDbLine
 10
1487.0697190499
 20
-352.9386318787
 30
0.0
 11
1493.911221111
 21
-346.0971298176
 31
0.0
  0
LINE
  5
21F
100
AcDbEntity
  8
L1_120
  6
CONTINUOUS
 62
         4
100
AcDbLine
 10
1482.4646517025
 20
-353.301058539
 30
0.0
 11
1489.6685804239
 21
-346.0971298176
 31
0.0
  0
LINE
  5
220
100
AcDbEntity
  8
L1_120
  6
CONTINUOUS
 62
         4
100
AcDbLine
 10
1505.5255804239
 20
-330.2401298176
 30
0.0
 11
1509.920937865
 21
-325.8447723766
 31
0.0
  0
LINE
  5
221
100
AcDbEntity
  8
L1_120
  6
CONTINUOUS
 62
         4
100
AcDbLine
 10
1477.8595843551
 20
-353.6634851993
 30
0.0
 11
1485.4259397368
 21
-346.0971298176
 31
0.0
  0
LINE
  5
222
100
AcDbEntity
  8
L1_120
  6
CONTINUOUS
 62
         4
100
AcDbLine
 10
1501.2829397368
 20
-330.2401298176
 30
0.0
 11
1506.5882964423
 21
-324.9347731121
 31
0.0
  0
LINE
  5
223
100
AcDbEntity
  8
L1_120
  6
CONTINUOUS
 62
         4
100
AcDbLine
 10
1473.2545170077
 20
-354.0259118596
 30
0.0
 11
1481.1832990497
 21
-346.0971298176
 31
0.0
  0
LINE
  5
224
100
AcDbEntity
  8
L1_120
  6
CONTINUOUS
 62
         4
100
AcDbLine
 10
1497.0402990497
 20
-330.2401298176
 30
0.0
 11
1502.6551973656
 21
-324.6252315017
 31
0.0
  0
LINE
  5
225
100
AcDbEntity
  8
L1_120
  6
CONTINUOUS
 62
         4
100
AcDbLine
 10
1468.6494496603
 20
-354.3883385199
 30
0.0
 11
1476.9406583625
 21
-346.0971298176
 31
0.0
  0
LINE
  5
226
100
AcDbEntity
  8
L1_120
  6
CONTINUOUS
 62
         4
100
AcDbLine
 10
1492.7976583625
 20
-330.2401298176
 30
0.0
 11
1498.7220982889
 21
-324.3156898912
 31
0.0
  0
LINE
  5
227
100
AcDbEntity
  8
L1_120
  6
CONTINUOUS
 62
         4
100
AcDbLine
 10
1464.0443823129
 20
-354.7507651801
 30
0.0
 11
1472.6980176754
 21
-346.0971298176
 31
0.0
  0
LINE
  5
228
100
AcDbEntity
  8
L1_120
  6
CONTINUOUS
 62
         4
100
AcDbLine
 10
1488.5550176754
 20
-330.2401298176
 30
0.0
 11
1494.7889992123
 21
-324.0061482808
 31
0.0
  0
LINE
  5
229
100
AcDbEntity
  8
L1_120
  6
CONTINUOUS
 62
         4
100
AcDbLine
 10
1459.4393149655
 20
-355.1131918404
 30
0.0
 11
1467.8838769883
 21
-346.6686298176
 31
0.0
  0
LINE
  5
22A
100
AcDbEntity
  8
L1_120
  6
CONTINUOUS
 62
         4
100
AcDbLine
 10
1484.3123769883
 20
-330.2401298176
 30
0.0
 11
1490.8559001356
 21
-323.6966066703
 31
0.0
  0
LINE
  5
22B
100
AcDbEntity
  8
L1_120
  6
CONTINUOUS
 62
         4
100
AcDbLine
 10
1455.1392441131
 20
-355.1706220058
 30
0.0
 11
1463.6412363012
 21
-346.6686298176
 31
0.0
  0
LINE
  5
22C
100
AcDbEntity
  8
L1_120
  6
CONTINUOUS
 62
         4
100
AcDbLine
 10
1480.0697363012
 20
-330.2401298176
 30
0.0
 11
1486.9228010589
 21
-323.3870650599
 31
0.0
  0
LINE
  5
22D
100
AcDbEntity
  8
L1_120
  6
CONTINUOUS
 62
         4
100
AcDbLine
 10
1450.8966034259
 20
-355.1706220058
 30
0.0
 11
1460.3475123151
 21
-345.7197131166
 31
0.0
  0
LINE
  5
22E
100
AcDbEntity
  8
L1_120
  6
CONTINUOUS
 62
         4
100
AcDbLine
 10
1475.8270956141
 20
-330.2401298176
 30
0.0
 11
1482.9897019822
 21
-323.0775234495
 31
0.0
  0
LINE
  5
22F
100
AcDbEntity
  8
L1_120
  6
CONTINUOUS
 62
         4
100
AcDbLine
 10
1446.6539627388
 20
-355.1706220058
 30
0.0
 11
1458.1559549269
 21
-343.6686298176
 31
0.0
  0
LINE
  5
230
100
AcDbEntity
  8
L1_120
  6
CONTINUOUS
 62
         4
100
AcDbLine
 10
1471.5844549269
 20
-330.2401298176
 30
0.0
 11
1479.0566029056
 21
-322.767981839
 31
0.0
  0
LINE
  5
231
100
AcDbEntity
  8
L1_120
  6
CONTINUOUS
 62
         4
100
AcDbLine
 10
1442.4113220517
 20
-355.1706220058
 30
0.0
 11
1453.9133142398
 21
-343.6686298176
 31
0.0
  0
LINE
  5
232
100
AcDbEntity
  8
L1_120
  6
CONTINUOUS
 62
         4
100
AcDbLine
 10
1467.9133142398
 20
-329.6686298176
 30
0.0
 11
1475.1235038289
 21
-322.4584402286
 31
0.0
  0
LINE
  5
233
100
AcDbEntity
  8
L1_120
  6
CONTINUOUS
 62
         4
100
AcDbLine
 10
1438.1686813646
 20
-355.1706220058
 30
0.0
 11
1449.6706735527
 21
-343.6686298176
 31
0.0
  0
LINE
  5
234
100
AcDbEntity
  8
L1_120
  6
CONTINUOUS
 62
         4
100
AcDbLine
 10
1463.6706735527
 20
-329.6686298176
 30
0.0
 11
1471.1904047522
 21
-322.1488986181
 31
0.0
  0
LINE
  5
235
100
AcDbEntity
  8
L1_120
  6
CONTINUOUS
 62
         4
100
AcDbLine
 10
1433.9260406775
 20
-355.1706220058
 30
0.0
 11
1445.4280328656
 21
-343.6686298176
 31
0.0
  0
LINE
  5
236
100
AcDbEntity
  8
L1_120
  6
CONTINUOUS
 62
         4
100
AcDbLine
 10
1456.4280328656
 20
-332.6686298176
 30
0.0
 11
1467.2573056755
 21
-321.8393570077
 31
0.0
  0
LINE
  5
237
100
AcDbEntity
  8
L1_120
  6
CONTINUOUS
 62
         4
100
AcDbLine
 10
1429.6833999903
 20
-355.1706220058
 30
0.0
 11
1441.1853921785
 21
-343.6686298176
 31
0.0
  0
LINE
  5
238
100
AcDbEntity
  8
L1_120
  6
CONTINUOUS
 62
         4
100
AcDbLine
 10
1452.1853921785
 20
-332.6686298176
 30
0.0
 11
1463.3242065989
 21
-321.5298153972
 31
0.0
  0
LINE
  5
239
100
AcDbEntity
  8
L1_120
  6
CONTINUOUS
 62
         4
100
AcDbLine
 10
1425.4407593032
 20
-355.1706220058
 30
0.0
 11
1436.9427514913
 21
-343.6686298176
 31
0.0
  0
LINE
  5
23A
100
AcDbEntity
  8
L1_120
  6
CONTINUOUS
 62
         4
100
AcDbLine
 10
1447.9427514913
 20
-332.6686298176
 30
0.0
 11
1459.3911075222
 21
-321.2202737868
 31
0.0
  0
LINE
  5
23B
100
AcDbEntity
  8
L1_120
  6
CONTINUOUS
 62
         4
100
AcDbLine
 10
1421.1981186161
 20
-355.1706220058
 30
0.0
 11
1432.7001108042
 21
-343.6686298176
 31
0.0
  0
LINE
  5
23C
100
AcDbEntity
  8
L1_120
  6
CONTINUOUS
 62
         4
100
AcDbLine
 10
1443.7001108042
 20
-332.6686298176
 30
0.0
 11
1455.2021186161
 21
-321.1666220058
 31
0.0
  0
LINE
  5
23D
100
AcDbEntity
  8
L1_120
  6
CONTINUOUS
 62
         4
100
AcDbLine
 10
1416.955477929
 20
-355.1706220058
 30
0.0
 11
1428.4574701171
 21
-343.6686298176
 31
0.0
  0
LINE
  5
23E
100
AcDbEntity
  8
L1_120
  6
CONTINUOUS
 62
         4
100
AcDbLine
 10
1439.4574701171
 20
-332.6686298176
 30
0.0
 11
1450.959477929
 21
-321.1666220058
 31
0.0
  0
LINE
  5
23F
100
AcDbEntity
  8
L1_120
  6
CONTINUOUS
 62
         4
100
AcDbLine
 10
1412.7128372419
 20
-355.1706220058
 30
0.0
 11
1424.21482943
 21
-343.6686298176
 31
0.0
  0
LINE
  5
240
100
AcDbEntity
  8
L1_120
  6
CONTINUOUS
 62
         4
100
AcDbLine
 10
1435.21482943
 20
-332.6686298176
 30
0.0
 11
1446.7168372419
 21
-321.1666220058
 31
0.0
  0
LINE
  5
241
100
AcDbEntity
  8
L1_120
  6
CONTINUOUS
 62
         4
100
AcDbLine
 10
1408.4701965547
 20
-355.1706220058
 30
0.0
 11
1419.9721887429
 21
-343.6686298176
 31
0.0
  0
LINE
  5
242
100
AcDbEntity
  8
L1_120
  6
CONTINUOUS
 62
         4
100
AcDbLine
 10
1430.9721887429
 20
-332.6686298176
 30
0.0
 11
1442.4741965547
 21
-321.1666220058
 31
0.0
  0
LINE
  5
243
100
AcDbEntity
  8
L1_120
  6
CONTINUOUS
 62
         4
100
AcDbLine
 10
1404.2275558676
 20
-355.1706220058
 30
0.0
 11
1415.7295480557
 21
-343.6686298176
 31
0.0
  0
LINE
  5
244
100
AcDbEntity
  8
L1_120
  6
CONTINUOUS
 62
         4
100
AcDbLine
 10
1426.7295480557
 20
-332.6686298176
 30
0.0
 11
1438.2315558676
 21
-321.1666220058
 31
0.0
  0
LINE
  5
245
100
AcDbEntity
  8
L1_120
  6
CONTINUOUS
 62
         4
100
AcDbLine
 10
1399.9849151805
 20
-355.1706220058
 30
0.0
 11
1411.4869073686
 21
-343.6686298176
 31
0.0
  0
LINE
  5
246
100
AcDbEntity
  8
L1_120
  6
CONTINUOUS
 62
         4
100
AcDbLine
 10
1422.4869073686
 20
-332.6686298176
 30
0.0
 11
1433.9889151805
 21
-321.1666220058
 31
0.0
  0
LINE
  5
247
100
AcDbEntity
  8
L1_120
  6
CONTINUOUS
 62
         4
100
AcDbLine
 10
1395.7422744934
 20
-355.1706220058
 30
0.0
 11
1407.2442666815
 21
-343.6686298176
 31
0.0
  0
LINE
  5
248
100
AcDbEntity
  8
L1_120
  6
CONTINUOUS
 62
         4
100
AcDbLine
 10
1418.2442666815
 20
-332.6686298176
 30
0.0
 11
1429.7462744934
 21
-321.1666220058
 31
0.0
  0
LINE
  5
249
100
AcDbEntity
  8
L1_120
  6
CONTINUOUS
 62
         4
100
AcDbLine
 10
1391.4996338063
 20
-355.1706220058
 30
0.0
 11
1403.0016259944
 21
-343.6686298176
 31
0.0
  0
LINE
  5
24A
100
AcDbEntity
  8
L1_120
  6
CONTINUOUS
 62
         4
100
AcDbLine
 10
1414.0016259944
 20
-332.6686298176
 30
0.0
 11
1425.5036338063
 21
-321.1666220058
 31
0.0
  0
LINE
  5
24B
100
AcDbEntity
  8
L1_120
  6
CONTINUOUS
 62
         4
100
AcDbLine
 10
1372.7589931192
 20
-369.6686220057
 30
0.0
 11
1376.3275047567
 21
-366.1001103682
 31
0.0
  0
LINE
  5
24C
100
AcDbEntity
  8
L1_120
  6
CONTINUOUS
 62
         4
100
AcDbLine
 10
1387.2569931191
 20
-355.1706220058
 30
0.0
 11
1398.7589853073
 21
-343.6686298176
 31
0.0
  0
LINE
  5
24D
100
AcDbEntity
  8
L1_120
  6
CONTINUOUS
 62
         4
100
AcDbLine
 10
1409.7589853073
 20
-332.6686298176
 30
0.0
 11
1421.2609931191
 21
-321.1666220058
 31
0.0
  0
LINE
  5
24E
100
AcDbEntity
  8
L1_120
  6
CONTINUOUS
 62
         4
100
AcDbLine
 10
1370.5378764155
 20
-367.6470980223
 30
0.0
 11
1376.3275047567
 21
-361.8574696811
 31
0.0
  0
LINE
  5
24F
100
AcDbEntity
  8
L1_120
  6
CONTINUOUS
 62
         4
100
AcDbLine
 10
1386.5349142291
 20
-351.6500602087
 30
0.0
 11
1394.5163446202
 21
-343.6686298176
 31
0.0
  0
LINE
  5
250
100
AcDbEntity
  8
L1_120
  6
CONTINUOUS
 62
         4
100
AcDbLine
 10
1405.5163446202
 20
-332.6686298176
 30
0.0
 11
1417.018352432
 21
-321.1666220058
 31
0.0
  0
LINE
  5
251
100
AcDbEntity
  8
L1_120
  6
CONTINUOUS
 62
         4
100
AcDbLine
 10
1364.273711745
 20
-369.6686220057
 30
0.0
 11
1365.8738403803
 21
-368.0684933703
 31
0.0
  0
LINE
  5
252
100
AcDbEntity
  8
L1_120
  6
CONTINUOUS
 62
         4
100
AcDbLine
 10
1368.273711745
 20
-365.6686220057
 30
0.0
 11
1376.3924202737
 21
-357.5499134769
 31
0.0
  0
LINE
  5
253
100
AcDbEntity
  8
L1_120
  6
CONTINUOUS
 62
         4
100
AcDbLine
 10
1378.7067962279
 20
-355.2355375228
 30
0.0
 11
1381.3449142291
 21
-352.5974195216
 31
0.0
  0
LINE
  5
254
100
AcDbEntity
  8
L1_120
  6
CONTINUOUS
 62
         4
100
AcDbLine
 10
1386.0510632423
 20
-347.8912705083
 30
0.0
 11
1390.273703933
 21
-343.6686298176
 31
0.0
  0
LINE
  5
255
100
AcDbEntity
  8
L1_120
  6
CONTINUOUS
 62
         4
100
AcDbLine
 10
1401.273703933
 20
-332.6686298176
 30
0.0
 11
1412.7757117449
 21
-321.1666220058
 31
0.0
  0
LINE
  5
256
100
AcDbEntity
  8
L1_120
  6
CONTINUOUS
 62
         4
100
AcDbLine
 10
1360.0310710578
 20
-369.6686220057
 30
0.0
 11
1381.3449142291
 21
-348.3547788345
 31
0.0
  0
LINE
  5
257
100
AcDbEntity
  8
L1_120
  6
CONTINUOUS
 62
         4
100
AcDbLine
 10
1381.7806339641
 20
-347.9190590995
 30
0.0
 11
1386.0310632459
 21
-343.6686298176
 31
0.0
  0
LINE
  5
258
100
AcDbEntity
  8
L1_120
  6
CONTINUOUS
 62
         4
100
AcDbLine
 10
1397.0310632459
 20
-332.6686298176
 30
0.0
 11
1408.5330710578
 21
-321.1666220058
 31
0.0
  0
LINE
  5
259
100
AcDbEntity
  8
L1_120
  6
CONTINUOUS
 62
         4
100
AcDbLine
 10
1355.7884303707
 20
-369.6686220057
 30
0.0
 11
1383.2884303707
 21
-342.1686220057
 31
0.0
  0
LINE
  5
25A
100
AcDbEntity
  8
L1_120
  6
CONTINUOUS
 62
         4
100
AcDbLine
 10
1392.7884225588
 20
-332.6686298176
 30
0.0
 11
1404.2904303707
 21
-321.1666220058
 31
0.0
  0
LINE
  5
25B
100
AcDbEntity
  8
L1_120
  6
CONTINUOUS
 62
         4
100
AcDbLine
 10
1351.5457896836
 20
-369.6686220057
 30
0.0
 11
1379.0457896836
 21
-342.1686220057
 31
0.0
  0
LINE
  5
25C
100
AcDbEntity
  8
L1_120
  6
CONTINUOUS
 62
         4
100
AcDbLine
 10
1388.5457818717
 20
-332.6686298176
 30
0.0
 11
1400.0477896835
 21
-321.1666220058
 31
0.0
  0
LINE
  5
25D
100
AcDbEntity
  8
L1_120
  6
CONTINUOUS
 62
         4
100
AcDbLine
 10
1350.3275047567
 20
-366.6442662455
 30
0.0
 11
1369.3275047567
 21
-347.6442662455
 31
0.0
  0
LINE
  5
25E
100
AcDbEntity
  8
L1_120
  6
CONTINUOUS
 62
         4
100
AcDbLine
 10
1372.3275047567
 20
-344.6442662455
 30
0.0
 11
1374.8031489965
 21
-342.1686220057
 31
0.0
  0
LINE
  5
25F
100
AcDbEntity
  8
L1_120
  6
CONTINUOUS
 62
         4
100
AcDbLine
 10
1382.8031489965
 20
-334.1686220057
 30
0.0
 11
1395.8051489964
 21
-321.1666220058
 31
0.0
  0
LINE
  5
260
100
AcDbEntity
  8
L1_120
  6
CONTINUOUS
 62
         4
100
AcDbLine
 10
1350.3066479264
 20
-362.4224823887
 30
0.0
 11
1357.5605083094
 21
-355.1686220057
 31
0.0
  0
LINE
  5
261
100
AcDbEntity
  8
L1_120
  6
CONTINUOUS
 62
         4
100
AcDbLine
 10
1360.3275047567
 20
-352.4016255584
 30
0.0
 11
1366.0605083094
 21
-346.6686220057
 31
0.0
  0
LINE
  5
262
100
AcDbEntity
  8
L1_120
  6
CONTINUOUS
 62
         4
100
AcDbLine
 10
1378.5605083094
 20
-334.1686220057
 30
0.0
 11
1383.3847871369
 21
-329.3443431782
 31
0.0
  0
LINE
  5
263
100
AcDbEntity
  8
L1_120
  6
CONTINUOUS
 62
         4
100
AcDbLine
 10
1386.5349142291
 20
-326.194216086
 30
0.0
 11
1391.5625083093
 21
-321.1666220058
 31
0.0
  0
LINE
  5
264
100
AcDbEntity
  8
L1_120
  6
CONTINUOUS
 62
         4
100
AcDbLine
 10
1346.2088027239
 20
-362.2776869041
 30
0.0
 11
1353.3178676222
 21
-355.1686220057
 31
0.0
  0
LINE
  5
265
100
AcDbEntity
  8
L1_120
  6
CONTINUOUS
 62
         4
100
AcDbLine
 10
1360.3275047567
 20
-348.1589848712
 30
0.0
 11
1361.4877157536
 21
-346.9987738744
 31
0.0
  0
LINE
  5
266
100
AcDbEntity
  8
L1_120
  6
CONTINUOUS
 62
         4
100
AcDbLine
 10
1374.3178676222
 20
-334.1686220057
 30
0.0
 11
1381.3449142291
 21
-327.1415753989
 31
0.0
  0
LINE
  5
267
100
AcDbEntity
  8
L1_120
  6
CONTINUOUS
 62
         4
100
AcDbLine
 10
1386.5349142291
 20
-321.9515753989
 30
0.0
 11
1387.3198676222
 21
-321.1666220058
 31
0.0
  0
LINE
  5
268
100
AcDbEntity
  8
L1_120
  6
CONTINUOUS
 62
         4
100
AcDbLine
 10
1342.1681925457
 20
-362.0756563952
 30
0.0
 11
1346.4262481657
 21
-357.8176007752
 31
0.0
  0
LINE
  5
269
100
AcDbEntity
  8
L1_120
  6
CONTINUOUS
 62
         4
100
AcDbLine
 10
1372.3275047567
 20
-331.9163441841
 30
0.0
 11
1381.3449142291
 21
-322.8989347118
 31
0.0
  0
LINE
  5
26A
100
AcDbEntity
  8
L1_120
  6
CONTINUOUS
 62
         4
100
AcDbLine
 10
1338.1275823675
 20
-361.8736258863
 30
0.0
 11
1341.832586248
 21
-358.1686220057
 31
0.0
  0
LINE
  5
26B
100
AcDbEntity
  8
L1_120
  6
CONTINUOUS
 62
         4
100
AcDbLine
 10
1371.332586248
 20
-328.6686220057
 30
0.0
 11
1378.8697198176
 21
-321.1314884361
 31
0.0
  0
LINE
  5
26C
100
AcDbEntity
  8
L1_120
  6
CONTINUOUS
 62
         4
100
AcDbLine
 10
1334.0869721893
 20
-361.6715953773
 30
0.0
 11
1337.5899455609
 21
-358.1686220057
 31
0.0
  0
LINE
  5
26D
100
AcDbEntity
  8
L1_120
  6
CONTINUOUS
 62
         4
100
AcDbLine
 10
1366.0899455609
 20
-329.6686220057
 30
0.0
 11
1376.524018939
 21
-319.2345486276
 31
0.0
  0
LINE
  5
26E
100
AcDbEntity
  8
L1_120
  6
CONTINUOUS
 62
         4
100
AcDbLine
 10
1330.046362011
 20
-361.4695648684
 30
0.0
 11
1333.3502785183
 21
-358.1656483612
 31
0.0
  0
LINE
  5
26F
100
AcDbEntity
  8
L1_120
  6
CONTINUOUS
 62
         4
100
AcDbLine
 10
1361.9249940185
 20
-329.590932861
 30
0.0
 11
1376.3275047567
 21
-315.1884221228
 31
0.0
  0
LINE
  5
270
100
AcDbEntity
  8
L1_120
  6
CONTINUOUS
 62
         4
100
AcDbLine
 10
1326.0057518328
 20
-361.2675343595
 30
0.0
 11
1331.6144846439
 21
-355.6588015485
 31
0.0
  0
LINE
  5
271
100
AcDbEntity
  8
L1_120
  6
CONTINUOUS
 62
         4
100
AcDbLine
 10
1360.3275047567
 20
-326.9457814356
 30
0.0
 11
1376.3275047567
 21
-310.9457814356
 31
0.0
  0
LINE
  5
272
100
AcDbEntity
  8
L1_120
  6
CONTINUOUS
 62
         4
100
AcDbLine
 10
1321.9651416546
 20
-361.0655038506
 30
0.0
 11
1327.8620234995
 21
-355.1686220057
 31
0.0
  0
LINE
  5
273
100
AcDbEntity
  8
L1_120
  6
CONTINUOUS
 62
         4
100
AcDbLine
 10
1360.3275047567
 20
-322.7031407485
 30
0.0
 11
1376.0516602408
 21
-306.9789852645
 31
0.0
  0
LINE
  5
274
100
AcDbEntity
  8
L1_120
  6
CONTINUOUS
 62
         4
100
AcDbLine
 10
1318.4730534389
 20
-360.3149513792
 30
0.0
 11
1323.6193828124
 21
-355.1686220057
 31
0.0
  0
LINE
  5
275
100
AcDbEntity
  8
L1_120
  6
CONTINUOUS
 62
         4
100
AcDbLine
 10
1357.6193828124
 20
-321.1686220057
 30
0.0
 11
1368.1193828124
 21
-310.6686220057
 31
0.0
  0
LINE
  5
276
100
AcDbEntity
  8
L1_120
  6
CONTINUOUS
 62
         4
100
AcDbLine
 10
1371.1389516168
 20
-307.6490532014
 30
0.0
 11
1372.1193828124
 21
-306.6686220057
 31
0.0
  0
LINE
  5
277
100
AcDbEntity
  8
L1_120
  6
CONTINUOUS
 62
         4
100
AcDbLine
 10
1318.3275047567
 20
-356.2178593743
 30
0.0
 11
1319.3767421253
 21
-355.1686220057
 31
0.0
  0
LINE
  5
278
100
AcDbEntity
  8
L1_120
  6
CONTINUOUS
 62
         4
100
AcDbLine
 10
1353.3767421253
 20
-321.1686220057
 30
0.0
 11
1366.0212655704
 21
-308.5240985606
 31
0.0
  0
LINE
  5
279
100
AcDbEntity
  8
L1_120
  6
CONTINUOUS
 62
         4
100
AcDbLine
 10
1349.7650995247
 20
-320.5376239191
 30
0.0
 11
1359.0341014382
 21
-311.2686220057
 31
0.0
  0
LINE
  5
27A
100
AcDbEntity
  8
L1_120
  6
CONTINUOUS
 62
         4
100
AcDbLine
 10
1362.3275047567
 20
-307.9752186872
 30
0.0
 11
1363.6341014382
 21
-306.6686220057
 31
0.0
  0
LINE
  5
27B
100
AcDbEntity
  8
L1_120
  6
CONTINUOUS
 62
         4
100
AcDbLine
 10
1347.241389843
 20
-318.8186929137
 30
0.0
 11
1354.791460751
 21
-311.2686220057
 31
0.0
  0
LINE
  5
27C
100
AcDbEntity
  8
L1_120
  6
CONTINUOUS
 62
         4
100
AcDbLine
 10
1343.6488200639
 20
-318.1686220057
 30
0.0
 11
1347.8394156064
 21
-313.9780264632
 31
0.0
  0
LINE
  5
27D
100
AcDbEntity
  8
L1_120
  6
CONTINUOUS
 62
         4
100
AcDbLine
 10
1350.3275047567
 20
-311.4899373129
 30
0.0
 11
1352.3275047567
 21
-309.4899373129
 31
0.0
  0
LINE
  5
27E
100
AcDbEntity
  8
L1_120
  6
CONTINUOUS
 62
         4
100
AcDbLine
 10
1339.4061793768
 20
-318.1686220057
 30
0.0
 11
1343.373478041
 21
-314.2013233415
 31
0.0
  0
LINE
  5
27F
100
AcDbEntity
  8
L1_120
  6
CONTINUOUS
 62
         4
100
AcDbLine
 10
1335.1635386897
 20
-318.1686220057
 30
0.0
 11
1338.9075404756
 21
-314.4246202198
 31
0.0
  0
LINE
  5
280
100
AcDbEntity
  8
L1_120
  6
CONTINUOUS
 62
         4
100
AcDbLine
 10
1327.9208980026
 20
-321.1686220057
 30
0.0
 11
1334.4416029102
 21
-314.647917098
 31
0.0
  0
LINE
  5
281
100
AcDbEntity
  8
L1_120
  6
CONTINUOUS
 62
         4
100
AcDbLine
 10
1323.6782573155
 20
-321.1686220057
 30
0.0
 11
1329.9756653449
 21
-314.8712139763
 31
0.0
  0
LINE
  5
282
100
AcDbEntity
  8
L1_120
  6
CONTINUOUS
 62
         4
100
AcDbLine
 10
1319.4356166283
 20
-321.1686220057
 30
0.0
 11
1325.5097277795
 21
-315.0945108546
 31
0.0
  0
LINE
  5
283
100
AcDbEntity
  8
L1_120
  6
CONTINUOUS
 62
         4
100
AcDbLine
 10
1318.3275047567
 20
-318.0340931902
 30
0.0
 11
1321.0437902141
 21
-315.3178077328
 31
0.0
  0
ENDBLK
  5
284
100
AcDbEntity
  8
0
  6
CONTINUOUS
100
AcDbBlockEnd
  0
BLOCK
  5
289
100
AcDbEntity
  8
0
100
AcDbBlockBegin
  2
*D4
 70
        65
 10
0.0
 20
0.0
 30
0.0
  3
*D4
  1

  0
POINT
  5
28B
100
AcDbEntity
  8
DEFPOINTS
  6
CONTINUOUS
 62
         0
100
AcDbPoint
 10
1350.3275047567
 20
-169.5195152277
 30
0.0
  0
POINT
  5
28C
100
AcDbEntity
  8
DEFPOINTS
  6
CONTINUOUS
 62
         0
100
AcDbPoint
 10
1350.3275047567
 20
-194.2760846532
 30
0.0
  0
POINT
  5
28D
100
AcDbEntity
  8
DEFPOINTS
  6
CONTINUOUS
 62
         0
100
AcDbPoint
 10
1510.3475047567
 20
-214.1869229456
 30
0.0
  0
LINE
  5
28E
100
AcDbEntity
  8
L1_120
  6
CONTINUOUS
 62
         4
100
AcDbLine
 10
1350.3275047567
 20
-192.5260846532
 30
0.0
 11
1350.3275047567
 21
-168.6445152277
 31
0.0
  0
LINE
  5
28F
100
AcDbEntity
  8
L1_120
  6
CONTINUOUS
 62
         4
100
AcDbLine
 10
1510.3475047567
 20
-212.4369229456
 30
0.0
 11
1510.3475047567
 21
-168.6445152277
 31
0.0
  0
LINE
  5
290
100
AcDbEntity
  8
L1_120
  6
CONTINUOUS
 62
         4
100
AcDbLine
 10
1350.3275047567
 20
-169.5195152277
 30
0.0
 11
1510.3475047567
 21
-169.5195152277
 31
0.0
  0
SOLID
  5
291
100
AcDbEntity
  8
L1_120
  6
CONTINUOUS
 62
         4
100
AcDbTrace
 10
1350.3275047567
 20
-169.5195152277
 30
0.0
 11
1353.8275047567
 21
-168.9945152277
 31
0.0
 12
1353.8275047567
 22
-170.0445152277
 32
0.0
 13
1350.3275047567
 23
-169.5195152277
 33
0.0
  0
SOLID
  5
292
100
AcDbEntity
  8
L1_120
  6
CONTINUOUS
 62
         4
100
AcDbTrace
 10
1510.3475047567
 20
-169.5195152277
 30
0.0
 11
1506.8475047567
 21
-170.0445152277
 31
0.0
 12
1506.8475047567
 22
-168.9945152277
 32
0.0
 13
1510.3475047567
 23
-169.5195152277
 33
0.0
  0
TEXT
  5
294
100
AcDbEntity
  8
L1_120
  6
CONTINUOUS
 62
         4
100
AcDbText
 10
1426.4923719494
 20
-166.8945152277
 30
0.0
 40
3.5
  1
160
  7
BOX
100
AcDbText
  0
ENDBLK
  5
295
100
AcDbEntity
  8
0
  6
CONTINUOUS
100
AcDbBlockEnd
  0
BLOCK
  5
297
100
AcDbEntity
  8
0
100
AcDbBlockBegin
  2
*D5
 70
        65
 10
0.0
 20
0.0
 30
0.0
  3
*D5
  1

  0
POINT
  5
299
100
AcDbEntity
  8
DEFPOINTS
  6
CONTINUOUS
 62
         0
100
AcDbPoint
 10
1318.3275047567
 20
-151.6191964059
 30
0.0
  0
POINT
  5
29A
100
AcDbEntity
  8
DEFPOINTS
  6
CONTINUOUS
 62
         0
100
AcDbPoint
 10
1318.3275047567
 20
-202.7025837168
 30
0.0
  0
POINT
  5
29B
100
AcDbEntity
  8
DEFPOINTS
  6
CONTINUOUS
 62
         0
100
AcDbPoint
 10
1510.3475047567
 20
-214.1869229456
 30
0.0
  0
LINE
  5
29C
100
AcDbEntity
  8
L1_120
  6
CONTINUOUS
 62
         4
100
AcDbLine
 10
1318.3275047567
 20
-200.9525837168
 30
0.0
 11
1318.3275047567
 21
-150.7441964059
 31
0.0
  0
LINE
  5
29D
100
AcDbEntity
  8
L1_120
  6
CONTINUOUS
 62
         4
100
AcDbLine
 10
1510.3475047567
 20
-212.4369229456
 30
0.0
 11
1510.3475047567
 21
-150.7441964059
 31
0.0
  0
LINE
  5
29E
100
AcDbEntity
  8
L1_120
  6
CONTINUOUS
 62
         4
100
AcDbLine
 10
1318.3275047567
 20
-151.6191964059
 30
0.0
 11
1510.3475047567
 21
-151.6191964059
 31
0.0
  0
SOLID
  5
29F
100
AcDbEntity
  8
L1_120
  6
CONTINUOUS
 62
         4
100
AcDbTrace
 10
1318.3275047567
 20
-151.6191964059
 30
0.0
 11
1321.8275047567
 21
-151.0941964059
 31
0.0
 12
1321.8275047567
 22
-152.1441964059
 32
0.0
 13
1318.3275047567
 23
-151.6191964059
 33
0.0
  0
SOLID
  5
2A0
100
AcDbEntity
  8
L1_120
  6
CONTINUOUS
 62
         4
100
AcDbTrace
 10
1510.3475047567
 20
-151.6191964059
 30
0.0
 11
1506.8475047567
 21
-152.1441964059
 31
0.0
 12
1506.8475047567
 22
-151.0941964059
 32
0.0
 13
1510.3475047567
 23
-151.6191964059
 33
0.0
  0
TEXT
  5
2A2
100
AcDbEntity
  8
L1_120
  6
CONTINUOUS
 62
         4
100
AcDbText
 10
1398.4040341422
 20
-148.9941964059
 30
0.0
 40
3.5
  1
192.02
  7
BOX
100
AcDbText
  0
ENDBLK
  5
2A3
100
AcDbEntity
  8
0
  6
CONTINUOUS
100
AcDbBlockEnd
  0
BLOCK
  5
314
100
AcDbEntity
  8
0
100
AcDbBlockBegin
  2
*D6
 70
        65
 10
0.0
 20
0.0
 30
0.0
  3
*D6
  1

  0
POINT
  5
316
100
AcDbEntity
  8
DEFPOINTS
  6
CONTINUOUS
 62
         0
100
AcDbPoint
 10
1460.3475123151
 20
-378.120299685
 30
0.0
  0
POINT
  5
317
100
AcDbEntity
  8
DEFPOINTS
  6
CONTINUOUS
 62
         0
100
AcDbPoint
 10
1460.3475123151
 20
-344.6686298176
 30
0.0
  0
POINT
  5
318
100
AcDbEntity
  8
DEFPOINTS
  6
CONTINUOUS
 62
         0
100
AcDbPoint
 10
1510.3475123151
 20
-349.2578488343
 30
0.0
  0
LINE
  5
319
100
AcDbEntity
  8
L1_120
  6
CONTINUOUS
 62
         4
100
AcDbLine
 10
1460.3475123151
 20
-346.4186298176
 30
0.0
 11
1460.3475123151
 21
-378.995299685
 31
0.0
  0
LINE
  5
31A
100
AcDbEntity
  8
L1_120
  6
CONTINUOUS
 62
         4
100
AcDbLine
 10
1510.3475123151
 20
-351.0078488343
 30
0.0
 11
1510.3475123151
 21
-378.995299685
 31
0.0
  0
LINE
  5
31B
100
AcDbEntity
  8
L1_120
  6
CONTINUOUS
 62
         4
100
AcDbLine
 10
1460.3475123151
 20
-378.120299685
 30
0.0
 11
1510.3475123151
 21
-378.120299685
 31
0.0
  0
SOLID
  5
31C
100
AcDbEntity
  8
L1_120
  6
CONTINUOUS
 62
         4
100
AcDbTrace
 10
1460.3475123151
 20
-378.120299685
 30
0.0
 11
1463.8475123151
 21
-377.595299685
 31
0.0
 12
1463.8475123151
 22
-378.645299685
 32
0.0
 13
1460.3475123151
 23
-378.120299685
 33
0.0
  0
SOLID
  5
31D
100
AcDbEntity
  8
L1_120
  6
CONTINUOUS
 62
         4
100
AcDbTrace
 10
1510.3475123151
 20
-378.120299685
 30
0.0
 11
1506.8475123151
 21
-378.645299685
 31
0.0
 12
1506.8475123151
 22
-377.595299685
 32
0.0
 13
1510.3475123151
 23
-378.120299685
 33
0.0
  0
TEXT
  5
31F
100
AcDbEntity
  8
L1_120
  6
CONTINUOUS
 62
         4
100
AcDbText
 10
1481.4261878241
 20
-374.060299685
 30
0.0
 40
3.5
  1
50
  7
BOX
100
AcDbText
  0
ENDBLK
  5
320
100
AcDbEntity
  8
0
  6
CONTINUOUS
100
AcDbBlockEnd
  0
BLOCK
  5
335
100
AcDbEntity
  8
0
100
AcDbBlockBegin
  2
*D7
 70
        65
 10
0.0
 20
0.0
 30
0.0
  3
*D7
  1

  0
POINT
  5
337
100
AcDbEntity
  8
DEFPOINTS
  6
CONTINUOUS
 62
         0
100
AcDbPoint
 10
1579.9374339222
 20
-298.706399242
 30
0.0
  0
POINT
  5
338
100
AcDbEntity
  8
DEFPOINTS
  6
CONTINUOUS
 62
         0
100
AcDbPoint
 10
1562.7949358894
 20
-298.706399242
 30
0.0
  0
POINT
  5
339
100
AcDbEntity
  8
DEFPOINTS
  6
CONTINUOUS
 62
         0
100
AcDbPoint
 10
1562.7949358894
 20
-308.706399242
 30
0.0
  0
LINE
  5
33A
100
AcDbEntity
  8
L1_120
  6
CONTINUOUS
 62
         4
100
AcDbLine
 10
1564.5449358894
 20
-298.706399242
 30
0.0
 11
1580.8124339222
 21
-298.706399242
 31
0.0
  0
LINE
  5
33B
100
AcDbEntity
  8
L1_120
  6
CONTINUOUS
 62
         4
100
AcDbLine
 10
1564.5449358894
 20
-308.706399242
 30
0.0
 11
1580.8124339222
 21
-308.706399242
 31
0.0
  0
LINE
  5
33C
100
AcDbEntity
  8
L1_120
  6
CONTINUOUS
 62
         4
100
AcDbLine
 10
1579.9374339222
 20
-298.706399242
 30
0.0
 11
1579.9374339222
 21
-265.1771890055
 31
0.0
  0
SOLID
  5
33D
100
AcDbEntity
  8
L1_120
  6
CONTINUOUS
 62
         4
100
AcDbTrace
 10
1579.9374339222
 20
-298.706399242
 30
0.0
 11
1579.4124339222
 21
-295.206399242
 31
0.0
 12
1580.4624339222
 22
-295.206399242
 32
0.0
 13
1579.9374339222
 23
-298.706399242
 33
0.0
  0
LINE
  5
33E
100
AcDbEntity
  8
L1_120
  6
CONTINUOUS
 62
         4
100
AcDbLine
 10
1579.9374339222
 20
-308.706399242
 30
0.0
 11
1579.9374339222
 21
-315.706399242
 31
0.0
  0
SOLID
  5
33F
100
AcDbEntity
  8
L1_120
  6
CONTINUOUS
 62
         4
100
AcDbTrace
 10
1579.9374339222
 20
-308.706399242
 30
0.0
 11
1580.4624339222
 21
-312.206399242
 31
0.0
 12
1579.4124339222
 22
-312.206399242
 32
0.0
 13
1579.9374339222
 23
-308.706399242
 33
0.0
  0
LINE
  5
340
100
AcDbEntity
  8
L1_120
  6
CONTINUOUS
 62
         4
100
AcDbLine
 10
1579.9374339222
 20
-298.706399242
 30
0.0
 11
1579.9374339222
 21
-308.706399242
 31
0.0
  0
TEXT
  5
342
100
AcDbEntity
  8
L1_120
  6
CONTINUOUS
 62
         4
100
AcDbText
 10
1577.3124339222
 20
-294.9271890055
 30
0.0
 40
3.5
  1
M12xP1.0
 50
90.0
  7
BOX
100
AcDbText
  0
ENDBLK
  5
343
100
AcDbEntity
  8
0
  6
CONTINUOUS
100
AcDbBlockEnd
  0
BLOCK
  5
345
100
AcDbEntity
  8
0
100
AcDbBlockBegin
  2
*D8
 70
        65
 10
0.0
 20
0.0
 30
0.0
  3
*D8
  1

  0
POINT
  5
347
100
AcDbEntity
  8
DEFPOINTS
  6
CONTINUOUS
 62
         0
100
AcDbPoint
 10
1544.2949358894
 20
-321.4879086982
 30
0.0
  0
POINT
  5
348
100
AcDbEntity
  8
DEFPOINTS
  6
CONTINUOUS
 62
         0
100
AcDbPoint
 10
1544.2949358894
 20
-307.3207585959
 30
0.0
  0
POINT
  5
349
100
AcDbEntity
  8
DEFPOINTS
  6
CONTINUOUS
 62
         0
100
AcDbPoint
 10
1564.2949358894
 20
-307.206399242
 30
0.0
  0
LINE
  5
34A
100
AcDbEntity
  8
L1_120
  6
CONTINUOUS
 62
         4
100
AcDbLine
 10
1544.2949358894
 20
-309.0707585959
 30
0.0
 11
1544.2949358894
 21
-322.3629086982
 31
0.0
  0
LINE
  5
34B
100
AcDbEntity
  8
L1_120
  6
CONTINUOUS
 62
         4
100
AcDbLine
 10
1564.2949358894
 20
-308.956399242
 30
0.0
 11
1564.2949358894
 21
-322.3629086982
 31
0.0
  0
LINE
  5
34C
100
AcDbEntity
  8
L1_120
  6
CONTINUOUS
 62
         4
100
AcDbLine
 10
1544.2949358894
 20
-321.4879086982
 30
0.0
 11
1564.2949358894
 21
-321.4879086982
 31
0.0
  0
SOLID
  5
34D
100
AcDbEntity
  8
L1_120
  6
CONTINUOUS
 62
         4
100
AcDbTrace
 10
1544.2949358894
 20
-321.4879086982
 30
0.0
 11
1547.7949358894
 21
-320.9629086982
 31
0.0
 12
1547.7949358894
 22
-322.0129086982
 32
0.0
 13
1544.2949358894
 23
-321.4879086982
 33
0.0
  0
SOLID
  5
34E
100
AcDbEntity
  8
L1_120
  6
CONTINUOUS
 62
         4
100
AcDbTrace
 10
1564.2949358894
 20
-321.4879086982
 30
0.0
 11
1560.7949358894
 21
-322.0129086982
 31
0.0
 12
1560.7949358894
 22
-320.9629086982
 32
0.0
 13
1564.2949358894
 23
-321.4879086982
 33
0.0
  0
TEXT
  5
350
100
AcDbEntity
  8
L1_120
  6
CONTINUOUS
 62
         4
100
AcDbText
 10
1551.1119426824
 20
-318.8629086982
 30
0.0
 40
3.5
  1
20
  7
BOX
100
AcDbText
  0
ENDBLK
  5
351
100
AcDbEntity
  8
0
  6
CONTINUOUS
100
AcDbBlockEnd
  0
BLOCK
  5
35F
100
AcDbEntity
  8
0
100
AcDbBlockBegin
  2
*D9
 70
        65
 10
0.0
 20
0.0
 30
0.0
  3
*D9
  1

  0
POINT
  5
361
100
AcDbEntity
  8
DEFPOINTS
  6
CONTINUOUS
 62
         0
100
AcDbPoint
 10
1521.1433696575
 20
-297.6069861143
 30
0.0
  0
POINT
  5
362
100
AcDbEntity
  8
DEFPOINTS
  6
CONTINUOUS
 62
         0
100
AcDbPoint
 10
1521.1433696575
 20
-302.263023569
 30
0.0
  0
POINT
  5
363
100
AcDbEntity
  8
DEFPOINTS
  6
CONTINUOUS
 62
         0
100
AcDbPoint
 10
1526.1433696575
 20
-302.263023569
 30
0.0
  0
LINE
  5
364
100
AcDbEntity
  8
L1_120
  6
CONTINUOUS
 62
         4
100
AcDbLine
 10
1521.1433696575
 20
-300.513023569
 30
0.0
 11
1521.1433696575
 21
-296.7319861143
 31
0.0
  0
LINE
  5
365
100
AcDbEntity
  8
L1_120
  6
CONTINUOUS
 62
         4
100
AcDbLine
 10
1526.1433696575
 20
-300.513023569
 30
0.0
 11
1526.1433696575
 21
-296.7319861143
 31
0.0
  0
LINE
  5
366
100
AcDbEntity
  8
L1_120
  6
CONTINUOUS
 62
         4
100
AcDbLine
 10
1521.1433696575
 20
-297.6069861143
 30
0.0
 11
1514.1433696575
 21
-297.6069861143
 31
0.0
  0
SOLID
  5
367
100
AcDbEntity
  8
L1_120
  6
CONTINUOUS
 62
         4
100
AcDbTrace
 10
1521.1433696575
 20
-297.6069861143
 30
0.0
 11
1517.6433696575
 21
-298.1319861143
 31
0.0
 12
1517.6433696575
 22
-297.0819861143
 32
0.0
 13
1521.1433696575
 23
-297.6069861143
 33
0.0
  0
LINE
  5
368
100
AcDbEntity
  8
L1_120
  6
CONTINUOUS
 62
         4
100
AcDbLine
 10
1526.1433696575
 20
-297.6069861143
 30
0.0
 11
1533.1433696575
 21
-297.6069861143
 31
0.0
  0
SOLID
  5
369
100
AcDbEntity
  8
L1_120
  6
CONTINUOUS
 62
         4
100
AcDbTrace
 10
1526.1433696575
 20
-297.6069861143
 30
0.0
 11
1529.6433696575
 21
-297.0819861143
 31
0.0
 12
1529.6433696575
 22
-298.1319861143
 32
0.0
 13
1526.1433696575
 23
-297.6069861143
 33
0.0
  0
LINE
  5
36A
100
AcDbEntity
  8
L1_120
  6
CONTINUOUS
 62
         4
100
AcDbLine
 10
1521.1433696575
 20
-297.6069861143
 30
0.0
 11
1526.1433696575
 21
-297.6069861143
 31
0.0
  0
TEXT
  5
36C
100
AcDbEntity
  8
L1_120
  6
CONTINUOUS
 62
         4
100
AcDbText
 10
1522.0041134019
 20
-294.9819861143
 30
0.0
 40
3.5
  1
6
  7
BOX
100
AcDbText
  0
ENDBLK
  5
36D
100
AcDbEntity
  8
0
  6
CONTINUOUS
100
AcDbBlockEnd
  0
ENDSEC
  0
SECTION
  2
ENTITIES
  0
CIRCLE
  5
25
100
AcDbEntity
  8
L1_120
  6
CONTINUOUS
 62
         7
100
AcDbCircle
 10
1231.1368971601
 20
-224.8627409862
 30
0.0
 40
24.215
  0
CIRCLE
  5
26
100
AcDbEntity
  8
L1_120
  6
CONTINUOUS
 62
         7
100
AcDbCircle
 10
1231.1368971601
 20
-224.8627409862
 30
0.0
 40
31.5
  0
LINE
  5
27
100
AcDbEntity
  8
L1_120
  6
CENTER
 62
         1
100
AcDbLine
 10
1210.8627027726
 20
-235.1061909391
 30
0.0
 11
1251.4110915477
 21
-214.6192910334
 31
0.0
  0
LINE
  5
28
100
AcDbEntity
  8
L1_120
  6
CENTER
 62
         1
100
AcDbLine
 10
1210.8627027726
 20
-214.6192910334
 30
0.0
 11
1251.4110915477
 21
-235.1061909391
 31
0.0
  0
CIRCLE
  5
29
100
AcDbEntity
  8
L1_120
  6
CONTINUOUS
 62
         7
100
AcDbCircle
 10
1231.1368971601
 20
-224.8627409862
 30
0.0
 40
17.0
  0
ARC
  5
2A
100
AcDbEntity
  8
L1_120
  6
CONTINUOUS
 62
         5
100
AcDbCircle
 10
1231.1368971601
 20
-224.8627409862
 30
0.0
 40
9.0
100
AcDbArc
 50
278.0509996909
 51
548.1955418149
  0
CIRCLE
  5
2B
100
AcDbEntity
  8
L1_120
  6
CONTINUOUS
 62
         7
100
AcDbCircle
 10
1231.1368971601
 20
-224.8627409862
 30
0.0
 40
8.5
  0
CIRCLE
  5
2C
100
AcDbEntity
  8
L1_120
  6
CONTINUOUS
 62
         7
100
AcDbCircle
 10
1231.1368971601
 20
-224.8627409862
 30
0.0
 40
4.0
  0
ARC
  5
2D
100
AcDbEntity
  8
L1_120
  6
CONTINUOUS
 62
         7
100
AcDbCircle
 10
1231.1368971601
 20
-224.8627409862
 30
0.0
 40
23.3347264679
100
AcDbArc
 50
144.9600647155
 51
215.0399352845
  0
LINE
  5
2E
100
AcDbEntity
  8
L1_120
  6
CENTER
 62
         1
100
AcDbLine
 10
1214.9993340441
 20
-234.0127409862
 30
0.0
 11
1211.0213540223
 21
-234.0127409862
 31
0.0
  0
LINE
  5
2F
100
AcDbEntity
  8
L1_120
  6
CENTER
 62
         1
100
AcDbLine
 10
1213.1468971601
 20
-235.3820210943
 30
0.0
 11
1213.1468971601
 21
-230.9319611599
 31
0.0
  0
LINE
  5
30
100
AcDbEntity
  8
L1_120
  6
CENTER
 62
         1
100
AcDbLine
 10
1214.5137382223
 20
-215.7127409862
 30
0.0
 11
1210.1737188492
 21
-215.7127409862
 31
0.0
  0
LINE
  5
31
100
AcDbEntity
  8
L1_120
  6
CENTER
 62
         1
100
AcDbLine
 10
1213.1468971601
 20
-214.3434608781
 30
0.0
 11
1213.1468971601
 21
-218.7935208125
 31
0.0
  0
LINE
  5
32
100
AcDbEntity
  8
L1_120
  6
CONTINUOUS
 62
         7
100
AcDbLine
 10
1215.2960922563
 20
-218.6927409862
 30
0.0
 11
1213.1468971601
 21
-218.6927409862
 31
0.0
  0
ARC
  5
33
100
AcDbEntity
  8
L1_120
  6
CONTINUOUS
 62
         7
100
AcDbCircle
 10
1213.0495998809
 20
-215.815597279
 30
0.0
 40
2.8777197789
100
AcDbArc
 50
150.695675656
 51
271.1464599482
  0
LINE
  5
34
100
AcDbEntity
  8
L1_120
  6
CONTINUOUS
 62
         7
100
AcDbLine
 10
1210.5400752387
 20
-214.4072205636
 30
0.0
 11
1212.0315417646
 21
-211.4651720075
 31
0.0
  0
LINE
  5
35
100
AcDbEntity
  8
L1_120
  6
CONTINUOUS
 62
         7
100
AcDbLine
 10
1215.2960922563
 20
-231.0327409862
 30
0.0
 11
1213.1071777749
 21
-231.0327409862
 31
0.0
  0
ARC
  5
36
100
AcDbEntity
  8
L1_120
  6
CONTINUOUS
 62
         7
100
AcDbCircle
 10
1213.0495998809
 20
-233.9098846934
 30
0.0
 40
2.8777197789
100
AcDbArc
 50
88.8535400518
 51
209.304324344
  0
LINE
  5
37
100
AcDbEntity
  8
L1_120
  6
CONTINUOUS
 62
         7
100
AcDbLine
 10
1210.5400752387
 20
-235.3182614088
 30
0.0
 11
1212.0315417646
 21
-238.260309965
 31
0.0
  0
ARC
  5
38
100
AcDbEntity
  8
L1_120
  6
CONTINUOUS
 62
         7
100
AcDbCircle
 10
1231.1368971601
 20
-224.8627409862
 30
0.0
 40
22.715
100
AcDbArc
 50
22.7223719759
 51
157.2776280241
  0
ARC
  5
39
100
AcDbEntity
  8
L1_120
  6
CONTINUOUS
 62
         7
100
AcDbCircle
 10
1231.1368971601
 20
-224.8627409862
 30
0.0
 40
22.715
100
AcDbArc
 50
202.7223719759
 51
337.2776280241
  0
ARC
  5
3A
100
AcDbEntity
  8
L1_120
  6
CONTINUOUS
 62
         7
100
AcDbCircle
 10
1231.1368971601
 20
-224.8627409862
 30
0.0
 40
23.3347264679
100
AcDbArc
 50
324.9600647154
 51
395.0399352845
  0
LINE
  5
3B
100
AcDbEntity
  8
L1_120
  6
CENTER
 62
         1
100
AcDbLine
 10
1247.2744602762
 20
-234.0127409862
 30
0.0
 11
1251.252440298
 21
-234.0127409862
 31
0.0
  0
LINE
  5
3C
100
AcDbEntity
  8
L1_120
  6
CENTER
 62
         1
100
AcDbLine
 10
1249.1268971601
 20
-235.3820210943
 30
0.0
 11
1249.1268971601
 21
-230.9319611599
 31
0.0
  0
LINE
  5
3D
100
AcDbEntity
  8
L1_120
  6
CENTER
 62
         1
100
AcDbLine
 10
1247.7600560979
 20
-215.7127409862
 30
0.0
 11
1252.1000754711
 21
-215.7127409862
 31
0.0
  0
LINE
  5
3E
100
AcDbEntity
  8
L1_120
  6
CENTER
 62
         1
100
AcDbLine
 10
1249.1268971601
 20
-214.3434608781
 30
0.0
 11
1249.1268971601
 21
-218.7935208125
 31
0.0
  0
LINE
  5
3F
100
AcDbEntity
  8
L1_120
  6
CONTINUOUS
 62
         7
100
AcDbLine
 10
1246.9777020639
 20
-218.6927409862
 30
0.0
 11
1249.1268971601
 21
-218.6927409862
 31
0.0
  0
ARC
  5
40
100
AcDbEntity
  8
L1_120
  6
CONTINUOUS
 62
         7
100
AcDbCircle
 10
1249.2241944393
 20
-215.815597279
 30
0.0
 40
2.8777197789
100
AcDbArc
 50
268.8535400518
 51
389.304324344
  0
LINE
  5
41
100
AcDbEntity
  8
L1_120
  6
CONTINUOUS
 62
         7
100
AcDbLine
 10
1251.7337190816
 20
-214.4072205636
 30
0.0
 11
1250.2422525557
 21
-211.4651720075
 31
0.0
  0
LINE
  5
42
100
AcDbEntity
  8
L1_120
  6
CONTINUOUS
 62
         7
100
AcDbLine
 10
1246.9777020639
 20
-231.0327409862
 30
0.0
 11
1249.1666165454
 21
-231.0327409862
 31
0.0
  0
ARC
  5
43
100
AcDbEntity
  8
L1_120
  6
CONTINUOUS
 62
         7
100
AcDbCircle
 10
1249.2241944393
 20
-233.9098846934
 30
0.0
 40
2.8777197789
100
AcDbArc
 50
330.695675656
 51
451.1464599482
  0
LINE
  5
44
100
AcDbEntity
  8
L1_120
  6
CONTINUOUS
 62
         7
100
AcDbLine
 10
1251.7337190816
 20
-235.3182614088
 30
0.0
 11
1250.2422525557
 21
-238.260309965
 31
0.0
  0
LINE
  5
45
100
AcDbEntity
  8
L1_120
  6
CONTINUOUS
 62
         7
100
AcDbLine
 10
1362.8275047567
 20
-306.6686220057
 30
0.0
 11
1351.8275047567
 21
-306.6686220057
 31
0.0
  0
LINE
  5
46
100
AcDbEntity
  8
L1_120
  6
CENTER
 62
         1
100
AcDbLine
 10
1357.3275047567
 20
-306.0076213902
 30
0.0
 11
1357.3275047567
 21
-312.33501452
 31
0.0
  0
LINE
  5
47
100
AcDbEntity
  8
L1_120
  6
CONTINUOUS
 62
         7
100
AcDbLine
 10
1362.0275047567
 20
-311.2686220057
 30
0.0
 11
1352.6275047567
 21
-311.2686220057
 31
0.0
  0
LINE
  5
48
100
AcDbEntity
  8
L1_120
  6
CONTINUOUS
 62
         7
100
AcDbLine
 10
1352.3275047567
 20
-307.1686220057
 30
0.0
 11
1362.3275047567
 21
-307.1686220057
 31
0.0
  0
LINE
  5
49
100
AcDbEntity
  8
L1_120
  6
CONTINUOUS
 62
         7
100
AcDbLine
 10
1352.3275047567
 20
-310.9686220057
 30
0.0
 11
1362.3275047567
 21
-310.9686220057
 31
0.0
  0
LINE
  5
4A
100
AcDbEntity
  8
L1_120
  6
CONTINUOUS
 62
         7
100
AcDbLine
 10
1352.3275047567
 20
-310.9686220057
 30
0.0
 11
1352.6275047567
 21
-311.2686220057
 31
0.0
  0
LINE
  5
4B
100
AcDbEntity
  8
L1_120
  6
CONTINUOUS
 62
         7
100
AcDbLine
 10
1352.3275047567
 20
-307.1686220057
 30
0.0
 11
1352.3275047567
 21
-310.9686220057
 31
0.0
  0
LINE
  5
4C
100
AcDbEntity
  8
L1_120
  6
CONTINUOUS
 62
         7
100
AcDbLine
 10
1351.8275047567
 20
-306.6686220057
 30
0.0
 11
1352.3275047567
 21
-307.1686220057
 31
0.0
  0
LINE
  5
4D
100
AcDbEntity
  8
L1_120
  6
CONTINUOUS
 62
         7
100
AcDbLine
 10
1362.8275047567
 20
-306.6686220057
 30
0.0
 11
1362.3275047567
 21
-307.1686220057
 31
0.0
  0
LINE
  5
4E
100
AcDbEntity
  8
L1_120
  6
CONTINUOUS
 62
         7
100
AcDbLine
 10
1362.3275047567
 20
-307.1686220057
 30
0.0
 11
1362.3275047567
 21
-310.9686220057
 31
0.0
  0
LINE
  5
4F
100
AcDbEntity
  8
L1_120
  6
CONTINUOUS
 62
         7
100
AcDbLine
 10
1362.0275047567
 20
-311.2686220057
 30
0.0
 11
1362.3275047567
 21
-310.9686220057
 31
0.0
  0
LINE
  5
50
100
AcDbEntity
  8
L1_120
  6
CONTINUOUS
 62
         7
100
AcDbLine
 10
1357.3275047567
 20
-311.8459722749
 30
0.0
 11
1358.3275047567
 21
-311.2686220057
 31
0.0
  0
LINE
  5
51
100
AcDbEntity
  8
L1_120
  6
CONTINUOUS
 62
         7
100
AcDbLine
 10
1357.3275047567
 20
-311.8459722749
 30
0.0
 11
1356.3275047567
 21
-311.2686220057
 31
0.0
  0
LINE
  5
52
100
AcDbEntity
  8
L1_120
  6
CONTINUOUS
 62
         7
100
AcDbLine
 10
1372.3275047567
 20
-342.6686220057
 30
0.0
 11
1372.3275047567
 21
-347.6686220057
 31
0.0
  0
LINE
  5
53
100
AcDbEntity
  8
L1_120
  6
CONTINUOUS
 62
         7
100
AcDbLine
 10
1366.4525047567
 20
-309.2710267415
 30
0.0
 11
1364.950005682
 21
-306.6686220057
 31
0.0
  0
LINE
  5
54
100
AcDbEntity
  8
L1_120
  6
CONTINUOUS
 62
         7
100
AcDbLine
 10
1366.4525047567
 20
-309.2710267415
 30
0.0
 11
1366.4525047567
 21
-310.6686220057
 31
0.0
  0
LINE
  5
55
100
AcDbEntity
  8
L1_120
  6
CONTINUOUS
 62
         7
100
AcDbLine
 10
1366.4525047567
 20
-310.6686220057
 30
0.0
 11
1370.2025047567
 21
-310.6686220057
 31
0.0
  0
LINE
  5
56
100
AcDbEntity
  8
L1_120
  6
CONTINUOUS
 62
         7
100
AcDbLine
 10
1370.2025047567
 20
-309.2710267415
 30
0.0
 11
1370.2025047567
 21
-310.6686220057
 31
0.0
  0
LINE
  5
57
100
AcDbEntity
  8
L1_120
  6
CONTINUOUS
 62
         7
100
AcDbLine
 10
1370.2025047567
 20
-309.2710267415
 30
0.0
 11
1371.7050038315
 21
-306.6686220057
 31
0.0
  0
LINE
  5
58
100
AcDbEntity
  8
L1_120
  6
CONTINUOUS
 62
         7
100
AcDbLine
 10
1371.7050038315
 20
-306.6686220057
 30
0.0
 11
1375.3275047567
 21
-306.6686220057
 31
0.0
  0
LINE
  5
59
100
AcDbEntity
  8
L1_120
  6
CONTINUOUS
 62
         7
100
AcDbLine
 10
1369.3275047567
 20
-328.6686220057
 30
0.0
 11
1372.3275047567
 21
-328.6686220057
 31
0.0
  0
LINE
  5
5A
100
AcDbEntity
  8
L1_120
  6
CONTINUOUS
 62
         7
100
AcDbLine
 10
1369.3275047567
 20
-347.6686220057
 30
0.0
 11
1372.3275047567
 21
-347.6686220057
 31
0.0
  0
LINE
  5
5B
100
AcDbEntity
  8
L1_120
  6
CONTINUOUS
 62
         7
100
AcDbLine
 10
1369.3275047567
 20
-328.6686220057
 30
0.0
 11
1369.3275047567
 21
-347.6686220057
 31
0.0
  0
LINE
  5
5C
100
AcDbEntity
  8
L1_120
  6
CONTINUOUS
 62
         7
100
AcDbLine
 10
1372.3275047567
 20
-328.6686220057
 30
0.0
 11
1372.3275047567
 21
-342.6686220057
 31
0.0
  0
LINE
  5
5D
100
AcDbEntity
  8
L1_120
  6
CENTER
 62
         1
100
AcDbLine
 10
1368.3275047567
 20
-306.6640605279
 30
0.0
 11
1368.3275047567
 21
-314.6731834835
 31
0.0
  0
LINE
  5
5E
100
AcDbEntity
  8
L1_120
  6
CONTINUOUS
 62
         7
100
AcDbLine
 10
1350.3275047567
 20
-307.6686220057
 30
0.0
 11
1350.3275047567
 21
-312.7536220057
 31
0.0
  0
LINE
  5
5F
100
AcDbEntity
  8
L1_120
  6
CONTINUOUS
 62
         7
100
AcDbLine
 10
1350.4275047567
 20
-313.465158978
 30
0.0
 11
1350.4275047567
 21
-313.5536220057
 31
0.0
  0
LINE
  5
60
100
AcDbEntity
  8
L1_120
  6
CONTINUOUS
 62
         7
100
AcDbLine
 10
1350.4275047567
 20
-313.465158978
 30
0.0
 11
1350.3275047567
 21
-312.7536220057
 31
0.0
  0
LINE
  5
61
100
AcDbEntity
  8
L1_120
  6
CONTINUOUS
 62
         7
100
AcDbLine
 10
1357.9983485591
 20
-321.1686220057
 30
0.0
 11
1357.9983485591
 21
-355.1686220057
 31
0.0
  0
LINE
  5
62
100
AcDbEntity
  8
L1_120
  6
CONTINUOUS
 62
         7
100
AcDbLine
 10
1360.3275047567
 20
-322.4186220057
 30
0.0
 11
1360.3275047567
 21
-353.9186220057
 31
0.0
  0
ARC
  5
63
100
AcDbEntity
  8
L1_120
  6
CONTINUOUS
 62
         7
100
AcDbCircle
 10
1358.8275047567
 20
-353.9186220057
 30
0.0
 40
1.5
100
AcDbArc
 50
236.4426902381
 51
360.0
  0
ARC
  5
64
100
AcDbEntity
  8
L1_120
  6
CONTINUOUS
 62
         7
100
AcDbCircle
 10
1358.8275047567
 20
-322.4186220057
 30
0.0
 40
1.5
100
AcDbArc
 50
0.0
 51
123.5573097619
  0
LINE
  5
65
100
AcDbEntity
  8
L1_120
  6
CONTINUOUS
 62
         7
100
AcDbLine
 10
1350.3275047567
 20
-321.1686220057
 30
0.0
 11
1350.3275047567
 21
-355.1686220057
 31
0.0
  0
ARC
  5
66
100
AcDbEntity
  8
L1_120
  6
CONTINUOUS
 62
         7
100
AcDbCircle
 10
1349.1529064168
 20
-313.5536220057
 30
0.0
 40
0.6
100
AcDbArc
 50
255.0
 51
270.0
  0
LINE
  5
67
100
AcDbEntity
  8
L1_120
  6
CONTINUOUS
 62
         7
100
AcDbLine
 10
1348.3275047567
 20
-313.9536220057
 30
0.0
 11
1348.9976149897
 21
-314.1331775015
 31
0.0
  0
LINE
  5
68
100
AcDbEntity
  8
L1_120
  6
CONTINUOUS
 62
         7
100
AcDbLine
 10
1349.1529064168
 20
-314.1536220057
 30
0.0
 11
1349.8275047567
 21
-314.1536220057
 31
0.0
  0
LINE
  5
69
100
AcDbEntity
  8
L1_120
  6
CONTINUOUS
 62
         7
100
AcDbLine
 10
1350.3275047567
 20
-355.1686220057
 30
0.0
 11
1357.9983485591
 21
-355.1686220057
 31
0.0
  0
LINE
  5
6A
100
AcDbEntity
  8
L1_120
  6
CONTINUOUS
 62
         7
100
AcDbLine
 10
1350.3275047567
 20
-321.1686220057
 30
0.0
 11
1357.9983485591
 21
-321.1686220057
 31
0.0
  0
ARC
  5
6B
100
AcDbEntity
  8
L1_120
  6
CONTINUOUS
 62
         7
100
AcDbCircle
 10
1349.8275047567
 20
-313.5536220057
 30
0.0
 40
0.6
100
AcDbArc
 50
270.0
 51
360.0
  0
LINE
  5
6C
100
AcDbEntity
  8
L1_120
  6
CONTINUOUS
 62
         7
100
AcDbLine
 10
1351.3275047567
 20
-306.6686220057
 30
0.0
 11
1364.950005682
 21
-306.6686220057
 31
0.0
  0
LINE
  5
6D
100
AcDbEntity
  8
L1_120
  6
CENTER
 62
         1
100
AcDbLine
 10
1368.3275047567
 20
-361.4464577286
 30
0.0
 11
1368.3275047567
 21
-369.7759395423
 31
0.0
  0
LINE
  5
6E
100
AcDbEntity
  8
L1_120
  6
CONTINUOUS
 62
         7
100
AcDbLine
 10
1366.4525047567
 20
-365.6686220057
 30
0.0
 11
1370.2025047567
 21
-365.6686220057
 31
0.0
  0
LINE
  5
6F
100
AcDbEntity
  8
L1_120
  6
CONTINUOUS
 62
         7
100
AcDbLine
 10
1366.4525047567
 20
-367.0662172699
 30
0.0
 11
1366.4525047567
 21
-365.6686220057
 31
0.0
  0
LINE
  5
70
100
AcDbEntity
  8
L1_120
  6
CONTINUOUS
 62
         7
100
AcDbLine
 10
1366.4525047567
 20
-367.0662172699
 30
0.0
 11
1364.950005682
 21
-369.6686220057
 31
0.0
  0
LINE
  5
71
100
AcDbEntity
  8
L1_120
  6
CONTINUOUS
 62
         7
100
AcDbLine
 10
1370.2025047567
 20
-367.0662172699
 30
0.0
 11
1371.7050038315
 21
-369.6686220057
 31
0.0
  0
LINE
  5
72
100
AcDbEntity
  8
L1_120
  6
CONTINUOUS
 62
         7
100
AcDbLine
 10
1370.2025047567
 20
-367.0662172699
 30
0.0
 11
1370.2025047567
 21
-365.6686220057
 31
0.0
  0
LINE
  5
73
100
AcDbEntity
  8
L1_120
  6
CONTINUOUS
 62
         7
100
AcDbLine
 10
1371.7050038315
 20
-369.6686220057
 30
0.0
 11
1375.3275047567
 21
-369.6686220057
 31
0.0
  0
ARC
  5
74
100
AcDbEntity
  8
L1_120
  6
CONTINUOUS
 62
         7
100
AcDbCircle
 10
1349.1529064168
 20
-362.7836220057
 30
0.0
 40
0.6
100
AcDbArc
 50
90.0
 51
105.0
  0
LINE
  5
75
100
AcDbEntity
  8
L1_120
  6
CONTINUOUS
 62
         7
100
AcDbLine
 10
1350.3275047567
 20
-363.5836220057
 30
0.0
 11
1350.3275047567
 21
-368.6686220057
 31
0.0
  0
LINE
  5
76
100
AcDbEntity
  8
L1_120
  6
CONTINUOUS
 62
         7
100
AcDbLine
 10
1350.4275047567
 20
-362.8720850335
 30
0.0
 11
1350.3275047567
 21
-363.5836220057
 31
0.0
  0
LINE
  5
77
100
AcDbEntity
  8
L1_120
  6
CONTINUOUS
 62
         7
100
AcDbLine
 10
1350.4275047567
 20
-362.8720850335
 30
0.0
 11
1350.4275047567
 21
-362.7836220057
 31
0.0
  0
ARC
  5
78
100
AcDbEntity
  8
L1_120
  6
CONTINUOUS
 62
         7
100
AcDbCircle
 10
1349.8275047567
 20
-362.7836220057
 30
0.0
 40
0.6
100
AcDbArc
 50
0.0
 51
90.0
  0
LINE
  5
79
100
AcDbEntity
  8
L1_120
  6
CONTINUOUS
 62
         7
100
AcDbLine
 10
1349.1529064168
 20
-362.1836220057
 30
0.0
 11
1349.8275047567
 21
-362.1836220057
 31
0.0
  0
LINE
  5
7A
100
AcDbEntity
  8
L1_120
  6
CONTINUOUS
 62
         7
100
AcDbLine
 10
1348.3275047567
 20
-362.3836220057
 30
0.0
 11
1348.9976149897
 21
-362.2040665099
 31
0.0
  0
LINE
  5
7B
100
AcDbEntity
  8
L1_120
  6
CONTINUOUS
 62
         7
100
AcDbLine
 10
1351.3275047567
 20
-369.6686220057
 30
0.0
 11
1364.950005682
 21
-369.6686220057
 31
0.0
  0
LINE
  5
7C
100
AcDbEntity
  8
L1_120
  6
CENTER
 62
         1
100
AcDbLine
 10
1341.3275047567
 20
-332.4186220057
 30
0.0
 11
1341.3275047567
 21
-343.9186220057
 31
0.0
  0
LINE
  5
7D
100
AcDbEntity
  8
L1_120
  6
CONTINUOUS
 62
         5
100
AcDbLine
 10
1333.109940322
 20
-357.6516034419
 30
0.0
 11
1333.109940322
 21
-318.9447568373
 31
0.0
  0
LINE
  5
7E
100
AcDbEntity
  8
L1_120
  6
CONTINUOUS
 62
         7
100
AcDbLine
 10
1331.3314793529
 20
-321.1686220057
 30
0.0
 11
1331.3314793529
 21
-355.1686220057
 31
0.0
  0
LINE
  5
7F
100
AcDbEntity
  8
L1_120
  6
CONTINUOUS
 62
         7
100
AcDbLine
 10
1331.3314793529
 20
-355.1686220057
 30
0.0
 11
1332.8903250798
 21
-357.8686220057
 31
0.0
  0
ARC
  5
80
100
AcDbEntity
  8
L1_120
  6
CONTINUOUS
 62
         7
100
AcDbCircle
 10
1333.409940322
 20
-357.5686220057
 30
0.0
 40
0.6
100
AcDbArc
 50
210.0
 51
270.0
  0
ARC
  5
81
100
AcDbEntity
  8
L1_120
  6
CONTINUOUS
 62
         7
100
AcDbCircle
 10
1333.409940322
 20
-318.7686220057
 30
0.0
 40
0.6
100
AcDbArc
 50
90.0
 51
150.0
  0
LINE
  5
82
100
AcDbEntity
  8
L1_120
  6
CONTINUOUS
 62
         7
100
AcDbLine
 10
1331.3314793529
 20
-321.1686220057
 30
0.0
 11
1332.8903250798
 21
-318.4686220057
 31
0.0
  0
LINE
  5
83
100
AcDbEntity
  8
L1_120
  6
CONTINUOUS
 62
         7
100
AcDbLine
 10
1333.409940322
 20
-358.1686220057
 30
0.0
 11
1344.0825067583
 21
-358.1686220057
 31
0.0
  0
CIRCLE
  5
84
100
AcDbEntity
  8
L1_120
  6
CONTINUOUS
 62
         7
100
AcDbCircle
 10
1341.3275047567
 20
-338.1686220057
 30
0.0
 40
3.75
  0
LINE
  5
85
100
AcDbEntity
  8
L1_120
  6
CONTINUOUS
 62
         7
100
AcDbLine
 10
1333.409940322
 20
-318.1686220057
 30
0.0
 11
1344.0825067583
 21
-318.1686220057
 31
0.0
  0
ARC
  5
86
100
AcDbEntity
  8
L1_120
  6
CONTINUOUS
 62
         7
100
AcDbCircle
 10
1326.8275047567
 20
-342.9386220057
 30
0.0
 40
1.5
100
AcDbArc
 50
270.0
 51
360.0
  0
ARC
  5
87
100
AcDbEntity
  8
L1_120
  6
CONTINUOUS
 62
         7
100
AcDbCircle
 10
1326.8275047567
 20
-333.3986220057
 30
0.0
 40
1.5
100
AcDbArc
 50
0.0
 51
90.0
  0
LINE
  5
88
100
AcDbEntity
  8
L1_120
  6
CONTINUOUS
 62
         7
100
AcDbLine
 10
1328.3275047567
 20
-333.3986220057
 30
0.0
 11
1328.3275047567
 21
-342.9386220057
 31
0.0
  0
LINE
  5
89
100
AcDbEntity
  8
L1_120
  6
CONTINUOUS
 62
         7
100
AcDbLine
 10
1319.3275047567
 20
-355.1686220057
 30
0.0
 11
1319.3275047567
 21
-344.4386220057
 31
0.0
  0
LINE
  5
8A
100
AcDbEntity
  8
L1_120
  6
CONTINUOUS
 62
         7
100
AcDbLine
 10
1319.3275047567
 20
-355.1686220057
 30
0.0
 11
1318.3275047567
 21
-355.7459722749
 31
0.0
  0
LINE
  5
8B
100
AcDbEntity
  8
L1_120
  6
CONTINUOUS
 62
         7
100
AcDbLine
 10
1318.3275047567
 20
-330.8986220057
 30
0.0
 11
1319.3275047567
 21
-331.8986220057
 31
0.0
  0
LINE
  5
8C
100
AcDbEntity
  8
L1_120
  6
CONTINUOUS
 62
         7
100
AcDbLine
 10
1319.3275047567
 20
-321.1686220057
 30
0.0
 11
1319.3275047567
 21
-331.8986220057
 31
0.0
  0
LINE
  5
8D
100
AcDbEntity
  8
L1_120
  6
CONTINUOUS
 62
         7
100
AcDbLine
 10
1319.3275047567
 20
-321.1686220057
 30
0.0
 11
1318.3275047567
 21
-320.5912717365
 31
0.0
  0
LINE
  5
8E
100
AcDbEntity
  8
L1_120
  6
CONTINUOUS
 62
         7
100
AcDbLine
 10
1318.3275047567
 20
-316.5951210694
 30
0.0
 11
1318.3275047567
 21
-330.8986220057
 31
0.0
  0
ARC
  5
8F
100
AcDbEntity
  8
L1_120
  6
CONTINUOUS
 62
         7
100
AcDbCircle
 10
1319.5275047567
 20
-316.5951210694
 30
0.0
 40
1.2
100
AcDbArc
 50
92.8624052261
 51
180.0
  0
LINE
  5
90
100
AcDbEntity
  8
L1_120
  6
CONTINUOUS
 62
         7
100
AcDbLine
 10
1318.3275047567
 20
-345.4386220057
 30
0.0
 11
1319.3275047567
 21
-344.4386220057
 31
0.0
  0
LINE
  5
91
100
AcDbEntity
  8
L1_120
  6
CONTINUOUS
 62
         7
100
AcDbLine
 10
1319.3275047567
 20
-331.8986220057
 30
0.0
 11
1326.8275047567
 21
-331.8986220057
 31
0.0
  0
LINE
  5
92
100
AcDbEntity
  8
L1_120
  6
CONTINUOUS
 62
         7
100
AcDbLine
 10
1319.3275047567
 20
-344.4386220057
 30
0.0
 11
1326.8275047567
 21
-344.4386220057
 31
0.0
  0
LINE
  5
93
100
AcDbEntity
  8
L1_120
  6
CONTINUOUS
 62
         7
100
AcDbLine
 10
1319.3275047567
 20
-355.1686220057
 30
0.0
 11
1331.3314793529
 21
-355.1686220057
 31
0.0
  0
LINE
  5
94
100
AcDbEntity
  8
L1_120
  6
CONTINUOUS
 62
         7
100
AcDbLine
 10
1319.3275047567
 20
-321.1686220057
 30
0.0
 11
1331.3314793529
 21
-321.1686220057
 31
0.0
  0
ARC
  5
95
100
AcDbEntity
  8
L1_120
  6
CONTINUOUS
 62
         7
100
AcDbCircle
 10
1319.5275047567
 20
-359.7421229421
 30
0.0
 40
1.2
100
AcDbArc
 50
180.0
 51
267.1375947739
  0
LINE
  5
96
100
AcDbEntity
  8
L1_120
  6
CONTINUOUS
 62
         7
100
AcDbLine
 10
1318.3275047567
 20
-345.4386220057
 30
0.0
 11
1318.3275047567
 21
-359.7421229421
 31
0.0
  0
LINE
  5
97
100
AcDbEntity
  8
L1_120
  6
CONTINUOUS
 62
         7
100
AcDbLine
 10
1319.4675796164
 20
-360.9406257487
 30
0.0
 11
1348.3275047567
 21
-362.3836220057
 31
0.0
  0
ARC
  5
98
100
AcDbEntity
  8
L1_120
  6
CONTINUOUS
 62
         7
100
AcDbCircle
 10
1344.0825067583
 20
-350.1686220057
 30
0.0
 40
8.0
100
AcDbArc
 50
270.0
 51
321.3178125465
  0
LINE
  5
99
100
AcDbEntity
  8
L1_120
  6
CONTINUOUS
 62
         7
100
AcDbLine
 10
1319.4675796164
 20
-315.3966182627
 30
0.0
 11
1348.3275047567
 21
-313.9536220057
 31
0.0
  0
ARC
  5
9A
100
AcDbEntity
  8
L1_120
  6
CONTINUOUS
 62
         7
100
AcDbCircle
 10
1344.0825067583
 20
-326.1686220057
 30
0.0
 40
8.0
100
AcDbArc
 50
38.6821874535
 51
90.0
  0
LINE
  5
9B
100
AcDbEntity
  8
L1_120
  6
CENTER
 62
         1
100
AcDbLine
 10
1332.2155047567
 20
-319.6686220057
 30
0.0
 11
1332.2155047567
 21
-356.6686220057
 31
0.0
  0
LINE
  5
9C
100
AcDbEntity
  8
L1_120
  6
CONTINUOUS
 62
         7
100
AcDbLine
 10
1360.3275047567
 20
-347.6686220057
 30
0.0
 11
1362.0595555643
 21
-346.6686220057
 31
0.0
  0
LINE
  5
9D
100
AcDbEntity
  8
L1_120
  6
CONTINUOUS
 62
         7
100
AcDbLine
 10
1360.3275047567
 20
-328.6686220057
 30
0.0
 11
1362.0595555643
 21
-329.6686220057
 31
0.0
  0
LINE
  5
9E
100
AcDbEntity
  8
L1_120
  6
CONTINUOUS
 62
         7
100
AcDbLine
 10
1362.0595555643
 20
-329.6686220057
 30
0.0
 11
1362.0595555643
 21
-346.6686220057
 31
0.0
  0
LINE
  5
9F
100
AcDbEntity
  8
L1_120
  6
CONTINUOUS
 62
         7
100
AcDbLine
 10
1362.0595555643
 20
-329.6686220057
 30
0.0
 11
1369.3275047567
 21
-329.6686220057
 31
0.0
  0
LINE
  5
A0
100
AcDbEntity
  8
L1_120
  6
CONTINUOUS
 62
         5
100
AcDbLine
 10
1361.1935301605
 20
-347.1686220057
 30
0.0
 11
1369.3275047567
 21
-347.1686220057
 31
0.0
  0
LINE
  5
A1
100
AcDbEntity
  8
L1_120
  6
CONTINUOUS
 62
         7
100
AcDbLine
 10
1362.0595555643
 20
-346.6686220057
 30
0.0
 11
1369.3275047567
 21
-346.6686220057
 31
0.0
  0
LINE
  5
A2
100
AcDbEntity
  8
L1_120
  6
CONTINUOUS
 62
         5
100
AcDbLine
 10
1361.1935301605
 20
-329.1686220057
 30
0.0
 11
1369.3275047567
 21
-329.1686220057
 31
0.0
  0
ARC
  5
A3
100
AcDbEntity
  8
L1_120
  6
CONTINUOUS
 62
         7
100
AcDbCircle
 10
1351.3275047567
 20
-307.6686220057
 30
0.0
 40
1.0
100
AcDbArc
 50
90.0
 51
180.0
  0
ARC
  5
A4
100
AcDbEntity
  8
L1_120
  6
CONTINUOUS
 62
         7
100
AcDbCircle
 10
1351.3275047567
 20
-368.6686220057
 30
0.0
 40
1.0
100
AcDbArc
 50
180.0
 51
270.0
  0
LINE
  5
A5
100
AcDbEntity
  8
L1_120
  6
CONTINUOUS
 62
         7
100
AcDbLine
 10
1350.3275047567
 20
-368.6686220057
 30
0.0
 11
1350.3275047567
 21
-367.6686220057
 31
0.0
  0
LINE
  5
A6
100
AcDbEntity
  8
L1_120
  6
CONTINUOUS
 62
         7
100
AcDbLine
 10
1350.3275047567
 20
-308.6686220057
 30
0.0
 11
1350.3275047567
 21
-307.6686220057
 31
0.0
  0
LINE
  5
A7
100
AcDbEntity
  8
L1_120
  6
CONTINUOUS
 62
         7
100
AcDbLine
 10
1352.3275047567
 20
-369.6686220057
 30
0.0
 11
1351.3275047567
 21
-369.6686220057
 31
0.0
  0
LINE
  5
A8
100
AcDbEntity
  8
L1_120
  6
CONTINUOUS
 62
         7
100
AcDbLine
 10
1352.3275047567
 20
-306.6686220057
 30
0.0
 11
1351.3275047567
 21
-306.6686220057
 31
0.0
  0
LINE
  5
A9
100
AcDbEntity
  8
L1_120
  6
DASHED
 62
         2
100
AcDbLine
 10
1328.3275047567
 20
-235.4826198827
 30
0.0
 11
1324.3275047567
 21
-234.5196202423
 31
0.0
  0
LINE
  5
AA
100
AcDbEntity
  8
L1_120
  6
DASHED
 62
         2
100
AcDbLine
 10
1322.8275047567
 20
-230.5461702895
 30
0.0
 11
1326.8275047567
 21
-230.5461702895
 31
0.0
  0
ARC
  5
AB
100
AcDbEntity
  8
L1_120
  6
DASHED
 62
         2
100
AcDbCircle
 10
1326.8275047567
 20
-229.0461702895
 30
0.0
 40
1.5
100
AcDbArc
 50
270.0
 51
360.0
  0
LINE
  5
AC
100
AcDbEntity
  8
L1_120
  6
DASHED
 62
         2
100
AcDbLine
 10
1326.8275047567
 20
-218.0061702895
 30
0.0
 11
1322.8275047567
 21
-218.0061702895
 31
0.0
  0
ARC
  5
AD
100
AcDbEntity
  8
L1_120
  6
DASHED
 62
         2
100
AcDbCircle
 10
1326.8275047567
 20
-219.5061702895
 30
0.0
 40
1.5
100
AcDbArc
 50
0.0
 51
90.0
  0
LINE
  5
AE
100
AcDbEntity
  8
L1_120
  6
DASHED
 62
         2
100
AcDbLine
 10
1328.3275047567
 20
-213.0697206963
 30
0.0
 11
1328.3275047567
 21
-235.4826198827
 31
0.0
  0
LINE
  5
AF
100
AcDbEntity
  8
L1_120
  6
DASHED
 62
         2
100
AcDbLine
 10
1328.3275047567
 20
-213.0697206963
 30
0.0
 11
1324.3275047567
 21
-214.0327203366
 31
0.0
  0
CIRCLE
  5
B0
100
AcDbEntity
  8
L1_120
  6
CONTINUOUS
 62
         7
100
AcDbCircle
 10
1362.2275047567
 20
-224.2761702895
 30
0.0
 40
7.0
  0
LINE
  5
B1
100
AcDbEntity
  8
L1_120
  6
CONTINUOUS
 62
         7
100
AcDbLine
 10
1371.7050038315
 20
-192.7761702895
 30
0.0
 11
1375.3275047567
 21
-192.7761702895
 31
0.0
  0
LINE
  5
B2
100
AcDbEntity
  8
L1_120
  6
CONTINUOUS
 62
         7
100
AcDbLine
 10
1351.3275047567
 20
-192.7761702895
 30
0.0
 11
1364.950005682
 21
-192.7761702895
 31
0.0
  0
LINE
  5
B3
100
AcDbEntity
  8
L1_120
  6
CONTINUOUS
 62
         7
100
AcDbLine
 10
1366.4525047567
 20
-196.7761702895
 30
0.0
 11
1370.2025047567
 21
-196.7761702895
 31
0.0
  0
LINE
  5
B4
100
AcDbEntity
  8
L1_120
  6
CONTINUOUS
 62
         7
100
AcDbLine
 10
1366.4525047567
 20
-251.7761702895
 30
0.0
 11
1370.2025047567
 21
-251.7761702895
 31
0.0
  0
LINE
  5
B5
100
AcDbEntity
  8
L1_120
  6
CONTINUOUS
 62
         7
100
AcDbLine
 10
1366.4525047567
 20
-253.1737655537
 30
0.0
 11
1364.950005682
 21
-255.7761702895
 31
0.0
  0
LINE
  5
B6
100
AcDbEntity
  8
L1_120
  6
CONTINUOUS
 62
         7
100
AcDbLine
 10
1370.2025047567
 20
-253.1737655537
 30
0.0
 11
1371.7050038315
 21
-255.7761702895
 31
0.0
  0
LINE
  5
B7
100
AcDbEntity
  8
L1_120
  6
CONTINUOUS
 62
         7
100
AcDbLine
 10
1371.7050038315
 20
-255.7761702895
 30
0.0
 11
1375.3275047567
 21
-255.7761702895
 31
0.0
  0
LINE
  5
B8
100
AcDbEntity
  8
L1_120
  6
CONTINUOUS
 62
         7
100
AcDbLine
 10
1349.0739149182
 20
-200.2611702895
 30
0.0
 11
1350.3275047567
 21
-200.2611702895
 31
0.0
  0
LINE
  5
B9
100
AcDbEntity
  8
L1_120
  6
CONTINUOUS
 62
         7
100
AcDbLine
 10
1348.3275047567
 20
-200.0611702895
 30
0.0
 11
1349.0739149182
 21
-200.2611702895
 31
0.0
  0
LINE
  5
BA
100
AcDbEntity
  8
L1_120
  6
CONTINUOUS
 62
         7
100
AcDbLine
 10
1348.3275047567
 20
-248.4911702895
 30
0.0
 11
1349.0739149182
 21
-248.2911702895
 31
0.0
  0
LINE
  5
BB
100
AcDbEntity
  8
L1_120
  6
CONTINUOUS
 62
         7
100
AcDbLine
 10
1349.0739149182
 20
-248.2911702895
 30
0.0
 11
1350.3275047567
 21
-248.2911702895
 31
0.0
  0
LINE
  5
BC
100
AcDbEntity
  8
L1_120
  6
CONTINUOUS
 62
         7
100
AcDbLine
 10
1349.0739149182
 20
-200.2611702895
 30
0.0
 11
1349.0739149182
 21
-248.2911702895
 31
0.0
  0
LINE
  5
BD
100
AcDbEntity
  8
L1_120
  6
CONTINUOUS
 62
         7
100
AcDbLine
 10
1348.3275047567
 20
-200.0611702895
 30
0.0
 11
1348.3275047567
 21
-248.4911702895
 31
0.0
  0
LINE
  5
BE
100
AcDbEntity
  8
L1_120
  6
CONTINUOUS
 62
         7
100
AcDbLine
 10
1351.3275047567
 20
-255.7761702895
 30
0.0
 11
1364.950005682
 21
-255.7761702895
 31
0.0
  0
LINE
  5
BF
100
AcDbEntity
  8
L1_120
  6
CENTER
 62
         1
100
AcDbLine
 10
1368.3275047567
 20
-192.7925626408
 30
0.0
 11
1368.3275047567
 21
-255.780146533
 31
0.0
  0
LINE
  5
C0
100
AcDbEntity
  8
L1_120
  6
CONTINUOUS
 62
         7
100
AcDbLine
 10
1350.3275047567
 20
-193.7761702895
 30
0.0
 11
1350.3275047567
 21
-254.7761702895
 31
0.0
  0
LINE
  5
C1
100
AcDbEntity
  8
L1_120
  6
CONTINUOUS
 62
         7
100
AcDbLine
 10
1366.4525047567
 20
-195.3785750253
 30
0.0
 11
1364.950005682
 21
-192.7761702895
 31
0.0
  0
LINE
  5
C2
100
AcDbEntity
  8
L1_120
  6
CONTINUOUS
 62
         7
100
AcDbLine
 10
1370.2025047567
 20
-195.3785750253
 30
0.0
 11
1371.7050038315
 21
-192.7761702895
 31
0.0
  0
LINE
  5
C3
100
AcDbEntity
  8
L1_120
  6
CENTER
 62
         1
100
AcDbLine
 10
1341.3275047567
 20
-218.5261702895
 30
0.0
 11
1341.3275047567
 21
-230.0261702895
 31
0.0
  0
CIRCLE
  5
C4
100
AcDbEntity
  8
L1_120
  6
CONTINUOUS
 62
         7
100
AcDbCircle
 10
1341.3275047567
 20
-224.2761702895
 30
0.0
 40
3.75
  0
ARC
  5
C5
100
AcDbEntity
  8
L1_120
  6
CONTINUOUS
 62
         7
100
AcDbCircle
 10
1340.3985139215
 20
-224.2761702895
 30
0.0
 40
3.3210091648
100
AcDbArc
 50
154.8526658028
 51
180.0
  0
ARC
  5
C6
100
AcDbEntity
  8
L1_120
  6
CONTINUOUS
 62
         7
100
AcDbCircle
 10
1340.848299976
 20
-224.4873187713
 30
0.0
 40
3.8178906156
100
AcDbArc
 50
131.423665625
 51
154.8526658028
  0
POLYLINE
  5
C8
100
AcDbEntity
  8
L1_120
  6
CONTINUOUS
 62
         7
100
AcDb3dPolyline
 66
         1
 10
0.0
 20
0.0
 30
0.0
 70
         8
  0
VERTEX
  5
CA
100
AcDbEntity
  8
L1_120
  6
CONTINUOUS
 62
         7
100
AcDbVertex
100
AcDb3dPolylineVertex
 10
1338.3223009367
 20
-221.62451986
 30
0.0
 70
        32
  0
VERTEX
  5
CC
100
AcDbEntity
  8
L1_120
  6
CONTINUOUS
 62
         7
100
AcDbVertex
100
AcDb3dPolylineVertex
 10
1338.3223009367
 20
-221.62451986
 30
0.0
 70
        32
  0
SEQEND
  5
CE
100
AcDbEntity
  8
L1_120
  6
CONTINUOUS
 62
         7
  0
ARC
  5
CF
100
AcDbEntity
  8
L1_120
  6
CONTINUOUS
 62
         7
100
AcDbCircle
 10
1341.1388739935
 20
-224.8166359911
 30
0.0
 40
4.2570751907
100
AcDbArc
 50
110.0764763031
 51
131.423665625
  0
POLYLINE
  5
D1
100
AcDbEntity
  8
L1_120
  6
CONTINUOUS
 62
         7
100
AcDb3dPolyline
 66
         1
 10
0.0
 20
0.0
 30
0.0
 70
         8
  0
VERTEX
  5
D3
100
AcDbEntity
  8
L1_120
  6
CONTINUOUS
 62
         7
100
AcDbVertex
100
AcDb3dPolylineVertex
 10
1339.6775303154
 20
-220.8182408339
 30
0.0
 70
        32
  0
VERTEX
  5
D5
100
AcDbEntity
  8
L1_120
  6
CONTINUOUS
 62
         7
100
AcDbVertex
100
AcDb3dPolylineVertex
 10
1339.6775303154
 20
-220.8182408339
 30
0.0
 70
        32
  0
SEQEND
  5
D7
100
AcDbEntity
  8
L1_120
  6
CONTINUOUS
 62
         7
  0
ARC
  5
D8
100
AcDbEntity
  8
L1_120
  6
CONTINUOUS
 62
         7
100
AcDbCircle
 10
1341.3275047567
 20
-225.3327502641
 30
0.0
 40
4.8065799746
100
AcDbArc
 50
90.0
 51
110.0764763031
  0
POLYLINE
  5
DA
100
AcDbEntity
  8
L1_120
  6
CONTINUOUS
 62
         7
100
AcDb3dPolyline
 66
         1
 10
0.0
 20
0.0
 30
0.0
 70
         8
  0
VERTEX
  5
DC
100
AcDbEntity
  8
L1_120
  6
CONTINUOUS
 62
         7
100
AcDbVertex
100
AcDb3dPolylineVertex
 10
1341.3275047567
 20
-220.5261702895
 30
0.0
 70
        32
  0
VERTEX
  5
DE
100
AcDbEntity
  8
L1_120
  6
CONTINUOUS
 62
         7
100
AcDbVertex
100
AcDb3dPolylineVertex
 10
1341.3275047567
 20
-220.5261702895
 30
0.0
 70
        32
  0
SEQEND
  5
E0
100
AcDbEntity
  8
L1_120
  6
CONTINUOUS
 62
         7
  0
ARC
  5
E1
100
AcDbEntity
  8
L1_120
  6
CONTINUOUS
 62
         7
100
AcDbCircle
 10
1341.3275047567
 20
-225.3327502641
 30
0.0
 40
4.8065799746
100
AcDbArc
 50
69.9235236968
 51
90.0
  0
POLYLINE
  5
E3
100
AcDbEntity
  8
L1_120
  6
CONTINUOUS
 62
         7
100
AcDb3dPolyline
 66
         1
 10
0.0
 20
0.0
 30
0.0
 70
         8
  0
VERTEX
  5
E5
100
AcDbEntity
  8
L1_120
  6
CONTINUOUS
 62
         7
100
AcDbVertex
100
AcDb3dPolylineVertex
 10
1342.977479198
 20
-220.8182408339
 30
0.0
 70
        32
  0
VERTEX
  5
E7
100
AcDbEntity
  8
L1_120
  6
CONTINUOUS
 62
         7
100
AcDbVertex
100
AcDb3dPolylineVertex
 10
1342.977479198
 20
-220.8182408339
 30
0.0
 70
        32
  0
SEQEND
  5
E9
100
AcDbEntity
  8
L1_120
  6
CONTINUOUS
 62
         7
  0
ARC
  5
EA
100
AcDbEntity
  8
L1_120
  6
CONTINUOUS
 62
         7
100
AcDbCircle
 10
1341.5161355199
 20
-224.8166359911
 30
0.0
 40
4.2570751907
100
AcDbArc
 50
48.576334375
 51
69.9235236969
  0
POLYLINE
  5
EC
100
AcDbEntity
  8
L1_120
  6
CONTINUOUS
 62
         7
100
AcDb3dPolyline
 66
         1
 10
0.0
 20
0.0
 30
0.0
 70
         8
  0
VERTEX
  5
EE
100
AcDbEntity
  8
L1_120
  6
CONTINUOUS
 62
         7
100
AcDbVertex
100
AcDb3dPolylineVertex
 10
1344.3327085768
 20
-221.62451986
 30
0.0
 70
        32
  0
VERTEX
  5
F0
100
AcDbEntity
  8
L1_120
  6
CONTINUOUS
 62
         7
100
AcDbVertex
100
AcDb3dPolylineVertex
 10
1344.3327085768
 20
-221.62451986
 30
0.0
 70
        32
  0
SEQEND
  5
F2
100
AcDbEntity
  8
L1_120
  6
CONTINUOUS
 62
         7
  0
ARC
  5
F3
100
AcDbEntity
  8
L1_120
  6
CONTINUOUS
 62
         7
100
AcDbCircle
 10
1341.8067095374
 20
-224.4873187713
 30
0.0
 40
3.8178906156
100
AcDbArc
 50
25.1473341972
 51
48.576334375
  0
POLYLINE
  5
F5
100
AcDbEntity
  8
L1_120
  6
CONTINUOUS
 62
         7
100
AcDb3dPolyline
 66
         1
 10
0.0
 20
0.0
 30
0.0
 70
         8
  0
VERTEX
  5
F7
100
AcDbEntity
  8
L1_120
  6
CONTINUOUS
 62
         7
100
AcDbVertex
100
AcDb3dPolylineVertex
 10
1345.2627330087
 20
-222.8649160718
 30
0.0
 70
        32
  0
VERTEX
  5
F9
100
AcDbEntity
  8
L1_120
  6
CONTINUOUS
 62
         7
100
AcDbVertex
100
AcDb3dPolylineVertex
 10
1345.2627330087
 20
-222.8649160718
 30
0.0
 70
        32
  0
SEQEND
  5
FB
100
AcDbEntity
  8
L1_120
  6
CONTINUOUS
 62
         7
  0
ARC
  5
FC
100
AcDbEntity
  8
L1_120
  6
CONTINUOUS
 62
         7
100
AcDbCircle
 10
1342.2564955919
 20
-224.2761702895
 30
0.0
 40
3.3210091648
100
AcDbArc
 50
0.0
 51
25.1473341972
  0
POLYLINE
  5
FE
100
AcDbEntity
  8
L1_120
  6
CONTINUOUS
 62
         7
100
AcDb3dPolyline
 66
         1
 10
0.0
 20
0.0
 30
0.0
 70
         8
  0
VERTEX
  5
100
100
AcDbEntity
  8
L1_120
  6
CONTINUOUS
 62
         7
100
AcDbVertex
100
AcDb3dPolylineVertex
 10
1345.5775047567
 20
-224.2761702895
 30
0.0
 70
        32
  0
VERTEX
  5
102
100
AcDbEntity
  8
L1_120
  6
CONTINUOUS
 62
         7
100
AcDbVertex
100
AcDb3dPolylineVertex
 10
1345.5775047567
 20
-224.2761702895
 30
0.0
 70
        32
  0
SEQEND
  5
104
100
AcDbEntity
  8
L1_120
  6
CONTINUOUS
 62
         7
  0
ARC
  5
105
100
AcDbEntity
  8
L1_120
  6
CONTINUOUS
 62
         7
100
AcDbCircle
 10
1342.2564955919
 20
-224.2761702895
 30
0.0
 40
3.3210091648
100
AcDbArc
 50
334.8526658028
 51
360.0
  0
POLYLINE
  5
107
100
AcDbEntity
  8
L1_120
  6
CONTINUOUS
 62
         7
100
AcDb3dPolyline
 66
         1
 10
0.0
 20
0.0
 30
0.0
 70
         8
  0
VERTEX
  5
109
100
AcDbEntity
  8
L1_120
  6
CONTINUOUS
 62
         7
100
AcDbVertex
100
AcDb3dPolylineVertex
 10
1345.2627330087
 20
-225.6874245072
 30
0.0
 70
        32
  0
VERTEX
  5
10B
100
AcDbEntity
  8
L1_120
  6
CONTINUOUS
 62
         7
100
AcDbVertex
100
AcDb3dPolylineVertex
 10
1345.2627330087
 20
-225.6874245072
 30
0.0
 70
        32
  0
SEQEND
  5
10D
100
AcDbEntity
  8
L1_120
  6
CONTINUOUS
 62
         7
  0
ARC
  5
10E
100
AcDbEntity
  8
L1_120
  6
CONTINUOUS
 62
         7
100
AcDbCircle
 10
1341.8067095374
 20
-224.0650218077
 30
0.0
 40
3.8178906156
100
AcDbArc
 50
311.423665625
 51
334.8526658028
  0
POLYLINE
  5
110
100
AcDbEntity
  8
L1_120
  6
CONTINUOUS
 62
         7
100
AcDb3dPolyline
 66
         1
 10
0.0
 20
0.0
 30
0.0
 70
         8
  0
VERTEX
  5
112
100
AcDbEntity
  8
L1_120
  6
CONTINUOUS
 62
         7
100
AcDbVertex
100
AcDb3dPolylineVertex
 10
1344.3327085768
 20
-226.9278207189
 30
0.0
 70
        32
  0
VERTEX
  5
114
100
AcDbEntity
  8
L1_120
  6
CONTINUOUS
 62
         7
100
AcDbVertex
100
AcDb3dPolylineVertex
 10
1344.3327085768
 20
-226.9278207189
 30
0.0
 70
        32
  0
SEQEND
  5
116
100
AcDbEntity
  8
L1_120
  6
CONTINUOUS
 62
         7
  0
ARC
  5
117
100
AcDbEntity
  8
L1_120
  6
CONTINUOUS
 62
         7
100
AcDbCircle
 10
1341.5161355199
 20
-223.7357045878
 30
0.0
 40
4.2570751907
100
AcDbArc
 50
290.0764763032
 51
311.423665625
  0
POLYLINE
  5
119
100
AcDbEntity
  8
L1_120
  6
CONTINUOUS
 62
         7
100
AcDb3dPolyline
 66
         1
 10
0.0
 20
0.0
 30
0.0
 70
         8
  0
VERTEX
  5
11B
100
AcDbEntity
  8
L1_120
  6
CONTINUOUS
 62
         7
100
AcDbVertex
100
AcDb3dPolylineVertex
 10
1342.977479198
 20
-227.7340997451
 30
0.0
 70
        32
  0
VERTEX
  5
11D
100
AcDbEntity
  8
L1_120
  6
CONTINUOUS
 62
         7
100
AcDbVertex
100
AcDb3dPolylineVertex
 10
1342.977479198
 20
-227.7340997451
 30
0.0
 70
        32
  0
SEQEND
  5
11F
100
AcDbEntity
  8
L1_120
  6
CONTINUOUS
 62
         7
  0
ARC
  5
120
100
AcDbEntity
  8
L1_120
  6
CONTINUOUS
 62
         7
100
AcDbCircle
 10
1341.3275047567
 20
-223.2195903148
 30
0.0
 40
4.8065799746
100
AcDbArc
 50
270.0
 51
290.0764763031
  0
POLYLINE
  5
122
100
AcDbEntity
  8
L1_120
  6
CONTINUOUS
 62
         7
100
AcDb3dPolyline
 66
         1
 10
0.0
 20
0.0
 30
0.0
 70
         8
  0
VERTEX
  5
124
100
AcDbEntity
  8
L1_120
  6
CONTINUOUS
 62
         7
100
AcDbVertex
100
AcDb3dPolylineVertex
 10
1341.3275047567
 20
-228.0261702895
 30
0.0
 70
        32
  0
VERTEX
  5
126
100
AcDbEntity
  8
L1_120
  6
CONTINUOUS
 62
         7
100
AcDbVertex
100
AcDb3dPolylineVertex
 10
1341.3275047567
 20
-228.0261702895
 30
0.0
 70
        32
  0
SEQEND
  5
128
100
AcDbEntity
  8
L1_120
  6
CONTINUOUS
 62
         7
  0
ARC
  5
129
100
AcDbEntity
  8
L1_120
  6
CONTINUOUS
 62
         7
100
AcDbCircle
 10
1341.3275047567
 20
-223.2195903148
 30
0.0
 40
4.8065799746
100
AcDbArc
 50
249.9235236969
 51
270.0
  0
POLYLINE
  5
12B
100
AcDbEntity
  8
L1_120
  6
CONTINUOUS
 62
         7
100
AcDb3dPolyline
 66
         1
 10
0.0
 20
0.0
 30
0.0
 70
         8
  0
VERTEX
  5
12D
100
AcDbEntity
  8
L1_120
  6
CONTINUOUS
 62
         7
100
AcDbVertex
100
AcDb3dPolylineVertex
 10
1339.6775303154
 20
-227.7340997451
 30
0.0
 70
        32
  0
VERTEX
  5
12F
100
AcDbEntity
  8
L1_120
  6
CONTINUOUS
 62
         7
100
AcDbVertex
100
AcDb3dPolylineVertex
 10
1339.6775303154
 20
-227.7340997451
 30
0.0
 70
        32
  0
SEQEND
  5
131
100
AcDbEntity
  8
L1_120
  6
CONTINUOUS
 62
         7
  0
ARC
  5
132
100
AcDbEntity
  8
L1_120
  6
CONTINUOUS
 62
         7
100
AcDbCircle
 10
1341.1388739935
 20
-223.7357045878
 30
0.0
 40
4.2570751907
100
AcDbArc
 50
228.576334375
 51
249.9235236969
  0
POLYLINE
  5
134
100
AcDbEntity
  8
L1_120
  6
CONTINUOUS
 62
         7
100
AcDb3dPolyline
 66
         1
 10
0.0
 20
0.0
 30
0.0
 70
         8
  0
VERTEX
  5
136
100
AcDbEntity
  8
L1_120
  6
CONTINUOUS
 62
         7
100
AcDbVertex
100
AcDb3dPolylineVertex
 10
1338.3223009367
 20
-226.9278207189
 30
0.0
 70
        32
  0
VERTEX
  5
138
100
AcDbEntity
  8
L1_120
  6
CONTINUOUS
 62
         7
100
AcDbVertex
100
AcDb3dPolylineVertex
 10
1338.3223009367
 20
-226.9278207189
 30
0.0
 70
        32
  0
SEQEND
  5
13A
100
AcDbEntity
  8
L1_120
  6
CONTINUOUS
 62
         7
  0
ARC
  5
13B
100
AcDbEntity
  8
L1_120
  6
CONTINUOUS
 62
         7
100
AcDbCircle
 10
1340.848299976
 20
-224.0650218077
 30
0.0
 40
3.8178906156
100
AcDbArc
 50
205.1473341972
 51
228.576334375
  0
POLYLINE
  5
13D
100
AcDbEntity
  8
L1_120
  6
CONTINUOUS
 62
         7
100
AcDb3dPolyline
 66
         1
 10
0.0
 20
0.0
 30
0.0
 70
         8
  0
VERTEX
  5
13F
100
AcDbEntity
  8
L1_120
  6
CONTINUOUS
 62
         7
100
AcDbVertex
100
AcDb3dPolylineVertex
 10
1337.3922765048
 20
-225.6874245072
 30
0.0
 70
        32
  0
VERTEX
  5
141
100
AcDbEntity
  8
L1_120
  6
CONTINUOUS
 62
         7
100
AcDbVertex
100
AcDb3dPolylineVertex
 10
1337.3922765048
 20
-225.6874245072
 30
0.0
 70
        32
  0
SEQEND
  5
143
100
AcDbEntity
  8
L1_120
  6
CONTINUOUS
 62
         7
  0
ARC
  5
144
100
AcDbEntity
  8
L1_120
  6
CONTINUOUS
 62
         7
100
AcDbCircle
 10
1340.3985139215
 20
-224.2761702895
 30
0.0
 40
3.3210091648
100
AcDbArc
 50
180.0
 51
205.1473341972
  0
POLYLINE
  5
146
100
AcDbEntity
  8
L1_120
  6
CONTINUOUS
 62
         7
100
AcDb3dPolyline
 66
         1
 10
0.0
 20
0.0
 30
0.0
 70
         8
  0
VERTEX
  5
148
100
AcDbEntity
  8
L1_120
  6
CONTINUOUS
 62
         7
100
AcDbVertex
100
AcDb3dPolylineVertex
 10
1337.0775047567
 20
-224.2761702895
 30
0.0
 70
        32
  0
VERTEX
  5
14A
100
AcDbEntity
  8
L1_120
  6
CONTINUOUS
 62
         7
100
AcDbVertex
100
AcDb3dPolylineVertex
 10
1337.0775047567
 20
-224.2761702895
 30
0.0
 70
        32
  0
SEQEND
  5
14C
100
AcDbEntity
  8
L1_120
  6
CONTINUOUS
 62
         7
  0
LINE
  5
14D
100
AcDbEntity
  8
L1_120
  6
CENTER
 62
         1
100
AcDbLine
 10
1344.0275047567
 20
-200.2761702895
 30
0.0
 11
1344.0275047567
 21
-248.2761702895
 31
0.0
  0
LINE
  5
14E
100
AcDbEntity
  8
L1_120
  6
CONTINUOUS
 62
         7
100
AcDbLine
 10
1324.3275047567
 20
-214.0327203366
 30
0.0
 11
1324.3275047567
 21
-234.5196202423
 31
0.0
  0
LINE
  5
14F
100
AcDbEntity
  8
L1_120
  6
CONTINUOUS
 62
         7
100
AcDbLine
 10
1318.3275047567
 20
-202.7026693532
 30
0.0
 11
1318.3275047567
 21
-217.0061702895
 31
0.0
  0
LINE
  5
150
100
AcDbEntity
  8
L1_120
  6
CONTINUOUS
 62
         7
100
AcDbLine
 10
1319.3275047567
 20
-218.0061702895
 30
0.0
 11
1319.3275047567
 21
-215.2772749566
 31
0.0
  0
LINE
  5
151
100
AcDbEntity
  8
L1_120
  6
CONTINUOUS
 62
         7
100
AcDbLine
 10
1318.3275047567
 20
-217.0061702895
 30
0.0
 11
1319.3275047567
 21
-218.0061702895
 31
0.0
  0
LINE
  5
152
100
AcDbEntity
  8
L1_120
  6
CONTINUOUS
 62
         7
100
AcDbLine
 10
1319.3275047567
 20
-218.0061702895
 30
0.0
 11
1322.8275047567
 21
-218.0061702895
 31
0.0
  0
LINE
  5
153
100
AcDbEntity
  8
L1_120
  6
CONTINUOUS
 62
         7
100
AcDbLine
 10
1319.3275047567
 20
-230.5461702895
 30
0.0
 11
1319.3275047567
 21
-233.2750656224
 31
0.0
  0
LINE
  5
154
100
AcDbEntity
  8
L1_120
  6
CONTINUOUS
 62
         7
100
AcDbLine
 10
1318.3275047567
 20
-231.5461702895
 30
0.0
 11
1319.3275047567
 21
-230.5461702895
 31
0.0
  0
LINE
  5
155
100
AcDbEntity
  8
L1_120
  6
CONTINUOUS
 62
         7
100
AcDbLine
 10
1319.3275047567
 20
-230.5461702895
 30
0.0
 11
1322.8275047567
 21
-230.5461702895
 31
0.0
  0
ARC
  5
156
100
AcDbEntity
  8
L1_120
  6
CONTINUOUS
 62
         7
100
AcDbCircle
 10
1319.5275047567
 20
-202.7026693532
 30
0.0
 40
1.2
100
AcDbArc
 50
92.8624052261
 51
180.0
  0
ARC
  5
157
100
AcDbEntity
  8
L1_120
  6
CONTINUOUS
 62
         7
100
AcDbCircle
 10
1322.8275047567
 20
-219.5061702895
 30
0.0
 40
1.5
100
AcDbArc
 50
0.0
 51
90.0
  0
LINE
  5
158
100
AcDbEntity
  8
L1_120
  6
CONTINUOUS
 62
         7
100
AcDbLine
 10
1324.3275047567
 20
-214.0327203366
 30
0.0
 11
1318.3275047567
 21
-215.5261858805
 31
0.0
  0
ARC
  5
159
100
AcDbEntity
  8
L1_120
  6
CONTINUOUS
 62
         7
100
AcDbCircle
 10
1322.8275047567
 20
-229.0461702895
 30
0.0
 40
1.5
100
AcDbArc
 50
270.0
 51
360.0
  0
LINE
  5
15A
100
AcDbEntity
  8
L1_120
  6
CONTINUOUS
 62
         7
100
AcDbLine
 10
1324.3275047567
 20
-234.5196202423
 30
0.0
 11
1318.3275047567
 21
-233.0261546984
 31
0.0
  0
ARC
  5
15B
100
AcDbEntity
  8
L1_120
  6
CONTINUOUS
 62
         7
100
AcDbCircle
 10
1319.5275047567
 20
-245.8496712258
 30
0.0
 40
1.2
100
AcDbArc
 50
180.0
 51
267.1375947739
  0
LINE
  5
15C
100
AcDbEntity
  8
L1_120
  6
CONTINUOUS
 62
         7
100
AcDbLine
 10
1318.3275047567
 20
-231.5461702895
 30
0.0
 11
1318.3275047567
 21
-245.8496712258
 31
0.0
  0
LINE
  5
15D
100
AcDbEntity
  8
L1_120
  6
CONTINUOUS
 62
         7
100
AcDbLine
 10
1319.4675796164
 20
-247.0481740325
 30
0.0
 11
1348.3275047567
 21
-248.4911702895
 31
0.0
  0
LINE
  5
15E
100
AcDbEntity
  8
L1_120
  6
CONTINUOUS
 62
         7
100
AcDbLine
 10
1319.4675796164
 20
-201.5041665465
 30
0.0
 11
1348.3275047567
 21
-200.0611702895
 31
0.0
  0
LINE
  5
15F
100
AcDbEntity
  8
L1_120
  6
CONTINUOUS
 62
         7
100
AcDbLine
 10
1376.3275047567
 20
-193.7761702895
 30
0.0
 11
1376.3275047567
 21
-254.7761702895
 31
0.0
  0
LINE
  5
160
100
AcDbEntity
  8
L1_120
  6
CONTINUOUS
 62
         7
100
AcDbLine
 10
1352.3275047567
 20
-192.7761702895
 30
0.0
 11
1351.3275047567
 21
-192.7761702895
 31
0.0
  0
LINE
  5
161
100
AcDbEntity
  8
L1_120
  6
CONTINUOUS
 62
         7
100
AcDbLine
 10
1352.3275047567
 20
-255.7761702895
 30
0.0
 11
1351.3275047567
 21
-255.7761702895
 31
0.0
  0
LINE
  5
162
100
AcDbEntity
  8
L1_120
  6
CONTINUOUS
 62
         7
100
AcDbLine
 10
1350.3275047567
 20
-194.7761702895
 30
0.0
 11
1350.3275047567
 21
-193.7761702895
 31
0.0
  0
LINE
  5
163
100
AcDbEntity
  8
L1_120
  6
CONTINUOUS
 62
         7
100
AcDbLine
 10
1376.3275047567
 20
-205.2761702895
 30
0.0
 11
1376.3275047567
 21
-193.7761702895
 31
0.0
  0
LINE
  5
164
100
AcDbEntity
  8
L1_120
  6
CONTINUOUS
 62
         7
100
AcDbLine
 10
1376.3275047567
 20
-254.7761702895
 30
0.0
 11
1376.3275047567
 21
-243.2761702895
 31
0.0
  0
LINE
  5
165
100
AcDbEntity
  8
L1_120
  6
CONTINUOUS
 62
         7
100
AcDbLine
 10
1350.3275047567
 20
-254.7761702895
 30
0.0
 11
1350.3275047567
 21
-253.7761702895
 31
0.0
  0
LINE
  5
166
100
AcDbEntity
  8
L1_120
  6
CONTINUOUS
 62
         7
100
AcDbLine
 10
1375.3275047567
 20
-255.7761702895
 30
0.0
 11
1374.3275047567
 21
-255.7761702895
 31
0.0
  0
LINE
  5
167
100
AcDbEntity
  8
L1_120
  6
CONTINUOUS
 62
         7
100
AcDbLine
 10
1375.3275047567
 20
-192.7761702895
 30
0.0
 11
1374.3275047567
 21
-192.7761702895
 31
0.0
  0
ARC
  5
168
100
AcDbEntity
  8
L1_120
  6
CONTINUOUS
 62
         7
100
AcDbCircle
 10
1375.3275047567
 20
-254.7761702895
 30
0.0
 40
1.0
100
AcDbArc
 50
270.0
 51
360.0
  0
ARC
  5
169
100
AcDbEntity
  8
L1_120
  6
CONTINUOUS
 62
         7
100
AcDbCircle
 10
1351.3275047567
 20
-254.7761702895
 30
0.0
 40
1.0
100
AcDbArc
 50
180.0
 51
270.0
  0
ARC
  5
16A
100
AcDbEntity
  8
L1_120
  6
CONTINUOUS
 62
         7
100
AcDbCircle
 10
1351.3275047567
 20
-193.7761702895
 30
0.0
 40
1.0
100
AcDbArc
 50
90.0
 51
180.0
  0
LINE
  5
16B
100
AcDbEntity
  8
L1_120
  6
CONTINUOUS
 62
         7
100
AcDbLine
 10
1364.950005682
 20
-192.7761702895
 30
0.0
 11
1364.950005682
 21
-215.2761702895
 31
0.0
  0
LINE
  5
16C
100
AcDbEntity
  8
L1_120
  6
CONTINUOUS
 62
         7
100
AcDbLine
 10
1366.4525047567
 20
-195.3785750253
 30
0.0
 11
1366.4525047567
 21
-216.2761702895
 31
0.0
  0
LINE
  5
16D
100
AcDbEntity
  8
L1_120
  6
CONTINUOUS
 62
         7
100
AcDbLine
 10
1370.2025047567
 20
-195.3785750253
 30
0.0
 11
1370.2025047567
 21
-216.2761702895
 31
0.0
  0
LINE
  5
16E
100
AcDbEntity
  8
L1_120
  6
CONTINUOUS
 62
         7
100
AcDbLine
 10
1371.7050038315
 20
-192.7761702895
 30
0.0
 11
1371.7050038315
 21
-215.2761702895
 31
0.0
  0
LINE
  5
16F
100
AcDbEntity
  8
L1_120
  6
CONTINUOUS
 62
         7
100
AcDbLine
 10
1371.7050038315
 20
-215.2761702895
 30
0.0
 11
1376.3275047567
 21
-215.2761702895
 31
0.0
  0
LINE
  5
170
100
AcDbEntity
  8
L1_120
  6
CONTINUOUS
 62
         7
100
AcDbLine
 10
1363.3275047567
 20
-216.2761702895
 30
0.0
 11
1376.3275047567
 21
-216.2761702895
 31
0.0
  0
ARC
  5
171
100
AcDbEntity
  8
L1_120
  6
CONTINUOUS
 62
         7
100
AcDbCircle
 10
1363.3275047567
 20
-224.2761702895
 30
0.0
 40
9.0
100
AcDbArc
 50
90.0
 51
270.0
  0
ARC
  5
172
100
AcDbEntity
  8
L1_120
  6
CONTINUOUS
 62
         7
100
AcDbCircle
 10
1363.3275047567
 20
-224.2761702895
 30
0.0
 40
8.0
100
AcDbArc
 50
90.0
 51
270.0
  0
LINE
  5
173
100
AcDbEntity
  8
L1_120
  6
CONTINUOUS
 62
         7
100
AcDbLine
 10
1363.3275047567
 20
-232.2761702895
 30
0.0
 11
1376.3275047567
 21
-232.2761702895
 31
0.0
  0
LINE
  5
174
100
AcDbEntity
  8
L1_120
  6
CONTINUOUS
 62
         7
100
AcDbLine
 10
1364.950005682
 20
-244.2761702895
 30
0.0
 11
1364.950005682
 21
-233.2761702895
 31
0.0
  0
LINE
  5
175
100
AcDbEntity
  8
L1_120
  6
CONTINUOUS
 62
         7
100
AcDbLine
 10
1364.950005682
 20
-248.6123573368
 30
0.0
 11
1355.3275047567
 21
-248.6123573368
 31
0.0
  0
ARC
  5
176
100
AcDbEntity
  8
L1_120
  6
CONTINUOUS
 62
         7
100
AcDbCircle
 10
1362.4392186604
 20
-252.2761702895
 30
0.0
 40
8.0
100
AcDbArc
 50
90.0
 51
152.7433806908
  0
LINE
  5
177
100
AcDbEntity
  8
L1_120
  6
CONTINUOUS
 62
         7
100
AcDbLine
 10
1364.950005682
 20
-255.7761702895
 30
0.0
 11
1364.950005682
 21
-248.6123573368
 31
0.0
  0
LINE
  5
178
100
AcDbEntity
  8
L1_120
  6
CONTINUOUS
 62
         7
100
AcDbLine
 10
1366.4525047567
 20
-253.1737655537
 30
0.0
 11
1366.4525047567
 21
-232.2761702895
 31
0.0
  0
LINE
  5
179
100
AcDbEntity
  8
L1_120
  6
CONTINUOUS
 62
         7
100
AcDbLine
 10
1364.950005682
 20
-248.6123573368
 30
0.0
 11
1366.4525047567
 21
-245.1345262183
 31
0.0
  0
LINE
  5
17A
100
AcDbEntity
  8
L1_120
  6
CONTINUOUS
 62
         7
100
AcDbLine
 10
1366.4525047567
 20
-244.2761702895
 30
0.0
 11
1362.4392186604
 21
-244.2761702895
 31
0.0
  0
LINE
  5
17B
100
AcDbEntity
  8
L1_120
  6
CONTINUOUS
 62
         7
100
AcDbLine
 10
1371.7050038315
 20
-255.7761702895
 30
0.0
 11
1371.7050038315
 21
-248.6123573368
 31
0.0
  0
LINE
  5
17C
100
AcDbEntity
  8
L1_120
  6
CONTINUOUS
 62
         7
100
AcDbLine
 10
1370.2025047567
 20
-253.1737655537
 30
0.0
 11
1370.2025047567
 21
-232.2761702895
 31
0.0
  0
LINE
  5
17D
100
AcDbEntity
  8
L1_120
  6
CONTINUOUS
 62
         7
100
AcDbLine
 10
1370.2025047567
 20
-245.1345262183
 30
0.0
 11
1371.7050038315
 21
-248.6123573368
 31
0.0
  0
LINE
  5
17E
100
AcDbEntity
  8
L1_120
  6
CONTINUOUS
 62
         7
100
AcDbLine
 10
1375.3275047567
 20
-248.6123573368
 30
0.0
 11
1371.7050038315
 21
-248.6123573368
 31
0.0
  0
LINE
  5
17F
100
AcDbEntity
  8
L1_120
  6
CONTINUOUS
 62
         7
100
AcDbLine
 10
1363.3275047567
 20
-215.2761702895
 30
0.0
 11
1364.950005682
 21
-215.2761702895
 31
0.0
  0
LINE
  5
180
100
AcDbEntity
  8
L1_120
  6
CONTINUOUS
 62
         7
100
AcDbLine
 10
1363.3275047567
 20
-233.2761702895
 30
0.0
 11
1364.950005682
 21
-233.2761702895
 31
0.0
  0
LINE
  5
181
100
AcDbEntity
  8
L1_120
  6
CONTINUOUS
 62
         7
100
AcDbLine
 10
1371.7050038315
 20
-244.2761702895
 30
0.0
 11
1371.7050038315
 21
-233.2761702895
 31
0.0
  0
LINE
  5
182
100
AcDbEntity
  8
L1_120
  6
CONTINUOUS
 62
         7
100
AcDbLine
 10
1376.3275047567
 20
-244.2761702895
 30
0.0
 11
1370.2025047567
 21
-244.2761702895
 31
0.0
  0
LINE
  5
183
100
AcDbEntity
  8
L1_120
  6
CONTINUOUS
 62
         7
100
AcDbLine
 10
1371.7050038315
 20
-233.2761702895
 30
0.0
 11
1376.3275047567
 21
-233.2761702895
 31
0.0
  0
LINE
  5
184
100
AcDbEntity
  8
L1_120
  6
CONTINUOUS
 62
         7
100
AcDbLine
 10
1370.2025047567
 20
-216.2761702895
 30
0.0
 11
1371.7050038315
 21
-215.2761702895
 31
0.0
  0
LINE
  5
185
100
AcDbEntity
  8
L1_120
  6
CONTINUOUS
 62
         7
100
AcDbLine
 10
1364.950005682
 20
-215.2761702895
 30
0.0
 11
1366.4525047567
 21
-216.2761702895
 31
0.0
  0
LINE
  5
186
100
AcDbEntity
  8
L1_120
  6
CONTINUOUS
 62
         7
100
AcDbLine
 10
1370.2025047567
 20
-232.2761702895
 30
0.0
 11
1371.7050038315
 21
-233.2761702895
 31
0.0
  0
LINE
  5
187
100
AcDbEntity
  8
L1_120
  6
CONTINUOUS
 62
         7
100
AcDbLine
 10
1364.950005682
 20
-233.2761702895
 30
0.0
 11
1366.4525047567
 21
-232.2761702895
 31
0.0
  0
ARC
  5
188
100
AcDbEntity
  8
L1_120
  6
CONTINUOUS
 62
         7
100
AcDbCircle
 10
1375.3275047567
 20
-247.6123573368
 30
0.0
 40
1.0
100
AcDbArc
 50
270.0
 51
360.0
  0
LINE
  5
189
100
AcDbEntity
  8
L1_120
  6
DASHED
 62
         2
100
AcDbLine
 10
1360.2275047567
 20
-195.7282795967
 30
0.0
 11
1354.2275047567
 21
-195.7282795967
 31
0.0
  0
LINE
  5
18A
100
AcDbEntity
  8
L1_120
  6
DASHED
 62
         2
100
AcDbLine
 10
1354.2275047567
 20
-195.7282795967
 30
0.0
 11
1354.2275047567
 21
-210.6804968236
 31
0.0
  0
LINE
  5
18B
100
AcDbEntity
  8
L1_120
  6
DASHED
 62
         2
100
AcDbLine
 10
1360.2275047567
 20
-195.7282795967
 30
0.0
 11
1360.2275047567
 21
-210.6804968236
 31
0.0
  0
LINE
  5
18C
100
AcDbEntity
  8
L1_120
  6
DASHED
 62
         2
100
AcDbLine
 10
1360.2275047567
 20
-210.6804968236
 30
0.0
 11
1354.2275047567
 21
-210.6804968236
 31
0.0
  0
LINE
  5
18D
100
AcDbEntity
  8
L1_120
  6
CENTER
 62
         1
100
AcDbLine
 10
1196.5721451996
 20
-225.0406455357
 30
0.0
 11
1265.5721451996
 21
-225.0406455357
 31
0.0
  0
LINE
  5
18E
100
AcDbEntity
  8
L1_120
  6
CENTER
 62
         1
100
AcDbLine
 10
1231.0721451996
 20
-190.5406455357
 30
0.0
 11
1231.0721451996
 21
-259.5406455357
 31
0.0
  0
LINE
  5
18F
100
AcDbEntity
  8
L1_120
  6
CENTER
 62
         1
100
AcDbLine
 10
1243.2519449943
 20
-191.5769206263
 30
0.0
 11
1219.021849326
 21
-258.1485613461
 31
0.0
  0
ARC
  5
190
100
AcDbEntity
  8
L1_120
  6
CONTINUOUS
 62
         7
100
AcDbCircle
 10
1375.3275047567
 20
-193.7761702895
 30
0.0
 40
1.0
100
AcDbArc
 50
0.0
 51
90.0
  0
LINE
  5
191
100
AcDbEntity
  8
L1_120
  6
CONTINUOUS
 62
         7
100
AcDbLine
 10
1371.7050038315
 20
-369.6686220057
 30
0.0
 11
1375.3275047567
 21
-369.6686220057
 31
0.0
  0
LINE
  5
192
100
AcDbEntity
  8
L1_120
  6
CONTINUOUS
 62
         7
100
AcDbLine
 10
1375.3275047567
 20
-306.6686220057
 30
0.0
 11
1374.3275047567
 21
-306.6686220057
 31
0.0
  0
DIMENSION
  5
196
100
AcDbEntity
  8
L1_120
  6
CONTINUOUS
 62
         4
100
AcDbDimension
  2
*D0
 10
1544.2082620898
 20
-207.2741419623
 30
0.0
 11
1541.5832620898
 21
-204.8834664868
 31
0.0
  3
DIMSTYLE1
100
AcDbAlignedDimension
 13
1463.7894887089
 23
-207.2741419623
 33
0.0
 14
1463.7894887089
 24
-241.2781419623
 34
0.0
 50
90.0
100
AcDbRotatedDimension
  0
DIMENSION
  5
1A6
100
AcDbEntity
  8
L1_120
  6
CONTINUOUS
 62
         4
100
AcDbDimension
  2
*D1
 10
1533.9272156661
 20
-211.3381419623
 30
0.0
 11
1531.3022156661
 21
-204.014493249
 31
0.0
  3
DIMSTYLE1
100
AcDbAlignedDimension
 13
1510.3475047567
 23
-211.3381419623
 33
0.0
 14
1510.3475047567
 24
-237.2141419623
 34
0.0
 50
90.0
100
AcDbRotatedDimension
  0
LINE
  5
1B3
100
AcDbEntity
  8
L1_120
  6
CONTINUOUS
 62
         7
100
AcDbLine
 10
1508.5044229482
 20
-211.1930882782
 30
0.0
 11
1458.7094887089
 21
-207.2741419623
 31
0.0
  0
ARC
  5
1B4
100
AcDbEntity
  8
L1_120
  6
CONTINUOUS
 62
         7
100
AcDbCircle
 10
1508.3475047567
 20
-235.365360979
 30
0.0
 40
2.0
100
AcDbArc
 50
274.5
 51
360.0
  0
ARC
  5
1B5
100
AcDbEntity
  8
L1_120
  6
CONTINUOUS
 62
         7
100
AcDbCircle
 10
1508.3475047567
 20
-213.1869229456
 30
0.0
 40
2.0
100
AcDbArc
 50
0.0
 51
85.5
  0
LINE
  5
1B6
100
AcDbEntity
  8
L1_120
  6
CONTINUOUS
 62
         7
100
AcDbLine
 10
1508.5044229482
 20
-237.3591956465
 30
0.0
 11
1458.7094887089
 21
-241.2781419623
 31
0.0
  0
LINE
  5
1B7
100
AcDbEntity
  8
L1_120
  6
CONTINUOUS
 62
         7
100
AcDbLine
 10
1510.3475047567
 20
-213.1869229456
 30
0.0
 11
1510.3475047567
 21
-235.365360979
 31
0.0
  0
DIMENSION
  5
1BA
100
AcDbEntity
  8
L1_120
  6
CONTINUOUS
 62
         4
100
AcDbDimension
  2
*D2
 10
1458.7094887089
 20
-207.2741364209
 30
0.0
 11
1484.2302935099
 21
-201.46009201
 31
0.0
 70
         2
  3
DIMSTYLE1
100
AcDb2LineAngularDimension
 13
1339.158202381
 23
-208.2741364209
 33
0.0
 14
1520.1487064707
 24
-207.2741364209
 34
0.0
 15
1508.5044229482
 25
-211.1930827367
 35
0.0
 16
1481.1641231325
 26
-215.9235933681
 36
0.0
  0
LINE
  5
1C8
100
AcDbEntity
  8
L1_120
  6
CONTINUOUS
 62
         4
100
AcDbLine
 10
1458.7094887089
 20
-207.2741419623
 30
0.0
 11
1458.7094887089
 21
-241.2781419623
 31
0.0
  0
LINE
  5
1C9
100
AcDbEntity
  8
L1_120
  6
CONTINUOUS
 62
         7
100
AcDbLine
 10
1379.3275047567
 20
-207.2739931722
 30
0.0
 11
1458.7094887089
 21
-207.2739931722
 31
0.0
  0
LINE
  5
1CA
100
AcDbEntity
  8
L1_120
  6
CONTINUOUS
 62
         7
100
AcDbLine
 10
1379.3275047567
 20
-241.2779931722
 30
0.0
 11
1458.7094887089
 21
-241.2779931722
 31
0.0
  0
ARC
  5
1CB
100
AcDbEntity
  8
L1_120
  6
CONTINUOUS
 62
         7
100
AcDbCircle
 10
1379.3275047567
 20
-244.2779931722
 30
0.0
 40
3.0
100
AcDbArc
 50
90.0
 51
180.0
  0
ARC
  5
1CC
100
AcDbEntity
  8
L1_120
  6
CONTINUOUS
 62
         7
100
AcDbCircle
 10
1379.3275047567
 20
-204.2739931722
 30
0.0
 40
3.0
100
AcDbArc
 50
180.0
 51
270.0
  0
LINE
  5
1CD
100
AcDbEntity
  8
L1_120
  6
DASHED
 62
         2
100
AcDbLine
 10
1386.5349142291
 20
-234.2779931722
 30
0.0
 11
1383.9399142291
 21
-232.7797692237
 31
0.0
  0
LINE
  5
1CE
100
AcDbEntity
  8
L1_120
  6
DASHED
 62
         2
100
AcDbLine
 10
1381.3449142291
 20
-234.2779931722
 30
0.0
 11
1383.9399142291
 21
-232.7797692237
 31
0.0
  0
LINE
  5
1CF
100
AcDbEntity
  8
L1_120
  6
DASHED
 62
         2
100
AcDbLine
 10
1380.9399142291
 20
-236.2779931722
 30
0.0
 11
1386.9399142291
 21
-236.2779931722
 31
0.0
  0
LINE
  5
1D0
100
AcDbEntity
  8
L1_120
  6
DASHED
 62
         2
100
AcDbLine
 10
1381.3449142291
 20
-234.2779931722
 30
0.0
 11
1386.5349142291
 21
-234.2779931722
 31
0.0
  0
LINE
  5
1D1
100
AcDbEntity
  8
L1_120
  6
DASHED
 62
         2
100
AcDbLine
 10
1386.5349142291
 20
-234.2779931722
 30
0.0
 11
1386.5349142291
 21
-241.2055865701
 31
0.0
  0
LINE
  5
1D2
100
AcDbEntity
  8
L1_120
  6
DASHED
 62
         2
100
AcDbLine
 10
1381.3449142291
 20
-234.2779931722
 30
0.0
 11
1381.3449142291
 21
-241.2779931722
 31
0.0
  0
LINE
  5
1D3
100
AcDbEntity
  8
L1_120
  6
DASHED
 62
         2
100
AcDbLine
 10
1386.9399142291
 20
-236.2779931722
 30
0.0
 11
1386.9399142291
 21
-241.2779931722
 31
0.0
  0
LINE
  5
1D4
100
AcDbEntity
  8
L1_120
  6
DASHED
 62
         2
100
AcDbLine
 10
1380.9399142291
 20
-236.2779931722
 30
0.0
 11
1380.9399142291
 21
-241.2779931722
 31
0.0
  0
LINE
  5
1D5
100
AcDbEntity
  8
L1_120
  6
DASHED
 62
         2
100
AcDbLine
 10
1380.9399142291
 20
-212.2739931722
 30
0.0
 11
1380.9399142291
 21
-207.2739931722
 31
0.0
  0
LINE
  5
1D6
100
AcDbEntity
  8
L1_120
  6
DASHED
 62
         2
100
AcDbLine
 10
1386.9399142291
 20
-212.2739931722
 30
0.0
 11
1386.9399142291
 21
-207.3782739656
 31
0.0
  0
LINE
  5
1D7
100
AcDbEntity
  8
L1_120
  6
DASHED
 62
         2
100
AcDbLine
 10
1381.3449142291
 20
-214.2739931722
 30
0.0
 11
1381.3449142291
 21
-207.2739931722
 31
0.0
  0
LINE
  5
1D8
100
AcDbEntity
  8
L1_120
  6
DASHED
 62
         2
100
AcDbLine
 10
1386.5349142291
 20
-214.2739931722
 30
0.0
 11
1386.5349142291
 21
-207.3463997744
 31
0.0
  0
LINE
  5
1D9
100
AcDbEntity
  8
L1_120
  6
DASHED
 62
         2
100
AcDbLine
 10
1381.3449142291
 20
-214.2739931722
 30
0.0
 11
1386.5349142291
 21
-214.2739931722
 31
0.0
  0
LINE
  5
1DA
100
AcDbEntity
  8
L1_120
  6
DASHED
 62
         2
100
AcDbLine
 10
1380.9399142291
 20
-212.2739931722
 30
0.0
 11
1386.9399142291
 21
-212.2739931722
 31
0.0
  0
LINE
  5
1DB
100
AcDbEntity
  8
L1_120
  6
DASHED
 62
         2
100
AcDbLine
 10
1381.3449142291
 20
-214.2739931722
 30
0.0
 11
1383.9399142291
 21
-215.7722171208
 31
0.0
  0
LINE
  5
1DC
100
AcDbEntity
  8
L1_120
  6
DASHED
 62
         2
100
AcDbLine
 10
1386.5349142291
 20
-214.2739931722
 30
0.0
 11
1383.9399142291
 21
-215.7722171208
 31
0.0
  0
CIRCLE
  5
1DD
100
AcDbEntity
  8
L1_120
  6
CONTINUOUS
 62
         7
100
AcDbCircle
 10
1383.9275047567
 20
-224.2759931722
 30
0.0
 40
2.595
  0
ARC
  5
1DE
100
AcDbEntity
  8
L1_120
  6
CONTINUOUS
 62
         4
100
AcDbCircle
 10
1383.9275047567
 20
-224.2759931722
 30
0.0
 40
3.0
100
AcDbArc
 50
248.8783472373
 51
540.0
  0
LINE
  5
1DF
100
AcDbEntity
  8
L1_120
  6
CENTER
 62
         1
100
AcDbLine
 10
1383.9275047567
 20
-243.3562819625
 30
0.0
 11
1383.9275047567
 21
-199.8983383283
 31
0.0
  0
ARC
  5
1E0
100
AcDbEntity
  8
L1_120
  6
CONTINUOUS
 62
         7
100
AcDbCircle
 10
1375.3275047567
 20
-307.6686220057
 30
0.0
 40
1.0
100
AcDbArc
 50
0.0
 51
90.0
  0
ARC
  5
1E1
100
AcDbEntity
  8
L1_120
  6
CONTINUOUS
 62
         7
100
AcDbCircle
 10
1375.3275047567
 20
-368.6686220057
 30
0.0
 40
1.0
100
AcDbArc
 50
270.0
 51
360.0
  0
LINE
  5
1E2
100
AcDbEntity
  8
L1_120
  6
CONTINUOUS
 62
         7
100
AcDbLine
 10
1375.3275047567
 20
-306.6686220057
 30
0.0
 11
1374.3275047567
 21
-306.6686220057
 31
0.0
  0
LINE
  5
1E3
100
AcDbEntity
  8
L1_120
  6
CONTINUOUS
 62
         7
100
AcDbLine
 10
1375.3275047567
 20
-369.6686220057
 30
0.0
 11
1374.3275047567
 21
-369.6686220057
 31
0.0
  0
LINE
  5
1E4
100
AcDbEntity
  8
L1_120
  6
CONTINUOUS
 62
         7
100
AcDbLine
 10
1376.3275047567
 20
-368.6686220057
 30
0.0
 11
1376.3275047567
 21
-357.1686220057
 31
0.0
  0
LINE
  5
1E5
100
AcDbEntity
  8
L1_120
  6
CONTINUOUS
 62
         7
100
AcDbLine
 10
1376.3275047567
 20
-319.1686220057
 30
0.0
 11
1376.3275047567
 21
-307.6686220057
 31
0.0
  0
LINE
  5
1E6
100
AcDbEntity
  8
L1_120
  6
CONTINUOUS
 62
         7
100
AcDbLine
 10
1508.5044305066
 20
-325.0855761335
 30
0.0
 11
1458.7094962673
 21
-321.1666298176
 31
0.0
  0
ARC
  5
1E7
100
AcDbEntity
  8
L1_120
  6
CONTINUOUS
 62
         7
100
AcDbCircle
 10
1508.3475123151
 20
-327.079410801
 30
0.0
 40
2.0
100
AcDbArc
 50
0.0
 51
85.5
  0
LINE
  5
1E8
100
AcDbEntity
  8
L1_120
  6
CONTINUOUS
 62
         7
100
AcDbLine
 10
1508.5044305066
 20
-351.2516835018
 30
0.0
 11
1458.7094962673
 21
-355.1706298176
 31
0.0
  0
LINE
  5
1E9
100
AcDbEntity
  8
L1_120
  6
CONTINUOUS
 62
         7
100
AcDbLine
 10
1510.3475123151
 20
-327.079410801
 30
0.0
 11
1510.3475123151
 21
-349.2578488343
 31
0.0
  0
ARC
  5
1EA
100
AcDbEntity
  8
L1_120
  6
CONTINUOUS
 62
         7
100
AcDbCircle
 10
1508.3475123151
 20
-349.2578488343
 30
0.0
 40
2.0
100
AcDbArc
 50
274.5
 51
360.0
  0
LINE
  5
1EB
100
AcDbEntity
  8
L1_120
  6
CONTINUOUS
 62
         7
100
AcDbLine
 10
1460.3475123151
 20
-346.6686298176
 30
0.0
 11
1470.3475123151
 21
-346.6686298176
 31
0.0
  0
LINE
  5
1EC
100
AcDbEntity
  8
L1_120
  6
CONTINUOUS
 62
         7
100
AcDbLine
 10
1460.3475123151
 20
-329.6686298176
 30
0.0
 11
1470.3475123151
 21
-329.6686298176
 31
0.0
  0
ARC
  5
1ED
100
AcDbEntity
  8
L1_120
  6
CONTINUOUS
 62
         7
100
AcDbCircle
 10
1509.3475123151
 20
-347.0971298176
 30
0.0
 40
1.0
100
AcDbArc
 50
0.0
 51
90.0
  0
ARC
  5
1EE
100
AcDbEntity
  8
L1_120
  6
CONTINUOUS
 62
         7
100
AcDbCircle
 10
1509.3475123151
 20
-329.2401298176
 30
0.0
 40
1.0
100
AcDbArc
 50
270.0
 51
360.0
  0
LINE
  5
1EF
100
AcDbEntity
  8
L1_120
  6
CONTINUOUS
 62
         7
100
AcDbLine
 10
1470.3475123151
 20
-346.0971298176
 30
0.0
 11
1509.3475123151
 21
-346.0971298176
 31
0.0
  0
LINE
  5
1F0
100
AcDbEntity
  8
L1_120
  6
CONTINUOUS
 62
         7
100
AcDbLine
 10
1470.3475123151
 20
-330.2401298176
 30
0.0
 11
1509.3475123151
 21
-330.2401298176
 31
0.0
  0
LINE
  5
1F1
100
AcDbEntity
  8
L1_120
  6
CONTINUOUS
 62
         7
100
AcDbLine
 10
1460.3475123151
 20
-329.6686298176
 30
0.0
 11
1460.3475123151
 21
-346.6686298176
 31
0.0
  0
LINE
  5
1F2
100
AcDbEntity
  8
L1_120
  6
CONTINUOUS
 62
         7
100
AcDbLine
 10
1470.3475123151
 20
-329.6686298176
 30
0.0
 11
1470.3475123151
 21
-346.6686298176
 31
0.0
  0
LINE
  5
1F3
100
AcDbEntity
  8
L1_120
  6
CONTINUOUS
 62
         4
100
AcDbLine
 10
1509.3475123151
 20
-330.2401298176
 30
0.0
 11
1509.3475123151
 21
-346.0971298176
 31
0.0
  0
LINE
  5
1F4
100
AcDbEntity
  8
L1_120
  6
CONTINUOUS
 62
         4
100
AcDbLine
 10
1440.3475123151
 20
-332.1686298176
 30
0.0
 11
1460.3475123151
 21
-332.1686298176
 31
0.0
  0
LINE
  5
1F5
100
AcDbEntity
  8
L1_120
  6
CONTINUOUS
 62
         4
100
AcDbLine
 10
1440.3475123151
 20
-344.1686298176
 30
0.0
 11
1460.3475123151
 21
-344.1686298176
 31
0.0
  0
LINE
  5
1F6
100
AcDbEntity
  8
L1_120
  6
CONTINUOUS
 62
         4
100
AcDbLine
 10
1440.3475123151
 20
-332.1686298176
 30
0.0
 11
1440.3475123151
 21
-344.1686298176
 31
0.0
  0
LINE
  5
1F7
100
AcDbEntity
  8
L1_120
  6
CONTINUOUS
 62
         7
100
AcDbLine
 10
1372.8275047567
 20
-334.1686220057
 30
0.0
 11
1372.3275047567
 21
-333.6686220057
 31
0.0
  0
LINE
  5
1F8
100
AcDbEntity
  8
L1_120
  6
CONTINUOUS
 62
         7
100
AcDbLine
 10
1372.8275047567
 20
-342.1686220057
 30
0.0
 11
1372.3275047567
 21
-342.6686220057
 31
0.0
  0
LINE
  5
1F9
100
AcDbEntity
  8
L1_120
  6
CONTINUOUS
 62
         7
100
AcDbLine
 10
1372.8275047567
 20
-334.1686220057
 30
0.0
 11
1372.8275047567
 21
-342.1686220057
 31
0.0
  0
LINE
  5
1FA
100
AcDbEntity
  8
L1_120
  6
CONTINUOUS
 62
         7
100
AcDbLine
 10
1372.3275047567
 20
-333.6686220057
 30
0.0
 11
1372.3275047567
 21
-342.6686220057
 31
0.0
  0
LINE
  5
1FB
100
AcDbEntity
  8
L1_120
  6
CONTINUOUS
 62
         4
100
AcDbLine
 10
1380.9399142291
 20
-350.1706220058
 30
0.0
 11
1380.9399142291
 21
-355.1706220058
 31
0.0
  0
LINE
  5
1FC
100
AcDbEntity
  8
L1_120
  6
CONTINUOUS
 62
         4
100
AcDbLine
 10
1386.9399142291
 20
-350.1706220058
 30
0.0
 11
1386.9399142291
 21
-355.1706220058
 31
0.0
  0
LINE
  5
1FD
100
AcDbEntity
  8
L1_120
  6
CONTINUOUS
 62
         7
100
AcDbLine
 10
1381.3449142291
 20
-348.1706220058
 30
0.0
 11
1381.3449142291
 21
-355.1706220058
 31
0.0
  0
LINE
  5
1FE
100
AcDbEntity
  8
L1_120
  6
CONTINUOUS
 62
         7
100
AcDbLine
 10
1386.5349142291
 20
-348.1706220058
 30
0.0
 11
1386.5349142291
 21
-355.1706220058
 31
0.0
  0
LINE
  5
1FF
100
AcDbEntity
  8
L1_120
  6
CONTINUOUS
 62
         7
100
AcDbLine
 10
1381.3449142291
 20
-348.1706220058
 30
0.0
 11
1386.5349142291
 21
-348.1706220058
 31
0.0
  0
LINE
  5
200
100
AcDbEntity
  8
L1_120
  6
CONTINUOUS
 62
         4
100
AcDbLine
 10
1380.9399142291
 20
-350.1706220058
 30
0.0
 11
1386.9399142291
 21
-350.1706220058
 31
0.0
  0
LINE
  5
201
100
AcDbEntity
  8
L1_120
  6
CONTINUOUS
 62
         7
100
AcDbLine
 10
1381.3449142291
 20
-348.1706220058
 30
0.0
 11
1383.9399142291
 21
-346.6723980572
 31
0.0
  0
LINE
  5
202
100
AcDbEntity
  8
L1_120
  6
CONTINUOUS
 62
         7
100
AcDbLine
 10
1386.5349142291
 20
-348.1706220058
 30
0.0
 11
1383.9399142291
 21
-346.6723980572
 31
0.0
  0
LINE
  5
203
100
AcDbEntity
  8
L1_120
  6
CONTINUOUS
 62
         7
100
AcDbLine
 10
1386.5349142291
 20
-328.1666220058
 30
0.0
 11
1383.9399142291
 21
-329.6648459543
 31
0.0
  0
LINE
  5
204
100
AcDbEntity
  8
L1_120
  6
CONTINUOUS
 62
         7
100
AcDbLine
 10
1381.3449142291
 20
-328.1666220058
 30
0.0
 11
1383.9399142291
 21
-329.6648459543
 31
0.0
  0
LINE
  5
205
100
AcDbEntity
  8
L1_120
  6
CONTINUOUS
 62
         4
100
AcDbLine
 10
1380.9399142291
 20
-326.1666220058
 30
0.0
 11
1386.9399142291
 21
-326.1666220058
 31
0.0
  0
LINE
  5
206
100
AcDbEntity
  8
L1_120
  6
CONTINUOUS
 62
         7
100
AcDbLine
 10
1381.3449142291
 20
-328.1666220058
 30
0.0
 11
1386.5349142291
 21
-328.1666220058
 31
0.0
  0
LINE
  5
207
100
AcDbEntity
  8
L1_120
  6
CONTINUOUS
 62
         7
100
AcDbLine
 10
1386.5349142291
 20
-328.1666220058
 30
0.0
 11
1386.5349142291
 21
-321.2390286079
 31
0.0
  0
LINE
  5
208
100
AcDbEntity
  8
L1_120
  6
CONTINUOUS
 62
         7
100
AcDbLine
 10
1381.3449142291
 20
-328.1666220058
 30
0.0
 11
1381.3449142291
 21
-321.1666220058
 31
0.0
  0
LINE
  5
209
100
AcDbEntity
  8
L1_120
  6
CONTINUOUS
 62
         4
100
AcDbLine
 10
1386.9399142291
 20
-326.1666220058
 30
0.0
 11
1386.9399142291
 21
-321.2709027991
 31
0.0
  0
LINE
  5
20A
100
AcDbEntity
  8
L1_120
  6
CONTINUOUS
 62
         4
100
AcDbLine
 10
1380.9399142291
 20
-326.1666220058
 30
0.0
 11
1380.9399142291
 21
-321.1666220058
 31
0.0
  0
ARC
  5
20B
100
AcDbEntity
  8
L1_120
  6
CONTINUOUS
 62
         7
100
AcDbCircle
 10
1379.3275047567
 20
-358.1706220058
 30
0.0
 40
3.0
100
AcDbArc
 50
90.0
 51
180.0
  0
ARC
  5
20C
100
AcDbEntity
  8
L1_120
  6
CONTINUOUS
 62
         7
100
AcDbCircle
 10
1379.3275047567
 20
-318.1666220058
 30
0.0
 40
3.0
100
AcDbArc
 50
180.0
 51
270.0
  0
LINE
  5
20D
100
AcDbEntity
  8
L1_120
  6
CENTER
 62
         1
100
AcDbLine
 10
1383.9275047567
 20
-357.248910796
 30
0.0
 11
1383.9275047567
 21
-316.3309671618
 31
0.0
  0
LINE
  5
20E
100
AcDbEntity
  8
L1_120
  6
CONTINUOUS
 62
         7
100
AcDbLine
 10
1379.3275047567
 20
-355.1706220058
 30
0.0
 11
1458.7095955265
 21
-355.1706220058
 31
0.0
  0
LINE
  5
20F
100
AcDbEntity
  8
L1_120
  6
CONTINUOUS
 62
         7
100
AcDbLine
 10
1372.8275047567
 20
-334.1686220057
 30
0.0
 11
1384.3275047567
 21
-334.1686220057
 31
0.0
  0
LINE
  5
210
100
AcDbEntity
  8
L1_120
  6
CONTINUOUS
 62
         7
100
AcDbLine
 10
1384.3275047567
 20
-334.1686220057
 30
0.0
 11
1384.3275047567
 21
-342.1686220057
 31
0.0
  0
LINE
  5
211
100
AcDbEntity
  8
L1_120
  6
CONTINUOUS
 62
         7
100
AcDbLine
 10
1372.8275047567
 20
-342.1686220057
 30
0.0
 11
1384.3275047567
 21
-342.1686220057
 31
0.0
  0
LINE
  5
212
100
AcDbEntity
  8
L1_120
  6
CONTINUOUS
 62
         7
100
AcDbLine
 10
1385.1935256503
 20
-332.6686298176
 30
0.0
 11
1460.3475123151
 21
-332.6686298176
 31
0.0
  0
LINE
  5
213
100
AcDbEntity
  8
L1_120
  6
CONTINUOUS
 62
         7
100
AcDbLine
 10
1385.1935346707
 20
-343.6686298176
 30
0.0
 11
1460.3475123151
 21
-343.6686298176
 31
0.0
  0
LINE
  5
214
100
AcDbEntity
  8
L1_120
  6
CONTINUOUS
 62
         7
100
AcDbLine
 10
1385.1935346707
 20
-343.6686298176
 30
0.0
 11
1384.3275047567
 21
-342.1686220057
 31
0.0
  0
LINE
  5
215
100
AcDbEntity
  8
L1_120
  6
CONTINUOUS
 62
         7
100
AcDbLine
 10
1385.1935256503
 20
-332.6686298176
 30
0.0
 11
1384.3275047567
 21
-334.1686220057
 31
0.0
  0
LINE
  5
216
100
AcDbEntity
  8
L1_120
  6
CONTINUOUS
 62
         7
100
AcDbLine
 10
1385.1935256503
 20
-332.6686298176
 30
0.0
 11
1385.1935256503
 21
-343.6686298176
 31
0.0
  0
LINE
  5
217
100
AcDbEntity
  8
L1_120
  6
CONTINUOUS
 62
         7
100
AcDbLine
 10
1379.3275047567
 20
-321.1666220058
 30
0.0
 11
1458.709397008
 21
-321.1666220058
 31
0.0
  0
INSERT
  5
286
100
AcDbEntity
  8
0
  6
CONTINUOUS
100
AcDbBlockReference
  2
*X3
 10
0.0
 20
0.0
 30
0.0
  0
LINE
  5
287
100
AcDbEntity
  8
L1_120
  6
CENTER
 62
         1
100
AcDbLine
 10
1318.7219489357
 20
-224.2762334432
 30
0.0
 11
1510.3475047567
 21
-224.2762334432
 31
0.0
  0
DIMENSION
  5
28A
100
AcDbEntity
  8
L1_120
  6
CONTINUOUS
 62
         4
100
AcDbDimension
  2
*D4
 10
1350.3275047567
 20
-169.5195152277
 30
0.0
 11
1426.4923719494
 21
-166.8945152277
 31
0.0
  3
DIMSTYLE1
100
AcDbAlignedDimension
 13
1350.3275047567
 23
-194.2760846532
 33
0.0
 14
1510.3475047567
 24
-214.1869229456
 34
0.0
100
AcDbRotatedDimension
  0
DIMENSION
  5
298
100
AcDbEntity
  8
L1_120
  6
CONTINUOUS
 62
         4
100
AcDbDimension
  2
*D5
 10
1318.3275047567
 20
-151.6191964059
 30
0.0
 11
1398.4040341422
 21
-148.9941964059
 31
0.0
  3
DIMSTYLE1
100
AcDbAlignedDimension
 13
1318.3275047567
 23
-202.7025837168
 33
0.0
 14
1510.3475047567
 24
-214.1869229456
 34
0.0
100
AcDbRotatedDimension
  0
TEXT
  5
2A5
100
AcDbEntity
  8
L1_120
  6
CONTINUOUS
 62
         2
100
AcDbText
 10
1565.1394906194
 20
-157.5368154463
 30
0.0
 40
4.5
  1
536360
 41
0.98
  7
BOX
100
AcDbText
  0
LINE
  5
2A6
100
AcDbEntity
  8
L1_120
  6
DASHED
 62
         2
100
AcDbLine
 10
1606.9306146205
 20
-221.1416380454
 30
0.0
 11
1605.432390672
 21
-223.7366380454
 31
0.0
  0
LINE
  5
2A7
100
AcDbEntity
  8
L1_120
  6
DASHED
 62
         2
100
AcDbLine
 10
1606.9306146205
 20
-226.3316380454
 30
0.0
 11
1605.432390672
 21
-223.7366380454
 31
0.0
  0
LINE
  5
2A8
100
AcDbEntity
  8
L1_120
  6
DASHED
 62
         2
100
AcDbLine
 10
1606.9306146205
 20
-221.1416380454
 30
0.0
 11
1606.9306146205
 21
-226.3316380454
 31
0.0
  0
LINE
  5
2A9
100
AcDbEntity
  8
L1_120
  6
DASHED
 62
         2
100
AcDbLine
 10
1608.9306146205
 20
-220.7366380454
 30
0.0
 11
1608.9306146205
 21
-226.7366380454
 31
0.0
  0
LINE
  5
2AA
100
AcDbEntity
  8
L1_120
  6
DASHED
 62
         2
100
AcDbLine
 10
1608.9306146205
 20
-220.7366380454
 30
0.0
 11
1613.308317472
 21
-220.7366380454
 31
0.0
  0
LINE
  5
2AB
100
AcDbEntity
  8
L1_120
  6
DASHED
 62
         2
100
AcDbLine
 10
1606.9306146205
 20
-221.1416380454
 30
0.0
 11
1613.39436828
 21
-221.1416380454
 31
0.0
  0
LINE
  5
2AC
100
AcDbEntity
  8
L1_120
  6
DASHED
 62
         2
100
AcDbLine
 10
1608.9306146205
 20
-226.7366380454
 30
0.0
 11
1613.308317472
 21
-226.7366380454
 31
0.0
  0
LINE
  5
2AD
100
AcDbEntity
  8
L1_120
  6
DASHED
 62
         2
100
AcDbLine
 10
1606.9306146205
 20
-226.3316380454
 30
0.0
 11
1613.39436828
 21
-226.3316380454
 31
0.0
  0
LINE
  5
2AE
100
AcDbEntity
  8
L1_120
  6
DASHED
 62
         2
100
AcDbLine
 10
1600.239848266
 20
-233.0224043999
 30
0.0
 11
1597.644848266
 21
-231.5241804514
 31
0.0
  0
LINE
  5
2AF
100
AcDbEntity
  8
L1_120
  6
DASHED
 62
         2
100
AcDbLine
 10
1595.049848266
 20
-233.0224043999
 30
0.0
 11
1597.644848266
 21
-231.5241804514
 31
0.0
  0
LINE
  5
2B0
100
AcDbEntity
  8
L1_120
  6
DASHED
 62
         2
100
AcDbLine
 10
1600.239848266
 20
-233.0224043999
 30
0.0
 11
1595.049848266
 21
-233.0224043999
 31
0.0
  0
LINE
  5
2B1
100
AcDbEntity
  8
L1_120
  6
DASHED
 62
         2
100
AcDbLine
 10
1600.644848266
 20
-235.0224043999
 30
0.0
 11
1594.644848266
 21
-235.0224043999
 31
0.0
  0
LINE
  5
2B2
100
AcDbEntity
  8
L1_120
  6
DASHED
 62
         2
100
AcDbLine
 10
1600.644848266
 20
-235.0224043999
 30
0.0
 11
1600.644848266
 21
-239.4001072514
 31
0.0
  0
LINE
  5
2B3
100
AcDbEntity
  8
L1_120
  6
DASHED
 62
         2
100
AcDbLine
 10
1600.239848266
 20
-233.0224043999
 30
0.0
 11
1600.239848266
 21
-239.4861580594
 31
0.0
  0
LINE
  5
2B4
100
AcDbEntity
  8
L1_120
  6
DASHED
 62
         2
100
AcDbLine
 10
1594.644848266
 20
-235.0224043999
 30
0.0
 11
1594.644848266
 21
-239.4001072514
 31
0.0
  0
LINE
  5
2B5
100
AcDbEntity
  8
L1_120
  6
DASHED
 62
         2
100
AcDbLine
 10
1595.049848266
 20
-233.0224043999
 30
0.0
 11
1595.049848266
 21
-239.4861580594
 31
0.0
  0
LINE
  5
2B6
100
AcDbEntity
  8
L1_120
  6
DASHED
 62
         2
100
AcDbLine
 10
1588.3590819115
 20
-226.3316380454
 30
0.0
 11
1589.8573058601
 21
-223.7366380454
 31
0.0
  0
LINE
  5
2B7
100
AcDbEntity
  8
L1_120
  6
DASHED
 62
         2
100
AcDbLine
 10
1588.3590819115
 20
-221.1416380454
 30
0.0
 11
1589.8573058601
 21
-223.7366380454
 31
0.0
  0
LINE
  5
2B8
100
AcDbEntity
  8
L1_120
  6
DASHED
 62
         2
100
AcDbLine
 10
1588.3590819115
 20
-226.3316380454
 30
0.0
 11
1588.3590819115
 21
-221.1416380454
 31
0.0
  0
LINE
  5
2B9
100
AcDbEntity
  8
L1_120
  6
DASHED
 62
         2
100
AcDbLine
 10
1586.3590819115
 20
-226.7366380454
 30
0.0
 11
1586.3590819115
 21
-220.7366380454
 31
0.0
  0
LINE
  5
2BA
100
AcDbEntity
  8
L1_120
  6
DASHED
 62
         2
100
AcDbLine
 10
1586.3590819115
 20
-226.7366380454
 30
0.0
 11
1581.9813790601
 21
-226.7366380454
 31
0.0
  0
LINE
  5
2BB
100
AcDbEntity
  8
L1_120
  6
DASHED
 62
         2
100
AcDbLine
 10
1588.3590819115
 20
-226.3316380454
 30
0.0
 11
1581.895328252
 21
-226.3316380454
 31
0.0
  0
LINE
  5
2BC
100
AcDbEntity
  8
L1_120
  6
DASHED
 62
         2
100
AcDbLine
 10
1586.3590819115
 20
-220.7366380454
 30
0.0
 11
1581.9813790601
 21
-220.7366380454
 31
0.0
  0
LINE
  5
2BD
100
AcDbEntity
  8
L1_120
  6
DASHED
 62
         2
100
AcDbLine
 10
1588.3590819115
 20
-221.1416380454
 30
0.0
 11
1581.8953282521
 21
-221.1416380454
 31
0.0
  0
LINE
  5
2BE
100
AcDbEntity
  8
L1_120
  6
DASHED
 62
         2
100
AcDbLine
 10
1595.049848266
 20
-214.4508716909
 30
0.0
 11
1597.644848266
 21
-215.9490956395
 31
0.0
  0
LINE
  5
2BF
100
AcDbEntity
  8
L1_120
  6
DASHED
 62
         2
100
AcDbLine
 10
1600.239848266
 20
-214.4508716909
 30
0.0
 11
1597.644848266
 21
-215.9490956395
 31
0.0
  0
LINE
  5
2C0
100
AcDbEntity
  8
L1_120
  6
DASHED
 62
         2
100
AcDbLine
 10
1595.049848266
 20
-214.4508716909
 30
0.0
 11
1600.239848266
 21
-214.4508716909
 31
0.0
  0
LINE
  5
2C1
100
AcDbEntity
  8
L1_120
  6
DASHED
 62
         2
100
AcDbLine
 10
1594.644848266
 20
-212.4508716909
 30
0.0
 11
1600.644848266
 21
-212.4508716909
 31
0.0
  0
LINE
  5
2C2
100
AcDbEntity
  8
L1_120
  6
DASHED
 62
         2
100
AcDbLine
 10
1594.644848266
 20
-212.4508716909
 30
0.0
 11
1594.644848266
 21
-208.0731688395
 31
0.0
  0
LINE
  5
2C3
100
AcDbEntity
  8
L1_120
  6
DASHED
 62
         2
100
AcDbLine
 10
1595.049848266
 20
-214.4508716909
 30
0.0
 11
1595.049848266
 21
-207.9871180314
 31
0.0
  0
LINE
  5
2C4
100
AcDbEntity
  8
L1_120
  6
DASHED
 62
         2
100
AcDbLine
 10
1600.644848266
 20
-212.4508716909
 30
0.0
 11
1600.644848266
 21
-208.0731688395
 31
0.0
  0
LINE
  5
2C5
100
AcDbEntity
  8
L1_120
  6
DASHED
 62
         2
100
AcDbLine
 10
1600.239848266
 20
-214.4508716909
 30
0.0
 11
1600.239848266
 21
-207.9871180315
 31
0.0
  0
CIRCLE
  5
2C6
100
AcDbEntity
  8
L1_120
  6
CONTINUOUS
 62
         7
100
AcDbCircle
 10
1597.644848266
 20
-223.7366380454
 30
0.0
 40
11.938
  0
CIRCLE
  5
2C7
100
AcDbEntity
  8
L1_120
  6
CONTINUOUS
 62
         7
100
AcDbCircle
 10
1597.644848266
 20
-223.7366380454
 30
0.0
 40
16.002
  0
LINE
  5
2C8
100
AcDbEntity
  8
L1_120
  6
CENTER
 62
         1
100
AcDbLine
 10
1597.644848266
 20
-224.276092465
 30
0.0
 11
1626.3475345857
 21
-195.5734061454
 31
0.0
  0
LINE
  5
2C9
100
AcDbEntity
  8
L1_120
  6
DASHED
 62
         2
100
AcDbLine
 10
1626.1927389588
 20
-210.6804189991
 30
0.0
 11
1611.240521732
 21
-195.7282017722
 31
0.0
  0
LINE
  5
2CA
100
AcDbEntity
  8
L1_120
  6
DASHED
 62
         2
100
AcDbLine
 10
1573.844848266
 20
-217.576092465
 30
0.0
 11
1573.844848266
 21
-230.976092465
 31
0.0
  0
LINE
  5
2CB
100
AcDbEntity
  8
L1_120
  6
DASHED
 62
         2
100
AcDbLine
 10
1571.144848266
 20
-217.276092465
 30
0.0
 11
1573.544848266
 21
-217.276092465
 31
0.0
  0
LINE
  5
2CC
100
AcDbEntity
  8
L1_120
  6
DASHED
 62
         2
100
AcDbLine
 10
1571.144848266
 20
-231.276092465
 30
0.0
 11
1573.544848266
 21
-231.276092465
 31
0.0
  0
ARC
  5
2CD
100
AcDbEntity
  8
L1_120
  6
DASHED
 62
         2
100
AcDbCircle
 10
1573.544848266
 20
-217.576092465
 30
0.0
 40
0.3
100
AcDbArc
 50
0.0
 51
90.0
  0
ARC
  5
2CE
100
AcDbEntity
  8
L1_120
  6
DASHED
 62
         2
100
AcDbCircle
 10
1573.544848266
 20
-230.976092465
 30
0.0
 40
0.3
100
AcDbArc
 50
270.0
 51
360.0
  0
ARC
  5
2CF
100
AcDbEntity
  8
L1_120
  6
CONTINUOUS
 62
         7
100
AcDbCircle
 10
1597.644848266
 20
-224.276092465
 30
0.0
 40
31.5
100
AcDbArc
 50
80.0668994492
 51
99.9331005508
  0
LINE
  5
2D0
100
AcDbEntity
  8
L1_120
  6
DASHED
 62
         2
100
AcDbLine
 10
1592.644848266
 20
-193.6819753835
 30
0.0
 11
1592.644848266
 21
-197.076092465
 31
0.0
  0
LINE
  5
2D1
100
AcDbEntity
  8
L1_120
  6
DASHED
 62
         2
100
AcDbLine
 10
1602.644848266
 20
-193.6819753835
 30
0.0
 11
1602.644848266
 21
-197.076092465
 31
0.0
  0
LINE
  5
2D2
100
AcDbEntity
  8
L1_120
  6
DASHED
 62
         2
100
AcDbLine
 10
1592.644848266
 20
-197.076092465
 30
0.0
 11
1602.644848266
 21
-197.076092465
 31
0.0
  0
LINE
  5
2D3
100
AcDbEntity
  8
L1_120
  6
DASHED
 62
         2
100
AcDbLine
 10
1602.344848266
 20
-197.376092465
 30
0.0
 11
1592.944848266
 21
-197.376092465
 31
0.0
  0
LINE
  5
2D4
100
AcDbEntity
  8
L1_120
  6
DASHED
 62
         2
100
AcDbLine
 10
1592.644848266
 20
-197.076092465
 30
0.0
 11
1592.944848266
 21
-197.376092465
 31
0.0
  0
LINE
  5
2D5
100
AcDbEntity
  8
L1_120
  6
DASHED
 62
         2
100
AcDbLine
 10
1597.644848266
 20
-197.9534427342
 30
0.0
 11
1596.644848266
 21
-197.376092465
 31
0.0
  0
LINE
  5
2D6
100
AcDbEntity
  8
L1_120
  6
DASHED
 62
         2
100
AcDbLine
 10
1597.644848266
 20
-197.9534427342
 30
0.0
 11
1598.644848266
 21
-197.376092465
 31
0.0
  0
LINE
  5
2D7
100
AcDbEntity
  8
L1_120
  6
DASHED
 62
         2
100
AcDbLine
 10
1602.344848266
 20
-197.376092465
 30
0.0
 11
1602.644848266
 21
-197.076092465
 31
0.0
  0
ARC
  5
2D8
100
AcDbEntity
  8
L1_120
  6
DASHED
 62
         2
100
AcDbCircle
 10
1597.644848266
 20
-224.276092465
 30
0.0
 40
31.0
100
AcDbArc
 50
80.7182009133
 51
99.2817990867
  0
LINE
  5
2D9
100
AcDbEntity
  8
L1_120
  6
DASHED
 62
         2
100
AcDbLine
 10
1592.644848266
 20
-193.6819753835
 30
0.0
 11
1592.2111555139
 21
-193.2482826314
 31
0.0
  0
LINE
  5
2DA
100
AcDbEntity
  8
L1_120
  6
DASHED
 62
         2
100
AcDbLine
 10
1602.644848266
 20
-193.6819753835
 30
0.0
 11
1603.0785410182
 21
-193.2482826314
 31
0.0
  0
LINE
  5
2DB
100
AcDbEntity
  8
L1_120
  6
CENTER
 62
         1
100
AcDbLine
 10
1597.644848266
 20
-189.776092465
 30
0.0
 11
1597.644848266
 21
-258.776092465
 31
0.0
  0
CIRCLE
  5
2DC
100
AcDbEntity
  8
L1_120
  6
CONTINUOUS
 62
         7
100
AcDbCircle
 10
1597.644848266
 20
-224.276092465
 30
0.0
 40
31.5
  0
LINE
  5
2DD
100
AcDbEntity
  8
L1_120
  6
CENTER
 62
         1
100
AcDbLine
 10
1563.144848266
 20
-224.276092465
 30
0.0
 11
1631.7394059531
 21
-224.276092465
 31
0.0
  0
LINE
  5
2DE
100
AcDbEntity
  8
L1_120
  6
CONTINUOUS
 62
         7
100
AcDbLine
 10
1627.5154023285
 20
-234.276092465
 30
0.0
 11
1624.144848266
 21
-234.276092465
 31
0.0
  0
LINE
  5
2DF
100
AcDbEntity
  8
L1_120
  6
CONTINUOUS
 62
         7
100
AcDbLine
 10
1627.5154023285
 20
-214.276092465
 30
0.0
 11
1624.144848266
 21
-214.276092465
 31
0.0
  0
LINE
  5
2E0
100
AcDbEntity
  8
L1_120
  6
CONTINUOUS
 62
         7
100
AcDbLine
 10
1626.7867425078
 20
-215.276092465
 30
0.0
 11
1624.144848266
 21
-215.276092465
 31
0.0
  0
LINE
  5
2E1
100
AcDbEntity
  8
L1_120
  6
CONTINUOUS
 62
         7
100
AcDbLine
 10
1626.7867425078
 20
-233.276092465
 30
0.0
 11
1624.144848266
 21
-233.276092465
 31
0.0
  0
LINE
  5
2E2
100
AcDbEntity
  8
L1_120
  6
CONTINUOUS
 62
         7
100
AcDbLine
 10
1624.144848266
 20
-214.276092465
 30
0.0
 11
1624.144848266
 21
-234.276092465
 31
0.0
  0
ARC
  5
2E3
100
AcDbEntity
  8
L1_120
  6
CONTINUOUS
 62
         7
100
AcDbCircle
 10
1597.644848266
 20
-224.276092465
 30
0.0
 40
30.5
100
AcDbArc
 50
342.8375474519
 51
377.1624525481
  0
LINE
  5
2E4
100
AcDbEntity
  8
L1_120
  6
CONTINUOUS
 62
         7
100
AcDbLine
 10
1627.5154023285
 20
-214.276092465
 30
0.0
 11
1626.7867425078
 21
-215.276092465
 31
0.0
  0
LINE
  5
2E5
100
AcDbEntity
  8
L1_120
  6
CONTINUOUS
 62
         7
100
AcDbLine
 10
1627.5154023285
 20
-234.276092465
 30
0.0
 11
1626.7867425078
 21
-233.276092465
 31
0.0
  0
ARC
  5
2E6
100
AcDbEntity
  8
L1_120
  6
CONTINUOUS
 62
         7
100
AcDbCircle
 10
1597.644848266
 20
-224.276092465
 30
0.0
 40
30.5
100
AcDbArc
 50
164.7937121239
 51
195.2062878761
  0
LINE
  5
2E7
100
AcDbEntity
  8
L1_120
  6
CONTINUOUS
 62
         7
100
AcDbLine
 10
1567.4579305698
 20
-233.276092465
 30
0.0
 11
1571.144848266
 21
-233.276092465
 31
0.0
  0
LINE
  5
2E8
100
AcDbEntity
  8
L1_120
  6
CONTINUOUS
 62
         7
100
AcDbLine
 10
1567.4579305698
 20
-215.276092465
 30
0.0
 11
1571.144848266
 21
-215.276092465
 31
0.0
  0
LINE
  5
2E9
100
AcDbEntity
  8
L1_120
  6
CONTINUOUS
 62
         7
100
AcDbLine
 10
1567.4579305698
 20
-215.276092465
 30
0.0
 11
1568.2127229605
 21
-216.276092465
 31
0.0
  0
LINE
  5
2EA
100
AcDbEntity
  8
L1_120
  6
CONTINUOUS
 62
         7
100
AcDbLine
 10
1567.4579305698
 20
-233.276092465
 30
0.0
 11
1568.2127229605
 21
-232.276092465
 31
0.0
  0
LINE
  5
2EB
100
AcDbEntity
  8
L1_120
  6
CONTINUOUS
 62
         7
100
AcDbLine
 10
1568.2127229605
 20
-216.276092465
 30
0.0
 11
1571.144848266
 21
-216.276092465
 31
0.0
  0
LINE
  5
2EC
100
AcDbEntity
  8
L1_120
  6
CONTINUOUS
 62
         7
100
AcDbLine
 10
1568.2127229605
 20
-232.276092465
 30
0.0
 11
1571.144848266
 21
-232.276092465
 31
0.0
  0
LINE
  5
2ED
100
AcDbEntity
  8
L1_120
  6
CONTINUOUS
 62
         7
100
AcDbLine
 10
1571.144848266
 20
-215.276092465
 30
0.0
 11
1571.144848266
 21
-233.276092465
 31
0.0
  0
LINE
  5
2EE
100
AcDbEntity
  8
L1_120
  6
CONTINUOUS
 62
         7
100
AcDbLine
 10
1578.764848266
 20
-243.156092465
 30
0.0
 11
1577.764848266
 21
-244.156092465
 31
0.0
  0
LINE
  5
2EF
100
AcDbEntity
  8
L1_120
  6
CONTINUOUS
 62
         7
100
AcDbLine
 10
1572.2801089613
 20
-243.156092465
 30
0.0
 11
1578.764848266
 21
-243.156092465
 31
0.0
  0
LINE
  5
2F0
100
AcDbEntity
  8
L1_120
  6
CONTINUOUS
 62
         7
100
AcDbLine
 10
1578.764848266
 20
-243.156092465
 30
0.0
 11
1578.764848266
 21
-249.6408317698
 31
0.0
  0
LINE
  5
2F1
100
AcDbEntity
  8
L1_120
  6
CONTINUOUS
 62
         7
100
AcDbLine
 10
1577.764848266
 20
-244.156092465
 30
0.0
 11
1577.764848266
 21
-248.8649110621
 31
0.0
  0
LINE
  5
2F2
100
AcDbEntity
  8
L1_120
  6
CONTINUOUS
 62
         7
100
AcDbLine
 10
1573.056029669
 20
-244.156092465
 30
0.0
 11
1577.764848266
 21
-244.156092465
 31
0.0
  0
LINE
  5
2F3
100
AcDbEntity
  8
L1_120
  6
CONTINUOUS
 62
         7
100
AcDbLine
 10
1573.3086612188
 20
-244.276092465
 30
0.0
 11
1577.644848266
 21
-244.276092465
 31
0.0
  0
LINE
  5
2F4
100
AcDbEntity
  8
L1_120
  6
CONTINUOUS
 62
         7
100
AcDbLine
 10
1572.9062145123
 20
-243.776092465
 30
0.0
 11
1578.144848266
 21
-243.776092465
 31
0.0
  0
LINE
  5
2F5
100
AcDbEntity
  8
L1_120
  6
CONTINUOUS
 62
         7
100
AcDbLine
 10
1577.644848266
 20
-244.276092465
 30
0.0
 11
1577.644848266
 21
-248.6122795123
 31
0.0
  0
LINE
  5
2F6
100
AcDbEntity
  8
L1_120
  6
CONTINUOUS
 62
         7
100
AcDbLine
 10
1578.144848266
 20
-243.776092465
 30
0.0
 11
1578.144848266
 21
-249.0147262187
 31
0.0
  0
LINE
  5
2F7
100
AcDbEntity
  8
L1_120
  6
CONTINUOUS
 62
         7
100
AcDbLine
 10
1577.644848266
 20
-244.276092465
 30
0.0
 11
1578.144848266
 21
-243.776092465
 31
0.0
  0
LINE
  5
2F8
100
AcDbEntity
  8
L1_120
  6
DASHED
 62
         2
100
AcDbLine
 10
1602.8074612065
 20
-234.7000997379
 30
0.0
 11
1605.6744933615
 21
-232.6925822107
 31
0.0
  0
LINE
  5
2F9
100
AcDbEntity
  8
L1_120
  6
DASHED
 62
         2
100
AcDbLine
 10
1598.9308970887
 20
-235.8371727962
 30
0.0
 11
1602.3116374807
 21
-234.9313061383
 31
0.0
  0
LINE
  5
2FA
100
AcDbEntity
  8
L1_120
  6
DASHED
 62
         2
100
AcDbLine
 10
1590.3793038094
 20
-233.3603846085
 30
0.0
 11
1593.4103927226
 21
-235.1103846085
 31
0.0
  0
LINE
  5
2FB
100
AcDbEntity
  8
L1_120
  6
DASHED
 62
         2
100
AcDbLine
 10
1594.8992165027
 20
-235.5798089432
 30
0.0
 11
1598.3858979461
 21
-235.8848540428
 31
0.0
  0
LINE
  5
2FC
100
AcDbEntity
  8
L1_120
  6
DASHED
 62
         2
100
AcDbLine
 10
1602.8074612065
 20
-234.7000997379
 30
0.0
 11
1611.9527140099
 21
-247.7608743003
 31
0.0
  0
LINE
  5
2FD
100
AcDbEntity
  8
L1_120
  6
DASHED
 62
         2
100
AcDbLine
 10
1614.8205233301
 20
-245.75446668
 30
0.0
 11
1605.6744933615
 21
-232.6925822107
 31
0.0
  0
LINE
  5
2FE
100
AcDbEntity
  8
L1_120
  6
DASHED
 62
         2
100
AcDbLine
 10
1598.9308970887
 20
-235.8371727962
 30
0.0
 11
1603.0575756755
 21
-251.2381469488
 31
0.0
  0
LINE
  5
2FF
100
AcDbEntity
  8
L1_120
  6
DASHED
 62
         2
100
AcDbLine
 10
1606.4384069076
 20
-250.3326193108
 30
0.0
 11
1602.3116374807
 21
-234.9313061383
 31
0.0
  0
LINE
  5
300
100
AcDbEntity
  8
L1_120
  6
DASHED
 62
         2
100
AcDbLine
 10
1602.3116374807
 20
-234.9313061383
 30
0.0
 11
1600.3597661053
 21
-234.4083037796
 31
0.0
  0
LINE
  5
301
100
AcDbEntity
  8
L1_120
  6
DASHED
 62
         2
100
AcDbLine
 10
1600.3597661053
 20
-234.4083037796
 30
0.0
 11
1598.9308970887
 21
-235.8371727962
 31
0.0
  0
LINE
  5
302
100
AcDbEntity
  8
L1_120
  6
DASHED
 62
         2
100
AcDbLine
 10
1605.6744933615
 20
-232.6925822107
 30
0.0
 11
1603.6614568916
 21
-232.868700081
 31
0.0
  0
LINE
  5
303
100
AcDbEntity
  8
L1_120
  6
DASHED
 62
         2
100
AcDbLine
 10
1603.6614568916
 20
-232.868700081
 30
0.0
 11
1602.8074612065
 21
-234.7000997379
 31
0.0
  0
LINE
  5
304
100
AcDbEntity
  8
L1_120
  6
DASHED
 62
         2
100
AcDbLine
 10
1593.4103927226
 20
-235.1103846085
 30
0.0
 11
1592.4000297516
 21
-233.3603846085
 31
0.0
  0
LINE
  5
305
100
AcDbEntity
  8
L1_120
  6
DASHED
 62
         2
100
AcDbLine
 10
1592.4000297516
 20
-233.3603846085
 30
0.0
 11
1590.3793038094
 21
-233.3603846085
 31
0.0
  0
LINE
  5
306
100
AcDbEntity
  8
L1_120
  6
DASHED
 62
         2
100
AcDbLine
 10
1590.3793038094
 20
-233.3603846085
 30
0.0
 11
1582.4071729617
 21
-247.1685202812
 31
0.0
  0
LINE
  5
307
100
AcDbEntity
  8
L1_120
  6
DASHED
 62
         2
100
AcDbLine
 10
1585.4375844019
 20
-248.919693699
 30
0.0
 11
1593.4103927226
 21
-235.1103846085
 31
0.0
  0
LINE
  5
308
100
AcDbEntity
  8
L1_120
  6
DASHED
 62
         2
100
AcDbLine
 10
1594.8992165027
 20
-235.5798089432
 30
0.0
 11
1593.5095825321
 21
-251.463397909
 31
0.0
  0
LINE
  5
309
100
AcDbEntity
  8
L1_120
  6
DASHED
 62
         2
100
AcDbLine
 10
1596.9955947347
 20
-251.7760924649
 30
0.0
 11
1598.3858979461
 21
-235.8848540428
 31
0.0
  0
LINE
  5
30A
100
AcDbEntity
  8
L1_120
  6
DASHED
 62
         2
100
AcDbLine
 10
1598.3858979461
 20
-235.8848540428
 30
0.0
 11
1596.7306161596
 21
-234.7258132581
 31
0.0
  0
LINE
  5
30B
100
AcDbEntity
  8
L1_120
  6
DASHED
 62
         2
100
AcDbLine
 10
1596.7306161596
 20
-234.7258132581
 30
0.0
 11
1594.8992165027
 21
-235.5798089432
 31
0.0
  0
LINE
  5
30C
100
AcDbEntity
  8
L1_120
  6
CENTER
 62
         1
100
AcDbLine
 10
1597.644848266
 20
-224.276092465
 30
0.0
 11
1617.4529495529
 21
-252.5649928352
 31
0.0
  0
LINE
  5
30D
100
AcDbEntity
  8
L1_120
  6
CENTER
 62
         1
100
AcDbLine
 10
1597.644848266
 20
-224.276092465
 30
0.0
 11
1606.7829371458
 21
-258.3799044484
 31
0.0
  0
LINE
  5
30E
100
AcDbEntity
  8
L1_120
  6
CENTER
 62
         1
100
AcDbLine
 10
1597.644848266
 20
-259.7153769122
 30
0.0
 11
1597.644848266
 21
-187.7578991786
 31
0.0
  0
LINE
  5
30F
100
AcDbEntity
  8
L1_120
  6
CENTER
 62
         1
100
AcDbLine
 10
1597.644848266
 20
-224.276092465
 30
0.0
 11
1594.567864685
 21
-259.446175731
 31
0.0
  0
LINE
  5
310
100
AcDbEntity
  8
L1_120
  6
CENTER
 62
         1
100
AcDbLine
 10
1597.644848266
 20
-224.276092465
 30
0.0
 11
1580.5351529336
 21
-253.9109540831
 31
0.0
  0
CIRCLE
  5
311
100
AcDbEntity
  8
L1_120
  6
DASHED
 62
         2
100
AcDbCircle
 10
1597.644848266
 20
-224.276092465
 30
0.0
 40
27.5101842974
  0
CIRCLE
  5
312
100
AcDbEntity
  8
L1_120
  6
CONTINUOUS
 62
         7
100
AcDbCircle
 10
1597.644848266
 20
-224.276092465
 30
0.0
 40
6.341
  0
DIMENSION
  5
315
100
AcDbEntity
  8
L1_120
  6
CONTINUOUS
 62
         4
100
AcDbDimension
  2
*D6
 10
1460.3475123151
 20
-378.120299685
 30
0.0
 11
1481.4261878241
 21
-374.060299685
 31
0.0
  3
DIMSTYLE1
100
AcDbAlignedDimension
 13
1460.3475123151
 23
-344.6686298176
 33
0.0
 14
1510.3475123151
 24
-349.2578488343
 34
0.0
100
AcDbRotatedDimension
  0
LINE
  5
321
100
AcDbEntity
  8
L1_120
  6
CENTER
 62
         1
100
AcDbLine
 10
1318.3275047567
 20
-338.1686220058
 30
0.0
 11
1510.3475123151
 21
-338.1686220058
 31
0.0
  0
CIRCLE
  5
322
100
AcDbEntity
  8
L1_120
  6
CONTINUOUS
 62
         7
100
AcDbCircle
 10
1523.6433696575
 20
-303.706399242
 30
0.0
 40
1.75
  0
LINE
  5
323
100
AcDbEntity
  8
L1_120
  6
CENTER
 62
         1
100
AcDbLine
 10
1567.6826482593
 20
-303.706399242
 30
0.0
 11
1541.0864279404
 21
-303.706399242
 31
0.0
  0
LINE
  5
324
100
AcDbEntity
  8
L1_120
  6
CONTINUOUS
 62
         7
100
AcDbLine
 10
1562.7949358894
 20
-298.706399242
 30
0.0
 11
1545.0949358893
 21
-298.706399242
 31
0.0
  0
LINE
  5
325
100
AcDbEntity
  8
L1_120
  6
CONTINUOUS
 62
         7
100
AcDbLine
 10
1545.0949358893
 20
-308.706399242
 30
0.0
 11
1562.7949358894
 21
-308.706399242
 31
0.0
  0
LINE
  5
326
100
AcDbEntity
  8
L1_120
  6
CONTINUOUS
 62
         7
100
AcDbLine
 10
1564.2949358894
 20
-300.206399242
 30
0.0
 11
1564.2949358894
 21
-307.206399242
 31
0.0
  0
LINE
  5
327
100
AcDbEntity
  8
L1_120
  6
CONTINUOUS
 62
         7
100
AcDbLine
 10
1544.2949358894
 20
-300.092039888
 30
0.0
 11
1544.2949358894
 21
-307.3207585959
 31
0.0
  0
LINE
  5
328
100
AcDbEntity
  8
L1_120
  6
CONTINUOUS
 62
         4
100
AcDbLine
 10
1545.0949358893
 20
-298.706399242
 30
0.0
 11
1545.0949358893
 21
-308.706399242
 31
0.0
  0
LINE
  5
329
100
AcDbEntity
  8
L1_120
  6
CONTINUOUS
 62
         4
100
AcDbLine
 10
1562.7949358894
 20
-298.706399242
 30
0.0
 11
1562.7949358894
 21
-308.706399242
 31
0.0
  0
LINE
  5
32A
100
AcDbEntity
  8
L1_120
  6
CONTINUOUS
 62
         7
100
AcDbLine
 10
1545.0949358893
 20
-298.706399242
 30
0.0
 11
1544.2949358894
 21
-300.092039888
 31
0.0
  0
LINE
  5
32B
100
AcDbEntity
  8
L1_120
  6
CONTINUOUS
 62
         7
100
AcDbLine
 10
1545.0949358893
 20
-308.706399242
 30
0.0
 11
1544.2949358894
 21
-307.3207585959
 31
0.0
  0
LINE
  5
32C
100
AcDbEntity
  8
L1_120
  6
CONTINUOUS
 62
         7
100
AcDbLine
 10
1562.7949358894
 20
-298.706399242
 30
0.0
 11
1564.2949358894
 21
-300.206399242
 31
0.0
  0
LINE
  5
32D
100
AcDbEntity
  8
L1_120
  6
CONTINUOUS
 62
         7
100
AcDbLine
 10
1562.7949358894
 20
-308.706399242
 30
0.0
 11
1564.2949358894
 21
-307.206399242
 31
0.0
  0
LINE
  5
32E
100
AcDbEntity
  8
L1_120
  6
CONTINUOUS
 62
         4
100
AcDbLine
 10
1564.1805765354
 20
-300.092039888
 30
0.0
 11
1544.2949358894
 21
-300.092039888
 31
0.0
  0
LINE
  5
32F
100
AcDbEntity
  8
L1_120
  6
CONTINUOUS
 62
         4
100
AcDbLine
 10
1564.1805765354
 20
-307.3207585959
 30
0.0
 11
1544.2949358894
 21
-307.3207585959
 31
0.0
  0
LINE
  5
330
100
AcDbEntity
  8
L1_120
  6
CENTER
 62
         1
100
AcDbLine
 10
1531.9373728606
 20
-303.706399242
 30
0.0
 11
1515.0782140337
 21
-303.706399242
 31
0.0
  0
LINE
  5
331
100
AcDbEntity
  8
L1_120
  6
CENTER
 62
         1
100
AcDbLine
 10
1523.6433696575
 20
-313.2634148838
 30
0.0
 11
1523.6433696575
 21
-296.4699366398
 31
0.0
  0
CIRCLE
  5
332
100
AcDbEntity
  8
L1_120
  6
CONTINUOUS
 62
         7
100
AcDbCircle
 10
1523.6433696575
 20
-303.706399242
 30
0.0
 40
3.6143593539
  0
CIRCLE
  5
333
100
AcDbEntity
  8
L1_120
  6
CONTINUOUS
 62
         7
100
AcDbCircle
 10
1523.6433696575
 20
-303.706399242
 30
0.0
 40
5.0
  0
DIMENSION
  5
336
100
AcDbEntity
  8
L1_120
  6
CONTINUOUS
 62
         4
100
AcDbDimension
  2
*D7
 10
1579.9374339222
 20
-298.706399242
 30
0.0
 11
1577.3124339222
 21
-294.9271890055
 31
0.0
  3
DIMSTYLE1
100
AcDbAlignedDimension
 13
1562.7949358894
 23
-298.706399242
 33
0.0
 14
1562.7949358894
 24
-308.706399242
 34
0.0
 50
90.0
100
AcDbRotatedDimension
  0
DIMENSION
  5
346
100
AcDbEntity
  8
L1_120
  6
CONTINUOUS
 62
         4
100
AcDbDimension
  2
*D8
 10
1544.2949358894
 20
-321.4879086982
 30
0.0
 11
1551.1119426824
 21
-318.8629086982
 31
0.0
  3
DIMSTYLE1
100
AcDbAlignedDimension
 13
1544.2949358894
 23
-307.3207585959
 33
0.0
 14
1564.2949358894
 24
-307.206399242
 34
0.0
100
AcDbRotatedDimension
  0
LINE
  5
352
100
AcDbEntity
  8
L1_120
  6
DASHED
 62
         2
100
AcDbLine
 10
1548.2949358894
 20
-300.819647896
 30
0.0
 11
1548.2949358894
 21
-306.5931505879
 31
0.0
  0
LINE
  5
353
100
AcDbEntity
  8
L1_120
  6
CONTINUOUS
 62
         7
100
AcDbLine
 10
1526.1433696575
 20
-302.263023569
 30
0.0
 11
1523.6433696575
 21
-300.819647896
 31
0.0
  0
LINE
  5
354
100
AcDbEntity
  8
L1_120
  6
CONTINUOUS
 62
         7
100
AcDbLine
 10
1523.6433696575
 20
-300.819647896
 30
0.0
 11
1521.1433696575
 21
-302.263023569
 31
0.0
  0
LINE
  5
355
100
AcDbEntity
  8
L1_120
  6
CONTINUOUS
 62
         7
100
AcDbLine
 10
1521.1433696575
 20
-302.263023569
 30
0.0
 11
1521.1433696575
 21
-305.149774915
 31
0.0
  0
LINE
  5
356
100
AcDbEntity
  8
L1_120
  6
CONTINUOUS
 62
         7
100
AcDbLine
 10
1521.1433696575
 20
-305.149774915
 30
0.0
 11
1523.6433696575
 21
-306.5931505879
 31
0.0
  0
LINE
  5
357
100
AcDbEntity
  8
L1_120
  6
CONTINUOUS
 62
         7
100
AcDbLine
 10
1523.6433696575
 20
-306.5931505879
 30
0.0
 11
1526.1433696575
 21
-305.149774915
 31
0.0
  0
LINE
  5
358
100
AcDbEntity
  8
L1_120
  6
CONTINUOUS
 62
         7
100
AcDbLine
 10
1526.1433696575
 20
-305.149774915
 30
0.0
 11
1526.1433696575
 21
-302.263023569
 31
0.0
  0
LINE
  5
359
100
AcDbEntity
  8
L1_120
  6
DASHED
 62
         2
100
AcDbLine
 10
1544.2949358894
 20
-300.819647896
 30
0.0
 11
1548.2949358894
 21
-300.819647896
 31
0.0
  0
LINE
  5
35A
100
AcDbEntity
  8
L1_120
  6
DASHED
 62
         2
100
AcDbLine
 10
1544.2949358894
 20
-302.263023569
 30
0.0
 11
1548.2949358894
 21
-302.263023569
 31
0.0
  0
LINE
  5
35B
100
AcDbEntity
  8
L1_120
  6
DASHED
 62
         2
100
AcDbLine
 10
1544.2949358894
 20
-306.5931505879
 30
0.0
 11
1548.2949358894
 21
-306.5931505879
 31
0.0
  0
LINE
  5
35C
100
AcDbEntity
  8
L1_120
  6
DASHED
 62
         2
100
AcDbLine
 10
1544.2949358894
 20
-305.149774915
 30
0.0
 11
1548.2949358894
 21
-305.149774915
 31
0.0
  0
CIRCLE
  5
35D
100
AcDbEntity
  8
L1_120
  6
CONTINUOUS
 62
         7
100
AcDbCircle
 10
1523.6433696575
 20
-303.706399242
 30
0.0
 40
2.8867513459
  0
DIMENSION
  5
360
100
AcDbEntity
  8
L1_120
  6
CONTINUOUS
 62
         4
100
AcDbDimension
  2
*D9
 10
1521.1433696575
 20
-297.6069861143
 30
0.0
 11
1522.0041134019
 21
-294.9819861143
 31
0.0
  3
DIMSTYLE1
100
AcDbAlignedDimension
 13
1521.1433696575
 23
-302.263023569
 33
0.0
 14
1526.1433696575
 24
-302.263023569
 34
0.0
100
AcDbRotatedDimension
  0
LINE
  5
36E
100
AcDbEntity
  8
L1_120
  6
DASHED
 62
         2
100
AcDbLine
 10
1564.2949358894
 20
-301.956399242
 30
0.0
 11
1548.2949358894
 21
-301.956399242
 31
0.0
  0
LINE
  5
36F
100
AcDbEntity
  8
L1_120
  6
DASHED
 62
         2
100
AcDbLine
 10
1548.2949358894
 20
-305.456399242
 30
0.0
 11
1564.2949358894
 21
-305.456399242
 31
0.0
  0
ENDSEC
  0
SECTION
  2
OBJECTS
  0
DICTIONARY
  5
19
100
AcDbDictionary
  3
ACAD_GROUP
350
1A
  3
ACAD_MLINESTYLE
350
1B
  0
DICTIONARY
  5
1A
102
{ACAD_REACTORS
330
19
102
}
100
AcDbDictionary
  0
DICTIONARY
  5
1B
102
{ACAD_REACTORS
330
19
102
}
100
AcDbDictionary
  3
STANDARD
350
1C
  0
MLINESTYLE
  5
1C
102
{ACAD_REACTORS
330
1B
102
}
100
AcDbMlineStyle
  2
STANDARD
 70
         0
  3

 62
         0
 51
90.0
 52
90.0
 71
         2
 49
0.5
 62
       256
  6
BYLAYER
 49
-0.5
 62
       256
  6
BYLAYER
  0
ENDSEC
  0
EOF
