  0
SECTION
  2
HEADER
  9
$ACADVER
  1
AC1014
  9
$ACADMAINTVER
 70
         0
  9
$DWGCODEPAGE
  3
BIG5
  9
$INSBASE
 10
0.0
 20
0.0
 30
0.0
  9
$EXTMIN
 10
952.1143043115
 20
-483.5428633793
 30
0.0
  9
$EXTMAX
 10
1891.3167644724
 20
-25.0549260305
 30
0.0
  9
$LIMMIN
 10
0.0
 20
0.0
  9
$LIMMAX
 10
0.0
 20
0.0
  9
$ORTHOMODE
 70
         0
  9
$REGENMODE
 70
         1
  9
$FILLMODE
 70
         1
  9
$QTEXTMODE
 70
         0
  9
$MIRRTEXT
 70
         1
  9
$DRAGMODE
 70
         2
  9
$LTSCALE
 40
1.0
  9
$OSMODE
 70
         0
  9
$ATTMODE
 70
         1
  9
$TEXTSIZE
 40
1.7
  9
$TRACEWID
 40
0.05
  9
$TEXTSTYLE
  7
STANDARD
  9
$CLAYER
  8
0
  9
$CELTYPE
  6
CONTINUOUS
  9
$CECOLOR
 62
        16
  9
$CELTSCALE
 40
1.0
  9
$DELOBJ
 70
         1
  9
$DISPSILH
 70
         0
  9
$DIMSCALE
 40
1.0
  9
$DIMASZ
 40
0.18
  9
$DIMEXO
 40
0.0625
  9
$DIMDLI
 40
0.38
  9
$DIMRND
 40
0.0
  9
$DIMDLE
 40
0.0
  9
$DIMEXE
 40
0.25
  9
$DIMTP
 40
0.01
  9
$DIMTM
 40
-0.01
  9
$DIMTXT
 40
2.7
  9
$DIMCEN
 40
0.09
  9
$DIMTSZ
 40
0.0
  9
$DIMTOL
 70
         0
  9
$DIMLIM
 70
         0
  9
$DIMTIH
 70
         1
  9
$DIMTOH
 70
         1
  9
$DIMSE1
 70
         0
  9
$DIMSE2
 70
         0
  9
$DIMTAD
 70
         0
  9
$DIMZIN
 70
         0
  9
$DIMBLK
  1

  9
$DIMASO
 70
         1
  9
$DIMSHO
 70
         1
  9
$DIMPOST
  1

  9
$DIMAPOST
  1

  9
$DIMALT
 70
         0
  9
$DIMALTD
 70
         2
  9
$DIMALTF
 40
25.4
  9
$DIMLFAC
 40
1.0
  9
$DIMTOFL
 70
         0
  9
$DIMTVP
 40
0.0
  9
$DIMTIX
 70
         0
  9
$DIMSOXD
 70
         0
  9
$DIMSAH
 70
         0
  9
$DIMBLK1
  1

  9
$DIMBLK2
  1

  9
$DIMSTYLE
  2
STANDARD
  9
$DIMCLRD
 70
         0
  9
$DIMCLRE
 70
         0
  9
$DIMCLRT
 70
        16
  9
$DIMTFAC
 40
1.0
  9
$DIMGAP
 40
0.09
  9
$DIMJUST
 70
         0
  9
$DIMSD1
 70
         0
  9
$DIMSD2
 70
         0
  9
$DIMTOLJ
 70
         1
  9
$DIMTZIN
 70
         0
  9
$DIMALTZ
 70
         0
  9
$DIMALTTZ
 70
         0
  9
$DIMFIT
 70
         3
  9
$DIMUPT
 70
         0
  9
$DIMUNIT
 70
         2
  9
$DIMDEC
 70
         4
  9
$DIMTDEC
 70
         4
  9
$DIMALTU
 70
         2
  9
$DIMALTTD
 70
         2
  9
$DIMTXSTY
  7
STANDARD
  9
$DIMAUNIT
 70
         0
  9
$LUNITS
 70
         2
  9
$LUPREC
 70
        10
  9
$SKETCHINC
 40
0.1
  9
$FILLETRAD
 40
0.0
  9
$AUNITS
 70
         0
  9
$AUPREC
 70
         0
  9
$MENU
  1
acad
  9
$ELEVATION
 40
0.0
  9
$PELEVATION
 40
0.0
  9
$THICKNESS
 40
0.0
  9
$LIMCHECK
 70
         0
  9
$BLIPMODE
 70
         1
  9
$CHAMFERA
 40
0.0
  9
$CHAMFERB
 40
0.0
  9
$CHAMFERC
 40
0.0
  9
$CHAMFERD
 40
0.0
  9
$SKPOLY
 70
         0
  9
$TDCREATE
 40
0.000000000
  9
$TDUPDATE
 40
0.000000000
  9
$TDINDWG
 40
0.0000000000
  9
$TDUSRTIMER
 40
0.0000000000
  9
$USRTIMER
 70
         1
  9
$ANGBASE
 50
0.0
  9
$ANGDIR
 70
         0
  9
$PDMODE
 70
         2
  9
$PDSIZE
 40
0.0
  9
$PLINEWID
 40
0.0
  9
$COORDS
 70
         0
  9
$SPLFRAME
 70
         0
  9
$SPLINETYPE
 70
         6
  9
$SPLINESEGS
 70
         8
  9
$ATTDIA
 70
         0
  9
$ATTREQ
 70
         1
  9
$HANDLING
 70
         1
  9
$HANDSEED
  5
366
  9
$SURFTAB1
 70
         6
  9
$SURFTAB2
 70
         6
  9
$SURFTYPE
 70
         6
  9
$SURFU
 70
         6
  9
$SURFV
 70
         6
  9
$UCSNAME
  2

  9
$UCSORG
 10
0.0
 20
0.0
 30
0.0
  9
$UCSXDIR
 10
1.0
 20
0.0
 30
0.0
  9
$UCSYDIR
 10
0.0
 20
1.0
 30
0.0
  9
$PUCSNAME
  2

  9
$PUCSORG
 10
0.0
 20
0.0
 30
0.0
  9
$PUCSXDIR
 10
1.0
 20
0.0
 30
0.0
  9
$PUCSYDIR
 10
0.0
 20
1.0
 30
0.0
  9
$USERI1
 70
         0
  9
$USERI2
 70
         0
  9
$USERI3
 70
         0
  9
$USERI4
 70
         0
  9
$USERI5
 70
         0
  9
$USERR1
 40
0.0
  9
$USERR2
 40
0.0
  9
$USERR3
 40
0.0
  9
$USERR4
 40
0.0
  9
$USERR5
 40
0.0
  9
$WORLDVIEW
 70
         1
  9
$SHADEDGE
 70
         3
  9
$SHADEDIF
 70
        70
  9
$TILEMODE
 70
         1
  9
$MAXACTVP
 70
        16
  9
$PINSBASE
 10
0.0
 20
0.0
 30
0.0
  9
$PLIMCHECK
 70
         0
  9
$PEXTMIN
 10
1.0000000000E+20
 20
1.0000000000E+20
 30
1.0000000000E+20
  9
$PEXTMAX
 10
-1.0000000000E+20
 20
-1.0000000000E+20
 30
-1.0000000000E+20
  9
$PLIMMIN
 10
0.0
 20
0.0
  9
$PLIMMAX
 10
12.0
 20
9.0
  9
$UNITMODE
 70
         0
  9
$VISRETAIN
 70
         0
  9
$PLINEGEN
 70
         1
  9
$PSLTSCALE
 70
         0
  9
$TREEDEPTH
 70
      3020
  9
$PICKSTYLE
 70
         1
  9
$CMLSTYLE
  2
STANDARD
  9
$CMLJUST
 70
         0
  9
$CMLSCALE
 40
1.0
  9
$PROXYGRAPHICS
 70
         0
  9
$MEASUREMENT
 70
         0
  0
ENDSEC
  0
SECTION
  2
CLASSES
  0
CLASS
  1
LWPOLYLINE
  2
AcDbPolyline
  3
"AutoCAD"
 90
        0
280
         0
281
         1
  0
CLASS
  1
IMAGE
  2
AcDbRasterImage
  3
ISM
 90
      127
280
         0
281
         1
  0
CLASS
  1
OLE2FRAME
  2
AcDbOle2Frame
  3
""
 90
        0
280
         0
281
         1
  0
CLASS
  1
HATCH
  2
AcDbHatch
  3
"ACAD_SEDONA"
 90
        0
280
         0
281
         1
  0
CLASS
  1
DICTIONARYVAR
  2
AcDbDictionaryVar
  3
"AutoCAD"
 90
        0
280
         0
281
         0
  0
CLASS
  1
RASTERVARIABLES
  2
AcDbRasterVariables
  3
ISM
 90
        0
280
         0
281
         0
  0
CLASS
  1
IMAGEDEF
  2
AcDbRasterImageDef
  3
ISM
 90
        0
280
         0
281
         0
  0
CLASS
  1
IMAGEDEF_REACTOR
  2
AcDbRasterImageDefReactor
  3
ISM
 90
        1
280
         0
281
         0
  0
CLASS
  1
IDBUFFER
  2
AcDbIdBuffer
  3
"Acad"
 90
        0
280
         0
281
         0
  0
CLASS
  1
SPATIAL_FILTER
  2
AcDbSpatialFilter
  3
"Acad"
 90
        0
280
         0
281
         0
  0
CLASS
  1
XRECORD
  2
AcDbXrecord
  3
"<Built In>"
 90
        0
280
         0
281
         0
  0
CLASS
  1
SORTENTSTABLE
  2
AcDbSortentsTable
  3
"AutoCAD"
 90
        0
280
         0
281
         0
  0
CLASS
  1
LAYER_INDEX
  2
AcDbLayerIndex
  3
"Acad"
 90
        0
280
         0
281
         0
  0
CLASS
  1
SPATIAL_INDEX
  2
AcDbSpatialIndex
  3
"Acad"
 90
        0
280
         0
281
         0
  0
CLASS
  1
OBJECT_PTR
  2
CAseDLPNTableRecord
  3
"ASE-LPNTableRecord"
 90
        1
280
         0
281
         0
  0
CLASS
  1
LAYOUT
  2
AcDbLayout
  3
"AutoCAD 2000"
 90
        1
280
         0
281
         0
  0
CLASS
  1
PLOTSETTINGS
  2
AcDbPlotSettings
  3
"AutoCAD 2000"
 90
        1
280
         0
281
         0
  0
CLASS
  1
ACDBDICTIONARYWDFLT
  2
AcDbDictionaryWithDefault
  3
"AutoCAD 2000"
 90
        1
280
         0
281
         0
  0
CLASS
  1
ACDBPLACEHOLDER
  2
AcDbPlaceHolder
  3
"AutoCAD 2000"
 90
        1
280
         0
281
         0
  0
CLASS
  1
VBA_PROJECT
  2
AcDbVbaProject
  3
"acadvba"
 90
        1
280
         0
281
         0
  0
CLASS
  1
WIPEOUT
  2
AcDbWipeout
  3
WipeOut|AutoCAD Express Tool|expresstools@autodesk.com
 90
      127
280
         0
281
         1
  0
CLASS
  1
WIPEOUTVARIABLES
  2
AcDbWipeoutVariables
  3
WipeOut|AutoCAD Express Tool|expresstools@autodesk.com
 90
        0
280
         0
281
         0
  0
CLASS
  1
RTEXT
  2
RText
  3
RText|AutoCAD Express Tool|expresstools@autodesk.com
 90
        0
280
         0
281
         1
  0
CLASS
  1
ARCALIGNEDTEXT
  2
AcDbArcAlignedText
  3
ATEXT|AutoCAD Express Tool|expresstools@autodesk.com
 90
        0
280
         0
281
         1
  0
ENDSEC
  0
SECTION
  2
TABLES
  0
TABLE
  2
VPORT
  5
7
100
AcDbSymbolTable
 70
         1
  0
VPORT
  5
15
100
AcDbSymbolTableRecord
100
AcDbViewportTableRecord
  2
*ACTIVE
 70
         0
 10
0.0
 20
0.0
 11
1.0
 21
1.0
 12
1421.715534392
 22
-254.2988947049
 13
0.0
 23
0.0
 14
1.0
 24
1.0
 15
0.0
 25
0.0
 16
0.0
 26
0.0
 36
1.0
 17
0.0
 27
0.0
 37
0.0
 40
458.4879373488
 41
2.0484780158
 42
50.0
 43
0.0
 44
0.0
 50
0.0
 51
0.0
 71
         0
 72
       100
 73
         1
 74
         1
 75
         0
 76
         0
 77
         0
 78
         0
  0
ENDTAB
  0
TABLE
  2
LTYPE
  5
4
100
AcDbSymbolTable
 70
         6
  0
LTYPE
  5
11
100
AcDbSymbolTableRecord
100
AcDbLinetypeTableRecord
  2
BYBLOCK
 70
        64
  3

 72
        65
 73
         0
 40
0.0
  0
LTYPE
  5
12
100
AcDbSymbolTableRecord
100
AcDbLinetypeTableRecord
  2
BYLAYER
 70
        64
  3

 72
        65
 73
         0
 40
0.0
  0
LTYPE
  5
13
100
AcDbSymbolTableRecord
100
AcDbLinetypeTableRecord
  2
CONTINUOUS
 70
        64
  3
Solid line
 72
        65
 73
         0
 40
0.0
  0
LTYPE
  5
1D
100
AcDbSymbolTableRecord
100
AcDbLinetypeTableRecord
  2
DASHED
 70
        64
  3
_ _ _ _ _ _ _ _ _ _ _ _ _ _ _ _
 72
        65
 73
         2
 40
0.2
 49
0.1
 74
         0
 49
-0.1
 74
         0
  0
LTYPE
  5
1E
100
AcDbSymbolTableRecord
100
AcDbLinetypeTableRecord
  2
CENTER
 70
        64
  3
___ _ ___ _ ___ _ ___ _ ___ _ ___ _ ___ _ ___ _
 72
        65
 73
         4
 40
0.95
 49
0.625
 74
         0
 49
-0.125
 74
         0
 49
0.075
 74
         0
 49
-0.125
 74
         0
  0
LTYPE
  5
1F
100
AcDbSymbolTableRecord
100
AcDbLinetypeTableRecord
  2
PHANTOM
 70
        64
  3
______  __  __  ______  __  __  ______  __  __  
 72
        65
 73
         6
 40
1.025
 49
0.625
 74
         0
 49
-0.125
 74
         0
 49
0.075
 74
         0
 49
-0.125
 74
         0
 49
0.075
 74
         0
 49
-0.125
 74
         0
  0
ENDTAB
  0
TABLE
  2
LAYER
  5
2
100
AcDbSymbolTable
 70
         6
  0
LAYER
  5
14
100
AcDbSymbolTableRecord
100
AcDbLayerTableRecord
  2
0
 70
         0
 62
         7
  6
CONTINUOUS
  0
LAYER
  5
21
100
AcDbSymbolTableRecord
100
AcDbLayerTableRecord
  2
_____U
 70
         1
 62
         7
  6
CONTINUOUS
  0
LAYER
  5
22
100
AcDbSymbolTableRecord
100
AcDbLayerTableRecord
  2
_____T______
 70
         1
 62
         7
  6
CONTINUOUS
  0
LAYER
  5
23
100
AcDbSymbolTableRecord
100
AcDbLayerTableRecord
  2
______L_______
 70
         1
 62
         7
  6
CONTINUOUS
  0
LAYER
  5
24
100
AcDbSymbolTableRecord
100
AcDbLayerTableRecord
  2
L1_120
 70
         0
 62
         7
  6
CONTINUOUS
  0
LAYER
  5
1B6
100
AcDbSymbolTableRecord
100
AcDbLayerTableRecord
  2
DEFPOINTS
 70
         0
 62
        -7
  6
CONTINUOUS
  0
ENDTAB
  0
TABLE
  2
STYLE
  5
3
100
AcDbSymbolTable
 70
        11
  0
STYLE
  5
17
100
AcDbSymbolTableRecord
100
AcDbTextStyleTableRecord
  2
STANDARD
 70
         0
 40
0.0
 41
1.0
 50
0.0
 71
         0
 42
0.0
  3
txt
  4

  0
STYLE
  5
1BF
100
AcDbSymbolTableRecord
100
AcDbTextStyleTableRecord
  2
BOX
 70
         0
 40
1.0
 41
1.0
 50
0.0
 71
         0
 42
0.2
  3
txt.shx
  4

  0
STYLE
  5
1CD
100
AcDbSymbolTableRecord
100
AcDbTextStyleTableRecord
  2
BOX
 70
         0
 40
1.0
 41
1.0
 50
0.0
 71
         0
 42
0.2
  3
txt.shx
  4

  0
STYLE
  5
1E4
100
AcDbSymbolTableRecord
100
AcDbTextStyleTableRecord
  2
BOX
 70
         0
 40
1.0
 41
1.0
 50
0.0
 71
         0
 42
0.2
  3
txt.shx
  4

  0
STYLE
  5
22C
100
AcDbSymbolTableRecord
100
AcDbTextStyleTableRecord
  2
BOX
 70
         0
 40
1.0
 41
1.0
 50
0.0
 71
         0
 42
0.2
  3
txt.shx
  4

  0
STYLE
  5
23A
100
AcDbSymbolTableRecord
100
AcDbTextStyleTableRecord
  2
BOX
 70
         0
 40
1.0
 41
1.0
 50
0.0
 71
         0
 42
0.2
  3
txt.shx
  4

  0
STYLE
  5
313
100
AcDbSymbolTableRecord
100
AcDbTextStyleTableRecord
  2
BOX
 70
         0
 40
1.0
 41
1.0
 50
0.0
 71
         0
 42
0.2
  3
txt.shx
  4

  0
STYLE
  5
335
100
AcDbSymbolTableRecord
100
AcDbTextStyleTableRecord
  2
BOX
 70
         0
 40
1.0
 41
1.0
 50
0.0
 71
         0
 42
0.2
  3
txt.shx
  4

  0
STYLE
  5
343
100
AcDbSymbolTableRecord
100
AcDbTextStyleTableRecord
  2
BOX
 70
         0
 40
1.0
 41
1.0
 50
0.0
 71
         0
 42
0.2
  3
txt.shx
  4

  0
STYLE
  5
35F
100
AcDbSymbolTableRecord
100
AcDbTextStyleTableRecord
  2
BOX
 70
         0
 40
1.0
 41
1.0
 50
0.0
 71
         0
 42
0.2
  3
txt.shx
  4

  0
STYLE
  5
364
100
AcDbSymbolTableRecord
100
AcDbTextStyleTableRecord
  2
BOX
 70
         0
 40
1.0
 41
1.0
 50
0.0
 71
         0
 42
0.2
  3
txt.shx
  4

  0
ENDTAB
  0
TABLE
  2
VIEW
  5
5
100
AcDbSymbolTable
 70
         0
  0
ENDTAB
  0
TABLE
  2
UCS
  5
6
100
AcDbSymbolTable
 70
         1
  0
UCS
  5
20
100
AcDbSymbolTableRecord
100
AcDbUCSTableRecord
  2
CK_VIEW_1
 70
         0
 10
0.0
 20
0.0
 30
1.0
 11
1.0
 21
0.0
 31
0.0
 12
0.0
 22
1.0
 32
0.0
  0
ENDTAB
  0
TABLE
  2
APPID
  5
8
100
AcDbSymbolTable
 70
         1
  0
APPID
  5
16
100
AcDbSymbolTableRecord
100
AcDbRegAppTableRecord
  2
ACAD
 70
         0
  0
ENDTAB
  0
TABLE
  2
DIMSTYLE
  5
9
100
AcDbSymbolTable
 70
         2
  0
DIMSTYLE
105
18
100
AcDbSymbolTableRecord
100
AcDbDimStyleTableRecord
  2
STANDARD
 70
         0
  3

  4

  5

  6

  7

 40
1.0
 41
0.18
 42
0.0625
 43
0.38
 44
0.18
 45
0.0
 46
0.0
 47
0.0
 48
0.0
 71
         0
 72
         0
 73
         1
 74
         1
 75
         0
 76
         0
 77
         0
 78
         0
140
0.18
141
0.09
142
0.0
143
25.4
144
1.0
145
0.0
146
1.0
147
0.09
170
         0
171
         2
172
         0
173
         0
174
         0
175
         0
176
         0
177
         0
178
         0
270
         2
271
         4
272
         4
273
         2
274
         2
275
         0
280
         0
281
         0
282
         0
283
         1
284
         0
285
         0
286
         0
287
         0
288
         0
340
17
  0
DIMSTYLE
105
1B2
100
AcDbSymbolTableRecord
100
AcDbDimStyleTableRecord
  2
DIMSTYLE1
 70
         0
  3

  4

  5

  6

  7

 40
1.0
 41
3.5
 42
0.0625
 43
0.38
 44
3.5
 45
0.0
 46
0.0
 47
0.0
 48
0.0
 71
         0
 72
         0
 73
         1
 74
         1
 75
         0
 76
         0
 77
         0
 78
         0
140
3.5
141
0.09
142
0.0
143
25.4
144
1.0
145
0.0
146
1.0
147
0.09
170
         0
171
         2
172
         0
173
         0
174
         0
175
         0
176
         0
177
         0
178
         0
270
         2
271
         4
272
         4
273
         2
274
         2
275
         0
280
         0
281
         0
282
         0
283
         1
284
         0
285
         0
286
         0
287
         0
288
         0
340
17
  0
ENDTAB
  0
TABLE
  2
BLOCK_RECORD
  5
1
100
AcDbSymbolTable
 70
        10
  0
BLOCK_RECORD
  5
A
100
AcDbSymbolTableRecord
100
AcDbBlockTableRecord
  2
*MODEL_SPACE
  0
BLOCK_RECORD
  5
B
100
AcDbSymbolTableRecord
100
AcDbBlockTableRecord
  2
*PAPER_SPACE
  0
BLOCK_RECORD
  5
1B3
100
AcDbSymbolTableRecord
100
AcDbBlockTableRecord
  2
*D0
  0
BLOCK_RECORD
  5
1C2
100
AcDbSymbolTableRecord
100
AcDbBlockTableRecord
  2
*D1
  0
BLOCK_RECORD
  5
1D6
100
AcDbSymbolTableRecord
100
AcDbBlockTableRecord
  2
*D2
  0
BLOCK_RECORD
  5
221
100
AcDbSymbolTableRecord
100
AcDbBlockTableRecord
  2
*D3
  0
BLOCK_RECORD
  5
22F
100
AcDbSymbolTableRecord
100
AcDbBlockTableRecord
  2
*D4
  0
BLOCK_RECORD
  5
23D
100
AcDbSymbolTableRecord
100
AcDbBlockTableRecord
  2
*X5
  0
BLOCK_RECORD
  5
308
100
AcDbSymbolTableRecord
100
AcDbBlockTableRecord
  2
*D6
  0
BLOCK_RECORD
  5
328
100
AcDbSymbolTableRecord
100
AcDbBlockTableRecord
  2
*D7
  0
BLOCK_RECORD
  5
338
100
AcDbSymbolTableRecord
100
AcDbBlockTableRecord
  2
*D8
  0
BLOCK_RECORD
  5
352
100
AcDbSymbolTableRecord
100
AcDbBlockTableRecord
  2
*D9
  0
ENDTAB
  0
ENDSEC
  0
SECTION
  2
BLOCKS
  0
BLOCK
  5
D
100
AcDbEntity
  8
0
100
AcDbBlockBegin
  2
*MODEL_SPACE
 70
         0
 10
0.0
 20
0.0
 30
0.0
  3
*MODEL_SPACE
  1

  0
ENDBLK
  5
E
100
AcDbEntity
  8
0
100
AcDbBlockEnd
  0
BLOCK
  5
F
100
AcDbEntity
 67
         1
  8
0
100
AcDbBlockBegin
  2
*PAPER_SPACE
 70
         0
 10
0.0
 20
0.0
 30
0.0
  3
*PAPER_SPACE
  1

  0
ENDBLK
  5
10
100
AcDbEntity
 67
         1
  8
0
100
AcDbBlockEnd
  0
BLOCK
  5
1B4
100
AcDbEntity
  8
0
100
AcDbBlockBegin
  2
*D0
 70
        65
 10
0.0
 20
0.0
 30
0.0
  3
*D0
  1

  0
POINT
  5
1B7
100
AcDbEntity
  8
DEFPOINTS
  6
CONTINUOUS
 62
         0
100
AcDbPoint
 10
1502.6396804633
 20
-197.7742275986
 30
0.0
  0
POINT
  5
1B8
100
AcDbEntity
  8
DEFPOINTS
  6
CONTINUOUS
 62
         0
100
AcDbPoint
 10
1423.6594887089
 20
-197.7742275986
 30
0.0
  0
POINT
  5
1B9
100
AcDbEntity
  8
DEFPOINTS
  6
CONTINUOUS
 62
         0
100
AcDbPoint
 10
1423.6594887089
 20
-250.7782275986
 30
0.0
  0
LINE
  5
1BA
100
AcDbEntity
  8
L1_120
  6
CONTINUOUS
 62
         4
100
AcDbLine
 10
1425.4094887089
 20
-197.7742275986
 30
0.0
 11
1503.5146804633
 21
-197.7742275986
 31
0.0
  0
LINE
  5
1BB
100
AcDbEntity
  8
L1_120
  6
CONTINUOUS
 62
         4
100
AcDbLine
 10
1425.4094887089
 20
-250.7782275986
 30
0.0
 11
1503.5146804633
 21
-250.7782275986
 31
0.0
  0
LINE
  5
1BC
100
AcDbEntity
  8
L1_120
  6
CONTINUOUS
 62
         4
100
AcDbLine
 10
1502.6396804633
 20
-197.7742275986
 30
0.0
 11
1502.6396804633
 21
-250.7782275986
 31
0.0
  0
SOLID
  5
1BD
100
AcDbEntity
  8
L1_120
  6
CONTINUOUS
 62
         4
100
AcDbTrace
 10
1502.6396804633
 20
-197.7742275986
 30
0.0
 11
1503.1646804633
 21
-201.2742275986
 31
0.0
 12
1502.1146804633
 22
-201.2742275986
 32
0.0
 13
1502.6396804633
 23
-197.7742275986
 33
0.0
  0
SOLID
  5
1BE
100
AcDbEntity
  8
L1_120
  6
CONTINUOUS
 62
         4
100
AcDbTrace
 10
1502.6396804633
 20
-250.7782275986
 30
0.0
 11
1502.1146804633
 21
-247.2782275986
 31
0.0
 12
1503.1646804633
 22
-247.2782275986
 32
0.0
 13
1502.6396804633
 23
-250.7782275986
 33
0.0
  0
TEXT
  5
1C0
100
AcDbEntity
  8
L1_120
  6
CONTINUOUS
 62
         4
100
AcDbText
 10
1500.0146804633
 20
-233.6847069419
 30
0.0
 40
3.5
  1
崷53
 50
90.0
  7
BOX
100
AcDbText
  0
ENDBLK
  5
1C1
100
AcDbEntity
  8
0
  6
CONTINUOUS
100
AcDbBlockEnd
  0
BLOCK
  5
1C3
100
AcDbEntity
  8
0
100
AcDbBlockBegin
  2
*D1
 70
        65
 10
0.0
 20
0.0
 30
0.0
  3
*D1
  1

  0
POINT
  5
1C5
100
AcDbEntity
  8
DEFPOINTS
  6
CONTINUOUS
 62
         0
100
AcDbPoint
 10
1490.4765673485
 20
-201.8382275986
 30
0.0
  0
POINT
  5
1C6
100
AcDbEntity
  8
DEFPOINTS
  6
CONTINUOUS
 62
         0
100
AcDbPoint
 10
1470.2175047567
 20
-201.8382275986
 30
0.0
  0
POINT
  5
1C7
100
AcDbEntity
  8
DEFPOINTS
  6
CONTINUOUS
 62
         0
100
AcDbPoint
 10
1470.2175047567
 20
-246.7142275986
 30
0.0
  0
LINE
  5
1C8
100
AcDbEntity
  8
L1_120
  6
CONTINUOUS
 62
         4
100
AcDbLine
 10
1471.9675047567
 20
-201.8382275986
 30
0.0
 11
1491.3515673485
 21
-201.8382275986
 31
0.0
  0
LINE
  5
1C9
100
AcDbEntity
  8
L1_120
  6
CONTINUOUS
 62
         4
100
AcDbLine
 10
1471.9675047567
 20
-246.7142275986
 30
0.0
 11
1491.3515673485
 21
-246.7142275986
 31
0.0
  0
LINE
  5
1CA
100
AcDbEntity
  8
L1_120
  6
CONTINUOUS
 62
         4
100
AcDbLine
 10
1490.4765673485
 20
-201.8382275986
 30
0.0
 11
1490.4765673485
 21
-246.7142275986
 31
0.0
  0
SOLID
  5
1CB
100
AcDbEntity
  8
L1_120
  6
CONTINUOUS
 62
         4
100
AcDbTrace
 10
1490.4765673485
 20
-201.8382275986
 30
0.0
 11
1491.0015673485
 21
-205.3382275986
 31
0.0
 12
1489.9515673485
 22
-205.3382275986
 32
0.0
 13
1490.4765673485
 23
-201.8382275986
 33
0.0
  0
SOLID
  5
1CC
100
AcDbEntity
  8
L1_120
  6
CONTINUOUS
 62
         4
100
AcDbTrace
 10
1490.4765673485
 20
-246.7142275986
 30
0.0
 11
1489.9515673485
 21
-243.2142275986
 31
0.0
 12
1491.0015673485
 22
-243.2142275986
 32
0.0
 13
1490.4765673485
 23
-246.7142275986
 33
0.0
  0
TEXT
  5
1CE
100
AcDbEntity
  8
L1_120
  6
CONTINUOUS
 62
         4
100
AcDbText
 10
1487.8515673485
 20
-231.0126833624
 30
0.0
 40
3.5
  1
崷44
 50
90.0
  7
BOX
100
AcDbText
  0
ENDBLK
  5
1CF
100
AcDbEntity
  8
0
  6
CONTINUOUS
100
AcDbBlockEnd
  0
BLOCK
  5
1D7
100
AcDbEntity
  8
0
100
AcDbBlockBegin
  2
*D2
 70
        65
 10
0.0
 20
0.0
 30
0.0
  3
*D2
  1

  0
POINT
  5
1D9
100
AcDbEntity
  8
DEFPOINTS
  6
CONTINUOUS
 62
         0
100
AcDbPoint
 10
1412.3075047567
 20
-197.7741361177
 30
0.0
  0
POINT
  5
1DA
100
AcDbEntity
  8
DEFPOINTS
  6
CONTINUOUS
 62
         0
100
AcDbPoint
 10
1413.0130086592
 20
-197.7741361177
 30
0.0
  0
POINT
  5
1DB
100
AcDbEntity
  8
DEFPOINTS
  6
CONTINUOUS
 62
         0
100
AcDbPoint
 10
1413.0130086592
 20
-197.7741361177
 30
0.0
  0
POINT
  5
1DC
100
AcDbEntity
  8
DEFPOINTS
  6
CONTINUOUS
 62
         0
100
AcDbPoint
 10
1469.2959638525
 20
-202.2037007566
 30
0.0
  0
LINE
  5
1DD
100
AcDbEntity
  8
L1_120
  6
CONTINUOUS
 62
         4
100
AcDbLine
 10
1414.7630086592
 20
-197.7741361177
 30
0.0
 11
1442.800971096
 21
-197.7741361177
 31
0.0
  0
ARC
  5
1DE
100
AcDbEntity
  8
L1_120
  6
CONTINUOUS
 62
         4
100
AcDbCircle
 10
1413.0130086592
 20
-197.7741361177
 30
0.0
 40
28.9129624367
100
AcDbArc
 50
341.6283513418
 51
355.5
  0
SOLID
  5
1DF
100
AcDbEntity
  8
L1_120
  6
CONTINUOUS
 62
         4
100
AcDbTrace
 10
1441.836842082
 20
-200.0426210053
 30
0.0
 11
1441.8717397004
 21
-203.5816049211
 31
0.0
 12
1440.8318711747
 22
-203.4360939278
 32
0.0
 13
1441.836842082
 23
-200.0426210053
 33
0.0
  0
ARC
  5
1E0
100
AcDbEntity
  8
L1_120
  6
CONTINUOUS
 62
         4
100
AcDbCircle
 10
1413.0130086592
 20
-197.7741361177
 30
0.0
 40
28.9129624367
100
AcDbArc
 50
0.0
 51
3.4576434217
  0
SOLID
  5
1E1
100
AcDbEntity
  8
L1_120
  6
CONTINUOUS
 62
         4
100
AcDbTrace
 10
1441.925971096
 20
-197.7741361177
 30
0.0
 11
1441.1903469955
 21
-194.3122750311
 31
0.0
 12
1442.2384266145
 22
-194.2487997438
 32
0.0
 13
1441.925971096
 23
-197.7741361177
 33
0.0
  0
ARC
  5
1E2
100
AcDbEntity
  8
L1_120
  6
CONTINUOUS
 62
         4
100
AcDbCircle
 10
1413.0130086592
 20
-197.7741361177
 30
0.0
 40
28.9129624367
100
AcDbArc
 50
355.5
 51
360.0
  0
SOLID
  5
1E3
100
AcDbEntity
  8
L1_120
  6
CONTINUOUS
 62
         4
100
AcDbTrace
 10
1413.0130086592
 20
-197.7741361177
 30
0.0
 11
1414.4049112697
 21
-194.5201797377
 31
0.0
 12
1415.2983599705
 22
-195.071767826
 32
0.0
 13
1413.0130086592
 23
-197.7741361177
 33
0.0
  0
TEXT
  5
1E5
100
AcDbEntity
  8
L1_120
  6
CONTINUOUS
 62
         4
100
AcDbText
 10
1443.6233395734
 20
-192.8453768476
 30
0.0
 40
3.5
  1
4.5%%d
  7
BOX
100
AcDbText
  0
ENDBLK
  5
1E6
100
AcDbEntity
  8
0
  6
CONTINUOUS
100
AcDbBlockEnd
  0
BLOCK
  5
222
100
AcDbEntity
  8
0
100
AcDbBlockBegin
  2
*D3
 70
        65
 10
0.0
 20
0.0
 30
0.0
  3
*D3
  1

  0
POINT
  5
224
100
AcDbEntity
  8
DEFPOINTS
  6
CONTINUOUS
 62
         0
100
AcDbPoint
 10
1350.3275047567
 20
-169.652778253
 30
0.0
  0
POINT
  5
225
100
AcDbEntity
  8
DEFPOINTS
  6
CONTINUOUS
 62
         0
100
AcDbPoint
 10
1350.3275047567
 20
-194.2761702895
 30
0.0
  0
POINT
  5
226
100
AcDbEntity
  8
DEFPOINTS
  6
CONTINUOUS
 62
         0
100
AcDbPoint
 10
1470.2175047567
 20
-214.1870085819
 30
0.0
  0
LINE
  5
227
100
AcDbEntity
  8
L1_120
  6
CONTINUOUS
 62
         4
100
AcDbLine
 10
1350.3275047567
 20
-192.5261702895
 30
0.0
 11
1350.3275047567
 21
-168.777778253
 31
0.0
  0
LINE
  5
228
100
AcDbEntity
  8
L1_120
  6
CONTINUOUS
 62
         4
100
AcDbLine
 10
1470.2175047567
 20
-212.4370085819
 30
0.0
 11
1470.2175047567
 21
-168.777778253
 31
0.0
  0
LINE
  5
229
100
AcDbEntity
  8
L1_120
  6
CONTINUOUS
 62
         4
100
AcDbLine
 10
1350.3275047567
 20
-169.652778253
 30
0.0
 11
1470.2175047567
 21
-169.652778253
 31
0.0
  0
SOLID
  5
22A
100
AcDbEntity
  8
L1_120
  6
CONTINUOUS
 62
         4
100
AcDbTrace
 10
1350.3275047567
 20
-169.652778253
 30
0.0
 11
1353.8275047567
 21
-169.127778253
 31
0.0
 12
1353.8275047567
 22
-170.177778253
 32
0.0
 13
1350.3275047567
 23
-169.652778253
 33
0.0
  0
SOLID
  5
22B
100
AcDbEntity
  8
L1_120
  6
CONTINUOUS
 62
         4
100
AcDbTrace
 10
1470.2175047567
 20
-169.652778253
 30
0.0
 11
1466.7175047567
 21
-170.177778253
 31
0.0
 12
1466.7175047567
 22
-169.127778253
 32
0.0
 13
1470.2175047567
 23
-169.652778253
 33
0.0
  0
TEXT
  5
22D
100
AcDbEntity
  8
L1_120
  6
CONTINUOUS
 62
         4
100
AcDbText
 10
1407.0790585882
 20
-167.027778253
 30
0.0
 40
3.5
  1
120
  7
BOX
100
AcDbText
  0
ENDBLK
  5
22E
100
AcDbEntity
  8
0
  6
CONTINUOUS
100
AcDbBlockEnd
  0
BLOCK
  5
230
100
AcDbEntity
  8
0
100
AcDbBlockBegin
  2
*D4
 70
        65
 10
0.0
 20
0.0
 30
0.0
  3
*D4
  1

  0
POINT
  5
232
100
AcDbEntity
  8
DEFPOINTS
  6
CONTINUOUS
 62
         0
100
AcDbPoint
 10
1318.3275047567
 20
-154.897069585
 30
0.0
  0
POINT
  5
233
100
AcDbEntity
  8
DEFPOINTS
  6
CONTINUOUS
 62
         0
100
AcDbPoint
 10
1318.3275047567
 20
-202.7026693532
 30
0.0
  0
POINT
  5
234
100
AcDbEntity
  8
DEFPOINTS
  6
CONTINUOUS
 62
         0
100
AcDbPoint
 10
1470.2175047567
 20
-214.1870085819
 30
0.0
  0
LINE
  5
235
100
AcDbEntity
  8
L1_120
  6
CONTINUOUS
 62
         4
100
AcDbLine
 10
1318.3275047567
 20
-200.9526693532
 30
0.0
 11
1318.3275047567
 21
-154.022069585
 31
0.0
  0
LINE
  5
236
100
AcDbEntity
  8
L1_120
  6
CONTINUOUS
 62
         4
100
AcDbLine
 10
1470.2175047567
 20
-212.4370085819
 30
0.0
 11
1470.2175047567
 21
-154.022069585
 31
0.0
  0
LINE
  5
237
100
AcDbEntity
  8
L1_120
  6
CONTINUOUS
 62
         4
100
AcDbLine
 10
1318.3275047567
 20
-154.897069585
 30
0.0
 11
1470.2175047567
 21
-154.897069585
 31
0.0
  0
SOLID
  5
238
100
AcDbEntity
  8
L1_120
  6
CONTINUOUS
 62
         4
100
AcDbTrace
 10
1318.3275047567
 20
-154.897069585
 30
0.0
 11
1321.8275047567
 21
-154.372069585
 31
0.0
 12
1321.8275047567
 22
-155.422069585
 32
0.0
 13
1318.3275047567
 23
-154.897069585
 33
0.0
  0
SOLID
  5
239
100
AcDbEntity
  8
L1_120
  6
CONTINUOUS
 62
         4
100
AcDbTrace
 10
1470.2175047567
 20
-154.897069585
 30
0.0
 11
1466.7175047567
 21
-155.422069585
 31
0.0
 12
1466.7175047567
 22
-154.372069585
 32
0.0
 13
1470.2175047567
 23
-154.897069585
 33
0.0
  0
TEXT
  5
23B
100
AcDbEntity
  8
L1_120
  6
CONTINUOUS
 62
         4
100
AcDbText
 10
1388.7980431411
 20
-152.272069585
 30
0.0
 40
3.5
  1
151.89
  7
BOX
100
AcDbText
  0
ENDBLK
  5
23C
100
AcDbEntity
  8
0
  6
CONTINUOUS
100
AcDbBlockEnd
  0
BLOCK
  5
23E
100
AcDbEntity
  8
0
100
AcDbBlockBegin
  2
*X5
 70
        65
 10
0.0
 20
0.0
 30
0.0
  3
*X5
  1

  0
LINE
  5
23F
100
AcDbEntity
  8
L1_120
  6
CONTINUOUS
 62
         4
100
AcDbLine
 10
1466.8465032926
 20
-360.4339255747
 30
0.0
 11
1470.2175047567
 21
-357.0629241106
 31
0.0
  0
LINE
  5
240
100
AcDbEntity
  8
L1_120
  6
CONTINUOUS
 62
         4
100
AcDbLine
 10
1462.2414359452
 20
-360.796352235
 30
0.0
 11
1469.0066661744
 21
-354.0311220058
 31
0.0
  0
LINE
  5
241
100
AcDbEntity
  8
L1_120
  6
CONTINUOUS
 62
         4
100
AcDbLine
 10
1457.6363685978
 20
-361.1587788953
 30
0.0
 11
1464.7640254873
 21
-354.0311220058
 31
0.0
  0
LINE
  5
242
100
AcDbEntity
  8
L1_120
  6
CONTINUOUS
 62
         4
100
AcDbLine
 10
1453.0313012504
 20
-361.5212055556
 30
0.0
 11
1460.5213848002
 21
-354.0311220058
 31
0.0
  0
LINE
  5
243
100
AcDbEntity
  8
L1_120
  6
CONTINUOUS
 62
         4
100
AcDbLine
 10
1448.426233903
 20
-361.8836322158
 30
0.0
 11
1456.278744113
 21
-354.0311220058
 31
0.0
  0
LINE
  5
244
100
AcDbEntity
  8
L1_120
  6
CONTINUOUS
 62
         4
100
AcDbLine
 10
1443.8211665556
 20
-362.2460588761
 30
0.0
 11
1452.0361034259
 21
-354.0311220058
 31
0.0
  0
LINE
  5
245
100
AcDbEntity
  8
L1_120
  6
CONTINUOUS
 62
         4
100
AcDbLine
 10
1439.2160992082
 20
-362.6084855364
 30
0.0
 11
1447.7934627388
 21
-354.0311220058
 31
0.0
  0
LINE
  5
246
100
AcDbEntity
  8
L1_120
  6
CONTINUOUS
 62
         4
100
AcDbLine
 10
1434.6110318608
 20
-362.9709121967
 30
0.0
 11
1443.5508220517
 21
-354.0311220058
 31
0.0
  0
LINE
  5
247
100
AcDbEntity
  8
L1_120
  6
CONTINUOUS
 62
         4
100
AcDbLine
 10
1430.0059645134
 20
-363.333338857
 30
0.0
 11
1439.3081813646
 21
-354.0311220058
 31
0.0
  0
LINE
  5
248
100
AcDbEntity
  8
L1_120
  6
CONTINUOUS
 62
         4
100
AcDbLine
 10
1425.400897166
 20
-363.6957655172
 30
0.0
 11
1435.0655406775
 21
-354.0311220058
 31
0.0
  0
LINE
  5
249
100
AcDbEntity
  8
L1_120
  6
CONTINUOUS
 62
         4
100
AcDbLine
 10
1466.7905406775
 20
-322.3061220058
 30
0.0
 11
1470.2175047567
 21
-318.8791579265
 31
0.0
  0
LINE
  5
24A
100
AcDbEntity
  8
L1_120
  6
CONTINUOUS
 62
         4
100
AcDbLine
 10
1420.7958298186
 20
-364.0581921775
 30
0.0
 11
1430.8228999903
 21
-354.0311220058
 31
0.0
  0
LINE
  5
24B
100
AcDbEntity
  8
L1_120
  6
CONTINUOUS
 62
         4
100
AcDbLine
 10
1462.5478999903
 20
-322.3061220058
 30
0.0
 11
1468.797181829
 21
-316.0568401671
 31
0.0
  0
LINE
  5
24C
100
AcDbEntity
  8
L1_120
  6
CONTINUOUS
 62
         4
100
AcDbLine
 10
1416.1907624712
 20
-364.4206188378
 30
0.0
 11
1426.5802593032
 21
-354.0311220058
 31
0.0
  0
LINE
  5
24D
100
AcDbEntity
  8
L1_120
  6
CONTINUOUS
 62
         4
100
AcDbLine
 10
1458.3052593032
 20
-322.3061220058
 30
0.0
 11
1464.8640827523
 21
-315.7472985567
 31
0.0
  0
LINE
  5
24E
100
AcDbEntity
  8
L1_120
  6
CONTINUOUS
 62
         4
100
AcDbLine
 10
1411.6982674062
 20
-364.6704732157
 30
0.0
 11
1422.3376186161
 21
-354.0311220058
 31
0.0
  0
LINE
  5
24F
100
AcDbEntity
  8
L1_120
  6
CONTINUOUS
 62
         4
100
AcDbLine
 10
1454.0626186161
 20
-322.3061220058
 30
0.0
 11
1460.9309836756
 21
-315.4377569462
 31
0.0
  0
LINE
  5
250
100
AcDbEntity
  8
L1_120
  6
CONTINUOUS
 62
         4
100
AcDbLine
 10
1407.455626719
 20
-364.6704732157
 30
0.0
 11
1417.457477929
 21
-354.6686220058
 31
0.0
  0
LINE
  5
251
100
AcDbEntity
  8
L1_120
  6
CONTINUOUS
 62
         4
100
AcDbLine
 10
1449.819977929
 20
-322.3061220058
 30
0.0
 11
1456.997884599
 21
-315.1282153358
 31
0.0
  0
LINE
  5
252
100
AcDbEntity
  8
L1_120
  6
CONTINUOUS
 62
         4
100
AcDbLine
 10
1403.2129860319
 20
-364.6704732157
 30
0.0
 11
1413.2148372419
 21
-354.6686220058
 31
0.0
  0
LINE
  5
253
100
AcDbEntity
  8
L1_120
  6
CONTINUOUS
 62
         4
100
AcDbLine
 10
1445.5773372419
 20
-322.3061220058
 30
0.0
 11
1453.0647855223
 21
-314.8186737253
 31
0.0
  0
LINE
  5
254
100
AcDbEntity
  8
L1_120
  6
CONTINUOUS
 62
         4
100
AcDbLine
 10
1398.9703453448
 20
-364.6704732157
 30
0.0
 11
1408.9721965547
 21
-354.6686220058
 31
0.0
  0
LINE
  5
255
100
AcDbEntity
  8
L1_120
  6
CONTINUOUS
 62
         4
100
AcDbLine
 10
1441.3346965547
 20
-322.3061220058
 30
0.0
 11
1449.1316864456
 21
-314.5091321149
 31
0.0
  0
LINE
  5
256
100
AcDbEntity
  8
L1_120
  6
CONTINUOUS
 62
         4
100
AcDbLine
 10
1394.7277046577
 20
-364.6704732157
 30
0.0
 11
1408.2175047567
 21
-351.1806731167
 31
0.0
  0
LINE
  5
257
100
AcDbEntity
  8
L1_120
  6
CONTINUOUS
 62
         4
100
AcDbLine
 10
1437.0920558676
 20
-322.3061220058
 30
0.0
 11
1445.1985873689
 21
-314.1995905044
 31
0.0
  0
LINE
  5
258
100
AcDbEntity
  8
L1_120
  6
CONTINUOUS
 62
         4
100
AcDbLine
 10
1390.4850639706
 20
-364.6704732157
 30
0.0
 11
1408.2175047567
 21
-346.9380324295
 31
0.0
  0
LINE
  5
259
100
AcDbEntity
  8
L1_120
  6
CONTINUOUS
 62
         4
100
AcDbLine
 10
1432.8494151805
 20
-322.3061220058
 30
0.0
 11
1441.2654882923
 21
-313.890048894
 31
0.0
  0
LINE
  5
25A
100
AcDbEntity
  8
L1_120
  6
CONTINUOUS
 62
         4
100
AcDbLine
 10
1386.5349142291
 20
-364.3779822701
 30
0.0
 11
1405.2442744934
 21
-345.6686220058
 31
0.0
  0
LINE
  5
25B
100
AcDbEntity
  8
L1_120
  6
CONTINUOUS
 62
         4
100
AcDbLine
 10
1428.6067744934
 20
-322.3061220058
 30
0.0
 11
1437.3323892156
 21
-313.5805072836
 31
0.0
  0
LINE
  5
25C
100
AcDbEntity
  8
L1_120
  6
CONTINUOUS
 62
         4
100
AcDbLine
 10
1386.5349142291
 20
-360.135341583
 30
0.0
 11
1401.0016338063
 21
-345.6686220058
 31
0.0
  0
LINE
  5
25D
100
AcDbEntity
  8
L1_120
  6
CONTINUOUS
 62
         4
100
AcDbLine
 10
1424.3641338063
 20
-322.3061220058
 30
0.0
 11
1433.3992901389
 21
-313.2709656731
 31
0.0
  0
LINE
  5
25E
100
AcDbEntity
  8
L1_120
  6
CONTINUOUS
 62
         4
100
AcDbLine
 10
1372.7589931192
 20
-369.6686220057
 30
0.0
 11
1381.3449142291
 21
-361.0827008958
 31
0.0
  0
LINE
  5
25F
100
AcDbEntity
  8
L1_120
  6
CONTINUOUS
 62
         4
100
AcDbLine
 10
1385.4077937438
 20
-357.0198213811
 30
0.0
 11
1396.7589931191
 21
-345.6686220058
 31
0.0
  0
LINE
  5
260
100
AcDbEntity
  8
L1_120
  6
CONTINUOUS
 62
         4
100
AcDbLine
 10
1420.1214931191
 20
-322.3061220058
 30
0.0
 11
1429.4661910622
 21
-312.9614240627
 31
0.0
  0
LINE
  5
261
100
AcDbEntity
  8
L1_120
  6
CONTINUOUS
 62
         4
100
AcDbLine
 10
1370.5378764155
 20
-367.6470980223
 30
0.0
 11
1392.516352432
 21
-345.6686220058
 31
0.0
  0
LINE
  5
262
100
AcDbEntity
  8
L1_120
  6
CONTINUOUS
 62
         4
100
AcDbLine
 10
1407.516352432
 20
-330.6686220058
 30
0.0
 11
1408.2175047567
 21
-329.9674696811
 31
0.0
  0
LINE
  5
263
100
AcDbEntity
  8
L1_120
  6
CONTINUOUS
 62
         4
100
AcDbLine
 10
1416.516352432
 20
-321.6686220058
 30
0.0
 11
1425.5330919856
 21
-312.6518824522
 31
0.0
  0
LINE
  5
264
100
AcDbEntity
  8
L1_120
  6
CONTINUOUS
 62
         4
100
AcDbLine
 10
1364.273711745
 20
-369.6686220057
 30
0.0
 11
1365.8738403803
 21
-368.0684933703
 31
0.0
  0
LINE
  5
265
100
AcDbEntity
  8
L1_120
  6
CONTINUOUS
 62
         4
100
AcDbLine
 10
1368.273711745
 20
-365.6686220057
 30
0.0
 11
1388.2737117449
 21
-345.6686220058
 31
0.0
  0
LINE
  5
266
100
AcDbEntity
  8
L1_120
  6
CONTINUOUS
 62
         4
100
AcDbLine
 10
1403.2737117449
 20
-330.6686220058
 30
0.0
 11
1408.2175047567
 21
-325.7248289939
 31
0.0
  0
LINE
  5
267
100
AcDbEntity
  8
L1_120
  6
CONTINUOUS
 62
         4
100
AcDbLine
 10
1412.2737117449
 20
-321.6686220058
 30
0.0
 11
1421.5999929089
 21
-312.3423408418
 31
0.0
  0
LINE
  5
268
100
AcDbEntity
  8
L1_120
  6
CONTINUOUS
 62
         4
100
AcDbLine
 10
1360.0310710578
 20
-369.6686220057
 30
0.0
 11
1384.0310710578
 21
-345.6686220058
 31
0.0
  0
LINE
  5
269
100
AcDbEntity
  8
L1_120
  6
CONTINUOUS
 62
         4
100
AcDbLine
 10
1399.0310710578
 20
-330.6686220058
 30
0.0
 11
1417.6668938322
 21
-312.0327992313
 31
0.0
  0
LINE
  5
26A
100
AcDbEntity
  8
L1_120
  6
CONTINUOUS
 62
         4
100
AcDbLine
 10
1355.7884303707
 20
-369.6686220057
 30
0.0
 11
1379.7884303707
 21
-345.6686220058
 31
0.0
  0
LINE
  5
26B
100
AcDbEntity
  8
L1_120
  6
CONTINUOUS
 62
         4
100
AcDbLine
 10
1394.7884303707
 20
-330.6686220058
 30
0.0
 11
1413.7337947555
 21
-311.7232576209
 31
0.0
  0
LINE
  5
26C
100
AcDbEntity
  8
L1_120
  6
CONTINUOUS
 62
         4
100
AcDbLine
 10
1351.5457896836
 20
-369.6686220057
 30
0.0
 11
1376.6884914984
 21
-344.5259201909
 31
0.0
  0
LINE
  5
26D
100
AcDbEntity
  8
L1_120
  6
CONTINUOUS
 62
         4
100
AcDbLine
 10
1390.5457896835
 20
-330.6686220058
 30
0.0
 11
1409.5479384736
 21
-311.6664732157
 31
0.0
  0
LINE
  5
26E
100
AcDbEntity
  8
L1_120
  6
CONTINUOUS
 62
         4
100
AcDbLine
 10
1350.3275047567
 20
-366.6442662455
 30
0.0
 11
1369.3275047567
 21
-347.6442662455
 31
0.0
  0
LINE
  5
26F
100
AcDbEntity
  8
L1_120
  6
CONTINUOUS
 62
         4
100
AcDbLine
 10
1372.3275047567
 20
-344.6442662455
 30
0.0
 11
1374.8031489964
 21
-342.1686220058
 31
0.0
  0
LINE
  5
270
100
AcDbEntity
  8
L1_120
  6
CONTINUOUS
 62
         4
100
AcDbLine
 10
1386.3031489964
 20
-330.6686220058
 30
0.0
 11
1405.3052977865
 21
-311.6664732157
 31
0.0
  0
LINE
  5
271
100
AcDbEntity
  8
L1_120
  6
CONTINUOUS
 62
         4
100
AcDbLine
 10
1350.3066479264
 20
-362.4224823887
 30
0.0
 11
1357.5605083094
 21
-355.1686220057
 31
0.0
  0
LINE
  5
272
100
AcDbEntity
  8
L1_120
  6
CONTINUOUS
 62
         4
100
AcDbLine
 10
1360.3275047567
 20
-352.4016255584
 30
0.0
 11
1366.0605083094
 21
-346.6686220057
 31
0.0
  0
LINE
  5
273
100
AcDbEntity
  8
L1_120
  6
CONTINUOUS
 62
         4
100
AcDbLine
 10
1382.0605083093
 20
-330.6686220058
 30
0.0
 11
1401.0626570994
 21
-311.6664732157
 31
0.0
  0
LINE
  5
274
100
AcDbEntity
  8
L1_120
  6
CONTINUOUS
 62
         4
100
AcDbLine
 10
1346.2088027239
 20
-362.2776869041
 30
0.0
 11
1353.3178676222
 21
-355.1686220057
 31
0.0
  0
LINE
  5
275
100
AcDbEntity
  8
L1_120
  6
CONTINUOUS
 62
         4
100
AcDbLine
 10
1360.3275047567
 20
-348.1589848712
 30
0.0
 11
1361.4877157536
 21
-346.9987738744
 31
0.0
  0
LINE
  5
276
100
AcDbEntity
  8
L1_120
  6
CONTINUOUS
 62
         4
100
AcDbLine
 10
1374.3178676222
 20
-334.1686220058
 30
0.0
 11
1376.7066947311
 21
-331.7797948969
 31
0.0
  0
LINE
  5
277
100
AcDbEntity
  8
L1_120
  6
CONTINUOUS
 62
         4
100
AcDbLine
 10
1377.8178676222
 20
-330.6686220058
 30
0.0
 11
1396.8200164123
 21
-311.6664732157
 31
0.0
  0
LINE
  5
278
100
AcDbEntity
  8
L1_120
  6
CONTINUOUS
 62
         4
100
AcDbLine
 10
1342.1681925457
 20
-362.0756563952
 30
0.0
 11
1346.4262481657
 21
-357.8176007752
 31
0.0
  0
LINE
  5
279
100
AcDbEntity
  8
L1_120
  6
CONTINUOUS
 62
         4
100
AcDbLine
 10
1372.3275047567
 20
-331.9163441841
 30
0.0
 11
1384.2691373575
 21
-319.9747115834
 31
0.0
  0
LINE
  5
27A
100
AcDbEntity
  8
L1_120
  6
CONTINUOUS
 62
         4
100
AcDbLine
 10
1386.5349142291
 20
-317.7089347118
 30
0.0
 11
1392.5773757251
 21
-311.6664732157
 31
0.0
  0
LINE
  5
27B
100
AcDbEntity
  8
L1_120
  6
CONTINUOUS
 62
         4
100
AcDbLine
 10
1338.1275823675
 20
-361.8736258863
 30
0.0
 11
1341.832586248
 21
-358.1686220057
 31
0.0
  0
LINE
  5
27C
100
AcDbEntity
  8
L1_120
  6
CONTINUOUS
 62
         4
100
AcDbLine
 10
1371.332586248
 20
-328.6686220057
 30
0.0
 11
1381.3449142291
 21
-318.6562940246
 31
0.0
  0
LINE
  5
27D
100
AcDbEntity
  8
L1_120
  6
CONTINUOUS
 62
         4
100
AcDbLine
 10
1386.5349142291
 20
-313.4662940246
 30
0.0
 11
1388.334735038
 21
-311.6664732157
 31
0.0
  0
LINE
  5
27E
100
AcDbEntity
  8
L1_120
  6
CONTINUOUS
 62
         4
100
AcDbLine
 10
1334.0869721893
 20
-361.6715953773
 30
0.0
 11
1337.5899455609
 21
-358.1686220057
 31
0.0
  0
LINE
  5
27F
100
AcDbEntity
  8
L1_120
  6
CONTINUOUS
 62
         4
100
AcDbLine
 10
1366.0899455609
 20
-329.6686220057
 30
0.0
 11
1381.3449142291
 21
-314.4136533375
 31
0.0
  0
LINE
  5
280
100
AcDbEntity
  8
L1_120
  6
CONTINUOUS
 62
         4
100
AcDbLine
 10
1330.046362011
 20
-361.4695648684
 30
0.0
 11
1333.3502785183
 21
-358.1656483612
 31
0.0
  0
LINE
  5
281
100
AcDbEntity
  8
L1_120
  6
CONTINUOUS
 62
         4
100
AcDbLine
 10
1361.9249940185
 20
-329.590932861
 30
0.0
 11
1379.8494536638
 21
-311.6664732157
 31
0.0
  0
LINE
  5
282
100
AcDbEntity
  8
L1_120
  6
CONTINUOUS
 62
         4
100
AcDbLine
 10
1326.0057518328
 20
-361.2675343595
 30
0.0
 11
1331.6144846439
 21
-355.6588015485
 31
0.0
  0
LINE
  5
283
100
AcDbEntity
  8
L1_120
  6
CONTINUOUS
 62
         4
100
AcDbLine
 10
1360.3275047567
 20
-326.9457814356
 30
0.0
 11
1376.8766682928
 21
-310.3966178996
 31
0.0
  0
LINE
  5
284
100
AcDbEntity
  8
L1_120
  6
CONTINUOUS
 62
         4
100
AcDbLine
 10
1321.9651416546
 20
-361.0655038506
 30
0.0
 11
1327.8620234995
 21
-355.1686220057
 31
0.0
  0
LINE
  5
285
100
AcDbEntity
  8
L1_120
  6
CONTINUOUS
 62
         4
100
AcDbLine
 10
1360.3275047567
 20
-322.7031407485
 30
0.0
 11
1376.0516602408
 21
-306.9789852645
 31
0.0
  0
LINE
  5
286
100
AcDbEntity
  8
L1_120
  6
CONTINUOUS
 62
         4
100
AcDbLine
 10
1318.4730534389
 20
-360.3149513792
 30
0.0
 11
1323.6193828124
 21
-355.1686220057
 31
0.0
  0
LINE
  5
287
100
AcDbEntity
  8
L1_120
  6
CONTINUOUS
 62
         4
100
AcDbLine
 10
1357.6193828124
 20
-321.1686220057
 30
0.0
 11
1368.1193828124
 21
-310.6686220057
 31
0.0
  0
LINE
  5
288
100
AcDbEntity
  8
L1_120
  6
CONTINUOUS
 62
         4
100
AcDbLine
 10
1371.1389516168
 20
-307.6490532014
 30
0.0
 11
1372.1193828124
 21
-306.6686220057
 31
0.0
  0
LINE
  5
289
100
AcDbEntity
  8
L1_120
  6
CONTINUOUS
 62
         4
100
AcDbLine
 10
1318.3275047567
 20
-356.2178593743
 30
0.0
 11
1319.3767421253
 21
-355.1686220057
 31
0.0
  0
LINE
  5
28A
100
AcDbEntity
  8
L1_120
  6
CONTINUOUS
 62
         4
100
AcDbLine
 10
1353.3767421253
 20
-321.1686220057
 30
0.0
 11
1366.0212655704
 21
-308.5240985606
 31
0.0
  0
LINE
  5
28B
100
AcDbEntity
  8
L1_120
  6
CONTINUOUS
 62
         4
100
AcDbLine
 10
1349.7650995247
 20
-320.5376239191
 30
0.0
 11
1359.0341014382
 21
-311.2686220057
 31
0.0
  0
LINE
  5
28C
100
AcDbEntity
  8
L1_120
  6
CONTINUOUS
 62
         4
100
AcDbLine
 10
1362.3275047567
 20
-307.9752186872
 30
0.0
 11
1363.6341014382
 21
-306.6686220057
 31
0.0
  0
LINE
  5
28D
100
AcDbEntity
  8
L1_120
  6
CONTINUOUS
 62
         4
100
AcDbLine
 10
1347.241389843
 20
-318.8186929137
 30
0.0
 11
1354.791460751
 21
-311.2686220057
 31
0.0
  0
LINE
  5
28E
100
AcDbEntity
  8
L1_120
  6
CONTINUOUS
 62
         4
100
AcDbLine
 10
1343.6488200639
 20
-318.1686220057
 30
0.0
 11
1347.8394156064
 21
-313.9780264632
 31
0.0
  0
LINE
  5
28F
100
AcDbEntity
  8
L1_120
  6
CONTINUOUS
 62
         4
100
AcDbLine
 10
1350.3275047567
 20
-311.4899373129
 30
0.0
 11
1352.3275047567
 21
-309.4899373129
 31
0.0
  0
LINE
  5
290
100
AcDbEntity
  8
L1_120
  6
CONTINUOUS
 62
         4
100
AcDbLine
 10
1339.4061793768
 20
-318.1686220057
 30
0.0
 11
1343.373478041
 21
-314.2013233415
 31
0.0
  0
LINE
  5
291
100
AcDbEntity
  8
L1_120
  6
CONTINUOUS
 62
         4
100
AcDbLine
 10
1335.1635386897
 20
-318.1686220057
 30
0.0
 11
1338.9075404756
 21
-314.4246202198
 31
0.0
  0
LINE
  5
292
100
AcDbEntity
  8
L1_120
  6
CONTINUOUS
 62
         4
100
AcDbLine
 10
1327.9208980026
 20
-321.1686220057
 30
0.0
 11
1334.4416029102
 21
-314.647917098
 31
0.0
  0
LINE
  5
293
100
AcDbEntity
  8
L1_120
  6
CONTINUOUS
 62
         4
100
AcDbLine
 10
1323.6782573155
 20
-321.1686220057
 30
0.0
 11
1329.9756653449
 21
-314.8712139763
 31
0.0
  0
LINE
  5
294
100
AcDbEntity
  8
L1_120
  6
CONTINUOUS
 62
         4
100
AcDbLine
 10
1319.4356166283
 20
-321.1686220057
 30
0.0
 11
1325.5097277795
 21
-315.0945108546
 31
0.0
  0
LINE
  5
295
100
AcDbEntity
  8
L1_120
  6
CONTINUOUS
 62
         4
100
AcDbLine
 10
1318.3275047567
 20
-318.0340931902
 30
0.0
 11
1321.0437902141
 21
-315.3178077328
 31
0.0
  0
ENDBLK
  5
296
100
AcDbEntity
  8
0
  6
CONTINUOUS
100
AcDbBlockEnd
  0
BLOCK
  5
309
100
AcDbEntity
  8
0
100
AcDbBlockBegin
  2
*D6
 70
        65
 10
0.0
 20
0.0
 30
0.0
  3
*D6
  1

  0
POINT
  5
30B
100
AcDbEntity
  8
DEFPOINTS
  6
CONTINUOUS
 62
         0
100
AcDbPoint
 10
1408.2175047567
 20
-388.4298744716
 30
0.0
  0
POINT
  5
30C
100
AcDbEntity
  8
DEFPOINTS
  6
CONTINUOUS
 62
         0
100
AcDbPoint
 10
1408.2175047567
 20
-346.6686220058
 30
0.0
  0
POINT
  5
30D
100
AcDbEntity
  8
DEFPOINTS
  6
CONTINUOUS
 62
         0
100
AcDbPoint
 10
1470.2175047567
 20
-358.7578410225
 30
0.0
  0
LINE
  5
30E
100
AcDbEntity
  8
L1_120
  6
CONTINUOUS
 62
         4
100
AcDbLine
 10
1408.2175047567
 20
-348.4186220058
 30
0.0
 11
1408.2175047567
 21
-389.3048744716
 31
0.0
  0
LINE
  5
30F
100
AcDbEntity
  8
L1_120
  6
CONTINUOUS
 62
         4
100
AcDbLine
 10
1470.2175047567
 20
-360.5078410225
 30
0.0
 11
1470.2175047567
 21
-389.3048744716
 31
0.0
  0
LINE
  5
310
100
AcDbEntity
  8
L1_120
  6
CONTINUOUS
 62
         4
100
AcDbLine
 10
1408.2175047567
 20
-388.4298744716
 30
0.0
 11
1470.2175047567
 21
-388.4298744716
 31
0.0
  0
SOLID
  5
311
100
AcDbEntity
  8
L1_120
  6
CONTINUOUS
 62
         4
100
AcDbTrace
 10
1408.2175047567
 20
-388.4298744716
 30
0.0
 11
1411.7175047567
 21
-387.9048744716
 31
0.0
 12
1411.7175047567
 22
-388.9548744716
 32
0.0
 13
1408.2175047567
 23
-388.4298744716
 33
0.0
  0
SOLID
  5
312
100
AcDbEntity
  8
L1_120
  6
CONTINUOUS
 62
         4
100
AcDbTrace
 10
1470.2175047567
 20
-388.4298744716
 30
0.0
 11
1466.7175047567
 21
-388.9548744716
 31
0.0
 12
1466.7175047567
 22
-387.9048744716
 32
0.0
 13
1470.2175047567
 23
-388.4298744716
 33
0.0
  0
TEXT
  5
314
100
AcDbEntity
  8
L1_120
  6
CONTINUOUS
 62
         4
100
AcDbText
 10
1435.6067089878
 20
-384.3698744716
 30
0.0
 40
3.5
  1
61
  7
BOX
100
AcDbText
  0
ENDBLK
  5
315
100
AcDbEntity
  8
0
  6
CONTINUOUS
100
AcDbBlockEnd
  0
BLOCK
  5
329
100
AcDbEntity
  8
0
100
AcDbBlockBegin
  2
*D7
 70
        65
 10
0.0
 20
0.0
 30
0.0
  3
*D7
  1

  0
POINT
  5
32B
100
AcDbEntity
  8
DEFPOINTS
  6
CONTINUOUS
 62
         0
100
AcDbPoint
 10
1555.2576349026
 20
-315.9753664743
 30
0.0
  0
POINT
  5
32C
100
AcDbEntity
  8
DEFPOINTS
  6
CONTINUOUS
 62
         0
100
AcDbPoint
 10
1543.3730567046
 20
-315.9753664743
 30
0.0
  0
POINT
  5
32D
100
AcDbEntity
  8
DEFPOINTS
  6
CONTINUOUS
 62
         0
100
AcDbPoint
 10
1543.3730567046
 20
-327.9753664743
 30
0.0
  0
LINE
  5
32E
100
AcDbEntity
  8
L1_120
  6
CONTINUOUS
 62
         4
100
AcDbLine
 10
1545.1230567046
 20
-315.9753664743
 30
0.0
 11
1556.1326349026
 21
-315.9753664743
 31
0.0
  0
LINE
  5
32F
100
AcDbEntity
  8
L1_120
  6
CONTINUOUS
 62
         4
100
AcDbLine
 10
1545.1230567046
 20
-327.9753664743
 30
0.0
 11
1556.1326349026
 21
-327.9753664743
 31
0.0
  0
LINE
  5
330
100
AcDbEntity
  8
L1_120
  6
CONTINUOUS
 62
         4
100
AcDbLine
 10
1555.2576349026
 20
-315.9753664743
 30
0.0
 11
1555.2576349026
 21
-283.49249374
 31
0.0
  0
SOLID
  5
331
100
AcDbEntity
  8
L1_120
  6
CONTINUOUS
 62
         4
100
AcDbTrace
 10
1555.2576349026
 20
-315.9753664743
 30
0.0
 11
1554.7326349026
 21
-312.4753664743
 31
0.0
 12
1555.7826349026
 22
-312.4753664743
 32
0.0
 13
1555.2576349026
 23
-315.9753664743
 33
0.0
  0
LINE
  5
332
100
AcDbEntity
  8
L1_120
  6
CONTINUOUS
 62
         4
100
AcDbLine
 10
1555.2576349026
 20
-327.9753664743
 30
0.0
 11
1555.2576349026
 21
-334.9753664743
 31
0.0
  0
SOLID
  5
333
100
AcDbEntity
  8
L1_120
  6
CONTINUOUS
 62
         4
100
AcDbTrace
 10
1555.2576349026
 20
-327.9753664743
 30
0.0
 11
1555.7826349026
 21
-331.4753664743
 31
0.0
 12
1554.7326349026
 22
-331.4753664743
 32
0.0
 13
1555.2576349026
 23
-327.9753664743
 33
0.0
  0
LINE
  5
334
100
AcDbEntity
  8
L1_120
  6
CONTINUOUS
 62
         4
100
AcDbLine
 10
1555.2576349026
 20
-315.9753664743
 30
0.0
 11
1555.2576349026
 21
-327.9753664743
 31
0.0
  0
TEXT
  5
336
100
AcDbEntity
  8
L1_120
  6
CONTINUOUS
 62
         4
100
AcDbText
 10
1552.6326349026
 20
-313.24249374
 30
0.0
 40
3.5
  1
M16xP1.0
 50
90.0
  7
BOX
100
AcDbText
  0
ENDBLK
  5
337
100
AcDbEntity
  8
0
  6
CONTINUOUS
100
AcDbBlockEnd
  0
BLOCK
  5
339
100
AcDbEntity
  8
0
100
AcDbBlockBegin
  2
*D8
 70
        65
 10
0.0
 20
0.0
 30
0.0
  3
*D8
  1

  0
POINT
  5
33B
100
AcDbEntity
  8
DEFPOINTS
  6
CONTINUOUS
 62
         0
100
AcDbPoint
 10
1524.8730567046
 20
-340.7568759306
 30
0.0
  0
POINT
  5
33C
100
AcDbEntity
  8
DEFPOINTS
  6
CONTINUOUS
 62
         0
100
AcDbPoint
 10
1524.8730567046
 20
-326.5897258282
 30
0.0
  0
POINT
  5
33D
100
AcDbEntity
  8
DEFPOINTS
  6
CONTINUOUS
 62
         0
100
AcDbPoint
 10
1544.8730567046
 20
-326.4753664743
 30
0.0
  0
LINE
  5
33E
100
AcDbEntity
  8
L1_120
  6
CONTINUOUS
 62
         4
100
AcDbLine
 10
1524.8730567046
 20
-328.3397258282
 30
0.0
 11
1524.8730567046
 21
-341.6318759306
 31
0.0
  0
LINE
  5
33F
100
AcDbEntity
  8
L1_120
  6
CONTINUOUS
 62
         4
100
AcDbLine
 10
1544.8730567046
 20
-328.2253664743
 30
0.0
 11
1544.8730567046
 21
-341.6318759306
 31
0.0
  0
LINE
  5
340
100
AcDbEntity
  8
L1_120
  6
CONTINUOUS
 62
         4
100
AcDbLine
 10
1524.8730567046
 20
-340.7568759306
 30
0.0
 11
1544.8730567046
 21
-340.7568759306
 31
0.0
  0
SOLID
  5
341
100
AcDbEntity
  8
L1_120
  6
CONTINUOUS
 62
         4
100
AcDbTrace
 10
1524.8730567046
 20
-340.7568759306
 30
0.0
 11
1528.3730567046
 21
-340.2318759306
 31
0.0
 12
1528.3730567046
 22
-341.2818759306
 32
0.0
 13
1524.8730567046
 23
-340.7568759306
 33
0.0
  0
SOLID
  5
342
100
AcDbEntity
  8
L1_120
  6
CONTINUOUS
 62
         4
100
AcDbTrace
 10
1544.8730567046
 20
-340.7568759306
 30
0.0
 11
1541.3730567046
 21
-341.2818759306
 31
0.0
 12
1541.3730567046
 22
-340.2318759306
 32
0.0
 13
1544.8730567046
 23
-340.7568759306
 33
0.0
  0
TEXT
  5
344
100
AcDbEntity
  8
L1_120
  6
CONTINUOUS
 62
         4
100
AcDbText
 10
1531.6900634977
 20
-338.1318759306
 30
0.0
 40
3.5
  1
20
  7
BOX
100
AcDbText
  0
ENDBLK
  5
345
100
AcDbEntity
  8
0
  6
CONTINUOUS
100
AcDbBlockEnd
  0
BLOCK
  5
353
100
AcDbEntity
  8
0
100
AcDbBlockBegin
  2
*D9
 70
        65
 10
0.0
 20
0.0
 30
0.0
  3
*D9
  1

  0
POINT
  5
355
100
AcDbEntity
  8
DEFPOINTS
  6
CONTINUOUS
 62
         0
100
AcDbPoint
 10
1500.8881571403
 20
-309.3860908469
 30
0.0
  0
POINT
  5
356
100
AcDbEntity
  8
DEFPOINTS
  6
CONTINUOUS
 62
         0
100
AcDbPoint
 10
1500.8881571403
 20
-320.0508655775
 30
0.0
  0
POINT
  5
357
100
AcDbEntity
  8
DEFPOINTS
  6
CONTINUOUS
 62
         0
100
AcDbPoint
 10
1507.5548238053
 20
-320.0508655775
 30
0.0
  0
LINE
  5
358
100
AcDbEntity
  8
L1_120
  6
CONTINUOUS
 62
         4
100
AcDbLine
 10
1500.8881571403
 20
-318.3008655775
 30
0.0
 11
1500.8881571403
 21
-308.5110908469
 31
0.0
  0
LINE
  5
359
100
AcDbEntity
  8
L1_120
  6
CONTINUOUS
 62
         4
100
AcDbLine
 10
1507.5548238053
 20
-318.3008655775
 30
0.0
 11
1507.5548238053
 21
-308.5110908469
 31
0.0
  0
LINE
  5
35A
100
AcDbEntity
  8
L1_120
  6
CONTINUOUS
 62
         4
100
AcDbLine
 10
1500.8881571403
 20
-309.3860908469
 30
0.0
 11
1493.8881571403
 21
-309.3860908469
 31
0.0
  0
SOLID
  5
35B
100
AcDbEntity
  8
L1_120
  6
CONTINUOUS
 62
         4
100
AcDbTrace
 10
1500.8881571403
 20
-309.3860908469
 30
0.0
 11
1497.3881571403
 21
-309.9110908469
 31
0.0
 12
1497.3881571403
 22
-308.8610908469
 32
0.0
 13
1500.8881571403
 23
-309.3860908469
 33
0.0
  0
LINE
  5
35C
100
AcDbEntity
  8
L1_120
  6
CONTINUOUS
 62
         4
100
AcDbLine
 10
1507.5548238053
 20
-309.3860908469
 30
0.0
 11
1514.5548238053
 21
-309.3860908469
 31
0.0
  0
SOLID
  5
35D
100
AcDbEntity
  8
L1_120
  6
CONTINUOUS
 62
         4
100
AcDbTrace
 10
1507.5548238053
 20
-309.3860908469
 30
0.0
 11
1511.0548238053
 21
-308.8610908469
 31
0.0
 12
1511.0548238053
 22
-309.9110908469
 32
0.0
 13
1507.5548238053
 23
-309.3860908469
 33
0.0
  0
LINE
  5
35E
100
AcDbEntity
  8
L1_120
  6
CONTINUOUS
 62
         4
100
AcDbLine
 10
1500.8881571403
 20
-309.3860908469
 30
0.0
 11
1507.5548238053
 21
-309.3860908469
 31
0.0
  0
TEXT
  5
360
100
AcDbEntity
  8
L1_120
  6
CONTINUOUS
 62
         4
100
AcDbText
 10
1501.7164951931
 20
-305.3260908469
 30
0.0
 40
3.5
  1
8
  7
BOX
100
AcDbText
  0
ENDBLK
  5
361
100
AcDbEntity
  8
0
  6
CONTINUOUS
100
AcDbBlockEnd
  0
ENDSEC
  0
SECTION
  2
ENTITIES
  0
ARC
  5
25
100
AcDbEntity
  8
L1_120
  6
CONTINUOUS
 62
         7
100
AcDbCircle
 10
1375.3275047567
 20
-193.7760214994
 30
0.0
 40
1.0
100
AcDbArc
 50
0.0
 51
90.0
  0
LINE
  5
26
100
AcDbEntity
  8
L1_120
  6
CONTINUOUS
 62
         7
100
AcDbLine
 10
1375.3275047567
 20
-192.7760214994
 30
0.0
 11
1374.3275047567
 21
-192.7760214994
 31
0.0
  0
LINE
  5
27
100
AcDbEntity
  8
L1_120
  6
CONTINUOUS
 62
         7
100
AcDbLine
 10
1376.3275047567
 20
-205.2760214994
 30
0.0
 11
1376.3275047567
 21
-193.7760214994
 31
0.0
  0
ARC
  5
28
100
AcDbEntity
  8
L1_120
  6
CONTINUOUS
 62
         7
100
AcDbCircle
 10
1375.3275047567
 20
-193.7760973119
 30
0.0
 40
1.0
100
AcDbArc
 50
0.0
 51
90.0
  0
LINE
  5
29
100
AcDbEntity
  8
L1_120
  6
CONTINUOUS
 62
         7
100
AcDbLine
 10
1375.3275047567
 20
-192.7760973119
 30
0.0
 11
1374.3275047567
 21
-192.7760973119
 31
0.0
  0
LINE
  5
2A
100
AcDbEntity
  8
L1_120
  6
CONTINUOUS
 62
         7
100
AcDbLine
 10
1376.3275047567
 20
-205.2760973119
 30
0.0
 11
1376.3275047567
 21
-193.7760973119
 31
0.0
  0
CIRCLE
  5
2B
100
AcDbEntity
  8
L1_120
  6
CONTINUOUS
 62
         7
100
AcDbCircle
 10
1231.1368971601
 20
-224.8627409862
 30
0.0
 40
24.215
  0
CIRCLE
  5
2C
100
AcDbEntity
  8
L1_120
  6
CONTINUOUS
 62
         7
100
AcDbCircle
 10
1231.1368971601
 20
-224.8627409862
 30
0.0
 40
31.5
  0
LINE
  5
2D
100
AcDbEntity
  8
L1_120
  6
CENTER
 62
         1
100
AcDbLine
 10
1210.8627027726
 20
-235.1061909391
 30
0.0
 11
1251.4110915477
 21
-214.6192910334
 31
0.0
  0
LINE
  5
2E
100
AcDbEntity
  8
L1_120
  6
CENTER
 62
         1
100
AcDbLine
 10
1210.8627027726
 20
-214.6192910334
 30
0.0
 11
1251.4110915477
 21
-235.1061909391
 31
0.0
  0
CIRCLE
  5
2F
100
AcDbEntity
  8
L1_120
  6
CONTINUOUS
 62
         7
100
AcDbCircle
 10
1231.1368971601
 20
-224.8627409862
 30
0.0
 40
17.0
  0
ARC
  5
30
100
AcDbEntity
  8
L1_120
  6
CONTINUOUS
 62
         5
100
AcDbCircle
 10
1231.1368971601
 20
-224.8627409862
 30
0.0
 40
9.0
100
AcDbArc
 50
278.0509996909
 51
548.1955418149
  0
CIRCLE
  5
31
100
AcDbEntity
  8
L1_120
  6
CONTINUOUS
 62
         7
100
AcDbCircle
 10
1231.1368971601
 20
-224.8627409862
 30
0.0
 40
8.5
  0
CIRCLE
  5
32
100
AcDbEntity
  8
L1_120
  6
CONTINUOUS
 62
         7
100
AcDbCircle
 10
1231.1368971601
 20
-224.8627409862
 30
0.0
 40
4.0
  0
ARC
  5
33
100
AcDbEntity
  8
L1_120
  6
CONTINUOUS
 62
         7
100
AcDbCircle
 10
1231.1368971601
 20
-224.8627409862
 30
0.0
 40
23.3347264679
100
AcDbArc
 50
144.9600647155
 51
215.0399352845
  0
LINE
  5
34
100
AcDbEntity
  8
L1_120
  6
CENTER
 62
         1
100
AcDbLine
 10
1214.9993340441
 20
-234.0127409862
 30
0.0
 11
1211.0213540223
 21
-234.0127409862
 31
0.0
  0
LINE
  5
35
100
AcDbEntity
  8
L1_120
  6
CENTER
 62
         1
100
AcDbLine
 10
1213.1468971601
 20
-235.3820210943
 30
0.0
 11
1213.1468971601
 21
-230.9319611599
 31
0.0
  0
LINE
  5
36
100
AcDbEntity
  8
L1_120
  6
CENTER
 62
         1
100
AcDbLine
 10
1214.5137382223
 20
-215.7127409862
 30
0.0
 11
1210.1737188492
 21
-215.7127409862
 31
0.0
  0
LINE
  5
37
100
AcDbEntity
  8
L1_120
  6
CENTER
 62
         1
100
AcDbLine
 10
1213.1468971601
 20
-214.3434608781
 30
0.0
 11
1213.1468971601
 21
-218.7935208125
 31
0.0
  0
LINE
  5
38
100
AcDbEntity
  8
L1_120
  6
CONTINUOUS
 62
         7
100
AcDbLine
 10
1215.2960922563
 20
-218.6927409862
 30
0.0
 11
1213.1468971601
 21
-218.6927409862
 31
0.0
  0
ARC
  5
39
100
AcDbEntity
  8
L1_120
  6
CONTINUOUS
 62
         7
100
AcDbCircle
 10
1213.0495998809
 20
-215.815597279
 30
0.0
 40
2.8777197789
100
AcDbArc
 50
150.695675656
 51
271.1464599482
  0
LINE
  5
3A
100
AcDbEntity
  8
L1_120
  6
CONTINUOUS
 62
         7
100
AcDbLine
 10
1210.5400752387
 20
-214.4072205636
 30
0.0
 11
1212.0315417646
 21
-211.4651720075
 31
0.0
  0
LINE
  5
3B
100
AcDbEntity
  8
L1_120
  6
CONTINUOUS
 62
         7
100
AcDbLine
 10
1215.2960922563
 20
-231.0327409862
 30
0.0
 11
1213.1071777749
 21
-231.0327409862
 31
0.0
  0
ARC
  5
3C
100
AcDbEntity
  8
L1_120
  6
CONTINUOUS
 62
         7
100
AcDbCircle
 10
1213.0495998809
 20
-233.9098846934
 30
0.0
 40
2.8777197789
100
AcDbArc
 50
88.8535400518
 51
209.304324344
  0
LINE
  5
3D
100
AcDbEntity
  8
L1_120
  6
CONTINUOUS
 62
         7
100
AcDbLine
 10
1210.5400752387
 20
-235.3182614088
 30
0.0
 11
1212.0315417646
 21
-238.260309965
 31
0.0
  0
ARC
  5
3E
100
AcDbEntity
  8
L1_120
  6
CONTINUOUS
 62
         7
100
AcDbCircle
 10
1231.1368971601
 20
-224.8627409862
 30
0.0
 40
22.715
100
AcDbArc
 50
22.7223719759
 51
157.2776280241
  0
ARC
  5
3F
100
AcDbEntity
  8
L1_120
  6
CONTINUOUS
 62
         7
100
AcDbCircle
 10
1231.1368971601
 20
-224.8627409862
 30
0.0
 40
22.715
100
AcDbArc
 50
202.7223719759
 51
337.2776280241
  0
ARC
  5
40
100
AcDbEntity
  8
L1_120
  6
CONTINUOUS
 62
         7
100
AcDbCircle
 10
1231.1368971601
 20
-224.8627409862
 30
0.0
 40
23.3347264679
100
AcDbArc
 50
324.9600647154
 51
395.0399352845
  0
LINE
  5
41
100
AcDbEntity
  8
L1_120
  6
CENTER
 62
         1
100
AcDbLine
 10
1247.2744602762
 20
-234.0127409862
 30
0.0
 11
1251.252440298
 21
-234.0127409862
 31
0.0
  0
LINE
  5
42
100
AcDbEntity
  8
L1_120
  6
CENTER
 62
         1
100
AcDbLine
 10
1249.1268971601
 20
-235.3820210943
 30
0.0
 11
1249.1268971601
 21
-230.9319611599
 31
0.0
  0
LINE
  5
43
100
AcDbEntity
  8
L1_120
  6
CENTER
 62
         1
100
AcDbLine
 10
1247.7600560979
 20
-215.7127409862
 30
0.0
 11
1252.1000754711
 21
-215.7127409862
 31
0.0
  0
LINE
  5
44
100
AcDbEntity
  8
L1_120
  6
CENTER
 62
         1
100
AcDbLine
 10
1249.1268971601
 20
-214.3434608781
 30
0.0
 11
1249.1268971601
 21
-218.7935208125
 31
0.0
  0
LINE
  5
45
100
AcDbEntity
  8
L1_120
  6
CONTINUOUS
 62
         7
100
AcDbLine
 10
1246.9777020639
 20
-218.6927409862
 30
0.0
 11
1249.1268971601
 21
-218.6927409862
 31
0.0
  0
ARC
  5
46
100
AcDbEntity
  8
L1_120
  6
CONTINUOUS
 62
         7
100
AcDbCircle
 10
1249.2241944393
 20
-215.815597279
 30
0.0
 40
2.8777197789
100
AcDbArc
 50
268.8535400518
 51
389.304324344
  0
LINE
  5
47
100
AcDbEntity
  8
L1_120
  6
CONTINUOUS
 62
         7
100
AcDbLine
 10
1251.7337190816
 20
-214.4072205636
 30
0.0
 11
1250.2422525557
 21
-211.4651720075
 31
0.0
  0
LINE
  5
48
100
AcDbEntity
  8
L1_120
  6
CONTINUOUS
 62
         7
100
AcDbLine
 10
1246.9777020639
 20
-231.0327409862
 30
0.0
 11
1249.1666165454
 21
-231.0327409862
 31
0.0
  0
ARC
  5
49
100
AcDbEntity
  8
L1_120
  6
CONTINUOUS
 62
         7
100
AcDbCircle
 10
1249.2241944393
 20
-233.9098846934
 30
0.0
 40
2.8777197789
100
AcDbArc
 50
330.695675656
 51
451.1464599482
  0
LINE
  5
4A
100
AcDbEntity
  8
L1_120
  6
CONTINUOUS
 62
         7
100
AcDbLine
 10
1251.7337190816
 20
-235.3182614088
 30
0.0
 11
1250.2422525557
 21
-238.260309965
 31
0.0
  0
LINE
  5
4B
100
AcDbEntity
  8
L1_120
  6
CONTINUOUS
 62
         7
100
AcDbLine
 10
1362.8275047567
 20
-306.6686220057
 30
0.0
 11
1351.8275047567
 21
-306.6686220057
 31
0.0
  0
LINE
  5
4C
100
AcDbEntity
  8
L1_120
  6
CENTER
 62
         1
100
AcDbLine
 10
1357.3275047567
 20
-306.0076213902
 30
0.0
 11
1357.3275047567
 21
-312.33501452
 31
0.0
  0
LINE
  5
4D
100
AcDbEntity
  8
L1_120
  6
CONTINUOUS
 62
         7
100
AcDbLine
 10
1362.0275047567
 20
-311.2686220057
 30
0.0
 11
1352.6275047567
 21
-311.2686220057
 31
0.0
  0
LINE
  5
4E
100
AcDbEntity
  8
L1_120
  6
CONTINUOUS
 62
         7
100
AcDbLine
 10
1352.3275047567
 20
-307.1686220057
 30
0.0
 11
1362.3275047567
 21
-307.1686220057
 31
0.0
  0
LINE
  5
4F
100
AcDbEntity
  8
L1_120
  6
CONTINUOUS
 62
         7
100
AcDbLine
 10
1352.3275047567
 20
-310.9686220057
 30
0.0
 11
1362.3275047567
 21
-310.9686220057
 31
0.0
  0
LINE
  5
50
100
AcDbEntity
  8
L1_120
  6
CONTINUOUS
 62
         7
100
AcDbLine
 10
1352.3275047567
 20
-310.9686220057
 30
0.0
 11
1352.6275047567
 21
-311.2686220057
 31
0.0
  0
LINE
  5
51
100
AcDbEntity
  8
L1_120
  6
CONTINUOUS
 62
         7
100
AcDbLine
 10
1352.3275047567
 20
-307.1686220057
 30
0.0
 11
1352.3275047567
 21
-310.9686220057
 31
0.0
  0
LINE
  5
52
100
AcDbEntity
  8
L1_120
  6
CONTINUOUS
 62
         7
100
AcDbLine
 10
1351.8275047567
 20
-306.6686220057
 30
0.0
 11
1352.3275047567
 21
-307.1686220057
 31
0.0
  0
LINE
  5
53
100
AcDbEntity
  8
L1_120
  6
CONTINUOUS
 62
         7
100
AcDbLine
 10
1362.8275047567
 20
-306.6686220057
 30
0.0
 11
1362.3275047567
 21
-307.1686220057
 31
0.0
  0
LINE
  5
54
100
AcDbEntity
  8
L1_120
  6
CONTINUOUS
 62
         7
100
AcDbLine
 10
1362.3275047567
 20
-307.1686220057
 30
0.0
 11
1362.3275047567
 21
-310.9686220057
 31
0.0
  0
LINE
  5
55
100
AcDbEntity
  8
L1_120
  6
CONTINUOUS
 62
         7
100
AcDbLine
 10
1362.0275047567
 20
-311.2686220057
 30
0.0
 11
1362.3275047567
 21
-310.9686220057
 31
0.0
  0
LINE
  5
56
100
AcDbEntity
  8
L1_120
  6
CONTINUOUS
 62
         7
100
AcDbLine
 10
1357.3275047567
 20
-311.8459722749
 30
0.0
 11
1358.3275047567
 21
-311.2686220057
 31
0.0
  0
LINE
  5
57
100
AcDbEntity
  8
L1_120
  6
CONTINUOUS
 62
         7
100
AcDbLine
 10
1357.3275047567
 20
-311.8459722749
 30
0.0
 11
1356.3275047567
 21
-311.2686220057
 31
0.0
  0
LINE
  5
58
100
AcDbEntity
  8
L1_120
  6
CONTINUOUS
 62
         7
100
AcDbLine
 10
1372.3275047567
 20
-342.6686220057
 30
0.0
 11
1372.3275047567
 21
-347.6686220057
 31
0.0
  0
LINE
  5
59
100
AcDbEntity
  8
L1_120
  6
CONTINUOUS
 62
         7
100
AcDbLine
 10
1366.4525047567
 20
-309.2710267415
 30
0.0
 11
1364.950005682
 21
-306.6686220057
 31
0.0
  0
LINE
  5
5A
100
AcDbEntity
  8
L1_120
  6
CONTINUOUS
 62
         7
100
AcDbLine
 10
1366.4525047567
 20
-309.2710267415
 30
0.0
 11
1366.4525047567
 21
-310.6686220057
 31
0.0
  0
LINE
  5
5B
100
AcDbEntity
  8
L1_120
  6
CONTINUOUS
 62
         7
100
AcDbLine
 10
1366.4525047567
 20
-310.6686220057
 30
0.0
 11
1370.2025047567
 21
-310.6686220057
 31
0.0
  0
LINE
  5
5C
100
AcDbEntity
  8
L1_120
  6
CONTINUOUS
 62
         7
100
AcDbLine
 10
1370.2025047567
 20
-309.2710267415
 30
0.0
 11
1370.2025047567
 21
-310.6686220057
 31
0.0
  0
LINE
  5
5D
100
AcDbEntity
  8
L1_120
  6
CONTINUOUS
 62
         7
100
AcDbLine
 10
1370.2025047567
 20
-309.2710267415
 30
0.0
 11
1371.7050038315
 21
-306.6686220057
 31
0.0
  0
LINE
  5
5E
100
AcDbEntity
  8
L1_120
  6
CONTINUOUS
 62
         7
100
AcDbLine
 10
1371.7050038315
 20
-306.6686220057
 30
0.0
 11
1375.3275047567
 21
-306.6686220057
 31
0.0
  0
LINE
  5
5F
100
AcDbEntity
  8
L1_120
  6
CONTINUOUS
 62
         7
100
AcDbLine
 10
1369.3275047567
 20
-328.6686220057
 30
0.0
 11
1372.3275047567
 21
-328.6686220057
 31
0.0
  0
LINE
  5
60
100
AcDbEntity
  8
L1_120
  6
CONTINUOUS
 62
         7
100
AcDbLine
 10
1369.3275047567
 20
-347.6686220057
 30
0.0
 11
1372.3275047567
 21
-347.6686220057
 31
0.0
  0
LINE
  5
61
100
AcDbEntity
  8
L1_120
  6
CONTINUOUS
 62
         7
100
AcDbLine
 10
1369.3275047567
 20
-328.6686220057
 30
0.0
 11
1369.3275047567
 21
-347.6686220057
 31
0.0
  0
LINE
  5
62
100
AcDbEntity
  8
L1_120
  6
CONTINUOUS
 62
         7
100
AcDbLine
 10
1372.3275047567
 20
-328.6686220057
 30
0.0
 11
1372.3275047567
 21
-342.6686220057
 31
0.0
  0
LINE
  5
63
100
AcDbEntity
  8
L1_120
  6
CENTER
 62
         1
100
AcDbLine
 10
1368.3275047567
 20
-306.6640605279
 30
0.0
 11
1368.3275047567
 21
-314.6731834835
 31
0.0
  0
LINE
  5
64
100
AcDbEntity
  8
L1_120
  6
CONTINUOUS
 62
         7
100
AcDbLine
 10
1350.3275047567
 20
-307.6686220057
 30
0.0
 11
1350.3275047567
 21
-312.7536220057
 31
0.0
  0
LINE
  5
65
100
AcDbEntity
  8
L1_120
  6
CONTINUOUS
 62
         7
100
AcDbLine
 10
1350.4275047567
 20
-313.465158978
 30
0.0
 11
1350.4275047567
 21
-313.5536220057
 31
0.0
  0
LINE
  5
66
100
AcDbEntity
  8
L1_120
  6
CONTINUOUS
 62
         7
100
AcDbLine
 10
1350.4275047567
 20
-313.465158978
 30
0.0
 11
1350.3275047567
 21
-312.7536220057
 31
0.0
  0
LINE
  5
67
100
AcDbEntity
  8
L1_120
  6
CONTINUOUS
 62
         7
100
AcDbLine
 10
1357.9983485591
 20
-321.1686220057
 30
0.0
 11
1357.9983485591
 21
-355.1686220057
 31
0.0
  0
LINE
  5
68
100
AcDbEntity
  8
L1_120
  6
CONTINUOUS
 62
         7
100
AcDbLine
 10
1360.3275047567
 20
-322.4186220057
 30
0.0
 11
1360.3275047567
 21
-353.9186220057
 31
0.0
  0
ARC
  5
69
100
AcDbEntity
  8
L1_120
  6
CONTINUOUS
 62
         7
100
AcDbCircle
 10
1358.8275047567
 20
-353.9186220057
 30
0.0
 40
1.5
100
AcDbArc
 50
236.4426902381
 51
360.0
  0
ARC
  5
6A
100
AcDbEntity
  8
L1_120
  6
CONTINUOUS
 62
         7
100
AcDbCircle
 10
1358.8275047567
 20
-322.4186220057
 30
0.0
 40
1.5
100
AcDbArc
 50
0.0
 51
123.5573097619
  0
LINE
  5
6B
100
AcDbEntity
  8
L1_120
  6
CONTINUOUS
 62
         7
100
AcDbLine
 10
1350.3275047567
 20
-321.1686220057
 30
0.0
 11
1350.3275047567
 21
-355.1686220057
 31
0.0
  0
ARC
  5
6C
100
AcDbEntity
  8
L1_120
  6
CONTINUOUS
 62
         7
100
AcDbCircle
 10
1349.1529064168
 20
-313.5536220057
 30
0.0
 40
0.6
100
AcDbArc
 50
255.0
 51
270.0
  0
LINE
  5
6D
100
AcDbEntity
  8
L1_120
  6
CONTINUOUS
 62
         7
100
AcDbLine
 10
1348.3275047567
 20
-313.9536220057
 30
0.0
 11
1348.9976149897
 21
-314.1331775015
 31
0.0
  0
LINE
  5
6E
100
AcDbEntity
  8
L1_120
  6
CONTINUOUS
 62
         7
100
AcDbLine
 10
1349.1529064168
 20
-314.1536220057
 30
0.0
 11
1349.8275047567
 21
-314.1536220057
 31
0.0
  0
LINE
  5
6F
100
AcDbEntity
  8
L1_120
  6
CONTINUOUS
 62
         7
100
AcDbLine
 10
1350.3275047567
 20
-355.1686220057
 30
0.0
 11
1357.9983485591
 21
-355.1686220057
 31
0.0
  0
LINE
  5
70
100
AcDbEntity
  8
L1_120
  6
CONTINUOUS
 62
         7
100
AcDbLine
 10
1350.3275047567
 20
-321.1686220057
 30
0.0
 11
1357.9983485591
 21
-321.1686220057
 31
0.0
  0
ARC
  5
71
100
AcDbEntity
  8
L1_120
  6
CONTINUOUS
 62
         7
100
AcDbCircle
 10
1349.8275047567
 20
-313.5536220057
 30
0.0
 40
0.6
100
AcDbArc
 50
270.0
 51
360.0
  0
LINE
  5
72
100
AcDbEntity
  8
L1_120
  6
CONTINUOUS
 62
         7
100
AcDbLine
 10
1351.3275047567
 20
-306.6686220057
 30
0.0
 11
1364.950005682
 21
-306.6686220057
 31
0.0
  0
LINE
  5
73
100
AcDbEntity
  8
L1_120
  6
CENTER
 62
         1
100
AcDbLine
 10
1368.3275047567
 20
-361.4464577286
 30
0.0
 11
1368.3275047567
 21
-369.7759395423
 31
0.0
  0
LINE
  5
74
100
AcDbEntity
  8
L1_120
  6
CONTINUOUS
 62
         7
100
AcDbLine
 10
1366.4525047567
 20
-365.6686220057
 30
0.0
 11
1370.2025047567
 21
-365.6686220057
 31
0.0
  0
LINE
  5
75
100
AcDbEntity
  8
L1_120
  6
CONTINUOUS
 62
         7
100
AcDbLine
 10
1366.4525047567
 20
-367.0662172699
 30
0.0
 11
1366.4525047567
 21
-365.6686220057
 31
0.0
  0
LINE
  5
76
100
AcDbEntity
  8
L1_120
  6
CONTINUOUS
 62
         7
100
AcDbLine
 10
1366.4525047567
 20
-367.0662172699
 30
0.0
 11
1364.950005682
 21
-369.6686220057
 31
0.0
  0
LINE
  5
77
100
AcDbEntity
  8
L1_120
  6
CONTINUOUS
 62
         7
100
AcDbLine
 10
1370.2025047567
 20
-367.0662172699
 30
0.0
 11
1371.7050038315
 21
-369.6686220057
 31
0.0
  0
LINE
  5
78
100
AcDbEntity
  8
L1_120
  6
CONTINUOUS
 62
         7
100
AcDbLine
 10
1370.2025047567
 20
-367.0662172699
 30
0.0
 11
1370.2025047567
 21
-365.6686220057
 31
0.0
  0
LINE
  5
79
100
AcDbEntity
  8
L1_120
  6
CONTINUOUS
 62
         7
100
AcDbLine
 10
1371.7050038315
 20
-369.6686220057
 30
0.0
 11
1375.3275047567
 21
-369.6686220057
 31
0.0
  0
ARC
  5
7A
100
AcDbEntity
  8
L1_120
  6
CONTINUOUS
 62
         7
100
AcDbCircle
 10
1349.1529064168
 20
-362.7836220057
 30
0.0
 40
0.6
100
AcDbArc
 50
90.0
 51
105.0
  0
LINE
  5
7B
100
AcDbEntity
  8
L1_120
  6
CONTINUOUS
 62
         7
100
AcDbLine
 10
1350.3275047567
 20
-363.5836220057
 30
0.0
 11
1350.3275047567
 21
-368.6686220057
 31
0.0
  0
LINE
  5
7C
100
AcDbEntity
  8
L1_120
  6
CONTINUOUS
 62
         7
100
AcDbLine
 10
1350.4275047567
 20
-362.8720850335
 30
0.0
 11
1350.3275047567
 21
-363.5836220057
 31
0.0
  0
LINE
  5
7D
100
AcDbEntity
  8
L1_120
  6
CONTINUOUS
 62
         7
100
AcDbLine
 10
1350.4275047567
 20
-362.8720850335
 30
0.0
 11
1350.4275047567
 21
-362.7836220057
 31
0.0
  0
ARC
  5
7E
100
AcDbEntity
  8
L1_120
  6
CONTINUOUS
 62
         7
100
AcDbCircle
 10
1349.8275047567
 20
-362.7836220057
 30
0.0
 40
0.6
100
AcDbArc
 50
0.0
 51
90.0
  0
LINE
  5
7F
100
AcDbEntity
  8
L1_120
  6
CONTINUOUS
 62
         7
100
AcDbLine
 10
1349.1529064168
 20
-362.1836220057
 30
0.0
 11
1349.8275047567
 21
-362.1836220057
 31
0.0
  0
LINE
  5
80
100
AcDbEntity
  8
L1_120
  6
CONTINUOUS
 62
         7
100
AcDbLine
 10
1348.3275047567
 20
-362.3836220057
 30
0.0
 11
1348.9976149897
 21
-362.2040665099
 31
0.0
  0
LINE
  5
81
100
AcDbEntity
  8
L1_120
  6
CONTINUOUS
 62
         7
100
AcDbLine
 10
1351.3275047567
 20
-369.6686220057
 30
0.0
 11
1364.950005682
 21
-369.6686220057
 31
0.0
  0
LINE
  5
82
100
AcDbEntity
  8
L1_120
  6
CENTER
 62
         1
100
AcDbLine
 10
1341.3275047567
 20
-332.4186220057
 30
0.0
 11
1341.3275047567
 21
-343.9186220057
 31
0.0
  0
LINE
  5
83
100
AcDbEntity
  8
L1_120
  6
CONTINUOUS
 62
         5
100
AcDbLine
 10
1333.109940322
 20
-357.6516034419
 30
0.0
 11
1333.109940322
 21
-318.9447568373
 31
0.0
  0
LINE
  5
84
100
AcDbEntity
  8
L1_120
  6
CONTINUOUS
 62
         7
100
AcDbLine
 10
1331.3314793529
 20
-321.1686220057
 30
0.0
 11
1331.3314793529
 21
-355.1686220057
 31
0.0
  0
LINE
  5
85
100
AcDbEntity
  8
L1_120
  6
CONTINUOUS
 62
         7
100
AcDbLine
 10
1331.3314793529
 20
-355.1686220057
 30
0.0
 11
1332.8903250798
 21
-357.8686220057
 31
0.0
  0
ARC
  5
86
100
AcDbEntity
  8
L1_120
  6
CONTINUOUS
 62
         7
100
AcDbCircle
 10
1333.409940322
 20
-357.5686220057
 30
0.0
 40
0.6
100
AcDbArc
 50
210.0
 51
270.0
  0
ARC
  5
87
100
AcDbEntity
  8
L1_120
  6
CONTINUOUS
 62
         7
100
AcDbCircle
 10
1333.409940322
 20
-318.7686220057
 30
0.0
 40
0.6
100
AcDbArc
 50
90.0
 51
150.0
  0
LINE
  5
88
100
AcDbEntity
  8
L1_120
  6
CONTINUOUS
 62
         7
100
AcDbLine
 10
1331.3314793529
 20
-321.1686220057
 30
0.0
 11
1332.8903250798
 21
-318.4686220057
 31
0.0
  0
LINE
  5
89
100
AcDbEntity
  8
L1_120
  6
CONTINUOUS
 62
         7
100
AcDbLine
 10
1333.409940322
 20
-358.1686220057
 30
0.0
 11
1344.0825067583
 21
-358.1686220057
 31
0.0
  0
CIRCLE
  5
8A
100
AcDbEntity
  8
L1_120
  6
CONTINUOUS
 62
         7
100
AcDbCircle
 10
1341.3275047567
 20
-338.1686220057
 30
0.0
 40
3.75
  0
LINE
  5
8B
100
AcDbEntity
  8
L1_120
  6
CONTINUOUS
 62
         7
100
AcDbLine
 10
1333.409940322
 20
-318.1686220057
 30
0.0
 11
1344.0825067583
 21
-318.1686220057
 31
0.0
  0
ARC
  5
8C
100
AcDbEntity
  8
L1_120
  6
CONTINUOUS
 62
         7
100
AcDbCircle
 10
1326.8275047567
 20
-342.9386220057
 30
0.0
 40
1.5
100
AcDbArc
 50
270.0
 51
360.0
  0
ARC
  5
8D
100
AcDbEntity
  8
L1_120
  6
CONTINUOUS
 62
         7
100
AcDbCircle
 10
1326.8275047567
 20
-333.3986220057
 30
0.0
 40
1.5
100
AcDbArc
 50
0.0
 51
90.0
  0
LINE
  5
8E
100
AcDbEntity
  8
L1_120
  6
CONTINUOUS
 62
         7
100
AcDbLine
 10
1328.3275047567
 20
-333.3986220057
 30
0.0
 11
1328.3275047567
 21
-342.9386220057
 31
0.0
  0
LINE
  5
8F
100
AcDbEntity
  8
L1_120
  6
CONTINUOUS
 62
         7
100
AcDbLine
 10
1319.3275047567
 20
-355.1686220057
 30
0.0
 11
1319.3275047567
 21
-344.4386220057
 31
0.0
  0
LINE
  5
90
100
AcDbEntity
  8
L1_120
  6
CONTINUOUS
 62
         7
100
AcDbLine
 10
1319.3275047567
 20
-355.1686220057
 30
0.0
 11
1318.3275047567
 21
-355.7459722749
 31
0.0
  0
LINE
  5
91
100
AcDbEntity
  8
L1_120
  6
CONTINUOUS
 62
         7
100
AcDbLine
 10
1318.3275047567
 20
-330.8986220057
 30
0.0
 11
1319.3275047567
 21
-331.8986220057
 31
0.0
  0
LINE
  5
92
100
AcDbEntity
  8
L1_120
  6
CONTINUOUS
 62
         7
100
AcDbLine
 10
1319.3275047567
 20
-321.1686220057
 30
0.0
 11
1319.3275047567
 21
-331.8986220057
 31
0.0
  0
LINE
  5
93
100
AcDbEntity
  8
L1_120
  6
CONTINUOUS
 62
         7
100
AcDbLine
 10
1319.3275047567
 20
-321.1686220057
 30
0.0
 11
1318.3275047567
 21
-320.5912717365
 31
0.0
  0
LINE
  5
94
100
AcDbEntity
  8
L1_120
  6
CONTINUOUS
 62
         7
100
AcDbLine
 10
1318.3275047567
 20
-316.5951210694
 30
0.0
 11
1318.3275047567
 21
-330.8986220057
 31
0.0
  0
ARC
  5
95
100
AcDbEntity
  8
L1_120
  6
CONTINUOUS
 62
         7
100
AcDbCircle
 10
1319.5275047567
 20
-316.5951210694
 30
0.0
 40
1.2
100
AcDbArc
 50
92.8624052261
 51
180.0
  0
LINE
  5
96
100
AcDbEntity
  8
L1_120
  6
CONTINUOUS
 62
         7
100
AcDbLine
 10
1318.3275047567
 20
-345.4386220057
 30
0.0
 11
1319.3275047567
 21
-344.4386220057
 31
0.0
  0
LINE
  5
97
100
AcDbEntity
  8
L1_120
  6
CONTINUOUS
 62
         7
100
AcDbLine
 10
1319.3275047567
 20
-331.8986220057
 30
0.0
 11
1326.8275047567
 21
-331.8986220057
 31
0.0
  0
LINE
  5
98
100
AcDbEntity
  8
L1_120
  6
CONTINUOUS
 62
         7
100
AcDbLine
 10
1319.3275047567
 20
-344.4386220057
 30
0.0
 11
1326.8275047567
 21
-344.4386220057
 31
0.0
  0
LINE
  5
99
100
AcDbEntity
  8
L1_120
  6
CONTINUOUS
 62
         7
100
AcDbLine
 10
1319.3275047567
 20
-355.1686220057
 30
0.0
 11
1331.3314793529
 21
-355.1686220057
 31
0.0
  0
LINE
  5
9A
100
AcDbEntity
  8
L1_120
  6
CONTINUOUS
 62
         7
100
AcDbLine
 10
1319.3275047567
 20
-321.1686220057
 30
0.0
 11
1331.3314793529
 21
-321.1686220057
 31
0.0
  0
ARC
  5
9B
100
AcDbEntity
  8
L1_120
  6
CONTINUOUS
 62
         7
100
AcDbCircle
 10
1319.5275047567
 20
-359.7421229421
 30
0.0
 40
1.2
100
AcDbArc
 50
180.0
 51
267.1375947739
  0
LINE
  5
9C
100
AcDbEntity
  8
L1_120
  6
CONTINUOUS
 62
         7
100
AcDbLine
 10
1318.3275047567
 20
-345.4386220057
 30
0.0
 11
1318.3275047567
 21
-359.7421229421
 31
0.0
  0
LINE
  5
9D
100
AcDbEntity
  8
L1_120
  6
CONTINUOUS
 62
         7
100
AcDbLine
 10
1319.4675796164
 20
-360.9406257487
 30
0.0
 11
1348.3275047567
 21
-362.3836220057
 31
0.0
  0
ARC
  5
9E
100
AcDbEntity
  8
L1_120
  6
CONTINUOUS
 62
         7
100
AcDbCircle
 10
1344.0825067583
 20
-350.1686220057
 30
0.0
 40
8.0
100
AcDbArc
 50
270.0
 51
321.3178125465
  0
LINE
  5
9F
100
AcDbEntity
  8
L1_120
  6
CONTINUOUS
 62
         7
100
AcDbLine
 10
1319.4675796164
 20
-315.3966182627
 30
0.0
 11
1348.3275047567
 21
-313.9536220057
 31
0.0
  0
ARC
  5
A0
100
AcDbEntity
  8
L1_120
  6
CONTINUOUS
 62
         7
100
AcDbCircle
 10
1344.0825067583
 20
-326.1686220057
 30
0.0
 40
8.0
100
AcDbArc
 50
38.6821874535
 51
90.0
  0
LINE
  5
A1
100
AcDbEntity
  8
L1_120
  6
CENTER
 62
         1
100
AcDbLine
 10
1332.2155047567
 20
-319.6686220057
 30
0.0
 11
1332.2155047567
 21
-356.6686220057
 31
0.0
  0
LINE
  5
A2
100
AcDbEntity
  8
L1_120
  6
CONTINUOUS
 62
         7
100
AcDbLine
 10
1360.3275047567
 20
-347.6686220057
 30
0.0
 11
1362.0595555643
 21
-346.6686220057
 31
0.0
  0
LINE
  5
A3
100
AcDbEntity
  8
L1_120
  6
CONTINUOUS
 62
         7
100
AcDbLine
 10
1360.3275047567
 20
-328.6686220057
 30
0.0
 11
1362.0595555643
 21
-329.6686220057
 31
0.0
  0
LINE
  5
A4
100
AcDbEntity
  8
L1_120
  6
CONTINUOUS
 62
         7
100
AcDbLine
 10
1362.0595555643
 20
-329.6686220057
 30
0.0
 11
1362.0595555643
 21
-346.6686220057
 31
0.0
  0
LINE
  5
A5
100
AcDbEntity
  8
L1_120
  6
CONTINUOUS
 62
         7
100
AcDbLine
 10
1362.0595555643
 20
-329.6686220057
 30
0.0
 11
1369.3275047567
 21
-329.6686220057
 31
0.0
  0
LINE
  5
A6
100
AcDbEntity
  8
L1_120
  6
CONTINUOUS
 62
         5
100
AcDbLine
 10
1361.1935301605
 20
-347.1686220057
 30
0.0
 11
1369.3275047567
 21
-347.1686220057
 31
0.0
  0
LINE
  5
A7
100
AcDbEntity
  8
L1_120
  6
CONTINUOUS
 62
         7
100
AcDbLine
 10
1362.0595555643
 20
-346.6686220057
 30
0.0
 11
1369.3275047567
 21
-346.6686220057
 31
0.0
  0
LINE
  5
A8
100
AcDbEntity
  8
L1_120
  6
CONTINUOUS
 62
         5
100
AcDbLine
 10
1361.1935301605
 20
-329.1686220057
 30
0.0
 11
1369.3275047567
 21
-329.1686220057
 31
0.0
  0
ARC
  5
A9
100
AcDbEntity
  8
L1_120
  6
CONTINUOUS
 62
         7
100
AcDbCircle
 10
1351.3275047567
 20
-307.6686220057
 30
0.0
 40
1.0
100
AcDbArc
 50
90.0
 51
180.0
  0
ARC
  5
AA
100
AcDbEntity
  8
L1_120
  6
CONTINUOUS
 62
         7
100
AcDbCircle
 10
1351.3275047567
 20
-368.6686220057
 30
0.0
 40
1.0
100
AcDbArc
 50
180.0
 51
270.0
  0
LINE
  5
AB
100
AcDbEntity
  8
L1_120
  6
CONTINUOUS
 62
         7
100
AcDbLine
 10
1350.3275047567
 20
-368.6686220057
 30
0.0
 11
1350.3275047567
 21
-367.6686220057
 31
0.0
  0
LINE
  5
AC
100
AcDbEntity
  8
L1_120
  6
CONTINUOUS
 62
         7
100
AcDbLine
 10
1350.3275047567
 20
-308.6686220057
 30
0.0
 11
1350.3275047567
 21
-307.6686220057
 31
0.0
  0
LINE
  5
AD
100
AcDbEntity
  8
L1_120
  6
CONTINUOUS
 62
         7
100
AcDbLine
 10
1352.3275047567
 20
-369.6686220057
 30
0.0
 11
1351.3275047567
 21
-369.6686220057
 31
0.0
  0
LINE
  5
AE
100
AcDbEntity
  8
L1_120
  6
CONTINUOUS
 62
         7
100
AcDbLine
 10
1352.3275047567
 20
-306.6686220057
 30
0.0
 11
1351.3275047567
 21
-306.6686220057
 31
0.0
  0
LINE
  5
AF
100
AcDbEntity
  8
L1_120
  6
DASHED
 62
         2
100
AcDbLine
 10
1328.3275047567
 20
-235.4826198827
 30
0.0
 11
1324.3275047567
 21
-234.5196202423
 31
0.0
  0
LINE
  5
B0
100
AcDbEntity
  8
L1_120
  6
DASHED
 62
         2
100
AcDbLine
 10
1322.8275047567
 20
-230.5461702895
 30
0.0
 11
1326.8275047567
 21
-230.5461702895
 31
0.0
  0
ARC
  5
B1
100
AcDbEntity
  8
L1_120
  6
DASHED
 62
         2
100
AcDbCircle
 10
1326.8275047567
 20
-229.0461702895
 30
0.0
 40
1.5
100
AcDbArc
 50
270.0
 51
360.0
  0
LINE
  5
B2
100
AcDbEntity
  8
L1_120
  6
DASHED
 62
         2
100
AcDbLine
 10
1326.8275047567
 20
-218.0061702895
 30
0.0
 11
1322.8275047567
 21
-218.0061702895
 31
0.0
  0
ARC
  5
B3
100
AcDbEntity
  8
L1_120
  6
DASHED
 62
         2
100
AcDbCircle
 10
1326.8275047567
 20
-219.5061702895
 30
0.0
 40
1.5
100
AcDbArc
 50
0.0
 51
90.0
  0
LINE
  5
B4
100
AcDbEntity
  8
L1_120
  6
DASHED
 62
         2
100
AcDbLine
 10
1328.3275047567
 20
-213.0697206963
 30
0.0
 11
1328.3275047567
 21
-235.4826198827
 31
0.0
  0
LINE
  5
B5
100
AcDbEntity
  8
L1_120
  6
DASHED
 62
         2
100
AcDbLine
 10
1328.3275047567
 20
-213.0697206963
 30
0.0
 11
1324.3275047567
 21
-214.0327203366
 31
0.0
  0
CIRCLE
  5
B6
100
AcDbEntity
  8
L1_120
  6
CONTINUOUS
 62
         7
100
AcDbCircle
 10
1362.2275047567
 20
-224.2761702895
 30
0.0
 40
7.0
  0
LINE
  5
B7
100
AcDbEntity
  8
L1_120
  6
CONTINUOUS
 62
         7
100
AcDbLine
 10
1371.7050038315
 20
-192.7761702895
 30
0.0
 11
1375.3275047567
 21
-192.7761702895
 31
0.0
  0
LINE
  5
B8
100
AcDbEntity
  8
L1_120
  6
CONTINUOUS
 62
         7
100
AcDbLine
 10
1351.3275047567
 20
-192.7761702895
 30
0.0
 11
1364.950005682
 21
-192.7761702895
 31
0.0
  0
LINE
  5
B9
100
AcDbEntity
  8
L1_120
  6
CONTINUOUS
 62
         7
100
AcDbLine
 10
1366.4525047567
 20
-196.7761702895
 30
0.0
 11
1370.2025047567
 21
-196.7761702895
 31
0.0
  0
LINE
  5
BA
100
AcDbEntity
  8
L1_120
  6
CONTINUOUS
 62
         7
100
AcDbLine
 10
1366.4525047567
 20
-251.7761702895
 30
0.0
 11
1370.2025047567
 21
-251.7761702895
 31
0.0
  0
LINE
  5
BB
100
AcDbEntity
  8
L1_120
  6
CONTINUOUS
 62
         7
100
AcDbLine
 10
1366.4525047567
 20
-253.1737655537
 30
0.0
 11
1364.950005682
 21
-255.7761702895
 31
0.0
  0
LINE
  5
BC
100
AcDbEntity
  8
L1_120
  6
CONTINUOUS
 62
         7
100
AcDbLine
 10
1370.2025047567
 20
-253.1737655537
 30
0.0
 11
1371.7050038315
 21
-255.7761702895
 31
0.0
  0
LINE
  5
BD
100
AcDbEntity
  8
L1_120
  6
CONTINUOUS
 62
         7
100
AcDbLine
 10
1371.7050038315
 20
-255.7761702895
 30
0.0
 11
1375.3275047567
 21
-255.7761702895
 31
0.0
  0
LINE
  5
BE
100
AcDbEntity
  8
L1_120
  6
CONTINUOUS
 62
         7
100
AcDbLine
 10
1349.0739149182
 20
-200.2611702895
 30
0.0
 11
1350.3275047567
 21
-200.2611702895
 31
0.0
  0
LINE
  5
BF
100
AcDbEntity
  8
L1_120
  6
CONTINUOUS
 62
         7
100
AcDbLine
 10
1348.3275047567
 20
-200.0611702895
 30
0.0
 11
1349.0739149182
 21
-200.2611702895
 31
0.0
  0
LINE
  5
C0
100
AcDbEntity
  8
L1_120
  6
CONTINUOUS
 62
         7
100
AcDbLine
 10
1348.3275047567
 20
-248.4911702895
 30
0.0
 11
1349.0739149182
 21
-248.2911702895
 31
0.0
  0
LINE
  5
C1
100
AcDbEntity
  8
L1_120
  6
CONTINUOUS
 62
         7
100
AcDbLine
 10
1349.0739149182
 20
-248.2911702895
 30
0.0
 11
1350.3275047567
 21
-248.2911702895
 31
0.0
  0
LINE
  5
C2
100
AcDbEntity
  8
L1_120
  6
CONTINUOUS
 62
         7
100
AcDbLine
 10
1349.0739149182
 20
-200.2611702895
 30
0.0
 11
1349.0739149182
 21
-248.2911702895
 31
0.0
  0
LINE
  5
C3
100
AcDbEntity
  8
L1_120
  6
CONTINUOUS
 62
         7
100
AcDbLine
 10
1348.3275047567
 20
-200.0611702895
 30
0.0
 11
1348.3275047567
 21
-248.4911702895
 31
0.0
  0
LINE
  5
C4
100
AcDbEntity
  8
L1_120
  6
CONTINUOUS
 62
         7
100
AcDbLine
 10
1351.3275047567
 20
-255.7761702895
 30
0.0
 11
1364.950005682
 21
-255.7761702895
 31
0.0
  0
LINE
  5
C5
100
AcDbEntity
  8
L1_120
  6
CENTER
 62
         1
100
AcDbLine
 10
1368.3275047567
 20
-192.7925626408
 30
0.0
 11
1368.3275047567
 21
-255.780146533
 31
0.0
  0
LINE
  5
C6
100
AcDbEntity
  8
L1_120
  6
CONTINUOUS
 62
         7
100
AcDbLine
 10
1350.3275047567
 20
-193.7761702895
 30
0.0
 11
1350.3275047567
 21
-254.7761702895
 31
0.0
  0
LINE
  5
C7
100
AcDbEntity
  8
L1_120
  6
CONTINUOUS
 62
         7
100
AcDbLine
 10
1366.4525047567
 20
-195.3785750253
 30
0.0
 11
1364.950005682
 21
-192.7761702895
 31
0.0
  0
LINE
  5
C8
100
AcDbEntity
  8
L1_120
  6
CONTINUOUS
 62
         7
100
AcDbLine
 10
1370.2025047567
 20
-195.3785750253
 30
0.0
 11
1371.7050038315
 21
-192.7761702895
 31
0.0
  0
LINE
  5
C9
100
AcDbEntity
  8
L1_120
  6
CENTER
 62
         1
100
AcDbLine
 10
1341.3275047567
 20
-218.5261702895
 30
0.0
 11
1341.3275047567
 21
-230.0261702895
 31
0.0
  0
CIRCLE
  5
CA
100
AcDbEntity
  8
L1_120
  6
CONTINUOUS
 62
         7
100
AcDbCircle
 10
1341.3275047567
 20
-224.2761702895
 30
0.0
 40
3.75
  0
ARC
  5
CB
100
AcDbEntity
  8
L1_120
  6
CONTINUOUS
 62
         7
100
AcDbCircle
 10
1340.3985139215
 20
-224.2761702895
 30
0.0
 40
3.3210091648
100
AcDbArc
 50
154.8526658028
 51
180.0
  0
ARC
  5
CC
100
AcDbEntity
  8
L1_120
  6
CONTINUOUS
 62
         7
100
AcDbCircle
 10
1340.848299976
 20
-224.4873187713
 30
0.0
 40
3.8178906156
100
AcDbArc
 50
131.423665625
 51
154.8526658028
  0
POLYLINE
  5
CE
100
AcDbEntity
  8
L1_120
  6
CONTINUOUS
 62
         7
100
AcDb3dPolyline
 66
         1
 10
0.0
 20
0.0
 30
0.0
 70
         8
  0
VERTEX
  5
D0
100
AcDbEntity
  8
L1_120
  6
CONTINUOUS
 62
         7
100
AcDbVertex
100
AcDb3dPolylineVertex
 10
1338.3223009367
 20
-221.62451986
 30
0.0
 70
        32
  0
VERTEX
  5
D2
100
AcDbEntity
  8
L1_120
  6
CONTINUOUS
 62
         7
100
AcDbVertex
100
AcDb3dPolylineVertex
 10
1338.3223009367
 20
-221.62451986
 30
0.0
 70
        32
  0
SEQEND
  5
D4
100
AcDbEntity
  8
L1_120
  6
CONTINUOUS
 62
         7
  0
ARC
  5
D5
100
AcDbEntity
  8
L1_120
  6
CONTINUOUS
 62
         7
100
AcDbCircle
 10
1341.1388739935
 20
-224.8166359911
 30
0.0
 40
4.2570751907
100
AcDbArc
 50
110.0764763031
 51
131.423665625
  0
POLYLINE
  5
D7
100
AcDbEntity
  8
L1_120
  6
CONTINUOUS
 62
         7
100
AcDb3dPolyline
 66
         1
 10
0.0
 20
0.0
 30
0.0
 70
         8
  0
VERTEX
  5
D9
100
AcDbEntity
  8
L1_120
  6
CONTINUOUS
 62
         7
100
AcDbVertex
100
AcDb3dPolylineVertex
 10
1339.6775303154
 20
-220.8182408339
 30
0.0
 70
        32
  0
VERTEX
  5
DB
100
AcDbEntity
  8
L1_120
  6
CONTINUOUS
 62
         7
100
AcDbVertex
100
AcDb3dPolylineVertex
 10
1339.6775303154
 20
-220.8182408339
 30
0.0
 70
        32
  0
SEQEND
  5
DD
100
AcDbEntity
  8
L1_120
  6
CONTINUOUS
 62
         7
  0
ARC
  5
DE
100
AcDbEntity
  8
L1_120
  6
CONTINUOUS
 62
         7
100
AcDbCircle
 10
1341.3275047567
 20
-225.3327502641
 30
0.0
 40
4.8065799746
100
AcDbArc
 50
90.0
 51
110.0764763031
  0
POLYLINE
  5
E0
100
AcDbEntity
  8
L1_120
  6
CONTINUOUS
 62
         7
100
AcDb3dPolyline
 66
         1
 10
0.0
 20
0.0
 30
0.0
 70
         8
  0
VERTEX
  5
E2
100
AcDbEntity
  8
L1_120
  6
CONTINUOUS
 62
         7
100
AcDbVertex
100
AcDb3dPolylineVertex
 10
1341.3275047567
 20
-220.5261702895
 30
0.0
 70
        32
  0
VERTEX
  5
E4
100
AcDbEntity
  8
L1_120
  6
CONTINUOUS
 62
         7
100
AcDbVertex
100
AcDb3dPolylineVertex
 10
1341.3275047567
 20
-220.5261702895
 30
0.0
 70
        32
  0
SEQEND
  5
E6
100
AcDbEntity
  8
L1_120
  6
CONTINUOUS
 62
         7
  0
ARC
  5
E7
100
AcDbEntity
  8
L1_120
  6
CONTINUOUS
 62
         7
100
AcDbCircle
 10
1341.3275047567
 20
-225.3327502641
 30
0.0
 40
4.8065799746
100
AcDbArc
 50
69.9235236968
 51
90.0
  0
POLYLINE
  5
E9
100
AcDbEntity
  8
L1_120
  6
CONTINUOUS
 62
         7
100
AcDb3dPolyline
 66
         1
 10
0.0
 20
0.0
 30
0.0
 70
         8
  0
VERTEX
  5
EB
100
AcDbEntity
  8
L1_120
  6
CONTINUOUS
 62
         7
100
AcDbVertex
100
AcDb3dPolylineVertex
 10
1342.977479198
 20
-220.8182408339
 30
0.0
 70
        32
  0
VERTEX
  5
ED
100
AcDbEntity
  8
L1_120
  6
CONTINUOUS
 62
         7
100
AcDbVertex
100
AcDb3dPolylineVertex
 10
1342.977479198
 20
-220.8182408339
 30
0.0
 70
        32
  0
SEQEND
  5
EF
100
AcDbEntity
  8
L1_120
  6
CONTINUOUS
 62
         7
  0
ARC
  5
F0
100
AcDbEntity
  8
L1_120
  6
CONTINUOUS
 62
         7
100
AcDbCircle
 10
1341.5161355199
 20
-224.8166359911
 30
0.0
 40
4.2570751907
100
AcDbArc
 50
48.576334375
 51
69.9235236969
  0
POLYLINE
  5
F2
100
AcDbEntity
  8
L1_120
  6
CONTINUOUS
 62
         7
100
AcDb3dPolyline
 66
         1
 10
0.0
 20
0.0
 30
0.0
 70
         8
  0
VERTEX
  5
F4
100
AcDbEntity
  8
L1_120
  6
CONTINUOUS
 62
         7
100
AcDbVertex
100
AcDb3dPolylineVertex
 10
1344.3327085768
 20
-221.62451986
 30
0.0
 70
        32
  0
VERTEX
  5
F6
100
AcDbEntity
  8
L1_120
  6
CONTINUOUS
 62
         7
100
AcDbVertex
100
AcDb3dPolylineVertex
 10
1344.3327085768
 20
-221.62451986
 30
0.0
 70
        32
  0
SEQEND
  5
F8
100
AcDbEntity
  8
L1_120
  6
CONTINUOUS
 62
         7
  0
ARC
  5
F9
100
AcDbEntity
  8
L1_120
  6
CONTINUOUS
 62
         7
100
AcDbCircle
 10
1341.8067095374
 20
-224.4873187713
 30
0.0
 40
3.8178906156
100
AcDbArc
 50
25.1473341972
 51
48.576334375
  0
POLYLINE
  5
FB
100
AcDbEntity
  8
L1_120
  6
CONTINUOUS
 62
         7
100
AcDb3dPolyline
 66
         1
 10
0.0
 20
0.0
 30
0.0
 70
         8
  0
VERTEX
  5
FD
100
AcDbEntity
  8
L1_120
  6
CONTINUOUS
 62
         7
100
AcDbVertex
100
AcDb3dPolylineVertex
 10
1345.2627330087
 20
-222.8649160718
 30
0.0
 70
        32
  0
VERTEX
  5
FF
100
AcDbEntity
  8
L1_120
  6
CONTINUOUS
 62
         7
100
AcDbVertex
100
AcDb3dPolylineVertex
 10
1345.2627330087
 20
-222.8649160718
 30
0.0
 70
        32
  0
SEQEND
  5
101
100
AcDbEntity
  8
L1_120
  6
CONTINUOUS
 62
         7
  0
ARC
  5
102
100
AcDbEntity
  8
L1_120
  6
CONTINUOUS
 62
         7
100
AcDbCircle
 10
1342.2564955919
 20
-224.2761702895
 30
0.0
 40
3.3210091648
100
AcDbArc
 50
0.0
 51
25.1473341972
  0
POLYLINE
  5
104
100
AcDbEntity
  8
L1_120
  6
CONTINUOUS
 62
         7
100
AcDb3dPolyline
 66
         1
 10
0.0
 20
0.0
 30
0.0
 70
         8
  0
VERTEX
  5
106
100
AcDbEntity
  8
L1_120
  6
CONTINUOUS
 62
         7
100
AcDbVertex
100
AcDb3dPolylineVertex
 10
1345.5775047567
 20
-224.2761702895
 30
0.0
 70
        32
  0
VERTEX
  5
108
100
AcDbEntity
  8
L1_120
  6
CONTINUOUS
 62
         7
100
AcDbVertex
100
AcDb3dPolylineVertex
 10
1345.5775047567
 20
-224.2761702895
 30
0.0
 70
        32
  0
SEQEND
  5
10A
100
AcDbEntity
  8
L1_120
  6
CONTINUOUS
 62
         7
  0
ARC
  5
10B
100
AcDbEntity
  8
L1_120
  6
CONTINUOUS
 62
         7
100
AcDbCircle
 10
1342.2564955919
 20
-224.2761702895
 30
0.0
 40
3.3210091648
100
AcDbArc
 50
334.8526658028
 51
360.0
  0
POLYLINE
  5
10D
100
AcDbEntity
  8
L1_120
  6
CONTINUOUS
 62
         7
100
AcDb3dPolyline
 66
         1
 10
0.0
 20
0.0
 30
0.0
 70
         8
  0
VERTEX
  5
10F
100
AcDbEntity
  8
L1_120
  6
CONTINUOUS
 62
         7
100
AcDbVertex
100
AcDb3dPolylineVertex
 10
1345.2627330087
 20
-225.6874245072
 30
0.0
 70
        32
  0
VERTEX
  5
111
100
AcDbEntity
  8
L1_120
  6
CONTINUOUS
 62
         7
100
AcDbVertex
100
AcDb3dPolylineVertex
 10
1345.2627330087
 20
-225.6874245072
 30
0.0
 70
        32
  0
SEQEND
  5
113
100
AcDbEntity
  8
L1_120
  6
CONTINUOUS
 62
         7
  0
ARC
  5
114
100
AcDbEntity
  8
L1_120
  6
CONTINUOUS
 62
         7
100
AcDbCircle
 10
1341.8067095374
 20
-224.0650218077
 30
0.0
 40
3.8178906156
100
AcDbArc
 50
311.423665625
 51
334.8526658028
  0
POLYLINE
  5
116
100
AcDbEntity
  8
L1_120
  6
CONTINUOUS
 62
         7
100
AcDb3dPolyline
 66
         1
 10
0.0
 20
0.0
 30
0.0
 70
         8
  0
VERTEX
  5
118
100
AcDbEntity
  8
L1_120
  6
CONTINUOUS
 62
         7
100
AcDbVertex
100
AcDb3dPolylineVertex
 10
1344.3327085768
 20
-226.9278207189
 30
0.0
 70
        32
  0
VERTEX
  5
11A
100
AcDbEntity
  8
L1_120
  6
CONTINUOUS
 62
         7
100
AcDbVertex
100
AcDb3dPolylineVertex
 10
1344.3327085768
 20
-226.9278207189
 30
0.0
 70
        32
  0
SEQEND
  5
11C
100
AcDbEntity
  8
L1_120
  6
CONTINUOUS
 62
         7
  0
ARC
  5
11D
100
AcDbEntity
  8
L1_120
  6
CONTINUOUS
 62
         7
100
AcDbCircle
 10
1341.5161355199
 20
-223.7357045878
 30
0.0
 40
4.2570751907
100
AcDbArc
 50
290.0764763032
 51
311.423665625
  0
POLYLINE
  5
11F
100
AcDbEntity
  8
L1_120
  6
CONTINUOUS
 62
         7
100
AcDb3dPolyline
 66
         1
 10
0.0
 20
0.0
 30
0.0
 70
         8
  0
VERTEX
  5
121
100
AcDbEntity
  8
L1_120
  6
CONTINUOUS
 62
         7
100
AcDbVertex
100
AcDb3dPolylineVertex
 10
1342.977479198
 20
-227.7340997451
 30
0.0
 70
        32
  0
VERTEX
  5
123
100
AcDbEntity
  8
L1_120
  6
CONTINUOUS
 62
         7
100
AcDbVertex
100
AcDb3dPolylineVertex
 10
1342.977479198
 20
-227.7340997451
 30
0.0
 70
        32
  0
SEQEND
  5
125
100
AcDbEntity
  8
L1_120
  6
CONTINUOUS
 62
         7
  0
ARC
  5
126
100
AcDbEntity
  8
L1_120
  6
CONTINUOUS
 62
         7
100
AcDbCircle
 10
1341.3275047567
 20
-223.2195903148
 30
0.0
 40
4.8065799746
100
AcDbArc
 50
270.0
 51
290.0764763031
  0
POLYLINE
  5
128
100
AcDbEntity
  8
L1_120
  6
CONTINUOUS
 62
         7
100
AcDb3dPolyline
 66
         1
 10
0.0
 20
0.0
 30
0.0
 70
         8
  0
VERTEX
  5
12A
100
AcDbEntity
  8
L1_120
  6
CONTINUOUS
 62
         7
100
AcDbVertex
100
AcDb3dPolylineVertex
 10
1341.3275047567
 20
-228.0261702895
 30
0.0
 70
        32
  0
VERTEX
  5
12C
100
AcDbEntity
  8
L1_120
  6
CONTINUOUS
 62
         7
100
AcDbVertex
100
AcDb3dPolylineVertex
 10
1341.3275047567
 20
-228.0261702895
 30
0.0
 70
        32
  0
SEQEND
  5
12E
100
AcDbEntity
  8
L1_120
  6
CONTINUOUS
 62
         7
  0
ARC
  5
12F
100
AcDbEntity
  8
L1_120
  6
CONTINUOUS
 62
         7
100
AcDbCircle
 10
1341.3275047567
 20
-223.2195903148
 30
0.0
 40
4.8065799746
100
AcDbArc
 50
249.9235236969
 51
270.0
  0
POLYLINE
  5
131
100
AcDbEntity
  8
L1_120
  6
CONTINUOUS
 62
         7
100
AcDb3dPolyline
 66
         1
 10
0.0
 20
0.0
 30
0.0
 70
         8
  0
VERTEX
  5
133
100
AcDbEntity
  8
L1_120
  6
CONTINUOUS
 62
         7
100
AcDbVertex
100
AcDb3dPolylineVertex
 10
1339.6775303154
 20
-227.7340997451
 30
0.0
 70
        32
  0
VERTEX
  5
135
100
AcDbEntity
  8
L1_120
  6
CONTINUOUS
 62
         7
100
AcDbVertex
100
AcDb3dPolylineVertex
 10
1339.6775303154
 20
-227.7340997451
 30
0.0
 70
        32
  0
SEQEND
  5
137
100
AcDbEntity
  8
L1_120
  6
CONTINUOUS
 62
         7
  0
ARC
  5
138
100
AcDbEntity
  8
L1_120
  6
CONTINUOUS
 62
         7
100
AcDbCircle
 10
1341.1388739935
 20
-223.7357045878
 30
0.0
 40
4.2570751907
100
AcDbArc
 50
228.576334375
 51
249.9235236969
  0
POLYLINE
  5
13A
100
AcDbEntity
  8
L1_120
  6
CONTINUOUS
 62
         7
100
AcDb3dPolyline
 66
         1
 10
0.0
 20
0.0
 30
0.0
 70
         8
  0
VERTEX
  5
13C
100
AcDbEntity
  8
L1_120
  6
CONTINUOUS
 62
         7
100
AcDbVertex
100
AcDb3dPolylineVertex
 10
1338.3223009367
 20
-226.9278207189
 30
0.0
 70
        32
  0
VERTEX
  5
13E
100
AcDbEntity
  8
L1_120
  6
CONTINUOUS
 62
         7
100
AcDbVertex
100
AcDb3dPolylineVertex
 10
1338.3223009367
 20
-226.9278207189
 30
0.0
 70
        32
  0
SEQEND
  5
140
100
AcDbEntity
  8
L1_120
  6
CONTINUOUS
 62
         7
  0
ARC
  5
141
100
AcDbEntity
  8
L1_120
  6
CONTINUOUS
 62
         7
100
AcDbCircle
 10
1340.848299976
 20
-224.0650218077
 30
0.0
 40
3.8178906156
100
AcDbArc
 50
205.1473341972
 51
228.576334375
  0
POLYLINE
  5
143
100
AcDbEntity
  8
L1_120
  6
CONTINUOUS
 62
         7
100
AcDb3dPolyline
 66
         1
 10
0.0
 20
0.0
 30
0.0
 70
         8
  0
VERTEX
  5
145
100
AcDbEntity
  8
L1_120
  6
CONTINUOUS
 62
         7
100
AcDbVertex
100
AcDb3dPolylineVertex
 10
1337.3922765048
 20
-225.6874245072
 30
0.0
 70
        32
  0
VERTEX
  5
147
100
AcDbEntity
  8
L1_120
  6
CONTINUOUS
 62
         7
100
AcDbVertex
100
AcDb3dPolylineVertex
 10
1337.3922765048
 20
-225.6874245072
 30
0.0
 70
        32
  0
SEQEND
  5
149
100
AcDbEntity
  8
L1_120
  6
CONTINUOUS
 62
         7
  0
ARC
  5
14A
100
AcDbEntity
  8
L1_120
  6
CONTINUOUS
 62
         7
100
AcDbCircle
 10
1340.3985139215
 20
-224.2761702895
 30
0.0
 40
3.3210091648
100
AcDbArc
 50
180.0
 51
205.1473341972
  0
POLYLINE
  5
14C
100
AcDbEntity
  8
L1_120
  6
CONTINUOUS
 62
         7
100
AcDb3dPolyline
 66
         1
 10
0.0
 20
0.0
 30
0.0
 70
         8
  0
VERTEX
  5
14E
100
AcDbEntity
  8
L1_120
  6
CONTINUOUS
 62
         7
100
AcDbVertex
100
AcDb3dPolylineVertex
 10
1337.0775047567
 20
-224.2761702895
 30
0.0
 70
        32
  0
VERTEX
  5
150
100
AcDbEntity
  8
L1_120
  6
CONTINUOUS
 62
         7
100
AcDbVertex
100
AcDb3dPolylineVertex
 10
1337.0775047567
 20
-224.2761702895
 30
0.0
 70
        32
  0
SEQEND
  5
152
100
AcDbEntity
  8
L1_120
  6
CONTINUOUS
 62
         7
  0
LINE
  5
153
100
AcDbEntity
  8
L1_120
  6
CENTER
 62
         1
100
AcDbLine
 10
1344.0275047567
 20
-200.2761702895
 30
0.0
 11
1344.0275047567
 21
-248.2761702895
 31
0.0
  0
LINE
  5
154
100
AcDbEntity
  8
L1_120
  6
CONTINUOUS
 62
         7
100
AcDbLine
 10
1324.3275047567
 20
-214.0327203366
 30
0.0
 11
1324.3275047567
 21
-234.5196202423
 31
0.0
  0
LINE
  5
155
100
AcDbEntity
  8
L1_120
  6
CONTINUOUS
 62
         7
100
AcDbLine
 10
1318.3275047567
 20
-202.7026693532
 30
0.0
 11
1318.3275047567
 21
-217.0061702895
 31
0.0
  0
LINE
  5
156
100
AcDbEntity
  8
L1_120
  6
CONTINUOUS
 62
         7
100
AcDbLine
 10
1319.3275047567
 20
-218.0061702895
 30
0.0
 11
1319.3275047567
 21
-215.2772749566
 31
0.0
  0
LINE
  5
157
100
AcDbEntity
  8
L1_120
  6
CONTINUOUS
 62
         7
100
AcDbLine
 10
1318.3275047567
 20
-217.0061702895
 30
0.0
 11
1319.3275047567
 21
-218.0061702895
 31
0.0
  0
LINE
  5
158
100
AcDbEntity
  8
L1_120
  6
CONTINUOUS
 62
         7
100
AcDbLine
 10
1319.3275047567
 20
-218.0061702895
 30
0.0
 11
1322.8275047567
 21
-218.0061702895
 31
0.0
  0
LINE
  5
159
100
AcDbEntity
  8
L1_120
  6
CONTINUOUS
 62
         7
100
AcDbLine
 10
1319.3275047567
 20
-230.5461702895
 30
0.0
 11
1319.3275047567
 21
-233.2750656224
 31
0.0
  0
LINE
  5
15A
100
AcDbEntity
  8
L1_120
  6
CONTINUOUS
 62
         7
100
AcDbLine
 10
1318.3275047567
 20
-231.5461702895
 30
0.0
 11
1319.3275047567
 21
-230.5461702895
 31
0.0
  0
LINE
  5
15B
100
AcDbEntity
  8
L1_120
  6
CONTINUOUS
 62
         7
100
AcDbLine
 10
1319.3275047567
 20
-230.5461702895
 30
0.0
 11
1322.8275047567
 21
-230.5461702895
 31
0.0
  0
ARC
  5
15C
100
AcDbEntity
  8
L1_120
  6
CONTINUOUS
 62
         7
100
AcDbCircle
 10
1319.5275047567
 20
-202.7026693532
 30
0.0
 40
1.2
100
AcDbArc
 50
92.8624052261
 51
180.0
  0
ARC
  5
15D
100
AcDbEntity
  8
L1_120
  6
CONTINUOUS
 62
         7
100
AcDbCircle
 10
1322.8275047567
 20
-219.5061702895
 30
0.0
 40
1.5
100
AcDbArc
 50
0.0
 51
90.0
  0
LINE
  5
15E
100
AcDbEntity
  8
L1_120
  6
CONTINUOUS
 62
         7
100
AcDbLine
 10
1324.3275047567
 20
-214.0327203366
 30
0.0
 11
1318.3275047567
 21
-215.5261858805
 31
0.0
  0
ARC
  5
15F
100
AcDbEntity
  8
L1_120
  6
CONTINUOUS
 62
         7
100
AcDbCircle
 10
1322.8275047567
 20
-229.0461702895
 30
0.0
 40
1.5
100
AcDbArc
 50
270.0
 51
360.0
  0
LINE
  5
160
100
AcDbEntity
  8
L1_120
  6
CONTINUOUS
 62
         7
100
AcDbLine
 10
1324.3275047567
 20
-234.5196202423
 30
0.0
 11
1318.3275047567
 21
-233.0261546984
 31
0.0
  0
ARC
  5
161
100
AcDbEntity
  8
L1_120
  6
CONTINUOUS
 62
         7
100
AcDbCircle
 10
1319.5275047567
 20
-245.8496712258
 30
0.0
 40
1.2
100
AcDbArc
 50
180.0
 51
267.1375947739
  0
LINE
  5
162
100
AcDbEntity
  8
L1_120
  6
CONTINUOUS
 62
         7
100
AcDbLine
 10
1318.3275047567
 20
-231.5461702895
 30
0.0
 11
1318.3275047567
 21
-245.8496712258
 31
0.0
  0
LINE
  5
163
100
AcDbEntity
  8
L1_120
  6
CONTINUOUS
 62
         7
100
AcDbLine
 10
1319.4675796164
 20
-247.0481740325
 30
0.0
 11
1348.3275047567
 21
-248.4911702895
 31
0.0
  0
LINE
  5
164
100
AcDbEntity
  8
L1_120
  6
CONTINUOUS
 62
         7
100
AcDbLine
 10
1319.4675796164
 20
-201.5041665465
 30
0.0
 11
1348.3275047567
 21
-200.0611702895
 31
0.0
  0
LINE
  5
165
100
AcDbEntity
  8
L1_120
  6
CONTINUOUS
 62
         7
100
AcDbLine
 10
1376.3275047567
 20
-193.7761702895
 30
0.0
 11
1376.3275047567
 21
-254.7761702895
 31
0.0
  0
LINE
  5
166
100
AcDbEntity
  8
L1_120
  6
CONTINUOUS
 62
         7
100
AcDbLine
 10
1352.3275047567
 20
-192.7761702895
 30
0.0
 11
1351.3275047567
 21
-192.7761702895
 31
0.0
  0
LINE
  5
167
100
AcDbEntity
  8
L1_120
  6
CONTINUOUS
 62
         7
100
AcDbLine
 10
1352.3275047567
 20
-255.7761702895
 30
0.0
 11
1351.3275047567
 21
-255.7761702895
 31
0.0
  0
LINE
  5
168
100
AcDbEntity
  8
L1_120
  6
CONTINUOUS
 62
         7
100
AcDbLine
 10
1350.3275047567
 20
-194.7761702895
 30
0.0
 11
1350.3275047567
 21
-193.7761702895
 31
0.0
  0
LINE
  5
169
100
AcDbEntity
  8
L1_120
  6
CONTINUOUS
 62
         7
100
AcDbLine
 10
1376.3275047567
 20
-205.2761702895
 30
0.0
 11
1376.3275047567
 21
-193.7761702895
 31
0.0
  0
LINE
  5
16A
100
AcDbEntity
  8
L1_120
  6
CONTINUOUS
 62
         7
100
AcDbLine
 10
1376.3275047567
 20
-254.7761702895
 30
0.0
 11
1376.3275047567
 21
-243.2761702895
 31
0.0
  0
LINE
  5
16B
100
AcDbEntity
  8
L1_120
  6
CONTINUOUS
 62
         7
100
AcDbLine
 10
1350.3275047567
 20
-254.7761702895
 30
0.0
 11
1350.3275047567
 21
-253.7761702895
 31
0.0
  0
LINE
  5
16C
100
AcDbEntity
  8
L1_120
  6
CONTINUOUS
 62
         7
100
AcDbLine
 10
1375.3275047567
 20
-255.7761702895
 30
0.0
 11
1374.3275047567
 21
-255.7761702895
 31
0.0
  0
LINE
  5
16D
100
AcDbEntity
  8
L1_120
  6
CONTINUOUS
 62
         7
100
AcDbLine
 10
1375.3275047567
 20
-192.7761702895
 30
0.0
 11
1374.3275047567
 21
-192.7761702895
 31
0.0
  0
ARC
  5
16E
100
AcDbEntity
  8
L1_120
  6
CONTINUOUS
 62
         7
100
AcDbCircle
 10
1375.3275047567
 20
-254.7761702895
 30
0.0
 40
1.0
100
AcDbArc
 50
270.0
 51
360.0
  0
ARC
  5
16F
100
AcDbEntity
  8
L1_120
  6
CONTINUOUS
 62
         7
100
AcDbCircle
 10
1351.3275047567
 20
-254.7761702895
 30
0.0
 40
1.0
100
AcDbArc
 50
180.0
 51
270.0
  0
ARC
  5
170
100
AcDbEntity
  8
L1_120
  6
CONTINUOUS
 62
         7
100
AcDbCircle
 10
1351.3275047567
 20
-193.7761702895
 30
0.0
 40
1.0
100
AcDbArc
 50
90.0
 51
180.0
  0
LINE
  5
171
100
AcDbEntity
  8
L1_120
  6
CONTINUOUS
 62
         7
100
AcDbLine
 10
1364.950005682
 20
-192.7761702895
 30
0.0
 11
1364.950005682
 21
-215.2761702895
 31
0.0
  0
LINE
  5
172
100
AcDbEntity
  8
L1_120
  6
CONTINUOUS
 62
         7
100
AcDbLine
 10
1366.4525047567
 20
-195.3785750253
 30
0.0
 11
1366.4525047567
 21
-216.2761702895
 31
0.0
  0
LINE
  5
173
100
AcDbEntity
  8
L1_120
  6
CONTINUOUS
 62
         7
100
AcDbLine
 10
1370.2025047567
 20
-195.3785750253
 30
0.0
 11
1370.2025047567
 21
-216.2761702895
 31
0.0
  0
LINE
  5
174
100
AcDbEntity
  8
L1_120
  6
CONTINUOUS
 62
         7
100
AcDbLine
 10
1371.7050038315
 20
-192.7761702895
 30
0.0
 11
1371.7050038315
 21
-215.2761702895
 31
0.0
  0
LINE
  5
175
100
AcDbEntity
  8
L1_120
  6
CONTINUOUS
 62
         7
100
AcDbLine
 10
1371.7050038315
 20
-215.2761702895
 30
0.0
 11
1376.3275047567
 21
-215.2761702895
 31
0.0
  0
LINE
  5
176
100
AcDbEntity
  8
L1_120
  6
CONTINUOUS
 62
         7
100
AcDbLine
 10
1363.3275047567
 20
-216.2761702895
 30
0.0
 11
1376.3275047567
 21
-216.2761702895
 31
0.0
  0
ARC
  5
177
100
AcDbEntity
  8
L1_120
  6
CONTINUOUS
 62
         7
100
AcDbCircle
 10
1363.3275047567
 20
-224.2761702895
 30
0.0
 40
9.0
100
AcDbArc
 50
90.0
 51
270.0
  0
ARC
  5
178
100
AcDbEntity
  8
L1_120
  6
CONTINUOUS
 62
         7
100
AcDbCircle
 10
1363.3275047567
 20
-224.2761702895
 30
0.0
 40
8.0
100
AcDbArc
 50
90.0
 51
270.0
  0
LINE
  5
179
100
AcDbEntity
  8
L1_120
  6
CONTINUOUS
 62
         7
100
AcDbLine
 10
1363.3275047567
 20
-232.2761702895
 30
0.0
 11
1376.3275047567
 21
-232.2761702895
 31
0.0
  0
LINE
  5
17A
100
AcDbEntity
  8
L1_120
  6
CONTINUOUS
 62
         7
100
AcDbLine
 10
1364.950005682
 20
-244.2761702895
 30
0.0
 11
1364.950005682
 21
-233.2761702895
 31
0.0
  0
LINE
  5
17B
100
AcDbEntity
  8
L1_120
  6
CONTINUOUS
 62
         7
100
AcDbLine
 10
1364.950005682
 20
-248.6123573368
 30
0.0
 11
1355.3275047567
 21
-248.6123573368
 31
0.0
  0
ARC
  5
17C
100
AcDbEntity
  8
L1_120
  6
CONTINUOUS
 62
         7
100
AcDbCircle
 10
1362.4392186604
 20
-252.2761702895
 30
0.0
 40
8.0
100
AcDbArc
 50
90.0
 51
152.7433806908
  0
LINE
  5
17D
100
AcDbEntity
  8
L1_120
  6
CONTINUOUS
 62
         7
100
AcDbLine
 10
1364.950005682
 20
-255.7761702895
 30
0.0
 11
1364.950005682
 21
-248.6123573368
 31
0.0
  0
LINE
  5
17E
100
AcDbEntity
  8
L1_120
  6
CONTINUOUS
 62
         7
100
AcDbLine
 10
1366.4525047567
 20
-253.1737655537
 30
0.0
 11
1366.4525047567
 21
-232.2761702895
 31
0.0
  0
LINE
  5
17F
100
AcDbEntity
  8
L1_120
  6
CONTINUOUS
 62
         7
100
AcDbLine
 10
1364.950005682
 20
-248.6123573368
 30
0.0
 11
1366.4525047567
 21
-245.1345262183
 31
0.0
  0
LINE
  5
180
100
AcDbEntity
  8
L1_120
  6
CONTINUOUS
 62
         7
100
AcDbLine
 10
1366.4525047567
 20
-244.2761702895
 30
0.0
 11
1362.4392186604
 21
-244.2761702895
 31
0.0
  0
LINE
  5
181
100
AcDbEntity
  8
L1_120
  6
CONTINUOUS
 62
         7
100
AcDbLine
 10
1371.7050038315
 20
-255.7761702895
 30
0.0
 11
1371.7050038315
 21
-248.6123573368
 31
0.0
  0
LINE
  5
182
100
AcDbEntity
  8
L1_120
  6
CONTINUOUS
 62
         7
100
AcDbLine
 10
1370.2025047567
 20
-253.1737655537
 30
0.0
 11
1370.2025047567
 21
-232.2761702895
 31
0.0
  0
LINE
  5
183
100
AcDbEntity
  8
L1_120
  6
CONTINUOUS
 62
         7
100
AcDbLine
 10
1370.2025047567
 20
-245.1345262183
 30
0.0
 11
1371.7050038315
 21
-248.6123573368
 31
0.0
  0
LINE
  5
184
100
AcDbEntity
  8
L1_120
  6
CONTINUOUS
 62
         7
100
AcDbLine
 10
1375.3275047567
 20
-248.6123573368
 30
0.0
 11
1371.7050038315
 21
-248.6123573368
 31
0.0
  0
LINE
  5
185
100
AcDbEntity
  8
L1_120
  6
CONTINUOUS
 62
         7
100
AcDbLine
 10
1363.3275047567
 20
-215.2761702895
 30
0.0
 11
1364.950005682
 21
-215.2761702895
 31
0.0
  0
LINE
  5
186
100
AcDbEntity
  8
L1_120
  6
CONTINUOUS
 62
         7
100
AcDbLine
 10
1363.3275047567
 20
-233.2761702895
 30
0.0
 11
1364.950005682
 21
-233.2761702895
 31
0.0
  0
LINE
  5
187
100
AcDbEntity
  8
L1_120
  6
CONTINUOUS
 62
         7
100
AcDbLine
 10
1371.7050038315
 20
-244.2761702895
 30
0.0
 11
1371.7050038315
 21
-233.2761702895
 31
0.0
  0
LINE
  5
188
100
AcDbEntity
  8
L1_120
  6
CONTINUOUS
 62
         7
100
AcDbLine
 10
1376.3275047567
 20
-244.2761702895
 30
0.0
 11
1370.2025047567
 21
-244.2761702895
 31
0.0
  0
LINE
  5
189
100
AcDbEntity
  8
L1_120
  6
CONTINUOUS
 62
         7
100
AcDbLine
 10
1371.7050038315
 20
-233.2761702895
 30
0.0
 11
1376.3275047567
 21
-233.2761702895
 31
0.0
  0
LINE
  5
18A
100
AcDbEntity
  8
L1_120
  6
CONTINUOUS
 62
         7
100
AcDbLine
 10
1370.2025047567
 20
-216.2761702895
 30
0.0
 11
1371.7050038315
 21
-215.2761702895
 31
0.0
  0
LINE
  5
18B
100
AcDbEntity
  8
L1_120
  6
CONTINUOUS
 62
         7
100
AcDbLine
 10
1364.950005682
 20
-215.2761702895
 30
0.0
 11
1366.4525047567
 21
-216.2761702895
 31
0.0
  0
LINE
  5
18C
100
AcDbEntity
  8
L1_120
  6
CONTINUOUS
 62
         7
100
AcDbLine
 10
1370.2025047567
 20
-232.2761702895
 30
0.0
 11
1371.7050038315
 21
-233.2761702895
 31
0.0
  0
LINE
  5
18D
100
AcDbEntity
  8
L1_120
  6
CONTINUOUS
 62
         7
100
AcDbLine
 10
1364.950005682
 20
-233.2761702895
 30
0.0
 11
1366.4525047567
 21
-232.2761702895
 31
0.0
  0
LINE
  5
18E
100
AcDbEntity
  8
L1_120
  6
DASHED
 62
         2
100
AcDbLine
 10
1360.2275047567
 20
-195.7282795967
 30
0.0
 11
1354.2275047567
 21
-195.7282795967
 31
0.0
  0
LINE
  5
18F
100
AcDbEntity
  8
L1_120
  6
DASHED
 62
         2
100
AcDbLine
 10
1354.2275047567
 20
-195.7282795967
 30
0.0
 11
1354.2275047567
 21
-210.6804968236
 31
0.0
  0
LINE
  5
190
100
AcDbEntity
  8
L1_120
  6
DASHED
 62
         2
100
AcDbLine
 10
1360.2275047567
 20
-195.7282795967
 30
0.0
 11
1360.2275047567
 21
-210.6804968236
 31
0.0
  0
LINE
  5
191
100
AcDbEntity
  8
L1_120
  6
DASHED
 62
         2
100
AcDbLine
 10
1360.2275047567
 20
-210.6804968236
 30
0.0
 11
1354.2275047567
 21
-210.6804968236
 31
0.0
  0
LINE
  5
192
100
AcDbEntity
  8
L1_120
  6
CENTER
 62
         1
100
AcDbLine
 10
1196.5721451996
 20
-225.0406455357
 30
0.0
 11
1265.5721451996
 21
-225.0406455357
 31
0.0
  0
LINE
  5
193
100
AcDbEntity
  8
L1_120
  6
CENTER
 62
         1
100
AcDbLine
 10
1231.0721451996
 20
-190.5406455357
 30
0.0
 11
1231.0721451996
 21
-259.5406455357
 31
0.0
  0
LINE
  5
194
100
AcDbEntity
  8
L1_120
  6
CENTER
 62
         1
100
AcDbLine
 10
1243.2519449943
 20
-191.5769206263
 30
0.0
 11
1219.021849326
 21
-258.1485613461
 31
0.0
  0
ARC
  5
195
100
AcDbEntity
  8
L1_120
  6
CONTINUOUS
 62
         7
100
AcDbCircle
 10
1375.3275047567
 20
-193.7761702895
 30
0.0
 40
1.0
100
AcDbArc
 50
0.0
 51
90.0
  0
LINE
  5
196
100
AcDbEntity
  8
L1_120
  6
CONTINUOUS
 62
         7
100
AcDbLine
 10
1371.7050038315
 20
-369.6686220057
 30
0.0
 11
1375.3275047567
 21
-369.6686220057
 31
0.0
  0
ARC
  5
197
100
AcDbEntity
  8
L1_120
  6
CONTINUOUS
 62
         7
100
AcDbCircle
 10
1375.3275047567
 20
-247.6123573368
 30
0.0
 40
1.0
100
AcDbArc
 50
270.0
 51
360.0
  0
ARC
  5
198
100
AcDbEntity
  8
L1_120
  6
CONTINUOUS
 62
         7
100
AcDbCircle
 10
1375.3275047567
 20
-193.7761702895
 30
0.0
 40
1.0
100
AcDbArc
 50
0.0
 51
90.0
  0
LINE
  5
199
100
AcDbEntity
  8
L1_120
  6
CONTINUOUS
 62
         7
100
AcDbLine
 10
1375.3275047567
 20
-192.7761702895
 30
0.0
 11
1374.3275047567
 21
-192.7761702895
 31
0.0
  0
LINE
  5
19A
100
AcDbEntity
  8
L1_120
  6
CONTINUOUS
 62
         7
100
AcDbLine
 10
1376.3275047567
 20
-205.2761702895
 30
0.0
 11
1376.3275047567
 21
-193.7761702895
 31
0.0
  0
LINE
  5
19B
100
AcDbEntity
  8
L1_120
  6
CONTINUOUS
 62
         7
100
AcDbLine
 10
1379.3275047567
 20
-197.7740788086
 30
0.0
 11
1413.0130086592
 21
-197.7740788086
 31
0.0
  0
LINE
  5
19C
100
AcDbEntity
  8
L1_120
  6
CONTINUOUS
 62
         7
100
AcDbLine
 10
1379.3275047567
 20
-250.7780788086
 30
0.0
 11
1413.0130086592
 21
-250.7780788086
 31
0.0
  0
ARC
  5
19D
100
AcDbEntity
  8
L1_120
  6
CONTINUOUS
 62
         7
100
AcDbCircle
 10
1379.3275047567
 20
-253.7780788086
 30
0.0
 40
3.0
100
AcDbArc
 50
90.0
 51
180.0
  0
ARC
  5
19E
100
AcDbEntity
  8
L1_120
  6
CONTINUOUS
 62
         7
100
AcDbCircle
 10
1379.3275047567
 20
-194.7740788086
 30
0.0
 40
3.0
100
AcDbArc
 50
180.0
 51
270.0
  0
LINE
  5
19F
100
AcDbEntity
  8
L1_120
  6
DASHED
 62
         2
100
AcDbLine
 10
1386.5349142291
 20
-243.7780788086
 30
0.0
 11
1383.9399142291
 21
-242.27985486
 31
0.0
  0
LINE
  5
1A0
100
AcDbEntity
  8
L1_120
  6
DASHED
 62
         2
100
AcDbLine
 10
1381.3449142291
 20
-243.7780788086
 30
0.0
 11
1383.9399142291
 21
-242.27985486
 31
0.0
  0
LINE
  5
1A1
100
AcDbEntity
  8
L1_120
  6
DASHED
 62
         2
100
AcDbLine
 10
1380.9399142291
 20
-245.7780788086
 30
0.0
 11
1386.9399142291
 21
-245.7780788086
 31
0.0
  0
LINE
  5
1A2
100
AcDbEntity
  8
L1_120
  6
DASHED
 62
         2
100
AcDbLine
 10
1381.3449142291
 20
-243.7780788086
 30
0.0
 11
1386.5349142291
 21
-243.7780788086
 31
0.0
  0
LINE
  5
1A3
100
AcDbEntity
  8
L1_120
  6
DASHED
 62
         2
100
AcDbLine
 10
1386.5349142291
 20
-243.7780788086
 30
0.0
 11
1386.5349142291
 21
-250.2665507044
 31
0.0
  0
LINE
  5
1A4
100
AcDbEntity
  8
L1_120
  6
DASHED
 62
         2
100
AcDbLine
 10
1381.3449142291
 20
-243.7780788086
 30
0.0
 11
1381.3449142291
 21
-250.6750125629
 31
0.0
  0
LINE
  5
1A5
100
AcDbEntity
  8
L1_120
  6
DASHED
 62
         2
100
AcDbLine
 10
1386.9399142291
 20
-245.7780788086
 30
0.0
 11
1386.9399142291
 21
-250.2346765132
 31
0.0
  0
LINE
  5
1A6
100
AcDbEntity
  8
L1_120
  6
DASHED
 62
         2
100
AcDbLine
 10
1380.9399142291
 20
-245.7780788086
 30
0.0
 11
1380.9399142291
 21
-250.7780788086
 31
0.0
  0
LINE
  5
1A7
100
AcDbEntity
  8
L1_120
  6
DASHED
 62
         2
100
AcDbLine
 10
1380.9399142291
 20
-202.7740788086
 30
0.0
 11
1380.9399142291
 21
-197.7740788086
 31
0.0
  0
LINE
  5
1A8
100
AcDbEntity
  8
L1_120
  6
DASHED
 62
         2
100
AcDbLine
 10
1386.9399142291
 20
-202.7740788086
 30
0.0
 11
1386.9399142291
 21
-198.3176640658
 31
0.0
  0
LINE
  5
1A9
100
AcDbEntity
  8
L1_120
  6
DASHED
 62
         2
100
AcDbLine
 10
1381.3449142291
 20
-204.7740788086
 30
0.0
 11
1381.3449142291
 21
-197.8773280161
 31
0.0
  0
LINE
  5
1AA
100
AcDbEntity
  8
L1_120
  6
DASHED
 62
         2
100
AcDbLine
 10
1386.5349142291
 20
-204.7740788086
 30
0.0
 11
1386.5349142291
 21
-198.2857898745
 31
0.0
  0
LINE
  5
1AB
100
AcDbEntity
  8
L1_120
  6
DASHED
 62
         2
100
AcDbLine
 10
1381.3449142291
 20
-204.7740788086
 30
0.0
 11
1386.5349142291
 21
-204.7740788086
 31
0.0
  0
LINE
  5
1AC
100
AcDbEntity
  8
L1_120
  6
DASHED
 62
         2
100
AcDbLine
 10
1380.9399142291
 20
-202.7740788086
 30
0.0
 11
1386.9399142291
 21
-202.7740788086
 31
0.0
  0
LINE
  5
1AD
100
AcDbEntity
  8
L1_120
  6
DASHED
 62
         2
100
AcDbLine
 10
1381.3449142291
 20
-204.7740788086
 30
0.0
 11
1383.9399142291
 21
-206.2723027571
 31
0.0
  0
LINE
  5
1AE
100
AcDbEntity
  8
L1_120
  6
DASHED
 62
         2
100
AcDbLine
 10
1386.5349142291
 20
-204.7740788086
 30
0.0
 11
1383.9399142291
 21
-206.2723027571
 31
0.0
  0
CIRCLE
  5
1AF
100
AcDbEntity
  8
L1_120
  6
CONTINUOUS
 62
         7
100
AcDbCircle
 10
1383.9275047567
 20
-224.2760788086
 30
0.0
 40
2.595
  0
ARC
  5
1B0
100
AcDbEntity
  8
L1_120
  6
CONTINUOUS
 62
         4
100
AcDbCircle
 10
1383.9275047567
 20
-224.2760788086
 30
0.0
 40
3.0
100
AcDbArc
 50
248.8783472373
 51
540.0
  0
LINE
  5
1B1
100
AcDbEntity
  8
L1_120
  6
CENTER
 62
         1
100
AcDbLine
 10
1383.9275047567
 20
-252.8563675988
 30
0.0
 11
1383.9275047567
 21
-190.3984239646
 31
0.0
  0
DIMENSION
  5
1B5
100
AcDbEntity
  8
L1_120
  6
CONTINUOUS
 62
         4
100
AcDbDimension
  2
*D0
 10
1502.6396804633
 20
-197.7742275986
 30
0.0
 11
1500.0146804633
 21
-233.6847069419
 31
0.0
  3
DIMSTYLE1
100
AcDbAlignedDimension
 13
1423.6594887089
 23
-197.7742275986
 33
0.0
 14
1423.6594887089
 24
-250.7782275986
 34
0.0
 50
90.0
100
AcDbRotatedDimension
  0
DIMENSION
  5
1C4
100
AcDbEntity
  8
L1_120
  6
CONTINUOUS
 62
         4
100
AcDbDimension
  2
*D1
 10
1490.4765673485
 20
-201.8382275986
 30
0.0
 11
1487.8515673485
 21
-231.0126833624
 31
0.0
  3
DIMSTYLE1
100
AcDbAlignedDimension
 13
1470.2175047567
 23
-201.8382275986
 33
0.0
 14
1470.2175047567
 24
-246.7142275986
 34
0.0
 50
90.0
100
AcDbRotatedDimension
  0
LINE
  5
1D0
100
AcDbEntity
  8
L1_120
  6
CONTINUOUS
 62
         7
100
AcDbLine
 10
1470.2175047567
 20
-203.2006180903
 30
0.0
 11
1470.2175047567
 21
-245.351837107
 31
0.0
  0
LINE
  5
1D1
100
AcDbEntity
  8
L1_120
  6
CONTINUOUS
 62
         7
100
AcDbLine
 10
1413.0130086592
 20
-197.7741361177
 30
0.0
 11
1469.2959638525
 21
-202.2037007566
 31
0.0
  0
LINE
  5
1D2
100
AcDbEntity
  8
L1_120
  6
CONTINUOUS
 62
         4
100
AcDbLine
 10
1413.0130086592
 20
-197.7741361177
 30
0.0
 11
1413.0130086592
 21
-250.7781361177
 31
0.0
  0
LINE
  5
1D3
100
AcDbEntity
  8
L1_120
  6
CONTINUOUS
 62
         7
100
AcDbLine
 10
1413.0130086592
 20
-250.7783190795
 30
0.0
 11
1469.2959638525
 21
-246.3487544407
 31
0.0
  0
ARC
  5
1D4
100
AcDbEntity
  8
L1_120
  6
CONTINUOUS
 62
         7
100
AcDbCircle
 10
1469.2175047567
 20
-203.2006180903
 30
0.0
 40
1.0
100
AcDbArc
 50
0.0
 51
85.5
  0
ARC
  5
1D5
100
AcDbEntity
  8
L1_120
  6
CONTINUOUS
 62
         7
100
AcDbCircle
 10
1469.2175047567
 20
-245.351837107
 30
0.0
 40
1.0
100
AcDbArc
 50
274.5
 51
360.0
  0
DIMENSION
  5
1D8
100
AcDbEntity
  8
L1_120
  6
CONTINUOUS
 62
         4
100
AcDbDimension
  2
*D2
 10
1413.0130086592
 20
-197.7741361177
 30
0.0
 11
1443.6233395734
 21
-192.8453768476
 31
0.0
 70
         2
  3
DIMSTYLE1
100
AcDb2LineAngularDimension
 13
1412.3075047567
 23
-197.7741361177
 33
0.0
 14
1413.0130086592
 24
-197.7741361177
 34
0.0
 15
1469.2959638525
 25
-202.2037007566
 35
0.0
 16
1441.925971096
 26
-197.7741361177
 36
0.0
  0
LINE
  5
1E7
100
AcDbEntity
  8
L1_120
  6
CONTINUOUS
 62
         7
100
AcDbLine
 10
1376.3275047567
 20
-308.6664732157
 30
0.0
 11
1376.3275047567
 21
-307.6686220057
 31
0.0
  0
LINE
  5
1E8
100
AcDbEntity
  8
L1_120
  6
CONTINUOUS
 62
         7
100
AcDbLine
 10
1376.3275047567
 20
-368.6686220057
 30
0.0
 11
1376.3275047567
 21
-367.6704732157
 31
0.0
  0
LINE
  5
1E9
100
AcDbEntity
  8
L1_120
  6
CONTINUOUS
 62
         7
100
AcDbLine
 10
1375.3275047567
 20
-369.6686220057
 30
0.0
 11
1374.3275047567
 21
-369.6686220057
 31
0.0
  0
LINE
  5
1EA
100
AcDbEntity
  8
L1_120
  6
CONTINUOUS
 62
         7
100
AcDbLine
 10
1375.3275047567
 20
-306.6686220057
 30
0.0
 11
1374.3275047567
 21
-306.6686220057
 31
0.0
  0
ARC
  5
1EB
100
AcDbEntity
  8
L1_120
  6
CONTINUOUS
 62
         7
100
AcDbCircle
 10
1375.3275047567
 20
-368.6686220057
 30
0.0
 40
1.0
100
AcDbArc
 50
270.0
 51
360.0
  0
ARC
  5
1EC
100
AcDbEntity
  8
L1_120
  6
CONTINUOUS
 62
         7
100
AcDbCircle
 10
1375.3275047567
 20
-307.6686220057
 30
0.0
 40
1.0
100
AcDbArc
 50
0.0
 51
90.0
  0
ARC
  5
1ED
100
AcDbEntity
  8
L1_120
  6
CONTINUOUS
 62
         7
100
AcDbCircle
 10
1379.3275047567
 20
-367.6704732157
 30
0.0
 40
3.0
100
AcDbArc
 50
90.0
 51
180.0
  0
ARC
  5
1EE
100
AcDbEntity
  8
L1_120
  6
CONTINUOUS
 62
         7
100
AcDbCircle
 10
1379.3275047567
 20
-308.6664732157
 30
0.0
 40
3.0
100
AcDbArc
 50
180.0
 51
270.0
  0
LINE
  5
1EF
100
AcDbEntity
  8
L1_120
  6
CONTINUOUS
 62
         7
100
AcDbLine
 10
1470.2175047567
 20
-317.0930124974
 30
0.0
 11
1470.2175047567
 21
-359.2442315141
 31
0.0
  0
LINE
  5
1F0
100
AcDbEntity
  8
L1_120
  6
CONTINUOUS
 62
         7
100
AcDbLine
 10
1413.0130086592
 20
-311.6665305249
 30
0.0
 11
1469.2959638525
 21
-316.0960951637
 31
0.0
  0
LINE
  5
1F1
100
AcDbEntity
  8
L1_120
  6
CONTINUOUS
 62
         7
100
AcDbLine
 10
1413.0130086592
 20
-364.6707134867
 30
0.0
 11
1469.2959638525
 21
-360.2411488478
 31
0.0
  0
ARC
  5
1F2
100
AcDbEntity
  8
L1_120
  6
CONTINUOUS
 62
         7
100
AcDbCircle
 10
1469.2175047567
 20
-317.0930124974
 30
0.0
 40
1.0
100
AcDbArc
 50
0.0
 51
85.5
  0
ARC
  5
1F3
100
AcDbEntity
  8
L1_120
  6
CONTINUOUS
 62
         7
100
AcDbCircle
 10
1469.2175047567
 20
-359.2442315141
 30
0.0
 40
1.0
100
AcDbArc
 50
274.5
 51
360.0
  0
LINE
  5
1F4
100
AcDbEntity
  8
L1_120
  6
CONTINUOUS
 62
         7
100
AcDbLine
 10
1379.3275047567
 20
-311.6664732157
 30
0.0
 11
1413.0130086592
 21
-311.6664732157
 31
0.0
  0
LINE
  5
1F5
100
AcDbEntity
  8
L1_120
  6
CONTINUOUS
 62
         7
100
AcDbLine
 10
1379.3275047567
 20
-364.6704732157
 30
0.0
 11
1413.0130086592
 21
-364.6704732157
 31
0.0
  0
LINE
  5
1F6
100
AcDbEntity
  8
L1_120
  6
CONTINUOUS
 62
         4
100
AcDbLine
 10
1380.9399142291
 20
-359.6705646966
 30
0.0
 11
1380.9399142291
 21
-364.5992811613
 31
0.0
  0
LINE
  5
1F7
100
AcDbEntity
  8
L1_120
  6
CONTINUOUS
 62
         4
100
AcDbLine
 10
1386.9399142291
 20
-359.6705646966
 30
0.0
 11
1386.9399142291
 21
-364.1270709203
 31
0.0
  0
LINE
  5
1F8
100
AcDbEntity
  8
L1_120
  6
CONTINUOUS
 62
         7
100
AcDbLine
 10
1381.3449142291
 20
-357.6705646966
 30
0.0
 11
1381.3449142291
 21
-364.56740697
 31
0.0
  0
LINE
  5
1F9
100
AcDbEntity
  8
L1_120
  6
CONTINUOUS
 62
         7
100
AcDbLine
 10
1386.5349142291
 20
-357.6705646966
 30
0.0
 11
1386.5349142291
 21
-364.1589451116
 31
0.0
  0
LINE
  5
1FA
100
AcDbEntity
  8
L1_120
  6
CONTINUOUS
 62
         7
100
AcDbLine
 10
1381.3449142291
 20
-357.6705646966
 30
0.0
 11
1386.5349142291
 21
-357.6705646966
 31
0.0
  0
LINE
  5
1FB
100
AcDbEntity
  8
L1_120
  6
CONTINUOUS
 62
         4
100
AcDbLine
 10
1380.9399142291
 20
-359.6705646966
 30
0.0
 11
1386.9399142291
 21
-359.6705646966
 31
0.0
  0
LINE
  5
1FC
100
AcDbEntity
  8
L1_120
  6
CONTINUOUS
 62
         7
100
AcDbLine
 10
1381.3449142291
 20
-357.6705646966
 30
0.0
 11
1383.9399142291
 21
-356.1723407481
 31
0.0
  0
LINE
  5
1FD
100
AcDbEntity
  8
L1_120
  6
CONTINUOUS
 62
         7
100
AcDbLine
 10
1386.5349142291
 20
-357.6705646966
 30
0.0
 11
1383.9399142291
 21
-356.1723407481
 31
0.0
  0
LINE
  5
1FE
100
AcDbEntity
  8
L1_120
  6
CONTINUOUS
 62
         7
100
AcDbLine
 10
1386.5349142291
 20
-318.6665646966
 30
0.0
 11
1383.9399142291
 21
-320.1647886452
 31
0.0
  0
LINE
  5
1FF
100
AcDbEntity
  8
L1_120
  6
CONTINUOUS
 62
         7
100
AcDbLine
 10
1381.3449142291
 20
-318.6665646966
 30
0.0
 11
1383.9399142291
 21
-320.1647886452
 31
0.0
  0
LINE
  5
200
100
AcDbEntity
  8
L1_120
  6
CONTINUOUS
 62
         4
100
AcDbLine
 10
1380.9399142291
 20
-316.6665646966
 30
0.0
 11
1386.9399142291
 21
-316.6665646966
 31
0.0
  0
LINE
  5
201
100
AcDbEntity
  8
L1_120
  6
CONTINUOUS
 62
         7
100
AcDbLine
 10
1381.3449142291
 20
-318.6665646966
 30
0.0
 11
1386.5349142291
 21
-318.6665646966
 31
0.0
  0
LINE
  5
202
100
AcDbEntity
  8
L1_120
  6
CONTINUOUS
 62
         7
100
AcDbLine
 10
1386.5349142291
 20
-318.6665646966
 30
0.0
 11
1386.5349142291
 21
-312.1781842817
 31
0.0
  0
LINE
  5
203
100
AcDbEntity
  8
L1_120
  6
CONTINUOUS
 62
         7
100
AcDbLine
 10
1381.3449142291
 20
-318.6665646966
 30
0.0
 11
1381.3449142291
 21
-311.7697224232
 31
0.0
  0
LINE
  5
204
100
AcDbEntity
  8
L1_120
  6
CONTINUOUS
 62
         4
100
AcDbLine
 10
1386.9399142291
 20
-316.6665646966
 30
0.0
 11
1386.9399142291
 21
-312.2100584729
 31
0.0
  0
LINE
  5
205
100
AcDbEntity
  8
L1_120
  6
CONTINUOUS
 62
         4
100
AcDbLine
 10
1380.9399142291
 20
-316.6665646966
 30
0.0
 11
1380.9399142291
 21
-311.737848232
 31
0.0
  0
LINE
  5
206
100
AcDbEntity
  8
L1_120
  6
CENTER
 62
         1
100
AcDbLine
 10
1383.9275047567
 20
-366.7488534869
 30
0.0
 11
1383.9275047567
 21
-306.8309098527
 31
0.0
  0
LINE
  5
207
100
AcDbEntity
  8
L1_120
  6
CONTINUOUS
 62
         7
100
AcDbLine
 10
1378.3482306989
 20
-330.6686220058
 30
0.0
 11
1408.2175047567
 21
-330.6686220058
 31
0.0
  0
LINE
  5
208
100
AcDbEntity
  8
L1_120
  6
CONTINUOUS
 62
         7
100
AcDbLine
 10
1378.3482306989
 20
-345.6686220058
 30
0.0
 11
1408.2175047567
 21
-345.6686220058
 31
0.0
  0
LINE
  5
209
100
AcDbEntity
  8
L1_120
  6
CONTINUOUS
 62
         7
100
AcDbLine
 10
1372.8275047567
 20
-334.1686220057
 30
0.0
 11
1372.3275047567
 21
-333.6686220057
 31
0.0
  0
LINE
  5
20A
100
AcDbEntity
  8
L1_120
  6
CONTINUOUS
 62
         7
100
AcDbLine
 10
1372.8275047567
 20
-342.1686220057
 30
0.0
 11
1372.3275047567
 21
-342.6686220057
 31
0.0
  0
LINE
  5
20B
100
AcDbEntity
  8
L1_120
  6
CONTINUOUS
 62
         7
100
AcDbLine
 10
1372.8275047567
 20
-334.1686220057
 30
0.0
 11
1372.8275047567
 21
-342.1686220057
 31
0.0
  0
LINE
  5
20C
100
AcDbEntity
  8
L1_120
  6
CONTINUOUS
 62
         7
100
AcDbLine
 10
1372.8275047567
 20
-342.1686220057
 30
0.0
 11
1376.3275047567
 21
-342.1686220057
 31
0.0
  0
LINE
  5
20D
100
AcDbEntity
  8
L1_120
  6
CONTINUOUS
 62
         7
100
AcDbLine
 10
1372.8275047567
 20
-334.1686220057
 30
0.0
 11
1376.3275047567
 21
-334.1686220057
 31
0.0
  0
LINE
  5
20E
100
AcDbEntity
  8
L1_120
  6
CONTINUOUS
 62
         7
100
AcDbLine
 10
1372.3275047567
 20
-333.6686220057
 30
0.0
 11
1372.3275047567
 21
-342.6686220057
 31
0.0
  0
LINE
  5
20F
100
AcDbEntity
  8
L1_120
  6
CONTINUOUS
 62
         7
100
AcDbLine
 10
1376.3275047567
 20
-334.1686220057
 30
0.0
 11
1376.3275047567
 21
-342.1686220057
 31
0.0
  0
LINE
  5
210
100
AcDbEntity
  8
L1_120
  6
CONTINUOUS
 62
         7
100
AcDbLine
 10
1378.3482306989
 20
-330.6686220058
 30
0.0
 11
1376.3275047567
 21
-334.1686220057
 31
0.0
  0
LINE
  5
211
100
AcDbEntity
  8
L1_120
  6
CONTINUOUS
 62
         7
100
AcDbLine
 10
1378.3482306989
 20
-345.6686220057
 30
0.0
 11
1376.3275047567
 21
-342.1686220057
 31
0.0
  0
LINE
  5
212
100
AcDbEntity
  8
L1_120
  6
CONTINUOUS
 62
         7
100
AcDbLine
 10
1378.3482306989
 20
-330.6686220058
 30
0.0
 11
1378.3482306989
 21
-345.6686220058
 31
0.0
  0
LINE
  5
213
100
AcDbEntity
  8
L1_120
  6
CONTINUOUS
 62
         7
100
AcDbLine
 10
1408.2175047567
 20
-354.6686220058
 30
0.0
 11
1418.2175047567
 21
-354.6686220058
 31
0.0
  0
LINE
  5
214
100
AcDbEntity
  8
L1_120
  6
CONTINUOUS
 62
         7
100
AcDbLine
 10
1408.2175047567
 20
-321.6686220058
 30
0.0
 11
1418.2175047567
 21
-321.6686220058
 31
0.0
  0
ARC
  5
215
100
AcDbEntity
  8
L1_120
  6
CONTINUOUS
 62
         7
100
AcDbCircle
 10
1469.2175047567
 20
-355.0311220058
 30
0.0
 40
1.0
100
AcDbArc
 50
0.0
 51
90.0
  0
ARC
  5
216
100
AcDbEntity
  8
L1_120
  6
CONTINUOUS
 62
         7
100
AcDbCircle
 10
1469.2175047567
 20
-321.3061220058
 30
0.0
 40
1.0
100
AcDbArc
 50
270.0
 51
360.0
  0
LINE
  5
217
100
AcDbEntity
  8
L1_120
  6
CONTINUOUS
 62
         7
100
AcDbLine
 10
1418.2175047567
 20
-354.0311220058
 30
0.0
 11
1469.2175047567
 21
-354.0311220058
 31
0.0
  0
LINE
  5
218
100
AcDbEntity
  8
L1_120
  6
CONTINUOUS
 62
         7
100
AcDbLine
 10
1418.2175047567
 20
-322.3061220058
 30
0.0
 11
1469.2175047567
 21
-322.3061220058
 31
0.0
  0
LINE
  5
219
100
AcDbEntity
  8
L1_120
  6
CONTINUOUS
 62
         7
100
AcDbLine
 10
1408.2175047567
 20
-321.6686220058
 30
0.0
 11
1408.2175047567
 21
-354.6686220058
 31
0.0
  0
LINE
  5
21A
100
AcDbEntity
  8
L1_120
  6
CONTINUOUS
 62
         7
100
AcDbLine
 10
1418.2175047567
 20
-321.6686220058
 30
0.0
 11
1418.2175047567
 21
-354.6686220058
 31
0.0
  0
LINE
  5
21B
100
AcDbEntity
  8
L1_120
  6
CONTINUOUS
 62
         4
100
AcDbLine
 10
1469.2175047567
 20
-322.3061220058
 30
0.0
 11
1469.2175047567
 21
-354.0311220058
 31
0.0
  0
LINE
  5
21C
100
AcDbEntity
  8
L1_120
  6
CONTINUOUS
 62
         4
100
AcDbLine
 10
1388.2175047567
 20
-330.1686220058
 30
0.0
 11
1408.2175047567
 21
-330.1686220058
 31
0.0
  0
LINE
  5
21D
100
AcDbEntity
  8
L1_120
  6
CONTINUOUS
 62
         4
100
AcDbLine
 10
1388.2175047567
 20
-346.1686220058
 30
0.0
 11
1408.2175047567
 21
-346.1686220058
 31
0.0
  0
LINE
  5
21E
100
AcDbEntity
  8
L1_120
  6
CONTINUOUS
 62
         4
100
AcDbLine
 10
1388.2175047567
 20
-330.1686220058
 30
0.0
 11
1388.2175047567
 21
-346.1686220058
 31
0.0
  0
LINE
  5
21F
100
AcDbEntity
  8
L1_120
  6
CENTER
 62
         1
100
AcDbLine
 10
1318.3275047567
 20
-338.1686220058
 30
0.0
 11
1470.2175047567
 21
-338.1686220058
 31
0.0
  0
LINE
  5
220
100
AcDbEntity
  8
L1_120
  6
CENTER
 62
         1
100
AcDbLine
 10
1318.7219489357
 20
-224.2762334432
 30
0.0
 11
1470.2175047567
 21
-224.2762334432
 31
0.0
  0
DIMENSION
  5
223
100
AcDbEntity
  8
L1_120
  6
CONTINUOUS
 62
         4
100
AcDbDimension
  2
*D3
 10
1350.3275047567
 20
-169.652778253
 30
0.0
 11
1407.0790585882
 21
-167.027778253
 31
0.0
  3
DIMSTYLE1
100
AcDbAlignedDimension
 13
1350.3275047567
 23
-194.2761702895
 33
0.0
 14
1470.2175047567
 24
-214.1870085819
 34
0.0
100
AcDbRotatedDimension
  0
DIMENSION
  5
231
100
AcDbEntity
  8
L1_120
  6
CONTINUOUS
 62
         4
100
AcDbDimension
  2
*D4
 10
1318.3275047567
 20
-154.897069585
 30
0.0
 11
1388.7980431411
 21
-152.272069585
 31
0.0
  3
DIMSTYLE1
100
AcDbAlignedDimension
 13
1318.3275047567
 23
-202.7026693532
 33
0.0
 14
1470.2175047567
 24
-214.1870085819
 34
0.0
100
AcDbRotatedDimension
  0
INSERT
  5
298
100
AcDbEntity
  8
0
  6
CONTINUOUS
100
AcDbBlockReference
  2
*X5
 10
0.0
 20
0.0
 30
0.0
  0
CIRCLE
  5
299
100
AcDbEntity
  8
L1_120
  6
DASHED
 62
         2
100
AcDbCircle
 10
1549.2828643139
 20
-224.2761702895
 30
0.0
 40
27.5101842974
  0
LINE
  5
29A
100
AcDbEntity
  8
L1_120
  6
CENTER
 62
         1
100
AcDbLine
 10
1549.2828643139
 20
-224.2761702895
 30
0.0
 11
1532.1731689814
 21
-253.9110319075
 31
0.0
  0
LINE
  5
29B
100
AcDbEntity
  8
L1_120
  6
CENTER
 62
         1
100
AcDbLine
 10
1549.2828643139
 20
-224.2761702895
 30
0.0
 11
1546.2058807329
 21
-259.4462535555
 31
0.0
  0
LINE
  5
29C
100
AcDbEntity
  8
L1_120
  6
CENTER
 62
         1
100
AcDbLine
 10
1549.2828643139
 20
-259.7154547367
 30
0.0
 11
1549.2828643139
 21
-187.7579770031
 31
0.0
  0
LINE
  5
29D
100
AcDbEntity
  8
L1_120
  6
CENTER
 62
         1
100
AcDbLine
 10
1549.2828643139
 20
-224.2761702895
 30
0.0
 11
1558.4209531937
 21
-258.3799822728
 31
0.0
  0
LINE
  5
29E
100
AcDbEntity
  8
L1_120
  6
CENTER
 62
         1
100
AcDbLine
 10
1549.2828643139
 20
-224.2761702895
 30
0.0
 11
1569.0909656007
 21
-252.5650706597
 31
0.0
  0
LINE
  5
29F
100
AcDbEntity
  8
L1_120
  6
DASHED
 62
         2
100
AcDbLine
 10
1548.3686322075
 20
-234.7258910826
 30
0.0
 11
1546.5372325506
 21
-235.5798867677
 31
0.0
  0
LINE
  5
2A0
100
AcDbEntity
  8
L1_120
  6
DASHED
 62
         2
100
AcDbLine
 10
1550.023913994
 20
-235.8849318673
 30
0.0
 11
1548.3686322075
 21
-234.7258910826
 31
0.0
  0
LINE
  5
2A1
100
AcDbEntity
  8
L1_120
  6
DASHED
 62
         2
100
AcDbLine
 10
1548.6336107826
 20
-251.7761702894
 30
0.0
 11
1550.023913994
 21
-235.8849318673
 31
0.0
  0
LINE
  5
2A2
100
AcDbEntity
  8
L1_120
  6
DASHED
 62
         2
100
AcDbLine
 10
1546.5372325506
 20
-235.5798867677
 30
0.0
 11
1545.14759858
 21
-251.4634757335
 31
0.0
  0
LINE
  5
2A3
100
AcDbEntity
  8
L1_120
  6
DASHED
 62
         2
100
AcDbLine
 10
1537.0756004498
 20
-248.9197715235
 30
0.0
 11
1545.0484087705
 21
-235.110462433
 31
0.0
  0
LINE
  5
2A4
100
AcDbEntity
  8
L1_120
  6
DASHED
 62
         2
100
AcDbLine
 10
1542.0173198573
 20
-233.360462433
 30
0.0
 11
1534.0451890096
 21
-247.1685981057
 31
0.0
  0
LINE
  5
2A5
100
AcDbEntity
  8
L1_120
  6
DASHED
 62
         2
100
AcDbLine
 10
1544.0380457995
 20
-233.360462433
 30
0.0
 11
1542.0173198573
 21
-233.360462433
 31
0.0
  0
LINE
  5
2A6
100
AcDbEntity
  8
L1_120
  6
DASHED
 62
         2
100
AcDbLine
 10
1545.0484087705
 20
-235.110462433
 30
0.0
 11
1544.0380457995
 21
-233.360462433
 31
0.0
  0
LINE
  5
2A7
100
AcDbEntity
  8
L1_120
  6
DASHED
 62
         2
100
AcDbLine
 10
1555.2994729395
 20
-232.8687779055
 30
0.0
 11
1554.4454772544
 21
-234.7001775624
 31
0.0
  0
LINE
  5
2A8
100
AcDbEntity
  8
L1_120
  6
DASHED
 62
         2
100
AcDbLine
 10
1557.3125094094
 20
-232.6926600352
 30
0.0
 11
1555.2994729395
 21
-232.8687779055
 31
0.0
  0
LINE
  5
2A9
100
AcDbEntity
  8
L1_120
  6
DASHED
 62
         2
100
AcDbLine
 10
1551.9977821532
 20
-234.4083816041
 30
0.0
 11
1550.5689131366
 21
-235.8372506207
 31
0.0
  0
LINE
  5
2AA
100
AcDbEntity
  8
L1_120
  6
DASHED
 62
         2
100
AcDbLine
 10
1553.9496535286
 20
-234.9313839628
 30
0.0
 11
1551.9977821532
 21
-234.4083816041
 31
0.0
  0
LINE
  5
2AB
100
AcDbEntity
  8
L1_120
  6
DASHED
 62
         2
100
AcDbLine
 10
1558.0764229555
 20
-250.3326971353
 30
0.0
 11
1553.9496535286
 21
-234.9313839628
 31
0.0
  0
LINE
  5
2AC
100
AcDbEntity
  8
L1_120
  6
DASHED
 62
         2
100
AcDbLine
 10
1550.5689131366
 20
-235.8372506207
 30
0.0
 11
1554.6955917234
 21
-251.2382247733
 31
0.0
  0
LINE
  5
2AD
100
AcDbEntity
  8
L1_120
  6
DASHED
 62
         2
100
AcDbLine
 10
1566.458539378
 20
-245.7545445045
 30
0.0
 11
1557.3125094094
 21
-232.6926600352
 31
0.0
  0
LINE
  5
2AE
100
AcDbEntity
  8
L1_120
  6
DASHED
 62
         2
100
AcDbLine
 10
1554.4454772544
 20
-234.7001775624
 30
0.0
 11
1563.5907300578
 21
-247.7609521248
 31
0.0
  0
LINE
  5
2AF
100
AcDbEntity
  8
L1_120
  6
DASHED
 62
         2
100
AcDbLine
 10
1546.5372325506
 20
-235.5798867677
 30
0.0
 11
1550.023913994
 21
-235.8849318673
 31
0.0
  0
LINE
  5
2B0
100
AcDbEntity
  8
L1_120
  6
DASHED
 62
         2
100
AcDbLine
 10
1542.0173198573
 20
-233.360462433
 30
0.0
 11
1545.0484087705
 21
-235.110462433
 31
0.0
  0
LINE
  5
2B1
100
AcDbEntity
  8
L1_120
  6
DASHED
 62
         2
100
AcDbLine
 10
1550.5689131366
 20
-235.8372506207
 30
0.0
 11
1553.9496535286
 21
-234.9313839628
 31
0.0
  0
LINE
  5
2B2
100
AcDbEntity
  8
L1_120
  6
DASHED
 62
         2
100
AcDbLine
 10
1554.4454772544
 20
-234.7001775624
 30
0.0
 11
1557.3125094094
 21
-232.6926600352
 31
0.0
  0
LINE
  5
2B3
100
AcDbEntity
  8
L1_120
  6
CONTINUOUS
 62
         7
100
AcDbLine
 10
1529.2828643139
 20
-244.2761702895
 30
0.0
 11
1529.7828643139
 21
-243.7761702895
 31
0.0
  0
LINE
  5
2B4
100
AcDbEntity
  8
L1_120
  6
CONTINUOUS
 62
         7
100
AcDbLine
 10
1529.7828643139
 20
-243.7761702895
 30
0.0
 11
1529.7828643139
 21
-249.0148040432
 31
0.0
  0
LINE
  5
2B5
100
AcDbEntity
  8
L1_120
  6
CONTINUOUS
 62
         7
100
AcDbLine
 10
1529.2828643139
 20
-244.2761702895
 30
0.0
 11
1529.2828643139
 21
-248.6123573368
 31
0.0
  0
LINE
  5
2B6
100
AcDbEntity
  8
L1_120
  6
CONTINUOUS
 62
         7
100
AcDbLine
 10
1524.5442305602
 20
-243.7761702895
 30
0.0
 11
1529.7828643139
 21
-243.7761702895
 31
0.0
  0
LINE
  5
2B7
100
AcDbEntity
  8
L1_120
  6
CONTINUOUS
 62
         7
100
AcDbLine
 10
1524.9466772666
 20
-244.2761702895
 30
0.0
 11
1529.2828643139
 21
-244.2761702895
 31
0.0
  0
LINE
  5
2B8
100
AcDbEntity
  8
L1_120
  6
CONTINUOUS
 62
         7
100
AcDbLine
 10
1524.6940457168
 20
-244.1561702895
 30
0.0
 11
1529.4028643139
 21
-244.1561702895
 31
0.0
  0
LINE
  5
2B9
100
AcDbEntity
  8
L1_120
  6
CONTINUOUS
 62
         7
100
AcDbLine
 10
1529.4028643139
 20
-244.1561702895
 30
0.0
 11
1529.4028643139
 21
-248.8649888866
 31
0.0
  0
LINE
  5
2BA
100
AcDbEntity
  8
L1_120
  6
CONTINUOUS
 62
         7
100
AcDbLine
 10
1530.4028643139
 20
-243.1561702895
 30
0.0
 11
1530.4028643139
 21
-249.6409095943
 31
0.0
  0
LINE
  5
2BB
100
AcDbEntity
  8
L1_120
  6
CONTINUOUS
 62
         7
100
AcDbLine
 10
1523.9181250091
 20
-243.1561702895
 30
0.0
 11
1530.4028643139
 21
-243.1561702895
 31
0.0
  0
LINE
  5
2BC
100
AcDbEntity
  8
L1_120
  6
CONTINUOUS
 62
         7
100
AcDbLine
 10
1530.4028643139
 20
-243.1561702895
 30
0.0
 11
1529.4028643139
 21
-244.1561702895
 31
0.0
  0
LINE
  5
2BD
100
AcDbEntity
  8
L1_120
  6
CONTINUOUS
 62
         7
100
AcDbLine
 10
1522.7828643139
 20
-215.2761702895
 30
0.0
 11
1522.7828643139
 21
-233.2761702895
 31
0.0
  0
LINE
  5
2BE
100
AcDbEntity
  8
L1_120
  6
CONTINUOUS
 62
         7
100
AcDbLine
 10
1519.8507390083
 20
-232.2761702895
 30
0.0
 11
1522.7828643139
 21
-232.2761702895
 31
0.0
  0
LINE
  5
2BF
100
AcDbEntity
  8
L1_120
  6
CONTINUOUS
 62
         7
100
AcDbLine
 10
1519.8507390083
 20
-216.2761702895
 30
0.0
 11
1522.7828643139
 21
-216.2761702895
 31
0.0
  0
LINE
  5
2C0
100
AcDbEntity
  8
L1_120
  6
CONTINUOUS
 62
         7
100
AcDbLine
 10
1519.0959466176
 20
-233.2761702895
 30
0.0
 11
1519.8507390083
 21
-232.2761702895
 31
0.0
  0
LINE
  5
2C1
100
AcDbEntity
  8
L1_120
  6
CONTINUOUS
 62
         7
100
AcDbLine
 10
1519.0959466176
 20
-215.2761702895
 30
0.0
 11
1519.8507390083
 21
-216.2761702895
 31
0.0
  0
LINE
  5
2C2
100
AcDbEntity
  8
L1_120
  6
CONTINUOUS
 62
         7
100
AcDbLine
 10
1519.0959466176
 20
-215.2761702895
 30
0.0
 11
1522.7828643139
 21
-215.2761702895
 31
0.0
  0
LINE
  5
2C3
100
AcDbEntity
  8
L1_120
  6
CONTINUOUS
 62
         7
100
AcDbLine
 10
1519.0959466176
 20
-233.2761702895
 30
0.0
 11
1522.7828643139
 21
-233.2761702895
 31
0.0
  0
ARC
  5
2C4
100
AcDbEntity
  8
L1_120
  6
CONTINUOUS
 62
         7
100
AcDbCircle
 10
1549.2828643139
 20
-224.2761702895
 30
0.0
 40
30.5
100
AcDbArc
 50
164.7937121239
 51
195.2062878761
  0
LINE
  5
2C5
100
AcDbEntity
  8
L1_120
  6
CONTINUOUS
 62
         7
100
AcDbLine
 10
1579.1534183764
 20
-234.2761702895
 30
0.0
 11
1578.4247585557
 21
-233.2761702895
 31
0.0
  0
LINE
  5
2C6
100
AcDbEntity
  8
L1_120
  6
CONTINUOUS
 62
         7
100
AcDbLine
 10
1579.1534183764
 20
-214.2761702895
 30
0.0
 11
1578.4247585557
 21
-215.2761702895
 31
0.0
  0
ARC
  5
2C7
100
AcDbEntity
  8
L1_120
  6
CONTINUOUS
 62
         7
100
AcDbCircle
 10
1549.2828643139
 20
-224.2761702895
 30
0.0
 40
30.5
100
AcDbArc
 50
342.8375474519
 51
377.1624525481
  0
LINE
  5
2C8
100
AcDbEntity
  8
L1_120
  6
CONTINUOUS
 62
         7
100
AcDbLine
 10
1575.7828643139
 20
-214.2761702895
 30
0.0
 11
1575.7828643139
 21
-234.2761702895
 31
0.0
  0
LINE
  5
2C9
100
AcDbEntity
  8
L1_120
  6
CONTINUOUS
 62
         7
100
AcDbLine
 10
1578.4247585557
 20
-233.2761702895
 30
0.0
 11
1575.7828643139
 21
-233.2761702895
 31
0.0
  0
LINE
  5
2CA
100
AcDbEntity
  8
L1_120
  6
CONTINUOUS
 62
         7
100
AcDbLine
 10
1578.4247585557
 20
-215.2761702895
 30
0.0
 11
1575.7828643139
 21
-215.2761702895
 31
0.0
  0
LINE
  5
2CB
100
AcDbEntity
  8
L1_120
  6
CONTINUOUS
 62
         7
100
AcDbLine
 10
1579.1534183764
 20
-214.2761702895
 30
0.0
 11
1575.7828643139
 21
-214.2761702895
 31
0.0
  0
LINE
  5
2CC
100
AcDbEntity
  8
L1_120
  6
CONTINUOUS
 62
         7
100
AcDbLine
 10
1579.1534183764
 20
-234.2761702895
 30
0.0
 11
1575.7828643139
 21
-234.2761702895
 31
0.0
  0
LINE
  5
2CD
100
AcDbEntity
  8
L1_120
  6
CENTER
 62
         1
100
AcDbLine
 10
1514.7828643139
 20
-224.2761702895
 30
0.0
 11
1583.3774220009
 21
-224.2761702895
 31
0.0
  0
CIRCLE
  5
2CE
100
AcDbEntity
  8
L1_120
  6
CONTINUOUS
 62
         7
100
AcDbCircle
 10
1549.2828643139
 20
-224.2761702895
 30
0.0
 40
31.5
  0
LINE
  5
2CF
100
AcDbEntity
  8
L1_120
  6
CENTER
 62
         1
100
AcDbLine
 10
1549.2828643139
 20
-189.7761702895
 30
0.0
 11
1549.2828643139
 21
-258.7761702895
 31
0.0
  0
LINE
  5
2D0
100
AcDbEntity
  8
L1_120
  6
DASHED
 62
         2
100
AcDbLine
 10
1554.2828643139
 20
-193.6820532079
 30
0.0
 11
1554.716557066
 21
-193.2483604558
 31
0.0
  0
LINE
  5
2D1
100
AcDbEntity
  8
L1_120
  6
DASHED
 62
         2
100
AcDbLine
 10
1544.2828643139
 20
-193.6820532079
 30
0.0
 11
1543.8491715617
 21
-193.2483604558
 31
0.0
  0
ARC
  5
2D2
100
AcDbEntity
  8
L1_120
  6
DASHED
 62
         2
100
AcDbCircle
 10
1549.2828643139
 20
-224.2761702895
 30
0.0
 40
31.0
100
AcDbArc
 50
80.7182009133
 51
99.2817990867
  0
LINE
  5
2D3
100
AcDbEntity
  8
L1_120
  6
DASHED
 62
         2
100
AcDbLine
 10
1553.9828643139
 20
-197.3761702895
 30
0.0
 11
1554.2828643139
 21
-197.0761702895
 31
0.0
  0
LINE
  5
2D4
100
AcDbEntity
  8
L1_120
  6
DASHED
 62
         2
100
AcDbLine
 10
1549.2828643139
 20
-197.9535205587
 30
0.0
 11
1550.2828643139
 21
-197.3761702895
 31
0.0
  0
LINE
  5
2D5
100
AcDbEntity
  8
L1_120
  6
DASHED
 62
         2
100
AcDbLine
 10
1549.2828643139
 20
-197.9535205587
 30
0.0
 11
1548.2828643139
 21
-197.3761702895
 31
0.0
  0
LINE
  5
2D6
100
AcDbEntity
  8
L1_120
  6
DASHED
 62
         2
100
AcDbLine
 10
1544.2828643139
 20
-197.0761702895
 30
0.0
 11
1544.5828643139
 21
-197.3761702895
 31
0.0
  0
LINE
  5
2D7
100
AcDbEntity
  8
L1_120
  6
DASHED
 62
         2
100
AcDbLine
 10
1553.9828643139
 20
-197.3761702895
 30
0.0
 11
1544.5828643139
 21
-197.3761702895
 31
0.0
  0
LINE
  5
2D8
100
AcDbEntity
  8
L1_120
  6
DASHED
 62
         2
100
AcDbLine
 10
1544.2828643139
 20
-197.0761702895
 30
0.0
 11
1554.2828643139
 21
-197.0761702895
 31
0.0
  0
LINE
  5
2D9
100
AcDbEntity
  8
L1_120
  6
DASHED
 62
         2
100
AcDbLine
 10
1554.2828643139
 20
-193.6820532079
 30
0.0
 11
1554.2828643139
 21
-197.0761702895
 31
0.0
  0
LINE
  5
2DA
100
AcDbEntity
  8
L1_120
  6
DASHED
 62
         2
100
AcDbLine
 10
1544.2828643139
 20
-193.6820532079
 30
0.0
 11
1544.2828643139
 21
-197.0761702895
 31
0.0
  0
ARC
  5
2DB
100
AcDbEntity
  8
L1_120
  6
CONTINUOUS
 62
         7
100
AcDbCircle
 10
1549.2828643139
 20
-224.2761702895
 30
0.0
 40
31.5
100
AcDbArc
 50
80.0668994492
 51
99.9331005508
  0
ARC
  5
2DC
100
AcDbEntity
  8
L1_120
  6
DASHED
 62
         2
100
AcDbCircle
 10
1525.1828643139
 20
-230.9761702895
 30
0.0
 40
0.3
100
AcDbArc
 50
270.0
 51
360.0
  0
ARC
  5
2DD
100
AcDbEntity
  8
L1_120
  6
DASHED
 62
         2
100
AcDbCircle
 10
1525.1828643139
 20
-217.5761702895
 30
0.0
 40
0.3
100
AcDbArc
 50
0.0
 51
90.0
  0
LINE
  5
2DE
100
AcDbEntity
  8
L1_120
  6
DASHED
 62
         2
100
AcDbLine
 10
1522.7828643139
 20
-231.2761702895
 30
0.0
 11
1525.1828643139
 21
-231.2761702895
 31
0.0
  0
LINE
  5
2DF
100
AcDbEntity
  8
L1_120
  6
DASHED
 62
         2
100
AcDbLine
 10
1522.7828643139
 20
-217.2761702895
 30
0.0
 11
1525.1828643139
 21
-217.2761702895
 31
0.0
  0
LINE
  5
2E0
100
AcDbEntity
  8
L1_120
  6
DASHED
 62
         2
100
AcDbLine
 10
1525.4828643139
 20
-217.5761702895
 30
0.0
 11
1525.4828643139
 21
-230.9761702895
 31
0.0
  0
LINE
  5
2E1
100
AcDbEntity
  8
L1_120
  6
DASHED
 62
         2
100
AcDbLine
 10
1577.8307550067
 20
-210.6804968236
 30
0.0
 11
1562.8785377798
 21
-195.7282795967
 31
0.0
  0
LINE
  5
2E2
100
AcDbEntity
  8
L1_120
  6
CENTER
 62
         1
100
AcDbLine
 10
1549.2828643139
 20
-224.2761702895
 30
0.0
 11
1577.9855506335
 21
-195.5734839698
 31
0.0
  0
CIRCLE
  5
2E3
100
AcDbEntity
  8
L1_120
  6
DASHED
 62
         2
100
AcDbCircle
 10
1549.2828643139
 20
-224.2761702895
 30
0.0
 40
10.3963414634
  0
CIRCLE
  5
2E4
100
AcDbEntity
  8
L1_120
  6
CONTINUOUS
 62
         7
100
AcDbCircle
 10
1549.2828643139
 20
-224.2761702895
 30
0.0
 40
26.502
  0
LINE
  5
2E5
100
AcDbEntity
  8
L1_120
  6
DASHED
 62
         2
100
AcDbLine
 10
1546.6878643139
 20
-204.490403935
 30
0.0
 11
1549.2828643139
 21
-205.9886278835
 31
0.0
  0
LINE
  5
2E6
100
AcDbEntity
  8
L1_120
  6
DASHED
 62
         2
100
AcDbLine
 10
1551.8778643139
 20
-204.490403935
 30
0.0
 11
1549.2828643139
 21
-205.9886278835
 31
0.0
  0
LINE
  5
2E7
100
AcDbEntity
  8
L1_120
  6
DASHED
 62
         2
100
AcDbLine
 10
1546.6878643139
 20
-204.490403935
 30
0.0
 11
1551.8778643139
 21
-204.490403935
 31
0.0
  0
LINE
  5
2E8
100
AcDbEntity
  8
L1_120
  6
DASHED
 62
         2
100
AcDbLine
 10
1546.2828643139
 20
-202.490403935
 30
0.0
 11
1552.2828643139
 21
-202.490403935
 31
0.0
  0
LINE
  5
2E9
100
AcDbEntity
  8
L1_120
  6
DASHED
 62
         2
100
AcDbLine
 10
1546.2828643139
 20
-202.490403935
 30
0.0
 11
1546.2828643139
 21
-198.1127010835
 31
0.0
  0
LINE
  5
2EA
100
AcDbEntity
  8
L1_120
  6
DASHED
 62
         2
100
AcDbLine
 10
1546.6878643139
 20
-204.490403935
 30
0.0
 11
1546.6878643139
 21
-198.0266502755
 31
0.0
  0
LINE
  5
2EB
100
AcDbEntity
  8
L1_120
  6
DASHED
 62
         2
100
AcDbLine
 10
1552.2828643139
 20
-202.490403935
 30
0.0
 11
1552.2828643139
 21
-198.1127010835
 31
0.0
  0
LINE
  5
2EC
100
AcDbEntity
  8
L1_120
  6
DASHED
 62
         2
100
AcDbLine
 10
1551.8778643139
 20
-204.490403935
 30
0.0
 11
1551.8778643139
 21
-198.0266502755
 31
0.0
  0
LINE
  5
2ED
100
AcDbEntity
  8
L1_120
  6
DASHED
 62
         2
100
AcDbLine
 10
1529.4970979594
 20
-226.8711702895
 30
0.0
 11
1530.9953219079
 21
-224.2761702895
 31
0.0
  0
LINE
  5
2EE
100
AcDbEntity
  8
L1_120
  6
DASHED
 62
         2
100
AcDbLine
 10
1529.4970979594
 20
-221.6811702895
 30
0.0
 11
1530.9953219079
 21
-224.2761702895
 31
0.0
  0
LINE
  5
2EF
100
AcDbEntity
  8
L1_120
  6
DASHED
 62
         2
100
AcDbLine
 10
1529.4970979594
 20
-226.8711702895
 30
0.0
 11
1529.4970979594
 21
-221.6811702895
 31
0.0
  0
LINE
  5
2F0
100
AcDbEntity
  8
L1_120
  6
DASHED
 62
         2
100
AcDbLine
 10
1527.4970979594
 20
-227.2761702895
 30
0.0
 11
1527.4970979594
 21
-221.2761702895
 31
0.0
  0
LINE
  5
2F1
100
AcDbEntity
  8
L1_120
  6
DASHED
 62
         2
100
AcDbLine
 10
1527.4970979594
 20
-227.2761702895
 30
0.0
 11
1523.1193951079
 21
-227.2761702895
 31
0.0
  0
LINE
  5
2F2
100
AcDbEntity
  8
L1_120
  6
DASHED
 62
         2
100
AcDbLine
 10
1529.4970979594
 20
-226.8711702895
 30
0.0
 11
1523.0333442999
 21
-226.8711702895
 31
0.0
  0
LINE
  5
2F3
100
AcDbEntity
  8
L1_120
  6
DASHED
 62
         2
100
AcDbLine
 10
1527.4970979594
 20
-221.2761702895
 30
0.0
 11
1523.1193951079
 21
-221.2761702895
 31
0.0
  0
LINE
  5
2F4
100
AcDbEntity
  8
L1_120
  6
DASHED
 62
         2
100
AcDbLine
 10
1529.4970979594
 20
-221.6811702895
 30
0.0
 11
1523.0333442999
 21
-221.6811702895
 31
0.0
  0
LINE
  5
2F5
100
AcDbEntity
  8
L1_120
  6
DASHED
 62
         2
100
AcDbLine
 10
1551.8778643139
 20
-244.061936644
 30
0.0
 11
1549.2828643139
 21
-242.5637126954
 31
0.0
  0
LINE
  5
2F6
100
AcDbEntity
  8
L1_120
  6
DASHED
 62
         2
100
AcDbLine
 10
1546.6878643139
 20
-244.061936644
 30
0.0
 11
1549.2828643139
 21
-242.5637126954
 31
0.0
  0
LINE
  5
2F7
100
AcDbEntity
  8
L1_120
  6
DASHED
 62
         2
100
AcDbLine
 10
1551.8778643139
 20
-244.061936644
 30
0.0
 11
1546.6878643139
 21
-244.061936644
 31
0.0
  0
LINE
  5
2F8
100
AcDbEntity
  8
L1_120
  6
DASHED
 62
         2
100
AcDbLine
 10
1552.2828643139
 20
-246.061936644
 30
0.0
 11
1546.2828643139
 21
-246.061936644
 31
0.0
  0
LINE
  5
2F9
100
AcDbEntity
  8
L1_120
  6
DASHED
 62
         2
100
AcDbLine
 10
1552.2828643139
 20
-246.061936644
 30
0.0
 11
1552.2828643139
 21
-250.4396394955
 31
0.0
  0
LINE
  5
2FA
100
AcDbEntity
  8
L1_120
  6
DASHED
 62
         2
100
AcDbLine
 10
1551.8778643139
 20
-244.061936644
 30
0.0
 11
1551.8778643139
 21
-250.5256903035
 31
0.0
  0
LINE
  5
2FB
100
AcDbEntity
  8
L1_120
  6
DASHED
 62
         2
100
AcDbLine
 10
1546.2828643139
 20
-246.061936644
 30
0.0
 11
1546.2828643139
 21
-250.4396394955
 31
0.0
  0
LINE
  5
2FC
100
AcDbEntity
  8
L1_120
  6
DASHED
 62
         2
100
AcDbLine
 10
1546.6878643139
 20
-244.061936644
 30
0.0
 11
1546.6878643139
 21
-250.5256903035
 31
0.0
  0
LINE
  5
2FD
100
AcDbEntity
  8
L1_120
  6
DASHED
 62
         2
100
AcDbLine
 10
1569.0686306684
 20
-221.6811702895
 30
0.0
 11
1567.5704067198
 21
-224.2761702895
 31
0.0
  0
LINE
  5
2FE
100
AcDbEntity
  8
L1_120
  6
DASHED
 62
         2
100
AcDbLine
 10
1569.0686306684
 20
-226.8711702895
 30
0.0
 11
1567.5704067198
 21
-224.2761702895
 31
0.0
  0
LINE
  5
2FF
100
AcDbEntity
  8
L1_120
  6
DASHED
 62
         2
100
AcDbLine
 10
1569.0686306684
 20
-221.6811702895
 30
0.0
 11
1569.0686306684
 21
-226.8711702895
 31
0.0
  0
LINE
  5
300
100
AcDbEntity
  8
L1_120
  6
DASHED
 62
         2
100
AcDbLine
 10
1571.0686306684
 20
-221.2761702895
 30
0.0
 11
1571.0686306684
 21
-227.2761702895
 31
0.0
  0
LINE
  5
301
100
AcDbEntity
  8
L1_120
  6
DASHED
 62
         2
100
AcDbLine
 10
1571.0686306684
 20
-221.2761702895
 30
0.0
 11
1575.4463335198
 21
-221.2761702895
 31
0.0
  0
LINE
  5
302
100
AcDbEntity
  8
L1_120
  6
DASHED
 62
         2
100
AcDbLine
 10
1569.0686306684
 20
-221.6811702895
 30
0.0
 11
1575.5323843279
 21
-221.6811702895
 31
0.0
  0
LINE
  5
303
100
AcDbEntity
  8
L1_120
  6
DASHED
 62
         2
100
AcDbLine
 10
1571.0686306684
 20
-227.2761702895
 30
0.0
 11
1575.4463335198
 21
-227.2761702895
 31
0.0
  0
LINE
  5
304
100
AcDbEntity
  8
L1_120
  6
DASHED
 62
         2
100
AcDbLine
 10
1569.0686306684
 20
-226.8711702895
 30
0.0
 11
1575.5323843279
 21
-226.8711702895
 31
0.0
  0
CIRCLE
  5
305
100
AcDbEntity
  8
L1_120
  6
CONTINUOUS
 62
         7
100
AcDbCircle
 10
1549.2828643139
 20
-224.2761702895
 30
0.0
 40
22.0
  0
CIRCLE
  5
306
100
AcDbEntity
  8
L1_120
  6
CONTINUOUS
 62
         7
100
AcDbCircle
 10
1549.2828643139
 20
-224.2761702895
 30
0.0
 40
7.5000000007
  0
CIRCLE
  5
307
100
AcDbEntity
  8
L1_120
  6
CONTINUOUS
 62
         7
100
AcDbCircle
 10
1549.2828643139
 20
-224.2761702895
 30
0.0
 40
12.689
  0
DIMENSION
  5
30A
100
AcDbEntity
  8
L1_120
  6
CONTINUOUS
 62
         4
100
AcDbDimension
  2
*D6
 10
1408.2175047567
 20
-388.4298744716
 30
0.0
 11
1435.6067089878
 21
-384.3698744716
 31
0.0
  3
DIMSTYLE1
100
AcDbAlignedDimension
 13
1408.2175047567
 23
-346.6686220058
 33
0.0
 14
1470.2175047567
 24
-358.7578410225
 34
0.0
100
AcDbRotatedDimension
  0
CIRCLE
  5
316
100
AcDbEntity
  8
L1_120
  6
CONTINUOUS
 62
         7
100
AcDbCircle
 10
1504.2214904728
 20
-321.9753664743
 30
0.0
 40
2.3333333328
  0
LINE
  5
317
100
AcDbEntity
  8
L1_120
  6
CENTER
 62
         1
100
AcDbLine
 10
1548.2607690746
 20
-321.9753664743
 30
0.0
 11
1521.6645487556
 21
-321.9753664743
 31
0.0
  0
LINE
  5
318
100
AcDbEntity
  8
L1_120
  6
CONTINUOUS
 62
         7
100
AcDbLine
 10
1543.3730567046
 20
-315.9753664743
 30
0.0
 11
1525.6730567046
 21
-315.9753664743
 31
0.0
  0
LINE
  5
319
100
AcDbEntity
  8
L1_120
  6
CONTINUOUS
 62
         7
100
AcDbLine
 10
1525.6730567046
 20
-327.9753664743
 30
0.0
 11
1543.3730567046
 21
-327.9753664743
 31
0.0
  0
LINE
  5
31A
100
AcDbEntity
  8
L1_120
  6
CONTINUOUS
 62
         7
100
AcDbLine
 10
1544.8730567046
 20
-317.4753664743
 30
0.0
 11
1544.8730567046
 21
-326.4753664743
 31
0.0
  0
LINE
  5
31B
100
AcDbEntity
  8
L1_120
  6
CONTINUOUS
 62
         7
100
AcDbLine
 10
1524.8730567046
 20
-317.3610071203
 30
0.0
 11
1524.8730567046
 21
-326.5897258282
 31
0.0
  0
LINE
  5
31C
100
AcDbEntity
  8
L1_120
  6
CONTINUOUS
 62
         4
100
AcDbLine
 10
1525.6730567046
 20
-315.9753664743
 30
0.0
 11
1525.6730567046
 21
-327.9753664743
 31
0.0
  0
LINE
  5
31D
100
AcDbEntity
  8
L1_120
  6
CONTINUOUS
 62
         4
100
AcDbLine
 10
1543.3730567046
 20
-315.9753664743
 30
0.0
 11
1543.3730567046
 21
-327.9753664743
 31
0.0
  0
LINE
  5
31E
100
AcDbEntity
  8
L1_120
  6
CONTINUOUS
 62
         7
100
AcDbLine
 10
1525.6730567046
 20
-315.9753664743
 30
0.0
 11
1524.8730567046
 21
-317.3610071203
 31
0.0
  0
LINE
  5
31F
100
AcDbEntity
  8
L1_120
  6
CONTINUOUS
 62
         7
100
AcDbLine
 10
1525.6730567046
 20
-327.9753664743
 30
0.0
 11
1524.8730567046
 21
-326.5897258282
 31
0.0
  0
LINE
  5
320
100
AcDbEntity
  8
L1_120
  6
CONTINUOUS
 62
         7
100
AcDbLine
 10
1543.3730567046
 20
-315.9753664743
 30
0.0
 11
1544.8730567046
 21
-317.4753664743
 31
0.0
  0
LINE
  5
321
100
AcDbEntity
  8
L1_120
  6
CONTINUOUS
 62
         7
100
AcDbLine
 10
1543.3730567046
 20
-327.9753664743
 30
0.0
 11
1544.8730567046
 21
-326.4753664743
 31
0.0
  0
LINE
  5
322
100
AcDbEntity
  8
L1_120
  6
CONTINUOUS
 62
         4
100
AcDbLine
 10
1544.7586973507
 20
-317.3610071203
 30
0.0
 11
1524.8730567046
 21
-317.3610071203
 31
0.0
  0
LINE
  5
323
100
AcDbEntity
  8
L1_120
  6
CONTINUOUS
 62
         4
100
AcDbLine
 10
1544.7586973507
 20
-326.5897258282
 30
0.0
 11
1524.8730567046
 21
-326.5897258282
 31
0.0
  0
LINE
  5
324
100
AcDbEntity
  8
L1_120
  6
CENTER
 62
         1
100
AcDbLine
 10
1515.2801614075
 20
-321.9753664743
 30
0.0
 11
1492.8012829772
 21
-321.9753664743
 31
0.0
  0
LINE
  5
325
100
AcDbEntity
  8
L1_120
  6
CENTER
 62
         1
100
AcDbLine
 10
1504.2214904728
 20
-334.7180539935
 30
0.0
 11
1504.2214904728
 21
-312.3267496738
 31
0.0
  0
CIRCLE
  5
326
100
AcDbEntity
  8
L1_120
  6
CONTINUOUS
 62
         7
100
AcDbCircle
 10
1504.2214904728
 20
-321.9753664743
 30
0.0
 40
4.8191458041
  0
CIRCLE
  5
327
100
AcDbEntity
  8
L1_120
  6
CONTINUOUS
 62
         7
100
AcDbCircle
 10
1504.2214904728
 20
-321.9753664743
 30
0.0
 40
6.666666665
  0
DIMENSION
  5
32A
100
AcDbEntity
  8
L1_120
  6
CONTINUOUS
 62
         4
100
AcDbDimension
  2
*D7
 10
1555.2576349026
 20
-315.9753664743
 30
0.0
 11
1552.6326349026
 21
-313.24249374
 31
0.0
  3
DIMSTYLE1
100
AcDbAlignedDimension
 13
1543.3730567046
 23
-315.9753664743
 33
0.0
 14
1543.3730567046
 24
-327.9753664743
 34
0.0
 50
90.0
100
AcDbRotatedDimension
  0
DIMENSION
  5
33A
100
AcDbEntity
  8
L1_120
  6
CONTINUOUS
 62
         4
100
AcDbDimension
  2
*D8
 10
1524.8730567046
 20
-340.7568759306
 30
0.0
 11
1531.6900634977
 21
-338.1318759306
 31
0.0
  3
DIMSTYLE1
100
AcDbAlignedDimension
 13
1524.8730567046
 23
-326.5897258282
 33
0.0
 14
1544.8730567046
 24
-326.4753664743
 34
0.0
100
AcDbRotatedDimension
  0
LINE
  5
346
100
AcDbEntity
  8
L1_120
  6
DASHED
 62
         2
100
AcDbLine
 10
1528.8730567046
 20
-318.0886151283
 30
0.0
 11
1528.8730567046
 21
-325.8621178202
 31
0.0
  0
LINE
  5
347
100
AcDbEntity
  8
L1_120
  6
CONTINUOUS
 62
         7
100
AcDbLine
 10
1507.5548238053
 20
-320.0508655775
 30
0.0
 11
1504.2214904728
 21
-318.1263646806
 31
0.0
  0
LINE
  5
348
100
AcDbEntity
  8
L1_120
  6
CONTINUOUS
 62
         7
100
AcDbLine
 10
1504.2214904728
 20
-318.1263646806
 30
0.0
 11
1500.8881571403
 21
-320.0508655775
 31
0.0
  0
LINE
  5
349
100
AcDbEntity
  8
L1_120
  6
CONTINUOUS
 62
         7
100
AcDbLine
 10
1500.8881571403
 20
-320.0508655775
 30
0.0
 11
1500.8881571403
 21
-323.8998673711
 31
0.0
  0
LINE
  5
34A
100
AcDbEntity
  8
L1_120
  6
CONTINUOUS
 62
         7
100
AcDbLine
 10
1500.8881571403
 20
-323.8998673711
 30
0.0
 11
1504.2214904728
 21
-325.8243682679
 31
0.0
  0
LINE
  5
34B
100
AcDbEntity
  8
L1_120
  6
CONTINUOUS
 62
         7
100
AcDbLine
 10
1504.2214904728
 20
-325.8243682679
 30
0.0
 11
1507.5548238053
 21
-323.8998673711
 31
0.0
  0
LINE
  5
34C
100
AcDbEntity
  8
L1_120
  6
CONTINUOUS
 62
         7
100
AcDbLine
 10
1507.5548238053
 20
-323.8998673711
 30
0.0
 11
1507.5548238053
 21
-320.0508655775
 31
0.0
  0
LINE
  5
34D
100
AcDbEntity
  8
L1_120
  6
DASHED
 62
         2
100
AcDbLine
 10
1524.8730567046
 20
-318.0886151283
 30
0.0
 11
1528.8730567046
 21
-318.0886151283
 31
0.0
  0
LINE
  5
34E
100
AcDbEntity
  8
L1_120
  6
DASHED
 62
         2
100
AcDbLine
 10
1524.8730567046
 20
-320.5319908013
 30
0.0
 11
1528.8730567046
 21
-320.5319908013
 31
0.0
  0
LINE
  5
34F
100
AcDbEntity
  8
L1_120
  6
DASHED
 62
         2
100
AcDbLine
 10
1524.8730567046
 20
-325.8621178202
 30
0.0
 11
1528.8730567046
 21
-325.8621178202
 31
0.0
  0
LINE
  5
350
100
AcDbEntity
  8
L1_120
  6
DASHED
 62
         2
100
AcDbLine
 10
1524.8730567046
 20
-323.4187421473
 30
0.0
 11
1528.8730567046
 21
-323.4187421473
 31
0.0
  0
CIRCLE
  5
351
100
AcDbEntity
  8
L1_120
  6
CONTINUOUS
 62
         7
100
AcDbCircle
 10
1504.2214904728
 20
-321.9753664743
 30
0.0
 40
3.8490017936
  0
DIMENSION
  5
354
100
AcDbEntity
  8
L1_120
  6
CONTINUOUS
 62
         4
100
AcDbDimension
  2
*D9
 10
1500.8881571403
 20
-309.3860908469
 30
0.0
 11
1501.7164951931
 21
-305.3260908469
 31
0.0
  3
DIMSTYLE1
100
AcDbAlignedDimension
 13
1500.8881571403
 23
-320.0508655775
 33
0.0
 14
1507.5548238053
 24
-320.0508655775
 34
0.0
100
AcDbRotatedDimension
  0
LINE
  5
362
100
AcDbEntity
  8
L1_120
  6
DASHED
 62
         2
100
AcDbLine
 10
1544.8730567046
 20
-320.2253664743
 30
0.0
 11
1528.8730567046
 21
-320.2253664743
 31
0.0
  0
LINE
  5
363
100
AcDbEntity
  8
L1_120
  6
DASHED
 62
         2
100
AcDbLine
 10
1528.8730567046
 20
-323.7253664743
 30
0.0
 11
1544.8730567046
 21
-323.7253664743
 31
0.0
  0
TEXT
  5
365
100
AcDbEntity
  8
L1_120
  6
CONTINUOUS
 62
         2
100
AcDbText
 10
1519.7824401976
 20
-160.3785849197
 30
0.0
 40
4.5
  1
536370
 41
0.98
  7
BOX
100
AcDbText
  0
ENDSEC
  0
SECTION
  2
OBJECTS
  0
DICTIONARY
  5
19
100
AcDbDictionary
  3
ACAD_GROUP
350
1A
  3
ACAD_MLINESTYLE
350
1B
  0
DICTIONARY
  5
1A
102
{ACAD_REACTORS
330
19
102
}
100
AcDbDictionary
  0
DICTIONARY
  5
1B
102
{ACAD_REACTORS
330
19
102
}
100
AcDbDictionary
  3
STANDARD
350
1C
  0
MLINESTYLE
  5
1C
102
{ACAD_REACTORS
330
1B
102
}
100
AcDbMlineStyle
  2
STANDARD
 70
         0
  3

 62
         0
 51
90.0
 52
90.0
 71
         2
 49
0.5
 62
       256
  6
BYLAYER
 49
-0.5
 62
       256
  6
BYLAYER
  0
ENDSEC
  0
EOF
