  0
SECTION
  2
HEADER
  9
$ACADVER
  1
AC1014
  9
$ACADMAINTVER
 70
         0
  9
$DWGCODEPAGE
  3
BIG5
  9
$INSBASE
 10
0.0
 20
0.0
 30
0.0
  9
$EXTMIN
 10
1059.4346397939
 20
-429.6118420135
 30
0.0
  9
$EXTMAX
 10
1805.8245423343
 20
-65.2486920116
 30
0.0
  9
$LIMMIN
 10
0.0
 20
0.0
  9
$LIMMAX
 10
0.0
 20
0.0
  9
$ORTHOMODE
 70
         0
  9
$REGENMODE
 70
         1
  9
$FILLMODE
 70
         1
  9
$QTEXTMODE
 70
         0
  9
$MIRRTEXT
 70
         1
  9
$DRAGMODE
 70
         2
  9
$LTSCALE
 40
1.0
  9
$OSMODE
 70
         0
  9
$ATTMODE
 70
         1
  9
$TEXTSIZE
 40
1.7
  9
$TRACEWID
 40
0.05
  9
$TEXTSTYLE
  7
STANDARD
  9
$CLAYER
  8
0
  9
$CELTYPE
  6
CONTINUOUS
  9
$CECOLOR
 62
        16
  9
$CELTSCALE
 40
1.0
  9
$DELOBJ
 70
         1
  9
$DISPSILH
 70
         0
  9
$DIMSCALE
 40
1.0
  9
$DIMASZ
 40
0.18
  9
$DIMEXO
 40
0.0625
  9
$DIMDLI
 40
0.38
  9
$DIMRND
 40
0.0
  9
$DIMDLE
 40
0.0
  9
$DIMEXE
 40
0.25
  9
$DIMTP
 40
0.01
  9
$DIMTM
 40
-0.01
  9
$DIMTXT
 40
2.7
  9
$DIMCEN
 40
0.09
  9
$DIMTSZ
 40
0.0
  9
$DIMTOL
 70
         0
  9
$DIMLIM
 70
         0
  9
$DIMTIH
 70
         1
  9
$DIMTOH
 70
         1
  9
$DIMSE1
 70
         0
  9
$DIMSE2
 70
         0
  9
$DIMTAD
 70
         0
  9
$DIMZIN
 70
         0
  9
$DIMBLK
  1

  9
$DIMASO
 70
         1
  9
$DIMSHO
 70
         1
  9
$DIMPOST
  1

  9
$DIMAPOST
  1

  9
$DIMALT
 70
         0
  9
$DIMALTD
 70
         2
  9
$DIMALTF
 40
25.4
  9
$DIMLFAC
 40
1.0
  9
$DIMTOFL
 70
         0
  9
$DIMTVP
 40
0.0
  9
$DIMTIX
 70
         0
  9
$DIMSOXD
 70
         0
  9
$DIMSAH
 70
         0
  9
$DIMBLK1
  1

  9
$DIMBLK2
  1

  9
$DIMSTYLE
  2
STANDARD
  9
$DIMCLRD
 70
         0
  9
$DIMCLRE
 70
         0
  9
$DIMCLRT
 70
        16
  9
$DIMTFAC
 40
1.0
  9
$DIMGAP
 40
0.09
  9
$DIMJUST
 70
         0
  9
$DIMSD1
 70
         0
  9
$DIMSD2
 70
         0
  9
$DIMTOLJ
 70
         1
  9
$DIMTZIN
 70
         0
  9
$DIMALTZ
 70
         0
  9
$DIMALTTZ
 70
         0
  9
$DIMFIT
 70
         3
  9
$DIMUPT
 70
         0
  9
$DIMUNIT
 70
         2
  9
$DIMDEC
 70
         4
  9
$DIMTDEC
 70
         4
  9
$DIMALTU
 70
         2
  9
$DIMALTTD
 70
         2
  9
$DIMTXSTY
  7
STANDARD
  9
$DIMAUNIT
 70
         0
  9
$LUNITS
 70
         2
  9
$LUPREC
 70
        10
  9
$SKETCHINC
 40
0.1
  9
$FILLETRAD
 40
0.0
  9
$AUNITS
 70
         0
  9
$AUPREC
 70
         0
  9
$MENU
  1
acad
  9
$ELEVATION
 40
0.0
  9
$PELEVATION
 40
0.0
  9
$THICKNESS
 40
0.0
  9
$LIMCHECK
 70
         0
  9
$BLIPMODE
 70
         1
  9
$CHAMFERA
 40
0.0
  9
$CHAMFERB
 40
0.0
  9
$CHAMFERC
 40
0.0
  9
$CHAMFERD
 40
0.0
  9
$SKPOLY
 70
         0
  9
$TDCREATE
 40
0.000000000
  9
$TDUPDATE
 40
0.000000000
  9
$TDINDWG
 40
0.0000000000
  9
$TDUSRTIMER
 40
0.0000000000
  9
$USRTIMER
 70
         1
  9
$ANGBASE
 50
0.0
  9
$ANGDIR
 70
         0
  9
$PDMODE
 70
         2
  9
$PDSIZE
 40
0.0
  9
$PLINEWID
 40
0.0
  9
$COORDS
 70
         0
  9
$SPLFRAME
 70
         0
  9
$SPLINETYPE
 70
         6
  9
$SPLINESEGS
 70
         8
  9
$ATTDIA
 70
         0
  9
$ATTREQ
 70
         1
  9
$HANDLING
 70
         1
  9
$HANDSEED
  5
3AB
  9
$SURFTAB1
 70
         6
  9
$SURFTAB2
 70
         6
  9
$SURFTYPE
 70
         6
  9
$SURFU
 70
         6
  9
$SURFV
 70
         6
  9
$UCSNAME
  2

  9
$UCSORG
 10
0.0
 20
0.0
 30
0.0
  9
$UCSXDIR
 10
1.0
 20
0.0
 30
0.0
  9
$UCSYDIR
 10
0.0
 20
1.0
 30
0.0
  9
$PUCSNAME
  2

  9
$PUCSORG
 10
0.0
 20
0.0
 30
0.0
  9
$PUCSXDIR
 10
1.0
 20
0.0
 30
0.0
  9
$PUCSYDIR
 10
0.0
 20
1.0
 30
0.0
  9
$USERI1
 70
         0
  9
$USERI2
 70
         0
  9
$USERI3
 70
         0
  9
$USERI4
 70
         0
  9
$USERI5
 70
         0
  9
$USERR1
 40
0.0
  9
$USERR2
 40
0.0
  9
$USERR3
 40
0.0
  9
$USERR4
 40
0.0
  9
$USERR5
 40
0.0
  9
$WORLDVIEW
 70
         1
  9
$SHADEDGE
 70
         3
  9
$SHADEDIF
 70
        70
  9
$TILEMODE
 70
         1
  9
$MAXACTVP
 70
        16
  9
$PINSBASE
 10
0.0
 20
0.0
 30
0.0
  9
$PLIMCHECK
 70
         0
  9
$PEXTMIN
 10
1.0000000000E+20
 20
1.0000000000E+20
 30
1.0000000000E+20
  9
$PEXTMAX
 10
-1.0000000000E+20
 20
-1.0000000000E+20
 30
-1.0000000000E+20
  9
$PLIMMIN
 10
0.0
 20
0.0
  9
$PLIMMAX
 10
12.0
 20
9.0
  9
$UNITMODE
 70
         0
  9
$VISRETAIN
 70
         0
  9
$PLINEGEN
 70
         1
  9
$PSLTSCALE
 70
         0
  9
$TREEDEPTH
 70
      3020
  9
$PICKSTYLE
 70
         1
  9
$CMLSTYLE
  2
STANDARD
  9
$CMLJUST
 70
         0
  9
$CMLSCALE
 40
1.0
  9
$PROXYGRAPHICS
 70
         0
  9
$MEASUREMENT
 70
         0
  0
ENDSEC
  0
SECTION
  2
CLASSES
  0
CLASS
  1
LWPOLYLINE
  2
AcDbPolyline
  3
"AutoCAD"
 90
        0
280
         0
281
         1
  0
CLASS
  1
IMAGE
  2
AcDbRasterImage
  3
ISM
 90
      127
280
         0
281
         1
  0
CLASS
  1
OLE2FRAME
  2
AcDbOle2Frame
  3
""
 90
        0
280
         0
281
         1
  0
CLASS
  1
HATCH
  2
AcDbHatch
  3
"ACAD_SEDONA"
 90
        0
280
         0
281
         1
  0
CLASS
  1
DICTIONARYVAR
  2
AcDbDictionaryVar
  3
"AutoCAD"
 90
        0
280
         0
281
         0
  0
CLASS
  1
RASTERVARIABLES
  2
AcDbRasterVariables
  3
ISM
 90
        0
280
         0
281
         0
  0
CLASS
  1
IMAGEDEF
  2
AcDbRasterImageDef
  3
ISM
 90
        0
280
         0
281
         0
  0
CLASS
  1
IMAGEDEF_REACTOR
  2
AcDbRasterImageDefReactor
  3
ISM
 90
        1
280
         0
281
         0
  0
CLASS
  1
IDBUFFER
  2
AcDbIdBuffer
  3
"Acad"
 90
        0
280
         0
281
         0
  0
CLASS
  1
SPATIAL_FILTER
  2
AcDbSpatialFilter
  3
"Acad"
 90
        0
280
         0
281
         0
  0
CLASS
  1
XRECORD
  2
AcDbXrecord
  3
"<Built In>"
 90
        0
280
         0
281
         0
  0
CLASS
  1
SORTENTSTABLE
  2
AcDbSortentsTable
  3
"AutoCAD"
 90
        0
280
         0
281
         0
  0
CLASS
  1
LAYER_INDEX
  2
AcDbLayerIndex
  3
"Acad"
 90
        0
280
         0
281
         0
  0
CLASS
  1
SPATIAL_INDEX
  2
AcDbSpatialIndex
  3
"Acad"
 90
        0
280
         0
281
         0
  0
CLASS
  1
OBJECT_PTR
  2
CAseDLPNTableRecord
  3
"ASE-LPNTableRecord"
 90
        1
280
         0
281
         0
  0
CLASS
  1
LAYOUT
  2
AcDbLayout
  3
"AutoCAD 2000"
 90
        1
280
         0
281
         0
  0
CLASS
  1
PLOTSETTINGS
  2
AcDbPlotSettings
  3
"AutoCAD 2000"
 90
        1
280
         0
281
         0
  0
CLASS
  1
ACDBDICTIONARYWDFLT
  2
AcDbDictionaryWithDefault
  3
"AutoCAD 2000"
 90
        1
280
         0
281
         0
  0
CLASS
  1
ACDBPLACEHOLDER
  2
AcDbPlaceHolder
  3
"AutoCAD 2000"
 90
        1
280
         0
281
         0
  0
CLASS
  1
VBA_PROJECT
  2
AcDbVbaProject
  3
"acadvba"
 90
        1
280
         0
281
         0
  0
CLASS
  1
WIPEOUT
  2
AcDbWipeout
  3
WipeOut|AutoCAD Express Tool|expresstools@autodesk.com
 90
      127
280
         0
281
         1
  0
CLASS
  1
WIPEOUTVARIABLES
  2
AcDbWipeoutVariables
  3
WipeOut|AutoCAD Express Tool|expresstools@autodesk.com
 90
        0
280
         0
281
         0
  0
CLASS
  1
RTEXT
  2
RText
  3
RText|AutoCAD Express Tool|expresstools@autodesk.com
 90
        0
280
         0
281
         1
  0
CLASS
  1
ARCALIGNEDTEXT
  2
AcDbArcAlignedText
  3
ATEXT|AutoCAD Express Tool|expresstools@autodesk.com
 90
        0
280
         0
281
         1
  0
ENDSEC
  0
SECTION
  2
TABLES
  0
TABLE
  2
VPORT
  5
7
100
AcDbSymbolTable
 70
         1
  0
VPORT
  5
15
100
AcDbSymbolTableRecord
100
AcDbViewportTableRecord
  2
*ACTIVE
 70
         0
 10
0.0
 20
0.0
 11
1.0
 21
1.0
 12
1432.6295910641
 22
-247.4302670126
 13
0.0
 23
0.0
 14
1.0
 24
1.0
 15
0.0
 25
0.0
 16
0.0
 26
0.0
 36
1.0
 17
0.0
 27
0.0
 37
0.0
 40
364.3631500019
 41
2.0484780158
 42
50.0
 43
0.0
 44
0.0
 50
0.0
 51
0.0
 71
         0
 72
       100
 73
         1
 74
         1
 75
         0
 76
         0
 77
         0
 78
         0
  0
ENDTAB
  0
TABLE
  2
LTYPE
  5
4
100
AcDbSymbolTable
 70
         6
  0
LTYPE
  5
11
100
AcDbSymbolTableRecord
100
AcDbLinetypeTableRecord
  2
BYBLOCK
 70
        64
  3

 72
        65
 73
         0
 40
0.0
  0
LTYPE
  5
12
100
AcDbSymbolTableRecord
100
AcDbLinetypeTableRecord
  2
BYLAYER
 70
        64
  3

 72
        65
 73
         0
 40
0.0
  0
LTYPE
  5
13
100
AcDbSymbolTableRecord
100
AcDbLinetypeTableRecord
  2
CONTINUOUS
 70
        64
  3
Solid line
 72
        65
 73
         0
 40
0.0
  0
LTYPE
  5
1D
100
AcDbSymbolTableRecord
100
AcDbLinetypeTableRecord
  2
DASHED
 70
        64
  3
_ _ _ _ _ _ _ _ _ _ _ _ _ _ _ _
 72
        65
 73
         2
 40
0.2
 49
0.1
 74
         0
 49
-0.1
 74
         0
  0
LTYPE
  5
1E
100
AcDbSymbolTableRecord
100
AcDbLinetypeTableRecord
  2
CENTER
 70
        64
  3
___ _ ___ _ ___ _ ___ _ ___ _ ___ _ ___ _ ___ _
 72
        65
 73
         4
 40
0.95
 49
0.625
 74
         0
 49
-0.125
 74
         0
 49
0.075
 74
         0
 49
-0.125
 74
         0
  0
LTYPE
  5
1F
100
AcDbSymbolTableRecord
100
AcDbLinetypeTableRecord
  2
PHANTOM
 70
        64
  3
______  __  __  ______  __  __  ______  __  __  
 72
        65
 73
         6
 40
1.025
 49
0.625
 74
         0
 49
-0.125
 74
         0
 49
0.075
 74
         0
 49
-0.125
 74
         0
 49
0.075
 74
         0
 49
-0.125
 74
         0
  0
ENDTAB
  0
TABLE
  2
LAYER
  5
2
100
AcDbSymbolTable
 70
         6
  0
LAYER
  5
14
100
AcDbSymbolTableRecord
100
AcDbLayerTableRecord
  2
0
 70
         0
 62
         7
  6
CONTINUOUS
  0
LAYER
  5
21
100
AcDbSymbolTableRecord
100
AcDbLayerTableRecord
  2
_____U
 70
         1
 62
         7
  6
CONTINUOUS
  0
LAYER
  5
22
100
AcDbSymbolTableRecord
100
AcDbLayerTableRecord
  2
_____T______
 70
         1
 62
         7
  6
CONTINUOUS
  0
LAYER
  5
23
100
AcDbSymbolTableRecord
100
AcDbLayerTableRecord
  2
______L_______
 70
         1
 62
         7
  6
CONTINUOUS
  0
LAYER
  5
24
100
AcDbSymbolTableRecord
100
AcDbLayerTableRecord
  2
L1_120
 70
         0
 62
         7
  6
CONTINUOUS
  0
LAYER
  5
1FB
100
AcDbSymbolTableRecord
100
AcDbLayerTableRecord
  2
DEFPOINTS
 70
         0
 62
        -7
  6
CONTINUOUS
  0
ENDTAB
  0
TABLE
  2
STYLE
  5
3
100
AcDbSymbolTable
 70
        11
  0
STYLE
  5
17
100
AcDbSymbolTableRecord
100
AcDbTextStyleTableRecord
  2
STANDARD
 70
         0
 40
0.0
 41
1.0
 50
0.0
 71
         0
 42
0.0
  3
txt
  4

  0
STYLE
  5
207
100
AcDbSymbolTableRecord
100
AcDbTextStyleTableRecord
  2
BOX
 70
         0
 40
1.0
 41
1.0
 50
0.0
 71
         0
 42
0.2
  3
txt.shx
  4

  0
STYLE
  5
215
100
AcDbSymbolTableRecord
100
AcDbTextStyleTableRecord
  2
BOX
 70
         0
 40
1.0
 41
1.0
 50
0.0
 71
         0
 42
0.2
  3
txt.shx
  4

  0
STYLE
  5
22D
100
AcDbSymbolTableRecord
100
AcDbTextStyleTableRecord
  2
BOX
 70
         0
 40
1.0
 41
1.0
 50
0.0
 71
         0
 42
0.2
  3
txt.shx
  4

  0
STYLE
  5
26A
100
AcDbSymbolTableRecord
100
AcDbTextStyleTableRecord
  2
BOX
 70
         0
 40
1.0
 41
1.0
 50
0.0
 71
         0
 42
0.2
  3
txt.shx
  4

  0
STYLE
  5
278
100
AcDbSymbolTableRecord
100
AcDbTextStyleTableRecord
  2
BOX
 70
         0
 40
1.0
 41
1.0
 50
0.0
 71
         0
 42
0.2
  3
txt.shx
  4

  0
STYLE
  5
286
100
AcDbSymbolTableRecord
100
AcDbTextStyleTableRecord
  2
BOX
 70
         0
 40
1.0
 41
1.0
 50
0.0
 71
         0
 42
0.2
  3
txt.shx
  4

  0
STYLE
  5
30F
100
AcDbSymbolTableRecord
100
AcDbTextStyleTableRecord
  2
BOX
 70
         0
 40
1.0
 41
1.0
 50
0.0
 71
         0
 42
0.2
  3
txt.shx
  4

  0
STYLE
  5
31D
100
AcDbSymbolTableRecord
100
AcDbTextStyleTableRecord
  2
BOX
 70
         0
 40
1.0
 41
1.0
 50
0.0
 71
         0
 42
0.2
  3
txt.shx
  4

  0
STYLE
  5
339
100
AcDbSymbolTableRecord
100
AcDbTextStyleTableRecord
  2
BOX
 70
         0
 40
1.0
 41
1.0
 50
0.0
 71
         0
 42
0.2
  3
txt.shx
  4

  0
STYLE
  5
3A9
100
AcDbSymbolTableRecord
100
AcDbTextStyleTableRecord
  2
BOX
 70
         0
 40
1.0
 41
1.0
 50
0.0
 71
         0
 42
0.2
  3
txt.shx
  4

  0
ENDTAB
  0
TABLE
  2
VIEW
  5
5
100
AcDbSymbolTable
 70
         0
  0
ENDTAB
  0
TABLE
  2
UCS
  5
6
100
AcDbSymbolTable
 70
         1
  0
UCS
  5
20
100
AcDbSymbolTableRecord
100
AcDbUCSTableRecord
  2
CK_VIEW_1
 70
         0
 10
0.0
 20
0.0
 30
1.0
 11
1.0
 21
0.0
 31
0.0
 12
0.0
 22
1.0
 32
0.0
  0
ENDTAB
  0
TABLE
  2
APPID
  5
8
100
AcDbSymbolTable
 70
         1
  0
APPID
  5
16
100
AcDbSymbolTableRecord
100
AcDbRegAppTableRecord
  2
ACAD
 70
         0
  0
ENDTAB
  0
TABLE
  2
DIMSTYLE
  5
9
100
AcDbSymbolTable
 70
         2
  0
DIMSTYLE
105
18
100
AcDbSymbolTableRecord
100
AcDbDimStyleTableRecord
  2
STANDARD
 70
         0
  3

  4

  5

  6

  7

 40
1.0
 41
0.18
 42
0.0625
 43
0.38
 44
0.18
 45
0.0
 46
0.0
 47
0.0
 48
0.0
 71
         0
 72
         0
 73
         1
 74
         1
 75
         0
 76
         0
 77
         0
 78
         0
140
0.18
141
0.09
142
0.0
143
25.4
144
1.0
145
0.0
146
1.0
147
0.09
170
         0
171
         2
172
         0
173
         0
174
         0
175
         0
176
         0
177
         0
178
         0
270
         2
271
         4
272
         4
273
         2
274
         2
275
         0
280
         0
281
         0
282
         0
283
         1
284
         0
285
         0
286
         0
287
         0
288
         0
340
17
  0
DIMSTYLE
105
1F7
100
AcDbSymbolTableRecord
100
AcDbDimStyleTableRecord
  2
DIMSTYLE1
 70
         0
  3

  4

  5

  6

  7

 40
1.0
 41
3.5
 42
0.0625
 43
0.38
 44
3.5
 45
0.0
 46
0.0
 47
0.0
 48
0.0
 71
         0
 72
         0
 73
         1
 74
         1
 75
         0
 76
         0
 77
         0
 78
         0
140
3.5
141
0.09
142
0.0
143
25.4
144
1.0
145
0.0
146
1.0
147
0.09
170
         0
171
         2
172
         0
173
         0
174
         0
175
         0
176
         0
177
         0
178
         0
270
         2
271
         4
272
         4
273
         2
274
         2
275
         0
280
         0
281
         0
282
         0
283
         1
284
         0
285
         0
286
         0
287
         0
288
         0
340
17
  0
ENDTAB
  0
TABLE
  2
BLOCK_RECORD
  5
1
100
AcDbSymbolTable
 70
        10
  0
BLOCK_RECORD
  5
A
100
AcDbSymbolTableRecord
100
AcDbBlockTableRecord
  2
*MODEL_SPACE
  0
BLOCK_RECORD
  5
B
100
AcDbSymbolTableRecord
100
AcDbBlockTableRecord
  2
*PAPER_SPACE
  0
BLOCK_RECORD
  5
1F8
100
AcDbSymbolTableRecord
100
AcDbBlockTableRecord
  2
*D0
  0
BLOCK_RECORD
  5
20A
100
AcDbSymbolTableRecord
100
AcDbBlockTableRecord
  2
*D1
  0
BLOCK_RECORD
  5
222
100
AcDbSymbolTableRecord
100
AcDbBlockTableRecord
  2
*D2
  0
BLOCK_RECORD
  5
25F
100
AcDbSymbolTableRecord
100
AcDbBlockTableRecord
  2
*D3
  0
BLOCK_RECORD
  5
26D
100
AcDbSymbolTableRecord
100
AcDbBlockTableRecord
  2
*D4
  0
BLOCK_RECORD
  5
27B
100
AcDbSymbolTableRecord
100
AcDbBlockTableRecord
  2
*D5
  0
BLOCK_RECORD
  5
289
100
AcDbSymbolTableRecord
100
AcDbBlockTableRecord
  2
*X6
  0
BLOCK_RECORD
  5
302
100
AcDbSymbolTableRecord
100
AcDbBlockTableRecord
  2
*D7
  0
BLOCK_RECORD
  5
312
100
AcDbSymbolTableRecord
100
AcDbBlockTableRecord
  2
*D8
  0
BLOCK_RECORD
  5
32C
100
AcDbSymbolTableRecord
100
AcDbBlockTableRecord
  2
*D9
  0
ENDTAB
  0
ENDSEC
  0
SECTION
  2
BLOCKS
  0
BLOCK
  5
D
100
AcDbEntity
  8
0
100
AcDbBlockBegin
  2
*MODEL_SPACE
 70
         0
 10
0.0
 20
0.0
 30
0.0
  3
*MODEL_SPACE
  1

  0
ENDBLK
  5
E
100
AcDbEntity
  8
0
100
AcDbBlockEnd
  0
BLOCK
  5
F
100
AcDbEntity
 67
         1
  8
0
100
AcDbBlockBegin
  2
*PAPER_SPACE
 70
         0
 10
0.0
 20
0.0
 30
0.0
  3
*PAPER_SPACE
  1

  0
ENDBLK
  5
10
100
AcDbEntity
 67
         1
  8
0
100
AcDbBlockEnd
  0
BLOCK
  5
1F9
100
AcDbEntity
  8
0
100
AcDbBlockBegin
  2
*D0
 70
        65
 10
0.0
 20
0.0
 30
0.0
  3
*D0
  1

  0
POINT
  5
1FC
100
AcDbEntity
  8
DEFPOINTS
  6
CONTINUOUS
 62
         0
100
AcDbPoint
 10
1411.3175047567
 20
-203.2741419623
 30
0.0
  0
POINT
  5
1FD
100
AcDbEntity
  8
DEFPOINTS
  6
CONTINUOUS
 62
         0
100
AcDbPoint
 10
1412.0230086592
 20
-203.2741419623
 30
0.0
  0
POINT
  5
1FE
100
AcDbEntity
  8
DEFPOINTS
  6
CONTINUOUS
 62
         0
100
AcDbPoint
 10
1412.0230086592
 20
-203.2741419623
 30
0.0
  0
POINT
  5
1FF
100
AcDbEntity
  8
DEFPOINTS
  6
CONTINUOUS
 62
         0
100
AcDbPoint
 10
1468.3059638525
 20
-207.7037066011
 30
0.0
  0
LINE
  5
200
100
AcDbEntity
  8
L1_120
  6
CONTINUOUS
 62
         4
100
AcDbLine
 10
1413.7730086592
 20
-203.2741419623
 30
0.0
 11
1441.810971096
 21
-203.2741419623
 31
0.0
  0
ARC
  5
201
100
AcDbEntity
  8
L1_120
  6
CONTINUOUS
 62
         4
100
AcDbCircle
 10
1412.0230086592
 20
-203.2741419623
 30
0.0
 40
28.9129624367
100
AcDbArc
 50
341.6283513417
 51
355.5
  0
SOLID
  5
202
100
AcDbEntity
  8
L1_120
  6
CONTINUOUS
 62
         4
100
AcDbTrace
 10
1440.846842082
 20
-205.5426268499
 30
0.0
 11
1440.8817397004
 21
-209.0816107657
 31
0.0
 12
1439.8418711747
 22
-208.9360997724
 32
0.0
 13
1440.846842082
 23
-205.5426268499
 33
0.0
  0
ARC
  5
203
100
AcDbEntity
  8
L1_120
  6
CONTINUOUS
 62
         4
100
AcDbCircle
 10
1412.0230086592
 20
-203.2741419623
 30
0.0
 40
28.9129624367
100
AcDbArc
 50
0.0
 51
3.4576434217
  0
SOLID
  5
204
100
AcDbEntity
  8
L1_120
  6
CONTINUOUS
 62
         4
100
AcDbTrace
 10
1440.935971096
 20
-203.2741419623
 30
0.0
 11
1440.2003469955
 21
-199.8122808757
 31
0.0
 12
1441.2484266145
 22
-199.7488055884
 32
0.0
 13
1440.935971096
 23
-203.2741419623
 33
0.0
  0
ARC
  5
205
100
AcDbEntity
  8
L1_120
  6
CONTINUOUS
 62
         4
100
AcDbCircle
 10
1412.0230086592
 20
-203.2741419623
 30
0.0
 40
28.9129624367
100
AcDbArc
 50
355.5
 51
360.0
  0
SOLID
  5
206
100
AcDbEntity
  8
L1_120
  6
CONTINUOUS
 62
         4
100
AcDbTrace
 10
1412.0230086592
 20
-203.2741419623
 30
0.0
 11
1413.4149112697
 21
-200.0201855823
 31
0.0
 12
1414.3083599705
 22
-200.5717736706
 32
0.0
 13
1412.0230086592
 23
-203.2741419623
 33
0.0
  0
TEXT
  5
208
100
AcDbEntity
  8
L1_120
  6
CONTINUOUS
 62
         4
100
AcDbText
 10
1442.6333395734
 20
-198.3453826922
 30
0.0
 40
3.5
  1
4.5%%d
  7
BOX
100
AcDbText
  0
ENDBLK
  5
209
100
AcDbEntity
  8
0
  6
CONTINUOUS
100
AcDbBlockEnd
  0
BLOCK
  5
20B
100
AcDbEntity
  8
0
100
AcDbBlockBegin
  2
*D1
 70
        65
 10
0.0
 20
0.0
 30
0.0
  3
*D1
  1

  0
POINT
  5
20D
100
AcDbEntity
  8
DEFPOINTS
  6
CONTINUOUS
 62
         0
100
AcDbPoint
 10
1501.6496804633
 20
-203.2742334432
 30
0.0
  0
POINT
  5
20E
100
AcDbEntity
  8
DEFPOINTS
  6
CONTINUOUS
 62
         0
100
AcDbPoint
 10
1422.6694887089
 20
-203.2742334432
 30
0.0
  0
POINT
  5
20F
100
AcDbEntity
  8
DEFPOINTS
  6
CONTINUOUS
 62
         0
100
AcDbPoint
 10
1422.6694887089
 20
-245.2782334432
 30
0.0
  0
LINE
  5
210
100
AcDbEntity
  8
L1_120
  6
CONTINUOUS
 62
         4
100
AcDbLine
 10
1424.4194887089
 20
-203.2742334432
 30
0.0
 11
1502.5246804633
 21
-203.2742334432
 31
0.0
  0
LINE
  5
211
100
AcDbEntity
  8
L1_120
  6
CONTINUOUS
 62
         4
100
AcDbLine
 10
1424.4194887089
 20
-245.2782334432
 30
0.0
 11
1502.5246804633
 21
-245.2782334432
 31
0.0
  0
LINE
  5
212
100
AcDbEntity
  8
L1_120
  6
CONTINUOUS
 62
         4
100
AcDbLine
 10
1501.6496804633
 20
-203.2742334432
 30
0.0
 11
1501.6496804633
 21
-245.2782334432
 31
0.0
  0
SOLID
  5
213
100
AcDbEntity
  8
L1_120
  6
CONTINUOUS
 62
         4
100
AcDbTrace
 10
1501.6496804633
 20
-203.2742334432
 30
0.0
 11
1502.1746804633
 21
-206.7742334432
 31
0.0
 12
1501.1246804633
 22
-206.7742334432
 32
0.0
 13
1501.6496804633
 23
-203.2742334432
 33
0.0
  0
SOLID
  5
214
100
AcDbEntity
  8
L1_120
  6
CONTINUOUS
 62
         4
100
AcDbTrace
 10
1501.6496804633
 20
-245.2782334432
 30
0.0
 11
1501.1246804633
 21
-241.7782334432
 31
0.0
 12
1502.1746804633
 22
-241.7782334432
 32
0.0
 13
1501.6496804633
 23
-245.2782334432
 33
0.0
  0
TEXT
  5
216
100
AcDbEntity
  8
L1_120
  6
CONTINUOUS
 62
         4
100
AcDbText
 10
1499.0246804633
 20
-233.6847127865
 30
0.0
 40
3.5
  1
崷42
 50
90.0
  7
BOX
100
AcDbText
  0
ENDBLK
  5
217
100
AcDbEntity
  8
0
  6
CONTINUOUS
100
AcDbBlockEnd
  0
BLOCK
  5
223
100
AcDbEntity
  8
0
100
AcDbBlockBegin
  2
*D2
 70
        65
 10
0.0
 20
0.0
 30
0.0
  3
*D2
  1

  0
POINT
  5
225
100
AcDbEntity
  8
DEFPOINTS
  6
CONTINUOUS
 62
         0
100
AcDbPoint
 10
1490.5280326365
 20
-207.7762334432
 30
0.0
  0
POINT
  5
226
100
AcDbEntity
  8
DEFPOINTS
  6
CONTINUOUS
 62
         0
100
AcDbPoint
 10
1469.2275047567
 20
-207.7762334432
 30
0.0
  0
POINT
  5
227
100
AcDbEntity
  8
DEFPOINTS
  6
CONTINUOUS
 62
         0
100
AcDbPoint
 10
1469.2275047567
 20
-240.7762334432
 30
0.0
  0
LINE
  5
228
100
AcDbEntity
  8
L1_120
  6
CONTINUOUS
 62
         4
100
AcDbLine
 10
1470.9775047567
 20
-207.7762334432
 30
0.0
 11
1491.4030326365
 21
-207.7762334432
 31
0.0
  0
LINE
  5
229
100
AcDbEntity
  8
L1_120
  6
CONTINUOUS
 62
         4
100
AcDbLine
 10
1470.9775047567
 20
-240.7762334432
 30
0.0
 11
1491.4030326365
 21
-240.7762334432
 31
0.0
  0
LINE
  5
22A
100
AcDbEntity
  8
L1_120
  6
CONTINUOUS
 62
         4
100
AcDbLine
 10
1490.5280326365
 20
-207.7762334432
 30
0.0
 11
1490.5280326365
 21
-240.7762334432
 31
0.0
  0
SOLID
  5
22B
100
AcDbEntity
  8
L1_120
  6
CONTINUOUS
 62
         4
100
AcDbTrace
 10
1490.5280326365
 20
-207.7762334432
 30
0.0
 11
1491.0530326365
 21
-211.2762334432
 31
0.0
 12
1490.0030326365
 22
-211.2762334432
 32
0.0
 13
1490.5280326365
 23
-207.7762334432
 33
0.0
  0
SOLID
  5
22C
100
AcDbEntity
  8
L1_120
  6
CONTINUOUS
 62
         4
100
AcDbTrace
 10
1490.5280326365
 20
-240.7762334432
 30
0.0
 11
1490.0030326365
 21
-237.2762334432
 31
0.0
 12
1491.0530326365
 22
-237.2762334432
 32
0.0
 13
1490.5280326365
 23
-240.7762334432
 33
0.0
  0
TEXT
  5
22E
100
AcDbEntity
  8
L1_120
  6
CONTINUOUS
 62
         4
100
AcDbText
 10
1487.9030326365
 20
-231.5926355482
 30
0.0
 40
3.5
  1
崷33
 50
90.0
  7
BOX
100
AcDbText
  0
ENDBLK
  5
22F
100
AcDbEntity
  8
0
  6
CONTINUOUS
100
AcDbBlockEnd
  0
BLOCK
  5
260
100
AcDbEntity
  8
0
100
AcDbBlockBegin
  2
*D3
 70
        65
 10
0.0
 20
0.0
 30
0.0
  3
*D3
  1

  0
POINT
  5
262
100
AcDbEntity
  8
DEFPOINTS
  6
CONTINUOUS
 62
         0
100
AcDbPoint
 10
1364.3629152626
 20
-156.2565405451
 30
0.0
  0
POINT
  5
263
100
AcDbEntity
  8
DEFPOINTS
  6
CONTINUOUS
 62
         0
100
AcDbPoint
 10
1364.3629152626
 20
-175.2762334432
 30
0.0
  0
POINT
  5
264
100
AcDbEntity
  8
DEFPOINTS
  6
CONTINUOUS
 62
         0
100
AcDbPoint
 10
1469.2629152626
 20
-213.2006239349
 30
0.0
  0
LINE
  5
265
100
AcDbEntity
  8
L1_120
  6
CONTINUOUS
 62
         4
100
AcDbLine
 10
1364.3629152626
 20
-173.5262334432
 30
0.0
 11
1364.3629152626
 21
-155.3815405451
 31
0.0
  0
LINE
  5
266
100
AcDbEntity
  8
L1_120
  6
CONTINUOUS
 62
         4
100
AcDbLine
 10
1469.2629152626
 20
-211.4506239349
 30
0.0
 11
1469.2629152626
 21
-155.3815405451
 31
0.0
  0
LINE
  5
267
100
AcDbEntity
  8
L1_120
  6
CONTINUOUS
 62
         4
100
AcDbLine
 10
1364.3629152626
 20
-156.2565405451
 30
0.0
 11
1469.2629152626
 21
-156.2565405451
 31
0.0
  0
SOLID
  5
268
100
AcDbEntity
  8
L1_120
  6
CONTINUOUS
 62
         4
100
AcDbTrace
 10
1364.3629152626
 20
-156.2565405451
 30
0.0
 11
1367.8629152626
 21
-155.7315405451
 31
0.0
 12
1367.8629152626
 22
-156.7815405451
 32
0.0
 13
1364.3629152626
 23
-156.2565405451
 33
0.0
  0
SOLID
  5
269
100
AcDbEntity
  8
L1_120
  6
CONTINUOUS
 62
         4
100
AcDbTrace
 10
1469.2629152626
 20
-156.2565405451
 30
0.0
 11
1465.7629152626
 21
-156.7815405451
 31
0.0
 12
1465.7629152626
 22
-155.7315405451
 32
0.0
 13
1469.2629152626
 23
-156.2565405451
 33
0.0
  0
TEXT
  5
26B
100
AcDbEntity
  8
L1_120
  6
CONTINUOUS
 62
         4
100
AcDbText
 10
1412.6325454523
 20
-153.6315405451
 30
0.0
 40
3.5
  1
105
  7
BOX
100
AcDbText
  0
ENDBLK
  5
26C
100
AcDbEntity
  8
0
  6
CONTINUOUS
100
AcDbBlockEnd
  0
BLOCK
  5
26E
100
AcDbEntity
  8
0
100
AcDbBlockBegin
  2
*D4
 70
        65
 10
0.0
 20
0.0
 30
0.0
  3
*D4
  1

  0
POINT
  5
270
100
AcDbEntity
  8
DEFPOINTS
  6
CONTINUOUS
 62
         0
100
AcDbPoint
 10
1314.3629152626
 20
-140.8684443628
 30
0.0
  0
POINT
  5
271
100
AcDbEntity
  8
DEFPOINTS
  6
CONTINUOUS
 62
         0
100
AcDbPoint
 10
1314.3629152626
 20
-190.6787318827
 30
0.0
  0
POINT
  5
272
100
AcDbEntity
  8
DEFPOINTS
  6
CONTINUOUS
 62
         0
100
AcDbPoint
 10
1469.2629152626
 20
-213.2006239349
 30
0.0
  0
LINE
  5
273
100
AcDbEntity
  8
L1_120
  6
CONTINUOUS
 62
         4
100
AcDbLine
 10
1314.3629152626
 20
-188.9287318827
 30
0.0
 11
1314.3629152626
 21
-139.9934443628
 31
0.0
  0
LINE
  5
274
100
AcDbEntity
  8
L1_120
  6
CONTINUOUS
 62
         4
100
AcDbLine
 10
1469.2629152626
 20
-211.4506239349
 30
0.0
 11
1469.2629152626
 21
-139.9934443628
 31
0.0
  0
LINE
  5
275
100
AcDbEntity
  8
L1_120
  6
CONTINUOUS
 62
         4
100
AcDbLine
 10
1314.3629152626
 20
-140.8684443628
 30
0.0
 11
1469.2629152626
 21
-140.8684443628
 31
0.0
  0
SOLID
  5
276
100
AcDbEntity
  8
L1_120
  6
CONTINUOUS
 62
         4
100
AcDbTrace
 10
1314.3629152626
 20
-140.8684443628
 30
0.0
 11
1317.8629152626
 21
-140.3434443628
 31
0.0
 12
1317.8629152626
 22
-141.3934443628
 32
0.0
 13
1314.3629152626
 23
-140.8684443628
 33
0.0
  0
SOLID
  5
277
100
AcDbEntity
  8
L1_120
  6
CONTINUOUS
 62
         4
100
AcDbTrace
 10
1469.2629152626
 20
-140.8684443628
 30
0.0
 11
1465.7629152626
 21
-141.3934443628
 31
0.0
 12
1465.7629152626
 22
-140.3434443628
 32
0.0
 13
1469.2629152626
 23
-140.8684443628
 33
0.0
  0
TEXT
  5
279
100
AcDbEntity
  8
L1_120
  6
CONTINUOUS
 62
         4
100
AcDbText
 10
1385.3126157453
 20
-138.2434443628
 30
0.0
 40
3.5
  1
154.9
  7
BOX
100
AcDbText
  0
ENDBLK
  5
27A
100
AcDbEntity
  8
0
  6
CONTINUOUS
100
AcDbBlockEnd
  0
BLOCK
  5
27C
100
AcDbEntity
  8
0
100
AcDbBlockBegin
  2
*D5
 70
        65
 10
0.0
 20
0.0
 30
0.0
  3
*D5
  1

  0
POINT
  5
27E
100
AcDbEntity
  8
DEFPOINTS
  6
CONTINUOUS
 62
         0
100
AcDbPoint
 10
1416.1920942509
 20
-379.6656145195
 30
0.0
  0
POINT
  5
27F
100
AcDbEntity
  8
DEFPOINTS
  6
CONTINUOUS
 62
         0
100
AcDbPoint
 10
1416.1920942509
 20
-346.6686220057
 30
0.0
  0
POINT
  5
280
100
AcDbEntity
  8
DEFPOINTS
  6
CONTINUOUS
 62
         0
100
AcDbPoint
 10
1468.1920942509
 20
-353.2578410224
 30
0.0
  0
LINE
  5
281
100
AcDbEntity
  8
L1_120
  6
CONTINUOUS
 62
         4
100
AcDbLine
 10
1416.1920942509
 20
-348.4186220057
 30
0.0
 11
1416.1920942509
 21
-380.5406145195
 31
0.0
  0
LINE
  5
282
100
AcDbEntity
  8
L1_120
  6
CONTINUOUS
 62
         4
100
AcDbLine
 10
1468.1920942509
 20
-355.0078410224
 30
0.0
 11
1468.1920942509
 21
-380.5406145195
 31
0.0
  0
LINE
  5
283
100
AcDbEntity
  8
L1_120
  6
CONTINUOUS
 62
         4
100
AcDbLine
 10
1416.1920942509
 20
-379.6656145195
 30
0.0
 11
1468.1920942509
 21
-379.6656145195
 31
0.0
  0
SOLID
  5
284
100
AcDbEntity
  8
L1_120
  6
CONTINUOUS
 62
         4
100
AcDbTrace
 10
1416.1920942509
 20
-379.6656145195
 30
0.0
 11
1419.6920942509
 21
-379.1406145195
 31
0.0
 12
1419.6920942509
 22
-380.1906145195
 32
0.0
 13
1416.1920942509
 23
-379.6656145195
 33
0.0
  0
SOLID
  5
285
100
AcDbEntity
  8
L1_120
  6
CONTINUOUS
 62
         4
100
AcDbTrace
 10
1468.1920942509
 20
-379.6656145195
 30
0.0
 11
1464.6920942509
 21
-380.1906145195
 31
0.0
 12
1464.6920942509
 22
-379.1406145195
 32
0.0
 13
1468.1920942509
 23
-379.6656145195
 33
0.0
  0
TEXT
  5
287
100
AcDbEntity
  8
L1_120
  6
CONTINUOUS
 62
         4
100
AcDbText
 10
1439.2813787422
 20
-375.6056145195
 30
0.0
 40
3.5
  1
52
  7
BOX
100
AcDbText
  0
ENDBLK
  5
288
100
AcDbEntity
  8
0
  6
CONTINUOUS
100
AcDbBlockEnd
  0
BLOCK
  5
28A
100
AcDbEntity
  8
0
100
AcDbBlockBegin
  2
*X6
 70
        65
 10
0.0
 20
0.0
 30
0.0
  3
*X6
  1

  0
LINE
  5
28B
100
AcDbEntity
  8
L1_120
  6
CONTINUOUS
 62
         4
100
AcDbLine
 10
1463.7085867279
 20
-355.0214817003
 30
0.0
 11
1468.1920942509
 21
-350.5379741774
 31
0.0
  0
LINE
  5
28C
100
AcDbEntity
  8
L1_120
  6
CONTINUOUS
 62
         4
100
AcDbLine
 10
1459.1035193805
 20
-355.3839083606
 30
0.0
 11
1466.8038057354
 21
-347.6836220057
 31
0.0
  0
LINE
  5
28D
100
AcDbEntity
  8
L1_120
  6
CONTINUOUS
 62
         4
100
AcDbLine
 10
1454.4984520331
 20
-355.7463350209
 30
0.0
 11
1462.5611650483
 21
-347.6836220057
 31
0.0
  0
LINE
  5
28E
100
AcDbEntity
  8
L1_120
  6
CONTINUOUS
 62
         4
100
AcDbLine
 10
1449.8933846857
 20
-356.1087616812
 30
0.0
 11
1458.3185243612
 21
-347.6836220057
 31
0.0
  0
LINE
  5
28F
100
AcDbEntity
  8
L1_120
  6
CONTINUOUS
 62
         4
100
AcDbLine
 10
1445.2883173383
 20
-356.4711883415
 30
0.0
 11
1454.075883674
 21
-347.6836220057
 31
0.0
  0
LINE
  5
290
100
AcDbEntity
  8
L1_120
  6
CONTINUOUS
 62
         4
100
AcDbLine
 10
1440.6832499909
 20
-356.8336150018
 30
0.0
 11
1449.8332429869
 21
-347.6836220057
 31
0.0
  0
LINE
  5
291
100
AcDbEntity
  8
L1_120
  6
CONTINUOUS
 62
         4
100
AcDbLine
 10
1436.0781826435
 20
-357.196041662
 30
0.0
 11
1445.5906022998
 21
-347.6836220057
 31
0.0
  0
LINE
  5
292
100
AcDbEntity
  8
L1_120
  6
CONTINUOUS
 62
         4
100
AcDbLine
 10
1464.6206022998
 20
-328.6536220057
 30
0.0
 11
1468.1920942509
 21
-325.0821300547
 31
0.0
  0
LINE
  5
293
100
AcDbEntity
  8
L1_120
  6
CONTINUOUS
 62
         4
100
AcDbLine
 10
1431.4731152961
 20
-357.5584683223
 30
0.0
 11
1441.3479616127
 21
-347.6836220057
 31
0.0
  0
LINE
  5
294
100
AcDbEntity
  8
L1_120
  6
CONTINUOUS
 62
         4
100
AcDbLine
 10
1460.3779616127
 20
-328.6536220057
 30
0.0
 11
1467.4137060837
 21
-321.6178775347
 31
0.0
  0
LINE
  5
295
100
AcDbEntity
  8
L1_120
  6
CONTINUOUS
 62
         4
100
AcDbLine
 10
1426.8680479487
 20
-357.9208949826
 30
0.0
 11
1437.1053209256
 21
-347.6836220057
 31
0.0
  0
LINE
  5
296
100
AcDbEntity
  8
L1_120
  6
CONTINUOUS
 62
         4
100
AcDbLine
 10
1456.1353209256
 20
-328.6536220057
 30
0.0
 11
1463.4903557691
 21
-321.2985871622
 31
0.0
  0
LINE
  5
297
100
AcDbEntity
  8
L1_120
  6
CONTINUOUS
 62
         4
100
AcDbLine
 10
1422.2629806013
 20
-358.2833216429
 30
0.0
 11
1432.8626802384
 21
-347.6836220057
 31
0.0
  0
LINE
  5
298
100
AcDbEntity
  8
L1_120
  6
CONTINUOUS
 62
         4
100
AcDbLine
 10
1451.8926802384
 20
-328.6536220057
 30
0.0
 11
1459.5572566924
 21
-320.9890455517
 31
0.0
  0
LINE
  5
299
100
AcDbEntity
  8
L1_120
  6
CONTINUOUS
 62
         4
100
AcDbLine
 10
1388.1350395513
 20
-388.1686220057
 30
0.0
 11
1392.3275047567
 21
-383.9761568003
 31
0.0
  0
LINE
  5
29A
100
AcDbEntity
  8
L1_120
  6
CONTINUOUS
 62
         4
100
AcDbLine
 10
1417.6579132539
 20
-358.6457483032
 30
0.0
 11
1428.6200395513
 21
-347.6836220057
 31
0.0
  0
LINE
  5
29B
100
AcDbEntity
  8
L1_120
  6
CONTINUOUS
 62
         4
100
AcDbLine
 10
1447.6500395513
 20
-328.6536220057
 30
0.0
 11
1455.6241576158
 21
-320.6795039413
 31
0.0
  0
LINE
  5
29C
100
AcDbEntity
  8
L1_120
  6
CONTINUOUS
 62
         4
100
AcDbLine
 10
1385.5931632468
 20
-386.4678576231
 30
0.0
 11
1392.3275047567
 21
-379.7335161132
 31
0.0
  0
LINE
  5
29D
100
AcDbEntity
  8
L1_120
  6
CONTINUOUS
 62
         4
100
AcDbLine
 10
1413.0528459065
 20
-359.0081749635
 30
0.0
 11
1423.8923988642
 21
-348.1686220057
 31
0.0
  0
LINE
  5
29E
100
AcDbEntity
  8
L1_120
  6
CONTINUOUS
 62
         4
100
AcDbLine
 10
1443.4073988642
 20
-328.6536220057
 30
0.0
 11
1451.6910585391
 21
-320.3699623308
 31
0.0
  0
LINE
  5
29F
100
AcDbEntity
  8
L1_120
  6
CONTINUOUS
 62
         4
100
AcDbLine
 10
1379.6497581771
 20
-388.1686220057
 30
0.0
 11
1380.6675071169
 21
-387.1508730659
 31
0.0
  0
LINE
  5
2A0
100
AcDbEntity
  8
L1_120
  6
CONTINUOUS
 62
         4
100
AcDbLine
 10
1383.6497581771
 20
-384.1686220057
 30
0.0
 11
1392.3275047567
 21
-375.4908754261
 31
0.0
  0
LINE
  5
2A1
100
AcDbEntity
  8
L1_120
  6
CONTINUOUS
 62
         4
100
AcDbLine
 10
1408.647849658
 20
-359.1705305248
 30
0.0
 11
1419.6497581771
 21
-348.1686220057
 31
0.0
  0
LINE
  5
2A2
100
AcDbEntity
  8
L1_120
  6
CONTINUOUS
 62
         4
100
AcDbLine
 10
1439.1647581771
 20
-328.6536220057
 30
0.0
 11
1447.7579594624
 21
-320.0604207204
 31
0.0
  0
LINE
  5
2A3
100
AcDbEntity
  8
L1_120
  6
CONTINUOUS
 62
         4
100
AcDbLine
 10
1375.40711749
 20
-388.1686220057
 30
0.0
 11
1392.3275047567
 21
-371.248234739
 31
0.0
  0
LINE
  5
2A4
100
AcDbEntity
  8
L1_120
  6
CONTINUOUS
 62
         4
100
AcDbLine
 10
1404.4052089709
 20
-359.1705305248
 30
0.0
 11
1416.1920942509
 21
-347.3836452448
 31
0.0
  0
LINE
  5
2A5
100
AcDbEntity
  8
L1_120
  6
CONTINUOUS
 62
         4
100
AcDbLine
 10
1434.92211749
 20
-328.6536220057
 30
0.0
 11
1443.8248603857
 21
-319.7508791099
 31
0.0
  0
LINE
  5
2A6
100
AcDbEntity
  8
L1_120
  6
CONTINUOUS
 62
         4
100
AcDbLine
 10
1371.1644768028
 20
-388.1686220057
 30
0.0
 11
1392.3275047567
 21
-367.0055940518
 31
0.0
  0
LINE
  5
2A7
100
AcDbEntity
  8
L1_120
  6
CONTINUOUS
 62
         4
100
AcDbLine
 10
1402.5275047567
 20
-356.8055940518
 30
0.0
 11
1413.5644768028
 21
-345.7686220057
 31
0.0
  0
LINE
  5
2A8
100
AcDbEntity
  8
L1_120
  6
CONTINUOUS
 62
         4
100
AcDbLine
 10
1430.6794768028
 20
-328.6536220057
 30
0.0
 11
1439.8917613091
 21
-319.4413374995
 31
0.0
  0
LINE
  5
2A9
100
AcDbEntity
  8
L1_120
  6
CONTINUOUS
 62
         4
100
AcDbLine
 10
1366.9218361157
 20
-388.1686220057
 30
0.0
 11
1392.3275047567
 21
-362.7629533647
 31
0.0
  0
LINE
  5
2AA
100
AcDbEntity
  8
L1_120
  6
CONTINUOUS
 62
         4
100
AcDbLine
 10
1395.9199275966
 20
-359.1705305248
 30
0.0
 11
1397.3275047567
 21
-357.7629533647
 31
0.0
  0
LINE
  5
2AB
100
AcDbEntity
  8
L1_120
  6
CONTINUOUS
 62
         4
100
AcDbLine
 10
1402.5275047567
 20
-352.5629533647
 30
0.0
 11
1409.3218361157
 21
-345.7686220057
 31
0.0
  0
LINE
  5
2AC
100
AcDbEntity
  8
L1_120
  6
CONTINUOUS
 62
         4
100
AcDbLine
 10
1426.4368361157
 20
-328.6536220057
 30
0.0
 11
1435.9586622324
 21
-319.1317958891
 31
0.0
  0
LINE
  5
2AD
100
AcDbEntity
  8
L1_120
  6
CONTINUOUS
 62
         4
100
AcDbLine
 10
1363.3749204993
 20
-387.472896935
 30
0.0
 11
1397.3275047567
 21
-353.5203126776
 31
0.0
  0
LINE
  5
2AE
100
AcDbEntity
  8
L1_120
  6
CONTINUOUS
 62
         4
100
AcDbLine
 10
1400.0865644517
 20
-350.7612529826
 30
0.0
 11
1405.0791954286
 21
-345.7686220057
 31
0.0
  0
LINE
  5
2AF
100
AcDbEntity
  8
L1_120
  6
CONTINUOUS
 62
         4
100
AcDbLine
 10
1422.6791954286
 20
-328.1686220057
 30
0.0
 11
1432.0255631557
 21
-318.8222542786
 31
0.0
  0
LINE
  5
2B0
100
AcDbEntity
  8
L1_120
  6
CONTINUOUS
 62
         4
100
AcDbLine
 10
1363.3275047567
 20
-383.2776719905
 30
0.0
 11
1400.8365547415
 21
-345.7686220057
 31
0.0
  0
LINE
  5
2B1
100
AcDbEntity
  8
L1_120
  6
CONTINUOUS
 62
         4
100
AcDbLine
 10
1416.0365547415
 20
-330.5686220057
 30
0.0
 11
1416.1920942509
 21
-330.4130824964
 31
0.0
  0
LINE
  5
2B2
100
AcDbEntity
  8
L1_120
  6
CONTINUOUS
 62
         4
100
AcDbLine
 10
1418.4365547415
 20
-328.1686220057
 30
0.0
 11
1428.092464079
 21
-318.5127126682
 31
0.0
  0
LINE
  5
2B3
100
AcDbEntity
  8
L1_120
  6
CONTINUOUS
 62
         4
100
AcDbLine
 10
1363.3275047567
 20
-379.0350313034
 30
0.0
 11
1391.1939140544
 21
-351.1686220057
 31
0.0
  0
LINE
  5
2B4
100
AcDbEntity
  8
L1_120
  6
CONTINUOUS
 62
         4
100
AcDbLine
 10
1391.8275047567
 20
-350.5350313034
 30
0.0
 11
1396.5939140544
 21
-345.7686220057
 31
0.0
  0
LINE
  5
2B5
100
AcDbEntity
  8
L1_120
  6
CONTINUOUS
 62
         4
100
AcDbLine
 10
1411.7939140544
 20
-330.5686220057
 30
0.0
 11
1424.1593650024
 21
-318.2031710577
 31
0.0
  0
LINE
  5
2B6
100
AcDbEntity
  8
L1_120
  6
CONTINUOUS
 62
         4
100
AcDbLine
 10
1362.1916322335
 20
-375.9282631394
 30
0.0
 11
1373.3941700987
 21
-364.7257252743
 31
0.0
  0
LINE
  5
2B7
100
AcDbEntity
  8
L1_120
  6
CONTINUOUS
 62
         4
100
AcDbLine
 10
1375.8275047567
 20
-362.2923906163
 30
0.0
 11
1386.9512733673
 21
-351.1686220057
 31
0.0
  0
LINE
  5
2B8
100
AcDbEntity
  8
L1_120
  6
CONTINUOUS
 62
         4
100
AcDbLine
 10
1391.8275047567
 20
-346.2923906163
 30
0.0
 11
1392.3512733673
 21
-345.7686220057
 31
0.0
  0
LINE
  5
2B9
100
AcDbEntity
  8
L1_120
  6
CONTINUOUS
 62
         4
100
AcDbLine
 10
1407.5512733673
 20
-330.5686220057
 30
0.0
 11
1420.2262659257
 21
-317.8936294473
 31
0.0
  0
LINE
  5
2BA
100
AcDbEntity
  8
L1_120
  6
CONTINUOUS
 62
         4
100
AcDbLine
 10
1357.9761980171
 20
-375.9010566687
 30
0.0
 11
1369.2086326801
 21
-364.6686220057
 31
0.0
  0
LINE
  5
2BB
100
AcDbEntity
  8
L1_120
  6
CONTINUOUS
 62
         4
100
AcDbLine
 10
1375.8275047567
 20
-358.0497499291
 30
0.0
 11
1385.2086326801
 21
-348.6686220057
 31
0.0
  0
LINE
  5
2BC
100
AcDbEntity
  8
L1_120
  6
CONTINUOUS
 62
         4
100
AcDbLine
 10
1403.3086326801
 20
-330.5686220057
 30
0.0
 11
1416.293166849
 21
-317.5840878368
 31
0.0
  0
LINE
  5
2BD
100
AcDbEntity
  8
L1_120
  6
CONTINUOUS
 62
         4
100
AcDbLine
 10
1353.9355878389
 20
-375.6990261598
 30
0.0
 11
1364.965991993
 21
-364.6686220057
 31
0.0
  0
LINE
  5
2BE
100
AcDbEntity
  8
L1_120
  6
CONTINUOUS
 62
         4
100
AcDbLine
 10
1375.8275047567
 20
-353.807109242
 30
0.0
 11
1380.965991993
 21
-348.6686220057
 31
0.0
  0
LINE
  5
2BF
100
AcDbEntity
  8
L1_120
  6
CONTINUOUS
 62
         4
100
AcDbLine
 10
1399.065991993
 20
-330.5686220057
 30
0.0
 11
1412.3600677723
 21
-317.2745462264
 31
0.0
  0
LINE
  5
2C0
100
AcDbEntity
  8
L1_120
  6
CONTINUOUS
 62
         4
100
AcDbLine
 10
1349.8949776607
 20
-375.4969956509
 30
0.0
 11
1355.9619959831
 21
-369.4299773285
 31
0.0
  0
LINE
  5
2C1
100
AcDbEntity
  8
L1_120
  6
CONTINUOUS
 62
         4
100
AcDbLine
 10
1394.8233513059
 20
-330.5686220057
 30
0.0
 11
1399.7985824523
 21
-325.5933908594
 31
0.0
  0
LINE
  5
2C2
100
AcDbEntity
  8
L1_120
  6
CONTINUOUS
 62
         4
100
AcDbLine
 10
1402.5275047567
 20
-322.8644685549
 30
0.0
 11
1408.225259825
 21
-317.1667134866
 31
0.0
  0
LINE
  5
2C3
100
AcDbEntity
  8
L1_120
  6
CONTINUOUS
 62
         4
100
AcDbLine
 10
1345.8543674825
 20
-375.294965142
 30
0.0
 11
1351.4807106188
 21
-369.6686220057
 31
0.0
  0
LINE
  5
2C4
100
AcDbEntity
  8
L1_120
  6
CONTINUOUS
 62
         4
100
AcDbLine
 10
1391.8275047567
 20
-329.3218278678
 30
0.0
 11
1397.3275047567
 21
-323.8218278678
 31
0.0
  0
LINE
  5
2C5
100
AcDbEntity
  8
L1_120
  6
CONTINUOUS
 62
         4
100
AcDbLine
 10
1402.5275047567
 20
-318.6218278678
 30
0.0
 11
1403.9826191379
 21
-317.1667134866
 31
0.0
  0
LINE
  5
2C6
100
AcDbEntity
  8
L1_120
  6
CONTINUOUS
 62
         4
100
AcDbLine
 10
1341.8137573043
 20
-375.0929346331
 30
0.0
 11
1347.2380699317
 21
-369.6686220057
 31
0.0
  0
LINE
  5
2C7
100
AcDbEntity
  8
L1_120
  6
CONTINUOUS
 62
         4
100
AcDbLine
 10
1391.7380699317
 20
-325.1686220057
 30
0.0
 11
1397.3275047567
 21
-319.5791871807
 31
0.0
  0
LINE
  5
2C8
100
AcDbEntity
  8
L1_120
  6
CONTINUOUS
 62
         4
100
AcDbLine
 10
1337.7731471261
 20
-374.8909041242
 30
0.0
 11
1342.9954292445
 21
-369.6686220057
 31
0.0
  0
LINE
  5
2C9
100
AcDbEntity
  8
L1_120
  6
CONTINUOUS
 62
         4
100
AcDbLine
 10
1384.9954292445
 20
-327.6686220057
 30
0.0
 11
1386.8275047567
 21
-325.8365464935
 31
0.0
  0
LINE
  5
2CA
100
AcDbEntity
  8
L1_120
  6
CONTINUOUS
 62
         4
100
AcDbLine
 10
1387.4954292445
 20
-325.1686220057
 30
0.0
 11
1395.4973377636
 21
-317.1667134866
 31
0.0
  0
LINE
  5
2CB
100
AcDbEntity
  8
L1_120
  6
CONTINUOUS
 62
         4
100
AcDbLine
 10
1333.7325369479
 20
-374.6888736153
 30
0.0
 11
1338.7527885574
 21
-369.6686220057
 31
0.0
  0
LINE
  5
2CC
100
AcDbEntity
  8
L1_120
  6
CONTINUOUS
 62
         4
100
AcDbLine
 10
1380.7527885574
 20
-327.6686220057
 30
0.0
 11
1392.7387191489
 21
-315.6826914142
 31
0.0
  0
LINE
  5
2CD
100
AcDbEntity
  8
L1_120
  6
CONTINUOUS
 62
         4
100
AcDbLine
 10
1329.6919267697
 20
-374.4868431064
 30
0.0
 11
1335.5883691079
 21
-368.5904007681
 31
0.0
  0
LINE
  5
2CE
100
AcDbEntity
  8
L1_120
  6
CONTINUOUS
 62
         4
100
AcDbLine
 10
1377.5282323414
 20
-326.6505375346
 30
0.0
 11
1392.3275047567
 21
-311.8512651193
 31
0.0
  0
LINE
  5
2CF
100
AcDbEntity
  8
L1_120
  6
CONTINUOUS
 62
         4
100
AcDbLine
 10
1325.6513165914
 20
-374.2848125975
 30
0.0
 11
1334.0354548373
 21
-365.9006743516
 31
0.0
  0
LINE
  5
2D0
100
AcDbEntity
  8
L1_120
  6
CONTINUOUS
 62
         4
100
AcDbLine
 10
1375.8275047567
 20
-324.1086244322
 30
0.0
 11
1392.3275047567
 21
-307.6086244322
 31
0.0
  0
LINE
  5
2D1
100
AcDbEntity
  8
L1_120
  6
CONTINUOUS
 62
         4
100
AcDbLine
 10
1321.6107064132
 20
-374.0827820885
 30
0.0
 11
1331.0248664961
 21
-364.6686220057
 31
0.0
  0
LINE
  5
2D2
100
AcDbEntity
  8
L1_120
  6
CONTINUOUS
 62
         4
100
AcDbLine
 10
1375.8275047567
 20
-319.8659837451
 30
0.0
 11
1392.3275047567
 21
-303.3659837451
 31
0.0
  0
LINE
  5
2D3
100
AcDbEntity
  8
L1_120
  6
CONTINUOUS
 62
         4
100
AcDbLine
 10
1317.570096235
 20
-373.8807515796
 30
0.0
 11
1326.7822258089
 21
-364.6686220057
 31
0.0
  0
LINE
  5
2D4
100
AcDbEntity
  8
L1_120
  6
CONTINUOUS
 62
         4
100
AcDbLine
 10
1375.8275047567
 20
-315.6233430579
 30
0.0
 11
1392.3275047567
 21
-299.1233430579
 31
0.0
  0
LINE
  5
2D5
100
AcDbEntity
  8
L1_120
  6
CONTINUOUS
 62
         4
100
AcDbLine
 10
1313.971741462
 20
-373.2364656655
 30
0.0
 11
1322.5395851218
 21
-364.6686220057
 31
0.0
  0
LINE
  5
2D6
100
AcDbEntity
  8
L1_120
  6
CONTINUOUS
 62
         4
100
AcDbLine
 10
1375.3260855026
 20
-311.8821216249
 30
0.0
 11
1392.3275047567
 21
-294.8807023708
 31
0.0
  0
LINE
  5
2D7
100
AcDbEntity
  8
L1_120
  6
CONTINUOUS
 62
         4
100
AcDbLine
 10
1313.3275047567
 20
-369.6380616837
 30
0.0
 11
1318.2969444347
 21
-364.6686220057
 31
0.0
  0
LINE
  5
2D8
100
AcDbEntity
  8
L1_120
  6
CONTINUOUS
 62
         4
100
AcDbLine
 10
1371.2969444347
 20
-311.6686220057
 30
0.0
 11
1392.3275047567
 21
-290.6380616837
 31
0.0
  0
LINE
  5
2D9
100
AcDbEntity
  8
L1_120
  6
CONTINUOUS
 62
         4
100
AcDbLine
 10
1367.0543037476
 20
-311.6686220057
 30
0.0
 11
1390.5543037476
 21
-288.1686220057
 31
0.0
  0
LINE
  5
2DA
100
AcDbEntity
  8
L1_120
  6
CONTINUOUS
 62
         4
100
AcDbLine
 10
1363.107828227
 20
-311.3724568392
 30
0.0
 11
1382.3116630605
 21
-292.1686220057
 31
0.0
  0
LINE
  5
2DB
100
AcDbEntity
  8
L1_120
  6
CONTINUOUS
 62
         4
100
AcDbLine
 10
1361.000320553
 20
-309.237323826
 30
0.0
 11
1380.8079753379
 21
-289.4296690412
 31
0.0
  0
LINE
  5
2DC
100
AcDbEntity
  8
L1_120
  6
CONTINUOUS
 62
         4
100
AcDbLine
 10
1358.3415650049
 20
-307.653438687
 30
0.0
 11
1373.2263816862
 21
-292.7686220057
 31
0.0
  0
LINE
  5
2DD
100
AcDbEntity
  8
L1_120
  6
CONTINUOUS
 62
         4
100
AcDbLine
 10
1375.3275047567
 20
-290.6674989352
 30
0.0
 11
1377.8263816862
 21
-288.1686220057
 31
0.0
  0
LINE
  5
2DE
100
AcDbEntity
  8
L1_120
  6
CONTINUOUS
 62
         4
100
AcDbLine
 10
1354.9995646264
 20
-306.7527983784
 30
0.0
 11
1361.4603825643
 21
-300.2919804405
 31
0.0
  0
LINE
  5
2DF
100
AcDbEntity
  8
L1_120
  6
CONTINUOUS
 62
         4
100
AcDbLine
 10
1363.3275047567
 20
-298.4248582481
 30
0.0
 11
1368.7435418635
 21
-293.0088211413
 31
0.0
  0
LINE
  5
2E0
100
AcDbEntity
  8
L1_120
  6
CONTINUOUS
 62
         4
100
AcDbLine
 10
1350.841100312
 20
-306.6686220057
 30
0.0
 11
1357.0260263938
 21
-300.4836959239
 31
0.0
  0
LINE
  5
2E1
100
AcDbEntity
  8
L1_120
  6
CONTINUOUS
 62
         4
100
AcDbLine
 10
1363.3275047567
 20
-294.182217561
 30
0.0
 11
1365.3275047567
 21
-292.182217561
 31
0.0
  0
LINE
  5
2E2
100
AcDbEntity
  8
L1_120
  6
CONTINUOUS
 62
         4
100
AcDbLine
 10
1346.5984596249
 20
-306.6686220057
 30
0.0
 11
1352.5600888285
 21
-300.7069928021
 31
0.0
  0
LINE
  5
2E3
100
AcDbEntity
  8
L1_120
  6
CONTINUOUS
 62
         4
100
AcDbLine
 10
1363.3275047567
 20
-289.9395768739
 30
0.0
 11
1365.0984596249
 21
-288.1686220057
 31
0.0
  0
LINE
  5
2E4
100
AcDbEntity
  8
L1_120
  6
CONTINUOUS
 62
         4
100
AcDbLine
 10
1342.3558189377
 20
-306.6686220057
 30
0.0
 11
1348.0941512631
 21
-300.9302896804
 31
0.0
  0
LINE
  5
2E5
100
AcDbEntity
  8
L1_120
  6
CONTINUOUS
 62
         4
100
AcDbLine
 10
1333.1131782506
 20
-311.6686220057
 30
0.0
 11
1333.6122932807
 21
-311.1695069756
 31
0.0
  0
LINE
  5
2E6
100
AcDbEntity
  8
L1_120
  6
CONTINUOUS
 62
         4
100
AcDbLine
 10
1338.1131782506
 20
-306.6686220057
 30
0.0
 11
1343.6282136977
 21
-301.1535865587
 31
0.0
  0
LINE
  5
2E7
100
AcDbEntity
  8
L1_120
  6
CONTINUOUS
 62
         4
100
AcDbLine
 10
1328.8705375635
 20
-311.6686220057
 30
0.0
 11
1339.1622761323
 21
-301.3768834369
 31
0.0
  0
LINE
  5
2E8
100
AcDbEntity
  8
L1_120
  6
CONTINUOUS
 62
         4
100
AcDbLine
 10
1324.6278968764
 20
-311.6686220057
 30
0.0
 11
1334.6963385669
 21
-301.6001803152
 31
0.0
  0
LINE
  5
2E9
100
AcDbEntity
  8
L1_120
  6
CONTINUOUS
 62
         4
100
AcDbLine
 10
1320.3852561893
 20
-311.6686220057
 30
0.0
 11
1330.2304010015
 21
-301.8234771935
 31
0.0
  0
LINE
  5
2EA
100
AcDbEntity
  8
L1_120
  6
CONTINUOUS
 62
         4
100
AcDbLine
 10
1316.1426155022
 20
-311.6686220057
 30
0.0
 11
1325.7644634361
 21
-302.0467740718
 31
0.0
  0
LINE
  5
2EB
100
AcDbEntity
  8
L1_120
  6
CONTINUOUS
 62
         4
100
AcDbLine
 10
1313.3275047567
 20
-310.241092064
 30
0.0
 11
1321.2985258707
 21
-302.27007095
 31
0.0
  0
LINE
  5
2EC
100
AcDbEntity
  8
L1_120
  6
CONTINUOUS
 62
         4
100
AcDbLine
 10
1313.3275047567
 20
-305.9984513769
 30
0.0
 11
1316.8325883053
 21
-302.4933678283
 31
0.0
  0
ENDBLK
  5
2ED
100
AcDbEntity
  8
0
  6
CONTINUOUS
100
AcDbBlockEnd
  0
BLOCK
  5
303
100
AcDbEntity
  8
0
100
AcDbBlockBegin
  2
*D7
 70
        65
 10
0.0
 20
0.0
 30
0.0
  3
*D7
  1

  0
POINT
  5
305
100
AcDbEntity
  8
DEFPOINTS
  6
CONTINUOUS
 62
         0
100
AcDbPoint
 10
1542.473299794
 20
-294.564105557
 30
0.0
  0
POINT
  5
306
100
AcDbEntity
  8
DEFPOINTS
  6
CONTINUOUS
 62
         0
100
AcDbPoint
 10
1530.588721596
 20
-294.564105557
 30
0.0
  0
POINT
  5
307
100
AcDbEntity
  8
DEFPOINTS
  6
CONTINUOUS
 62
         0
100
AcDbPoint
 10
1530.588721596
 20
-306.564105557
 30
0.0
  0
LINE
  5
308
100
AcDbEntity
  8
L1_120
  6
CONTINUOUS
 62
         4
100
AcDbLine
 10
1532.338721596
 20
-294.564105557
 30
0.0
 11
1543.348299794
 21
-294.564105557
 31
0.0
  0
LINE
  5
309
100
AcDbEntity
  8
L1_120
  6
CONTINUOUS
 62
         4
100
AcDbLine
 10
1532.338721596
 20
-306.564105557
 30
0.0
 11
1543.348299794
 21
-306.564105557
 31
0.0
  0
LINE
  5
30A
100
AcDbEntity
  8
L1_120
  6
CONTINUOUS
 62
         4
100
AcDbLine
 10
1542.473299794
 20
-294.564105557
 30
0.0
 11
1542.473299794
 21
-262.0812328227
 31
0.0
  0
SOLID
  5
30B
100
AcDbEntity
  8
L1_120
  6
CONTINUOUS
 62
         4
100
AcDbTrace
 10
1542.473299794
 20
-294.564105557
 30
0.0
 11
1541.948299794
 21
-291.064105557
 31
0.0
 12
1542.998299794
 22
-291.064105557
 32
0.0
 13
1542.473299794
 23
-294.564105557
 33
0.0
  0
LINE
  5
30C
100
AcDbEntity
  8
L1_120
  6
CONTINUOUS
 62
         4
100
AcDbLine
 10
1542.473299794
 20
-306.564105557
 30
0.0
 11
1542.473299794
 21
-313.564105557
 31
0.0
  0
SOLID
  5
30D
100
AcDbEntity
  8
L1_120
  6
CONTINUOUS
 62
         4
100
AcDbTrace
 10
1542.473299794
 20
-306.564105557
 30
0.0
 11
1542.998299794
 21
-310.064105557
 31
0.0
 12
1541.948299794
 22
-310.064105557
 32
0.0
 13
1542.473299794
 23
-306.564105557
 33
0.0
  0
LINE
  5
30E
100
AcDbEntity
  8
L1_120
  6
CONTINUOUS
 62
         4
100
AcDbLine
 10
1542.473299794
 20
-294.564105557
 30
0.0
 11
1542.473299794
 21
-306.564105557
 31
0.0
  0
TEXT
  5
310
100
AcDbEntity
  8
L1_120
  6
CONTINUOUS
 62
         4
100
AcDbText
 10
1539.848299794
 20
-291.8312328227
 30
0.0
 40
3.5
  1
M16xP1.0
 50
90.0
  7
BOX
100
AcDbText
  0
ENDBLK
  5
311
100
AcDbEntity
  8
0
  6
CONTINUOUS
100
AcDbBlockEnd
  0
BLOCK
  5
313
100
AcDbEntity
  8
0
100
AcDbBlockBegin
  2
*D8
 70
        65
 10
0.0
 20
0.0
 30
0.0
  3
*D8
  1

  0
POINT
  5
315
100
AcDbEntity
  8
DEFPOINTS
  6
CONTINUOUS
 62
         0
100
AcDbPoint
 10
1512.088721596
 20
-319.3456150132
 30
0.0
  0
POINT
  5
316
100
AcDbEntity
  8
DEFPOINTS
  6
CONTINUOUS
 62
         0
100
AcDbPoint
 10
1512.088721596
 20
-305.1784649109
 30
0.0
  0
POINT
  5
317
100
AcDbEntity
  8
DEFPOINTS
  6
CONTINUOUS
 62
         0
100
AcDbPoint
 10
1532.088721596
 20
-305.064105557
 30
0.0
  0
LINE
  5
318
100
AcDbEntity
  8
L1_120
  6
CONTINUOUS
 62
         4
100
AcDbLine
 10
1512.088721596
 20
-306.9284649109
 30
0.0
 11
1512.088721596
 21
-320.2206150132
 31
0.0
  0
LINE
  5
319
100
AcDbEntity
  8
L1_120
  6
CONTINUOUS
 62
         4
100
AcDbLine
 10
1532.088721596
 20
-306.814105557
 30
0.0
 11
1532.088721596
 21
-320.2206150132
 31
0.0
  0
LINE
  5
31A
100
AcDbEntity
  8
L1_120
  6
CONTINUOUS
 62
         4
100
AcDbLine
 10
1512.088721596
 20
-319.3456150132
 30
0.0
 11
1532.088721596
 21
-319.3456150132
 31
0.0
  0
SOLID
  5
31B
100
AcDbEntity
  8
L1_120
  6
CONTINUOUS
 62
         4
100
AcDbTrace
 10
1512.088721596
 20
-319.3456150132
 30
0.0
 11
1515.588721596
 21
-318.8206150132
 31
0.0
 12
1515.588721596
 22
-319.8706150132
 32
0.0
 13
1512.088721596
 23
-319.3456150132
 33
0.0
  0
SOLID
  5
31C
100
AcDbEntity
  8
L1_120
  6
CONTINUOUS
 62
         4
100
AcDbTrace
 10
1532.088721596
 20
-319.3456150132
 30
0.0
 11
1528.588721596
 21
-319.8706150132
 31
0.0
 12
1528.588721596
 22
-318.8206150132
 32
0.0
 13
1532.088721596
 23
-319.3456150132
 33
0.0
  0
TEXT
  5
31E
100
AcDbEntity
  8
L1_120
  6
CONTINUOUS
 62
         4
100
AcDbText
 10
1518.9057283891
 20
-316.7206150132
 30
0.0
 40
3.5
  1
20
  7
BOX
100
AcDbText
  0
ENDBLK
  5
31F
100
AcDbEntity
  8
0
  6
CONTINUOUS
100
AcDbBlockEnd
  0
BLOCK
  5
32D
100
AcDbEntity
  8
0
100
AcDbBlockBegin
  2
*D9
 70
        65
 10
0.0
 20
0.0
 30
0.0
  3
*D9
  1

  0
POINT
  5
32F
100
AcDbEntity
  8
DEFPOINTS
  6
CONTINUOUS
 62
         0
100
AcDbPoint
 10
1488.1038220317
 20
-287.9748299296
 30
0.0
  0
POINT
  5
330
100
AcDbEntity
  8
DEFPOINTS
  6
CONTINUOUS
 62
         0
100
AcDbPoint
 10
1488.1038220317
 20
-298.6396046601
 30
0.0
  0
POINT
  5
331
100
AcDbEntity
  8
DEFPOINTS
  6
CONTINUOUS
 62
         0
100
AcDbPoint
 10
1494.7704886967
 20
-298.6396046601
 30
0.0
  0
LINE
  5
332
100
AcDbEntity
  8
L1_120
  6
CONTINUOUS
 62
         4
100
AcDbLine
 10
1488.1038220317
 20
-296.8896046601
 30
0.0
 11
1488.1038220317
 21
-287.0998299296
 31
0.0
  0
LINE
  5
333
100
AcDbEntity
  8
L1_120
  6
CONTINUOUS
 62
         4
100
AcDbLine
 10
1494.7704886967
 20
-296.8896046601
 30
0.0
 11
1494.7704886967
 21
-287.0998299296
 31
0.0
  0
LINE
  5
334
100
AcDbEntity
  8
L1_120
  6
CONTINUOUS
 62
         4
100
AcDbLine
 10
1488.1038220317
 20
-287.9748299296
 30
0.0
 11
1481.1038220317
 21
-287.9748299296
 31
0.0
  0
SOLID
  5
335
100
AcDbEntity
  8
L1_120
  6
CONTINUOUS
 62
         4
100
AcDbTrace
 10
1488.1038220317
 20
-287.9748299296
 30
0.0
 11
1484.6038220317
 21
-288.4998299296
 31
0.0
 12
1484.6038220317
 22
-287.4498299296
 32
0.0
 13
1488.1038220317
 23
-287.9748299296
 33
0.0
  0
LINE
  5
336
100
AcDbEntity
  8
L1_120
  6
CONTINUOUS
 62
         4
100
AcDbLine
 10
1494.7704886967
 20
-287.9748299296
 30
0.0
 11
1501.7704886967
 21
-287.9748299296
 31
0.0
  0
SOLID
  5
337
100
AcDbEntity
  8
L1_120
  6
CONTINUOUS
 62
         4
100
AcDbTrace
 10
1494.7704886967
 20
-287.9748299296
 30
0.0
 11
1498.2704886967
 21
-287.4498299296
 31
0.0
 12
1498.2704886967
 22
-288.4998299296
 32
0.0
 13
1494.7704886967
 23
-287.9748299296
 33
0.0
  0
LINE
  5
338
100
AcDbEntity
  8
L1_120
  6
CONTINUOUS
 62
         4
100
AcDbLine
 10
1488.1038220317
 20
-287.9748299296
 30
0.0
 11
1494.7704886967
 21
-287.9748299296
 31
0.0
  0
TEXT
  5
33A
100
AcDbEntity
  8
L1_120
  6
CONTINUOUS
 62
         4
100
AcDbText
 10
1488.9321600846
 20
-283.9148299296
 30
0.0
 40
3.5
  1
8
  7
BOX
100
AcDbText
  0
ENDBLK
  5
33B
100
AcDbEntity
  8
0
  6
CONTINUOUS
100
AcDbBlockEnd
  0
ENDSEC
  0
SECTION
  2
ENTITIES
  0
LINE
  5
25
100
AcDbEntity
  8
L1_120
  6
CENTER
 62
         1
100
AcDbLine
 10
1256.5288136166
 20
-210.1506455357
 30
0.0
 11
1261.1278060383
 21
-210.1506455357
 31
0.0
  0
LINE
  5
26
100
AcDbEntity
  8
L1_120
  6
CENTER
 62
         1
100
AcDbLine
 10
1258.6331451996
 20
-208.3141757172
 30
0.0
 11
1258.6331451996
 21
-212.1297091825
 31
0.0
  0
LINE
  5
27
100
AcDbEntity
  8
L1_120
  6
CONTINUOUS
 62
         7
100
AcDbLine
 10
1255.1767070085
 20
-214.0306455357
 30
0.0
 11
1258.6331451996
 21
-214.0306455357
 31
0.0
  0
LINE
  5
28
100
AcDbEntity
  8
L1_120
  6
CENTER
 62
         1
100
AcDbLine
 10
1256.5288136166
 20
-239.9306455357
 30
0.0
 11
1261.1278060383
 21
-239.9306455357
 31
0.0
  0
LINE
  5
29
100
AcDbEntity
  8
L1_120
  6
CENTER
 62
         1
100
AcDbLine
 10
1258.6331451996
 20
-238.0941757172
 30
0.0
 11
1258.6331451996
 21
-241.9097091825
 31
0.0
  0
LINE
  5
2A
100
AcDbEntity
  8
L1_120
  6
CONTINUOUS
 62
         7
100
AcDbLine
 10
1255.1767070085
 20
-236.0506455357
 30
0.0
 11
1258.6331451996
 21
-236.0506455357
 31
0.0
  0
LINE
  5
2B
100
AcDbEntity
  8
L1_120
  6
CONTINUOUS
 62
         7
100
AcDbLine
 10
1258.6331451996
 20
-235.0506455357
 30
0.0
 11
1255.6088503574
 21
-235.0506455357
 31
0.0
  0
LINE
  5
2C
100
AcDbEntity
  8
L1_120
  6
CONTINUOUS
 62
         7
100
AcDbLine
 10
1258.6331451996
 20
-215.0306455357
 30
0.0
 11
1255.6088503574
 21
-215.0306455357
 31
0.0
  0
ARC
  5
2D
100
AcDbEntity
  8
L1_120
  6
CONTINUOUS
 62
         7
100
AcDbCircle
 10
1258.6331451996
 20
-240.9306455357
 30
0.0
 40
4.88
100
AcDbArc
 50
11.940259608
 51
90.0
  0
ARC
  5
2E
100
AcDbEntity
  8
L1_120
  6
CONTINUOUS
 62
         7
100
AcDbCircle
 10
1258.6331451996
 20
-239.9306455357
 30
0.0
 40
4.88
100
AcDbArc
 50
2.69334998
 51
90.0
  0
ARC
  5
2F
100
AcDbEntity
  8
L1_120
  6
CONTINUOUS
 62
         7
100
AcDbCircle
 10
1258.6331451996
 20
-209.1506455357
 30
0.0
 40
4.88
100
AcDbArc
 50
270.0
 51
348.059740392
  0
ARC
  5
30
100
AcDbEntity
  8
L1_120
  6
CONTINUOUS
 62
         7
100
AcDbCircle
 10
1258.6331451996
 20
-210.1506455357
 30
0.0
 40
4.88
100
AcDbArc
 50
270.0
 51
357.30665002
  0
LINE
  5
31
100
AcDbEntity
  8
L1_120
  6
DASHED
 62
         2
100
AcDbLine
 10
1226.0721451996
 20
-179.6406455357
 30
0.0
 11
1236.0721451996
 21
-179.6406455357
 31
0.0
  0
LINE
  5
32
100
AcDbEntity
  8
L1_120
  6
DASHED
 62
         2
100
AcDbLine
 10
1226.0721451996
 20
-175.2912736803
 30
0.0
 11
1226.0721451996
 21
-179.6406455357
 31
0.0
  0
LINE
  5
33
100
AcDbEntity
  8
L1_120
  6
DASHED
 62
         2
100
AcDbLine
 10
1233.0721451996
 20
-179.6406455357
 30
0.0
 11
1231.0721451996
 21
-180.795346074
 31
0.0
  0
LINE
  5
34
100
AcDbEntity
  8
L1_120
  6
DASHED
 62
         2
100
AcDbLine
 10
1229.0721451996
 20
-179.6406455357
 30
0.0
 11
1231.0721451996
 21
-180.795346074
 31
0.0
  0
LINE
  5
35
100
AcDbEntity
  8
L1_120
  6
DASHED
 62
         2
100
AcDbLine
 10
1236.0721451996
 20
-175.2912736803
 30
0.0
 11
1236.0721451996
 21
-179.6406455357
 31
0.0
  0
LINE
  5
36
100
AcDbEntity
  8
L1_120
  6
CENTER
 62
         1
100
AcDbLine
 10
1201.4068136166
 20
-210.1506455357
 30
0.0
 11
1206.0058060383
 21
-210.1506455357
 31
0.0
  0
LINE
  5
37
100
AcDbEntity
  8
L1_120
  6
CONTINUOUS
 62
         7
100
AcDbLine
 10
1206.9675833907
 20
-214.0306455357
 30
0.0
 11
1203.5111451996
 21
-214.0306455357
 31
0.0
  0
CIRCLE
  5
38
100
AcDbEntity
  8
L1_120
  6
CONTINUOUS
 62
         7
100
AcDbCircle
 10
1231.0721451996
 20
-225.0406455357
 30
0.0
 40
6.0
  0
LINE
  5
39
100
AcDbEntity
  8
L1_120
  6
CENTER
 62
         1
100
AcDbLine
 10
1201.4068136166
 20
-239.9306455357
 30
0.0
 11
1206.0058060383
 21
-239.9306455357
 31
0.0
  0
LINE
  5
3A
100
AcDbEntity
  8
L1_120
  6
CENTER
 62
         1
100
AcDbLine
 10
1203.5111451996
 20
-238.0941757172
 30
0.0
 11
1203.5111451996
 21
-241.9097091825
 31
0.0
  0
ARC
  5
3B
100
AcDbEntity
  8
L1_120
  6
CONTINUOUS
 62
         7
100
AcDbCircle
 10
1203.5111451996
 20
-240.9306455357
 30
0.0
 40
4.88
100
AcDbArc
 50
90.0
 51
168.059740392
  0
ARC
  5
3C
100
AcDbEntity
  8
L1_120
  6
CONTINUOUS
 62
         7
100
AcDbCircle
 10
1203.5111451996
 20
-239.9306455357
 30
0.0
 40
4.88
100
AcDbArc
 50
90.0
 51
177.30665002
  0
LINE
  5
3D
100
AcDbEntity
  8
L1_120
  6
CONTINUOUS
 62
         7
100
AcDbLine
 10
1206.9675833907
 20
-236.0506455357
 30
0.0
 11
1203.5111451996
 21
-236.0506455357
 31
0.0
  0
LINE
  5
3E
100
AcDbEntity
  8
L1_120
  6
CONTINUOUS
 62
         7
100
AcDbLine
 10
1206.5354400418
 20
-235.0506455357
 30
0.0
 11
1203.5111451996
 21
-235.0506455357
 31
0.0
  0
LINE
  5
3F
100
AcDbEntity
  8
L1_120
  6
CONTINUOUS
 62
         7
100
AcDbLine
 10
1206.5354400418
 20
-215.0306455357
 30
0.0
 11
1203.5111451996
 21
-215.0306455357
 31
0.0
  0
CIRCLE
  5
40
100
AcDbEntity
  8
L1_120
  6
CONTINUOUS
 62
         7
100
AcDbCircle
 10
1231.0721451996
 20
-225.0406455357
 30
0.0
 40
11.0
  0
LINE
  5
41
100
AcDbEntity
  8
L1_120
  6
CENTER
 62
         1
100
AcDbLine
 10
1203.5111451996
 20
-210.1506455357
 30
0.0
 11
1231.0721451996
 21
-225.0406455357
 31
0.0
  0
ARC
  5
42
100
AcDbEntity
  8
L1_120
  6
CONTINUOUS
 62
         7
100
AcDbCircle
 10
1203.5111451996
 20
-209.1506455357
 30
0.0
 40
4.88
100
AcDbArc
 50
191.940259608
 51
270.0
  0
ARC
  5
43
100
AcDbEntity
  8
L1_120
  6
CONTINUOUS
 62
         7
100
AcDbCircle
 10
1203.5111451996
 20
-210.1506455357
 30
0.0
 40
4.88
100
AcDbArc
 50
182.69334998
 51
270.0
  0
CIRCLE
  5
44
100
AcDbEntity
  8
L1_120
  6
CONTINUOUS
 62
         7
100
AcDbCircle
 10
1231.0721451996
 20
-225.0406455357
 30
0.0
 40
35.5950062383
  0
CIRCLE
  5
45
100
AcDbEntity
  8
L1_120
  6
CONTINUOUS
 62
         7
100
AcDbCircle
 10
1231.0721451996
 20
-225.0406455357
 30
0.0
 40
38.0
  0
CIRCLE
  5
46
100
AcDbEntity
  8
L1_120
  6
CONTINUOUS
 62
         7
100
AcDbCircle
 10
1231.0721451996
 20
-225.0406455357
 30
0.0
 40
50.0
  0
ARC
  5
47
100
AcDbEntity
  8
L1_120
  6
CONTINUOUS
 62
         4
100
AcDbCircle
 10
1231.0721451996
 20
-225.0406455357
 30
0.0
 40
12.0
100
AcDbArc
 50
275.3348619204
 51
546.1167435019
  0
CIRCLE
  5
48
100
AcDbEntity
  8
L1_120
  6
CONTINUOUS
 62
         7
100
AcDbCircle
 10
1231.0721451996
 20
-225.0406455357
 30
0.0
 40
26.5
  0
ARC
  5
49
100
AcDbEntity
  8
L1_120
  6
CONTINUOUS
 62
         7
100
AcDbCircle
 10
1364.3275047567
 20
-289.1686220057
 30
0.0
 40
1.0
100
AcDbArc
 50
90.0
 51
180.0
  0
ARC
  5
4A
100
AcDbEntity
  8
L1_120
  6
CONTINUOUS
 62
         7
100
AcDbCircle
 10
1364.3275047567
 20
-387.1686220057
 30
0.0
 40
1.0
100
AcDbArc
 50
180.0
 51
270.0
  0
LINE
  5
4B
100
AcDbEntity
  8
L1_120
  6
CONTINUOUS
 62
         7
100
AcDbLine
 10
1375.3275047567
 20
-288.1686220057
 30
0.0
 11
1375.3275047567
 21
-292.7686220057
 31
0.0
  0
LINE
  5
4C
100
AcDbEntity
  8
L1_120
  6
CONTINUOUS
 62
         7
100
AcDbLine
 10
1372.3275047567
 20
-292.7686220057
 30
0.0
 11
1370.3275047567
 21
-293.9233225441
 31
0.0
  0
LINE
  5
4D
100
AcDbEntity
  8
L1_120
  6
CENTER
 62
         1
100
AcDbLine
 10
1370.3275047567
 20
-284.8679944499
 30
0.0
 11
1370.3275047567
 21
-297.2348551749
 31
0.0
  0
LINE
  5
4E
100
AcDbEntity
  8
L1_120
  6
CONTINUOUS
 62
         7
100
AcDbLine
 10
1365.3275047567
 20
-288.1686220057
 30
0.0
 11
1365.3275047567
 21
-292.7686220057
 31
0.0
  0
LINE
  5
4F
100
AcDbEntity
  8
L1_120
  6
CONTINUOUS
 62
         7
100
AcDbLine
 10
1368.3275047567
 20
-292.7686220057
 30
0.0
 11
1370.3275047567
 21
-293.9233225441
 31
0.0
  0
LINE
  5
50
100
AcDbEntity
  8
L1_120
  6
CONTINUOUS
 62
         7
100
AcDbLine
 10
1365.3275047567
 20
-292.7686220057
 30
0.0
 11
1375.3275047567
 21
-292.7686220057
 31
0.0
  0
LINE
  5
51
100
AcDbEntity
  8
L1_120
  6
CONTINUOUS
 62
         7
100
AcDbLine
 10
1314.8275047567
 20
-328.1586220057
 30
0.0
 11
1326.3275047567
 21
-328.1586220057
 31
0.0
  0
LINE
  5
52
100
AcDbEntity
  8
L1_120
  6
CONTINUOUS
 62
         7
100
AcDbLine
 10
1315.2276295228
 20
-302.5736157674
 30
0.0
 11
1361.3660205533
 21
-300.2666962159
 31
0.0
  0
LINE
  5
53
100
AcDbEntity
  8
L1_120
  6
CONTINUOUS
 62
         7
100
AcDbLine
 10
1314.8275047567
 20
-311.6686220057
 30
0.0
 11
1333.3241290838
 21
-311.6686220057
 31
0.0
  0
LINE
  5
54
100
AcDbEntity
  8
L1_120
  6
CONTINUOUS
 62
         7
100
AcDbLine
 10
1314.8275047567
 20
-348.1786220057
 30
0.0
 11
1326.3275047567
 21
-348.1786220057
 31
0.0
  0
LINE
  5
55
100
AcDbEntity
  8
L1_120
  6
CONTINUOUS
 62
         7
100
AcDbLine
 10
1314.8275047567
 20
-364.6686220057
 30
0.0
 11
1333.3241290838
 21
-364.6686220057
 31
0.0
  0
LINE
  5
56
100
AcDbEntity
  8
L1_120
  6
CONTINUOUS
 62
         7
100
AcDbLine
 10
1314.8275047567
 20
-328.1586220057
 30
0.0
 11
1313.3275047567
 21
-326.6586220057
 31
0.0
  0
LINE
  5
57
100
AcDbEntity
  8
L1_120
  6
CONTINUOUS
 62
         7
100
AcDbLine
 10
1313.3275047567
 20
-349.6786220057
 30
0.0
 11
1313.3275047567
 21
-371.7661235663
 31
0.0
  0
ARC
  5
58
100
AcDbEntity
  8
L1_120
  6
CONTINUOUS
 62
         7
100
AcDbCircle
 10
1315.3275047567
 20
-371.7661235663
 30
0.0
 40
2.0
100
AcDbArc
 50
180.0
 51
267.1375947739
  0
LINE
  5
59
100
AcDbEntity
  8
L1_120
  6
CONTINUOUS
 62
         7
100
AcDbLine
 10
1314.8275047567
 20
-348.1786220057
 30
0.0
 11
1313.3275047567
 21
-349.6786220057
 31
0.0
  0
LINE
  5
5A
100
AcDbEntity
  8
L1_120
  6
CONTINUOUS
 62
         7
100
AcDbLine
 10
1314.8275047567
 20
-364.6686220057
 30
0.0
 11
1313.3275047567
 21
-365.5346474095
 31
0.0
  0
LINE
  5
5B
100
AcDbEntity
  8
L1_120
  6
CONTINUOUS
 62
         7
100
AcDbLine
 10
1313.3275047567
 20
-304.5711204452
 30
0.0
 11
1313.3275047567
 21
-326.6586220057
 31
0.0
  0
LINE
  5
5C
100
AcDbEntity
  8
L1_120
  6
CONTINUOUS
 62
         7
100
AcDbLine
 10
1314.8275047567
 20
-311.6686220057
 30
0.0
 11
1313.3275047567
 21
-310.8025966019
 31
0.0
  0
ARC
  5
5D
100
AcDbEntity
  8
L1_120
  6
CONTINUOUS
 62
         7
100
AcDbCircle
 10
1315.3275047567
 20
-304.5711204452
 30
0.0
 40
2.0
100
AcDbArc
 50
92.8624052261
 51
180.0
  0
LINE
  5
5E
100
AcDbEntity
  8
L1_120
  6
CONTINUOUS
 62
         7
100
AcDbLine
 10
1375.8275047567
 20
-313.384012101
 30
0.0
 11
1375.8275047567
 21
-362.9532319105
 31
0.0
  0
LINE
  5
5F
100
AcDbEntity
  8
L1_120
  6
CENTER
 62
         1
100
AcDbLine
 10
1383.3275047567
 20
-285.3569561711
 30
0.0
 11
1383.3275047567
 21
-389.3217962088
 31
0.0
  0
LINE
  5
60
100
AcDbEntity
  8
L1_120
  6
CONTINUOUS
 62
         7
100
AcDbLine
 10
1373.3275047567
 20
-311.6686220057
 30
0.0
 11
1373.3275047567
 21
-364.6686220057
 31
0.0
  0
LINE
  5
61
100
AcDbEntity
  8
L1_120
  6
CENTER
 62
         1
100
AcDbLine
 10
1348.3275047567
 20
-327.9775553664
 30
0.0
 11
1348.3275047567
 21
-352.0330930117
 31
0.0
  0
LINE
  5
62
100
AcDbEntity
  8
L1_120
  6
CONTINUOUS
 62
         7
100
AcDbLine
 10
1363.3275047567
 20
-311.6686220057
 30
0.0
 11
1363.3275047567
 21
-364.6686220057
 31
0.0
  0
LINE
  5
63
100
AcDbEntity
  8
L1_120
  6
CONTINUOUS
 62
         7
100
AcDbLine
 10
1333.3241290838
 20
-311.6686220057
 30
0.0
 11
1333.3241290838
 21
-364.6686220057
 31
0.0
  0
LINE
  5
64
100
AcDbEntity
  8
L1_120
  6
CONTINUOUS
 62
         4
100
AcDbLine
 10
1336.2108804297
 20
-307.493146296
 30
0.0
 11
1336.2108804297
 21
-368.645302999
 31
0.0
  0
ARC
  5
65
100
AcDbEntity
  8
L1_120
  6
CONTINUOUS
 62
         7
100
AcDbCircle
 10
1353.5807104119
 20
-357.6686220057
 30
0.0
 40
12.0
100
AcDbArc
 50
270.0
 51
324.3146652874
  0
CIRCLE
  5
66
100
AcDbEntity
  8
L1_120
  6
CONTINUOUS
 62
         7
100
AcDbCircle
 10
1348.3275047567
 20
-338.1686220057
 30
0.0
 40
6.0
  0
LINE
  5
67
100
AcDbEntity
  8
L1_120
  6
CONTINUOUS
 62
         7
100
AcDbLine
 10
1336.7882306989
 20
-369.6686220057
 30
0.0
 11
1353.5807104119
 21
-369.6686220057
 31
0.0
  0
LINE
  5
68
100
AcDbEntity
  8
L1_120
  6
CONTINUOUS
 62
         7
100
AcDbLine
 10
1333.3241290838
 20
-364.6686220057
 30
0.0
 11
1335.9222052951
 21
-369.1686220057
 31
0.0
  0
ARC
  5
69
100
AcDbEntity
  8
L1_120
  6
CONTINUOUS
 62
         7
100
AcDbCircle
 10
1336.7882306989
 20
-368.6686220057
 30
0.0
 40
1.0
100
AcDbArc
 50
210.0
 51
270.0
  0
ARC
  5
6A
100
AcDbEntity
  8
L1_120
  6
CONTINUOUS
 62
         7
100
AcDbCircle
 10
1326.3275047567
 20
-330.1586220057
 30
0.0
 40
2.0
100
AcDbArc
 50
0.0
 51
90.0
  0
ARC
  5
6B
100
AcDbEntity
  8
L1_120
  6
CONTINUOUS
 62
         7
100
AcDbCircle
 10
1326.3275047567
 20
-346.1786220057
 30
0.0
 40
2.0
100
AcDbArc
 50
270.0
 51
360.0
  0
LINE
  5
6C
100
AcDbEntity
  8
L1_120
  6
CONTINUOUS
 62
         7
100
AcDbLine
 10
1328.3275047567
 20
-330.1586220057
 30
0.0
 11
1328.3275047567
 21
-346.1786220057
 31
0.0
  0
LINE
  5
6D
100
AcDbEntity
  8
L1_120
  6
CONTINUOUS
 62
         7
100
AcDbLine
 10
1380.0799094925
 20
-388.1686220057
 30
0.0
 11
1381.4525047567
 21
-385.7912172699
 31
0.0
  0
LINE
  5
6E
100
AcDbEntity
  8
L1_120
  6
CONTINUOUS
 62
         7
100
AcDbLine
 10
1386.5751000209
 20
-388.1686220057
 30
0.0
 11
1385.2025047567
 21
-385.7912172699
 31
0.0
  0
LINE
  5
6F
100
AcDbEntity
  8
L1_120
  6
CONTINUOUS
 62
         7
100
AcDbLine
 10
1364.3275047567
 20
-388.1686220057
 30
0.0
 11
1380.0799094925
 21
-388.1686220057
 31
0.0
  0
LINE
  5
70
100
AcDbEntity
  8
L1_120
  6
CONTINUOUS
 62
         7
100
AcDbLine
 10
1386.5751000209
 20
-388.1686220057
 30
0.0
 11
1391.3275047567
 21
-388.1686220057
 31
0.0
  0
LINE
  5
71
100
AcDbEntity
  8
L1_120
  6
CONTINUOUS
 62
         7
100
AcDbLine
 10
1363.3275047567
 20
-377.7552631394
 30
0.0
 11
1363.3275047567
 21
-387.1686220057
 31
0.0
  0
LINE
  5
72
100
AcDbEntity
  8
L1_120
  6
CONTINUOUS
 62
         7
100
AcDbLine
 10
1363.3275047567
 20
-364.6686220057
 30
0.0
 11
1373.3275047567
 21
-364.6686220057
 31
0.0
  0
LINE
  5
73
100
AcDbEntity
  8
L1_120
  6
CONTINUOUS
 62
         7
100
AcDbLine
 10
1381.9525047567
 20
-384.1686220057
 30
0.0
 11
1384.7025047567
 21
-384.1686220057
 31
0.0
  0
ARC
  5
74
100
AcDbEntity
  8
L1_120
  6
CONTINUOUS
 62
         7
100
AcDbCircle
 10
1384.7025047567
 20
-384.6686220057
 30
0.0
 40
0.5
100
AcDbArc
 50
0.0
 51
90.0
  0
LINE
  5
75
100
AcDbEntity
  8
L1_120
  6
CONTINUOUS
 62
         7
100
AcDbLine
 10
1385.2025047567
 20
-385.7912172699
 30
0.0
 11
1385.2025047567
 21
-384.6686220057
 31
0.0
  0
LINE
  5
76
100
AcDbEntity
  8
L1_120
  6
CONTINUOUS
 62
         7
100
AcDbLine
 10
1381.4525047567
 20
-385.7912172699
 30
0.0
 11
1381.4525047567
 21
-384.6686220057
 31
0.0
  0
ARC
  5
77
100
AcDbEntity
  8
L1_120
  6
CONTINUOUS
 62
         7
100
AcDbCircle
 10
1381.9525047567
 20
-384.6686220057
 30
0.0
 40
0.5
100
AcDbArc
 50
90.0
 51
180.0
  0
ARC
  5
78
100
AcDbEntity
  8
L1_120
  6
CONTINUOUS
 62
         7
100
AcDbCircle
 10
1353.5807104119
 20
-318.6686220057
 30
0.0
 40
12.0
100
AcDbArc
 50
35.6853347126
 51
90.0
  0
LINE
  5
79
100
AcDbEntity
  8
L1_120
  6
CONTINUOUS
 62
         7
100
AcDbLine
 10
1336.7882306989
 20
-306.6686220057
 30
0.0
 11
1353.5807104119
 21
-306.6686220057
 31
0.0
  0
LINE
  5
7A
100
AcDbEntity
  8
L1_120
  6
CONTINUOUS
 62
         7
100
AcDbLine
 10
1333.3241290838
 20
-311.6686220057
 30
0.0
 11
1335.9222052951
 21
-307.1686220057
 31
0.0
  0
ARC
  5
7B
100
AcDbEntity
  8
L1_120
  6
CONTINUOUS
 62
         7
100
AcDbCircle
 10
1336.7882306989
 20
-307.6686220057
 30
0.0
 40
1.0
100
AcDbArc
 50
90.0
 51
150.0
  0
LINE
  5
7C
100
AcDbEntity
  8
L1_120
  6
CONTINUOUS
 62
         7
100
AcDbLine
 10
1380.0799094925
 20
-288.1686220057
 30
0.0
 11
1381.4525047567
 21
-290.5460267415
 31
0.0
  0
LINE
  5
7D
100
AcDbEntity
  8
L1_120
  6
CONTINUOUS
 62
         7
100
AcDbLine
 10
1375.3275047567
 20
-288.1686220057
 30
0.0
 11
1375.3275047567
 21
-292.7686220057
 31
0.0
  0
ARC
  5
7E
100
AcDbEntity
  8
L1_120
  6
CONTINUOUS
 62
         7
100
AcDbCircle
 10
1373.3275047567
 20
-313.384012101
 30
0.0
 40
2.5
100
AcDbArc
 50
0.0
 51
52.0525999271
  0
LINE
  5
7F
100
AcDbEntity
  8
L1_120
  6
CONTINUOUS
 62
         7
100
AcDbLine
 10
1372.3275047567
 20
-292.7686220057
 30
0.0
 11
1370.3275047567
 21
-293.9233225441
 31
0.0
  0
LINE
  5
80
100
AcDbEntity
  8
L1_120
  6
CENTER
 62
         1
100
AcDbLine
 10
1370.3275047567
 20
-284.8679944499
 30
0.0
 11
1370.3275047567
 21
-297.2348551749
 31
0.0
  0
ARC
  5
81
100
AcDbEntity
  8
L1_120
  6
CONTINUOUS
 62
         7
100
AcDbCircle
 10
1374.2781321735
 20
-312.6330752438
 30
0.0
 40
1.354201807
100
AcDbArc
 50
64.3255808876
 51
134.5863634012
  0
LINE
  5
82
100
AcDbEntity
  8
L1_120
  6
CONTINUOUS
 62
         7
100
AcDbLine
 10
1365.3275047567
 20
-288.1686220057
 30
0.0
 11
1365.3275047567
 21
-292.7686220057
 31
0.0
  0
LINE
  5
83
100
AcDbEntity
  8
L1_120
  6
CONTINUOUS
 62
         7
100
AcDbLine
 10
1363.3275047567
 20
-289.1686220057
 30
0.0
 11
1363.3275047567
 21
-298.581980872
 31
0.0
  0
LINE
  5
84
100
AcDbEntity
  8
L1_120
  6
CONTINUOUS
 62
         7
100
AcDbLine
 10
1368.3275047567
 20
-292.7686220057
 30
0.0
 11
1370.3275047567
 21
-293.9233225441
 31
0.0
  0
LINE
  5
85
100
AcDbEntity
  8
L1_120
  6
CONTINUOUS
 62
         7
100
AcDbLine
 10
1363.3275047567
 20
-311.6686220057
 30
0.0
 11
1373.3275047567
 21
-311.6686220057
 31
0.0
  0
LINE
  5
86
100
AcDbEntity
  8
L1_120
  6
CONTINUOUS
 62
         7
100
AcDbLine
 10
1364.3275047567
 20
-288.1686220057
 30
0.0
 11
1380.0799094925
 21
-288.1686220057
 31
0.0
  0
LINE
  5
87
100
AcDbEntity
  8
L1_120
  6
CONTINUOUS
 62
         7
100
AcDbLine
 10
1365.3275047567
 20
-292.7686220057
 30
0.0
 11
1375.3275047567
 21
-292.7686220057
 31
0.0
  0
LINE
  5
88
100
AcDbEntity
  8
L1_120
  6
CONTINUOUS
 62
         7
100
AcDbLine
 10
1386.5751000209
 20
-288.1686220057
 30
0.0
 11
1385.2025047567
 21
-290.5460267415
 31
0.0
  0
LINE
  5
89
100
AcDbEntity
  8
L1_120
  6
CONTINUOUS
 62
         7
100
AcDbLine
 10
1381.9525047567
 20
-292.1686220057
 30
0.0
 11
1384.7025047567
 21
-292.1686220057
 31
0.0
  0
ARC
  5
8A
100
AcDbEntity
  8
L1_120
  6
CONTINUOUS
 62
         7
100
AcDbCircle
 10
1384.7025047567
 20
-291.6686220057
 30
0.0
 40
0.5
100
AcDbArc
 50
270.0
 51
360.0
  0
LINE
  5
8B
100
AcDbEntity
  8
L1_120
  6
CONTINUOUS
 62
         7
100
AcDbLine
 10
1385.2025047567
 20
-290.5460267415
 30
0.0
 11
1385.2025047567
 21
-291.6686220057
 31
0.0
  0
LINE
  5
8C
100
AcDbEntity
  8
L1_120
  6
CONTINUOUS
 62
         7
100
AcDbLine
 10
1386.5751000209
 20
-288.1686220057
 30
0.0
 11
1391.3275047567
 21
-288.1686220057
 31
0.0
  0
LINE
  5
8D
100
AcDbEntity
  8
L1_120
  6
CONTINUOUS
 62
         7
100
AcDbLine
 10
1381.4525047567
 20
-290.5460267415
 30
0.0
 11
1381.4525047567
 21
-291.6686220057
 31
0.0
  0
ARC
  5
8E
100
AcDbEntity
  8
L1_120
  6
CONTINUOUS
 62
         7
100
AcDbCircle
 10
1381.9525047567
 20
-291.6686220057
 30
0.0
 40
0.5
100
AcDbArc
 50
180.0
 51
270.0
  0
ARC
  5
8F
100
AcDbEntity
  8
L1_120
  6
CONTINUOUS
 62
         7
100
AcDbCircle
 10
1373.3026390164
 20
-362.7854018383
 30
0.0
 40
2.5304374997
100
AcDbArc
 50
319.754819047
 51
356.197092871
  0
ARC
  5
90
100
AcDbEntity
  8
L1_120
  6
CONTINUOUS
 62
         7
100
AcDbCircle
 10
1374.1766144654
 20
-363.7447928641
 30
0.0
 40
1.2547699312
100
AcDbArc
 50
227.4132677891
 51
327.4330842731
  0
LINE
  5
91
100
AcDbEntity
  8
L1_120
  6
CONTINUOUS
 62
         7
100
AcDbLine
 10
1315.2276295228
 20
-373.763628244
 30
0.0
 11
1361.3660205533
 21
-376.0705477956
 31
0.0
  0
LINE
  5
92
100
AcDbEntity
  8
L1_120
  6
CONTINUOUS
 62
         7
100
AcDbLine
 10
1362.8940518174
 20
-300.408980872
 30
0.0
 11
1361.9760256177
 21
-300.408980872
 31
0.0
  0
LINE
  5
93
100
AcDbEntity
  8
L1_120
  6
CONTINUOUS
 62
         7
100
AcDbLine
 10
1361.8207341906
 20
-300.3885363678
 30
0.0
 11
1361.3660205533
 21
-300.2666962159
 31
0.0
  0
LINE
  5
94
100
AcDbEntity
  8
L1_120
  6
CONTINUOUS
 62
         7
100
AcDbLine
 10
1363.3275047567
 20
-298.581980872
 30
0.0
 11
1363.4882126586
 21
-299.7254770114
 31
0.0
  0
ARC
  5
95
100
AcDbEntity
  8
L1_120
  6
CONTINUOUS
 62
         7
100
AcDbCircle
 10
1362.8940518174
 20
-299.808980872
 30
0.0
 40
0.6
100
AcDbArc
 50
270.0
 51
368.0
  0
ARC
  5
96
100
AcDbEntity
  8
L1_120
  6
CONTINUOUS
 62
         7
100
AcDbCircle
 10
1361.9760256177
 20
-299.808980872
 30
0.0
 40
0.6
100
AcDbArc
 50
255.0
 51
270.0
  0
ARC
  5
97
100
AcDbEntity
  8
L1_120
  6
CONTINUOUS
 62
         7
100
AcDbCircle
 10
1361.9760256177
 20
-376.5282631394
 30
0.0
 40
0.6
100
AcDbArc
 50
90.0
 51
105.0
  0
ARC
  5
98
100
AcDbEntity
  8
L1_120
  6
CONTINUOUS
 62
         7
100
AcDbCircle
 10
1362.8940518174
 20
-376.5282631394
 30
0.0
 40
0.6
100
AcDbArc
 50
352.0
 51
450.0
  0
LINE
  5
99
100
AcDbEntity
  8
L1_120
  6
CONTINUOUS
 62
         7
100
AcDbLine
 10
1363.3275047567
 20
-377.7552631394
 30
0.0
 11
1363.4882126586
 21
-376.611767
 31
0.0
  0
LINE
  5
9A
100
AcDbEntity
  8
L1_120
  6
CONTINUOUS
 62
         7
100
AcDbLine
 10
1361.8207341906
 20
-375.9487076437
 30
0.0
 11
1361.3660205533
 21
-376.0705477956
 31
0.0
  0
LINE
  5
9B
100
AcDbEntity
  8
L1_120
  6
CONTINUOUS
 62
         7
100
AcDbLine
 10
1362.8940518174
 20
-375.9282631394
 30
0.0
 11
1361.9760256177
 21
-375.9282631394
 31
0.0
  0
LINE
  5
9C
100
AcDbEntity
  8
L1_120
  6
CENTER
 62
         1
100
AcDbLine
 10
1334.5305047567
 20
-369.5611220057
 30
0.0
 11
1334.5305047567
 21
-306.3912732497
 31
0.0
  0
LINE
  5
9D
100
AcDbEntity
  8
L1_120
  6
CONTINUOUS
 62
         7
100
AcDbLine
 10
1379.2916063719
 20
-327.6686220057
 30
0.0
 11
1379.2916063719
 21
-348.6686220057
 31
0.0
  0
LINE
  5
9E
100
AcDbEntity
  8
L1_120
  6
CONTINUOUS
 62
         7
100
AcDbLine
 10
1375.8275047567
 20
-350.6686220057
 30
0.0
 11
1379.2916063719
 21
-348.6686220057
 31
0.0
  0
LINE
  5
9F
100
AcDbEntity
  8
L1_120
  6
CONTINUOUS
 62
         7
100
AcDbLine
 10
1375.8275047567
 20
-325.6686220057
 30
0.0
 11
1379.2916063719
 21
-327.6686220057
 31
0.0
  0
LINE
  5
A0
100
AcDbEntity
  8
L1_120
  6
CONTINUOUS
 62
         7
100
AcDbLine
 10
1391.8275047567
 20
-325.1686220057
 30
0.0
 11
1391.8275047567
 21
-351.1686220057
 31
0.0
  0
LINE
  5
A1
100
AcDbEntity
  8
L1_120
  6
CONTINUOUS
 62
         4
100
AcDbLine
 10
1376.6935301605
 20
-326.1686220057
 30
0.0
 11
1386.8275047567
 21
-326.1686220057
 31
0.0
  0
LINE
  5
A2
100
AcDbEntity
  8
L1_120
  6
CONTINUOUS
 62
         4
100
AcDbLine
 10
1376.6935301605
 20
-350.1686220057
 30
0.0
 11
1386.8275047567
 21
-350.1686220057
 31
0.0
  0
LINE
  5
A3
100
AcDbEntity
  8
L1_120
  6
CONTINUOUS
 62
         7
100
AcDbLine
 10
1379.2916063719
 20
-327.6686220057
 30
0.0
 11
1386.8275047567
 21
-327.6686220057
 31
0.0
  0
LINE
  5
A4
100
AcDbEntity
  8
L1_120
  6
CONTINUOUS
 62
         7
100
AcDbLine
 10
1379.2916063719
 20
-348.6686220057
 30
0.0
 11
1386.8275047567
 21
-348.6686220057
 31
0.0
  0
LINE
  5
A5
100
AcDbEntity
  8
L1_120
  6
CONTINUOUS
 62
         7
100
AcDbLine
 10
1386.8275047567
 20
-325.1686220057
 30
0.0
 11
1391.8275047567
 21
-325.1686220057
 31
0.0
  0
LINE
  5
A6
100
AcDbEntity
  8
L1_120
  6
CONTINUOUS
 62
         7
100
AcDbLine
 10
1386.8275047567
 20
-351.1686220057
 30
0.0
 11
1391.8275047567
 21
-351.1686220057
 31
0.0
  0
LINE
  5
A7
100
AcDbEntity
  8
L1_120
  6
CONTINUOUS
 62
         7
100
AcDbLine
 10
1386.8275047567
 20
-325.1686220057
 30
0.0
 11
1386.8275047567
 21
-351.1686220057
 31
0.0
  0
ARC
  5
A8
100
AcDbEntity
  8
L1_120
  6
CONTINUOUS
 62
         7
100
AcDbCircle
 10
1365.3275047567
 20
-175.2762334432
 30
0.0
 40
1.0
100
AcDbArc
 50
90.0
 51
180.0
  0
ARC
  5
A9
100
AcDbEntity
  8
L1_120
  6
CONTINUOUS
 62
         7
100
AcDbCircle
 10
1392.3275047567
 20
-175.2762334432
 30
0.0
 40
1.0
100
AcDbArc
 50
0.0
 51
90.0
  0
ARC
  5
AA
100
AcDbEntity
  8
L1_120
  6
CONTINUOUS
 62
         7
100
AcDbCircle
 10
1392.3275047567
 20
-273.2762334432
 30
0.0
 40
1.0
100
AcDbArc
 50
270.0
 51
360.0
  0
ARC
  5
AB
100
AcDbEntity
  8
L1_120
  6
CONTINUOUS
 62
         7
100
AcDbCircle
 10
1365.3275047567
 20
-273.2762334432
 30
0.0
 40
1.0
100
AcDbArc
 50
180.0
 51
270.0
  0
LINE
  5
AC
100
AcDbEntity
  8
L1_120
  6
CONTINUOUS
 62
         7
100
AcDbLine
 10
1392.3629152626
 20
-213.2762334432
 30
0.0
 11
1392.3629152626
 21
-174.2762334432
 31
0.0
  0
LINE
  5
AD
100
AcDbEntity
  8
L1_120
  6
CONTINUOUS
 62
         7
100
AcDbLine
 10
1392.3629152626
 20
-263.1059900739
 30
0.0
 11
1393.3629152626
 21
-262.1059900739
 31
0.0
  0
LINE
  5
AE
100
AcDbEntity
  8
L1_120
  6
CONTINUOUS
 62
         7
100
AcDbLine
 10
1392.3629152626
 20
-263.1059900739
 30
0.0
 11
1392.3629152626
 21
-274.2762334432
 31
0.0
  0
LINE
  5
AF
100
AcDbEntity
  8
L1_120
  6
CONTINUOUS
 62
         7
100
AcDbLine
 10
1392.3629152626
 20
-263.1059900739
 30
0.0
 11
1387.6105105268
 21
-263.1059900739
 31
0.0
  0
LINE
  5
B0
100
AcDbEntity
  8
L1_120
  6
CONTINUOUS
 62
         7
100
AcDbLine
 10
1387.6105105268
 20
-263.1059900739
 30
0.0
 11
1387.6105105268
 21
-274.2762334432
 31
0.0
  0
LINE
  5
B1
100
AcDbEntity
  8
L1_120
  6
CONTINUOUS
 62
         7
100
AcDbLine
 10
1386.2379152626
 20
-259.6059900739
 30
0.0
 11
1386.2379152626
 21
-270.7762334432
 31
0.0
  0
LINE
  5
B2
100
AcDbEntity
  8
L1_120
  6
CONTINUOUS
 62
         7
100
AcDbLine
 10
1387.6105105268
 20
-263.1059900739
 30
0.0
 11
1386.2379152626
 21
-260.7285853381
 31
0.0
  0
LINE
  5
B3
100
AcDbEntity
  8
L1_120
  6
CONTINUOUS
 62
         7
100
AcDbLine
 10
1381.1153199984
 20
-263.1059900739
 30
0.0
 11
1382.4879152626
 21
-260.7285853381
 31
0.0
  0
LINE
  5
B4
100
AcDbEntity
  8
L1_120
  6
CONTINUOUS
 62
         7
100
AcDbLine
 10
1382.4879152626
 20
-259.6059900739
 30
0.0
 11
1382.4879152626
 21
-270.7762334432
 31
0.0
  0
LINE
  5
B5
100
AcDbEntity
  8
L1_120
  6
CONTINUOUS
 62
         7
100
AcDbLine
 10
1381.1153199984
 20
-263.1059900739
 30
0.0
 11
1381.1153199984
 21
-274.2762334432
 31
0.0
  0
LINE
  5
B6
100
AcDbEntity
  8
L1_120
  6
CONTINUOUS
 62
         7
100
AcDbLine
 10
1381.1153199984
 20
-263.1059900739
 30
0.0
 11
1369.3629152626
 21
-263.1059900739
 31
0.0
  0
LINE
  5
B7
100
AcDbEntity
  8
L1_120
  6
CONTINUOUS
 62
         7
100
AcDbLine
 10
1393.3629152626
 20
-255.7762334432
 30
0.0
 11
1378.9998131218
 21
-255.7762334432
 31
0.0
  0
ARC
  5
B8
100
AcDbEntity
  8
L1_120
  6
CONTINUOUS
 62
         7
100
AcDbCircle
 10
1378.9998131218
 20
-265.7762334432
 30
0.0
 40
10.0
100
AcDbArc
 50
90.0
 51
164.5127260012
  0
LINE
  5
B9
100
AcDbEntity
  8
L1_120
  6
CONTINUOUS
 62
         7
100
AcDbLine
 10
1392.3629152626
 20
-255.7762334432
 30
0.0
 11
1392.3629152626
 21
-235.2762334432
 31
0.0
  0
ARC
  5
BA
100
AcDbEntity
  8
L1_120
  6
CONTINUOUS
 62
         7
100
AcDbCircle
 10
1382.9879152626
 20
-259.6059900739
 30
0.0
 40
0.5
100
AcDbArc
 50
90.0
 51
180.0
  0
ARC
  5
BB
100
AcDbEntity
  8
L1_120
  6
CONTINUOUS
 62
         7
100
AcDbCircle
 10
1385.7379152626
 20
-259.6059900739
 30
0.0
 40
0.5
100
AcDbArc
 50
0.0
 51
90.0
  0
LINE
  5
BC
100
AcDbEntity
  8
L1_120
  6
CONTINUOUS
 62
         7
100
AcDbLine
 10
1382.9879152626
 20
-259.1059900739
 30
0.0
 11
1385.7379152626
 21
-259.1059900739
 31
0.0
  0
LINE
  5
BD
100
AcDbEntity
  8
L1_120
  6
CONTINUOUS
 62
         7
100
AcDbLine
 10
1382.4879152626
 20
-234.2762334432
 30
0.0
 11
1382.4879152626
 21
-255.7762334432
 31
0.0
  0
LINE
  5
BE
100
AcDbEntity
  8
L1_120
  6
CONTINUOUS
 62
         7
100
AcDbLine
 10
1386.2379152626
 20
-234.2762334432
 30
0.0
 11
1386.2379152626
 21
-255.7762334432
 31
0.0
  0
LINE
  5
BF
100
AcDbEntity
  8
L1_120
  6
CONTINUOUS
 62
         7
100
AcDbLine
 10
1387.6105105268
 20
-235.2762334432
 30
0.0
 11
1387.6105105268
 21
-255.7762334432
 31
0.0
  0
LINE
  5
C0
100
AcDbEntity
  8
L1_120
  6
CONTINUOUS
 62
         7
100
AcDbLine
 10
1381.1153199984
 20
-235.2762334432
 30
0.0
 11
1381.1153199984
 21
-255.7762334432
 31
0.0
  0
LINE
  5
C1
100
AcDbEntity
  8
L1_120
  6
CONTINUOUS
 62
         7
100
AcDbLine
 10
1386.2379152626
 20
-177.7762334432
 30
0.0
 11
1386.2379152626
 21
-214.2762334432
 31
0.0
  0
LINE
  5
C2
100
AcDbEntity
  8
L1_120
  6
CONTINUOUS
 62
         7
100
AcDbLine
 10
1387.6105105268
 20
-174.2762334432
 30
0.0
 11
1387.6105105268
 21
-213.2762334432
 31
0.0
  0
LINE
  5
C3
100
AcDbEntity
  8
L1_120
  6
CONTINUOUS
 62
         7
100
AcDbLine
 10
1382.4879152626
 20
-177.7762334432
 30
0.0
 11
1382.4879152626
 21
-214.2762334432
 31
0.0
  0
LINE
  5
C4
100
AcDbEntity
  8
L1_120
  6
CONTINUOUS
 62
         7
100
AcDbLine
 10
1381.1153199984
 20
-174.2762334432
 30
0.0
 11
1381.1153199984
 21
-213.2762334432
 31
0.0
  0
ARC
  5
C5
100
AcDbEntity
  8
L1_120
  6
CONTINUOUS
 62
         7
100
AcDbCircle
 10
1379.3629152626
 20
-224.2762334432
 30
0.0
 40
11.0
100
AcDbArc
 50
90.0
 51
270.0
  0
LINE
  5
C6
100
AcDbEntity
  8
L1_120
  6
CONTINUOUS
 62
         7
100
AcDbLine
 10
1386.2379152626
 20
-214.2762334432
 30
0.0
 11
1387.6105105268
 21
-213.2762334432
 31
0.0
  0
LINE
  5
C7
100
AcDbEntity
  8
L1_120
  6
CONTINUOUS
 62
         7
100
AcDbLine
 10
1387.6105105268
 20
-213.2762334432
 30
0.0
 11
1392.3629152626
 21
-213.2762334432
 31
0.0
  0
LINE
  5
C8
100
AcDbEntity
  8
L1_120
  6
CONTINUOUS
 62
         7
100
AcDbLine
 10
1386.2379152626
 20
-234.2762334432
 30
0.0
 11
1387.6105105268
 21
-235.2762334432
 31
0.0
  0
LINE
  5
C9
100
AcDbEntity
  8
L1_120
  6
CONTINUOUS
 62
         7
100
AcDbLine
 10
1387.6105105268
 20
-235.2762334432
 30
0.0
 11
1392.3629152626
 21
-235.2762334432
 31
0.0
  0
LINE
  5
CA
100
AcDbEntity
  8
L1_120
  6
CONTINUOUS
 62
         7
100
AcDbLine
 10
1392.3629152626
 20
-213.2762334432
 30
0.0
 11
1393.3629152626
 21
-214.2762334432
 31
0.0
  0
LINE
  5
CB
100
AcDbEntity
  8
L1_120
  6
CONTINUOUS
 62
         7
100
AcDbLine
 10
1392.3629152626
 20
-235.2762334432
 30
0.0
 11
1393.3629152626
 21
-234.2762334432
 31
0.0
  0
ARC
  5
CC
100
AcDbEntity
  8
L1_120
  6
CONTINUOUS
 62
         7
100
AcDbCircle
 10
1379.3629152626
 20
-224.2762334432
 30
0.0
 40
10.0
100
AcDbArc
 50
90.0
 51
270.0
  0
LINE
  5
CD
100
AcDbEntity
  8
L1_120
  6
CONTINUOUS
 62
         7
100
AcDbLine
 10
1379.3629152626
 20
-213.2762334432
 30
0.0
 11
1381.1153199984
 21
-213.2762334432
 31
0.0
  0
LINE
  5
CE
100
AcDbEntity
  8
L1_120
  6
CONTINUOUS
 62
         7
100
AcDbLine
 10
1379.3629152626
 20
-235.2762334432
 30
0.0
 11
1381.1153199984
 21
-235.2762334432
 31
0.0
  0
LINE
  5
CF
100
AcDbEntity
  8
L1_120
  6
CONTINUOUS
 62
         7
100
AcDbLine
 10
1379.3629152626
 20
-234.2762334432
 30
0.0
 11
1393.3629152626
 21
-234.2762334432
 31
0.0
  0
LINE
  5
D0
100
AcDbEntity
  8
L1_120
  6
CONTINUOUS
 62
         7
100
AcDbLine
 10
1379.3629152626
 20
-214.2762334432
 30
0.0
 11
1393.3629152626
 21
-214.2762334432
 31
0.0
  0
LINE
  5
D1
100
AcDbEntity
  8
L1_120
  6
CONTINUOUS
 62
         7
100
AcDbLine
 10
1381.1153199984
 20
-213.2762334432
 30
0.0
 11
1382.4879152626
 21
-214.2762334432
 31
0.0
  0
LINE
  5
D2
100
AcDbEntity
  8
L1_120
  6
CONTINUOUS
 62
         7
100
AcDbLine
 10
1381.1153199984
 20
-235.2762334432
 30
0.0
 11
1382.4879152626
 21
-234.2762334432
 31
0.0
  0
LINE
  5
D3
100
AcDbEntity
  8
L1_120
  6
CENTER
 62
         1
100
AcDbLine
 10
1381.3681416786
 20
-224.2762334432
 30
0.0
 11
1393.3629152626
 21
-224.2762334432
 31
0.0
  0
CIRCLE
  5
D4
100
AcDbEntity
  8
L1_120
  6
CONTINUOUS
 62
         7
100
AcDbCircle
 10
1379.3629152626
 20
-224.2762334432
 30
0.0
 40
8.0
  0
LINE
  5
D5
100
AcDbEntity
  8
L1_120
  6
DASHED
 62
         2
100
AcDbLine
 10
1366.3275047567
 20
-178.8762334432
 30
0.0
 11
1376.3275047567
 21
-178.8762334432
 31
0.0
  0
LINE
  5
D6
100
AcDbEntity
  8
L1_120
  6
DASHED
 62
         2
100
AcDbLine
 10
1369.3275047567
 20
-178.8762334432
 30
0.0
 11
1371.3275047567
 21
-180.0309339816
 31
0.0
  0
LINE
  5
D7
100
AcDbEntity
  8
L1_120
  6
DASHED
 62
         2
100
AcDbLine
 10
1366.3275047567
 20
-174.2762334432
 30
0.0
 11
1366.3275047567
 21
-178.8762334432
 31
0.0
  0
LINE
  5
D8
100
AcDbEntity
  8
L1_120
  6
DASHED
 62
         2
100
AcDbLine
 10
1373.3275047567
 20
-178.8762334432
 30
0.0
 11
1371.3275047567
 21
-180.0309339816
 31
0.0
  0
LINE
  5
D9
100
AcDbEntity
  8
L1_120
  6
DASHED
 62
         2
100
AcDbLine
 10
1376.3275047567
 20
-174.2762334432
 30
0.0
 11
1376.3275047567
 21
-178.8762334432
 31
0.0
  0
LINE
  5
DA
100
AcDbEntity
  8
L1_120
  6
CENTER
 62
         1
100
AcDbLine
 10
1371.3275047567
 20
-170.9756058874
 30
0.0
 11
1371.3275047567
 21
-183.3424666124
 31
0.0
  0
POLYLINE
  5
DC
100
AcDbEntity
  8
L1_120
  6
CONTINUOUS
 62
         7
100
AcDb2dPolyline
 66
         1
 10
0.0
 20
0.0
 30
0.0
 70
         2
  0
VERTEX
  5
DE
100
AcDbEntity
  8
L1_120
  6
CONTINUOUS
 62
         7
100
AcDbVertex
100
AcDb2dVertex
 10
1355.8525047567
 20
-224.2762334432
 30
0.0
 70
         1
  0
VERTEX
  5
E0
100
AcDbEntity
  8
L1_120
  6
CONTINUOUS
 62
         7
100
AcDbVertex
100
AcDb2dVertex
 10
1355.8209110936
 20
-223.684051122
 30
0.0
 70
         1
  0
VERTEX
  5
E2
100
AcDbEntity
  8
L1_120
  6
CONTINUOUS
 62
         7
100
AcDbVertex
100
AcDb2dVertex
 10
1355.7799010097
 20
-223.3799407922
 30
0.0
 70
         1
  0
VERTEX
  5
E4
100
AcDbEntity
  8
L1_120
  6
CONTINUOUS
 62
         7
100
AcDbVertex
100
AcDb2dVertex
 10
1355.7208476292
 20
-223.0720237283
 30
0.0
 70
         1
  0
VERTEX
  5
E6
100
AcDbEntity
  8
L1_120
  6
CONTINUOUS
 62
         7
100
AcDbVertex
100
AcDb2dVertex
 10
1355.6429639552
 20
-222.76162242
 30
0.0
 70
         1
  0
VERTEX
  5
E8
100
AcDbEntity
  8
L1_120
  6
CONTINUOUS
 62
         7
100
AcDbVertex
100
AcDb2dVertex
 10
1355.5456040619
 20
-222.4501820142
 30
0.0
 70
         1
  0
VERTEX
  5
EA
100
AcDbEntity
  8
L1_120
  6
CONTINUOUS
 62
         7
100
AcDbVertex
100
AcDb2dVertex
 10
1355.4282870915
 20
-222.1392554051
 30
0.0
 70
         1
  0
VERTEX
  5
EC
100
AcDbEntity
  8
L1_120
  6
CONTINUOUS
 62
         7
100
AcDbVertex
100
AcDb2dVertex
 10
1355.2907192277
 20
-221.8304838859
 30
0.0
 70
         1
  0
VERTEX
  5
EE
100
AcDbEntity
  8
L1_120
  6
CONTINUOUS
 62
         7
100
AcDbVertex
100
AcDb2dVertex
 10
1355.1328125751
 20
-221.525573602
 30
0.0
 70
         1
  0
VERTEX
  5
F0
100
AcDbEntity
  8
L1_120
  6
CONTINUOUS
 62
         7
100
AcDbVertex
100
AcDb2dVertex
 10
1354.9546998981
 20
-221.2262682837
 30
0.0
 70
         1
  0
VERTEX
  5
F2
100
AcDbEntity
  8
L1_120
  6
CONTINUOUS
 62
         7
100
AcDbVertex
100
AcDb2dVertex
 10
1354.7567442751
 20
-220.9343189892
 30
0.0
 70
         1
  0
VERTEX
  5
F4
100
AcDbEntity
  8
L1_120
  6
CONTINUOUS
 62
         7
100
AcDbVertex
100
AcDb2dVertex
 10
1354.5395428957
 20
-220.6514518103
 30
0.0
 70
         1
  0
VERTEX
  5
F6
100
AcDbEntity
  8
L1_120
  6
CONTINUOUS
 62
         7
100
AcDbVertex
100
AcDb2dVertex
 10
1354.3039244773
 20
-220.3793346786
 30
0.0
 70
         1
  0
VERTEX
  5
F8
100
AcDbEntity
  8
L1_120
  6
CONTINUOUS
 62
         7
100
AcDbVertex
100
AcDb2dVertex
 10
1354.0509400724
 20
-220.119544533
 30
0.0
 70
         1
  0
VERTEX
  5
FA
100
AcDbEntity
  8
L1_120
  6
CONTINUOUS
 62
         7
100
AcDbVertex
100
AcDb2dVertex
 10
1353.781847378
 20
-219.8735361531
 30
0.0
 70
         1
  0
VERTEX
  5
FC
100
AcDbEntity
  8
L1_120
  6
CONTINUOUS
 62
         7
100
AcDbVertex
100
AcDb2dVertex
 10
1353.4980889989
 20
-219.6426139258
 30
0.0
 70
         1
  0
VERTEX
  5
FE
100
AcDbEntity
  8
L1_120
  6
CONTINUOUS
 62
         7
100
AcDbVertex
100
AcDb2dVertex
 10
1353.2012654438
 20
-219.4279076828
 30
0.0
 70
         1
  0
VERTEX
  5
100
100
AcDbEntity
  8
L1_120
  6
CONTINUOUS
 62
         7
100
AcDbVertex
100
AcDb2dVertex
 10
1352.8931039105
 20
-219.2303535455
 30
0.0
 70
         1
  0
VERTEX
  5
102
100
AcDbEntity
  8
L1_120
  6
CONTINUOUS
 62
         7
100
AcDbVertex
100
AcDb2dVertex
 10
1352.5754241235
 20
-219.0506804455
 30
0.0
 70
         1
  0
VERTEX
  5
104
100
AcDbEntity
  8
L1_120
  6
CONTINUOUS
 62
         7
100
AcDbVertex
100
AcDb2dVertex
 10
1352.2501026087
 20
-218.889402687
 30
0.0
 70
         1
  0
VERTEX
  5
106
100
AcDbEntity
  8
L1_120
  6
CONTINUOUS
 62
         7
100
AcDbVertex
100
AcDb2dVertex
 10
1351.8059202039
 20
-218.7027785573
 30
0.0
 70
         1
  0
VERTEX
  5
108
100
AcDbEntity
  8
L1_120
  6
CONTINUOUS
 62
         7
100
AcDbVertex
100
AcDb2dVertex
 10
1351.3559396602
 20
-218.5497599471
 30
0.0
 70
         1
  0
VERTEX
  5
10A
100
AcDbEntity
  8
L1_120
  6
CONTINUOUS
 62
         7
100
AcDbVertex
100
AcDb2dVertex
 10
1350.9044805694
 20
-218.4298416861
 30
0.0
 70
         1
  0
VERTEX
  5
10C
100
AcDbEntity
  8
L1_120
  6
CONTINUOUS
 62
         7
100
AcDbVertex
100
AcDb2dVertex
 10
1350.4555683591
 20
-218.3419560045
 30
0.0
 70
         1
  0
VERTEX
  5
10E
100
AcDbEntity
  8
L1_120
  6
CONTINUOUS
 62
         7
100
AcDbVertex
100
AcDb2dVertex
 10
1350.0128447461
 20
-218.2845592699
 30
0.0
 70
         1
  0
VERTEX
  5
110
100
AcDbEntity
  8
L1_120
  6
CONTINUOUS
 62
         7
100
AcDbVertex
100
AcDb2dVertex
 10
1349.5795056888
 20
-218.2557284707
 30
0.0
 70
         1
  0
VERTEX
  5
112
100
AcDbEntity
  8
L1_120
  6
CONTINUOUS
 62
         7
100
AcDbVertex
100
AcDb2dVertex
 10
1349.1582663574
 20
-218.2532603646
 30
0.0
 70
         1
  0
VERTEX
  5
114
100
AcDbEntity
  8
L1_120
  6
CONTINUOUS
 62
         7
100
AcDbVertex
100
AcDb2dVertex
 10
1348.7513506869
 20
-218.2747672565
 30
0.0
 70
         1
  0
VERTEX
  5
116
100
AcDbEntity
  8
L1_120
  6
CONTINUOUS
 62
         7
100
AcDbVertex
100
AcDb2dVertex
 10
1348.3605017552
 20
-218.3177647678
 30
0.0
 70
         1
  0
VERTEX
  5
118
100
AcDbEntity
  8
L1_120
  6
CONTINUOUS
 62
         7
100
AcDbVertex
100
AcDb2dVertex
 10
1347.9870085306
 20
-218.3797484685
 30
0.0
 70
         1
  0
VERTEX
  5
11A
100
AcDbEntity
  8
L1_120
  6
CONTINUOUS
 62
         7
100
AcDbVertex
100
AcDb2dVertex
 10
1347.5149971591
 20
-218.4883471825
 30
0.0
 70
         1
  0
VERTEX
  5
11C
100
AcDbEntity
  8
L1_120
  6
CONTINUOUS
 62
         7
100
AcDbVertex
100
AcDb2dVertex
 10
1347.0767897579
 20
-218.6210131264
 30
0.0
 70
         1
  0
VERTEX
  5
11E
100
AcDbEntity
  8
L1_120
  6
CONTINUOUS
 62
         7
100
AcDbVertex
100
AcDb2dVertex
 10
1346.6724939092
 20
-218.772555579
 30
0.0
 70
         1
  0
VERTEX
  5
120
100
AcDbEntity
  8
L1_120
  6
CONTINUOUS
 62
         7
100
AcDbVertex
100
AcDb2dVertex
 10
1346.3014523121
 20
-218.9383281192
 30
0.0
 70
         1
  0
VERTEX
  5
122
100
AcDbEntity
  8
L1_120
  6
CONTINUOUS
 62
         7
100
AcDbVertex
100
AcDb2dVertex
 10
1345.9624400598
 20
-219.1142667621
 30
0.0
 70
         1
  0
VERTEX
  5
124
100
AcDbEntity
  8
L1_120
  6
CONTINUOUS
 62
         7
100
AcDbVertex
100
AcDb2dVertex
 10
1345.6538369873
 20
-219.2968890032
 30
0.0
 70
         1
  0
VERTEX
  5
126
100
AcDbEntity
  8
L1_120
  6
CONTINUOUS
 62
         7
100
AcDbVertex
100
AcDb2dVertex
 10
1345.2838820355
 20
-219.5476382849
 30
0.0
 70
         1
  0
VERTEX
  5
128
100
AcDbEntity
  8
L1_120
  6
CONTINUOUS
 62
         7
100
AcDbVertex
100
AcDb2dVertex
 10
1344.9605163753
 20
-219.7995435706
 30
0.0
 70
         1
  0
VERTEX
  5
12A
100
AcDbEntity
  8
L1_120
  6
CONTINUOUS
 62
         7
100
AcDbVertex
100
AcDb2dVertex
 10
1344.6787792572
 20
-220.0483430249
 30
0.0
 70
         1
  0
VERTEX
  5
12C
100
AcDbEntity
  8
L1_120
  6
CONTINUOUS
 62
         7
100
AcDbVertex
100
AcDb2dVertex
 10
1344.4338732
 20
-220.2909465236
 30
0.0
 70
         1
  0
VERTEX
  5
12E
100
AcDbEntity
  8
L1_120
  6
CONTINUOUS
 62
         7
100
AcDbVertex
100
AcDb2dVertex
 10
1344.1544187504
 20
-220.604184408
 30
0.0
 70
         1
  0
VERTEX
  5
130
100
AcDbEntity
  8
L1_120
  6
CONTINUOUS
 62
         7
100
AcDbVertex
100
AcDb2dVertex
 10
1343.9238445175
 20
-220.8991563067
 30
0.0
 70
         1
  0
VERTEX
  5
132
100
AcDbEntity
  8
L1_120
  6
CONTINUOUS
 62
         7
100
AcDbVertex
100
AcDb2dVertex
 10
1343.7336988792
 20
-221.1743422287
 30
0.0
 70
         1
  0
VERTEX
  5
134
100
AcDbEntity
  8
L1_120
  6
CONTINUOUS
 62
         7
100
AcDbVertex
100
AcDb2dVertex
 10
1343.5284978073
 20
-221.51426486
 30
0.0
 70
         1
  0
VERTEX
  5
136
100
AcDbEntity
  8
L1_120
  6
CONTINUOUS
 62
         7
100
AcDbVertex
100
AcDb2dVertex
 10
1343.3700537035
 20
-221.8185376158
 30
0.0
 70
         1
  0
VERTEX
  5
138
100
AcDbEntity
  8
L1_120
  6
CONTINUOUS
 62
         7
100
AcDbVertex
100
AcDb2dVertex
 10
1343.2105366298
 20
-222.1790765357
 30
0.0
 70
         1
  0
VERTEX
  5
13A
100
AcDbEntity
  8
L1_120
  6
CONTINUOUS
 62
         7
100
AcDbVertex
100
AcDb2dVertex
 10
1343.0973104772
 20
-222.4856769517
 30
0.0
 70
         1
  0
VERTEX
  5
13C
100
AcDbEntity
  8
L1_120
  6
CONTINUOUS
 62
         7
100
AcDbVertex
100
AcDb2dVertex
 10
1342.9928986812
 20
-222.8314029104
 30
0.0
 70
         1
  0
VERTEX
  5
13E
100
AcDbEntity
  8
L1_120
  6
CONTINUOUS
 62
         7
100
AcDbVertex
100
AcDb2dVertex
 10
1342.9078206628
 20
-223.1981081184
 30
0.0
 70
         1
  0
VERTEX
  5
140
100
AcDbEntity
  8
L1_120
  6
CONTINUOUS
 62
         7
100
AcDbVertex
100
AcDb2dVertex
 10
1342.8492362075
 20
-223.5564407511
 30
0.0
 70
         1
  0
VERTEX
  5
142
100
AcDbEntity
  8
L1_120
  6
CONTINUOUS
 62
         7
100
AcDbVertex
100
AcDb2dVertex
 10
1342.817399077
 20
-223.8693742277
 30
0.0
 70
         1
  0
VERTEX
  5
144
100
AcDbEntity
  8
L1_120
  6
CONTINUOUS
 62
         7
100
AcDbVertex
100
AcDb2dVertex
 10
1342.8033911391
 20
-224.1769269634
 30
0.0
 70
         1
  0
VERTEX
  5
146
100
AcDbEntity
  8
L1_120
  6
CONTINUOUS
 62
         7
100
AcDbVertex
100
AcDb2dVertex
 10
1342.8025047567
 20
-224.2762334432
 30
0.0
 70
         1
  0
VERTEX
  5
148
100
AcDbEntity
  8
L1_120
  6
CONTINUOUS
 62
         7
100
AcDbVertex
100
AcDb2dVertex
 10
1342.8025047567
 20
-224.2762334432
 30
0.0
 70
         1
  0
VERTEX
  5
14A
100
AcDbEntity
  8
L1_120
  6
CONTINUOUS
 62
         7
100
AcDbVertex
100
AcDb2dVertex
 10
1342.8340984198
 20
-224.8684157644
 30
0.0
 70
         1
  0
VERTEX
  5
14C
100
AcDbEntity
  8
L1_120
  6
CONTINUOUS
 62
         7
100
AcDbVertex
100
AcDb2dVertex
 10
1342.8751085038
 20
-225.1725260942
 30
0.0
 70
         1
  0
VERTEX
  5
14E
100
AcDbEntity
  8
L1_120
  6
CONTINUOUS
 62
         7
100
AcDbVertex
100
AcDb2dVertex
 10
1342.9341618842
 20
-225.4804431582
 30
0.0
 70
         1
  0
VERTEX
  5
150
100
AcDbEntity
  8
L1_120
  6
CONTINUOUS
 62
         7
100
AcDbVertex
100
AcDb2dVertex
 10
1343.0120455583
 20
-225.7908444665
 30
0.0
 70
         1
  0
VERTEX
  5
152
100
AcDbEntity
  8
L1_120
  6
CONTINUOUS
 62
         7
100
AcDbVertex
100
AcDb2dVertex
 10
1343.1094054516
 20
-226.1022848722
 30
0.0
 70
         1
  0
VERTEX
  5
154
100
AcDbEntity
  8
L1_120
  6
CONTINUOUS
 62
         7
100
AcDbVertex
100
AcDb2dVertex
 10
1343.226722422
 20
-226.4132114814
 30
0.0
 70
         1
  0
VERTEX
  5
156
100
AcDbEntity
  8
L1_120
  6
CONTINUOUS
 62
         7
100
AcDbVertex
100
AcDb2dVertex
 10
1343.3642902858
 20
-226.7219830005
 30
0.0
 70
         1
  0
VERTEX
  5
158
100
AcDbEntity
  8
L1_120
  6
CONTINUOUS
 62
         7
100
AcDbVertex
100
AcDb2dVertex
 10
1343.5221969384
 20
-227.0268932845
 30
0.0
 70
         1
  0
VERTEX
  5
15A
100
AcDbEntity
  8
L1_120
  6
CONTINUOUS
 62
         7
100
AcDbVertex
100
AcDb2dVertex
 10
1343.7003096153
 20
-227.3261986028
 30
0.0
 70
         1
  0
VERTEX
  5
15C
100
AcDbEntity
  8
L1_120
  6
CONTINUOUS
 62
         7
100
AcDbVertex
100
AcDb2dVertex
 10
1343.8982652384
 20
-227.6181478973
 30
0.0
 70
         1
  0
VERTEX
  5
15E
100
AcDbEntity
  8
L1_120
  6
CONTINUOUS
 62
         7
100
AcDbVertex
100
AcDb2dVertex
 10
1344.1154666177
 20
-227.9010150761
 30
0.0
 70
         1
  0
VERTEX
  5
160
100
AcDbEntity
  8
L1_120
  6
CONTINUOUS
 62
         7
100
AcDbVertex
100
AcDb2dVertex
 10
1344.3510850361
 20
-228.1731322078
 30
0.0
 70
         1
  0
VERTEX
  5
162
100
AcDbEntity
  8
L1_120
  6
CONTINUOUS
 62
         7
100
AcDbVertex
100
AcDb2dVertex
 10
1344.604069441
 20
-228.4329223535
 30
0.0
 70
         1
  0
VERTEX
  5
164
100
AcDbEntity
  8
L1_120
  6
CONTINUOUS
 62
         7
100
AcDbVertex
100
AcDb2dVertex
 10
1344.8731621354
 20
-228.6789307334
 30
0.0
 70
         1
  0
VERTEX
  5
166
100
AcDbEntity
  8
L1_120
  6
CONTINUOUS
 62
         7
100
AcDbVertex
100
AcDb2dVertex
 10
1345.1569205146
 20
-228.9098529607
 30
0.0
 70
         1
  0
VERTEX
  5
168
100
AcDbEntity
  8
L1_120
  6
CONTINUOUS
 62
         7
100
AcDbVertex
100
AcDb2dVertex
 10
1345.4537440697
 20
-229.1245592036
 30
0.0
 70
         1
  0
VERTEX
  5
16A
100
AcDbEntity
  8
L1_120
  6
CONTINUOUS
 62
         7
100
AcDbVertex
100
AcDb2dVertex
 10
1345.7619056029
 20
-229.322113341
 30
0.0
 70
         1
  0
VERTEX
  5
16C
100
AcDbEntity
  8
L1_120
  6
CONTINUOUS
 62
         7
100
AcDbVertex
100
AcDb2dVertex
 10
1346.0795853899
 20
-229.5017864409
 30
0.0
 70
         1
  0
VERTEX
  5
16E
100
AcDbEntity
  8
L1_120
  6
CONTINUOUS
 62
         7
100
AcDbVertex
100
AcDb2dVertex
 10
1346.4049069047
 20
-229.6630641994
 30
0.0
 70
         1
  0
VERTEX
  5
170
100
AcDbEntity
  8
L1_120
  6
CONTINUOUS
 62
         7
100
AcDbVertex
100
AcDb2dVertex
 10
1346.8490893096
 20
-229.8496883291
 30
0.0
 70
         1
  0
VERTEX
  5
172
100
AcDbEntity
  8
L1_120
  6
CONTINUOUS
 62
         7
100
AcDbVertex
100
AcDb2dVertex
 10
1347.2990698532
 20
-230.0027069394
 30
0.0
 70
         1
  0
VERTEX
  5
174
100
AcDbEntity
  8
L1_120
  6
CONTINUOUS
 62
         7
100
AcDbVertex
100
AcDb2dVertex
 10
1347.7505289441
 20
-230.1226252003
 30
0.0
 70
         1
  0
VERTEX
  5
176
100
AcDbEntity
  8
L1_120
  6
CONTINUOUS
 62
         7
100
AcDbVertex
100
AcDb2dVertex
 10
1348.1994411543
 20
-230.2105108819
 30
0.0
 70
         1
  0
VERTEX
  5
178
100
AcDbEntity
  8
L1_120
  6
CONTINUOUS
 62
         7
100
AcDbVertex
100
AcDb2dVertex
 10
1348.6421647674
 20
-230.2679076165
 30
0.0
 70
         1
  0
VERTEX
  5
17A
100
AcDbEntity
  8
L1_120
  6
CONTINUOUS
 62
         7
100
AcDbVertex
100
AcDb2dVertex
 10
1349.0755038246
 20
-230.2967384157
 30
0.0
 70
         1
  0
VERTEX
  5
17C
100
AcDbEntity
  8
L1_120
  6
CONTINUOUS
 62
         7
100
AcDbVertex
100
AcDb2dVertex
 10
1349.496743156
 20
-230.2992065219
 30
0.0
 70
         1
  0
VERTEX
  5
17E
100
AcDbEntity
  8
L1_120
  6
CONTINUOUS
 62
         7
100
AcDbVertex
100
AcDb2dVertex
 10
1349.9036588266
 20
-230.2776996299
 30
0.0
 70
         1
  0
VERTEX
  5
180
100
AcDbEntity
  8
L1_120
  6
CONTINUOUS
 62
         7
100
AcDbVertex
100
AcDb2dVertex
 10
1350.2945077582
 20
-230.2347021187
 30
0.0
 70
         1
  0
VERTEX
  5
182
100
AcDbEntity
  8
L1_120
  6
CONTINUOUS
 62
         7
100
AcDbVertex
100
AcDb2dVertex
 10
1350.6680009828
 20
-230.1727184179
 30
0.0
 70
         1
  0
VERTEX
  5
184
100
AcDbEntity
  8
L1_120
  6
CONTINUOUS
 62
         7
100
AcDbVertex
100
AcDb2dVertex
 10
1351.1400123543
 20
-230.0641197039
 30
0.0
 70
         1
  0
VERTEX
  5
186
100
AcDbEntity
  8
L1_120
  6
CONTINUOUS
 62
         7
100
AcDbVertex
100
AcDb2dVertex
 10
1351.5782197555
 20
-229.9314537601
 30
0.0
 70
         1
  0
VERTEX
  5
188
100
AcDbEntity
  8
L1_120
  6
CONTINUOUS
 62
         7
100
AcDbVertex
100
AcDb2dVertex
 10
1351.9825156042
 20
-229.7799113074
 30
0.0
 70
         1
  0
VERTEX
  5
18A
100
AcDbEntity
  8
L1_120
  6
CONTINUOUS
 62
         7
100
AcDbVertex
100
AcDb2dVertex
 10
1352.3535572014
 20
-229.6141387672
 30
0.0
 70
         1
  0
VERTEX
  5
18C
100
AcDbEntity
  8
L1_120
  6
CONTINUOUS
 62
         7
100
AcDbVertex
100
AcDb2dVertex
 10
1352.6925694537
 20
-229.4382001244
 30
0.0
 70
         1
  0
VERTEX
  5
18E
100
AcDbEntity
  8
L1_120
  6
CONTINUOUS
 62
         7
100
AcDbVertex
100
AcDb2dVertex
 10
1353.0011725261
 20
-229.2555778832
 30
0.0
 70
         1
  0
VERTEX
  5
190
100
AcDbEntity
  8
L1_120
  6
CONTINUOUS
 62
         7
100
AcDbVertex
100
AcDb2dVertex
 10
1353.3711274779
 20
-229.0048286015
 30
0.0
 70
         1
  0
VERTEX
  5
192
100
AcDbEntity
  8
L1_120
  6
CONTINUOUS
 62
         7
100
AcDbVertex
100
AcDb2dVertex
 10
1353.6944931381
 20
-228.7529233158
 30
0.0
 70
         1
  0
VERTEX
  5
194
100
AcDbEntity
  8
L1_120
  6
CONTINUOUS
 62
         7
100
AcDbVertex
100
AcDb2dVertex
 10
1353.9762302562
 20
-228.5041238616
 30
0.0
 70
         1
  0
VERTEX
  5
196
100
AcDbEntity
  8
L1_120
  6
CONTINUOUS
 62
         7
100
AcDbVertex
100
AcDb2dVertex
 10
1354.2211363134
 20
-228.2615203628
 30
0.0
 70
         1
  0
VERTEX
  5
198
100
AcDbEntity
  8
L1_120
  6
CONTINUOUS
 62
         7
100
AcDbVertex
100
AcDb2dVertex
 10
1354.5005907631
 20
-227.9482824785
 30
0.0
 70
         1
  0
VERTEX
  5
19A
100
AcDbEntity
  8
L1_120
  6
CONTINUOUS
 62
         7
100
AcDbVertex
100
AcDb2dVertex
 10
1354.7311649959
 20
-227.6533105797
 30
0.0
 70
         1
  0
VERTEX
  5
19C
100
AcDbEntity
  8
L1_120
  6
CONTINUOUS
 62
         7
100
AcDbVertex
100
AcDb2dVertex
 10
1354.9213106343
 20
-227.3781246577
 30
0.0
 70
         1
  0
VERTEX
  5
19E
100
AcDbEntity
  8
L1_120
  6
CONTINUOUS
 62
         7
100
AcDbVertex
100
AcDb2dVertex
 10
1355.1265117062
 20
-227.0382020264
 30
0.0
 70
         1
  0
VERTEX
  5
1A0
100
AcDbEntity
  8
L1_120
  6
CONTINUOUS
 62
         7
100
AcDbVertex
100
AcDb2dVertex
 10
1355.2849558099
 20
-226.7339292707
 30
0.0
 70
         1
  0
VERTEX
  5
1A2
100
AcDbEntity
  8
L1_120
  6
CONTINUOUS
 62
         7
100
AcDbVertex
100
AcDb2dVertex
 10
1355.4444728837
 20
-226.3733903508
 30
0.0
 70
         1
  0
VERTEX
  5
1A4
100
AcDbEntity
  8
L1_120
  6
CONTINUOUS
 62
         7
100
AcDbVertex
100
AcDb2dVertex
 10
1355.5576990362
 20
-226.0667899347
 30
0.0
 70
         1
  0
VERTEX
  5
1A6
100
AcDbEntity
  8
L1_120
  6
CONTINUOUS
 62
         7
100
AcDbVertex
100
AcDb2dVertex
 10
1355.6621108322
 20
-225.721063976
 30
0.0
 70
         1
  0
VERTEX
  5
1A8
100
AcDbEntity
  8
L1_120
  6
CONTINUOUS
 62
         7
100
AcDbVertex
100
AcDb2dVertex
 10
1355.7471888507
 20
-225.354358768
 30
0.0
 70
         1
  0
VERTEX
  5
1AA
100
AcDbEntity
  8
L1_120
  6
CONTINUOUS
 62
         7
100
AcDbVertex
100
AcDb2dVertex
 10
1355.805773306
 20
-224.9960261353
 30
0.0
 70
         1
  0
VERTEX
  5
1AC
100
AcDbEntity
  8
L1_120
  6
CONTINUOUS
 62
         7
100
AcDbVertex
100
AcDb2dVertex
 10
1355.8376104365
 20
-224.6830926588
 30
0.0
 70
         1
  0
VERTEX
  5
1AE
100
AcDbEntity
  8
L1_120
  6
CONTINUOUS
 62
         7
100
AcDbVertex
100
AcDb2dVertex
 10
1355.8516183744
 20
-224.375539923
 30
0.0
 70
         1
  0
VERTEX
  5
1B0
100
AcDbEntity
  8
L1_120
  6
CONTINUOUS
 62
         7
100
AcDbVertex
100
AcDb2dVertex
 10
1355.8525047567
 20
-224.2762334432
 30
0.0
 70
         1
  0
SEQEND
  5
1B2
100
AcDbEntity
  8
L1_120
  6
CONTINUOUS
 62
         7
  0
CIRCLE
  5
1B3
100
AcDbEntity
  8
L1_120
  6
CONTINUOUS
 62
         7
100
AcDbCircle
 10
1349.3275047567
 20
-224.2762334432
 30
0.0
 40
6.025
  0
LINE
  5
1B4
100
AcDbEntity
  8
L1_120
  6
DASHED
 62
         2
100
AcDbLine
 10
1322.3275047567
 20
-214.2662334432
 30
0.0
 11
1327.3275047567
 21
-214.2662334432
 31
0.0
  0
LINE
  5
1B5
100
AcDbEntity
  8
L1_120
  6
DASHED
 62
         2
100
AcDbLine
 10
1322.3275047567
 20
-234.2862334432
 30
0.0
 11
1327.3275047567
 21
-234.2862334432
 31
0.0
  0
LINE
  5
1B6
100
AcDbEntity
  8
L1_120
  6
CONTINUOUS
 62
         7
100
AcDbLine
 10
1316.2276295228
 20
-188.6812272049
 30
0.0
 11
1362.3275047567
 21
-186.3762334432
 31
0.0
  0
LINE
  5
1B7
100
AcDbEntity
  8
L1_120
  6
CONTINUOUS
 62
         7
100
AcDbLine
 10
1316.2276295228
 20
-259.8712396815
 30
0.0
 11
1362.3275047567
 21
-262.1762334432
 31
0.0
  0
LINE
  5
1B8
100
AcDbEntity
  8
L1_120
  6
CONTINUOUS
 62
         7
100
AcDbLine
 10
1314.3275047567
 20
-235.7862334432
 30
0.0
 11
1314.3275047567
 21
-257.8737350038
 31
0.0
  0
ARC
  5
1B9
100
AcDbEntity
  8
L1_120
  6
CONTINUOUS
 62
         7
100
AcDbCircle
 10
1316.3275047567
 20
-257.8737350038
 30
0.0
 40
2.0
100
AcDbArc
 50
180.0
 51
267.1375947739
  0
ARC
  5
1BA
100
AcDbEntity
  8
L1_120
  6
CONTINUOUS
 62
         7
100
AcDbCircle
 10
1321.4475047567
 20
-236.2766019657
 30
0.0
 40
2.88
100
AcDbArc
 50
270.0
 51
360.0
  0
ARC
  5
1BB
100
AcDbEntity
  8
L1_120
  6
CONTINUOUS
 62
         7
100
AcDbCircle
 10
1321.4475047567
 20
-212.2758649208
 30
0.0
 40
2.88
100
AcDbArc
 50
0.0
 51
90.0
  0
LINE
  5
1BC
100
AcDbEntity
  8
L1_120
  6
CONTINUOUS
 62
         7
100
AcDbLine
 10
1324.3275047567
 20
-212.2758649208
 30
0.0
 11
1324.3275047567
 21
-236.2766019657
 31
0.0
  0
ARC
  5
1BD
100
AcDbEntity
  8
L1_120
  6
CONTINUOUS
 62
         7
100
AcDbCircle
 10
1322.3275047567
 20
-216.2662334432
 30
0.0
 40
2.0
100
AcDbArc
 50
0.0
 51
90.0
  0
ARC
  5
1BE
100
AcDbEntity
  8
L1_120
  6
CONTINUOUS
 62
         7
100
AcDbCircle
 10
1322.3275047567
 20
-232.2862334432
 30
0.0
 40
2.0
100
AcDbArc
 50
270.0
 51
360.0
  0
LINE
  5
1BF
100
AcDbEntity
  8
L1_120
  6
CONTINUOUS
 62
         7
100
AcDbLine
 10
1314.3275047567
 20
-190.6787318827
 30
0.0
 11
1314.3275047567
 21
-212.7662334432
 31
0.0
  0
ARC
  5
1C0
100
AcDbEntity
  8
L1_120
  6
CONTINUOUS
 62
         7
100
AcDbCircle
 10
1316.3275047567
 20
-190.6787318827
 30
0.0
 40
2.0
100
AcDbArc
 50
92.8624052261
 51
180.0
  0
LINE
  5
1C1
100
AcDbEntity
  8
L1_120
  6
CONTINUOUS
 62
         7
100
AcDbLine
 10
1315.8275047567
 20
-214.2662334432
 30
0.0
 11
1314.3275047567
 21
-212.7662334432
 31
0.0
  0
LINE
  5
1C2
100
AcDbEntity
  8
L1_120
  6
CONTINUOUS
 62
         7
100
AcDbLine
 10
1315.8275047567
 20
-234.2862334432
 30
0.0
 11
1314.3275047567
 21
-235.7862334432
 31
0.0
  0
LINE
  5
1C3
100
AcDbEntity
  8
L1_120
  6
CONTINUOUS
 62
         7
100
AcDbLine
 10
1314.3275047567
 20
-239.1566019657
 30
0.0
 11
1321.4475047567
 21
-239.1566019657
 31
0.0
  0
LINE
  5
1C4
100
AcDbEntity
  8
L1_120
  6
CONTINUOUS
 62
         7
100
AcDbLine
 10
1314.3275047567
 20
-209.3958649208
 30
0.0
 11
1321.4475047567
 21
-209.3958649208
 31
0.0
  0
LINE
  5
1C5
100
AcDbEntity
  8
L1_120
  6
CONTINUOUS
 62
         7
100
AcDbLine
 10
1315.8275047567
 20
-214.2662334432
 30
0.0
 11
1322.3275047567
 21
-214.2662334432
 31
0.0
  0
LINE
  5
1C6
100
AcDbEntity
  8
L1_120
  6
CONTINUOUS
 62
         7
100
AcDbLine
 10
1315.8275047567
 20
-234.2862334432
 30
0.0
 11
1322.3275047567
 21
-234.2862334432
 31
0.0
  0
LINE
  5
1C7
100
AcDbEntity
  8
L1_120
  6
CENTER
 62
         1
100
AcDbLine
 10
1384.3275047567
 20
-167.7566795623
 30
0.0
 11
1384.3275047567
 21
-275.0747932512
 31
0.0
  0
LINE
  5
1C8
100
AcDbEntity
  8
L1_120
  6
CONTINUOUS
 62
         7
100
AcDbLine
 10
1393.3275047567
 20
-175.2762334432
 30
0.0
 11
1393.3275047567
 21
-224.2762334432
 31
0.0
  0
LINE
  5
1C9
100
AcDbEntity
  8
L1_120
  6
CENTER
 62
         1
100
AcDbLine
 10
1354.3275047567
 20
-186.7762334432
 30
0.0
 11
1354.3275047567
 21
-261.7762334432
 31
0.0
  0
LINE
  5
1CA
100
AcDbEntity
  8
L1_120
  6
CONTINUOUS
 62
         7
100
AcDbLine
 10
1364.3275047567
 20
-175.2762334432
 30
0.0
 11
1364.3275047567
 21
-273.2762334432
 31
0.0
  0
LINE
  5
1CB
100
AcDbEntity
  8
L1_120
  6
CONTINUOUS
 62
         7
100
AcDbLine
 10
1381.0799094925
 20
-274.2762334432
 30
0.0
 11
1382.4525047567
 21
-271.8988287074
 31
0.0
  0
LINE
  5
1CC
100
AcDbEntity
  8
L1_120
  6
CONTINUOUS
 62
         7
100
AcDbLine
 10
1365.3275047567
 20
-274.2762334432
 30
0.0
 11
1381.0799094925
 21
-274.2762334432
 31
0.0
  0
LINE
  5
1CD
100
AcDbEntity
  8
L1_120
  6
CONTINUOUS
 62
         7
100
AcDbLine
 10
1386.2025047567
 20
-271.8988287074
 30
0.0
 11
1386.2025047567
 21
-270.7762334432
 31
0.0
  0
LINE
  5
1CE
100
AcDbEntity
  8
L1_120
  6
CONTINUOUS
 62
         7
100
AcDbLine
 10
1382.9525047567
 20
-270.2762334432
 30
0.0
 11
1385.7025047567
 21
-270.2762334432
 31
0.0
  0
ARC
  5
1CF
100
AcDbEntity
  8
L1_120
  6
CONTINUOUS
 62
         7
100
AcDbCircle
 10
1385.7025047567
 20
-270.7762334432
 30
0.0
 40
0.5
100
AcDbArc
 50
0.0
 51
90.0
  0
LINE
  5
1D0
100
AcDbEntity
  8
L1_120
  6
CONTINUOUS
 62
         7
100
AcDbLine
 10
1387.5751000209
 20
-274.2762334432
 30
0.0
 11
1386.2025047567
 21
-271.8988287074
 31
0.0
  0
LINE
  5
1D1
100
AcDbEntity
  8
L1_120
  6
CONTINUOUS
 62
         7
100
AcDbLine
 10
1387.5751000209
 20
-274.2762334432
 30
0.0
 11
1392.3275047567
 21
-274.2762334432
 31
0.0
  0
LINE
  5
1D2
100
AcDbEntity
  8
L1_120
  6
CONTINUOUS
 62
         7
100
AcDbLine
 10
1382.4525047567
 20
-271.8988287074
 30
0.0
 11
1382.4525047567
 21
-270.7762334432
 31
0.0
  0
ARC
  5
1D3
100
AcDbEntity
  8
L1_120
  6
CONTINUOUS
 62
         7
100
AcDbCircle
 10
1382.9525047567
 20
-270.7762334432
 30
0.0
 40
0.5
100
AcDbArc
 50
90.0
 51
180.0
  0
LINE
  5
1D4
100
AcDbEntity
  8
L1_120
  6
CENTER
 62
         1
100
AcDbLine
 10
1381.3327311727
 20
-224.2762334432
 30
0.0
 11
1393.3275047567
 21
-224.2762334432
 31
0.0
  0
ARC
  5
1D5
100
AcDbEntity
  8
L1_120
  6
DASHED
 62
         2
100
AcDbCircle
 10
1327.3275047567
 20
-216.2662334432
 30
0.0
 40
2.0
100
AcDbArc
 50
0.0
 51
90.0
  0
LINE
  5
1D6
100
AcDbEntity
  8
L1_120
  6
DASHED
 62
         2
100
AcDbLine
 10
1329.3275047567
 20
-216.2662334432
 30
0.0
 11
1329.3275047567
 21
-232.2862334432
 31
0.0
  0
ARC
  5
1D7
100
AcDbEntity
  8
L1_120
  6
DASHED
 62
         2
100
AcDbCircle
 10
1327.3275047567
 20
-232.2862334432
 30
0.0
 40
2.0
100
AcDbArc
 50
270.0
 51
360.0
  0
LINE
  5
1D8
100
AcDbEntity
  8
L1_120
  6
CENTER
 62
         1
100
AcDbLine
 10
1349.3275047567
 20
-209.4680085581
 30
0.0
 11
1349.3275047567
 21
-238.1407044492
 31
0.0
  0
LINE
  5
1D9
100
AcDbEntity
  8
L1_120
  6
CONTINUOUS
 62
         7
100
AcDbLine
 10
1381.0799094925
 20
-174.2762334432
 30
0.0
 11
1382.4525047567
 21
-176.653638179
 31
0.0
  0
LINE
  5
1DA
100
AcDbEntity
  8
L1_120
  6
CONTINUOUS
 62
         7
100
AcDbLine
 10
1365.3275047567
 20
-174.2762334432
 30
0.0
 11
1381.0799094925
 21
-174.2762334432
 31
0.0
  0
LINE
  5
1DB
100
AcDbEntity
  8
L1_120
  6
CONTINUOUS
 62
         7
100
AcDbLine
 10
1382.9525047567
 20
-178.2762334432
 30
0.0
 11
1385.7025047567
 21
-178.2762334432
 31
0.0
  0
LINE
  5
1DC
100
AcDbEntity
  8
L1_120
  6
CONTINUOUS
 62
         7
100
AcDbLine
 10
1386.2025047567
 20
-176.653638179
 30
0.0
 11
1386.2025047567
 21
-177.7762334432
 31
0.0
  0
LINE
  5
1DD
100
AcDbEntity
  8
L1_120
  6
CONTINUOUS
 62
         7
100
AcDbLine
 10
1387.5751000209
 20
-174.2762334432
 30
0.0
 11
1386.2025047567
 21
-176.653638179
 31
0.0
  0
ARC
  5
1DE
100
AcDbEntity
  8
L1_120
  6
CONTINUOUS
 62
         7
100
AcDbCircle
 10
1385.7025047567
 20
-177.7762334432
 30
0.0
 40
0.5
100
AcDbArc
 50
270.0
 51
360.0
  0
LINE
  5
1DF
100
AcDbEntity
  8
L1_120
  6
CONTINUOUS
 62
         7
100
AcDbLine
 10
1387.5751000209
 20
-174.2762334432
 30
0.0
 11
1392.3275047567
 21
-174.2762334432
 31
0.0
  0
LINE
  5
1E0
100
AcDbEntity
  8
L1_120
  6
CONTINUOUS
 62
         7
100
AcDbLine
 10
1382.4525047567
 20
-176.653638179
 30
0.0
 11
1382.4525047567
 21
-177.7762334432
 31
0.0
  0
ARC
  5
1E1
100
AcDbEntity
  8
L1_120
  6
CONTINUOUS
 62
         7
100
AcDbCircle
 10
1382.9525047567
 20
-177.7762334432
 30
0.0
 40
0.5
100
AcDbArc
 50
180.0
 51
270.0
  0
ARC
  5
1E2
100
AcDbEntity
  8
L1_120
  6
CONTINUOUS
 62
         7
100
AcDbCircle
 10
1363.367000506
 20
-186.3441826357
 30
0.0
 40
0.3
100
AcDbArc
 50
255.0
 51
270.0
  0
ARC
  5
1E3
100
AcDbEntity
  8
L1_120
  6
CONTINUOUS
 62
         7
100
AcDbCircle
 10
1364.0275047567
 20
-186.3441826357
 30
0.0
 40
0.3
100
AcDbArc
 50
270.0
 51
360.0
  0
LINE
  5
1E4
100
AcDbEntity
  8
L1_120
  6
CONTINUOUS
 62
         7
100
AcDbLine
 10
1363.367000506
 20
-186.6441826357
 30
0.0
 11
1364.0275047567
 21
-186.6441826357
 31
0.0
  0
LINE
  5
1E5
100
AcDbEntity
  8
L1_120
  6
CONTINUOUS
 62
         7
100
AcDbLine
 10
1362.3275047567
 20
-186.3762334432
 30
0.0
 11
1363.2893547925
 21
-186.6339603835
 31
0.0
  0
ARC
  5
1E6
100
AcDbEntity
  8
L1_120
  6
CONTINUOUS
 62
         7
100
AcDbCircle
 10
1363.367000506
 20
-262.2082842508
 30
0.0
 40
0.3
100
AcDbArc
 50
90.0
 51
105.0
  0
LINE
  5
1E7
100
AcDbEntity
  8
L1_120
  6
CONTINUOUS
 62
         7
100
AcDbLine
 10
1363.367000506
 20
-261.9082842508
 30
0.0
 11
1364.0275047567
 21
-261.9082842508
 31
0.0
  0
LINE
  5
1E8
100
AcDbEntity
  8
L1_120
  6
CONTINUOUS
 62
         7
100
AcDbLine
 10
1362.3275047567
 20
-262.1762334432
 30
0.0
 11
1363.2893547925
 21
-261.9185065029
 31
0.0
  0
ARC
  5
1E9
100
AcDbEntity
  8
L1_120
  6
CONTINUOUS
 62
         7
100
AcDbCircle
 10
1364.0275047567
 20
-262.2082842508
 30
0.0
 40
0.3
100
AcDbArc
 50
0.0
 51
90.0
  0
LINE
  5
1EA
100
AcDbEntity
  8
L1_120
  6
CONTINUOUS
 62
         4
100
AcDbLine
 10
1362.3275047567
 20
-186.3762334432
 30
0.0
 11
1362.3275047567
 21
-262.1762334432
 31
0.0
  0
LINE
  5
1EB
100
AcDbEntity
  8
L1_120
  6
CONTINUOUS
 62
         7
100
AcDbLine
 10
1393.3275047567
 20
-224.2762334432
 30
0.0
 11
1393.3275047567
 21
-273.2762334432
 31
0.0
  0
LINE
  5
1EC
100
AcDbEntity
  8
L1_120
  6
DASHED
 62
         2
100
AcDbLine
 10
1368.1129152626
 20
-178.9912756438
 30
0.0
 11
1368.1129152626
 21
-202.8103110987
 31
0.0
  0
LINE
  5
1ED
100
AcDbEntity
  8
L1_120
  6
DASHED
 62
         2
100
AcDbLine
 10
1376.1129152626
 20
-178.9912756438
 30
0.0
 11
1368.1129152626
 21
-178.9912756438
 31
0.0
  0
LINE
  5
1EE
100
AcDbEntity
  8
L1_120
  6
DASHED
 62
         2
100
AcDbLine
 10
1376.1129152626
 20
-178.9912756438
 30
0.0
 11
1376.1129152626
 21
-202.8103110987
 31
0.0
  0
LINE
  5
1EF
100
AcDbEntity
  8
L1_120
  6
DASHED
 62
         2
100
AcDbLine
 10
1376.1129152626
 20
-202.8103110987
 30
0.0
 11
1368.1129152626
 21
-202.8103110987
 31
0.0
  0
LINE
  5
1F0
100
AcDbEntity
  8
L1_120
  6
CENTER
 62
         1
100
AcDbLine
 10
1231.0721451996
 20
-175.0406455357
 30
0.0
 11
1231.0721451996
 21
-275.0406455357
 31
0.0
  0
LINE
  5
1F1
100
AcDbEntity
  8
L1_120
  6
CENTER
 62
         1
100
AcDbLine
 10
1181.0721451996
 20
-225.0406455357
 30
0.0
 11
1281.0721451996
 21
-225.0406455357
 31
0.0
  0
LINE
  5
1F2
100
AcDbEntity
  8
L1_120
  6
CONTINUOUS
 62
         7
100
AcDbLine
 10
1324.3275047567
 20
-214.0327203366
 30
0.0
 11
1324.3275047567
 21
-234.5196202423
 31
0.0
  0
LINE
  5
1F3
100
AcDbEntity
  8
L1_120
  6
CONTINUOUS
 62
         7
100
AcDbLine
 10
1328.3275047567
 20
-333.3986220057
 30
0.0
 11
1328.3275047567
 21
-342.9386220057
 31
0.0
  0
LINE
  5
1F4
100
AcDbEntity
  8
L1_120
  6
CENTER
 62
         1
100
AcDbLine
 10
1400.9275047567
 20
-248.0193945636
 30
0.0
 11
1400.9275047567
 21
-197.2614166969
 31
0.0
  0
CIRCLE
  5
1F5
100
AcDbEntity
  8
L1_120
  6
CONTINUOUS
 62
         7
100
AcDbCircle
 10
1400.9275047567
 20
-224.2762334432
 30
0.0
 40
2.6
  0
ARC
  5
1F6
100
AcDbEntity
  8
L1_120
  6
CONTINUOUS
 62
         5
100
AcDbCircle
 10
1400.9275047567
 20
-224.2762334432
 30
0.0
 40
3.1
100
AcDbArc
 50
245.1974867242
 51
572.2725742614
  0
DIMENSION
  5
1FA
100
AcDbEntity
  8
L1_120
  6
CONTINUOUS
 62
         4
100
AcDbDimension
  2
*D0
 10
1412.0230086592
 20
-203.2741419623
 30
0.0
 11
1442.6333395734
 21
-198.3453826922
 31
0.0
 70
         2
  3
DIMSTYLE1
100
AcDb2LineAngularDimension
 13
1411.3175047567
 23
-203.2741419623
 33
0.0
 14
1412.0230086592
 24
-203.2741419623
 34
0.0
 15
1468.3059638525
 25
-207.7037066011
 35
0.0
 16
1439.4623377209
 26
-212.3869141812
 36
0.0
  0
DIMENSION
  5
20C
100
AcDbEntity
  8
L1_120
  6
CONTINUOUS
 62
         4
100
AcDbDimension
  2
*D1
 10
1501.6496804633
 20
-203.2742334432
 30
0.0
 11
1499.0246804633
 21
-233.6847127865
 31
0.0
  3
DIMSTYLE1
100
AcDbAlignedDimension
 13
1422.6694887089
 23
-203.2742334432
 33
0.0
 14
1422.6694887089
 24
-245.2782334432
 34
0.0
 50
90.0
100
AcDbRotatedDimension
  0
LINE
  5
218
100
AcDbEntity
  8
L1_120
  6
CONTINUOUS
 62
         7
100
AcDbLine
 10
1412.0230086592
 20
-245.2783249241
 30
0.0
 11
1468.3059638525
 21
-240.8487602853
 31
0.0
  0
LINE
  5
219
100
AcDbEntity
  8
L1_120
  6
CONTINUOUS
 62
         7
100
AcDbLine
 10
1396.3275047567
 20
-245.2781419623
 30
0.0
 11
1412.0230086592
 21
-245.2781419623
 31
0.0
  0
LINE
  5
21A
100
AcDbEntity
  8
L1_120
  6
CONTINUOUS
 62
         7
100
AcDbLine
 10
1396.3275047567
 20
-203.2741419623
 30
0.0
 11
1412.0230086592
 21
-203.2741419623
 31
0.0
  0
LINE
  5
21B
100
AcDbEntity
  8
L1_120
  6
CONTINUOUS
 62
         4
100
AcDbLine
 10
1412.0230086592
 20
-203.2741419623
 30
0.0
 11
1412.0230086592
 21
-245.2781419623
 31
0.0
  0
LINE
  5
21C
100
AcDbEntity
  8
L1_120
  6
CONTINUOUS
 62
         7
100
AcDbLine
 10
1412.0230086592
 20
-203.2741419623
 30
0.0
 11
1468.3059638525
 21
-207.7037066011
 31
0.0
  0
LINE
  5
21D
100
AcDbEntity
  8
L1_120
  6
CONTINUOUS
 62
         7
100
AcDbLine
 10
1469.2275047567
 20
-208.7006239349
 30
0.0
 11
1469.2275047567
 21
-239.8518429516
 31
0.0
  0
ARC
  5
21E
100
AcDbEntity
  8
L1_120
  6
CONTINUOUS
 62
         7
100
AcDbCircle
 10
1468.2275047567
 20
-239.8518429516
 30
0.0
 40
1.0
100
AcDbArc
 50
274.5
 51
360.0
  0
ARC
  5
21F
100
AcDbEntity
  8
L1_120
  6
CONTINUOUS
 62
         7
100
AcDbCircle
 10
1468.2275047567
 20
-208.7006239349
 30
0.0
 40
1.0
100
AcDbArc
 50
0.0
 51
85.5
  0
ARC
  5
220
100
AcDbEntity
  8
L1_120
  6
CONTINUOUS
 62
         7
100
AcDbCircle
 10
1396.3275047567
 20
-200.2741419623
 30
0.0
 40
3.0
100
AcDbArc
 50
180.0
 51
270.0
  0
ARC
  5
221
100
AcDbEntity
  8
L1_120
  6
CONTINUOUS
 62
         7
100
AcDbCircle
 10
1396.3275047567
 20
-248.2781419623
 30
0.0
 40
3.0
100
AcDbArc
 50
90.0
 51
180.0
  0
DIMENSION
  5
224
100
AcDbEntity
  8
L1_120
  6
CONTINUOUS
 62
         4
100
AcDbDimension
  2
*D2
 10
1490.5280326365
 20
-207.7762334432
 30
0.0
 11
1487.9030326365
 21
-231.5926355482
 31
0.0
  3
DIMSTYLE1
100
AcDbAlignedDimension
 13
1469.2275047567
 23
-207.7762334432
 33
0.0
 14
1469.2275047567
 24
-240.7762334432
 34
0.0
 50
90.0
100
AcDbRotatedDimension
  0
LINE
  5
230
100
AcDbEntity
  8
L1_120
  6
CONTINUOUS
 62
         7
100
AcDbLine
 10
1392.3275047567
 20
-289.1686220057
 30
0.0
 11
1392.3275047567
 21
-314.1667134866
 31
0.0
  0
LINE
  5
231
100
AcDbEntity
  8
L1_120
  6
CONTINUOUS
 62
         7
100
AcDbLine
 10
1392.3275047567
 20
-362.1705305248
 30
0.0
 11
1392.3275047567
 21
-387.1686220057
 31
0.0
  0
ARC
  5
232
100
AcDbEntity
  8
L1_120
  6
CONTINUOUS
 62
         7
100
AcDbCircle
 10
1391.3275047567
 20
-387.1686220057
 30
0.0
 40
1.0
100
AcDbArc
 50
270.0
 51
360.0
  0
ARC
  5
233
100
AcDbEntity
  8
L1_120
  6
CONTINUOUS
 62
         7
100
AcDbCircle
 10
1391.3275047567
 20
-289.1686220057
 30
0.0
 40
1.0
100
AcDbArc
 50
0.0
 51
90.0
  0
ARC
  5
234
100
AcDbEntity
  8
L1_120
  6
CONTINUOUS
 62
         7
100
AcDbCircle
 10
1399.9275047567
 20
-300.3659970096
 30
0.0
 40
17.0007080482
100
AcDbArc
 50
261.2029585925
 51
278.7970414075
  0
ARC
  5
235
100
AcDbEntity
  8
L1_120
  6
CONTINUOUS
 62
         7
100
AcDbCircle
 10
1399.9275047567
 20
-375.9712582751
 30
0.0
 40
17.0007191889
100
AcDbArc
 50
81.202964403
 51
98.797035597
  0
LINE
  5
236
100
AcDbEntity
  8
L1_120
  6
CONTINUOUS
 62
         7
100
AcDbLine
 10
1399.9275047567
 20
-325.6678241865
 30
0.0
 11
1397.3275047567
 21
-324.1667134866
 31
0.0
  0
LINE
  5
237
100
AcDbEntity
  8
L1_120
  6
CONTINUOUS
 62
         7
100
AcDbLine
 10
1399.9275047567
 20
-350.6694198249
 30
0.0
 11
1397.3275047567
 21
-352.1705305248
 31
0.0
  0
LINE
  5
238
100
AcDbEntity
  8
L1_120
  6
CONTINUOUS
 62
         7
100
AcDbLine
 10
1402.5275047567
 20
-324.1667134866
 30
0.0
 11
1402.5275047567
 21
-317.1667134866
 31
0.0
  0
LINE
  5
239
100
AcDbEntity
  8
L1_120
  6
CONTINUOUS
 62
         7
100
AcDbLine
 10
1402.5275047567
 20
-352.1705305248
 30
0.0
 11
1402.5275047567
 21
-359.1705305248
 31
0.0
  0
LINE
  5
23A
100
AcDbEntity
  8
L1_120
  6
CONTINUOUS
 62
         7
100
AcDbLine
 10
1397.3275047567
 20
-324.1667134866
 30
0.0
 11
1397.3275047567
 21
-317.1667134866
 31
0.0
  0
LINE
  5
23B
100
AcDbEntity
  8
L1_120
  6
CONTINUOUS
 62
         7
100
AcDbLine
 10
1397.3275047567
 20
-352.1705305248
 30
0.0
 11
1397.3275047567
 21
-359.1705305248
 31
0.0
  0
LINE
  5
23C
100
AcDbEntity
  8
L1_120
  6
CONTINUOUS
 62
         7
100
AcDbLine
 10
1403.0275047567
 20
-324.1667134866
 30
0.0
 11
1396.8275047567
 21
-324.1667134866
 31
0.0
  0
LINE
  5
23D
100
AcDbEntity
  8
L1_120
  6
CONTINUOUS
 62
         7
100
AcDbLine
 10
1402.5275047567
 20
-324.1667134866
 30
0.0
 11
1397.3275047567
 21
-324.1667134866
 31
0.0
  0
LINE
  5
23E
100
AcDbEntity
  8
L1_120
  6
CONTINUOUS
 62
         7
100
AcDbLine
 10
1399.9275047567
 20
-350.6694198249
 30
0.0
 11
1402.5275047567
 21
-352.1705305248
 31
0.0
  0
LINE
  5
23F
100
AcDbEntity
  8
L1_120
  6
CONTINUOUS
 62
         7
100
AcDbLine
 10
1399.9275047567
 20
-325.6678241865
 30
0.0
 11
1402.5275047567
 21
-324.1667134866
 31
0.0
  0
LINE
  5
240
100
AcDbEntity
  8
L1_120
  6
CONTINUOUS
 62
         7
100
AcDbLine
 10
1403.0275047567
 20
-352.1705305248
 30
0.0
 11
1396.8275047567
 21
-352.1705305248
 31
0.0
  0
LINE
  5
241
100
AcDbEntity
  8
L1_120
  6
CONTINUOUS
 62
         7
100
AcDbLine
 10
1402.5275047567
 20
-352.1705305248
 30
0.0
 11
1397.3275047567
 21
-352.1705305248
 31
0.0
  0
LINE
  5
242
100
AcDbEntity
  8
L1_120
  6
CONTINUOUS
 62
         4
100
AcDbLine
 10
1403.0275047567
 20
-324.1667134866
 30
0.0
 11
1403.0275047567
 21
-317.1667134866
 31
0.0
  0
LINE
  5
243
100
AcDbEntity
  8
L1_120
  6
CONTINUOUS
 62
         4
100
AcDbLine
 10
1403.0275047567
 20
-352.1705305248
 30
0.0
 11
1403.0275047567
 21
-359.1705305248
 31
0.0
  0
LINE
  5
244
100
AcDbEntity
  8
L1_120
  6
CONTINUOUS
 62
         4
100
AcDbLine
 10
1396.8275047567
 20
-324.1667134866
 30
0.0
 11
1396.8275047567
 21
-317.1667134866
 31
0.0
  0
LINE
  5
245
100
AcDbEntity
  8
L1_120
  6
CONTINUOUS
 62
         4
100
AcDbLine
 10
1396.8275047567
 20
-352.1705305248
 30
0.0
 11
1396.8275047567
 21
-359.1705305248
 31
0.0
  0
LINE
  5
246
100
AcDbEntity
  8
L1_120
  6
CENTER
 62
         1
100
AcDbLine
 10
1399.9275047567
 20
-361.8108076107
 30
0.0
 11
1399.9275047567
 21
-315.059056787
 31
0.0
  0
LINE
  5
247
100
AcDbEntity
  8
L1_120
  6
CONTINUOUS
 62
         7
100
AcDbLine
 10
1395.3275047567
 20
-359.1705305248
 30
0.0
 11
1410.9875981534
 21
-359.1705305248
 31
0.0
  0
LINE
  5
248
100
AcDbEntity
  8
L1_120
  6
CONTINUOUS
 62
         7
100
AcDbLine
 10
1410.9875981534
 20
-359.1707134866
 30
0.0
 11
1467.2705533466
 21
-354.7411488478
 31
0.0
  0
ARC
  5
249
100
AcDbEntity
  8
L1_120
  6
CONTINUOUS
 62
         7
100
AcDbCircle
 10
1467.1920942509
 20
-353.7442315141
 30
0.0
 40
1.0
100
AcDbArc
 50
274.5
 51
360.0
  0
LINE
  5
24A
100
AcDbEntity
  8
L1_120
  6
CONTINUOUS
 62
         7
100
AcDbLine
 10
1410.9875981534
 20
-317.1665305248
 30
0.0
 11
1467.2705533466
 21
-321.5960951636
 31
0.0
  0
ARC
  5
24B
100
AcDbEntity
  8
L1_120
  6
CONTINUOUS
 62
         7
100
AcDbCircle
 10
1467.1920942509
 20
-322.5930124974
 30
0.0
 40
1.0
100
AcDbArc
 50
0.0
 51
85.5
  0
LINE
  5
24C
100
AcDbEntity
  8
L1_120
  6
CONTINUOUS
 62
         7
100
AcDbLine
 10
1468.1920942509
 20
-322.5930124974
 30
0.0
 11
1468.1920942509
 21
-353.7442315141
 31
0.0
  0
LINE
  5
24D
100
AcDbEntity
  8
L1_120
  6
CONTINUOUS
 62
         7
100
AcDbLine
 10
1391.8275047567
 20
-330.5686220057
 30
0.0
 11
1416.1920942509
 21
-330.5686220057
 31
0.0
  0
LINE
  5
24E
100
AcDbEntity
  8
L1_120
  6
CONTINUOUS
 62
         7
100
AcDbLine
 10
1391.8275047567
 20
-345.7686220057
 30
0.0
 11
1416.1920942509
 21
-345.7686220057
 31
0.0
  0
LINE
  5
24F
100
AcDbEntity
  8
L1_120
  6
CONTINUOUS
 62
         4
100
AcDbLine
 10
1391.8275047567
 20
-346.1686220057
 30
0.0
 11
1416.1920942509
 21
-346.1686220057
 31
0.0
  0
ARC
  5
250
100
AcDbEntity
  8
L1_120
  6
CONTINUOUS
 62
         7
100
AcDbCircle
 10
1395.3275047567
 20
-362.1705305248
 30
0.0
 40
3.0
100
AcDbArc
 50
90.0
 51
180.0
  0
ARC
  5
251
100
AcDbEntity
  8
L1_120
  6
CONTINUOUS
 62
         7
100
AcDbCircle
 10
1395.3275047567
 20
-314.1667134866
 30
0.0
 40
3.0
100
AcDbArc
 50
180.0
 51
270.0
  0
LINE
  5
252
100
AcDbEntity
  8
L1_120
  6
CONTINUOUS
 62
         7
100
AcDbLine
 10
1416.1920942509
 20
-348.1686220057
 30
0.0
 11
1426.1920942509
 21
-348.1686220057
 31
0.0
  0
LINE
  5
253
100
AcDbEntity
  8
L1_120
  6
CONTINUOUS
 62
         7
100
AcDbLine
 10
1416.1920942509
 20
-328.1686220057
 30
0.0
 11
1426.1920942509
 21
-328.1686220057
 31
0.0
  0
ARC
  5
254
100
AcDbEntity
  8
L1_120
  6
CONTINUOUS
 62
         7
100
AcDbCircle
 10
1467.1920942509
 20
-348.6836220057
 30
0.0
 40
1.0
100
AcDbArc
 50
0.0
 51
90.0
  0
ARC
  5
255
100
AcDbEntity
  8
L1_120
  6
CONTINUOUS
 62
         7
100
AcDbCircle
 10
1467.1920942509
 20
-327.6536220057
 30
0.0
 40
1.0
100
AcDbArc
 50
270.0
 51
360.0
  0
LINE
  5
256
100
AcDbEntity
  8
L1_120
  6
CONTINUOUS
 62
         7
100
AcDbLine
 10
1426.1920942509
 20
-347.6836220057
 30
0.0
 11
1467.1920942509
 21
-347.6836220057
 31
0.0
  0
LINE
  5
257
100
AcDbEntity
  8
L1_120
  6
CONTINUOUS
 62
         7
100
AcDbLine
 10
1426.1920942509
 20
-328.6536220057
 30
0.0
 11
1467.1920942509
 21
-328.6536220057
 31
0.0
  0
LINE
  5
258
100
AcDbEntity
  8
L1_120
  6
CONTINUOUS
 62
         7
100
AcDbLine
 10
1416.1920942509
 20
-328.1686220057
 30
0.0
 11
1416.1920942509
 21
-348.1686220057
 31
0.0
  0
LINE
  5
259
100
AcDbEntity
  8
L1_120
  6
CONTINUOUS
 62
         7
100
AcDbLine
 10
1426.1920942509
 20
-328.1686220057
 30
0.0
 11
1426.1920942509
 21
-348.1686220057
 31
0.0
  0
LINE
  5
25A
100
AcDbEntity
  8
L1_120
  6
CONTINUOUS
 62
         4
100
AcDbLine
 10
1467.1920942509
 20
-328.6536220057
 30
0.0
 11
1467.1920942509
 21
-347.6836220057
 31
0.0
  0
LINE
  5
25B
100
AcDbEntity
  8
L1_120
  6
CONTINUOUS
 62
         4
100
AcDbLine
 10
1391.8275047567
 20
-330.1686220057
 30
0.0
 11
1416.1920942509
 21
-330.1686220057
 31
0.0
  0
LINE
  5
25C
100
AcDbEntity
  8
L1_120
  6
CENTER
 62
         1
100
AcDbLine
 10
1312.8265852325
 20
-224.2762334432
 30
0.0
 11
1469.2275047567
 21
-224.2762334432
 31
0.0
  0
LINE
  5
25D
100
AcDbEntity
  8
L1_120
  6
CENTER
 62
         1
100
AcDbLine
 10
1313.3275047567
 20
-338.1686220058
 30
0.0
 11
1468.1920942509
 21
-338.1686220058
 31
0.0
  0
LINE
  5
25E
100
AcDbEntity
  8
L1_120
  6
CONTINUOUS
 62
         7
100
AcDbLine
 10
1395.3275047567
 20
-317.1667134866
 30
0.0
 11
1410.9875981534
 21
-317.1667134866
 31
0.0
  0
DIMENSION
  5
261
100
AcDbEntity
  8
L1_120
  6
CONTINUOUS
 62
         4
100
AcDbDimension
  2
*D3
 10
1364.3629152626
 20
-156.2565405451
 30
0.0
 11
1412.6325454523
 21
-153.6315405451
 31
0.0
  3
DIMSTYLE1
100
AcDbAlignedDimension
 13
1364.3629152626
 23
-175.2762334432
 33
0.0
 14
1469.2629152626
 24
-213.2006239349
 34
0.0
100
AcDbRotatedDimension
  0
DIMENSION
  5
26F
100
AcDbEntity
  8
L1_120
  6
CONTINUOUS
 62
         4
100
AcDbDimension
  2
*D4
 10
1314.3629152626
 20
-140.8684443628
 30
0.0
 11
1385.3126157453
 21
-138.2434443628
 31
0.0
  3
DIMSTYLE1
100
AcDbAlignedDimension
 13
1314.3629152626
 23
-190.6787318827
 33
0.0
 14
1469.2629152626
 24
-213.2006239349
 34
0.0
100
AcDbRotatedDimension
  0
DIMENSION
  5
27D
100
AcDbEntity
  8
L1_120
  6
CONTINUOUS
 62
         4
100
AcDbDimension
  2
*D5
 10
1416.1920942509
 20
-379.6656145195
 30
0.0
 11
1439.2813787422
 21
-375.6056145195
 31
0.0
  3
DIMSTYLE1
100
AcDbAlignedDimension
 13
1416.1920942509
 23
-346.6686220057
 33
0.0
 14
1468.1920942509
 24
-353.2578410224
 34
0.0
100
AcDbRotatedDimension
  0
INSERT
  5
2EF
100
AcDbEntity
  8
0
  6
CONTINUOUS
100
AcDbBlockReference
  2
*X6
 10
0.0
 20
0.0
 30
0.0
  0
CIRCLE
  5
2F0
100
AcDbEntity
  8
L1_120
  6
CONTINUOUS
 62
         7
100
AcDbCircle
 10
1491.4371553642
 20
-300.564105557
 30
0.0
 40
2.3333333328
  0
LINE
  5
2F1
100
AcDbEntity
  8
L1_120
  6
CENTER
 62
         1
100
AcDbLine
 10
1535.476433966
 20
-300.564105557
 30
0.0
 11
1508.880213647
 21
-300.564105557
 31
0.0
  0
LINE
  5
2F2
100
AcDbEntity
  8
L1_120
  6
CONTINUOUS
 62
         7
100
AcDbLine
 10
1530.588721596
 20
-294.564105557
 30
0.0
 11
1512.888721596
 21
-294.564105557
 31
0.0
  0
LINE
  5
2F3
100
AcDbEntity
  8
L1_120
  6
CONTINUOUS
 62
         7
100
AcDbLine
 10
1512.888721596
 20
-306.564105557
 30
0.0
 11
1530.588721596
 21
-306.564105557
 31
0.0
  0
LINE
  5
2F4
100
AcDbEntity
  8
L1_120
  6
CONTINUOUS
 62
         7
100
AcDbLine
 10
1532.088721596
 20
-296.064105557
 30
0.0
 11
1532.088721596
 21
-305.064105557
 31
0.0
  0
LINE
  5
2F5
100
AcDbEntity
  8
L1_120
  6
CONTINUOUS
 62
         7
100
AcDbLine
 10
1512.088721596
 20
-295.949746203
 30
0.0
 11
1512.088721596
 21
-305.1784649109
 31
0.0
  0
LINE
  5
2F6
100
AcDbEntity
  8
L1_120
  6
CONTINUOUS
 62
         4
100
AcDbLine
 10
1512.888721596
 20
-294.564105557
 30
0.0
 11
1512.888721596
 21
-306.564105557
 31
0.0
  0
LINE
  5
2F7
100
AcDbEntity
  8
L1_120
  6
CONTINUOUS
 62
         4
100
AcDbLine
 10
1530.588721596
 20
-294.564105557
 30
0.0
 11
1530.588721596
 21
-306.564105557
 31
0.0
  0
LINE
  5
2F8
100
AcDbEntity
  8
L1_120
  6
CONTINUOUS
 62
         7
100
AcDbLine
 10
1512.888721596
 20
-294.564105557
 30
0.0
 11
1512.088721596
 21
-295.949746203
 31
0.0
  0
LINE
  5
2F9
100
AcDbEntity
  8
L1_120
  6
CONTINUOUS
 62
         7
100
AcDbLine
 10
1512.888721596
 20
-306.564105557
 30
0.0
 11
1512.088721596
 21
-305.1784649109
 31
0.0
  0
LINE
  5
2FA
100
AcDbEntity
  8
L1_120
  6
CONTINUOUS
 62
         7
100
AcDbLine
 10
1530.588721596
 20
-294.564105557
 30
0.0
 11
1532.088721596
 21
-296.064105557
 31
0.0
  0
LINE
  5
2FB
100
AcDbEntity
  8
L1_120
  6
CONTINUOUS
 62
         7
100
AcDbLine
 10
1530.588721596
 20
-306.564105557
 30
0.0
 11
1532.088721596
 21
-305.064105557
 31
0.0
  0
LINE
  5
2FC
100
AcDbEntity
  8
L1_120
  6
CONTINUOUS
 62
         4
100
AcDbLine
 10
1531.9743622421
 20
-295.949746203
 30
0.0
 11
1512.088721596
 21
-295.949746203
 31
0.0
  0
LINE
  5
2FD
100
AcDbEntity
  8
L1_120
  6
CONTINUOUS
 62
         4
100
AcDbLine
 10
1531.9743622421
 20
-305.1784649109
 30
0.0
 11
1512.088721596
 21
-305.1784649109
 31
0.0
  0
LINE
  5
2FE
100
AcDbEntity
  8
L1_120
  6
CENTER
 62
         1
100
AcDbLine
 10
1502.4958262989
 20
-300.564105557
 30
0.0
 11
1480.0169478686
 21
-300.564105557
 31
0.0
  0
LINE
  5
2FF
100
AcDbEntity
  8
L1_120
  6
CENTER
 62
         1
100
AcDbLine
 10
1491.4371553642
 20
-313.3067930762
 30
0.0
 11
1491.4371553642
 21
-290.9154887565
 31
0.0
  0
CIRCLE
  5
300
100
AcDbEntity
  8
L1_120
  6
CONTINUOUS
 62
         7
100
AcDbCircle
 10
1491.4371553642
 20
-300.564105557
 30
0.0
 40
4.8191458041
  0
CIRCLE
  5
301
100
AcDbEntity
  8
L1_120
  6
CONTINUOUS
 62
         7
100
AcDbCircle
 10
1491.4371553642
 20
-300.564105557
 30
0.0
 40
6.666666665
  0
DIMENSION
  5
304
100
AcDbEntity
  8
L1_120
  6
CONTINUOUS
 62
         4
100
AcDbDimension
  2
*D7
 10
1542.473299794
 20
-294.564105557
 30
0.0
 11
1539.848299794
 21
-291.8312328227
 31
0.0
  3
DIMSTYLE1
100
AcDbAlignedDimension
 13
1530.588721596
 23
-294.564105557
 33
0.0
 14
1530.588721596
 24
-306.564105557
 34
0.0
 50
90.0
100
AcDbRotatedDimension
  0
DIMENSION
  5
314
100
AcDbEntity
  8
L1_120
  6
CONTINUOUS
 62
         4
100
AcDbDimension
  2
*D8
 10
1512.088721596
 20
-319.3456150132
 30
0.0
 11
1518.9057283891
 21
-316.7206150132
 31
0.0
  3
DIMSTYLE1
100
AcDbAlignedDimension
 13
1512.088721596
 23
-305.1784649109
 33
0.0
 14
1532.088721596
 24
-305.064105557
 34
0.0
100
AcDbRotatedDimension
  0
LINE
  5
320
100
AcDbEntity
  8
L1_120
  6
DASHED
 62
         2
100
AcDbLine
 10
1516.088721596
 20
-296.677354211
 30
0.0
 11
1516.088721596
 21
-304.4508569029
 31
0.0
  0
LINE
  5
321
100
AcDbEntity
  8
L1_120
  6
CONTINUOUS
 62
         7
100
AcDbLine
 10
1494.7704886967
 20
-298.6396046601
 30
0.0
 11
1491.4371553642
 21
-296.7151037633
 31
0.0
  0
LINE
  5
322
100
AcDbEntity
  8
L1_120
  6
CONTINUOUS
 62
         7
100
AcDbLine
 10
1491.4371553642
 20
-296.7151037633
 30
0.0
 11
1488.1038220317
 21
-298.6396046601
 31
0.0
  0
LINE
  5
323
100
AcDbEntity
  8
L1_120
  6
CONTINUOUS
 62
         7
100
AcDbLine
 10
1488.1038220317
 20
-298.6396046601
 30
0.0
 11
1488.1038220317
 21
-302.4886064538
 31
0.0
  0
LINE
  5
324
100
AcDbEntity
  8
L1_120
  6
CONTINUOUS
 62
         7
100
AcDbLine
 10
1488.1038220317
 20
-302.4886064538
 30
0.0
 11
1491.4371553642
 21
-304.4131073506
 31
0.0
  0
LINE
  5
325
100
AcDbEntity
  8
L1_120
  6
CONTINUOUS
 62
         7
100
AcDbLine
 10
1491.4371553642
 20
-304.4131073506
 30
0.0
 11
1494.7704886967
 21
-302.4886064538
 31
0.0
  0
LINE
  5
326
100
AcDbEntity
  8
L1_120
  6
CONTINUOUS
 62
         7
100
AcDbLine
 10
1494.7704886967
 20
-302.4886064538
 30
0.0
 11
1494.7704886967
 21
-298.6396046601
 31
0.0
  0
LINE
  5
327
100
AcDbEntity
  8
L1_120
  6
DASHED
 62
         2
100
AcDbLine
 10
1512.088721596
 20
-296.677354211
 30
0.0
 11
1516.088721596
 21
-296.677354211
 31
0.0
  0
LINE
  5
328
100
AcDbEntity
  8
L1_120
  6
DASHED
 62
         2
100
AcDbLine
 10
1512.088721596
 20
-299.120729884
 30
0.0
 11
1516.088721596
 21
-299.120729884
 31
0.0
  0
LINE
  5
329
100
AcDbEntity
  8
L1_120
  6
DASHED
 62
         2
100
AcDbLine
 10
1512.088721596
 20
-304.4508569029
 30
0.0
 11
1516.088721596
 21
-304.4508569029
 31
0.0
  0
LINE
  5
32A
100
AcDbEntity
  8
L1_120
  6
DASHED
 62
         2
100
AcDbLine
 10
1512.088721596
 20
-302.0074812299
 30
0.0
 11
1516.088721596
 21
-302.0074812299
 31
0.0
  0
CIRCLE
  5
32B
100
AcDbEntity
  8
L1_120
  6
CONTINUOUS
 62
         7
100
AcDbCircle
 10
1491.4371553642
 20
-300.564105557
 30
0.0
 40
3.8490017936
  0
DIMENSION
  5
32E
100
AcDbEntity
  8
L1_120
  6
CONTINUOUS
 62
         4
100
AcDbDimension
  2
*D9
 10
1488.1038220317
 20
-287.9748299296
 30
0.0
 11
1488.9321600846
 21
-283.9148299296
 31
0.0
  3
DIMSTYLE1
100
AcDbAlignedDimension
 13
1488.1038220317
 23
-298.6396046601
 33
0.0
 14
1494.7704886967
 24
-298.6396046601
 34
0.0
100
AcDbRotatedDimension
  0
LINE
  5
33C
100
AcDbEntity
  8
L1_120
  6
DASHED
 62
         2
100
AcDbLine
 10
1532.088721596
 20
-298.814105557
 30
0.0
 11
1516.088721596
 21
-298.814105557
 31
0.0
  0
LINE
  5
33D
100
AcDbEntity
  8
L1_120
  6
DASHED
 62
         2
100
AcDbLine
 10
1516.088721596
 20
-302.314105557
 30
0.0
 11
1532.088721596
 21
-302.314105557
 31
0.0
  0
LINE
  5
33E
100
AcDbEntity
  8
L1_120
  6
CENTER
 62
         1
100
AcDbLine
 10
1614.1964085961
 20
-186.3980996668
 30
0.0
 11
1576.3182748201
 21
-224.2762334429
 31
0.0
  0
LINE
  5
33F
100
AcDbEntity
  8
L1_120
  6
CENTER
 62
         1
100
AcDbLine
 10
1509.7140319508
 20
-224.2762334432
 30
0.0
 11
1634.6140527995
 21
-224.2762334432
 31
0.0
  0
LINE
  5
340
100
AcDbEntity
  8
L1_120
  6
CENTER
 62
         1
100
AcDbLine
 10
1576.3182748197
 20
-165.1116105684
 30
0.0
 11
1576.3182748197
 21
-276.440856318
 31
0.0
  0
LINE
  5
341
100
AcDbEntity
  8
L1_120
  6
CENTER
 62
         1
100
AcDbLine
 10
1576.3182748197
 20
-224.2762334432
 30
0.0
 11
1602.6085736981
 21
-269.8123668467
 31
0.0
  0
LINE
  5
342
100
AcDbEntity
  8
L1_120
  6
CENTER
 62
         1
100
AcDbLine
 10
1576.3182748197
 20
-224.2762334432
 30
0.0
 11
1594.2636938633
 21
-273.580867048
 31
0.0
  0
LINE
  5
343
100
AcDbEntity
  8
L1_120
  6
CENTER
 62
         1
100
AcDbLine
 10
1576.3182748197
 20
-224.2762334432
 30
0.0
 11
1571.7752883849
 21
-276.2028060043
 31
0.0
  0
LINE
  5
344
100
AcDbEntity
  8
L1_120
  6
CENTER
 62
         1
100
AcDbLine
 10
1576.3182748197
 20
-224.2762334432
 30
0.0
 11
1550.1405271781
 21
-269.6174223861
 31
0.0
  0
LINE
  5
345
100
AcDbEntity
  8
L1_120
  6
DASHED
 62
         2
100
AcDbLine
 10
1621.3590481488
 20
-202.5661266283
 30
0.0
 11
1598.0283816346
 21
-179.2354601141
 31
0.0
  0
LINE
  5
346
100
AcDbEntity
  8
L1_120
  6
DASHED
 62
         2
100
AcDbLine
 10
1560.3934563052
 20
-251.8588282116
 30
0.0
 11
1558.3727303631
 21
-251.8588282116
 31
0.0
  0
LINE
  5
347
100
AcDbEntity
  8
L1_120
  6
DASHED
 62
         2
100
AcDbLine
 10
1561.4038192763
 20
-253.6088282116
 30
0.0
 11
1560.3934563052
 21
-251.8588282116
 31
0.0
  0
LINE
  5
348
100
AcDbEntity
  8
L1_120
  6
DASHED
 62
         2
100
AcDbLine
 10
1587.2114922412
 20
-254.205102334
 30
0.0
 11
1585.912594643
 21
-255.753068213
 31
0.0
  0
LINE
  5
349
100
AcDbEntity
  8
L1_120
  6
DASHED
 62
         2
100
AcDbLine
 10
1589.2015188158
 20
-254.5559977114
 30
0.0
 11
1587.2114922412
 21
-254.205102334
 31
0.0
  0
LINE
  5
34A
100
AcDbEntity
  8
L1_120
  6
DASHED
 62
         2
100
AcDbLine
 10
1573.5423960482
 20
-256.0046729876
 30
0.0
 11
1571.7109963914
 21
-256.8586686727
 31
0.0
  0
LINE
  5
34B
100
AcDbEntity
  8
L1_120
  6
DASHED
 62
         2
100
AcDbLine
 10
1575.1976778347
 20
-257.1637137723
 30
0.0
 11
1573.5423960482
 21
-256.0046729876
 31
0.0
  0
LINE
  5
34C
100
AcDbEntity
  8
L1_120
  6
DASHED
 62
         2
100
AcDbLine
 10
1592.2430933342
 20
-251.8588282116
 30
0.0
 11
1591.2327303631
 21
-253.6088282116
 31
0.0
  0
LINE
  5
34D
100
AcDbEntity
  8
L1_120
  6
DASHED
 62
         2
100
AcDbLine
 10
1594.2638192763
 20
-251.8588282116
 30
0.0
 11
1592.2430933342
 21
-251.8588282116
 31
0.0
  0
LINE
  5
34E
100
AcDbEntity
  8
L1_120
  6
DASHED
 62
         2
100
AcDbLine
 10
1554.9201805464
 20
-264.8388199098
 30
0.0
 11
1561.4038192763
 21
-253.6088282116
 31
0.0
  0
LINE
  5
34F
100
AcDbEntity
  8
L1_120
  6
DASHED
 62
         2
100
AcDbLine
 10
1558.3727303631
 20
-251.8588282116
 30
0.0
 11
1551.8890916331
 21
-263.0888199098
 31
0.0
  0
LINE
  5
350
100
AcDbEntity
  8
L1_120
  6
DASHED
 62
         2
100
AcDbLine
 10
1574.0675051362
 20
-270.0816468266
 30
0.0
 11
1575.1976778347
 21
-257.1637137723
 31
0.0
  0
LINE
  5
351
100
AcDbEntity
  8
L1_120
  6
DASHED
 62
         2
100
AcDbLine
 10
1571.7109963914
 20
-256.8586686727
 30
0.0
 11
1570.5808236929
 21
-269.7766017269
 31
0.0
  0
LINE
  5
352
100
AcDbEntity
  8
L1_120
  6
DASHED
 62
         2
100
AcDbLine
 10
1600.7474580063
 20
-263.0888199098
 30
0.0
 11
1594.2638192763
 21
-251.8588282116
 31
0.0
  0
LINE
  5
353
100
AcDbEntity
  8
L1_120
  6
DASHED
 62
         2
100
AcDbLine
 10
1591.2327303631
 20
-253.6088282116
 30
0.0
 11
1597.716369093
 21
-264.8388199098
 31
0.0
  0
LINE
  5
354
100
AcDbEntity
  8
L1_120
  6
DASHED
 62
         2
100
AcDbLine
 10
1593.6365889111
 20
-266.7412526522
 30
0.0
 11
1589.2015188158
 21
-254.5559977114
 31
0.0
  0
LINE
  5
355
100
AcDbEntity
  8
L1_120
  6
DASHED
 62
         2
100
AcDbLine
 10
1585.912594643
 20
-255.753068213
 30
0.0
 11
1590.3476647384
 21
-267.9383231538
 31
0.0
  0
LINE
  5
356
100
AcDbEntity
  8
L1_120
  6
DASHED
 62
         2
100
AcDbLine
 10
1558.3727303631
 20
-251.8588282116
 30
0.0
 11
1561.4038192763
 21
-253.6088282116
 31
0.0
  0
LINE
  5
357
100
AcDbEntity
  8
L1_120
  6
DASHED
 62
         2
100
AcDbLine
 10
1571.7109963914
 20
-256.8586686727
 30
0.0
 11
1575.1976778347
 21
-257.1637137723
 31
0.0
  0
LINE
  5
358
100
AcDbEntity
  8
L1_120
  6
DASHED
 62
         2
100
AcDbLine
 10
1591.2327303631
 20
-253.6088282116
 30
0.0
 11
1594.2638192763
 21
-251.8588282116
 31
0.0
  0
LINE
  5
359
100
AcDbEntity
  8
L1_120
  6
DASHED
 62
         2
100
AcDbLine
 10
1585.912594643
 20
-255.753068213
 30
0.0
 11
1589.2015188158
 21
-254.5559977114
 31
0.0
  0
ARC
  5
35A
100
AcDbEntity
  8
L1_120
  6
DASHED
 62
         2
100
AcDbCircle
 10
1576.3182748197
 20
-224.2762334432
 30
0.0
 40
45.86
100
AcDbArc
 50
266.5916104836
 51
291.5916104836
  0
LINE
  5
35B
100
AcDbEntity
  8
L1_120
  6
DASHED
 62
         2
100
AcDbLine
 10
1532.3182748197
 20
-216.2762334432
 30
0.0
 11
1537.5182748197
 21
-216.2762334432
 31
0.0
  0
LINE
  5
35C
100
AcDbEntity
  8
L1_120
  6
DASHED
 62
         2
100
AcDbLine
 10
1532.3182748197
 20
-232.2762334432
 30
0.0
 11
1537.5182748197
 21
-232.2762334432
 31
0.0
  0
LINE
  5
35D
100
AcDbEntity
  8
L1_120
  6
DASHED
 62
         2
100
AcDbLine
 10
1537.5182748197
 20
-216.2762334432
 30
0.0
 11
1537.5182748197
 21
-232.2762334432
 31
0.0
  0
LINE
  5
35E
100
AcDbEntity
  8
L1_120
  6
DASHED
 62
         2
100
AcDbLine
 10
1581.0182748198
 20
-179.1762334432
 30
0.0
 11
1581.3182748198
 21
-178.8762334432
 31
0.0
  0
LINE
  5
35F
100
AcDbEntity
  8
L1_120
  6
DASHED
 62
         2
100
AcDbLine
 10
1581.3182748198
 20
-175.1821163617
 30
0.0
 11
1581.3182748198
 21
-178.8762334432
 31
0.0
  0
LINE
  5
360
100
AcDbEntity
  8
L1_120
  6
DASHED
 62
         2
100
AcDbLine
 10
1576.3182748198
 20
-179.7535837124
 30
0.0
 11
1575.3182748198
 21
-179.1762334432
 31
0.0
  0
LINE
  5
361
100
AcDbEntity
  8
L1_120
  6
DASHED
 62
         2
100
AcDbLine
 10
1576.3182748198
 20
-179.7535837124
 30
0.0
 11
1577.3182748198
 21
-179.1762334432
 31
0.0
  0
LINE
  5
362
100
AcDbEntity
  8
L1_120
  6
DASHED
 62
         2
100
AcDbLine
 10
1571.3182748198
 20
-178.8762334432
 30
0.0
 11
1571.6182748198
 21
-179.1762334432
 31
0.0
  0
LINE
  5
363
100
AcDbEntity
  8
L1_120
  6
DASHED
 62
         2
100
AcDbLine
 10
1571.3182748198
 20
-175.1821163617
 30
0.0
 11
1571.3182748198
 21
-178.8762334432
 31
0.0
  0
LINE
  5
364
100
AcDbEntity
  8
L1_120
  6
DASHED
 62
         2
100
AcDbLine
 10
1581.0182748198
 20
-179.1762334432
 30
0.0
 11
1571.6182748198
 21
-179.1762334432
 31
0.0
  0
LINE
  5
365
100
AcDbEntity
  8
L1_120
  6
DASHED
 62
         2
100
AcDbLine
 10
1571.3182748198
 20
-178.8762334432
 30
0.0
 11
1581.3182748198
 21
-178.8762334432
 31
0.0
  0
LINE
  5
366
100
AcDbEntity
  8
L1_120
  6
DASHED
 62
         2
100
AcDbLine
 10
1581.3182748198
 20
-175.1821163617
 30
0.0
 11
1581.9104494396
 21
-174.589941742
 31
0.0
  0
LINE
  5
367
100
AcDbEntity
  8
L1_120
  6
DASHED
 62
         2
100
AcDbLine
 10
1571.3182748198
 20
-175.1821163617
 30
0.0
 11
1570.7261002001
 21
-174.589941742
 31
0.0
  0
LINE
  5
368
100
AcDbEntity
  8
L1_120
  6
DASHED
 62
         2
100
AcDbLine
 10
1571.3182748198
 20
-175.1821163617
 30
0.0
 11
1581.3182748198
 21
-175.1821163617
 31
0.0
  0
ARC
  5
369
100
AcDbEntity
  8
L1_120
  6
CONTINUOUS
 62
         7
100
AcDbCircle
 10
1576.3182748198
 20
-224.2762334432
 30
0.0
 40
50.0
100
AcDbArc
 50
79.2631667988
 51
100.7368332012
  0
LINE
  5
36A
100
AcDbEntity
  8
L1_120
  6
DASHED
 62
         2
100
AcDbLine
 10
1537.5182748197
 20
-216.2762334432
 30
0.0
 11
1537.5182748197
 21
-232.2762334432
 31
0.0
  0
LINE
  5
36B
100
AcDbEntity
  8
L1_120
  6
DASHED
 62
         2
100
AcDbLine
 10
1532.3182748197
 20
-232.2762334432
 30
0.0
 11
1537.5182748197
 21
-232.2762334432
 31
0.0
  0
LINE
  5
36C
100
AcDbEntity
  8
L1_120
  6
DASHED
 62
         2
100
AcDbLine
 10
1532.3182748197
 20
-216.2762334432
 30
0.0
 11
1537.5182748197
 21
-216.2762334432
 31
0.0
  0
LINE
  5
36D
100
AcDbEntity
  8
L1_120
  6
CONTINUOUS
 62
         7
100
AcDbLine
 10
1527.5432812267
 20
-213.2762334432
 30
0.0
 11
1528.5432812267
 21
-214.2762334432
 31
0.0
  0
LINE
  5
36E
100
AcDbEntity
  8
L1_120
  6
CONTINUOUS
 62
         7
100
AcDbLine
 10
1532.3182748197
 20
-213.2762334432
 30
0.0
 11
1532.3182748197
 21
-235.2762334432
 31
0.0
  0
LINE
  5
36F
100
AcDbEntity
  8
L1_120
  6
CONTINUOUS
 62
         7
100
AcDbLine
 10
1536.6982041484
 20
-254.7762334432
 30
0.0
 11
1545.8182748197
 21
-254.7762334432
 31
0.0
  0
LINE
  5
370
100
AcDbEntity
  8
L1_120
  6
CONTINUOUS
 62
         7
100
AcDbLine
 10
1537.488518189
 20
-255.7762334432
 30
0.0
 11
1544.8182748197
 21
-255.7762334432
 31
0.0
  0
LINE
  5
371
100
AcDbEntity
  8
L1_120
  6
CONTINUOUS
 62
         7
100
AcDbLine
 10
1527.5432812267
 20
-235.2762334432
 30
0.0
 11
1528.5432812267
 21
-234.2762334432
 31
0.0
  0
LINE
  5
372
100
AcDbEntity
  8
L1_120
  6
CONTINUOUS
 62
         7
100
AcDbLine
 10
1527.5432812267
 20
-235.2762334432
 30
0.0
 11
1532.3182748197
 21
-235.2762334432
 31
0.0
  0
LINE
  5
373
100
AcDbEntity
  8
L1_120
  6
CONTINUOUS
 62
         7
100
AcDbLine
 10
1528.5432812267
 20
-214.2762334432
 30
0.0
 11
1532.3182748197
 21
-214.2762334432
 31
0.0
  0
LINE
  5
374
100
AcDbEntity
  8
L1_120
  6
CONTINUOUS
 62
         7
100
AcDbLine
 10
1528.5432812267
 20
-234.2762334432
 30
0.0
 11
1532.3182748197
 21
-234.2762334432
 31
0.0
  0
LINE
  5
375
100
AcDbEntity
  8
L1_120
  6
CONTINUOUS
 62
         7
100
AcDbLine
 10
1545.8182748197
 20
-254.7762334432
 30
0.0
 11
1544.8182748197
 21
-255.7762334432
 31
0.0
  0
LINE
  5
376
100
AcDbEntity
  8
L1_120
  6
CONTINUOUS
 62
         7
100
AcDbLine
 10
1545.8182748197
 20
-254.7762334432
 30
0.0
 11
1545.8182748197
 21
-263.8963041145
 31
0.0
  0
LINE
  5
377
100
AcDbEntity
  8
L1_120
  6
CONTINUOUS
 62
         7
100
AcDbLine
 10
1544.8182748197
 20
-255.7762334432
 30
0.0
 11
1544.8182748197
 21
-263.1059900739
 31
0.0
  0
LINE
  5
378
100
AcDbEntity
  8
L1_120
  6
CONTINUOUS
 62
         7
100
AcDbLine
 10
1527.5432812267
 20
-213.2762334432
 30
0.0
 11
1532.3182748197
 21
-213.2762334432
 31
0.0
  0
LINE
  5
379
100
AcDbEntity
  8
L1_120
  6
CONTINUOUS
 62
         7
100
AcDbLine
 10
1620.3182748197
 20
-212.2762334432
 30
0.0
 11
1620.3182748197
 21
-236.2762334432
 31
0.0
  0
LINE
  5
37A
100
AcDbEntity
  8
L1_120
  6
CONTINUOUS
 62
         7
100
AcDbLine
 10
1620.3182748197
 20
-236.2762334432
 30
0.0
 11
1624.8569192178
 21
-236.2762334432
 31
0.0
  0
LINE
  5
37B
100
AcDbEntity
  8
L1_120
  6
CONTINUOUS
 62
         7
100
AcDbLine
 10
1624.8569192178
 20
-236.2762334432
 30
0.0
 11
1623.8569192178
 21
-235.2762334432
 31
0.0
  0
LINE
  5
37C
100
AcDbEntity
  8
L1_120
  6
CONTINUOUS
 62
         7
100
AcDbLine
 10
1620.3182748197
 20
-235.2762334432
 30
0.0
 11
1623.8569192178
 21
-235.2762334432
 31
0.0
  0
LINE
  5
37D
100
AcDbEntity
  8
L1_120
  6
CONTINUOUS
 62
         7
100
AcDbLine
 10
1620.3182748197
 20
-212.2762334432
 30
0.0
 11
1624.8569192178
 21
-212.2762334432
 31
0.0
  0
LINE
  5
37E
100
AcDbEntity
  8
L1_120
  6
CONTINUOUS
 62
         7
100
AcDbLine
 10
1624.8569192178
 20
-212.2762334432
 30
0.0
 11
1623.8569192178
 21
-213.2762334432
 31
0.0
  0
LINE
  5
37F
100
AcDbEntity
  8
L1_120
  6
CONTINUOUS
 62
         7
100
AcDbLine
 10
1620.3182748197
 20
-213.2762334432
 30
0.0
 11
1623.8569192178
 21
-213.2762334432
 31
0.0
  0
ARC
  5
380
100
AcDbEntity
  8
L1_120
  6
CONTINUOUS
 62
         7
100
AcDbCircle
 10
1576.3182748197
 20
-224.2762334432
 30
0.0
 40
48.8103473949
100
AcDbArc
 50
346.9601166097
 51
373.0398833903
  0
ARC
  5
381
100
AcDbEntity
  8
L1_120
  6
CONTINUOUS
 62
         7
100
AcDbCircle
 10
1576.3182748197
 20
-224.2762334432
 30
0.0
 40
48.8103473949
100
AcDbArc
 50
168.1778421254
 51
191.8221578746
  0
ARC
  5
382
100
AcDbEntity
  8
L1_120
  6
DASHED
 62
         2
100
AcDbCircle
 10
1576.3182748197
 20
-224.2762334432
 30
0.0
 40
45.86
100
AcDbArc
 50
291.5916104836
 51
626.5916104836
  0
CIRCLE
  5
383
100
AcDbEntity
  8
L1_120
  6
CONTINUOUS
 62
         7
100
AcDbCircle
 10
1576.3182748197
 20
-224.2762334432
 30
0.0
 40
50.0
  0
ARC
  5
384
100
AcDbEntity
  8
L1_120
  6
CONTINUOUS
 62
         5
100
AcDbCircle
 10
1576.3182748197
 20
-224.2762334432
 30
0.0
 40
8.0
100
AcDbArc
 50
243.9197505296
 51
562.8347942099
  0
CIRCLE
  5
385
100
AcDbEntity
  8
L1_120
  6
CONTINUOUS
 62
         7
100
AcDbCircle
 10
1576.3182748197
 20
-224.2762334432
 30
0.0
 40
7.6
  0
CIRCLE
  5
386
100
AcDbEntity
  8
L1_120
  6
CONTINUOUS
 62
         7
100
AcDbCircle
 10
1576.3182748197
 20
-224.2762334432
 30
0.0
 40
16.5
  0
CIRCLE
  5
387
100
AcDbEntity
  8
L1_120
  6
CONTINUOUS
 62
         7
100
AcDbCircle
 10
1576.3182748197
 20
-224.2762334432
 30
0.0
 40
21.0
  0
LINE
  5
388
100
AcDbEntity
  8
L1_120
  6
DASHED
 62
         4
100
AcDbLine
 10
1573.2182748197
 20
-210.2762334432
 30
0.0
 11
1573.2182748197
 21
-203.6369792787
 31
0.0
  0
LINE
  5
389
100
AcDbEntity
  8
L1_120
  6
DASHED
 62
         4
100
AcDbLine
 10
1579.4182748197
 20
-210.2762334432
 30
0.0
 11
1579.4182748197
 21
-203.6369792787
 31
0.0
  0
LINE
  5
38A
100
AcDbEntity
  8
L1_120
  6
DASHED
 62
         2
100
AcDbLine
 10
1576.3182748197
 20
-211.7773441431
 30
0.0
 11
1573.7182748197
 21
-210.2762334432
 31
0.0
  0
LINE
  5
38B
100
AcDbEntity
  8
L1_120
  6
DASHED
 62
         2
100
AcDbLine
 10
1579.4182748197
 20
-210.2762334432
 30
0.0
 11
1573.2182748197
 21
-210.2762334432
 31
0.0
  0
LINE
  5
38C
100
AcDbEntity
  8
L1_120
  6
DASHED
 62
         2
100
AcDbLine
 10
1578.9182748197
 20
-210.2762334432
 30
0.0
 11
1573.7182748197
 21
-210.2762334432
 31
0.0
  0
LINE
  5
38D
100
AcDbEntity
  8
L1_120
  6
DASHED
 62
         2
100
AcDbLine
 10
1576.3182748197
 20
-211.7773441431
 30
0.0
 11
1578.9182748197
 21
-210.2762334432
 31
0.0
  0
LINE
  5
38E
100
AcDbEntity
  8
L1_120
  6
DASHED
 62
         2
100
AcDbLine
 10
1573.7182748197
 20
-210.2762334432
 30
0.0
 11
1573.7182748197
 21
-203.5289695748
 31
0.0
  0
LINE
  5
38F
100
AcDbEntity
  8
L1_120
  6
DASHED
 62
         2
100
AcDbLine
 10
1578.9182748197
 20
-210.2762334432
 30
0.0
 11
1578.9182748197
 21
-203.5289695748
 31
0.0
  0
LINE
  5
390
100
AcDbEntity
  8
L1_120
  6
DASHED
 62
         4
100
AcDbLine
 10
1562.3182748197
 20
-227.3762334432
 30
0.0
 11
1555.6790206552
 21
-227.3762334432
 31
0.0
  0
LINE
  5
391
100
AcDbEntity
  8
L1_120
  6
DASHED
 62
         4
100
AcDbLine
 10
1562.3182748197
 20
-221.1762334432
 30
0.0
 11
1555.6790206552
 21
-221.1762334432
 31
0.0
  0
LINE
  5
392
100
AcDbEntity
  8
L1_120
  6
DASHED
 62
         2
100
AcDbLine
 10
1563.8193855196
 20
-224.2762334432
 30
0.0
 11
1562.3182748197
 21
-226.8762334432
 31
0.0
  0
LINE
  5
393
100
AcDbEntity
  8
L1_120
  6
DASHED
 62
         2
100
AcDbLine
 10
1562.3182748197
 20
-221.1762334432
 30
0.0
 11
1562.3182748197
 21
-227.3762334432
 31
0.0
  0
LINE
  5
394
100
AcDbEntity
  8
L1_120
  6
DASHED
 62
         2
100
AcDbLine
 10
1562.3182748197
 20
-221.6762334432
 30
0.0
 11
1562.3182748197
 21
-226.8762334432
 31
0.0
  0
LINE
  5
395
100
AcDbEntity
  8
L1_120
  6
DASHED
 62
         2
100
AcDbLine
 10
1563.8193855196
 20
-224.2762334432
 30
0.0
 11
1562.3182748197
 21
-221.6762334432
 31
0.0
  0
LINE
  5
396
100
AcDbEntity
  8
L1_120
  6
DASHED
 62
         2
100
AcDbLine
 10
1562.3182748197
 20
-226.8762334432
 30
0.0
 11
1555.5710109513
 21
-226.8762334432
 31
0.0
  0
LINE
  5
397
100
AcDbEntity
  8
L1_120
  6
DASHED
 62
         2
100
AcDbLine
 10
1562.3182748197
 20
-221.6762334432
 30
0.0
 11
1555.5710109513
 21
-221.6762334432
 31
0.0
  0
LINE
  5
398
100
AcDbEntity
  8
L1_120
  6
DASHED
 62
         4
100
AcDbLine
 10
1579.4182748197
 20
-238.2762334432
 30
0.0
 11
1579.4182748197
 21
-244.9154876077
 31
0.0
  0
LINE
  5
399
100
AcDbEntity
  8
L1_120
  6
DASHED
 62
         4
100
AcDbLine
 10
1573.2182748197
 20
-238.2762334432
 30
0.0
 11
1573.2182748197
 21
-244.9154876077
 31
0.0
  0
LINE
  5
39A
100
AcDbEntity
  8
L1_120
  6
DASHED
 62
         2
100
AcDbLine
 10
1576.3182748197
 20
-236.7751227433
 30
0.0
 11
1578.9182748197
 21
-238.2762334432
 31
0.0
  0
LINE
  5
39B
100
AcDbEntity
  8
L1_120
  6
DASHED
 62
         2
100
AcDbLine
 10
1573.2182748197
 20
-238.2762334432
 30
0.0
 11
1579.4182748197
 21
-238.2762334432
 31
0.0
  0
LINE
  5
39C
100
AcDbEntity
  8
L1_120
  6
DASHED
 62
         2
100
AcDbLine
 10
1573.7182748197
 20
-238.2762334432
 30
0.0
 11
1578.9182748197
 21
-238.2762334432
 31
0.0
  0
LINE
  5
39D
100
AcDbEntity
  8
L1_120
  6
DASHED
 62
         2
100
AcDbLine
 10
1576.3182748197
 20
-236.7751227433
 30
0.0
 11
1573.7182748197
 21
-238.2762334432
 31
0.0
  0
LINE
  5
39E
100
AcDbEntity
  8
L1_120
  6
DASHED
 62
         2
100
AcDbLine
 10
1578.9182748197
 20
-238.2762334432
 30
0.0
 11
1578.9182748197
 21
-245.0234973117
 31
0.0
  0
LINE
  5
39F
100
AcDbEntity
  8
L1_120
  6
DASHED
 62
         2
100
AcDbLine
 10
1573.7182748197
 20
-238.2762334432
 30
0.0
 11
1573.7182748197
 21
-245.0234973117
 31
0.0
  0
LINE
  5
3A0
100
AcDbEntity
  8
L1_120
  6
DASHED
 62
         4
100
AcDbLine
 10
1590.3182748197
 20
-221.1762334432
 30
0.0
 11
1596.9575289843
 21
-221.1762334432
 31
0.0
  0
LINE
  5
3A1
100
AcDbEntity
  8
L1_120
  6
DASHED
 62
         4
100
AcDbLine
 10
1590.3182748197
 20
-227.3762334432
 30
0.0
 11
1596.9575289843
 21
-227.3762334432
 31
0.0
  0
LINE
  5
3A2
100
AcDbEntity
  8
L1_120
  6
DASHED
 62
         2
100
AcDbLine
 10
1588.8171641198
 20
-224.2762334432
 30
0.0
 11
1590.3182748197
 21
-221.6762334432
 31
0.0
  0
LINE
  5
3A3
100
AcDbEntity
  8
L1_120
  6
DASHED
 62
         2
100
AcDbLine
 10
1590.3182748197
 20
-227.3762334432
 30
0.0
 11
1590.3182748197
 21
-221.1762334432
 31
0.0
  0
LINE
  5
3A4
100
AcDbEntity
  8
L1_120
  6
DASHED
 62
         2
100
AcDbLine
 10
1590.3182748197
 20
-226.8762334432
 30
0.0
 11
1590.3182748197
 21
-221.6762334432
 31
0.0
  0
LINE
  5
3A5
100
AcDbEntity
  8
L1_120
  6
DASHED
 62
         2
100
AcDbLine
 10
1588.8171641198
 20
-224.2762334432
 30
0.0
 11
1590.3182748197
 21
-226.8762334432
 31
0.0
  0
LINE
  5
3A6
100
AcDbEntity
  8
L1_120
  6
DASHED
 62
         2
100
AcDbLine
 10
1590.3182748197
 20
-221.6762334432
 30
0.0
 11
1597.0655386882
 21
-221.6762334432
 31
0.0
  0
LINE
  5
3A7
100
AcDbEntity
  8
L1_120
  6
DASHED
 62
         2
100
AcDbLine
 10
1590.3182748197
 20
-226.8762334432
 30
0.0
 11
1597.0655386882
 21
-226.8762334432
 31
0.0
  0
CIRCLE
  5
3A8
100
AcDbEntity
  8
L1_120
  6
CONTINUOUS
 62
         7
100
AcDbCircle
 10
1576.3182748197
 20
-224.2762334432
 30
0.0
 40
9.515
  0
TEXT
  5
3AA
100
AcDbEntity
  8
L1_120
  6
CONTINUOUS
 62
         2
100
AcDbText
 10
1526.0025157238
 20
-143.9136312135
 30
0.0
 40
4.5
  1
536452
 41
0.98
  7
BOX
100
AcDbText
  0
ENDSEC
  0
SECTION
  2
OBJECTS
  0
DICTIONARY
  5
19
100
AcDbDictionary
  3
ACAD_GROUP
350
1A
  3
ACAD_MLINESTYLE
350
1B
  0
DICTIONARY
  5
1A
102
{ACAD_REACTORS
330
19
102
}
100
AcDbDictionary
  0
DICTIONARY
  5
1B
102
{ACAD_REACTORS
330
19
102
}
100
AcDbDictionary
  3
STANDARD
350
1C
  0
MLINESTYLE
  5
1C
102
{ACAD_REACTORS
330
1B
102
}
100
AcDbMlineStyle
  2
STANDARD
 70
         0
  3

 62
         0
 51
90.0
 52
90.0
 71
         2
 49
0.5
 62
       256
  6
BYLAYER
 49
-0.5
 62
       256
  6
BYLAYER
  0
ENDSEC
  0
EOF
