  0
SECTION
  2
HEADER
  9
$ACADVER
  1
AC1014
  9
$ACADMAINTVER
 70
         0
  9
$DWGCODEPAGE
  3
BIG5
  9
$INSBASE
 10
0.0
 20
0.0
 30
0.0
  9
$EXTMIN
 10
1087.8298592651
 20
-408.5995728702
 30
0.0
  9
$EXTMAX
 10
1819.180742908
 20
-51.5779802498
 30
0.0
  9
$LIMMIN
 10
0.0
 20
0.0
  9
$LIMMAX
 10
0.0
 20
0.0
  9
$ORTHOMODE
 70
         0
  9
$REGENMODE
 70
         1
  9
$FILLMODE
 70
         1
  9
$QTEXTMODE
 70
         0
  9
$MIRRTEXT
 70
         1
  9
$DRAGMODE
 70
         2
  9
$LTSCALE
 40
1.0
  9
$OSMODE
 70
         0
  9
$ATTMODE
 70
         1
  9
$TEXTSIZE
 40
1.7
  9
$TRACEWID
 40
0.05
  9
$TEXTSTYLE
  7
STANDARD
  9
$CLAYER
  8
0
  9
$CELTYPE
  6
CONTINUOUS
  9
$CECOLOR
 62
        16
  9
$CELTSCALE
 40
1.0
  9
$DELOBJ
 70
         1
  9
$DISPSILH
 70
         0
  9
$DIMSCALE
 40
1.0
  9
$DIMASZ
 40
0.18
  9
$DIMEXO
 40
0.0625
  9
$DIMDLI
 40
0.38
  9
$DIMRND
 40
0.0
  9
$DIMDLE
 40
0.0
  9
$DIMEXE
 40
0.25
  9
$DIMTP
 40
0.01
  9
$DIMTM
 40
-0.01
  9
$DIMTXT
 40
2.7
  9
$DIMCEN
 40
0.09
  9
$DIMTSZ
 40
0.0
  9
$DIMTOL
 70
         0
  9
$DIMLIM
 70
         0
  9
$DIMTIH
 70
         1
  9
$DIMTOH
 70
         1
  9
$DIMSE1
 70
         0
  9
$DIMSE2
 70
         0
  9
$DIMTAD
 70
         0
  9
$DIMZIN
 70
         0
  9
$DIMBLK
  1

  9
$DIMASO
 70
         1
  9
$DIMSHO
 70
         1
  9
$DIMPOST
  1

  9
$DIMAPOST
  1

  9
$DIMALT
 70
         0
  9
$DIMALTD
 70
         2
  9
$DIMALTF
 40
25.4
  9
$DIMLFAC
 40
1.0
  9
$DIMTOFL
 70
         0
  9
$DIMTVP
 40
0.0
  9
$DIMTIX
 70
         0
  9
$DIMSOXD
 70
         0
  9
$DIMSAH
 70
         0
  9
$DIMBLK1
  1

  9
$DIMBLK2
  1

  9
$DIMSTYLE
  2
STANDARD
  9
$DIMCLRD
 70
         0
  9
$DIMCLRE
 70
         0
  9
$DIMCLRT
 70
        16
  9
$DIMTFAC
 40
1.0
  9
$DIMGAP
 40
0.09
  9
$DIMJUST
 70
         0
  9
$DIMSD1
 70
         0
  9
$DIMSD2
 70
         0
  9
$DIMTOLJ
 70
         1
  9
$DIMTZIN
 70
         0
  9
$DIMALTZ
 70
         0
  9
$DIMALTTZ
 70
         0
  9
$DIMFIT
 70
         3
  9
$DIMUPT
 70
         0
  9
$DIMUNIT
 70
         2
  9
$DIMDEC
 70
         4
  9
$DIMTDEC
 70
         4
  9
$DIMALTU
 70
         2
  9
$DIMALTTD
 70
         2
  9
$DIMTXSTY
  7
STANDARD
  9
$DIMAUNIT
 70
         0
  9
$LUNITS
 70
         2
  9
$LUPREC
 70
        10
  9
$SKETCHINC
 40
0.1
  9
$FILLETRAD
 40
0.0
  9
$AUNITS
 70
         0
  9
$AUPREC
 70
         0
  9
$MENU
  1
acad
  9
$ELEVATION
 40
0.0
  9
$PELEVATION
 40
0.0
  9
$THICKNESS
 40
0.0
  9
$LIMCHECK
 70
         0
  9
$BLIPMODE
 70
         1
  9
$CHAMFERA
 40
0.0
  9
$CHAMFERB
 40
0.0
  9
$CHAMFERC
 40
0.0
  9
$CHAMFERD
 40
0.0
  9
$SKPOLY
 70
         0
  9
$TDCREATE
 40
0.000000000
  9
$TDUPDATE
 40
0.000000000
  9
$TDINDWG
 40
0.0000000000
  9
$TDUSRTIMER
 40
0.0000000000
  9
$USRTIMER
 70
         1
  9
$ANGBASE
 50
0.0
  9
$ANGDIR
 70
         0
  9
$PDMODE
 70
         2
  9
$PDSIZE
 40
0.0
  9
$PLINEWID
 40
0.0
  9
$COORDS
 70
         0
  9
$SPLFRAME
 70
         0
  9
$SPLINETYPE
 70
         6
  9
$SPLINESEGS
 70
         8
  9
$ATTDIA
 70
         0
  9
$ATTREQ
 70
         1
  9
$HANDLING
 70
         1
  9
$HANDSEED
  5
3CE
  9
$SURFTAB1
 70
         6
  9
$SURFTAB2
 70
         6
  9
$SURFTYPE
 70
         6
  9
$SURFU
 70
         6
  9
$SURFV
 70
         6
  9
$UCSNAME
  2

  9
$UCSORG
 10
0.0
 20
0.0
 30
0.0
  9
$UCSXDIR
 10
1.0
 20
0.0
 30
0.0
  9
$UCSYDIR
 10
0.0
 20
1.0
 30
0.0
  9
$PUCSNAME
  2

  9
$PUCSORG
 10
0.0
 20
0.0
 30
0.0
  9
$PUCSXDIR
 10
1.0
 20
0.0
 30
0.0
  9
$PUCSYDIR
 10
0.0
 20
1.0
 30
0.0
  9
$USERI1
 70
         0
  9
$USERI2
 70
         0
  9
$USERI3
 70
         0
  9
$USERI4
 70
         0
  9
$USERI5
 70
         0
  9
$USERR1
 40
0.0
  9
$USERR2
 40
0.0
  9
$USERR3
 40
0.0
  9
$USERR4
 40
0.0
  9
$USERR5
 40
0.0
  9
$WORLDVIEW
 70
         1
  9
$SHADEDGE
 70
         3
  9
$SHADEDIF
 70
        70
  9
$TILEMODE
 70
         1
  9
$MAXACTVP
 70
        16
  9
$PINSBASE
 10
0.0
 20
0.0
 30
0.0
  9
$PLIMCHECK
 70
         0
  9
$PEXTMIN
 10
1.0000000000E+20
 20
1.0000000000E+20
 30
1.0000000000E+20
  9
$PEXTMAX
 10
-1.0000000000E+20
 20
-1.0000000000E+20
 30
-1.0000000000E+20
  9
$PLIMMIN
 10
0.0
 20
0.0
  9
$PLIMMAX
 10
12.0
 20
9.0
  9
$UNITMODE
 70
         0
  9
$VISRETAIN
 70
         0
  9
$PLINEGEN
 70
         1
  9
$PSLTSCALE
 70
         0
  9
$TREEDEPTH
 70
      3020
  9
$PICKSTYLE
 70
         1
  9
$CMLSTYLE
  2
STANDARD
  9
$CMLJUST
 70
         0
  9
$CMLSCALE
 40
1.0
  9
$PROXYGRAPHICS
 70
         0
  9
$MEASUREMENT
 70
         0
  0
ENDSEC
  0
SECTION
  2
CLASSES
  0
CLASS
  1
LWPOLYLINE
  2
AcDbPolyline
  3
"AutoCAD"
 90
        0
280
         0
281
         1
  0
CLASS
  1
IMAGE
  2
AcDbRasterImage
  3
ISM
 90
      127
280
         0
281
         1
  0
CLASS
  1
OLE2FRAME
  2
AcDbOle2Frame
  3
""
 90
        0
280
         0
281
         1
  0
CLASS
  1
HATCH
  2
AcDbHatch
  3
"ACAD_SEDONA"
 90
        0
280
         0
281
         1
  0
CLASS
  1
DICTIONARYVAR
  2
AcDbDictionaryVar
  3
"AutoCAD"
 90
        0
280
         0
281
         0
  0
CLASS
  1
RASTERVARIABLES
  2
AcDbRasterVariables
  3
ISM
 90
        0
280
         0
281
         0
  0
CLASS
  1
IMAGEDEF
  2
AcDbRasterImageDef
  3
ISM
 90
        0
280
         0
281
         0
  0
CLASS
  1
IMAGEDEF_REACTOR
  2
AcDbRasterImageDefReactor
  3
ISM
 90
        1
280
         0
281
         0
  0
CLASS
  1
IDBUFFER
  2
AcDbIdBuffer
  3
"Acad"
 90
        0
280
         0
281
         0
  0
CLASS
  1
SPATIAL_FILTER
  2
AcDbSpatialFilter
  3
"Acad"
 90
        0
280
         0
281
         0
  0
CLASS
  1
XRECORD
  2
AcDbXrecord
  3
"<Built In>"
 90
        0
280
         0
281
         0
  0
CLASS
  1
SORTENTSTABLE
  2
AcDbSortentsTable
  3
"AutoCAD"
 90
        0
280
         0
281
         0
  0
CLASS
  1
LAYER_INDEX
  2
AcDbLayerIndex
  3
"Acad"
 90
        0
280
         0
281
         0
  0
CLASS
  1
SPATIAL_INDEX
  2
AcDbSpatialIndex
  3
"Acad"
 90
        0
280
         0
281
         0
  0
CLASS
  1
OBJECT_PTR
  2
CAseDLPNTableRecord
  3
"ASE-LPNTableRecord"
 90
        1
280
         0
281
         0
  0
CLASS
  1
LAYOUT
  2
AcDbLayout
  3
"AutoCAD 2000"
 90
        1
280
         0
281
         0
  0
CLASS
  1
PLOTSETTINGS
  2
AcDbPlotSettings
  3
"AutoCAD 2000"
 90
        1
280
         0
281
         0
  0
CLASS
  1
ACDBDICTIONARYWDFLT
  2
AcDbDictionaryWithDefault
  3
"AutoCAD 2000"
 90
        1
280
         0
281
         0
  0
CLASS
  1
ACDBPLACEHOLDER
  2
AcDbPlaceHolder
  3
"AutoCAD 2000"
 90
        1
280
         0
281
         0
  0
CLASS
  1
VBA_PROJECT
  2
AcDbVbaProject
  3
"acadvba"
 90
        1
280
         0
281
         0
  0
CLASS
  1
WIPEOUT
  2
AcDbWipeout
  3
WipeOut|AutoCAD Express Tool|expresstools@autodesk.com
 90
      127
280
         0
281
         1
  0
CLASS
  1
WIPEOUTVARIABLES
  2
AcDbWipeoutVariables
  3
WipeOut|AutoCAD Express Tool|expresstools@autodesk.com
 90
        0
280
         0
281
         0
  0
CLASS
  1
RTEXT
  2
RText
  3
RText|AutoCAD Express Tool|expresstools@autodesk.com
 90
        0
280
         0
281
         1
  0
CLASS
  1
ARCALIGNEDTEXT
  2
AcDbArcAlignedText
  3
ATEXT|AutoCAD Express Tool|expresstools@autodesk.com
 90
        0
280
         0
281
         1
  0
ENDSEC
  0
SECTION
  2
TABLES
  0
TABLE
  2
VPORT
  5
7
100
AcDbSymbolTable
 70
         1
  0
VPORT
  5
15
100
AcDbSymbolTableRecord
100
AcDbViewportTableRecord
  2
*ACTIVE
 70
         0
 10
0.0
 20
0.0
 11
1.0
 21
1.0
 12
1453.5053010865
 22
-230.08877656
 13
0.0
 23
0.0
 14
1.0
 24
1.0
 15
0.0
 25
0.0
 16
0.0
 26
0.0
 36
1.0
 17
0.0
 27
0.0
 37
0.0
 40
357.0215926204
 41
2.0484780158
 42
50.0
 43
0.0
 44
0.0
 50
0.0
 51
0.0
 71
         0
 72
       100
 73
         1
 74
         1
 75
         0
 76
         0
 77
         0
 78
         0
  0
ENDTAB
  0
TABLE
  2
LTYPE
  5
4
100
AcDbSymbolTable
 70
         6
  0
LTYPE
  5
11
100
AcDbSymbolTableRecord
100
AcDbLinetypeTableRecord
  2
BYBLOCK
 70
        64
  3

 72
        65
 73
         0
 40
0.0
  0
LTYPE
  5
12
100
AcDbSymbolTableRecord
100
AcDbLinetypeTableRecord
  2
BYLAYER
 70
        64
  3

 72
        65
 73
         0
 40
0.0
  0
LTYPE
  5
13
100
AcDbSymbolTableRecord
100
AcDbLinetypeTableRecord
  2
CONTINUOUS
 70
        64
  3
Solid line
 72
        65
 73
         0
 40
0.0
  0
LTYPE
  5
1D
100
AcDbSymbolTableRecord
100
AcDbLinetypeTableRecord
  2
DASHED
 70
        64
  3
_ _ _ _ _ _ _ _ _ _ _ _ _ _ _ _
 72
        65
 73
         2
 40
0.2
 49
0.1
 74
         0
 49
-0.1
 74
         0
  0
LTYPE
  5
1E
100
AcDbSymbolTableRecord
100
AcDbLinetypeTableRecord
  2
CENTER
 70
        64
  3
___ _ ___ _ ___ _ ___ _ ___ _ ___ _ ___ _ ___ _
 72
        65
 73
         4
 40
0.95
 49
0.625
 74
         0
 49
-0.125
 74
         0
 49
0.075
 74
         0
 49
-0.125
 74
         0
  0
LTYPE
  5
1F
100
AcDbSymbolTableRecord
100
AcDbLinetypeTableRecord
  2
PHANTOM
 70
        64
  3
______  __  __  ______  __  __  ______  __  __  
 72
        65
 73
         6
 40
1.025
 49
0.625
 74
         0
 49
-0.125
 74
         0
 49
0.075
 74
         0
 49
-0.125
 74
         0
 49
0.075
 74
         0
 49
-0.125
 74
         0
  0
ENDTAB
  0
TABLE
  2
LAYER
  5
2
100
AcDbSymbolTable
 70
         6
  0
LAYER
  5
14
100
AcDbSymbolTableRecord
100
AcDbLayerTableRecord
  2
0
 70
         0
 62
         7
  6
CONTINUOUS
  0
LAYER
  5
21
100
AcDbSymbolTableRecord
100
AcDbLayerTableRecord
  2
_____U
 70
         1
 62
         7
  6
CONTINUOUS
  0
LAYER
  5
22
100
AcDbSymbolTableRecord
100
AcDbLayerTableRecord
  2
_____T______
 70
         1
 62
         7
  6
CONTINUOUS
  0
LAYER
  5
23
100
AcDbSymbolTableRecord
100
AcDbLayerTableRecord
  2
______L_______
 70
         1
 62
         7
  6
CONTINUOUS
  0
LAYER
  5
24
100
AcDbSymbolTableRecord
100
AcDbLayerTableRecord
  2
L1_120
 70
         0
 62
         7
  6
CONTINUOUS
  0
LAYER
  5
204
100
AcDbSymbolTableRecord
100
AcDbLayerTableRecord
  2
DEFPOINTS
 70
         0
 62
        -7
  6
CONTINUOUS
  0
ENDTAB
  0
TABLE
  2
STYLE
  5
3
100
AcDbSymbolTable
 70
        11
  0
STYLE
  5
17
100
AcDbSymbolTableRecord
100
AcDbTextStyleTableRecord
  2
STANDARD
 70
         0
 40
0.0
 41
1.0
 50
0.0
 71
         0
 42
0.0
  3
txt
  4

  0
STYLE
  5
20D
100
AcDbSymbolTableRecord
100
AcDbTextStyleTableRecord
  2
BOX
 70
         0
 40
1.0
 41
1.0
 50
0.0
 71
         0
 42
0.2
  3
txt.shx
  4

  0
STYLE
  5
21E
100
AcDbSymbolTableRecord
100
AcDbTextStyleTableRecord
  2
BOX
 70
         0
 40
1.0
 41
1.0
 50
0.0
 71
         0
 42
0.2
  3
txt.shx
  4

  0
STYLE
  5
22F
100
AcDbSymbolTableRecord
100
AcDbTextStyleTableRecord
  2
BOX
 70
         0
 40
1.0
 41
1.0
 50
0.0
 71
         0
 42
0.2
  3
txt.shx
  4

  0
STYLE
  5
274
100
AcDbSymbolTableRecord
100
AcDbTextStyleTableRecord
  2
BOX
 70
         0
 40
1.0
 41
1.0
 50
0.0
 71
         0
 42
0.2
  3
txt.shx
  4

  0
STYLE
  5
282
100
AcDbSymbolTableRecord
100
AcDbTextStyleTableRecord
  2
BOX
 70
         0
 40
1.0
 41
1.0
 50
0.0
 71
         0
 42
0.2
  3
txt.shx
  4

  0
STYLE
  5
285
100
AcDbSymbolTableRecord
100
AcDbTextStyleTableRecord
  2
BOX
 70
         0
 40
1.0
 41
1.0
 50
0.0
 71
         0
 42
0.2
  3
txt.shx
  4

  0
STYLE
  5
312
100
AcDbSymbolTableRecord
100
AcDbTextStyleTableRecord
  2
BOX
 70
         0
 40
1.0
 41
1.0
 50
0.0
 71
         0
 42
0.2
  3
txt.shx
  4

  0
STYLE
  5
333
100
AcDbSymbolTableRecord
100
AcDbTextStyleTableRecord
  2
BOX
 70
         0
 40
1.0
 41
1.0
 50
0.0
 71
         0
 42
0.2
  3
txt.shx
  4

  0
STYLE
  5
341
100
AcDbSymbolTableRecord
100
AcDbTextStyleTableRecord
  2
BOX
 70
         0
 40
1.0
 41
1.0
 50
0.0
 71
         0
 42
0.2
  3
txt.shx
  4

  0
STYLE
  5
35D
100
AcDbSymbolTableRecord
100
AcDbTextStyleTableRecord
  2
BOX
 70
         0
 40
1.0
 41
1.0
 50
0.0
 71
         0
 42
0.2
  3
txt.shx
  4

  0
ENDTAB
  0
TABLE
  2
VIEW
  5
5
100
AcDbSymbolTable
 70
         0
  0
ENDTAB
  0
TABLE
  2
UCS
  5
6
100
AcDbSymbolTable
 70
         1
  0
UCS
  5
20
100
AcDbSymbolTableRecord
100
AcDbUCSTableRecord
  2
CK_VIEW_1
 70
         0
 10
0.0
 20
0.0
 30
1.0
 11
1.0
 21
0.0
 31
0.0
 12
0.0
 22
1.0
 32
0.0
  0
ENDTAB
  0
TABLE
  2
APPID
  5
8
100
AcDbSymbolTable
 70
         1
  0
APPID
  5
16
100
AcDbSymbolTableRecord
100
AcDbRegAppTableRecord
  2
ACAD
 70
         0
  0
ENDTAB
  0
TABLE
  2
DIMSTYLE
  5
9
100
AcDbSymbolTable
 70
         2
  0
DIMSTYLE
105
18
100
AcDbSymbolTableRecord
100
AcDbDimStyleTableRecord
  2
STANDARD
 70
         0
  3

  4

  5

  6

  7

 40
1.0
 41
0.18
 42
0.0625
 43
0.38
 44
0.18
 45
0.0
 46
0.0
 47
0.0
 48
0.0
 71
         0
 72
         0
 73
         1
 74
         1
 75
         0
 76
         0
 77
         0
 78
         0
140
0.18
141
0.09
142
0.0
143
25.4
144
1.0
145
0.0
146
1.0
147
0.09
170
         0
171
         2
172
         0
173
         0
174
         0
175
         0
176
         0
177
         0
178
         0
270
         2
271
         4
272
         4
273
         2
274
         2
275
         0
280
         0
281
         0
282
         0
283
         1
284
         0
285
         0
286
         0
287
         0
288
         0
340
17
  0
DIMSTYLE
105
200
100
AcDbSymbolTableRecord
100
AcDbDimStyleTableRecord
  2
DIMSTYLE1
 70
         0
  3

  4

  5

  6

  7

 40
1.0
 41
3.5
 42
0.0625
 43
0.38
 44
3.5
 45
0.0
 46
0.0
 47
0.0
 48
0.0
 71
         0
 72
         0
 73
         1
 74
         1
 75
         0
 76
         0
 77
         0
 78
         0
140
3.5
141
0.09
142
0.0
143
25.4
144
1.0
145
0.0
146
1.0
147
0.09
170
         0
171
         2
172
         0
173
         0
174
         0
175
         0
176
         0
177
         0
178
         0
270
         2
271
         4
272
         4
273
         2
274
         2
275
         0
280
         0
281
         0
282
         0
283
         1
284
         0
285
         0
286
         0
287
         0
288
         0
340
17
  0
ENDTAB
  0
TABLE
  2
BLOCK_RECORD
  5
1
100
AcDbSymbolTable
 70
        10
  0
BLOCK_RECORD
  5
A
100
AcDbSymbolTableRecord
100
AcDbBlockTableRecord
  2
*MODEL_SPACE
  0
BLOCK_RECORD
  5
B
100
AcDbSymbolTableRecord
100
AcDbBlockTableRecord
  2
*PAPER_SPACE
  0
BLOCK_RECORD
  5
201
100
AcDbSymbolTableRecord
100
AcDbBlockTableRecord
  2
*D0
  0
BLOCK_RECORD
  5
213
100
AcDbSymbolTableRecord
100
AcDbBlockTableRecord
  2
*D1
  0
BLOCK_RECORD
  5
221
100
AcDbSymbolTableRecord
100
AcDbBlockTableRecord
  2
*D2
  0
BLOCK_RECORD
  5
269
100
AcDbSymbolTableRecord
100
AcDbBlockTableRecord
  2
*D3
  0
BLOCK_RECORD
  5
277
100
AcDbSymbolTableRecord
100
AcDbBlockTableRecord
  2
*D4
  0
BLOCK_RECORD
  5
287
100
AcDbSymbolTableRecord
100
AcDbBlockTableRecord
  2
*X5
  0
BLOCK_RECORD
  5
307
100
AcDbSymbolTableRecord
100
AcDbBlockTableRecord
  2
*D6
  0
BLOCK_RECORD
  5
326
100
AcDbSymbolTableRecord
100
AcDbBlockTableRecord
  2
*D7
  0
BLOCK_RECORD
  5
336
100
AcDbSymbolTableRecord
100
AcDbBlockTableRecord
  2
*D8
  0
BLOCK_RECORD
  5
350
100
AcDbSymbolTableRecord
100
AcDbBlockTableRecord
  2
*D9
  0
ENDTAB
  0
ENDSEC
  0
SECTION
  2
BLOCKS
  0
BLOCK
  5
D
100
AcDbEntity
  8
0
100
AcDbBlockBegin
  2
*MODEL_SPACE
 70
         0
 10
0.0
 20
0.0
 30
0.0
  3
*MODEL_SPACE
  1

  0
ENDBLK
  5
E
100
AcDbEntity
  8
0
100
AcDbBlockEnd
  0
BLOCK
  5
F
100
AcDbEntity
 67
         1
  8
0
100
AcDbBlockBegin
  2
*PAPER_SPACE
 70
         0
 10
0.0
 20
0.0
 30
0.0
  3
*PAPER_SPACE
  1

  0
ENDBLK
  5
10
100
AcDbEntity
 67
         1
  8
0
100
AcDbBlockEnd
  0
BLOCK
  5
202
100
AcDbEntity
  8
0
100
AcDbBlockBegin
  2
*D0
 70
        65
 10
0.0
 20
0.0
 30
0.0
  3
*D0
  1

  0
POINT
  5
205
100
AcDbEntity
  8
DEFPOINTS
  6
CONTINUOUS
 62
         0
100
AcDbPoint
 10
1544.6065673485
 20
-201.8382334432
 30
0.0
  0
POINT
  5
206
100
AcDbEntity
  8
DEFPOINTS
  6
CONTINUOUS
 62
         0
100
AcDbPoint
 10
1524.3475047567
 20
-201.8382334432
 30
0.0
  0
POINT
  5
207
100
AcDbEntity
  8
DEFPOINTS
  6
CONTINUOUS
 62
         0
100
AcDbPoint
 10
1524.3475047567
 20
-246.7142334432
 30
0.0
  0
LINE
  5
208
100
AcDbEntity
  8
L1_120
  6
CONTINUOUS
 62
         4
100
AcDbLine
 10
1526.0975047567
 20
-201.8382334432
 30
0.0
 11
1545.4815673485
 21
-201.8382334432
 31
0.0
  0
LINE
  5
209
100
AcDbEntity
  8
L1_120
  6
CONTINUOUS
 62
         4
100
AcDbLine
 10
1526.0975047567
 20
-246.7142334432
 30
0.0
 11
1545.4815673485
 21
-246.7142334432
 31
0.0
  0
LINE
  5
20A
100
AcDbEntity
  8
L1_120
  6
CONTINUOUS
 62
         4
100
AcDbLine
 10
1544.6065673485
 20
-201.8382334432
 30
0.0
 11
1544.6065673485
 21
-246.7142334432
 31
0.0
  0
SOLID
  5
20B
100
AcDbEntity
  8
L1_120
  6
CONTINUOUS
 62
         4
100
AcDbTrace
 10
1544.6065673485
 20
-201.8382334432
 30
0.0
 11
1545.1315673485
 21
-205.3382334432
 31
0.0
 12
1544.0815673485
 22
-205.3382334432
 32
0.0
 13
1544.6065673485
 23
-201.8382334432
 33
0.0
  0
SOLID
  5
20C
100
AcDbEntity
  8
L1_120
  6
CONTINUOUS
 62
         4
100
AcDbTrace
 10
1544.6065673485
 20
-246.7142334432
 30
0.0
 11
1544.0815673485
 21
-243.2142334432
 31
0.0
 12
1545.1315673485
 22
-243.2142334432
 32
0.0
 13
1544.6065673485
 23
-246.7142334432
 33
0.0
  0
TEXT
  5
20E
100
AcDbEntity
  8
L1_120
  6
CONTINUOUS
 62
         4
100
AcDbText
 10
1541.9815673485
 20
-231.012689207
 30
0.0
 40
3.5
  1
崷44
 50
90.0
  7
BOX
100
AcDbText
  0
ENDBLK
  5
20F
100
AcDbEntity
  8
0
  6
CONTINUOUS
100
AcDbBlockEnd
  0
BLOCK
  5
214
100
AcDbEntity
  8
0
100
AcDbBlockBegin
  2
*D1
 70
        65
 10
0.0
 20
0.0
 30
0.0
  3
*D1
  1

  0
POINT
  5
216
100
AcDbEntity
  8
DEFPOINTS
  6
CONTINUOUS
 62
         0
100
AcDbPoint
 10
1557.1626096495
 20
-197.7762334432
 30
0.0
  0
POINT
  5
217
100
AcDbEntity
  8
DEFPOINTS
  6
CONTINUOUS
 62
         0
100
AcDbPoint
 10
1467.1695834439
 20
-197.7762334432
 30
0.0
  0
POINT
  5
218
100
AcDbEntity
  8
DEFPOINTS
  6
CONTINUOUS
 62
         0
100
AcDbPoint
 10
1467.1695834439
 20
-250.7762334432
 30
0.0
  0
LINE
  5
219
100
AcDbEntity
  8
L1_120
  6
CONTINUOUS
 62
         4
100
AcDbLine
 10
1468.9195834439
 20
-197.7762334432
 30
0.0
 11
1558.0376096495
 21
-197.7762334432
 31
0.0
  0
LINE
  5
21A
100
AcDbEntity
  8
L1_120
  6
CONTINUOUS
 62
         4
100
AcDbLine
 10
1468.9195834439
 20
-250.7762334432
 30
0.0
 11
1558.0376096495
 21
-250.7762334432
 31
0.0
  0
LINE
  5
21B
100
AcDbEntity
  8
L1_120
  6
CONTINUOUS
 62
         4
100
AcDbLine
 10
1557.1626096495
 20
-197.7762334432
 30
0.0
 11
1557.1626096495
 21
-250.7762334432
 31
0.0
  0
SOLID
  5
21C
100
AcDbEntity
  8
L1_120
  6
CONTINUOUS
 62
         4
100
AcDbTrace
 10
1557.1626096495
 20
-197.7762334432
 30
0.0
 11
1557.6876096495
 21
-201.2762334432
 31
0.0
 12
1556.6376096495
 22
-201.2762334432
 32
0.0
 13
1557.1626096495
 23
-197.7762334432
 33
0.0
  0
SOLID
  5
21D
100
AcDbEntity
  8
L1_120
  6
CONTINUOUS
 62
         4
100
AcDbTrace
 10
1557.1626096495
 20
-250.7762334432
 30
0.0
 11
1556.6376096495
 21
-247.2762334432
 31
0.0
 12
1557.6876096495
 22
-247.2762334432
 32
0.0
 13
1557.1626096495
 23
-250.7762334432
 33
0.0
  0
TEXT
  5
21F
100
AcDbEntity
  8
L1_120
  6
CONTINUOUS
 62
         4
100
AcDbText
 10
1554.5376096495
 20
-231.2762334432
 30
0.0
 40
3.5
  1
崷53
 50
90.0
  7
BOX
100
AcDbText
  0
ENDBLK
  5
220
100
AcDbEntity
  8
0
  6
CONTINUOUS
100
AcDbBlockEnd
  0
BLOCK
  5
222
100
AcDbEntity
  8
0
100
AcDbBlockBegin
  2
*D2
 70
        65
 10
0.0
 20
0.0
 30
0.0
  3
*D2
  1

  0
POINT
  5
224
100
AcDbEntity
  8
DEFPOINTS
  6
CONTINUOUS
 62
         0
100
AcDbPoint
 10
1466.4375047567
 20
-197.7741497742
 30
0.0
  0
POINT
  5
225
100
AcDbEntity
  8
DEFPOINTS
  6
CONTINUOUS
 62
         0
100
AcDbPoint
 10
1467.1430086592
 20
-197.7741497742
 30
0.0
  0
POINT
  5
226
100
AcDbEntity
  8
DEFPOINTS
  6
CONTINUOUS
 62
         0
100
AcDbPoint
 10
1467.1430086592
 20
-197.7741497742
 30
0.0
  0
POINT
  5
227
100
AcDbEntity
  8
DEFPOINTS
  6
CONTINUOUS
 62
         0
100
AcDbPoint
 10
1523.4259638525
 20
-202.203714413
 30
0.0
  0
LINE
  5
228
100
AcDbEntity
  8
L1_120
  6
CONTINUOUS
 62
         4
100
AcDbLine
 10
1468.8930086592
 20
-197.7741497742
 30
0.0
 11
1496.930971096
 21
-197.7741497742
 31
0.0
  0
ARC
  5
229
100
AcDbEntity
  8
L1_120
  6
CONTINUOUS
 62
         4
100
AcDbCircle
 10
1467.1430086592
 20
-197.7741497742
 30
0.0
 40
28.9129624367
100
AcDbArc
 50
341.6283513418
 51
355.5
  0
SOLID
  5
22A
100
AcDbEntity
  8
L1_120
  6
CONTINUOUS
 62
         4
100
AcDbTrace
 10
1495.966842082
 20
-200.0426346618
 30
0.0
 11
1496.0017397004
 21
-203.5816185776
 31
0.0
 12
1494.9618711747
 22
-203.4361075842
 32
0.0
 13
1495.966842082
 23
-200.0426346618
 33
0.0
  0
ARC
  5
22B
100
AcDbEntity
  8
L1_120
  6
CONTINUOUS
 62
         4
100
AcDbCircle
 10
1467.1430086592
 20
-197.7741497742
 30
0.0
 40
28.9129624367
100
AcDbArc
 50
0.0
 51
3.4576434217
  0
SOLID
  5
22C
100
AcDbEntity
  8
L1_120
  6
CONTINUOUS
 62
         4
100
AcDbTrace
 10
1496.055971096
 20
-197.7741497742
 30
0.0
 11
1495.3203469955
 21
-194.3122886876
 31
0.0
 12
1496.3684266145
 22
-194.2488134003
 32
0.0
 13
1496.055971096
 23
-197.7741497742
 33
0.0
  0
ARC
  5
22D
100
AcDbEntity
  8
L1_120
  6
CONTINUOUS
 62
         4
100
AcDbCircle
 10
1467.1430086592
 20
-197.7741497742
 30
0.0
 40
28.9129624367
100
AcDbArc
 50
355.5
 51
360.0
  0
SOLID
  5
22E
100
AcDbEntity
  8
L1_120
  6
CONTINUOUS
 62
         4
100
AcDbTrace
 10
1467.1430086592
 20
-197.7741497742
 30
0.0
 11
1468.5349112697
 21
-194.5201933942
 31
0.0
 12
1469.4283599705
 22
-195.0717814824
 32
0.0
 13
1467.1430086592
 23
-197.7741497742
 33
0.0
  0
TEXT
  5
230
100
AcDbEntity
  8
L1_120
  6
CONTINUOUS
 62
         4
100
AcDbText
 10
1497.7533395734
 20
-192.8453905041
 30
0.0
 40
3.5
  1
4.5%%d
  7
BOX
100
AcDbText
  0
ENDBLK
  5
231
100
AcDbEntity
  8
0
  6
CONTINUOUS
100
AcDbBlockEnd
  0
BLOCK
  5
26A
100
AcDbEntity
  8
0
100
AcDbBlockBegin
  2
*D3
 70
        65
 10
0.0
 20
0.0
 30
0.0
  3
*D3
  1

  0
POINT
  5
26C
100
AcDbEntity
  8
DEFPOINTS
  6
CONTINUOUS
 62
         0
100
AcDbPoint
 10
1314.3275047567
 20
-136.1234402664
 30
0.0
  0
POINT
  5
26D
100
AcDbEntity
  8
DEFPOINTS
  6
CONTINUOUS
 62
         0
100
AcDbPoint
 10
1314.3275047567
 20
-190.6787318827
 30
0.0
  0
POINT
  5
26E
100
AcDbEntity
  8
DEFPOINTS
  6
CONTINUOUS
 62
         0
100
AcDbPoint
 10
1524.3475047567
 20
-213.2006239349
 30
0.0
  0
LINE
  5
26F
100
AcDbEntity
  8
L1_120
  6
CONTINUOUS
 62
         4
100
AcDbLine
 10
1314.3275047567
 20
-188.9287318827
 30
0.0
 11
1314.3275047567
 21
-135.2484402664
 31
0.0
  0
LINE
  5
270
100
AcDbEntity
  8
L1_120
  6
CONTINUOUS
 62
         4
100
AcDbLine
 10
1524.3475047567
 20
-211.4506239349
 30
0.0
 11
1524.3475047567
 21
-135.2484402664
 31
0.0
  0
LINE
  5
271
100
AcDbEntity
  8
L1_120
  6
CONTINUOUS
 62
         4
100
AcDbLine
 10
1314.3275047567
 20
-136.1234402664
 30
0.0
 11
1524.3475047567
 21
-136.1234402664
 31
0.0
  0
SOLID
  5
272
100
AcDbEntity
  8
L1_120
  6
CONTINUOUS
 62
         4
100
AcDbTrace
 10
1314.3275047567
 20
-136.1234402664
 30
0.0
 11
1317.8275047567
 21
-135.5984402664
 31
0.0
 12
1317.8275047567
 22
-136.6484402664
 32
0.0
 13
1314.3275047567
 23
-136.1234402664
 33
0.0
  0
SOLID
  5
273
100
AcDbEntity
  8
L1_120
  6
CONTINUOUS
 62
         4
100
AcDbTrace
 10
1524.3475047567
 20
-136.1234402664
 30
0.0
 11
1520.8475047567
 21
-136.6484402664
 31
0.0
 12
1520.8475047567
 22
-135.5984402664
 32
0.0
 13
1524.3475047567
 23
-136.1234402664
 33
0.0
  0
TEXT
  5
275
100
AcDbEntity
  8
L1_120
  6
CONTINUOUS
 62
         4
100
AcDbText
 10
1408.8375047567
 20
-133.4984402664
 30
0.0
 40
3.5
  1
210.02
  7
BOX
100
AcDbText
  0
ENDBLK
  5
276
100
AcDbEntity
  8
0
  6
CONTINUOUS
100
AcDbBlockEnd
  0
BLOCK
  5
278
100
AcDbEntity
  8
0
100
AcDbBlockBegin
  2
*D4
 70
        65
 10
0.0
 20
0.0
 30
0.0
  3
*D4
  1

  0
POINT
  5
27A
100
AcDbEntity
  8
DEFPOINTS
  6
CONTINUOUS
 62
         0
100
AcDbPoint
 10
1364.3275047567
 20
-149.9563587285
 30
0.0
  0
POINT
  5
27B
100
AcDbEntity
  8
DEFPOINTS
  6
CONTINUOUS
 62
         0
100
AcDbPoint
 10
1364.3275047567
 20
-175.2762334432
 30
0.0
  0
POINT
  5
27C
100
AcDbEntity
  8
DEFPOINTS
  6
CONTINUOUS
 62
         0
100
AcDbPoint
 10
1524.3475047567
 20
-213.2006239349
 30
0.0
  0
LINE
  5
27D
100
AcDbEntity
  8
L1_120
  6
CONTINUOUS
 62
         4
100
AcDbLine
 10
1364.3275047567
 20
-173.5262334432
 30
0.0
 11
1364.3275047567
 21
-149.0813587285
 31
0.0
  0
LINE
  5
27E
100
AcDbEntity
  8
L1_120
  6
CONTINUOUS
 62
         4
100
AcDbLine
 10
1524.3475047567
 20
-211.4506239349
 30
0.0
 11
1524.3475047567
 21
-149.0813587285
 31
0.0
  0
LINE
  5
27F
100
AcDbEntity
  8
L1_120
  6
CONTINUOUS
 62
         4
100
AcDbLine
 10
1364.3275047567
 20
-149.9563587285
 30
0.0
 11
1524.3475047567
 21
-149.9563587285
 31
0.0
  0
SOLID
  5
280
100
AcDbEntity
  8
L1_120
  6
CONTINUOUS
 62
         4
100
AcDbTrace
 10
1364.3275047567
 20
-149.9563587285
 30
0.0
 11
1367.8275047567
 21
-149.4313587285
 31
0.0
 12
1367.8275047567
 22
-150.4813587285
 32
0.0
 13
1364.3275047567
 23
-149.9563587285
 33
0.0
  0
SOLID
  5
281
100
AcDbEntity
  8
L1_120
  6
CONTINUOUS
 62
         4
100
AcDbTrace
 10
1524.3475047567
 20
-149.9563587285
 30
0.0
 11
1520.8475047567
 21
-150.4813587285
 31
0.0
 12
1520.8475047567
 22
-149.4313587285
 32
0.0
 13
1524.3475047567
 23
-149.9563587285
 33
0.0
  0
TEXT
  5
283
100
AcDbEntity
  8
L1_120
  6
CONTINUOUS
 62
         4
100
AcDbText
 10
1439.0875047567
 20
-147.3313587285
 30
0.0
 40
3.5
  1
160
  7
BOX
100
AcDbText
  0
ENDBLK
  5
284
100
AcDbEntity
  8
0
  6
CONTINUOUS
100
AcDbBlockEnd
  0
BLOCK
  5
288
100
AcDbEntity
  8
0
100
AcDbBlockBegin
  2
*X5
 70
        65
 10
0.0
 20
0.0
 30
0.0
  3
*X5
  1

  0
LINE
  5
289
100
AcDbEntity
  8
L1_120
  6
CONTINUOUS
 62
         4
100
AcDbLine
 10
1519.7658006354
 20
-360.4504759259
 30
0.0
 11
1523.3470942509
 21
-356.8691823104
 31
0.0
  0
LINE
  5
28A
100
AcDbEntity
  8
L1_120
  6
CONTINUOUS
 62
         4
100
AcDbLine
 10
1515.160733288
 20
-360.8129025862
 30
0.0
 11
1523.3470942509
 21
-352.6265416233
 31
0.0
  0
LINE
  5
28B
100
AcDbEntity
  8
L1_120
  6
CONTINUOUS
 62
         4
100
AcDbLine
 10
1510.5556659406
 20
-361.1753292465
 30
0.0
 11
1520.8733731813
 21
-350.8576220057
 31
0.0
  0
LINE
  5
28C
100
AcDbEntity
  8
L1_120
  6
CONTINUOUS
 62
         4
100
AcDbLine
 10
1505.9505985932
 20
-361.5377559067
 30
0.0
 11
1516.6307324942
 21
-350.8576220057
 31
0.0
  0
LINE
  5
28D
100
AcDbEntity
  8
L1_120
  6
CONTINUOUS
 62
         4
100
AcDbLine
 10
1501.3455312458
 20
-361.900182567
 30
0.0
 11
1512.3880918071
 21
-350.8576220057
 31
0.0
  0
LINE
  5
28E
100
AcDbEntity
  8
L1_120
  6
CONTINUOUS
 62
         4
100
AcDbLine
 10
1496.7404638984
 20
-362.2626092273
 30
0.0
 11
1508.14545112
 21
-350.8576220057
 31
0.0
  0
LINE
  5
28F
100
AcDbEntity
  8
L1_120
  6
CONTINUOUS
 62
         4
100
AcDbLine
 10
1492.135396551
 20
-362.6250358876
 30
0.0
 11
1503.9028104329
 21
-350.8576220057
 31
0.0
  0
LINE
  5
290
100
AcDbEntity
  8
L1_120
  6
CONTINUOUS
 62
         4
100
AcDbLine
 10
1487.5303292036
 20
-362.9874625479
 30
0.0
 11
1499.6601697457
 21
-350.8576220057
 31
0.0
  0
LINE
  5
291
100
AcDbEntity
  8
L1_120
  6
CONTINUOUS
 62
         4
100
AcDbLine
 10
1482.9252618562
 20
-363.3498892082
 30
0.0
 11
1495.4175290586
 21
-350.8576220057
 31
0.0
  0
LINE
  5
292
100
AcDbEntity
  8
L1_120
  6
CONTINUOUS
 62
         4
100
AcDbLine
 10
1520.7955290586
 20
-325.4796220057
 30
0.0
 11
1523.3470942509
 21
-322.9280568135
 31
0.0
  0
LINE
  5
293
100
AcDbEntity
  8
L1_120
  6
CONTINUOUS
 62
         4
100
AcDbLine
 10
1478.3201945088
 20
-363.7123158684
 30
0.0
 11
1491.1748883715
 21
-350.8576220057
 31
0.0
  0
LINE
  5
294
100
AcDbEntity
  8
L1_120
  6
CONTINUOUS
 62
         4
100
AcDbLine
 10
1516.5528883715
 20
-325.4796220057
 30
0.0
 11
1523.3470942509
 21
-318.6854161264
 31
0.0
  0
LINE
  5
295
100
AcDbEntity
  8
L1_120
  6
CONTINUOUS
 62
         4
100
AcDbLine
 10
1473.7151271614
 20
-364.0747425287
 30
0.0
 11
1486.9322476844
 21
-350.8576220057
 31
0.0
  0
LINE
  5
296
100
AcDbEntity
  8
L1_120
  6
CONTINUOUS
 62
         4
100
AcDbLine
 10
1512.3102476844
 20
-325.4796220057
 30
0.0
 11
1521.7471648584
 21
-316.0427048317
 31
0.0
  0
LINE
  5
297
100
AcDbEntity
  8
L1_120
  6
CONTINUOUS
 62
         4
100
AcDbLine
 10
1469.110059814
 20
-364.437169189
 30
0.0
 11
1482.6896069973
 21
-350.8576220057
 31
0.0
  0
LINE
  5
298
100
AcDbEntity
  8
L1_120
  6
CONTINUOUS
 62
         4
100
AcDbLine
 10
1508.0676069973
 20
-325.4796220057
 30
0.0
 11
1517.8140657817
 21
-315.7331632213
 31
0.0
  0
LINE
  5
299
100
AcDbEntity
  8
L1_120
  6
CONTINUOUS
 62
         4
100
AcDbLine
 10
1464.6359663101
 20
-364.6686220057
 30
0.0
 11
1478.4469663101
 21
-350.8576220057
 31
0.0
  0
LINE
  5
29A
100
AcDbEntity
  8
L1_120
  6
CONTINUOUS
 62
         4
100
AcDbLine
 10
1503.8249663101
 20
-325.4796220057
 30
0.0
 11
1513.880966705
 21
-315.4236216108
 31
0.0
  0
LINE
  5
29B
100
AcDbEntity
  8
L1_120
  6
CONTINUOUS
 62
         4
100
AcDbLine
 10
1460.393325623
 20
-364.6686220057
 30
0.0
 11
1473.643325623
 21
-351.4186220057
 31
0.0
  0
LINE
  5
29C
100
AcDbEntity
  8
L1_120
  6
CONTINUOUS
 62
         4
100
AcDbLine
 10
1499.582325623
 20
-325.4796220057
 30
0.0
 11
1509.9478676283
 21
-315.1140800004
 31
0.0
  0
LINE
  5
29D
100
AcDbEntity
  8
L1_120
  6
CONTINUOUS
 62
         4
100
AcDbLine
 10
1456.1506849359
 20
-364.6686220057
 30
0.0
 11
1469.4006849359
 21
-351.4186220057
 31
0.0
  0
LINE
  5
29E
100
AcDbEntity
  8
L1_120
  6
CONTINUOUS
 62
         4
100
AcDbLine
 10
1495.3396849359
 20
-325.4796220057
 30
0.0
 11
1506.0147685517
 21
-314.80453839
 31
0.0
  0
LINE
  5
29F
100
AcDbEntity
  8
L1_120
  6
CONTINUOUS
 62
         4
100
AcDbLine
 10
1451.9080442488
 20
-364.6686220057
 30
0.0
 11
1465.3470942509
 21
-351.2295720037
 31
0.0
  0
LINE
  5
2A0
100
AcDbEntity
  8
L1_120
  6
CONTINUOUS
 62
         4
100
AcDbLine
 10
1491.0970442488
 20
-325.4796220057
 30
0.0
 11
1502.081669475
 21
-314.4949967795
 31
0.0
  0
LINE
  5
2A1
100
AcDbEntity
  8
L1_120
  6
CONTINUOUS
 62
         4
100
AcDbLine
 10
1447.6654035617
 20
-364.6686220057
 30
0.0
 11
1465.3470942509
 21
-346.9869313165
 31
0.0
  0
LINE
  5
2A2
100
AcDbEntity
  8
L1_120
  6
CONTINUOUS
 62
         4
100
AcDbLine
 10
1486.8544035617
 20
-325.4796220057
 30
0.0
 11
1498.1485703983
 21
-314.1854551691
 31
0.0
  0
LINE
  5
2A3
100
AcDbEntity
  8
L1_120
  6
CONTINUOUS
 62
         4
100
AcDbLine
 10
1443.4227628745
 20
-364.6686220057
 30
0.0
 11
1462.3227628745
 21
-345.7686220057
 31
0.0
  0
LINE
  5
2A4
100
AcDbEntity
  8
L1_120
  6
CONTINUOUS
 62
         4
100
AcDbLine
 10
1482.6117628745
 20
-325.4796220057
 30
0.0
 11
1494.2154713216
 21
-313.8759135586
 31
0.0
  0
LINE
  5
2A5
100
AcDbEntity
  8
L1_120
  6
CONTINUOUS
 62
         4
100
AcDbLine
 10
1439.1801221874
 20
-364.6686220057
 30
0.0
 11
1458.0801221874
 21
-345.7686220057
 31
0.0
  0
LINE
  5
2A6
100
AcDbEntity
  8
L1_120
  6
CONTINUOUS
 62
         4
100
AcDbLine
 10
1478.3691221874
 20
-325.4796220057
 30
0.0
 11
1490.282372245
 21
-313.5663719482
 31
0.0
  0
LINE
  5
2A7
100
AcDbEntity
  8
L1_120
  6
CONTINUOUS
 62
         4
100
AcDbLine
 10
1434.9374815003
 20
-364.6686220057
 30
0.0
 11
1453.8374815003
 21
-345.7686220057
 31
0.0
  0
LINE
  5
2A8
100
AcDbEntity
  8
L1_120
  6
CONTINUOUS
 62
         4
100
AcDbLine
 10
1474.6874815003
 20
-324.9186220057
 30
0.0
 11
1486.3492731683
 21
-313.2568303377
 31
0.0
  0
LINE
  5
2A9
100
AcDbEntity
  8
L1_120
  6
CONTINUOUS
 62
         4
100
AcDbLine
 10
1430.6948408132
 20
-364.6686220057
 30
0.0
 11
1449.5948408132
 21
-345.7686220057
 31
0.0
  0
LINE
  5
2AA
100
AcDbEntity
  8
L1_120
  6
CONTINUOUS
 62
         4
100
AcDbLine
 10
1464.7948408132
 20
-330.5686220057
 30
0.0
 11
1465.3470942509
 21
-330.0163685681
 31
0.0
  0
LINE
  5
2AB
100
AcDbEntity
  8
L1_120
  6
CONTINUOUS
 62
         4
100
AcDbLine
 10
1470.4448408132
 20
-324.9186220057
 30
0.0
 11
1482.4161740916
 21
-312.9472887273
 31
0.0
  0
LINE
  5
2AC
100
AcDbEntity
  8
L1_120
  6
CONTINUOUS
 62
         4
100
AcDbLine
 10
1426.4522001261
 20
-364.6686220057
 30
0.0
 11
1445.3522001261
 21
-345.7686220057
 31
0.0
  0
LINE
  5
2AD
100
AcDbEntity
  8
L1_120
  6
CONTINUOUS
 62
         4
100
AcDbLine
 10
1460.5522001261
 20
-330.5686220057
 30
0.0
 11
1465.3470942509
 21
-325.7737278809
 31
0.0
  0
LINE
  5
2AE
100
AcDbEntity
  8
L1_120
  6
CONTINUOUS
 62
         4
100
AcDbLine
 10
1466.2022001261
 20
-324.9186220057
 30
0.0
 11
1478.4830750149
 21
-312.6377471168
 31
0.0
  0
LINE
  5
2AF
100
AcDbEntity
  8
L1_120
  6
CONTINUOUS
 62
         4
100
AcDbLine
 10
1422.2095594389
 20
-364.6686220057
 30
0.0
 11
1441.1095594389
 21
-345.7686220057
 31
0.0
  0
LINE
  5
2B0
100
AcDbEntity
  8
L1_120
  6
CONTINUOUS
 62
         4
100
AcDbLine
 10
1456.3095594389
 20
-330.5686220057
 30
0.0
 11
1474.5499759383
 21
-312.3282055064
 31
0.0
  0
LINE
  5
2B1
100
AcDbEntity
  8
L1_120
  6
CONTINUOUS
 62
         4
100
AcDbLine
 10
1417.9669187518
 20
-364.6686220057
 30
0.0
 11
1436.8669187518
 21
-345.7686220057
 31
0.0
  0
LINE
  5
2B2
100
AcDbEntity
  8
L1_120
  6
CONTINUOUS
 62
         4
100
AcDbLine
 10
1452.0669187518
 20
-330.5686220057
 30
0.0
 11
1470.6168768616
 21
-312.018663896
 31
0.0
  0
LINE
  5
2B3
100
AcDbEntity
  8
L1_120
  6
CONTINUOUS
 62
         4
100
AcDbLine
 10
1390.2242780647
 20
-388.1686220057
 30
0.0
 11
1392.3275047567
 21
-386.0653953137
 31
0.0
  0
LINE
  5
2B4
100
AcDbEntity
  8
L1_120
  6
CONTINUOUS
 62
         4
100
AcDbLine
 10
1413.7242780647
 20
-364.6686220057
 30
0.0
 11
1434.2242780647
 21
-344.1686220057
 31
0.0
  0
LINE
  5
2B5
100
AcDbEntity
  8
L1_120
  6
CONTINUOUS
 62
         4
100
AcDbLine
 10
1447.8242780647
 20
-330.5686220057
 30
0.0
 11
1466.6837777849
 21
-311.7091222855
 31
0.0
  0
LINE
  5
2B6
100
AcDbEntity
  8
L1_120
  6
CONTINUOUS
 62
         4
100
AcDbLine
 10
1386.3578776173
 20
-387.7923817661
 30
0.0
 11
1392.3275047567
 21
-381.8227546266
 31
0.0
  0
LINE
  5
2B7
100
AcDbEntity
  8
L1_120
  6
CONTINUOUS
 62
         4
100
AcDbLine
 10
1409.4816373776
 20
-364.6686220057
 30
0.0
 11
1429.9816373776
 21
-344.1686220057
 31
0.0
  0
LINE
  5
2B8
100
AcDbEntity
  8
L1_120
  6
CONTINUOUS
 62
         4
100
AcDbLine
 10
1443.5816373776
 20
-330.5686220057
 30
0.0
 11
1462.4816373776
 21
-311.6686220057
 31
0.0
  0
LINE
  5
2B9
100
AcDbEntity
  8
L1_120
  6
CONTINUOUS
 62
         4
100
AcDbLine
 10
1385.2025047567
 20
-384.7051139395
 30
0.0
 11
1392.3275047567
 21
-377.5801139395
 31
0.0
  0
LINE
  5
2BA
100
AcDbEntity
  8
L1_120
  6
CONTINUOUS
 62
         4
100
AcDbLine
 10
1405.2389966905
 20
-364.6686220057
 30
0.0
 11
1425.7389966905
 21
-344.1686220057
 31
0.0
  0
LINE
  5
2BB
100
AcDbEntity
  8
L1_120
  6
CONTINUOUS
 62
         4
100
AcDbLine
 10
1439.3389966905
 20
-330.5686220057
 30
0.0
 11
1458.2389966905
 21
-311.6686220057
 31
0.0
  0
LINE
  5
2BC
100
AcDbEntity
  8
L1_120
  6
CONTINUOUS
 62
         4
100
AcDbLine
 10
1377.4963560034
 20
-388.1686220057
 30
0.0
 11
1392.3275047567
 21
-373.3374732523
 31
0.0
  0
LINE
  5
2BD
100
AcDbEntity
  8
L1_120
  6
CONTINUOUS
 62
         4
100
AcDbLine
 10
1402.5275047567
 20
-363.1374732523
 30
0.0
 11
1421.4963560033
 21
-344.1686220057
 31
0.0
  0
LINE
  5
2BE
100
AcDbEntity
  8
L1_120
  6
CONTINUOUS
 62
         4
100
AcDbLine
 10
1433.4963560034
 20
-332.1686220057
 30
0.0
 11
1453.9963560034
 21
-311.6686220057
 31
0.0
  0
LINE
  5
2BF
100
AcDbEntity
  8
L1_120
  6
CONTINUOUS
 62
         4
100
AcDbLine
 10
1373.2537153162
 20
-388.1686220057
 30
0.0
 11
1392.3275047567
 21
-369.0948325652
 31
0.0
  0
LINE
  5
2C0
100
AcDbEntity
  8
L1_120
  6
CONTINUOUS
 62
         4
100
AcDbLine
 10
1396.7537153162
 20
-364.6686220057
 30
0.0
 11
1397.3275047567
 21
-364.0948325652
 31
0.0
  0
LINE
  5
2C1
100
AcDbEntity
  8
L1_120
  6
CONTINUOUS
 62
         4
100
AcDbLine
 10
1402.5275047567
 20
-358.8948325652
 30
0.0
 11
1417.2537153162
 21
-344.1686220057
 31
0.0
  0
LINE
  5
2C2
100
AcDbEntity
  8
L1_120
  6
CONTINUOUS
 62
         4
100
AcDbLine
 10
1429.2537153162
 20
-332.1686220057
 30
0.0
 11
1449.7537153162
 21
-311.6686220057
 31
0.0
  0
LINE
  5
2C3
100
AcDbEntity
  8
L1_120
  6
CONTINUOUS
 62
         4
100
AcDbLine
 10
1369.0110746291
 20
-388.1686220057
 30
0.0
 11
1397.3275047567
 21
-359.8521918781
 31
0.0
  0
LINE
  5
2C4
100
AcDbEntity
  8
L1_120
  6
CONTINUOUS
 62
         4
100
AcDbLine
 10
1400.6690734093
 20
-356.5106232255
 30
0.0
 11
1413.0110746291
 21
-344.1686220057
 31
0.0
  0
LINE
  5
2C5
100
AcDbEntity
  8
L1_120
  6
CONTINUOUS
 62
         4
100
AcDbLine
 10
1425.0110746291
 20
-332.1686220057
 30
0.0
 11
1445.5110746291
 21
-311.6686220057
 31
0.0
  0
LINE
  5
2C6
100
AcDbEntity
  8
L1_120
  6
CONTINUOUS
 62
         4
100
AcDbLine
 10
1364.768433942
 20
-388.1686220057
 30
0.0
 11
1408.768433942
 21
-344.1686220057
 31
0.0
  0
LINE
  5
2C7
100
AcDbEntity
  8
L1_120
  6
CONTINUOUS
 62
         4
100
AcDbLine
 10
1420.768433942
 20
-332.1686220057
 30
0.0
 11
1441.268433942
 21
-311.6686220057
 31
0.0
  0
LINE
  5
2C8
100
AcDbEntity
  8
L1_120
  6
CONTINUOUS
 62
         4
100
AcDbLine
 10
1363.3275047567
 20
-385.3669105039
 30
0.0
 11
1404.5257932549
 21
-344.1686220057
 31
0.0
  0
LINE
  5
2C9
100
AcDbEntity
  8
L1_120
  6
CONTINUOUS
 62
         4
100
AcDbLine
 10
1416.5257932549
 20
-332.1686220057
 30
0.0
 11
1437.0257932549
 21
-311.6686220057
 31
0.0
  0
LINE
  5
2CA
100
AcDbEntity
  8
L1_120
  6
CONTINUOUS
 62
         4
100
AcDbLine
 10
1363.3275047567
 20
-381.1242698168
 30
0.0
 11
1400.2831525678
 21
-344.1686220057
 31
0.0
  0
LINE
  5
2CB
100
AcDbEntity
  8
L1_120
  6
CONTINUOUS
 62
         4
100
AcDbLine
 10
1412.2831525678
 20
-332.1686220057
 30
0.0
 11
1432.7831525678
 21
-311.6686220057
 31
0.0
  0
LINE
  5
2CC
100
AcDbEntity
  8
L1_120
  6
CONTINUOUS
 62
         4
100
AcDbLine
 10
1363.4703634962
 20
-376.7387703902
 30
0.0
 11
1389.0405118806
 21
-351.1686220057
 31
0.0
  0
LINE
  5
2CD
100
AcDbEntity
  8
L1_120
  6
CONTINUOUS
 62
         4
100
AcDbLine
 10
1391.8275047567
 20
-348.3816291296
 30
0.0
 11
1396.0405118806
 21
-344.1686220057
 31
0.0
  0
LINE
  5
2CE
100
AcDbEntity
  8
L1_120
  6
CONTINUOUS
 62
         4
100
AcDbLine
 10
1408.0405118806
 20
-332.1686220057
 30
0.0
 11
1428.5405118806
 21
-311.6686220057
 31
0.0
  0
LINE
  5
2CF
100
AcDbEntity
  8
L1_120
  6
CONTINUOUS
 62
         4
100
AcDbLine
 10
1359.9659489822
 20
-376.000544217
 30
0.0
 11
1371.2978711935
 21
-364.6686220057
 31
0.0
  0
LINE
  5
2D0
100
AcDbEntity
  8
L1_120
  6
CONTINUOUS
 62
         4
100
AcDbLine
 10
1375.8275047567
 20
-360.1389884425
 30
0.0
 11
1386.8275047567
 21
-349.1389884425
 31
0.0
  0
LINE
  5
2D1
100
AcDbEntity
  8
L1_120
  6
CONTINUOUS
 62
         4
100
AcDbLine
 10
1403.7978711935
 20
-332.1686220057
 30
0.0
 11
1424.2978711935
 21
-311.6686220057
 31
0.0
  0
LINE
  5
2D2
100
AcDbEntity
  8
L1_120
  6
CONTINUOUS
 62
         4
100
AcDbLine
 10
1355.925338804
 20
-375.7985137081
 30
0.0
 11
1367.0552305064
 21
-364.6686220057
 31
0.0
  0
LINE
  5
2D3
100
AcDbEntity
  8
L1_120
  6
CONTINUOUS
 62
         4
100
AcDbLine
 10
1375.8275047567
 20
-355.8963477554
 30
0.0
 11
1383.0552305064
 21
-348.6686220057
 31
0.0
  0
LINE
  5
2D4
100
AcDbEntity
  8
L1_120
  6
CONTINUOUS
 62
         4
100
AcDbLine
 10
1399.5552305064
 20
-332.1686220057
 30
0.0
 11
1420.0552305064
 21
-311.6686220057
 31
0.0
  0
LINE
  5
2D5
100
AcDbEntity
  8
L1_120
  6
CONTINUOUS
 62
         4
100
AcDbLine
 10
1351.8847286258
 20
-375.5964831992
 30
0.0
 11
1359.2204589424
 21
-368.2607528826
 31
0.0
  0
LINE
  5
2D6
100
AcDbEntity
  8
L1_120
  6
CONTINUOUS
 62
         4
100
AcDbLine
 10
1375.8275047567
 20
-351.6537070683
 30
0.0
 11
1378.1582410396
 21
-349.3229707854
 31
0.0
  0
LINE
  5
2D7
100
AcDbEntity
  8
L1_120
  6
CONTINUOUS
 62
         4
100
AcDbLine
 10
1395.3125898193
 20
-332.1686220057
 30
0.0
 11
1415.8125898193
 21
-311.6686220057
 31
0.0
  0
LINE
  5
2D8
100
AcDbEntity
  8
L1_120
  6
CONTINUOUS
 62
         4
100
AcDbLine
 10
1347.8441184476
 20
-375.3944526903
 30
0.0
 11
1353.5699491322
 21
-369.6686220057
 31
0.0
  0
LINE
  5
2D9
100
AcDbEntity
  8
L1_120
  6
CONTINUOUS
 62
         4
100
AcDbLine
 10
1391.8275047567
 20
-331.4110663812
 30
0.0
 11
1411.5699491322
 21
-311.6686220057
 31
0.0
  0
LINE
  5
2DA
100
AcDbEntity
  8
L1_120
  6
CONTINUOUS
 62
         4
100
AcDbLine
 10
1343.8035082694
 20
-375.1924221814
 30
0.0
 11
1349.327308445
 21
-369.6686220057
 31
0.0
  0
LINE
  5
2DB
100
AcDbEntity
  8
L1_120
  6
CONTINUOUS
 62
         4
100
AcDbLine
 10
1391.8275047567
 20
-327.168425694
 30
0.0
 11
1399.2293040887
 21
-319.766626362
 31
0.0
  0
LINE
  5
2DC
100
AcDbEntity
  8
L1_120
  6
CONTINUOUS
 62
         4
100
AcDbLine
 10
1402.5275047567
 20
-316.468425694
 30
0.0
 11
1407.327308445
 21
-311.6686220057
 31
0.0
  0
LINE
  5
2DD
100
AcDbEntity
  8
L1_120
  6
CONTINUOUS
 62
         4
100
AcDbLine
 10
1339.7628980912
 20
-374.9903916724
 30
0.0
 11
1345.0846677579
 21
-369.6686220057
 31
0.0
  0
LINE
  5
2DE
100
AcDbEntity
  8
L1_120
  6
CONTINUOUS
 62
         4
100
AcDbLine
 10
1389.5846677579
 20
-325.1686220057
 30
0.0
 11
1397.3275047567
 21
-317.4257850069
 31
0.0
  0
LINE
  5
2DF
100
AcDbEntity
  8
L1_120
  6
CONTINUOUS
 62
         4
100
AcDbLine
 10
1402.5275047567
 20
-312.2257850069
 30
0.0
 11
1403.0846677579
 21
-311.6686220057
 31
0.0
  0
LINE
  5
2E0
100
AcDbEntity
  8
L1_120
  6
CONTINUOUS
 62
         4
100
AcDbLine
 10
1335.722287913
 20
-374.7883611635
 30
0.0
 11
1340.8420270708
 21
-369.6686220057
 31
0.0
  0
LINE
  5
2E1
100
AcDbEntity
  8
L1_120
  6
CONTINUOUS
 62
         4
100
AcDbLine
 10
1382.8420270708
 20
-327.6686220057
 30
0.0
 11
1397.3275047567
 21
-313.1831443198
 31
0.0
  0
LINE
  5
2E2
100
AcDbEntity
  8
L1_120
  6
CONTINUOUS
 62
         4
100
AcDbLine
 10
1331.6816777348
 20
-374.5863306546
 30
0.0
 11
1336.6145792139
 21
-369.6534291756
 31
0.0
  0
LINE
  5
2E3
100
AcDbEntity
  8
L1_120
  6
CONTINUOUS
 62
         4
100
AcDbLine
 10
1378.8527564844
 20
-327.415251905
 30
0.0
 11
1394.67189918
 21
-311.5961092094
 31
0.0
  0
LINE
  5
2E4
100
AcDbEntity
  8
L1_120
  6
CONTINUOUS
 62
         4
100
AcDbLine
 10
1327.6410675566
 20
-374.3843001457
 30
0.0
 11
1334.8001692078
 21
-367.2251984945
 31
0.0
  0
LINE
  5
2E5
100
AcDbEntity
  8
L1_120
  6
CONTINUOUS
 62
         4
100
AcDbLine
 10
1376.1630300679
 20
-325.8623376344
 30
0.0
 11
1392.4635547111
 21
-309.5618129911
 31
0.0
  0
LINE
  5
2E6
100
AcDbEntity
  8
L1_120
  6
CONTINUOUS
 62
         4
100
AcDbLine
 10
1323.6004573784
 20
-374.1822696368
 30
0.0
 11
1333.1141050094
 21
-364.6686220057
 31
0.0
  0
LINE
  5
2E7
100
AcDbEntity
  8
L1_120
  6
CONTINUOUS
 62
         4
100
AcDbLine
 10
1375.8275047567
 20
-321.9552222584
 30
0.0
 11
1392.3275047567
 21
-305.4552222584
 31
0.0
  0
LINE
  5
2E8
100
AcDbEntity
  8
L1_120
  6
CONTINUOUS
 62
         4
100
AcDbLine
 10
1319.5598472002
 20
-373.9802391279
 30
0.0
 11
1328.8714643223
 21
-364.6686220057
 31
0.0
  0
LINE
  5
2E9
100
AcDbEntity
  8
L1_120
  6
CONTINUOUS
 62
         4
100
AcDbLine
 10
1375.8275047567
 20
-317.7125815713
 30
0.0
 11
1392.3275047567
 21
-301.2125815713
 31
0.0
  0
LINE
  5
2EA
100
AcDbEntity
  8
L1_120
  6
CONTINUOUS
 62
         4
100
AcDbLine
 10
1315.5192370219
 20
-373.778208619
 30
0.0
 11
1324.6288236352
 21
-364.6686220057
 31
0.0
  0
LINE
  5
2EB
100
AcDbEntity
  8
L1_120
  6
CONTINUOUS
 62
         4
100
AcDbLine
 10
1375.8275047567
 20
-313.4699408842
 30
0.0
 11
1392.3275047567
 21
-296.9699408842
 31
0.0
  0
LINE
  5
2EC
100
AcDbEntity
  8
L1_120
  6
CONTINUOUS
 62
         4
100
AcDbLine
 10
1313.3275047567
 20
-371.7273001971
 30
0.0
 11
1320.3861829481
 21
-364.6686220057
 31
0.0
  0
LINE
  5
2ED
100
AcDbEntity
  8
L1_120
  6
CONTINUOUS
 62
         4
100
AcDbLine
 10
1373.5852471978
 20
-311.469557756
 30
0.0
 11
1392.3275047567
 21
-292.7273001971
 31
0.0
  0
LINE
  5
2EE
100
AcDbEntity
  8
L1_120
  6
CONTINUOUS
 62
         4
100
AcDbLine
 10
1313.3275047567
 20
-367.48465951
 30
0.0
 11
1316.143542261
 21
-364.6686220057
 31
0.0
  0
LINE
  5
2EF
100
AcDbEntity
  8
L1_120
  6
CONTINUOUS
 62
         4
100
AcDbLine
 10
1369.143542261
 20
-311.6686220057
 30
0.0
 11
1392.1747477641
 21
-288.6374165026
 31
0.0
  0
LINE
  5
2F0
100
AcDbEntity
  8
L1_120
  6
CONTINUOUS
 62
         4
100
AcDbLine
 10
1364.9009015738
 20
-311.6686220057
 30
0.0
 11
1384.4009015738
 21
-292.1686220057
 31
0.0
  0
LINE
  5
2F1
100
AcDbEntity
  8
L1_120
  6
CONTINUOUS
 62
         4
100
AcDbLine
 10
1385.2025047567
 20
-291.3670188228
 30
0.0
 11
1388.4009015738
 21
-288.1686220057
 31
0.0
  0
LINE
  5
2F2
100
AcDbEntity
  8
L1_120
  6
CONTINUOUS
 62
         4
100
AcDbLine
 10
1362.1046784274
 20
-310.2222044651
 30
0.0
 11
1381.4525047567
 21
-290.8743781357
 31
0.0
  0
LINE
  5
2F3
100
AcDbEntity
  8
L1_120
  6
CONTINUOUS
 62
         4
100
AcDbLine
 10
1359.7239179085
 20
-308.3603242969
 30
0.0
 11
1375.3156201996
 21
-292.7686220057
 31
0.0
  0
LINE
  5
2F4
100
AcDbEntity
  8
L1_120
  6
CONTINUOUS
 62
         4
100
AcDbLine
 10
1375.3275047567
 20
-292.7567374486
 30
0.0
 11
1379.9156201996
 21
-288.1686220057
 31
0.0
  0
LINE
  5
2F5
100
AcDbEntity
  8
L1_120
  6
CONTINUOUS
 62
         4
100
AcDbLine
 10
1356.7475650953
 20
-307.0940364229
 30
0.0
 11
1370.0680660064
 21
-293.7735355118
 31
0.0
  0
LINE
  5
2F6
100
AcDbEntity
  8
L1_120
  6
CONTINUOUS
 62
         4
100
AcDbLine
 10
1375.3275047567
 20
-288.5140967615
 30
0.0
 11
1375.6729795125
 21
-288.1686220057
 31
0.0
  0
LINE
  5
2F7
100
AcDbEntity
  8
L1_120
  6
CONTINUOUS
 62
         4
100
AcDbLine
 10
1352.9303388254
 20
-306.6686220057
 30
0.0
 11
1359.225224829
 21
-300.3737360021
 31
0.0
  0
LINE
  5
2F8
100
AcDbEntity
  8
L1_120
  6
CONTINUOUS
 62
         4
100
AcDbLine
 10
1363.3275047567
 20
-296.2714560744
 30
0.0
 11
1366.8303388254
 21
-292.7686220057
 31
0.0
  0
LINE
  5
2F9
100
AcDbEntity
  8
L1_120
  6
CONTINUOUS
 62
         4
100
AcDbLine
 10
1348.6876981382
 20
-306.6686220057
 30
0.0
 11
1354.7592872636
 21
-300.5970328804
 31
0.0
  0
LINE
  5
2FA
100
AcDbEntity
  8
L1_120
  6
CONTINUOUS
 62
         4
100
AcDbLine
 10
1363.3275047567
 20
-292.0288153872
 30
0.0
 11
1365.3275047567
 21
-290.0288153872
 31
0.0
  0
LINE
  5
2FB
100
AcDbEntity
  8
L1_120
  6
CONTINUOUS
 62
         4
100
AcDbLine
 10
1344.4450574511
 20
-306.6686220057
 30
0.0
 11
1350.2933496982
 21
-300.8203297586
 31
0.0
  0
LINE
  5
2FC
100
AcDbEntity
  8
L1_120
  6
CONTINUOUS
 62
         4
100
AcDbLine
 10
1340.202416764
 20
-306.6686220057
 30
0.0
 11
1345.8274121328
 21
-301.0436266369
 31
0.0
  0
LINE
  5
2FD
100
AcDbEntity
  8
L1_120
  6
CONTINUOUS
 62
         4
100
AcDbLine
 10
1330.9597760769
 20
-311.6686220057
 30
0.0
 11
1341.3614745674
 21
-301.2669235152
 31
0.0
  0
LINE
  5
2FE
100
AcDbEntity
  8
L1_120
  6
CONTINUOUS
 62
         4
100
AcDbLine
 10
1326.7171353898
 20
-311.6686220057
 30
0.0
 11
1336.895537002
 21
-301.4902203935
 31
0.0
  0
LINE
  5
2FF
100
AcDbEntity
  8
L1_120
  6
CONTINUOUS
 62
         4
100
AcDbLine
 10
1322.4744947027
 20
-311.6686220057
 30
0.0
 11
1332.4295994366
 21
-301.7135172717
 31
0.0
  0
LINE
  5
300
100
AcDbEntity
  8
L1_120
  6
CONTINUOUS
 62
         4
100
AcDbLine
 10
1318.2318540155
 20
-311.6686220057
 30
0.0
 11
1327.9636618713
 21
-301.93681415
 31
0.0
  0
LINE
  5
301
100
AcDbEntity
  8
L1_120
  6
CONTINUOUS
 62
         4
100
AcDbLine
 10
1314.296049287
 20
-311.3617860472
 30
0.0
 11
1323.4977243059
 21
-302.1601110283
 31
0.0
  0
LINE
  5
302
100
AcDbEntity
  8
L1_120
  6
CONTINUOUS
 62
         4
100
AcDbLine
 10
1313.3275047567
 20
-308.0876898903
 30
0.0
 11
1319.0317867405
 21
-302.3834079065
 31
0.0
  0
LINE
  5
303
100
AcDbEntity
  8
L1_120
  6
CONTINUOUS
 62
         4
100
AcDbLine
 10
1313.5874626426
 20
-303.5850913173
 30
0.0
 11
1314.3414756289
 21
-302.831078331
 31
0.0
  0
ENDBLK
  5
304
100
AcDbEntity
  8
0
  6
CONTINUOUS
100
AcDbBlockEnd
  0
BLOCK
  5
308
100
AcDbEntity
  8
0
100
AcDbBlockBegin
  2
*D6
 70
        65
 10
0.0
 20
0.0
 30
0.0
  3
*D6
  1

  0
POINT
  5
30A
100
AcDbEntity
  8
DEFPOINTS
  6
CONTINUOUS
 62
         0
100
AcDbPoint
 10
1465.3470942509
 20
-386.7559688616
 30
0.0
  0
POINT
  5
30B
100
AcDbEntity
  8
DEFPOINTS
  6
CONTINUOUS
 62
         0
100
AcDbPoint
 10
1465.3470942509
 20
-346.6686220057
 30
0.0
  0
POINT
  5
30C
100
AcDbEntity
  8
DEFPOINTS
  6
CONTINUOUS
 62
         0
100
AcDbPoint
 10
1523.3470942509
 20
-358.7578410224
 30
0.0
  0
LINE
  5
30D
100
AcDbEntity
  8
L1_120
  6
CONTINUOUS
 62
         4
100
AcDbLine
 10
1465.3470942509
 20
-348.4186220057
 30
0.0
 11
1465.3470942509
 21
-387.6309688616
 31
0.0
  0
LINE
  5
30E
100
AcDbEntity
  8
L1_120
  6
CONTINUOUS
 62
         4
100
AcDbLine
 10
1523.3470942509
 20
-360.5078410224
 30
0.0
 11
1523.3470942509
 21
-387.6309688616
 31
0.0
  0
LINE
  5
30F
100
AcDbEntity
  8
L1_120
  6
CONTINUOUS
 62
         4
100
AcDbLine
 10
1465.3470942509
 20
-386.7559688616
 30
0.0
 11
1523.3470942509
 21
-386.7559688616
 31
0.0
  0
SOLID
  5
310
100
AcDbEntity
  8
L1_120
  6
CONTINUOUS
 62
         4
100
AcDbTrace
 10
1465.3470942509
 20
-386.7559688616
 30
0.0
 11
1468.8470942509
 21
-386.2309688616
 31
0.0
 12
1468.8470942509
 22
-387.2809688616
 32
0.0
 13
1465.3470942509
 23
-386.7559688616
 33
0.0
  0
SOLID
  5
311
100
AcDbEntity
  8
L1_120
  6
CONTINUOUS
 62
         4
100
AcDbTrace
 10
1523.3470942509
 20
-386.7559688616
 30
0.0
 11
1519.8470942509
 21
-387.2809688616
 31
0.0
 12
1519.8470942509
 22
-386.2309688616
 32
0.0
 13
1523.3470942509
 23
-386.7559688616
 33
0.0
  0
TEXT
  5
313
100
AcDbEntity
  8
L1_120
  6
CONTINUOUS
 62
         4
100
AcDbText
 10
1492.1868612715
 20
-382.6959688616
 30
0.0
 40
3.5
  1
58
  7
BOX
100
AcDbText
  0
ENDBLK
  5
314
100
AcDbEntity
  8
0
  6
CONTINUOUS
100
AcDbBlockEnd
  0
BLOCK
  5
327
100
AcDbEntity
  8
0
100
AcDbBlockBegin
  2
*D7
 70
        65
 10
0.0
 20
0.0
 30
0.0
  3
*D7
  1

  0
POINT
  5
329
100
AcDbEntity
  8
DEFPOINTS
  6
CONTINUOUS
 62
         0
100
AcDbPoint
 10
1587.3371438481
 20
-317.3381032751
 30
0.0
  0
POINT
  5
32A
100
AcDbEntity
  8
DEFPOINTS
  6
CONTINUOUS
 62
         0
100
AcDbPoint
 10
1575.4525656501
 20
-317.3381032751
 30
0.0
  0
POINT
  5
32B
100
AcDbEntity
  8
DEFPOINTS
  6
CONTINUOUS
 62
         0
100
AcDbPoint
 10
1575.4525656501
 20
-329.3381032751
 30
0.0
  0
LINE
  5
32C
100
AcDbEntity
  8
L1_120
  6
CONTINUOUS
 62
         4
100
AcDbLine
 10
1577.2025656501
 20
-317.3381032751
 30
0.0
 11
1588.2121438481
 21
-317.3381032751
 31
0.0
  0
LINE
  5
32D
100
AcDbEntity
  8
L1_120
  6
CONTINUOUS
 62
         4
100
AcDbLine
 10
1577.2025656501
 20
-329.3381032751
 30
0.0
 11
1588.2121438481
 21
-329.3381032751
 31
0.0
  0
LINE
  5
32E
100
AcDbEntity
  8
L1_120
  6
CONTINUOUS
 62
         4
100
AcDbLine
 10
1587.3371438481
 20
-317.3381032751
 30
0.0
 11
1587.3371438481
 21
-284.8552305408
 31
0.0
  0
SOLID
  5
32F
100
AcDbEntity
  8
L1_120
  6
CONTINUOUS
 62
         4
100
AcDbTrace
 10
1587.3371438481
 20
-317.3381032751
 30
0.0
 11
1586.8121438481
 21
-313.8381032751
 31
0.0
 12
1587.8621438481
 22
-313.8381032751
 32
0.0
 13
1587.3371438481
 23
-317.3381032751
 33
0.0
  0
LINE
  5
330
100
AcDbEntity
  8
L1_120
  6
CONTINUOUS
 62
         4
100
AcDbLine
 10
1587.3371438481
 20
-329.3381032751
 30
0.0
 11
1587.3371438481
 21
-336.3381032751
 31
0.0
  0
SOLID
  5
331
100
AcDbEntity
  8
L1_120
  6
CONTINUOUS
 62
         4
100
AcDbTrace
 10
1587.3371438481
 20
-329.3381032751
 30
0.0
 11
1587.8621438481
 21
-332.8381032751
 31
0.0
 12
1586.8121438481
 22
-332.8381032751
 32
0.0
 13
1587.3371438481
 23
-329.3381032751
 33
0.0
  0
LINE
  5
332
100
AcDbEntity
  8
L1_120
  6
CONTINUOUS
 62
         4
100
AcDbLine
 10
1587.3371438481
 20
-317.3381032751
 30
0.0
 11
1587.3371438481
 21
-329.3381032751
 31
0.0
  0
TEXT
  5
334
100
AcDbEntity
  8
L1_120
  6
CONTINUOUS
 62
         4
100
AcDbText
 10
1584.7121438481
 20
-314.6052305408
 30
0.0
 40
3.5
  1
M16xP1.0
 50
90.0
  7
BOX
100
AcDbText
  0
ENDBLK
  5
335
100
AcDbEntity
  8
0
  6
CONTINUOUS
100
AcDbBlockEnd
  0
BLOCK
  5
337
100
AcDbEntity
  8
0
100
AcDbBlockBegin
  2
*D8
 70
        65
 10
0.0
 20
0.0
 30
0.0
  3
*D8
  1

  0
POINT
  5
339
100
AcDbEntity
  8
DEFPOINTS
  6
CONTINUOUS
 62
         0
100
AcDbPoint
 10
1556.9525656501
 20
-342.1196127314
 30
0.0
  0
POINT
  5
33A
100
AcDbEntity
  8
DEFPOINTS
  6
CONTINUOUS
 62
         0
100
AcDbPoint
 10
1556.9525656501
 20
-327.9524626291
 30
0.0
  0
POINT
  5
33B
100
AcDbEntity
  8
DEFPOINTS
  6
CONTINUOUS
 62
         0
100
AcDbPoint
 10
1576.9525656501
 20
-327.8381032751
 30
0.0
  0
LINE
  5
33C
100
AcDbEntity
  8
L1_120
  6
CONTINUOUS
 62
         4
100
AcDbLine
 10
1556.9525656501
 20
-329.7024626291
 30
0.0
 11
1556.9525656501
 21
-342.9946127314
 31
0.0
  0
LINE
  5
33D
100
AcDbEntity
  8
L1_120
  6
CONTINUOUS
 62
         4
100
AcDbLine
 10
1576.9525656501
 20
-329.5881032751
 30
0.0
 11
1576.9525656501
 21
-342.9946127314
 31
0.0
  0
LINE
  5
33E
100
AcDbEntity
  8
L1_120
  6
CONTINUOUS
 62
         4
100
AcDbLine
 10
1556.9525656501
 20
-342.1196127314
 30
0.0
 11
1576.9525656501
 21
-342.1196127314
 31
0.0
  0
SOLID
  5
33F
100
AcDbEntity
  8
L1_120
  6
CONTINUOUS
 62
         4
100
AcDbTrace
 10
1556.9525656501
 20
-342.1196127314
 30
0.0
 11
1560.4525656501
 21
-341.5946127314
 31
0.0
 12
1560.4525656501
 22
-342.6446127314
 32
0.0
 13
1556.9525656501
 23
-342.1196127314
 33
0.0
  0
SOLID
  5
340
100
AcDbEntity
  8
L1_120
  6
CONTINUOUS
 62
         4
100
AcDbTrace
 10
1576.9525656501
 20
-342.1196127314
 30
0.0
 11
1573.4525656501
 21
-342.6446127314
 31
0.0
 12
1573.4525656501
 22
-341.5946127314
 32
0.0
 13
1576.9525656501
 23
-342.1196127314
 33
0.0
  0
TEXT
  5
342
100
AcDbEntity
  8
L1_120
  6
CONTINUOUS
 62
         4
100
AcDbText
 10
1563.7695724432
 20
-339.4946127314
 30
0.0
 40
3.5
  1
20
  7
BOX
100
AcDbText
  0
ENDBLK
  5
343
100
AcDbEntity
  8
0
  6
CONTINUOUS
100
AcDbBlockEnd
  0
BLOCK
  5
351
100
AcDbEntity
  8
0
100
AcDbBlockBegin
  2
*D9
 70
        65
 10
0.0
 20
0.0
 30
0.0
  3
*D9
  1

  0
POINT
  5
353
100
AcDbEntity
  8
DEFPOINTS
  6
CONTINUOUS
 62
         0
100
AcDbPoint
 10
1532.9676660858
 20
-310.7488276477
 30
0.0
  0
POINT
  5
354
100
AcDbEntity
  8
DEFPOINTS
  6
CONTINUOUS
 62
         0
100
AcDbPoint
 10
1532.9676660858
 20
-321.4136023783
 30
0.0
  0
POINT
  5
355
100
AcDbEntity
  8
DEFPOINTS
  6
CONTINUOUS
 62
         0
100
AcDbPoint
 10
1539.6343327508
 20
-321.4136023783
 30
0.0
  0
LINE
  5
356
100
AcDbEntity
  8
L1_120
  6
CONTINUOUS
 62
         4
100
AcDbLine
 10
1532.9676660858
 20
-319.6636023783
 30
0.0
 11
1532.9676660858
 21
-309.8738276477
 31
0.0
  0
LINE
  5
357
100
AcDbEntity
  8
L1_120
  6
CONTINUOUS
 62
         4
100
AcDbLine
 10
1539.6343327508
 20
-319.6636023783
 30
0.0
 11
1539.6343327508
 21
-309.8738276477
 31
0.0
  0
LINE
  5
358
100
AcDbEntity
  8
L1_120
  6
CONTINUOUS
 62
         4
100
AcDbLine
 10
1532.9676660858
 20
-310.7488276477
 30
0.0
 11
1525.9676660858
 21
-310.7488276477
 31
0.0
  0
SOLID
  5
359
100
AcDbEntity
  8
L1_120
  6
CONTINUOUS
 62
         4
100
AcDbTrace
 10
1532.9676660858
 20
-310.7488276477
 30
0.0
 11
1529.4676660858
 21
-311.2738276477
 31
0.0
 12
1529.4676660858
 22
-310.2238276477
 32
0.0
 13
1532.9676660858
 23
-310.7488276477
 33
0.0
  0
LINE
  5
35A
100
AcDbEntity
  8
L1_120
  6
CONTINUOUS
 62
         4
100
AcDbLine
 10
1539.6343327508
 20
-310.7488276477
 30
0.0
 11
1546.6343327508
 21
-310.7488276477
 31
0.0
  0
SOLID
  5
35B
100
AcDbEntity
  8
L1_120
  6
CONTINUOUS
 62
         4
100
AcDbTrace
 10
1539.6343327508
 20
-310.7488276477
 30
0.0
 11
1543.1343327508
 21
-310.2238276477
 31
0.0
 12
1543.1343327508
 22
-311.2738276477
 32
0.0
 13
1539.6343327508
 23
-310.7488276477
 33
0.0
  0
LINE
  5
35C
100
AcDbEntity
  8
L1_120
  6
CONTINUOUS
 62
         4
100
AcDbLine
 10
1532.9676660858
 20
-310.7488276477
 30
0.0
 11
1539.6343327508
 21
-310.7488276477
 31
0.0
  0
TEXT
  5
35E
100
AcDbEntity
  8
L1_120
  6
CONTINUOUS
 62
         4
100
AcDbText
 10
1533.7960041387
 20
-306.6888276477
 30
0.0
 40
3.5
  1
8
  7
BOX
100
AcDbText
  0
ENDBLK
  5
35F
100
AcDbEntity
  8
0
  6
CONTINUOUS
100
AcDbBlockEnd
  0
ENDSEC
  0
SECTION
  2
ENTITIES
  0
ARC
  5
25
100
AcDbEntity
  8
L1_120
  6
CONTINUOUS
 62
         7
100
AcDbCircle
 10
1391.3275047567
 20
-387.1686220057
 30
0.0
 40
1.0
100
AcDbArc
 50
270.0
 51
360.0
  0
ARC
  5
26
100
AcDbEntity
  8
L1_120
  6
CONTINUOUS
 62
         7
100
AcDbCircle
 10
1391.3275047567
 20
-289.1686220057
 30
0.0
 40
1.0
100
AcDbArc
 50
0.0
 51
90.0
  0
LINE
  5
27
100
AcDbEntity
  8
L1_120
  6
CENTER
 62
         1
100
AcDbLine
 10
1256.5288136166
 20
-210.1506455357
 30
0.0
 11
1261.1278060383
 21
-210.1506455357
 31
0.0
  0
LINE
  5
28
100
AcDbEntity
  8
L1_120
  6
CENTER
 62
         1
100
AcDbLine
 10
1258.6331451996
 20
-208.3141757172
 30
0.0
 11
1258.6331451996
 21
-212.1297091825
 31
0.0
  0
LINE
  5
29
100
AcDbEntity
  8
L1_120
  6
CONTINUOUS
 62
         7
100
AcDbLine
 10
1255.1767070085
 20
-214.0306455357
 30
0.0
 11
1258.6331451996
 21
-214.0306455357
 31
0.0
  0
LINE
  5
2A
100
AcDbEntity
  8
L1_120
  6
CENTER
 62
         1
100
AcDbLine
 10
1256.5288136166
 20
-239.9306455357
 30
0.0
 11
1261.1278060383
 21
-239.9306455357
 31
0.0
  0
LINE
  5
2B
100
AcDbEntity
  8
L1_120
  6
CENTER
 62
         1
100
AcDbLine
 10
1258.6331451996
 20
-238.0941757172
 30
0.0
 11
1258.6331451996
 21
-241.9097091825
 31
0.0
  0
LINE
  5
2C
100
AcDbEntity
  8
L1_120
  6
CONTINUOUS
 62
         7
100
AcDbLine
 10
1255.1767070085
 20
-236.0506455357
 30
0.0
 11
1258.6331451996
 21
-236.0506455357
 31
0.0
  0
LINE
  5
2D
100
AcDbEntity
  8
L1_120
  6
CONTINUOUS
 62
         7
100
AcDbLine
 10
1258.6331451996
 20
-235.0506455357
 30
0.0
 11
1255.6088503574
 21
-235.0506455357
 31
0.0
  0
LINE
  5
2E
100
AcDbEntity
  8
L1_120
  6
CONTINUOUS
 62
         7
100
AcDbLine
 10
1258.6331451996
 20
-215.0306455357
 30
0.0
 11
1255.6088503574
 21
-215.0306455357
 31
0.0
  0
ARC
  5
2F
100
AcDbEntity
  8
L1_120
  6
CONTINUOUS
 62
         7
100
AcDbCircle
 10
1258.6331451996
 20
-240.9306455357
 30
0.0
 40
4.88
100
AcDbArc
 50
11.940259608
 51
90.0
  0
ARC
  5
30
100
AcDbEntity
  8
L1_120
  6
CONTINUOUS
 62
         7
100
AcDbCircle
 10
1258.6331451996
 20
-239.9306455357
 30
0.0
 40
4.88
100
AcDbArc
 50
2.69334998
 51
90.0
  0
ARC
  5
31
100
AcDbEntity
  8
L1_120
  6
CONTINUOUS
 62
         7
100
AcDbCircle
 10
1258.6331451996
 20
-209.1506455357
 30
0.0
 40
4.88
100
AcDbArc
 50
270.0
 51
348.059740392
  0
ARC
  5
32
100
AcDbEntity
  8
L1_120
  6
CONTINUOUS
 62
         7
100
AcDbCircle
 10
1258.6331451996
 20
-210.1506455357
 30
0.0
 40
4.88
100
AcDbArc
 50
270.0
 51
357.30665002
  0
LINE
  5
33
100
AcDbEntity
  8
L1_120
  6
DASHED
 62
         2
100
AcDbLine
 10
1226.0721451996
 20
-179.6406455357
 30
0.0
 11
1236.0721451996
 21
-179.6406455357
 31
0.0
  0
LINE
  5
34
100
AcDbEntity
  8
L1_120
  6
DASHED
 62
         2
100
AcDbLine
 10
1226.0721451996
 20
-175.2912736803
 30
0.0
 11
1226.0721451996
 21
-179.6406455357
 31
0.0
  0
LINE
  5
35
100
AcDbEntity
  8
L1_120
  6
DASHED
 62
         2
100
AcDbLine
 10
1233.0721451996
 20
-179.6406455357
 30
0.0
 11
1231.0721451996
 21
-180.795346074
 31
0.0
  0
LINE
  5
36
100
AcDbEntity
  8
L1_120
  6
DASHED
 62
         2
100
AcDbLine
 10
1229.0721451996
 20
-179.6406455357
 30
0.0
 11
1231.0721451996
 21
-180.795346074
 31
0.0
  0
LINE
  5
37
100
AcDbEntity
  8
L1_120
  6
DASHED
 62
         2
100
AcDbLine
 10
1236.0721451996
 20
-175.2912736803
 30
0.0
 11
1236.0721451996
 21
-179.6406455357
 31
0.0
  0
LINE
  5
38
100
AcDbEntity
  8
L1_120
  6
CENTER
 62
         1
100
AcDbLine
 10
1201.4068136166
 20
-210.1506455357
 30
0.0
 11
1206.0058060383
 21
-210.1506455357
 31
0.0
  0
LINE
  5
39
100
AcDbEntity
  8
L1_120
  6
CONTINUOUS
 62
         7
100
AcDbLine
 10
1206.9675833907
 20
-214.0306455357
 30
0.0
 11
1203.5111451996
 21
-214.0306455357
 31
0.0
  0
CIRCLE
  5
3A
100
AcDbEntity
  8
L1_120
  6
CONTINUOUS
 62
         7
100
AcDbCircle
 10
1231.0721451996
 20
-225.0406455357
 30
0.0
 40
6.0
  0
LINE
  5
3B
100
AcDbEntity
  8
L1_120
  6
CENTER
 62
         1
100
AcDbLine
 10
1201.4068136166
 20
-239.9306455357
 30
0.0
 11
1206.0058060383
 21
-239.9306455357
 31
0.0
  0
LINE
  5
3C
100
AcDbEntity
  8
L1_120
  6
CENTER
 62
         1
100
AcDbLine
 10
1203.5111451996
 20
-238.0941757172
 30
0.0
 11
1203.5111451996
 21
-241.9097091825
 31
0.0
  0
ARC
  5
3D
100
AcDbEntity
  8
L1_120
  6
CONTINUOUS
 62
         7
100
AcDbCircle
 10
1203.5111451996
 20
-240.9306455357
 30
0.0
 40
4.88
100
AcDbArc
 50
90.0
 51
168.059740392
  0
ARC
  5
3E
100
AcDbEntity
  8
L1_120
  6
CONTINUOUS
 62
         7
100
AcDbCircle
 10
1203.5111451996
 20
-239.9306455357
 30
0.0
 40
4.88
100
AcDbArc
 50
90.0
 51
177.30665002
  0
LINE
  5
3F
100
AcDbEntity
  8
L1_120
  6
CONTINUOUS
 62
         7
100
AcDbLine
 10
1206.9675833907
 20
-236.0506455357
 30
0.0
 11
1203.5111451996
 21
-236.0506455357
 31
0.0
  0
LINE
  5
40
100
AcDbEntity
  8
L1_120
  6
CONTINUOUS
 62
         7
100
AcDbLine
 10
1206.5354400418
 20
-235.0506455357
 30
0.0
 11
1203.5111451996
 21
-235.0506455357
 31
0.0
  0
LINE
  5
41
100
AcDbEntity
  8
L1_120
  6
CONTINUOUS
 62
         7
100
AcDbLine
 10
1206.5354400418
 20
-215.0306455357
 30
0.0
 11
1203.5111451996
 21
-215.0306455357
 31
0.0
  0
CIRCLE
  5
42
100
AcDbEntity
  8
L1_120
  6
CONTINUOUS
 62
         7
100
AcDbCircle
 10
1231.0721451996
 20
-225.0406455357
 30
0.0
 40
11.0
  0
LINE
  5
43
100
AcDbEntity
  8
L1_120
  6
CENTER
 62
         1
100
AcDbLine
 10
1203.5111451996
 20
-210.1506455357
 30
0.0
 11
1231.0721451996
 21
-225.0406455357
 31
0.0
  0
ARC
  5
44
100
AcDbEntity
  8
L1_120
  6
CONTINUOUS
 62
         7
100
AcDbCircle
 10
1203.5111451996
 20
-209.1506455357
 30
0.0
 40
4.88
100
AcDbArc
 50
191.940259608
 51
270.0
  0
ARC
  5
45
100
AcDbEntity
  8
L1_120
  6
CONTINUOUS
 62
         7
100
AcDbCircle
 10
1203.5111451996
 20
-210.1506455357
 30
0.0
 40
4.88
100
AcDbArc
 50
182.69334998
 51
270.0
  0
CIRCLE
  5
46
100
AcDbEntity
  8
L1_120
  6
CONTINUOUS
 62
         7
100
AcDbCircle
 10
1231.0721451996
 20
-225.0406455357
 30
0.0
 40
35.5950062383
  0
CIRCLE
  5
47
100
AcDbEntity
  8
L1_120
  6
CONTINUOUS
 62
         7
100
AcDbCircle
 10
1231.0721451996
 20
-225.0406455357
 30
0.0
 40
38.0
  0
CIRCLE
  5
48
100
AcDbEntity
  8
L1_120
  6
CONTINUOUS
 62
         7
100
AcDbCircle
 10
1231.0721451996
 20
-225.0406455357
 30
0.0
 40
50.0
  0
ARC
  5
49
100
AcDbEntity
  8
L1_120
  6
CONTINUOUS
 62
         4
100
AcDbCircle
 10
1231.0721451996
 20
-225.0406455357
 30
0.0
 40
12.0
100
AcDbArc
 50
275.3348619204
 51
546.1167435019
  0
CIRCLE
  5
4A
100
AcDbEntity
  8
L1_120
  6
CONTINUOUS
 62
         7
100
AcDbCircle
 10
1231.0721451996
 20
-225.0406455357
 30
0.0
 40
26.5
  0
ARC
  5
4B
100
AcDbEntity
  8
L1_120
  6
CONTINUOUS
 62
         7
100
AcDbCircle
 10
1364.3275047567
 20
-289.1686220057
 30
0.0
 40
1.0
100
AcDbArc
 50
90.0
 51
180.0
  0
ARC
  5
4C
100
AcDbEntity
  8
L1_120
  6
CONTINUOUS
 62
         7
100
AcDbCircle
 10
1364.3275047567
 20
-387.1686220057
 30
0.0
 40
1.0
100
AcDbArc
 50
180.0
 51
270.0
  0
LINE
  5
4D
100
AcDbEntity
  8
L1_120
  6
CONTINUOUS
 62
         7
100
AcDbLine
 10
1375.3275047567
 20
-288.1686220057
 30
0.0
 11
1375.3275047567
 21
-292.7686220057
 31
0.0
  0
LINE
  5
4E
100
AcDbEntity
  8
L1_120
  6
CONTINUOUS
 62
         7
100
AcDbLine
 10
1372.3275047567
 20
-292.7686220057
 30
0.0
 11
1370.3275047567
 21
-293.9233225441
 31
0.0
  0
LINE
  5
4F
100
AcDbEntity
  8
L1_120
  6
CENTER
 62
         1
100
AcDbLine
 10
1370.3275047567
 20
-284.8679944499
 30
0.0
 11
1370.3275047567
 21
-297.2348551749
 31
0.0
  0
LINE
  5
50
100
AcDbEntity
  8
L1_120
  6
CONTINUOUS
 62
         7
100
AcDbLine
 10
1365.3275047567
 20
-288.1686220057
 30
0.0
 11
1365.3275047567
 21
-292.7686220057
 31
0.0
  0
LINE
  5
51
100
AcDbEntity
  8
L1_120
  6
CONTINUOUS
 62
         7
100
AcDbLine
 10
1368.3275047567
 20
-292.7686220057
 30
0.0
 11
1370.3275047567
 21
-293.9233225441
 31
0.0
  0
LINE
  5
52
100
AcDbEntity
  8
L1_120
  6
CONTINUOUS
 62
         7
100
AcDbLine
 10
1365.3275047567
 20
-292.7686220057
 30
0.0
 11
1375.3275047567
 21
-292.7686220057
 31
0.0
  0
LINE
  5
53
100
AcDbEntity
  8
L1_120
  6
CONTINUOUS
 62
         7
100
AcDbLine
 10
1314.8275047567
 20
-328.1586220057
 30
0.0
 11
1326.3275047567
 21
-328.1586220057
 31
0.0
  0
LINE
  5
54
100
AcDbEntity
  8
L1_120
  6
CONTINUOUS
 62
         7
100
AcDbLine
 10
1315.2276295228
 20
-302.5736157674
 30
0.0
 11
1361.3660205533
 21
-300.2666962159
 31
0.0
  0
LINE
  5
55
100
AcDbEntity
  8
L1_120
  6
CONTINUOUS
 62
         7
100
AcDbLine
 10
1314.8275047567
 20
-311.6686220057
 30
0.0
 11
1333.3241290838
 21
-311.6686220057
 31
0.0
  0
LINE
  5
56
100
AcDbEntity
  8
L1_120
  6
CONTINUOUS
 62
         7
100
AcDbLine
 10
1314.8275047567
 20
-348.1786220057
 30
0.0
 11
1326.3275047567
 21
-348.1786220057
 31
0.0
  0
LINE
  5
57
100
AcDbEntity
  8
L1_120
  6
CONTINUOUS
 62
         7
100
AcDbLine
 10
1314.8275047567
 20
-364.6686220057
 30
0.0
 11
1333.3241290838
 21
-364.6686220057
 31
0.0
  0
LINE
  5
58
100
AcDbEntity
  8
L1_120
  6
CONTINUOUS
 62
         7
100
AcDbLine
 10
1314.8275047567
 20
-328.1586220057
 30
0.0
 11
1313.3275047567
 21
-326.6586220057
 31
0.0
  0
LINE
  5
59
100
AcDbEntity
  8
L1_120
  6
CONTINUOUS
 62
         7
100
AcDbLine
 10
1313.3275047567
 20
-349.6786220057
 30
0.0
 11
1313.3275047567
 21
-371.7661235663
 31
0.0
  0
ARC
  5
5A
100
AcDbEntity
  8
L1_120
  6
CONTINUOUS
 62
         7
100
AcDbCircle
 10
1315.3275047567
 20
-371.7661235663
 30
0.0
 40
2.0
100
AcDbArc
 50
180.0
 51
267.1375947739
  0
LINE
  5
5B
100
AcDbEntity
  8
L1_120
  6
CONTINUOUS
 62
         7
100
AcDbLine
 10
1314.8275047567
 20
-348.1786220057
 30
0.0
 11
1313.3275047567
 21
-349.6786220057
 31
0.0
  0
LINE
  5
5C
100
AcDbEntity
  8
L1_120
  6
CONTINUOUS
 62
         7
100
AcDbLine
 10
1314.8275047567
 20
-364.6686220057
 30
0.0
 11
1313.3275047567
 21
-365.5346474095
 31
0.0
  0
LINE
  5
5D
100
AcDbEntity
  8
L1_120
  6
CONTINUOUS
 62
         7
100
AcDbLine
 10
1313.3275047567
 20
-304.5711204452
 30
0.0
 11
1313.3275047567
 21
-326.6586220057
 31
0.0
  0
LINE
  5
5E
100
AcDbEntity
  8
L1_120
  6
CONTINUOUS
 62
         7
100
AcDbLine
 10
1314.8275047567
 20
-311.6686220057
 30
0.0
 11
1313.3275047567
 21
-310.8025966019
 31
0.0
  0
ARC
  5
5F
100
AcDbEntity
  8
L1_120
  6
CONTINUOUS
 62
         7
100
AcDbCircle
 10
1315.3275047567
 20
-304.5711204452
 30
0.0
 40
2.0
100
AcDbArc
 50
92.8624052261
 51
180.0
  0
LINE
  5
60
100
AcDbEntity
  8
L1_120
  6
CONTINUOUS
 62
         7
100
AcDbLine
 10
1375.8275047567
 20
-313.384012101
 30
0.0
 11
1375.8275047567
 21
-362.9532319105
 31
0.0
  0
LINE
  5
61
100
AcDbEntity
  8
L1_120
  6
CENTER
 62
         1
100
AcDbLine
 10
1383.3275047567
 20
-285.3569561711
 30
0.0
 11
1383.3275047567
 21
-389.3217962088
 31
0.0
  0
LINE
  5
62
100
AcDbEntity
  8
L1_120
  6
CONTINUOUS
 62
         7
100
AcDbLine
 10
1373.3275047567
 20
-311.6686220057
 30
0.0
 11
1373.3275047567
 21
-364.6686220057
 31
0.0
  0
LINE
  5
63
100
AcDbEntity
  8
L1_120
  6
CENTER
 62
         1
100
AcDbLine
 10
1348.3275047567
 20
-327.9775553664
 30
0.0
 11
1348.3275047567
 21
-352.0330930117
 31
0.0
  0
LINE
  5
64
100
AcDbEntity
  8
L1_120
  6
CONTINUOUS
 62
         7
100
AcDbLine
 10
1363.3275047567
 20
-311.6686220057
 30
0.0
 11
1363.3275047567
 21
-364.6686220057
 31
0.0
  0
LINE
  5
65
100
AcDbEntity
  8
L1_120
  6
CONTINUOUS
 62
         7
100
AcDbLine
 10
1333.3241290838
 20
-311.6686220057
 30
0.0
 11
1333.3241290838
 21
-364.6686220057
 31
0.0
  0
LINE
  5
66
100
AcDbEntity
  8
L1_120
  6
CONTINUOUS
 62
         4
100
AcDbLine
 10
1336.2108804297
 20
-307.493146296
 30
0.0
 11
1336.2108804297
 21
-368.645302999
 31
0.0
  0
ARC
  5
67
100
AcDbEntity
  8
L1_120
  6
CONTINUOUS
 62
         7
100
AcDbCircle
 10
1353.5807104119
 20
-357.6686220057
 30
0.0
 40
12.0
100
AcDbArc
 50
270.0
 51
324.3146652874
  0
CIRCLE
  5
68
100
AcDbEntity
  8
L1_120
  6
CONTINUOUS
 62
         7
100
AcDbCircle
 10
1348.3275047567
 20
-338.1686220057
 30
0.0
 40
6.0
  0
LINE
  5
69
100
AcDbEntity
  8
L1_120
  6
CONTINUOUS
 62
         7
100
AcDbLine
 10
1336.7882306989
 20
-369.6686220057
 30
0.0
 11
1353.5807104119
 21
-369.6686220057
 31
0.0
  0
LINE
  5
6A
100
AcDbEntity
  8
L1_120
  6
CONTINUOUS
 62
         7
100
AcDbLine
 10
1333.3241290838
 20
-364.6686220057
 30
0.0
 11
1335.9222052951
 21
-369.1686220057
 31
0.0
  0
ARC
  5
6B
100
AcDbEntity
  8
L1_120
  6
CONTINUOUS
 62
         7
100
AcDbCircle
 10
1336.7882306989
 20
-368.6686220057
 30
0.0
 40
1.0
100
AcDbArc
 50
210.0
 51
270.0
  0
ARC
  5
6C
100
AcDbEntity
  8
L1_120
  6
CONTINUOUS
 62
         7
100
AcDbCircle
 10
1326.3275047567
 20
-330.1586220057
 30
0.0
 40
2.0
100
AcDbArc
 50
0.0
 51
90.0
  0
ARC
  5
6D
100
AcDbEntity
  8
L1_120
  6
CONTINUOUS
 62
         7
100
AcDbCircle
 10
1326.3275047567
 20
-346.1786220057
 30
0.0
 40
2.0
100
AcDbArc
 50
270.0
 51
360.0
  0
LINE
  5
6E
100
AcDbEntity
  8
L1_120
  6
CONTINUOUS
 62
         7
100
AcDbLine
 10
1328.3275047567
 20
-330.1586220057
 30
0.0
 11
1328.3275047567
 21
-346.1786220057
 31
0.0
  0
LINE
  5
6F
100
AcDbEntity
  8
L1_120
  6
CONTINUOUS
 62
         7
100
AcDbLine
 10
1380.0799094925
 20
-388.1686220057
 30
0.0
 11
1381.4525047567
 21
-385.7912172699
 31
0.0
  0
LINE
  5
70
100
AcDbEntity
  8
L1_120
  6
CONTINUOUS
 62
         7
100
AcDbLine
 10
1386.5751000209
 20
-388.1686220057
 30
0.0
 11
1385.2025047567
 21
-385.7912172699
 31
0.0
  0
LINE
  5
71
100
AcDbEntity
  8
L1_120
  6
CONTINUOUS
 62
         7
100
AcDbLine
 10
1364.3275047567
 20
-388.1686220057
 30
0.0
 11
1380.0799094925
 21
-388.1686220057
 31
0.0
  0
LINE
  5
72
100
AcDbEntity
  8
L1_120
  6
CONTINUOUS
 62
         7
100
AcDbLine
 10
1386.5751000209
 20
-388.1686220057
 30
0.0
 11
1391.3275047567
 21
-388.1686220057
 31
0.0
  0
LINE
  5
73
100
AcDbEntity
  8
L1_120
  6
CONTINUOUS
 62
         7
100
AcDbLine
 10
1363.3275047567
 20
-377.7552631394
 30
0.0
 11
1363.3275047567
 21
-387.1686220057
 31
0.0
  0
LINE
  5
74
100
AcDbEntity
  8
L1_120
  6
CONTINUOUS
 62
         7
100
AcDbLine
 10
1363.3275047567
 20
-364.6686220057
 30
0.0
 11
1373.3275047567
 21
-364.6686220057
 31
0.0
  0
LINE
  5
75
100
AcDbEntity
  8
L1_120
  6
CONTINUOUS
 62
         7
100
AcDbLine
 10
1381.9525047567
 20
-384.1686220057
 30
0.0
 11
1384.7025047567
 21
-384.1686220057
 31
0.0
  0
ARC
  5
76
100
AcDbEntity
  8
L1_120
  6
CONTINUOUS
 62
         7
100
AcDbCircle
 10
1384.7025047567
 20
-384.6686220057
 30
0.0
 40
0.5
100
AcDbArc
 50
0.0
 51
90.0
  0
LINE
  5
77
100
AcDbEntity
  8
L1_120
  6
CONTINUOUS
 62
         7
100
AcDbLine
 10
1385.2025047567
 20
-385.7912172699
 30
0.0
 11
1385.2025047567
 21
-384.6686220057
 31
0.0
  0
LINE
  5
78
100
AcDbEntity
  8
L1_120
  6
CONTINUOUS
 62
         7
100
AcDbLine
 10
1381.4525047567
 20
-385.7912172699
 30
0.0
 11
1381.4525047567
 21
-384.6686220057
 31
0.0
  0
ARC
  5
79
100
AcDbEntity
  8
L1_120
  6
CONTINUOUS
 62
         7
100
AcDbCircle
 10
1381.9525047567
 20
-384.6686220057
 30
0.0
 40
0.5
100
AcDbArc
 50
90.0
 51
180.0
  0
ARC
  5
7A
100
AcDbEntity
  8
L1_120
  6
CONTINUOUS
 62
         7
100
AcDbCircle
 10
1353.5807104119
 20
-318.6686220057
 30
0.0
 40
12.0
100
AcDbArc
 50
35.6853347126
 51
90.0
  0
LINE
  5
7B
100
AcDbEntity
  8
L1_120
  6
CONTINUOUS
 62
         7
100
AcDbLine
 10
1336.7882306989
 20
-306.6686220057
 30
0.0
 11
1353.5807104119
 21
-306.6686220057
 31
0.0
  0
LINE
  5
7C
100
AcDbEntity
  8
L1_120
  6
CONTINUOUS
 62
         7
100
AcDbLine
 10
1333.3241290838
 20
-311.6686220057
 30
0.0
 11
1335.9222052951
 21
-307.1686220057
 31
0.0
  0
ARC
  5
7D
100
AcDbEntity
  8
L1_120
  6
CONTINUOUS
 62
         7
100
AcDbCircle
 10
1336.7882306989
 20
-307.6686220057
 30
0.0
 40
1.0
100
AcDbArc
 50
90.0
 51
150.0
  0
LINE
  5
7E
100
AcDbEntity
  8
L1_120
  6
CONTINUOUS
 62
         7
100
AcDbLine
 10
1380.0799094925
 20
-288.1686220057
 30
0.0
 11
1381.4525047567
 21
-290.5460267415
 31
0.0
  0
LINE
  5
7F
100
AcDbEntity
  8
L1_120
  6
CONTINUOUS
 62
         7
100
AcDbLine
 10
1375.3275047567
 20
-288.1686220057
 30
0.0
 11
1375.3275047567
 21
-292.7686220057
 31
0.0
  0
ARC
  5
80
100
AcDbEntity
  8
L1_120
  6
CONTINUOUS
 62
         7
100
AcDbCircle
 10
1373.3275047567
 20
-313.384012101
 30
0.0
 40
2.5
100
AcDbArc
 50
0.0
 51
52.0525999271
  0
LINE
  5
81
100
AcDbEntity
  8
L1_120
  6
CONTINUOUS
 62
         7
100
AcDbLine
 10
1372.3275047567
 20
-292.7686220057
 30
0.0
 11
1370.3275047567
 21
-293.9233225441
 31
0.0
  0
LINE
  5
82
100
AcDbEntity
  8
L1_120
  6
CENTER
 62
         1
100
AcDbLine
 10
1370.3275047567
 20
-284.8679944499
 30
0.0
 11
1370.3275047567
 21
-297.2348551749
 31
0.0
  0
ARC
  5
83
100
AcDbEntity
  8
L1_120
  6
CONTINUOUS
 62
         7
100
AcDbCircle
 10
1374.2781321735
 20
-312.6330752438
 30
0.0
 40
1.354201807
100
AcDbArc
 50
64.3255808876
 51
134.5863634012
  0
LINE
  5
84
100
AcDbEntity
  8
L1_120
  6
CONTINUOUS
 62
         7
100
AcDbLine
 10
1365.3275047567
 20
-288.1686220057
 30
0.0
 11
1365.3275047567
 21
-292.7686220057
 31
0.0
  0
LINE
  5
85
100
AcDbEntity
  8
L1_120
  6
CONTINUOUS
 62
         7
100
AcDbLine
 10
1363.3275047567
 20
-289.1686220057
 30
0.0
 11
1363.3275047567
 21
-298.581980872
 31
0.0
  0
LINE
  5
86
100
AcDbEntity
  8
L1_120
  6
CONTINUOUS
 62
         7
100
AcDbLine
 10
1368.3275047567
 20
-292.7686220057
 30
0.0
 11
1370.3275047567
 21
-293.9233225441
 31
0.0
  0
LINE
  5
87
100
AcDbEntity
  8
L1_120
  6
CONTINUOUS
 62
         7
100
AcDbLine
 10
1363.3275047567
 20
-311.6686220057
 30
0.0
 11
1373.3275047567
 21
-311.6686220057
 31
0.0
  0
LINE
  5
88
100
AcDbEntity
  8
L1_120
  6
CONTINUOUS
 62
         7
100
AcDbLine
 10
1364.3275047567
 20
-288.1686220057
 30
0.0
 11
1380.0799094925
 21
-288.1686220057
 31
0.0
  0
LINE
  5
89
100
AcDbEntity
  8
L1_120
  6
CONTINUOUS
 62
         7
100
AcDbLine
 10
1365.3275047567
 20
-292.7686220057
 30
0.0
 11
1375.3275047567
 21
-292.7686220057
 31
0.0
  0
LINE
  5
8A
100
AcDbEntity
  8
L1_120
  6
CONTINUOUS
 62
         7
100
AcDbLine
 10
1386.5751000209
 20
-288.1686220057
 30
0.0
 11
1385.2025047567
 21
-290.5460267415
 31
0.0
  0
LINE
  5
8B
100
AcDbEntity
  8
L1_120
  6
CONTINUOUS
 62
         7
100
AcDbLine
 10
1381.9525047567
 20
-292.1686220057
 30
0.0
 11
1384.7025047567
 21
-292.1686220057
 31
0.0
  0
ARC
  5
8C
100
AcDbEntity
  8
L1_120
  6
CONTINUOUS
 62
         7
100
AcDbCircle
 10
1384.7025047567
 20
-291.6686220057
 30
0.0
 40
0.5
100
AcDbArc
 50
270.0
 51
360.0
  0
LINE
  5
8D
100
AcDbEntity
  8
L1_120
  6
CONTINUOUS
 62
         7
100
AcDbLine
 10
1385.2025047567
 20
-290.5460267415
 30
0.0
 11
1385.2025047567
 21
-291.6686220057
 31
0.0
  0
LINE
  5
8E
100
AcDbEntity
  8
L1_120
  6
CONTINUOUS
 62
         7
100
AcDbLine
 10
1386.5751000209
 20
-288.1686220057
 30
0.0
 11
1391.3275047567
 21
-288.1686220057
 31
0.0
  0
LINE
  5
8F
100
AcDbEntity
  8
L1_120
  6
CONTINUOUS
 62
         7
100
AcDbLine
 10
1381.4525047567
 20
-290.5460267415
 30
0.0
 11
1381.4525047567
 21
-291.6686220057
 31
0.0
  0
ARC
  5
90
100
AcDbEntity
  8
L1_120
  6
CONTINUOUS
 62
         7
100
AcDbCircle
 10
1381.9525047567
 20
-291.6686220057
 30
0.0
 40
0.5
100
AcDbArc
 50
180.0
 51
270.0
  0
ARC
  5
91
100
AcDbEntity
  8
L1_120
  6
CONTINUOUS
 62
         7
100
AcDbCircle
 10
1373.3026390164
 20
-362.7854018383
 30
0.0
 40
2.5304374997
100
AcDbArc
 50
319.754819047
 51
356.197092871
  0
ARC
  5
92
100
AcDbEntity
  8
L1_120
  6
CONTINUOUS
 62
         7
100
AcDbCircle
 10
1374.1766144654
 20
-363.7447928641
 30
0.0
 40
1.2547699312
100
AcDbArc
 50
227.4132677891
 51
327.4330842731
  0
LINE
  5
93
100
AcDbEntity
  8
L1_120
  6
CONTINUOUS
 62
         7
100
AcDbLine
 10
1315.2276295228
 20
-373.763628244
 30
0.0
 11
1361.3660205533
 21
-376.0705477956
 31
0.0
  0
LINE
  5
94
100
AcDbEntity
  8
L1_120
  6
CONTINUOUS
 62
         7
100
AcDbLine
 10
1362.8940518174
 20
-300.408980872
 30
0.0
 11
1361.9760256177
 21
-300.408980872
 31
0.0
  0
LINE
  5
95
100
AcDbEntity
  8
L1_120
  6
CONTINUOUS
 62
         7
100
AcDbLine
 10
1361.8207341906
 20
-300.3885363678
 30
0.0
 11
1361.3660205533
 21
-300.2666962159
 31
0.0
  0
LINE
  5
96
100
AcDbEntity
  8
L1_120
  6
CONTINUOUS
 62
         7
100
AcDbLine
 10
1363.3275047567
 20
-298.581980872
 30
0.0
 11
1363.4882126586
 21
-299.7254770114
 31
0.0
  0
ARC
  5
97
100
AcDbEntity
  8
L1_120
  6
CONTINUOUS
 62
         7
100
AcDbCircle
 10
1362.8940518174
 20
-299.808980872
 30
0.0
 40
0.6
100
AcDbArc
 50
270.0
 51
368.0
  0
ARC
  5
98
100
AcDbEntity
  8
L1_120
  6
CONTINUOUS
 62
         7
100
AcDbCircle
 10
1361.9760256177
 20
-299.808980872
 30
0.0
 40
0.6
100
AcDbArc
 50
255.0
 51
270.0
  0
ARC
  5
99
100
AcDbEntity
  8
L1_120
  6
CONTINUOUS
 62
         7
100
AcDbCircle
 10
1361.9760256177
 20
-376.5282631394
 30
0.0
 40
0.6
100
AcDbArc
 50
90.0
 51
105.0
  0
ARC
  5
9A
100
AcDbEntity
  8
L1_120
  6
CONTINUOUS
 62
         7
100
AcDbCircle
 10
1362.8940518174
 20
-376.5282631394
 30
0.0
 40
0.6
100
AcDbArc
 50
352.0
 51
450.0
  0
LINE
  5
9B
100
AcDbEntity
  8
L1_120
  6
CONTINUOUS
 62
         7
100
AcDbLine
 10
1363.3275047567
 20
-377.7552631394
 30
0.0
 11
1363.4882126586
 21
-376.611767
 31
0.0
  0
LINE
  5
9C
100
AcDbEntity
  8
L1_120
  6
CONTINUOUS
 62
         7
100
AcDbLine
 10
1361.8207341906
 20
-375.9487076437
 30
0.0
 11
1361.3660205533
 21
-376.0705477956
 31
0.0
  0
LINE
  5
9D
100
AcDbEntity
  8
L1_120
  6
CONTINUOUS
 62
         7
100
AcDbLine
 10
1362.8940518174
 20
-375.9282631394
 30
0.0
 11
1361.9760256177
 21
-375.9282631394
 31
0.0
  0
LINE
  5
9E
100
AcDbEntity
  8
L1_120
  6
CENTER
 62
         1
100
AcDbLine
 10
1334.5305047567
 20
-369.5611220057
 30
0.0
 11
1334.5305047567
 21
-306.3912732497
 31
0.0
  0
LINE
  5
9F
100
AcDbEntity
  8
L1_120
  6
CONTINUOUS
 62
         7
100
AcDbLine
 10
1379.2916063719
 20
-327.6686220057
 30
0.0
 11
1379.2916063719
 21
-348.6686220057
 31
0.0
  0
LINE
  5
A0
100
AcDbEntity
  8
L1_120
  6
CONTINUOUS
 62
         7
100
AcDbLine
 10
1375.8275047567
 20
-350.6686220057
 30
0.0
 11
1379.2916063719
 21
-348.6686220057
 31
0.0
  0
LINE
  5
A1
100
AcDbEntity
  8
L1_120
  6
CONTINUOUS
 62
         7
100
AcDbLine
 10
1375.8275047567
 20
-325.6686220057
 30
0.0
 11
1379.2916063719
 21
-327.6686220057
 31
0.0
  0
LINE
  5
A2
100
AcDbEntity
  8
L1_120
  6
CONTINUOUS
 62
         7
100
AcDbLine
 10
1391.8275047567
 20
-325.1686220057
 30
0.0
 11
1391.8275047567
 21
-351.1686220057
 31
0.0
  0
LINE
  5
A3
100
AcDbEntity
  8
L1_120
  6
CONTINUOUS
 62
         4
100
AcDbLine
 10
1376.6935301605
 20
-326.1686220057
 30
0.0
 11
1386.8275047567
 21
-326.1686220057
 31
0.0
  0
LINE
  5
A4
100
AcDbEntity
  8
L1_120
  6
CONTINUOUS
 62
         4
100
AcDbLine
 10
1376.6935301605
 20
-350.1686220057
 30
0.0
 11
1386.8275047567
 21
-350.1686220057
 31
0.0
  0
LINE
  5
A5
100
AcDbEntity
  8
L1_120
  6
CONTINUOUS
 62
         7
100
AcDbLine
 10
1379.2916063719
 20
-327.6686220057
 30
0.0
 11
1386.8275047567
 21
-327.6686220057
 31
0.0
  0
LINE
  5
A6
100
AcDbEntity
  8
L1_120
  6
CONTINUOUS
 62
         7
100
AcDbLine
 10
1379.2916063719
 20
-348.6686220057
 30
0.0
 11
1386.8275047567
 21
-348.6686220057
 31
0.0
  0
LINE
  5
A7
100
AcDbEntity
  8
L1_120
  6
CONTINUOUS
 62
         7
100
AcDbLine
 10
1386.8275047567
 20
-325.1686220057
 30
0.0
 11
1391.8275047567
 21
-325.1686220057
 31
0.0
  0
LINE
  5
A8
100
AcDbEntity
  8
L1_120
  6
CONTINUOUS
 62
         7
100
AcDbLine
 10
1386.8275047567
 20
-351.1686220057
 30
0.0
 11
1391.8275047567
 21
-351.1686220057
 31
0.0
  0
LINE
  5
A9
100
AcDbEntity
  8
L1_120
  6
CONTINUOUS
 62
         7
100
AcDbLine
 10
1386.8275047567
 20
-325.1686220057
 30
0.0
 11
1386.8275047567
 21
-351.1686220057
 31
0.0
  0
LINE
  5
AA
100
AcDbEntity
  8
L1_120
  6
CENTER
 62
         1
100
AcDbLine
 10
1312.8265852325
 20
-224.2762334432
 30
0.0
 11
1524.3829152626
 21
-224.2762334432
 31
0.0
  0
ARC
  5
AB
100
AcDbEntity
  8
L1_120
  6
CONTINUOUS
 62
         7
100
AcDbCircle
 10
1365.3275047567
 20
-175.2762334432
 30
0.0
 40
1.0
100
AcDbArc
 50
90.0
 51
180.0
  0
ARC
  5
AC
100
AcDbEntity
  8
L1_120
  6
CONTINUOUS
 62
         7
100
AcDbCircle
 10
1392.3275047567
 20
-175.2762334432
 30
0.0
 40
1.0
100
AcDbArc
 50
0.0
 51
90.0
  0
ARC
  5
AD
100
AcDbEntity
  8
L1_120
  6
CONTINUOUS
 62
         7
100
AcDbCircle
 10
1392.3275047567
 20
-273.2762334432
 30
0.0
 40
1.0
100
AcDbArc
 50
270.0
 51
360.0
  0
ARC
  5
AE
100
AcDbEntity
  8
L1_120
  6
CONTINUOUS
 62
         7
100
AcDbCircle
 10
1365.3275047567
 20
-273.2762334432
 30
0.0
 40
1.0
100
AcDbArc
 50
180.0
 51
270.0
  0
LINE
  5
AF
100
AcDbEntity
  8
L1_120
  6
CONTINUOUS
 62
         7
100
AcDbLine
 10
1392.3629152626
 20
-213.2762334432
 30
0.0
 11
1392.3629152626
 21
-174.2762334432
 31
0.0
  0
LINE
  5
B0
100
AcDbEntity
  8
L1_120
  6
CONTINUOUS
 62
         7
100
AcDbLine
 10
1392.3629152626
 20
-263.1059900739
 30
0.0
 11
1393.3629152626
 21
-262.1059900739
 31
0.0
  0
LINE
  5
B1
100
AcDbEntity
  8
L1_120
  6
CONTINUOUS
 62
         7
100
AcDbLine
 10
1392.3629152626
 20
-263.1059900739
 30
0.0
 11
1392.3629152626
 21
-274.2762334432
 31
0.0
  0
LINE
  5
B2
100
AcDbEntity
  8
L1_120
  6
CONTINUOUS
 62
         7
100
AcDbLine
 10
1392.3629152626
 20
-263.1059900739
 30
0.0
 11
1387.6105105268
 21
-263.1059900739
 31
0.0
  0
LINE
  5
B3
100
AcDbEntity
  8
L1_120
  6
CONTINUOUS
 62
         7
100
AcDbLine
 10
1387.6105105268
 20
-263.1059900739
 30
0.0
 11
1387.6105105268
 21
-274.2762334432
 31
0.0
  0
LINE
  5
B4
100
AcDbEntity
  8
L1_120
  6
CONTINUOUS
 62
         7
100
AcDbLine
 10
1386.2379152626
 20
-259.6059900739
 30
0.0
 11
1386.2379152626
 21
-270.7762334432
 31
0.0
  0
LINE
  5
B5
100
AcDbEntity
  8
L1_120
  6
CONTINUOUS
 62
         7
100
AcDbLine
 10
1387.6105105268
 20
-263.1059900739
 30
0.0
 11
1386.2379152626
 21
-260.7285853381
 31
0.0
  0
LINE
  5
B6
100
AcDbEntity
  8
L1_120
  6
CONTINUOUS
 62
         7
100
AcDbLine
 10
1381.1153199984
 20
-263.1059900739
 30
0.0
 11
1382.4879152626
 21
-260.7285853381
 31
0.0
  0
LINE
  5
B7
100
AcDbEntity
  8
L1_120
  6
CONTINUOUS
 62
         7
100
AcDbLine
 10
1382.4879152626
 20
-259.6059900739
 30
0.0
 11
1382.4879152626
 21
-270.7762334432
 31
0.0
  0
LINE
  5
B8
100
AcDbEntity
  8
L1_120
  6
CONTINUOUS
 62
         7
100
AcDbLine
 10
1381.1153199984
 20
-263.1059900739
 30
0.0
 11
1381.1153199984
 21
-274.2762334432
 31
0.0
  0
LINE
  5
B9
100
AcDbEntity
  8
L1_120
  6
CONTINUOUS
 62
         7
100
AcDbLine
 10
1381.1153199984
 20
-263.1059900739
 30
0.0
 11
1369.3629152626
 21
-263.1059900739
 31
0.0
  0
LINE
  5
BA
100
AcDbEntity
  8
L1_120
  6
CONTINUOUS
 62
         7
100
AcDbLine
 10
1393.3629152626
 20
-255.7762334432
 30
0.0
 11
1378.9998131218
 21
-255.7762334432
 31
0.0
  0
ARC
  5
BB
100
AcDbEntity
  8
L1_120
  6
CONTINUOUS
 62
         7
100
AcDbCircle
 10
1378.9998131218
 20
-265.7762334432
 30
0.0
 40
10.0
100
AcDbArc
 50
90.0
 51
164.5127260012
  0
LINE
  5
BC
100
AcDbEntity
  8
L1_120
  6
CONTINUOUS
 62
         7
100
AcDbLine
 10
1392.3629152626
 20
-255.7762334432
 30
0.0
 11
1392.3629152626
 21
-235.2762334432
 31
0.0
  0
ARC
  5
BD
100
AcDbEntity
  8
L1_120
  6
CONTINUOUS
 62
         7
100
AcDbCircle
 10
1382.9879152626
 20
-259.6059900739
 30
0.0
 40
0.5
100
AcDbArc
 50
90.0
 51
180.0
  0
ARC
  5
BE
100
AcDbEntity
  8
L1_120
  6
CONTINUOUS
 62
         7
100
AcDbCircle
 10
1385.7379152626
 20
-259.6059900739
 30
0.0
 40
0.5
100
AcDbArc
 50
0.0
 51
90.0
  0
LINE
  5
BF
100
AcDbEntity
  8
L1_120
  6
CONTINUOUS
 62
         7
100
AcDbLine
 10
1382.9879152626
 20
-259.1059900739
 30
0.0
 11
1385.7379152626
 21
-259.1059900739
 31
0.0
  0
LINE
  5
C0
100
AcDbEntity
  8
L1_120
  6
CONTINUOUS
 62
         7
100
AcDbLine
 10
1382.4879152626
 20
-234.2762334432
 30
0.0
 11
1382.4879152626
 21
-255.7762334432
 31
0.0
  0
LINE
  5
C1
100
AcDbEntity
  8
L1_120
  6
CONTINUOUS
 62
         7
100
AcDbLine
 10
1386.2379152626
 20
-234.2762334432
 30
0.0
 11
1386.2379152626
 21
-255.7762334432
 31
0.0
  0
LINE
  5
C2
100
AcDbEntity
  8
L1_120
  6
CONTINUOUS
 62
         7
100
AcDbLine
 10
1387.6105105268
 20
-235.2762334432
 30
0.0
 11
1387.6105105268
 21
-255.7762334432
 31
0.0
  0
LINE
  5
C3
100
AcDbEntity
  8
L1_120
  6
CONTINUOUS
 62
         7
100
AcDbLine
 10
1381.1153199984
 20
-235.2762334432
 30
0.0
 11
1381.1153199984
 21
-255.7762334432
 31
0.0
  0
LINE
  5
C4
100
AcDbEntity
  8
L1_120
  6
CONTINUOUS
 62
         7
100
AcDbLine
 10
1386.2379152626
 20
-177.7762334432
 30
0.0
 11
1386.2379152626
 21
-214.2762334432
 31
0.0
  0
LINE
  5
C5
100
AcDbEntity
  8
L1_120
  6
CONTINUOUS
 62
         7
100
AcDbLine
 10
1387.6105105268
 20
-174.2762334432
 30
0.0
 11
1387.6105105268
 21
-213.2762334432
 31
0.0
  0
LINE
  5
C6
100
AcDbEntity
  8
L1_120
  6
CONTINUOUS
 62
         7
100
AcDbLine
 10
1382.4879152626
 20
-177.7762334432
 30
0.0
 11
1382.4879152626
 21
-214.2762334432
 31
0.0
  0
LINE
  5
C7
100
AcDbEntity
  8
L1_120
  6
CONTINUOUS
 62
         7
100
AcDbLine
 10
1381.1153199984
 20
-174.2762334432
 30
0.0
 11
1381.1153199984
 21
-213.2762334432
 31
0.0
  0
ARC
  5
C8
100
AcDbEntity
  8
L1_120
  6
CONTINUOUS
 62
         7
100
AcDbCircle
 10
1379.3629152626
 20
-224.2762334432
 30
0.0
 40
11.0
100
AcDbArc
 50
90.0
 51
270.0
  0
LINE
  5
C9
100
AcDbEntity
  8
L1_120
  6
CONTINUOUS
 62
         7
100
AcDbLine
 10
1386.2379152626
 20
-214.2762334432
 30
0.0
 11
1387.6105105268
 21
-213.2762334432
 31
0.0
  0
LINE
  5
CA
100
AcDbEntity
  8
L1_120
  6
CONTINUOUS
 62
         7
100
AcDbLine
 10
1387.6105105268
 20
-213.2762334432
 30
0.0
 11
1392.3629152626
 21
-213.2762334432
 31
0.0
  0
LINE
  5
CB
100
AcDbEntity
  8
L1_120
  6
CONTINUOUS
 62
         7
100
AcDbLine
 10
1386.2379152626
 20
-234.2762334432
 30
0.0
 11
1387.6105105268
 21
-235.2762334432
 31
0.0
  0
LINE
  5
CC
100
AcDbEntity
  8
L1_120
  6
CONTINUOUS
 62
         7
100
AcDbLine
 10
1387.6105105268
 20
-235.2762334432
 30
0.0
 11
1392.3629152626
 21
-235.2762334432
 31
0.0
  0
LINE
  5
CD
100
AcDbEntity
  8
L1_120
  6
CONTINUOUS
 62
         7
100
AcDbLine
 10
1392.3629152626
 20
-213.2762334432
 30
0.0
 11
1393.3629152626
 21
-214.2762334432
 31
0.0
  0
LINE
  5
CE
100
AcDbEntity
  8
L1_120
  6
CONTINUOUS
 62
         7
100
AcDbLine
 10
1392.3629152626
 20
-235.2762334432
 30
0.0
 11
1393.3629152626
 21
-234.2762334432
 31
0.0
  0
ARC
  5
CF
100
AcDbEntity
  8
L1_120
  6
CONTINUOUS
 62
         7
100
AcDbCircle
 10
1379.3629152626
 20
-224.2762334432
 30
0.0
 40
10.0
100
AcDbArc
 50
90.0
 51
270.0
  0
LINE
  5
D0
100
AcDbEntity
  8
L1_120
  6
CONTINUOUS
 62
         7
100
AcDbLine
 10
1379.3629152626
 20
-213.2762334432
 30
0.0
 11
1381.1153199984
 21
-213.2762334432
 31
0.0
  0
LINE
  5
D1
100
AcDbEntity
  8
L1_120
  6
CONTINUOUS
 62
         7
100
AcDbLine
 10
1379.3629152626
 20
-235.2762334432
 30
0.0
 11
1381.1153199984
 21
-235.2762334432
 31
0.0
  0
LINE
  5
D2
100
AcDbEntity
  8
L1_120
  6
CONTINUOUS
 62
         7
100
AcDbLine
 10
1379.3629152626
 20
-234.2762334432
 30
0.0
 11
1393.3629152626
 21
-234.2762334432
 31
0.0
  0
LINE
  5
D3
100
AcDbEntity
  8
L1_120
  6
CONTINUOUS
 62
         7
100
AcDbLine
 10
1379.3629152626
 20
-214.2762334432
 30
0.0
 11
1393.3629152626
 21
-214.2762334432
 31
0.0
  0
LINE
  5
D4
100
AcDbEntity
  8
L1_120
  6
CONTINUOUS
 62
         7
100
AcDbLine
 10
1381.1153199984
 20
-213.2762334432
 30
0.0
 11
1382.4879152626
 21
-214.2762334432
 31
0.0
  0
LINE
  5
D5
100
AcDbEntity
  8
L1_120
  6
CONTINUOUS
 62
         7
100
AcDbLine
 10
1381.1153199984
 20
-235.2762334432
 30
0.0
 11
1382.4879152626
 21
-234.2762334432
 31
0.0
  0
LINE
  5
D6
100
AcDbEntity
  8
L1_120
  6
CENTER
 62
         1
100
AcDbLine
 10
1381.3681416786
 20
-224.2762334432
 30
0.0
 11
1393.3629152626
 21
-224.2762334432
 31
0.0
  0
CIRCLE
  5
D7
100
AcDbEntity
  8
L1_120
  6
CONTINUOUS
 62
         7
100
AcDbCircle
 10
1379.3629152626
 20
-224.2762334432
 30
0.0
 40
8.0
  0
LINE
  5
D8
100
AcDbEntity
  8
L1_120
  6
DASHED
 62
         2
100
AcDbLine
 10
1366.3275047567
 20
-178.8762334432
 30
0.0
 11
1376.3275047567
 21
-178.8762334432
 31
0.0
  0
LINE
  5
D9
100
AcDbEntity
  8
L1_120
  6
DASHED
 62
         2
100
AcDbLine
 10
1369.3275047567
 20
-178.8762334432
 30
0.0
 11
1371.3275047567
 21
-180.0309339816
 31
0.0
  0
LINE
  5
DA
100
AcDbEntity
  8
L1_120
  6
DASHED
 62
         2
100
AcDbLine
 10
1366.3275047567
 20
-174.2762334432
 30
0.0
 11
1366.3275047567
 21
-178.8762334432
 31
0.0
  0
LINE
  5
DB
100
AcDbEntity
  8
L1_120
  6
DASHED
 62
         2
100
AcDbLine
 10
1373.3275047567
 20
-178.8762334432
 30
0.0
 11
1371.3275047567
 21
-180.0309339816
 31
0.0
  0
LINE
  5
DC
100
AcDbEntity
  8
L1_120
  6
DASHED
 62
         2
100
AcDbLine
 10
1376.3275047567
 20
-174.2762334432
 30
0.0
 11
1376.3275047567
 21
-178.8762334432
 31
0.0
  0
LINE
  5
DD
100
AcDbEntity
  8
L1_120
  6
CENTER
 62
         1
100
AcDbLine
 10
1371.3275047567
 20
-170.9756058874
 30
0.0
 11
1371.3275047567
 21
-183.3424666124
 31
0.0
  0
POLYLINE
  5
DF
100
AcDbEntity
  8
L1_120
  6
CONTINUOUS
 62
         7
100
AcDb2dPolyline
 66
         1
 10
0.0
 20
0.0
 30
0.0
 70
         2
  0
VERTEX
  5
E1
100
AcDbEntity
  8
L1_120
  6
CONTINUOUS
 62
         7
100
AcDbVertex
100
AcDb2dVertex
 10
1355.8525047567
 20
-224.2762334432
 30
0.0
 70
         1
  0
VERTEX
  5
E3
100
AcDbEntity
  8
L1_120
  6
CONTINUOUS
 62
         7
100
AcDbVertex
100
AcDb2dVertex
 10
1355.8209110936
 20
-223.684051122
 30
0.0
 70
         1
  0
VERTEX
  5
E5
100
AcDbEntity
  8
L1_120
  6
CONTINUOUS
 62
         7
100
AcDbVertex
100
AcDb2dVertex
 10
1355.7799010097
 20
-223.3799407922
 30
0.0
 70
         1
  0
VERTEX
  5
E7
100
AcDbEntity
  8
L1_120
  6
CONTINUOUS
 62
         7
100
AcDbVertex
100
AcDb2dVertex
 10
1355.7208476292
 20
-223.0720237283
 30
0.0
 70
         1
  0
VERTEX
  5
E9
100
AcDbEntity
  8
L1_120
  6
CONTINUOUS
 62
         7
100
AcDbVertex
100
AcDb2dVertex
 10
1355.6429639552
 20
-222.76162242
 30
0.0
 70
         1
  0
VERTEX
  5
EB
100
AcDbEntity
  8
L1_120
  6
CONTINUOUS
 62
         7
100
AcDbVertex
100
AcDb2dVertex
 10
1355.5456040619
 20
-222.4501820142
 30
0.0
 70
         1
  0
VERTEX
  5
ED
100
AcDbEntity
  8
L1_120
  6
CONTINUOUS
 62
         7
100
AcDbVertex
100
AcDb2dVertex
 10
1355.4282870915
 20
-222.1392554051
 30
0.0
 70
         1
  0
VERTEX
  5
EF
100
AcDbEntity
  8
L1_120
  6
CONTINUOUS
 62
         7
100
AcDbVertex
100
AcDb2dVertex
 10
1355.2907192277
 20
-221.8304838859
 30
0.0
 70
         1
  0
VERTEX
  5
F1
100
AcDbEntity
  8
L1_120
  6
CONTINUOUS
 62
         7
100
AcDbVertex
100
AcDb2dVertex
 10
1355.1328125751
 20
-221.525573602
 30
0.0
 70
         1
  0
VERTEX
  5
F3
100
AcDbEntity
  8
L1_120
  6
CONTINUOUS
 62
         7
100
AcDbVertex
100
AcDb2dVertex
 10
1354.9546998981
 20
-221.2262682837
 30
0.0
 70
         1
  0
VERTEX
  5
F5
100
AcDbEntity
  8
L1_120
  6
CONTINUOUS
 62
         7
100
AcDbVertex
100
AcDb2dVertex
 10
1354.7567442751
 20
-220.9343189892
 30
0.0
 70
         1
  0
VERTEX
  5
F7
100
AcDbEntity
  8
L1_120
  6
CONTINUOUS
 62
         7
100
AcDbVertex
100
AcDb2dVertex
 10
1354.5395428957
 20
-220.6514518103
 30
0.0
 70
         1
  0
VERTEX
  5
F9
100
AcDbEntity
  8
L1_120
  6
CONTINUOUS
 62
         7
100
AcDbVertex
100
AcDb2dVertex
 10
1354.3039244773
 20
-220.3793346786
 30
0.0
 70
         1
  0
VERTEX
  5
FB
100
AcDbEntity
  8
L1_120
  6
CONTINUOUS
 62
         7
100
AcDbVertex
100
AcDb2dVertex
 10
1354.0509400724
 20
-220.119544533
 30
0.0
 70
         1
  0
VERTEX
  5
FD
100
AcDbEntity
  8
L1_120
  6
CONTINUOUS
 62
         7
100
AcDbVertex
100
AcDb2dVertex
 10
1353.781847378
 20
-219.8735361531
 30
0.0
 70
         1
  0
VERTEX
  5
FF
100
AcDbEntity
  8
L1_120
  6
CONTINUOUS
 62
         7
100
AcDbVertex
100
AcDb2dVertex
 10
1353.4980889989
 20
-219.6426139258
 30
0.0
 70
         1
  0
VERTEX
  5
101
100
AcDbEntity
  8
L1_120
  6
CONTINUOUS
 62
         7
100
AcDbVertex
100
AcDb2dVertex
 10
1353.2012654438
 20
-219.4279076828
 30
0.0
 70
         1
  0
VERTEX
  5
103
100
AcDbEntity
  8
L1_120
  6
CONTINUOUS
 62
         7
100
AcDbVertex
100
AcDb2dVertex
 10
1352.8931039105
 20
-219.2303535455
 30
0.0
 70
         1
  0
VERTEX
  5
105
100
AcDbEntity
  8
L1_120
  6
CONTINUOUS
 62
         7
100
AcDbVertex
100
AcDb2dVertex
 10
1352.5754241235
 20
-219.0506804455
 30
0.0
 70
         1
  0
VERTEX
  5
107
100
AcDbEntity
  8
L1_120
  6
CONTINUOUS
 62
         7
100
AcDbVertex
100
AcDb2dVertex
 10
1352.2501026087
 20
-218.889402687
 30
0.0
 70
         1
  0
VERTEX
  5
109
100
AcDbEntity
  8
L1_120
  6
CONTINUOUS
 62
         7
100
AcDbVertex
100
AcDb2dVertex
 10
1351.8059202039
 20
-218.7027785573
 30
0.0
 70
         1
  0
VERTEX
  5
10B
100
AcDbEntity
  8
L1_120
  6
CONTINUOUS
 62
         7
100
AcDbVertex
100
AcDb2dVertex
 10
1351.3559396602
 20
-218.5497599471
 30
0.0
 70
         1
  0
VERTEX
  5
10D
100
AcDbEntity
  8
L1_120
  6
CONTINUOUS
 62
         7
100
AcDbVertex
100
AcDb2dVertex
 10
1350.9044805694
 20
-218.4298416861
 30
0.0
 70
         1
  0
VERTEX
  5
10F
100
AcDbEntity
  8
L1_120
  6
CONTINUOUS
 62
         7
100
AcDbVertex
100
AcDb2dVertex
 10
1350.4555683591
 20
-218.3419560045
 30
0.0
 70
         1
  0
VERTEX
  5
111
100
AcDbEntity
  8
L1_120
  6
CONTINUOUS
 62
         7
100
AcDbVertex
100
AcDb2dVertex
 10
1350.0128447461
 20
-218.2845592699
 30
0.0
 70
         1
  0
VERTEX
  5
113
100
AcDbEntity
  8
L1_120
  6
CONTINUOUS
 62
         7
100
AcDbVertex
100
AcDb2dVertex
 10
1349.5795056888
 20
-218.2557284707
 30
0.0
 70
         1
  0
VERTEX
  5
115
100
AcDbEntity
  8
L1_120
  6
CONTINUOUS
 62
         7
100
AcDbVertex
100
AcDb2dVertex
 10
1349.1582663574
 20
-218.2532603646
 30
0.0
 70
         1
  0
VERTEX
  5
117
100
AcDbEntity
  8
L1_120
  6
CONTINUOUS
 62
         7
100
AcDbVertex
100
AcDb2dVertex
 10
1348.7513506869
 20
-218.2747672565
 30
0.0
 70
         1
  0
VERTEX
  5
119
100
AcDbEntity
  8
L1_120
  6
CONTINUOUS
 62
         7
100
AcDbVertex
100
AcDb2dVertex
 10
1348.3605017552
 20
-218.3177647678
 30
0.0
 70
         1
  0
VERTEX
  5
11B
100
AcDbEntity
  8
L1_120
  6
CONTINUOUS
 62
         7
100
AcDbVertex
100
AcDb2dVertex
 10
1347.9870085306
 20
-218.3797484685
 30
0.0
 70
         1
  0
VERTEX
  5
11D
100
AcDbEntity
  8
L1_120
  6
CONTINUOUS
 62
         7
100
AcDbVertex
100
AcDb2dVertex
 10
1347.5149971591
 20
-218.4883471825
 30
0.0
 70
         1
  0
VERTEX
  5
11F
100
AcDbEntity
  8
L1_120
  6
CONTINUOUS
 62
         7
100
AcDbVertex
100
AcDb2dVertex
 10
1347.0767897579
 20
-218.6210131264
 30
0.0
 70
         1
  0
VERTEX
  5
121
100
AcDbEntity
  8
L1_120
  6
CONTINUOUS
 62
         7
100
AcDbVertex
100
AcDb2dVertex
 10
1346.6724939092
 20
-218.772555579
 30
0.0
 70
         1
  0
VERTEX
  5
123
100
AcDbEntity
  8
L1_120
  6
CONTINUOUS
 62
         7
100
AcDbVertex
100
AcDb2dVertex
 10
1346.3014523121
 20
-218.9383281192
 30
0.0
 70
         1
  0
VERTEX
  5
125
100
AcDbEntity
  8
L1_120
  6
CONTINUOUS
 62
         7
100
AcDbVertex
100
AcDb2dVertex
 10
1345.9624400598
 20
-219.1142667621
 30
0.0
 70
         1
  0
VERTEX
  5
127
100
AcDbEntity
  8
L1_120
  6
CONTINUOUS
 62
         7
100
AcDbVertex
100
AcDb2dVertex
 10
1345.6538369873
 20
-219.2968890032
 30
0.0
 70
         1
  0
VERTEX
  5
129
100
AcDbEntity
  8
L1_120
  6
CONTINUOUS
 62
         7
100
AcDbVertex
100
AcDb2dVertex
 10
1345.2838820355
 20
-219.5476382849
 30
0.0
 70
         1
  0
VERTEX
  5
12B
100
AcDbEntity
  8
L1_120
  6
CONTINUOUS
 62
         7
100
AcDbVertex
100
AcDb2dVertex
 10
1344.9605163753
 20
-219.7995435706
 30
0.0
 70
         1
  0
VERTEX
  5
12D
100
AcDbEntity
  8
L1_120
  6
CONTINUOUS
 62
         7
100
AcDbVertex
100
AcDb2dVertex
 10
1344.6787792572
 20
-220.0483430249
 30
0.0
 70
         1
  0
VERTEX
  5
12F
100
AcDbEntity
  8
L1_120
  6
CONTINUOUS
 62
         7
100
AcDbVertex
100
AcDb2dVertex
 10
1344.4338732
 20
-220.2909465236
 30
0.0
 70
         1
  0
VERTEX
  5
131
100
AcDbEntity
  8
L1_120
  6
CONTINUOUS
 62
         7
100
AcDbVertex
100
AcDb2dVertex
 10
1344.1544187504
 20
-220.604184408
 30
0.0
 70
         1
  0
VERTEX
  5
133
100
AcDbEntity
  8
L1_120
  6
CONTINUOUS
 62
         7
100
AcDbVertex
100
AcDb2dVertex
 10
1343.9238445175
 20
-220.8991563067
 30
0.0
 70
         1
  0
VERTEX
  5
135
100
AcDbEntity
  8
L1_120
  6
CONTINUOUS
 62
         7
100
AcDbVertex
100
AcDb2dVertex
 10
1343.7336988792
 20
-221.1743422287
 30
0.0
 70
         1
  0
VERTEX
  5
137
100
AcDbEntity
  8
L1_120
  6
CONTINUOUS
 62
         7
100
AcDbVertex
100
AcDb2dVertex
 10
1343.5284978073
 20
-221.51426486
 30
0.0
 70
         1
  0
VERTEX
  5
139
100
AcDbEntity
  8
L1_120
  6
CONTINUOUS
 62
         7
100
AcDbVertex
100
AcDb2dVertex
 10
1343.3700537035
 20
-221.8185376158
 30
0.0
 70
         1
  0
VERTEX
  5
13B
100
AcDbEntity
  8
L1_120
  6
CONTINUOUS
 62
         7
100
AcDbVertex
100
AcDb2dVertex
 10
1343.2105366298
 20
-222.1790765357
 30
0.0
 70
         1
  0
VERTEX
  5
13D
100
AcDbEntity
  8
L1_120
  6
CONTINUOUS
 62
         7
100
AcDbVertex
100
AcDb2dVertex
 10
1343.0973104772
 20
-222.4856769517
 30
0.0
 70
         1
  0
VERTEX
  5
13F
100
AcDbEntity
  8
L1_120
  6
CONTINUOUS
 62
         7
100
AcDbVertex
100
AcDb2dVertex
 10
1342.9928986812
 20
-222.8314029104
 30
0.0
 70
         1
  0
VERTEX
  5
141
100
AcDbEntity
  8
L1_120
  6
CONTINUOUS
 62
         7
100
AcDbVertex
100
AcDb2dVertex
 10
1342.9078206628
 20
-223.1981081184
 30
0.0
 70
         1
  0
VERTEX
  5
143
100
AcDbEntity
  8
L1_120
  6
CONTINUOUS
 62
         7
100
AcDbVertex
100
AcDb2dVertex
 10
1342.8492362075
 20
-223.5564407511
 30
0.0
 70
         1
  0
VERTEX
  5
145
100
AcDbEntity
  8
L1_120
  6
CONTINUOUS
 62
         7
100
AcDbVertex
100
AcDb2dVertex
 10
1342.817399077
 20
-223.8693742277
 30
0.0
 70
         1
  0
VERTEX
  5
147
100
AcDbEntity
  8
L1_120
  6
CONTINUOUS
 62
         7
100
AcDbVertex
100
AcDb2dVertex
 10
1342.8033911391
 20
-224.1769269634
 30
0.0
 70
         1
  0
VERTEX
  5
149
100
AcDbEntity
  8
L1_120
  6
CONTINUOUS
 62
         7
100
AcDbVertex
100
AcDb2dVertex
 10
1342.8025047567
 20
-224.2762334432
 30
0.0
 70
         1
  0
VERTEX
  5
14B
100
AcDbEntity
  8
L1_120
  6
CONTINUOUS
 62
         7
100
AcDbVertex
100
AcDb2dVertex
 10
1342.8025047567
 20
-224.2762334432
 30
0.0
 70
         1
  0
VERTEX
  5
14D
100
AcDbEntity
  8
L1_120
  6
CONTINUOUS
 62
         7
100
AcDbVertex
100
AcDb2dVertex
 10
1342.8340984198
 20
-224.8684157644
 30
0.0
 70
         1
  0
VERTEX
  5
14F
100
AcDbEntity
  8
L1_120
  6
CONTINUOUS
 62
         7
100
AcDbVertex
100
AcDb2dVertex
 10
1342.8751085038
 20
-225.1725260942
 30
0.0
 70
         1
  0
VERTEX
  5
151
100
AcDbEntity
  8
L1_120
  6
CONTINUOUS
 62
         7
100
AcDbVertex
100
AcDb2dVertex
 10
1342.9341618842
 20
-225.4804431582
 30
0.0
 70
         1
  0
VERTEX
  5
153
100
AcDbEntity
  8
L1_120
  6
CONTINUOUS
 62
         7
100
AcDbVertex
100
AcDb2dVertex
 10
1343.0120455583
 20
-225.7908444665
 30
0.0
 70
         1
  0
VERTEX
  5
155
100
AcDbEntity
  8
L1_120
  6
CONTINUOUS
 62
         7
100
AcDbVertex
100
AcDb2dVertex
 10
1343.1094054516
 20
-226.1022848722
 30
0.0
 70
         1
  0
VERTEX
  5
157
100
AcDbEntity
  8
L1_120
  6
CONTINUOUS
 62
         7
100
AcDbVertex
100
AcDb2dVertex
 10
1343.226722422
 20
-226.4132114814
 30
0.0
 70
         1
  0
VERTEX
  5
159
100
AcDbEntity
  8
L1_120
  6
CONTINUOUS
 62
         7
100
AcDbVertex
100
AcDb2dVertex
 10
1343.3642902858
 20
-226.7219830005
 30
0.0
 70
         1
  0
VERTEX
  5
15B
100
AcDbEntity
  8
L1_120
  6
CONTINUOUS
 62
         7
100
AcDbVertex
100
AcDb2dVertex
 10
1343.5221969384
 20
-227.0268932845
 30
0.0
 70
         1
  0
VERTEX
  5
15D
100
AcDbEntity
  8
L1_120
  6
CONTINUOUS
 62
         7
100
AcDbVertex
100
AcDb2dVertex
 10
1343.7003096153
 20
-227.3261986028
 30
0.0
 70
         1
  0
VERTEX
  5
15F
100
AcDbEntity
  8
L1_120
  6
CONTINUOUS
 62
         7
100
AcDbVertex
100
AcDb2dVertex
 10
1343.8982652384
 20
-227.6181478973
 30
0.0
 70
         1
  0
VERTEX
  5
161
100
AcDbEntity
  8
L1_120
  6
CONTINUOUS
 62
         7
100
AcDbVertex
100
AcDb2dVertex
 10
1344.1154666177
 20
-227.9010150761
 30
0.0
 70
         1
  0
VERTEX
  5
163
100
AcDbEntity
  8
L1_120
  6
CONTINUOUS
 62
         7
100
AcDbVertex
100
AcDb2dVertex
 10
1344.3510850361
 20
-228.1731322078
 30
0.0
 70
         1
  0
VERTEX
  5
165
100
AcDbEntity
  8
L1_120
  6
CONTINUOUS
 62
         7
100
AcDbVertex
100
AcDb2dVertex
 10
1344.604069441
 20
-228.4329223535
 30
0.0
 70
         1
  0
VERTEX
  5
167
100
AcDbEntity
  8
L1_120
  6
CONTINUOUS
 62
         7
100
AcDbVertex
100
AcDb2dVertex
 10
1344.8731621354
 20
-228.6789307334
 30
0.0
 70
         1
  0
VERTEX
  5
169
100
AcDbEntity
  8
L1_120
  6
CONTINUOUS
 62
         7
100
AcDbVertex
100
AcDb2dVertex
 10
1345.1569205146
 20
-228.9098529607
 30
0.0
 70
         1
  0
VERTEX
  5
16B
100
AcDbEntity
  8
L1_120
  6
CONTINUOUS
 62
         7
100
AcDbVertex
100
AcDb2dVertex
 10
1345.4537440697
 20
-229.1245592036
 30
0.0
 70
         1
  0
VERTEX
  5
16D
100
AcDbEntity
  8
L1_120
  6
CONTINUOUS
 62
         7
100
AcDbVertex
100
AcDb2dVertex
 10
1345.7619056029
 20
-229.322113341
 30
0.0
 70
         1
  0
VERTEX
  5
16F
100
AcDbEntity
  8
L1_120
  6
CONTINUOUS
 62
         7
100
AcDbVertex
100
AcDb2dVertex
 10
1346.0795853899
 20
-229.5017864409
 30
0.0
 70
         1
  0
VERTEX
  5
171
100
AcDbEntity
  8
L1_120
  6
CONTINUOUS
 62
         7
100
AcDbVertex
100
AcDb2dVertex
 10
1346.4049069047
 20
-229.6630641994
 30
0.0
 70
         1
  0
VERTEX
  5
173
100
AcDbEntity
  8
L1_120
  6
CONTINUOUS
 62
         7
100
AcDbVertex
100
AcDb2dVertex
 10
1346.8490893096
 20
-229.8496883291
 30
0.0
 70
         1
  0
VERTEX
  5
175
100
AcDbEntity
  8
L1_120
  6
CONTINUOUS
 62
         7
100
AcDbVertex
100
AcDb2dVertex
 10
1347.2990698532
 20
-230.0027069394
 30
0.0
 70
         1
  0
VERTEX
  5
177
100
AcDbEntity
  8
L1_120
  6
CONTINUOUS
 62
         7
100
AcDbVertex
100
AcDb2dVertex
 10
1347.7505289441
 20
-230.1226252003
 30
0.0
 70
         1
  0
VERTEX
  5
179
100
AcDbEntity
  8
L1_120
  6
CONTINUOUS
 62
         7
100
AcDbVertex
100
AcDb2dVertex
 10
1348.1994411543
 20
-230.2105108819
 30
0.0
 70
         1
  0
VERTEX
  5
17B
100
AcDbEntity
  8
L1_120
  6
CONTINUOUS
 62
         7
100
AcDbVertex
100
AcDb2dVertex
 10
1348.6421647674
 20
-230.2679076165
 30
0.0
 70
         1
  0
VERTEX
  5
17D
100
AcDbEntity
  8
L1_120
  6
CONTINUOUS
 62
         7
100
AcDbVertex
100
AcDb2dVertex
 10
1349.0755038246
 20
-230.2967384157
 30
0.0
 70
         1
  0
VERTEX
  5
17F
100
AcDbEntity
  8
L1_120
  6
CONTINUOUS
 62
         7
100
AcDbVertex
100
AcDb2dVertex
 10
1349.496743156
 20
-230.2992065219
 30
0.0
 70
         1
  0
VERTEX
  5
181
100
AcDbEntity
  8
L1_120
  6
CONTINUOUS
 62
         7
100
AcDbVertex
100
AcDb2dVertex
 10
1349.9036588266
 20
-230.2776996299
 30
0.0
 70
         1
  0
VERTEX
  5
183
100
AcDbEntity
  8
L1_120
  6
CONTINUOUS
 62
         7
100
AcDbVertex
100
AcDb2dVertex
 10
1350.2945077582
 20
-230.2347021187
 30
0.0
 70
         1
  0
VERTEX
  5
185
100
AcDbEntity
  8
L1_120
  6
CONTINUOUS
 62
         7
100
AcDbVertex
100
AcDb2dVertex
 10
1350.6680009828
 20
-230.1727184179
 30
0.0
 70
         1
  0
VERTEX
  5
187
100
AcDbEntity
  8
L1_120
  6
CONTINUOUS
 62
         7
100
AcDbVertex
100
AcDb2dVertex
 10
1351.1400123543
 20
-230.0641197039
 30
0.0
 70
         1
  0
VERTEX
  5
189
100
AcDbEntity
  8
L1_120
  6
CONTINUOUS
 62
         7
100
AcDbVertex
100
AcDb2dVertex
 10
1351.5782197555
 20
-229.9314537601
 30
0.0
 70
         1
  0
VERTEX
  5
18B
100
AcDbEntity
  8
L1_120
  6
CONTINUOUS
 62
         7
100
AcDbVertex
100
AcDb2dVertex
 10
1351.9825156042
 20
-229.7799113074
 30
0.0
 70
         1
  0
VERTEX
  5
18D
100
AcDbEntity
  8
L1_120
  6
CONTINUOUS
 62
         7
100
AcDbVertex
100
AcDb2dVertex
 10
1352.3535572014
 20
-229.6141387672
 30
0.0
 70
         1
  0
VERTEX
  5
18F
100
AcDbEntity
  8
L1_120
  6
CONTINUOUS
 62
         7
100
AcDbVertex
100
AcDb2dVertex
 10
1352.6925694537
 20
-229.4382001244
 30
0.0
 70
         1
  0
VERTEX
  5
191
100
AcDbEntity
  8
L1_120
  6
CONTINUOUS
 62
         7
100
AcDbVertex
100
AcDb2dVertex
 10
1353.0011725261
 20
-229.2555778832
 30
0.0
 70
         1
  0
VERTEX
  5
193
100
AcDbEntity
  8
L1_120
  6
CONTINUOUS
 62
         7
100
AcDbVertex
100
AcDb2dVertex
 10
1353.3711274779
 20
-229.0048286015
 30
0.0
 70
         1
  0
VERTEX
  5
195
100
AcDbEntity
  8
L1_120
  6
CONTINUOUS
 62
         7
100
AcDbVertex
100
AcDb2dVertex
 10
1353.6944931381
 20
-228.7529233158
 30
0.0
 70
         1
  0
VERTEX
  5
197
100
AcDbEntity
  8
L1_120
  6
CONTINUOUS
 62
         7
100
AcDbVertex
100
AcDb2dVertex
 10
1353.9762302562
 20
-228.5041238616
 30
0.0
 70
         1
  0
VERTEX
  5
199
100
AcDbEntity
  8
L1_120
  6
CONTINUOUS
 62
         7
100
AcDbVertex
100
AcDb2dVertex
 10
1354.2211363134
 20
-228.2615203628
 30
0.0
 70
         1
  0
VERTEX
  5
19B
100
AcDbEntity
  8
L1_120
  6
CONTINUOUS
 62
         7
100
AcDbVertex
100
AcDb2dVertex
 10
1354.5005907631
 20
-227.9482824785
 30
0.0
 70
         1
  0
VERTEX
  5
19D
100
AcDbEntity
  8
L1_120
  6
CONTINUOUS
 62
         7
100
AcDbVertex
100
AcDb2dVertex
 10
1354.7311649959
 20
-227.6533105797
 30
0.0
 70
         1
  0
VERTEX
  5
19F
100
AcDbEntity
  8
L1_120
  6
CONTINUOUS
 62
         7
100
AcDbVertex
100
AcDb2dVertex
 10
1354.9213106343
 20
-227.3781246577
 30
0.0
 70
         1
  0
VERTEX
  5
1A1
100
AcDbEntity
  8
L1_120
  6
CONTINUOUS
 62
         7
100
AcDbVertex
100
AcDb2dVertex
 10
1355.1265117062
 20
-227.0382020264
 30
0.0
 70
         1
  0
VERTEX
  5
1A3
100
AcDbEntity
  8
L1_120
  6
CONTINUOUS
 62
         7
100
AcDbVertex
100
AcDb2dVertex
 10
1355.2849558099
 20
-226.7339292707
 30
0.0
 70
         1
  0
VERTEX
  5
1A5
100
AcDbEntity
  8
L1_120
  6
CONTINUOUS
 62
         7
100
AcDbVertex
100
AcDb2dVertex
 10
1355.4444728837
 20
-226.3733903508
 30
0.0
 70
         1
  0
VERTEX
  5
1A7
100
AcDbEntity
  8
L1_120
  6
CONTINUOUS
 62
         7
100
AcDbVertex
100
AcDb2dVertex
 10
1355.5576990362
 20
-226.0667899347
 30
0.0
 70
         1
  0
VERTEX
  5
1A9
100
AcDbEntity
  8
L1_120
  6
CONTINUOUS
 62
         7
100
AcDbVertex
100
AcDb2dVertex
 10
1355.6621108322
 20
-225.721063976
 30
0.0
 70
         1
  0
VERTEX
  5
1AB
100
AcDbEntity
  8
L1_120
  6
CONTINUOUS
 62
         7
100
AcDbVertex
100
AcDb2dVertex
 10
1355.7471888507
 20
-225.354358768
 30
0.0
 70
         1
  0
VERTEX
  5
1AD
100
AcDbEntity
  8
L1_120
  6
CONTINUOUS
 62
         7
100
AcDbVertex
100
AcDb2dVertex
 10
1355.805773306
 20
-224.9960261353
 30
0.0
 70
         1
  0
VERTEX
  5
1AF
100
AcDbEntity
  8
L1_120
  6
CONTINUOUS
 62
         7
100
AcDbVertex
100
AcDb2dVertex
 10
1355.8376104365
 20
-224.6830926588
 30
0.0
 70
         1
  0
VERTEX
  5
1B1
100
AcDbEntity
  8
L1_120
  6
CONTINUOUS
 62
         7
100
AcDbVertex
100
AcDb2dVertex
 10
1355.8516183744
 20
-224.375539923
 30
0.0
 70
         1
  0
VERTEX
  5
1B3
100
AcDbEntity
  8
L1_120
  6
CONTINUOUS
 62
         7
100
AcDbVertex
100
AcDb2dVertex
 10
1355.8525047567
 20
-224.2762334432
 30
0.0
 70
         1
  0
SEQEND
  5
1B5
100
AcDbEntity
  8
L1_120
  6
CONTINUOUS
 62
         7
  0
CIRCLE
  5
1B6
100
AcDbEntity
  8
L1_120
  6
CONTINUOUS
 62
         7
100
AcDbCircle
 10
1349.3275047567
 20
-224.2762334432
 30
0.0
 40
6.025
  0
LINE
  5
1B7
100
AcDbEntity
  8
L1_120
  6
DASHED
 62
         2
100
AcDbLine
 10
1322.3275047567
 20
-214.2662334432
 30
0.0
 11
1327.3275047567
 21
-214.2662334432
 31
0.0
  0
LINE
  5
1B8
100
AcDbEntity
  8
L1_120
  6
DASHED
 62
         2
100
AcDbLine
 10
1322.3275047567
 20
-234.2862334432
 30
0.0
 11
1327.3275047567
 21
-234.2862334432
 31
0.0
  0
LINE
  5
1B9
100
AcDbEntity
  8
L1_120
  6
CONTINUOUS
 62
         7
100
AcDbLine
 10
1316.2276295228
 20
-188.6812272049
 30
0.0
 11
1362.3275047567
 21
-186.3762334432
 31
0.0
  0
LINE
  5
1BA
100
AcDbEntity
  8
L1_120
  6
CONTINUOUS
 62
         7
100
AcDbLine
 10
1316.2276295228
 20
-259.8712396815
 30
0.0
 11
1362.3275047567
 21
-262.1762334432
 31
0.0
  0
LINE
  5
1BB
100
AcDbEntity
  8
L1_120
  6
CONTINUOUS
 62
         7
100
AcDbLine
 10
1314.3275047567
 20
-235.7862334432
 30
0.0
 11
1314.3275047567
 21
-257.8737350038
 31
0.0
  0
ARC
  5
1BC
100
AcDbEntity
  8
L1_120
  6
CONTINUOUS
 62
         7
100
AcDbCircle
 10
1316.3275047567
 20
-257.8737350038
 30
0.0
 40
2.0
100
AcDbArc
 50
180.0
 51
267.1375947739
  0
ARC
  5
1BD
100
AcDbEntity
  8
L1_120
  6
CONTINUOUS
 62
         7
100
AcDbCircle
 10
1321.4475047567
 20
-236.2766019657
 30
0.0
 40
2.88
100
AcDbArc
 50
270.0
 51
360.0
  0
ARC
  5
1BE
100
AcDbEntity
  8
L1_120
  6
CONTINUOUS
 62
         7
100
AcDbCircle
 10
1321.4475047567
 20
-212.2758649208
 30
0.0
 40
2.88
100
AcDbArc
 50
0.0
 51
90.0
  0
LINE
  5
1BF
100
AcDbEntity
  8
L1_120
  6
CONTINUOUS
 62
         7
100
AcDbLine
 10
1324.3275047567
 20
-212.2758649208
 30
0.0
 11
1324.3275047567
 21
-236.2766019657
 31
0.0
  0
ARC
  5
1C0
100
AcDbEntity
  8
L1_120
  6
CONTINUOUS
 62
         7
100
AcDbCircle
 10
1322.3275047567
 20
-216.2662334432
 30
0.0
 40
2.0
100
AcDbArc
 50
0.0
 51
90.0
  0
ARC
  5
1C1
100
AcDbEntity
  8
L1_120
  6
CONTINUOUS
 62
         7
100
AcDbCircle
 10
1322.3275047567
 20
-232.2862334432
 30
0.0
 40
2.0
100
AcDbArc
 50
270.0
 51
360.0
  0
LINE
  5
1C2
100
AcDbEntity
  8
L1_120
  6
CONTINUOUS
 62
         7
100
AcDbLine
 10
1314.3275047567
 20
-190.6787318827
 30
0.0
 11
1314.3275047567
 21
-212.7662334432
 31
0.0
  0
ARC
  5
1C3
100
AcDbEntity
  8
L1_120
  6
CONTINUOUS
 62
         7
100
AcDbCircle
 10
1316.3275047567
 20
-190.6787318827
 30
0.0
 40
2.0
100
AcDbArc
 50
92.8624052261
 51
180.0
  0
LINE
  5
1C4
100
AcDbEntity
  8
L1_120
  6
CONTINUOUS
 62
         7
100
AcDbLine
 10
1315.8275047567
 20
-214.2662334432
 30
0.0
 11
1314.3275047567
 21
-212.7662334432
 31
0.0
  0
LINE
  5
1C5
100
AcDbEntity
  8
L1_120
  6
CONTINUOUS
 62
         7
100
AcDbLine
 10
1315.8275047567
 20
-234.2862334432
 30
0.0
 11
1314.3275047567
 21
-235.7862334432
 31
0.0
  0
LINE
  5
1C6
100
AcDbEntity
  8
L1_120
  6
CONTINUOUS
 62
         7
100
AcDbLine
 10
1314.3275047567
 20
-239.1566019657
 30
0.0
 11
1321.4475047567
 21
-239.1566019657
 31
0.0
  0
LINE
  5
1C7
100
AcDbEntity
  8
L1_120
  6
CONTINUOUS
 62
         7
100
AcDbLine
 10
1314.3275047567
 20
-209.3958649208
 30
0.0
 11
1321.4475047567
 21
-209.3958649208
 31
0.0
  0
LINE
  5
1C8
100
AcDbEntity
  8
L1_120
  6
CONTINUOUS
 62
         7
100
AcDbLine
 10
1315.8275047567
 20
-214.2662334432
 30
0.0
 11
1322.3275047567
 21
-214.2662334432
 31
0.0
  0
LINE
  5
1C9
100
AcDbEntity
  8
L1_120
  6
CONTINUOUS
 62
         7
100
AcDbLine
 10
1315.8275047567
 20
-234.2862334432
 30
0.0
 11
1322.3275047567
 21
-234.2862334432
 31
0.0
  0
LINE
  5
1CA
100
AcDbEntity
  8
L1_120
  6
CENTER
 62
         1
100
AcDbLine
 10
1384.3275047567
 20
-167.7566795623
 30
0.0
 11
1384.3275047567
 21
-275.0747932512
 31
0.0
  0
LINE
  5
1CB
100
AcDbEntity
  8
L1_120
  6
CONTINUOUS
 62
         7
100
AcDbLine
 10
1393.3275047567
 20
-175.2762334432
 30
0.0
 11
1393.3275047567
 21
-224.2762334432
 31
0.0
  0
LINE
  5
1CC
100
AcDbEntity
  8
L1_120
  6
CENTER
 62
         1
100
AcDbLine
 10
1354.3275047567
 20
-186.7762334432
 30
0.0
 11
1354.3275047567
 21
-261.7762334432
 31
0.0
  0
LINE
  5
1CD
100
AcDbEntity
  8
L1_120
  6
CONTINUOUS
 62
         7
100
AcDbLine
 10
1364.3275047567
 20
-175.2762334432
 30
0.0
 11
1364.3275047567
 21
-273.2762334432
 31
0.0
  0
LINE
  5
1CE
100
AcDbEntity
  8
L1_120
  6
CONTINUOUS
 62
         7
100
AcDbLine
 10
1381.0799094925
 20
-274.2762334432
 30
0.0
 11
1382.4525047567
 21
-271.8988287074
 31
0.0
  0
LINE
  5
1CF
100
AcDbEntity
  8
L1_120
  6
CONTINUOUS
 62
         7
100
AcDbLine
 10
1365.3275047567
 20
-274.2762334432
 30
0.0
 11
1381.0799094925
 21
-274.2762334432
 31
0.0
  0
LINE
  5
1D0
100
AcDbEntity
  8
L1_120
  6
CONTINUOUS
 62
         7
100
AcDbLine
 10
1386.2025047567
 20
-271.8988287074
 30
0.0
 11
1386.2025047567
 21
-270.7762334432
 31
0.0
  0
LINE
  5
1D1
100
AcDbEntity
  8
L1_120
  6
CONTINUOUS
 62
         7
100
AcDbLine
 10
1382.9525047567
 20
-270.2762334432
 30
0.0
 11
1385.7025047567
 21
-270.2762334432
 31
0.0
  0
ARC
  5
1D2
100
AcDbEntity
  8
L1_120
  6
CONTINUOUS
 62
         7
100
AcDbCircle
 10
1385.7025047567
 20
-270.7762334432
 30
0.0
 40
0.5
100
AcDbArc
 50
0.0
 51
90.0
  0
LINE
  5
1D3
100
AcDbEntity
  8
L1_120
  6
CONTINUOUS
 62
         7
100
AcDbLine
 10
1387.5751000209
 20
-274.2762334432
 30
0.0
 11
1386.2025047567
 21
-271.8988287074
 31
0.0
  0
LINE
  5
1D4
100
AcDbEntity
  8
L1_120
  6
CONTINUOUS
 62
         7
100
AcDbLine
 10
1387.5751000209
 20
-274.2762334432
 30
0.0
 11
1392.3275047567
 21
-274.2762334432
 31
0.0
  0
LINE
  5
1D5
100
AcDbEntity
  8
L1_120
  6
CONTINUOUS
 62
         7
100
AcDbLine
 10
1382.4525047567
 20
-271.8988287074
 30
0.0
 11
1382.4525047567
 21
-270.7762334432
 31
0.0
  0
ARC
  5
1D6
100
AcDbEntity
  8
L1_120
  6
CONTINUOUS
 62
         7
100
AcDbCircle
 10
1382.9525047567
 20
-270.7762334432
 30
0.0
 40
0.5
100
AcDbArc
 50
90.0
 51
180.0
  0
LINE
  5
1D7
100
AcDbEntity
  8
L1_120
  6
CENTER
 62
         1
100
AcDbLine
 10
1381.3327311727
 20
-224.2762334432
 30
0.0
 11
1393.3275047567
 21
-224.2762334432
 31
0.0
  0
ARC
  5
1D8
100
AcDbEntity
  8
L1_120
  6
DASHED
 62
         2
100
AcDbCircle
 10
1327.3275047567
 20
-216.2662334432
 30
0.0
 40
2.0
100
AcDbArc
 50
0.0
 51
90.0
  0
LINE
  5
1D9
100
AcDbEntity
  8
L1_120
  6
DASHED
 62
         2
100
AcDbLine
 10
1329.3275047567
 20
-216.2662334432
 30
0.0
 11
1329.3275047567
 21
-232.2862334432
 31
0.0
  0
ARC
  5
1DA
100
AcDbEntity
  8
L1_120
  6
DASHED
 62
         2
100
AcDbCircle
 10
1327.3275047567
 20
-232.2862334432
 30
0.0
 40
2.0
100
AcDbArc
 50
270.0
 51
360.0
  0
LINE
  5
1DB
100
AcDbEntity
  8
L1_120
  6
CENTER
 62
         1
100
AcDbLine
 10
1349.3275047567
 20
-209.4680085581
 30
0.0
 11
1349.3275047567
 21
-238.1407044492
 31
0.0
  0
LINE
  5
1DC
100
AcDbEntity
  8
L1_120
  6
CONTINUOUS
 62
         7
100
AcDbLine
 10
1381.0799094925
 20
-174.2762334432
 30
0.0
 11
1382.4525047567
 21
-176.653638179
 31
0.0
  0
LINE
  5
1DD
100
AcDbEntity
  8
L1_120
  6
CONTINUOUS
 62
         7
100
AcDbLine
 10
1365.3275047567
 20
-174.2762334432
 30
0.0
 11
1381.0799094925
 21
-174.2762334432
 31
0.0
  0
LINE
  5
1DE
100
AcDbEntity
  8
L1_120
  6
CONTINUOUS
 62
         7
100
AcDbLine
 10
1382.9525047567
 20
-178.2762334432
 30
0.0
 11
1385.7025047567
 21
-178.2762334432
 31
0.0
  0
LINE
  5
1DF
100
AcDbEntity
  8
L1_120
  6
CONTINUOUS
 62
         7
100
AcDbLine
 10
1386.2025047567
 20
-176.653638179
 30
0.0
 11
1386.2025047567
 21
-177.7762334432
 31
0.0
  0
LINE
  5
1E0
100
AcDbEntity
  8
L1_120
  6
CONTINUOUS
 62
         7
100
AcDbLine
 10
1387.5751000209
 20
-174.2762334432
 30
0.0
 11
1386.2025047567
 21
-176.653638179
 31
0.0
  0
ARC
  5
1E1
100
AcDbEntity
  8
L1_120
  6
CONTINUOUS
 62
         7
100
AcDbCircle
 10
1385.7025047567
 20
-177.7762334432
 30
0.0
 40
0.5
100
AcDbArc
 50
270.0
 51
360.0
  0
LINE
  5
1E2
100
AcDbEntity
  8
L1_120
  6
CONTINUOUS
 62
         7
100
AcDbLine
 10
1387.5751000209
 20
-174.2762334432
 30
0.0
 11
1392.3275047567
 21
-174.2762334432
 31
0.0
  0
LINE
  5
1E3
100
AcDbEntity
  8
L1_120
  6
CONTINUOUS
 62
         7
100
AcDbLine
 10
1382.4525047567
 20
-176.653638179
 30
0.0
 11
1382.4525047567
 21
-177.7762334432
 31
0.0
  0
ARC
  5
1E4
100
AcDbEntity
  8
L1_120
  6
CONTINUOUS
 62
         7
100
AcDbCircle
 10
1382.9525047567
 20
-177.7762334432
 30
0.0
 40
0.5
100
AcDbArc
 50
180.0
 51
270.0
  0
ARC
  5
1E5
100
AcDbEntity
  8
L1_120
  6
CONTINUOUS
 62
         7
100
AcDbCircle
 10
1363.367000506
 20
-186.3441826357
 30
0.0
 40
0.3
100
AcDbArc
 50
255.0
 51
270.0
  0
ARC
  5
1E6
100
AcDbEntity
  8
L1_120
  6
CONTINUOUS
 62
         7
100
AcDbCircle
 10
1364.0275047567
 20
-186.3441826357
 30
0.0
 40
0.3
100
AcDbArc
 50
270.0
 51
360.0
  0
LINE
  5
1E7
100
AcDbEntity
  8
L1_120
  6
CONTINUOUS
 62
         7
100
AcDbLine
 10
1363.367000506
 20
-186.6441826357
 30
0.0
 11
1364.0275047567
 21
-186.6441826357
 31
0.0
  0
LINE
  5
1E8
100
AcDbEntity
  8
L1_120
  6
CONTINUOUS
 62
         7
100
AcDbLine
 10
1362.3275047567
 20
-186.3762334432
 30
0.0
 11
1363.2893547925
 21
-186.6339603835
 31
0.0
  0
ARC
  5
1E9
100
AcDbEntity
  8
L1_120
  6
CONTINUOUS
 62
         7
100
AcDbCircle
 10
1363.367000506
 20
-262.2082842508
 30
0.0
 40
0.3
100
AcDbArc
 50
90.0
 51
105.0
  0
LINE
  5
1EA
100
AcDbEntity
  8
L1_120
  6
CONTINUOUS
 62
         7
100
AcDbLine
 10
1363.367000506
 20
-261.9082842508
 30
0.0
 11
1364.0275047567
 21
-261.9082842508
 31
0.0
  0
LINE
  5
1EB
100
AcDbEntity
  8
L1_120
  6
CONTINUOUS
 62
         7
100
AcDbLine
 10
1362.3275047567
 20
-262.1762334432
 30
0.0
 11
1363.2893547925
 21
-261.9185065029
 31
0.0
  0
ARC
  5
1EC
100
AcDbEntity
  8
L1_120
  6
CONTINUOUS
 62
         7
100
AcDbCircle
 10
1364.0275047567
 20
-262.2082842508
 30
0.0
 40
0.3
100
AcDbArc
 50
0.0
 51
90.0
  0
LINE
  5
1ED
100
AcDbEntity
  8
L1_120
  6
CONTINUOUS
 62
         4
100
AcDbLine
 10
1362.3275047567
 20
-186.3762334432
 30
0.0
 11
1362.3275047567
 21
-262.1762334432
 31
0.0
  0
LINE
  5
1EE
100
AcDbEntity
  8
L1_120
  6
CONTINUOUS
 62
         7
100
AcDbLine
 10
1393.3275047567
 20
-224.2762334432
 30
0.0
 11
1393.3275047567
 21
-273.2762334432
 31
0.0
  0
LINE
  5
1EF
100
AcDbEntity
  8
L1_120
  6
DASHED
 62
         2
100
AcDbLine
 10
1368.1129152626
 20
-178.9912756438
 30
0.0
 11
1368.1129152626
 21
-202.8103110987
 31
0.0
  0
LINE
  5
1F0
100
AcDbEntity
  8
L1_120
  6
DASHED
 62
         2
100
AcDbLine
 10
1376.1129152626
 20
-178.9912756438
 30
0.0
 11
1368.1129152626
 21
-178.9912756438
 31
0.0
  0
LINE
  5
1F1
100
AcDbEntity
  8
L1_120
  6
DASHED
 62
         2
100
AcDbLine
 10
1376.1129152626
 20
-178.9912756438
 30
0.0
 11
1376.1129152626
 21
-202.8103110987
 31
0.0
  0
LINE
  5
1F2
100
AcDbEntity
  8
L1_120
  6
DASHED
 62
         2
100
AcDbLine
 10
1376.1129152626
 20
-202.8103110987
 30
0.0
 11
1368.1129152626
 21
-202.8103110987
 31
0.0
  0
LINE
  5
1F3
100
AcDbEntity
  8
L1_120
  6
CENTER
 62
         1
100
AcDbLine
 10
1231.0721451996
 20
-175.0406455357
 30
0.0
 11
1231.0721451996
 21
-275.0406455357
 31
0.0
  0
LINE
  5
1F4
100
AcDbEntity
  8
L1_120
  6
CENTER
 62
         1
100
AcDbLine
 10
1181.0721451996
 20
-225.0406455357
 30
0.0
 11
1281.0721451996
 21
-225.0406455357
 31
0.0
  0
LINE
  5
1F5
100
AcDbEntity
  8
L1_120
  6
CONTINUOUS
 62
         7
100
AcDbLine
 10
1324.3275047567
 20
-214.0327203366
 30
0.0
 11
1324.3275047567
 21
-234.5196202423
 31
0.0
  0
LINE
  5
1F6
100
AcDbEntity
  8
L1_120
  6
CENTER
 62
         1
100
AcDbLine
 10
1313.3275047567
 20
-338.1686220058
 30
0.0
 11
1523.3120942509
 21
-338.1686220058
 31
0.0
  0
LINE
  5
1F7
100
AcDbEntity
  8
L1_120
  6
CONTINUOUS
 62
         7
100
AcDbLine
 10
1328.3275047567
 20
-333.3986220057
 30
0.0
 11
1328.3275047567
 21
-342.9386220057
 31
0.0
  0
LINE
  5
1F8
100
AcDbEntity
  8
L1_120
  6
CENTER
 62
         1
100
AcDbLine
 10
1400.9275047567
 20
-254.7318810438
 30
0.0
 11
1400.9275047567
 21
-193.6784060222
 31
0.0
  0
CIRCLE
  5
1F9
100
AcDbEntity
  8
L1_120
  6
CONTINUOUS
 62
         7
100
AcDbCircle
 10
1400.9275047567
 20
-224.2762334432
 30
0.0
 40
2.6
  0
ARC
  5
1FA
100
AcDbEntity
  8
L1_120
  6
CONTINUOUS
 62
         5
100
AcDbCircle
 10
1400.9275047567
 20
-224.2762334432
 30
0.0
 40
3.1
100
AcDbArc
 50
245.1974867242
 51
572.2725742614
  0
LINE
  5
1FB
100
AcDbEntity
  8
L1_120
  6
CONTINUOUS
 62
         7
100
AcDbLine
 10
1467.1695834439
 20
-197.7762334432
 30
0.0
 11
1523.4259638525
 21
-202.2037066011
 31
0.0
  0
ARC
  5
1FC
100
AcDbEntity
  8
L1_120
  6
CONTINUOUS
 62
         7
100
AcDbCircle
 10
1523.3475047567
 20
-203.2006239349
 30
0.0
 40
1.0
100
AcDbArc
 50
0.0
 51
85.5
  0
LINE
  5
1FD
100
AcDbEntity
  8
L1_120
  6
CONTINUOUS
 62
         7
100
AcDbLine
 10
1524.3475047567
 20
-203.2006239349
 30
0.0
 11
1524.3475047567
 21
-245.3518429516
 31
0.0
  0
ARC
  5
1FE
100
AcDbEntity
  8
L1_120
  6
CONTINUOUS
 62
         7
100
AcDbCircle
 10
1523.3475047567
 20
-245.3518429516
 30
0.0
 40
1.0
100
AcDbArc
 50
274.5
 51
360.0
  0
LINE
  5
1FF
100
AcDbEntity
  8
L1_120
  6
CONTINUOUS
 62
         7
100
AcDbLine
 10
1467.1695834439
 20
-250.7762334432
 30
0.0
 11
1523.4259638525
 21
-246.3487602853
 31
0.0
  0
DIMENSION
  5
203
100
AcDbEntity
  8
L1_120
  6
CONTINUOUS
 62
         4
100
AcDbDimension
  2
*D0
 10
1544.6065673485
 20
-201.8382334432
 30
0.0
 11
1541.9815673485
 21
-231.012689207
 31
0.0
  3
DIMSTYLE1
100
AcDbAlignedDimension
 13
1524.3475047567
 23
-201.8382334432
 33
0.0
 14
1524.3475047567
 24
-246.7142334432
 34
0.0
 50
90.0
100
AcDbRotatedDimension
  0
LINE
  5
210
100
AcDbEntity
  8
L1_120
  6
CONTINUOUS
 62
         7
100
AcDbLine
 10
1396.3275047567
 20
-197.7762334432
 30
0.0
 11
1467.1695834439
 21
-197.7762334432
 31
0.0
  0
LINE
  5
211
100
AcDbEntity
  8
L1_120
  6
CONTINUOUS
 62
         7
100
AcDbLine
 10
1396.3275047567
 20
-250.7762334432
 30
0.0
 11
1467.1695834439
 21
-250.7762334432
 31
0.0
  0
LINE
  5
212
100
AcDbEntity
  8
L1_120
  6
CONTINUOUS
 62
         4
100
AcDbLine
 10
1467.1695834439
 20
-250.7762334432
 30
0.0
 11
1467.1695834439
 21
-197.7762334432
 31
0.0
  0
DIMENSION
  5
215
100
AcDbEntity
  8
L1_120
  6
CONTINUOUS
 62
         4
100
AcDbDimension
  2
*D1
 10
1557.1626096495
 20
-197.7762334432
 30
0.0
 11
1554.5376096495
 21
-231.2762334432
 31
0.0
  3
DIMSTYLE1
100
AcDbAlignedDimension
 13
1467.1695834439
 23
-197.7762334432
 33
0.0
 14
1467.1695834439
 24
-250.7762334432
 34
0.0
 50
90.0
100
AcDbRotatedDimension
  0
DIMENSION
  5
223
100
AcDbEntity
  8
L1_120
  6
CONTINUOUS
 62
         4
100
AcDbDimension
  2
*D2
 10
1467.1430086592
 20
-197.7741497742
 30
0.0
 11
1497.7533395734
 21
-192.8453905041
 31
0.0
 70
         2
  3
DIMSTYLE1
100
AcDb2LineAngularDimension
 13
1466.4375047567
 23
-197.7741497742
 33
0.0
 14
1467.1430086592
 24
-197.7741497742
 34
0.0
 15
1523.4259638525
 25
-202.203714413
 35
0.0
 16
1496.055971096
 26
-197.7741497742
 36
0.0
  0
ARC
  5
232
100
AcDbEntity
  8
L1_120
  6
CONTINUOUS
 62
         7
100
AcDbCircle
 10
1396.3275047567
 20
-194.7762334432
 30
0.0
 40
3.0
100
AcDbArc
 50
180.0
 51
270.0
  0
ARC
  5
233
100
AcDbEntity
  8
L1_120
  6
CONTINUOUS
 62
         7
100
AcDbCircle
 10
1396.3275047567
 20
-253.7762334432
 30
0.0
 40
3.0
100
AcDbArc
 50
90.0
 51
180.0
  0
ARC
  5
234
100
AcDbEntity
  8
L1_120
  6
CONTINUOUS
 62
         7
100
AcDbCircle
 10
1399.9275047567
 20
-294.8679055287
 30
0.0
 40
17.0007080482
100
AcDbArc
 50
261.2029585925
 51
278.7970414075
  0
ARC
  5
235
100
AcDbEntity
  8
L1_120
  6
CONTINUOUS
 62
         7
100
AcDbCircle
 10
1399.9275047567
 20
-381.3843168145
 30
0.0
 40
17.0007191889
100
AcDbArc
 50
81.202964403
 51
98.797035597
  0
LINE
  5
236
100
AcDbEntity
  8
L1_120
  6
CONTINUOUS
 62
         7
100
AcDbLine
 10
1399.9275047567
 20
-320.1697327056
 30
0.0
 11
1397.3275047567
 21
-318.6686220057
 31
0.0
  0
LINE
  5
237
100
AcDbEntity
  8
L1_120
  6
CONTINUOUS
 62
         7
100
AcDbLine
 10
1399.9275047567
 20
-356.0824783643
 30
0.0
 11
1397.3275047567
 21
-357.5835890642
 31
0.0
  0
LINE
  5
238
100
AcDbEntity
  8
L1_120
  6
CONTINUOUS
 62
         7
100
AcDbLine
 10
1402.5275047567
 20
-318.6686220057
 30
0.0
 11
1402.5275047567
 21
-311.6686220057
 31
0.0
  0
LINE
  5
239
100
AcDbEntity
  8
L1_120
  6
CONTINUOUS
 62
         7
100
AcDbLine
 10
1402.5275047567
 20
-357.5835890642
 30
0.0
 11
1402.5275047567
 21
-364.5835890642
 31
0.0
  0
LINE
  5
23A
100
AcDbEntity
  8
L1_120
  6
CONTINUOUS
 62
         7
100
AcDbLine
 10
1397.3275047567
 20
-318.6686220057
 30
0.0
 11
1397.3275047567
 21
-311.6686220057
 31
0.0
  0
LINE
  5
23B
100
AcDbEntity
  8
L1_120
  6
CONTINUOUS
 62
         7
100
AcDbLine
 10
1397.3275047567
 20
-357.5835890642
 30
0.0
 11
1397.3275047567
 21
-364.5835890642
 31
0.0
  0
LINE
  5
23C
100
AcDbEntity
  8
L1_120
  6
CONTINUOUS
 62
         7
100
AcDbLine
 10
1403.0275047567
 20
-318.6686220057
 30
0.0
 11
1396.8275047567
 21
-318.6686220057
 31
0.0
  0
LINE
  5
23D
100
AcDbEntity
  8
L1_120
  6
CONTINUOUS
 62
         7
100
AcDbLine
 10
1402.5275047567
 20
-318.6686220057
 30
0.0
 11
1397.3275047567
 21
-318.6686220057
 31
0.0
  0
LINE
  5
23E
100
AcDbEntity
  8
L1_120
  6
CONTINUOUS
 62
         7
100
AcDbLine
 10
1399.9275047567
 20
-356.0824783643
 30
0.0
 11
1402.5275047567
 21
-357.5835890642
 31
0.0
  0
LINE
  5
23F
100
AcDbEntity
  8
L1_120
  6
CONTINUOUS
 62
         7
100
AcDbLine
 10
1399.9275047567
 20
-320.1697327056
 30
0.0
 11
1402.5275047567
 21
-318.6686220057
 31
0.0
  0
LINE
  5
240
100
AcDbEntity
  8
L1_120
  6
CONTINUOUS
 62
         7
100
AcDbLine
 10
1403.0275047567
 20
-357.5835890642
 30
0.0
 11
1396.8275047567
 21
-357.5835890642
 31
0.0
  0
LINE
  5
241
100
AcDbEntity
  8
L1_120
  6
CONTINUOUS
 62
         7
100
AcDbLine
 10
1402.5275047567
 20
-357.5835890642
 30
0.0
 11
1397.3275047567
 21
-357.5835890642
 31
0.0
  0
LINE
  5
242
100
AcDbEntity
  8
L1_120
  6
CONTINUOUS
 62
         4
100
AcDbLine
 10
1403.0275047567
 20
-318.6686220057
 30
0.0
 11
1403.0275047567
 21
-311.6686220057
 31
0.0
  0
LINE
  5
243
100
AcDbEntity
  8
L1_120
  6
CONTINUOUS
 62
         4
100
AcDbLine
 10
1403.0275047567
 20
-357.5835890642
 30
0.0
 11
1403.0275047567
 21
-364.5835890642
 31
0.0
  0
LINE
  5
244
100
AcDbEntity
  8
L1_120
  6
CONTINUOUS
 62
         4
100
AcDbLine
 10
1396.8275047567
 20
-318.6686220057
 30
0.0
 11
1396.8275047567
 21
-311.6686220057
 31
0.0
  0
LINE
  5
245
100
AcDbEntity
  8
L1_120
  6
CONTINUOUS
 62
         4
100
AcDbLine
 10
1396.8275047567
 20
-357.5835890642
 30
0.0
 11
1396.8275047567
 21
-364.5835890642
 31
0.0
  0
LINE
  5
246
100
AcDbEntity
  8
L1_120
  6
CENTER
 62
         1
100
AcDbLine
 10
1399.9275047567
 20
-366.2546370846
 30
0.0
 11
1399.9275047567
 21
-308.8553301856
 31
0.0
  0
LINE
  5
247
100
AcDbEntity
  8
L1_120
  6
CONTINUOUS
 62
         7
100
AcDbLine
 10
1392.3275047567
 20
-332.1686220057
 30
0.0
 11
1434.4235987932
 21
-332.1686220057
 31
0.0
  0
LINE
  5
248
100
AcDbEntity
  8
L1_120
  6
CONTINUOUS
 62
         7
100
AcDbLine
 10
1392.3275047567
 20
-344.1686220057
 30
0.0
 11
1434.4235987933
 21
-344.1686220057
 31
0.0
  0
LINE
  5
249
100
AcDbEntity
  8
L1_120
  6
CONTINUOUS
 62
         7
100
AcDbLine
 10
1392.3275047567
 20
-332.1686220057
 30
0.0
 11
1391.8275047567
 21
-331.6686220057
 31
0.0
  0
LINE
  5
24A
100
AcDbEntity
  8
L1_120
  6
CONTINUOUS
 62
         7
100
AcDbLine
 10
1392.3275047567
 20
-344.1686220057
 30
0.0
 11
1391.8275047567
 21
-344.6686220057
 31
0.0
  0
LINE
  5
24B
100
AcDbEntity
  8
L1_120
  6
CONTINUOUS
 62
         7
100
AcDbLine
 10
1392.3275047567
 20
-332.1686220057
 30
0.0
 11
1392.3275047567
 21
-344.1686220057
 31
0.0
  0
LINE
  5
24C
100
AcDbEntity
  8
L1_120
  6
CONTINUOUS
 62
         7
100
AcDbLine
 10
1434.4235987932
 20
-332.1686220057
 30
0.0
 11
1435.3473592239
 21
-330.5686220057
 31
0.0
  0
LINE
  5
24D
100
AcDbEntity
  8
L1_120
  6
CONTINUOUS
 62
         7
100
AcDbLine
 10
1434.4235987933
 20
-344.1686220057
 30
0.0
 11
1435.347359224
 21
-345.7686220057
 31
0.0
  0
LINE
  5
24E
100
AcDbEntity
  8
L1_120
  6
CONTINUOUS
 62
         7
100
AcDbLine
 10
1434.4235987932
 20
-332.1686220057
 30
0.0
 11
1434.4235987932
 21
-344.1686220057
 31
0.0
  0
LINE
  5
24F
100
AcDbEntity
  8
L1_120
  6
CONTINUOUS
 62
         7
100
AcDbLine
 10
1475.3470942509
 20
-324.9186220057
 30
0.0
 11
1475.3470942509
 21
-351.4186220057
 31
0.0
  0
LINE
  5
250
100
AcDbEntity
  8
L1_120
  6
CONTINUOUS
 62
         7
100
AcDbLine
 10
1465.3470942509
 20
-324.9186220057
 30
0.0
 11
1465.3470942509
 21
-351.4186220057
 31
0.0
  0
LINE
  5
251
100
AcDbEntity
  8
L1_120
  6
CONTINUOUS
 62
         7
100
AcDbLine
 10
1465.3470942509
 20
-351.4186220057
 30
0.0
 11
1475.3470942509
 21
-351.4186220057
 31
0.0
  0
LINE
  5
252
100
AcDbEntity
  8
L1_120
  6
CONTINUOUS
 62
         7
100
AcDbLine
 10
1465.3470942509
 20
-324.9186220057
 30
0.0
 11
1475.3470942509
 21
-324.9186220057
 31
0.0
  0
LINE
  5
253
100
AcDbEntity
  8
L1_120
  6
CONTINUOUS
 62
         7
100
AcDbLine
 10
1475.3470942509
 20
-325.4796220057
 30
0.0
 11
1522.3470942509
 21
-325.4796220057
 31
0.0
  0
LINE
  5
254
100
AcDbEntity
  8
L1_120
  6
CONTINUOUS
 62
         7
100
AcDbLine
 10
1475.3470942509
 20
-350.8576220057
 30
0.0
 11
1522.3470942509
 21
-350.8576220057
 31
0.0
  0
LINE
  5
255
100
AcDbEntity
  8
L1_120
  6
CONTINUOUS
 62
         4
100
AcDbLine
 10
1522.3470942509
 20
-325.4796220057
 30
0.0
 11
1522.3470942509
 21
-350.8576220057
 31
0.0
  0
LINE
  5
256
100
AcDbEntity
  8
L1_120
  6
CONTINUOUS
 62
         4
100
AcDbLine
 10
1445.3470942509
 20
-330.1686220057
 30
0.0
 11
1445.3470942509
 21
-346.1686220057
 31
0.0
  0
LINE
  5
257
100
AcDbEntity
  8
L1_120
  6
CONTINUOUS
 62
         4
100
AcDbLine
 10
1445.3470942509
 20
-346.1686220057
 30
0.0
 11
1465.3470942509
 21
-346.1686220057
 31
0.0
  0
LINE
  5
258
100
AcDbEntity
  8
L1_120
  6
CONTINUOUS
 62
         4
100
AcDbLine
 10
1445.3470942509
 20
-330.1686220057
 30
0.0
 11
1465.3470942509
 21
-330.1686220057
 31
0.0
  0
ARC
  5
259
100
AcDbEntity
  8
L1_120
  6
CONTINUOUS
 62
         7
100
AcDbCircle
 10
1522.3470942509
 20
-324.4796220057
 30
0.0
 40
1.0
100
AcDbArc
 50
270.0
 51
360.0
  0
ARC
  5
25A
100
AcDbEntity
  8
L1_120
  6
CONTINUOUS
 62
         7
100
AcDbCircle
 10
1522.3470942509
 20
-351.8576220057
 30
0.0
 40
1.0
100
AcDbArc
 50
0.0
 51
90.0
  0
LINE
  5
25B
100
AcDbEntity
  8
L1_120
  6
CONTINUOUS
 62
         7
100
AcDbLine
 10
1435.3473592239
 20
-330.5686220057
 30
0.0
 11
1435.347359224
 21
-345.7686220057
 31
0.0
  0
LINE
  5
25C
100
AcDbEntity
  8
L1_120
  6
CONTINUOUS
 62
         7
100
AcDbLine
 10
1466.1691729381
 20
-364.6686220057
 30
0.0
 11
1522.4255533466
 21
-360.2411488478
 31
0.0
  0
ARC
  5
25D
100
AcDbEntity
  8
L1_120
  6
CONTINUOUS
 62
         7
100
AcDbCircle
 10
1522.3470942509
 20
-359.2442315141
 30
0.0
 40
1.0
100
AcDbArc
 50
274.5
 51
360.0
  0
LINE
  5
25E
100
AcDbEntity
  8
L1_120
  6
CONTINUOUS
 62
         7
100
AcDbLine
 10
1523.3470942509
 20
-317.0930124974
 30
0.0
 11
1523.3470942509
 21
-359.2442315141
 31
0.0
  0
LINE
  5
25F
100
AcDbEntity
  8
L1_120
  6
CONTINUOUS
 62
         7
100
AcDbLine
 10
1466.1691729381
 20
-311.6686220057
 30
0.0
 11
1522.4255533466
 21
-316.0960951636
 31
0.0
  0
ARC
  5
260
100
AcDbEntity
  8
L1_120
  6
CONTINUOUS
 62
         7
100
AcDbCircle
 10
1522.3470942509
 20
-317.0930124974
 30
0.0
 40
1.0
100
AcDbArc
 50
0.0
 51
85.5
  0
LINE
  5
261
100
AcDbEntity
  8
L1_120
  6
CONTINUOUS
 62
         7
100
AcDbLine
 10
1395.3275047567
 20
-311.6686220057
 30
0.0
 11
1466.1691729381
 21
-311.6686220057
 31
0.0
  0
LINE
  5
262
100
AcDbEntity
  8
L1_120
  6
CONTINUOUS
 62
         7
100
AcDbLine
 10
1395.3275047567
 20
-364.6686220057
 30
0.0
 11
1466.1691729381
 21
-364.6686220057
 31
0.0
  0
LINE
  5
263
100
AcDbEntity
  8
L1_120
  6
CONTINUOUS
 62
         7
100
AcDbLine
 10
1435.3473592239
 20
-330.5686220057
 30
0.0
 11
1465.3470942509
 21
-330.5686220057
 31
0.0
  0
LINE
  5
264
100
AcDbEntity
  8
L1_120
  6
CONTINUOUS
 62
         7
100
AcDbLine
 10
1435.347359224
 20
-345.7686220057
 30
0.0
 11
1465.3470942509
 21
-345.7686220057
 31
0.0
  0
ARC
  5
265
100
AcDbEntity
  8
L1_120
  6
CONTINUOUS
 62
         7
100
AcDbCircle
 10
1395.3275047567
 20
-367.6686220057
 30
0.0
 40
3.0
100
AcDbArc
 50
90.0
 51
180.0
  0
ARC
  5
266
100
AcDbEntity
  8
L1_120
  6
CONTINUOUS
 62
         7
100
AcDbCircle
 10
1395.3275047567
 20
-308.6686220057
 30
0.0
 40
3.0
100
AcDbArc
 50
180.0
 51
270.0
  0
LINE
  5
267
100
AcDbEntity
  8
L1_120
  6
CONTINUOUS
 62
         7
100
AcDbLine
 10
1392.3275047567
 20
-289.1686220057
 30
0.0
 11
1392.3275047567
 21
-308.6686220057
 31
0.0
  0
LINE
  5
268
100
AcDbEntity
  8
L1_120
  6
CONTINUOUS
 62
         7
100
AcDbLine
 10
1392.3275047567
 20
-367.6686220057
 30
0.0
 11
1392.3275047567
 21
-387.1686220057
 31
0.0
  0
DIMENSION
  5
26B
100
AcDbEntity
  8
L1_120
  6
CONTINUOUS
 62
         4
100
AcDbDimension
  2
*D3
 10
1314.3275047567
 20
-136.1234402664
 30
0.0
 11
1408.8375047567
 21
-133.4984402664
 31
0.0
  3
DIMSTYLE1
100
AcDbAlignedDimension
 13
1314.3275047567
 23
-190.6787318827
 33
0.0
 14
1524.3475047567
 24
-213.2006239349
 34
0.0
100
AcDbRotatedDimension
  0
DIMENSION
  5
279
100
AcDbEntity
  8
L1_120
  6
CONTINUOUS
 62
         4
100
AcDbDimension
  2
*D4
 10
1364.3275047567
 20
-149.9563587285
 30
0.0
 11
1439.0875047567
 21
-147.3313587285
 31
0.0
  3
DIMSTYLE1
100
AcDbAlignedDimension
 13
1364.3275047567
 23
-175.2762334432
 33
0.0
 14
1524.3475047567
 24
-213.2006239349
 34
0.0
100
AcDbRotatedDimension
  0
TEXT
  5
286
100
AcDbEntity
  8
L1_120
  6
CONTINUOUS
 62
         2
100
AcDbText
 10
1588.3296303534
 20
-145.5339948091
 30
0.0
 40
4.5
  1
536458
 41
0.98
  7
BOX
100
AcDbText
  0
INSERT
  5
306
100
AcDbEntity
  8
0
  6
CONTINUOUS
100
AcDbBlockReference
  2
*X5
 10
0.0
 20
0.0
 30
0.0
  0
DIMENSION
  5
309
100
AcDbEntity
  8
L1_120
  6
CONTINUOUS
 62
         4
100
AcDbDimension
  2
*D6
 10
1465.3470942509
 20
-386.7559688616
 30
0.0
 11
1492.1868612715
 21
-382.6959688616
 31
0.0
  3
DIMSTYLE1
100
AcDbAlignedDimension
 13
1465.3470942509
 23
-346.6686220057
 33
0.0
 14
1523.3470942509
 24
-358.7578410224
 34
0.0
100
AcDbRotatedDimension
  0
LINE
  5
315
100
AcDbEntity
  8
L1_120
  6
CENTER
 62
         1
100
AcDbLine
 10
1580.3402780201
 20
-323.3381032751
 30
0.0
 11
1553.7440577011
 21
-323.3381032751
 31
0.0
  0
LINE
  5
316
100
AcDbEntity
  8
L1_120
  6
CONTINUOUS
 62
         7
100
AcDbLine
 10
1575.4525656501
 20
-317.3381032751
 30
0.0
 11
1557.7525656501
 21
-317.3381032751
 31
0.0
  0
LINE
  5
317
100
AcDbEntity
  8
L1_120
  6
CONTINUOUS
 62
         7
100
AcDbLine
 10
1557.7525656501
 20
-329.3381032751
 30
0.0
 11
1575.4525656501
 21
-329.3381032751
 31
0.0
  0
LINE
  5
318
100
AcDbEntity
  8
L1_120
  6
CONTINUOUS
 62
         7
100
AcDbLine
 10
1576.9525656501
 20
-318.8381032751
 30
0.0
 11
1576.9525656501
 21
-327.8381032751
 31
0.0
  0
LINE
  5
319
100
AcDbEntity
  8
L1_120
  6
CONTINUOUS
 62
         7
100
AcDbLine
 10
1556.9525656501
 20
-318.7237439212
 30
0.0
 11
1556.9525656501
 21
-327.9524626291
 31
0.0
  0
LINE
  5
31A
100
AcDbEntity
  8
L1_120
  6
CONTINUOUS
 62
         4
100
AcDbLine
 10
1557.7525656501
 20
-317.3381032751
 30
0.0
 11
1557.7525656501
 21
-329.3381032751
 31
0.0
  0
LINE
  5
31B
100
AcDbEntity
  8
L1_120
  6
CONTINUOUS
 62
         4
100
AcDbLine
 10
1575.4525656501
 20
-317.3381032751
 30
0.0
 11
1575.4525656501
 21
-329.3381032751
 31
0.0
  0
LINE
  5
31C
100
AcDbEntity
  8
L1_120
  6
CONTINUOUS
 62
         7
100
AcDbLine
 10
1557.7525656501
 20
-317.3381032751
 30
0.0
 11
1556.9525656501
 21
-318.7237439212
 31
0.0
  0
LINE
  5
31D
100
AcDbEntity
  8
L1_120
  6
CONTINUOUS
 62
         7
100
AcDbLine
 10
1557.7525656501
 20
-329.3381032751
 30
0.0
 11
1556.9525656501
 21
-327.9524626291
 31
0.0
  0
LINE
  5
31E
100
AcDbEntity
  8
L1_120
  6
CONTINUOUS
 62
         7
100
AcDbLine
 10
1575.4525656501
 20
-317.3381032751
 30
0.0
 11
1576.9525656501
 21
-318.8381032751
 31
0.0
  0
LINE
  5
31F
100
AcDbEntity
  8
L1_120
  6
CONTINUOUS
 62
         7
100
AcDbLine
 10
1575.4525656501
 20
-329.3381032751
 30
0.0
 11
1576.9525656501
 21
-327.8381032751
 31
0.0
  0
LINE
  5
320
100
AcDbEntity
  8
L1_120
  6
CONTINUOUS
 62
         4
100
AcDbLine
 10
1576.8382062962
 20
-318.7237439212
 30
0.0
 11
1556.9525656501
 21
-318.7237439212
 31
0.0
  0
LINE
  5
321
100
AcDbEntity
  8
L1_120
  6
CONTINUOUS
 62
         4
100
AcDbLine
 10
1576.8382062962
 20
-327.9524626291
 30
0.0
 11
1556.9525656501
 21
-327.9524626291
 31
0.0
  0
LINE
  5
322
100
AcDbEntity
  8
L1_120
  6
CENTER
 62
         1
100
AcDbLine
 10
1547.359670353
 20
-323.3381032751
 30
0.0
 11
1524.8807919227
 21
-323.3381032751
 31
0.0
  0
LINE
  5
323
100
AcDbEntity
  8
L1_120
  6
CENTER
 62
         1
100
AcDbLine
 10
1536.3009994183
 20
-336.0807907944
 30
0.0
 11
1536.3009994183
 21
-313.6894864746
 31
0.0
  0
CIRCLE
  5
324
100
AcDbEntity
  8
L1_120
  6
CONTINUOUS
 62
         7
100
AcDbCircle
 10
1536.3009994183
 20
-323.3381032751
 30
0.0
 40
4.8191458041
  0
CIRCLE
  5
325
100
AcDbEntity
  8
L1_120
  6
CONTINUOUS
 62
         7
100
AcDbCircle
 10
1536.3009994183
 20
-323.3381032751
 30
0.0
 40
6.666666665
  0
DIMENSION
  5
328
100
AcDbEntity
  8
L1_120
  6
CONTINUOUS
 62
         4
100
AcDbDimension
  2
*D7
 10
1587.3371438481
 20
-317.3381032751
 30
0.0
 11
1584.7121438481
 21
-314.6052305408
 31
0.0
  3
DIMSTYLE1
100
AcDbAlignedDimension
 13
1575.4525656501
 23
-317.3381032751
 33
0.0
 14
1575.4525656501
 24
-329.3381032751
 34
0.0
 50
90.0
100
AcDbRotatedDimension
  0
DIMENSION
  5
338
100
AcDbEntity
  8
L1_120
  6
CONTINUOUS
 62
         4
100
AcDbDimension
  2
*D8
 10
1556.9525656501
 20
-342.1196127314
 30
0.0
 11
1563.7695724432
 21
-339.4946127314
 31
0.0
  3
DIMSTYLE1
100
AcDbAlignedDimension
 13
1556.9525656501
 23
-327.9524626291
 33
0.0
 14
1576.9525656501
 24
-327.8381032751
 34
0.0
100
AcDbRotatedDimension
  0
LINE
  5
344
100
AcDbEntity
  8
L1_120
  6
DASHED
 62
         2
100
AcDbLine
 10
1560.9525656501
 20
-319.4513519292
 30
0.0
 11
1560.9525656501
 21
-327.2248546211
 31
0.0
  0
LINE
  5
345
100
AcDbEntity
  8
L1_120
  6
CONTINUOUS
 62
         7
100
AcDbLine
 10
1539.6343327508
 20
-321.4136023783
 30
0.0
 11
1536.3009994183
 21
-319.4891014815
 31
0.0
  0
LINE
  5
346
100
AcDbEntity
  8
L1_120
  6
CONTINUOUS
 62
         7
100
AcDbLine
 10
1536.3009994183
 20
-319.4891014815
 30
0.0
 11
1532.9676660858
 21
-321.4136023783
 31
0.0
  0
LINE
  5
347
100
AcDbEntity
  8
L1_120
  6
CONTINUOUS
 62
         7
100
AcDbLine
 10
1532.9676660858
 20
-321.4136023783
 30
0.0
 11
1532.9676660858
 21
-325.2626041719
 31
0.0
  0
LINE
  5
348
100
AcDbEntity
  8
L1_120
  6
CONTINUOUS
 62
         7
100
AcDbLine
 10
1532.9676660858
 20
-325.2626041719
 30
0.0
 11
1536.3009994183
 21
-327.1871050688
 31
0.0
  0
LINE
  5
349
100
AcDbEntity
  8
L1_120
  6
CONTINUOUS
 62
         7
100
AcDbLine
 10
1536.3009994183
 20
-327.1871050688
 30
0.0
 11
1539.6343327508
 21
-325.2626041719
 31
0.0
  0
LINE
  5
34A
100
AcDbEntity
  8
L1_120
  6
CONTINUOUS
 62
         7
100
AcDbLine
 10
1539.6343327508
 20
-325.2626041719
 30
0.0
 11
1539.6343327508
 21
-321.4136023783
 31
0.0
  0
LINE
  5
34B
100
AcDbEntity
  8
L1_120
  6
DASHED
 62
         2
100
AcDbLine
 10
1556.9525656501
 20
-319.4513519292
 30
0.0
 11
1560.9525656501
 21
-319.4513519292
 31
0.0
  0
LINE
  5
34C
100
AcDbEntity
  8
L1_120
  6
DASHED
 62
         2
100
AcDbLine
 10
1556.9525656501
 20
-321.8947276021
 30
0.0
 11
1560.9525656501
 21
-321.8947276021
 31
0.0
  0
LINE
  5
34D
100
AcDbEntity
  8
L1_120
  6
DASHED
 62
         2
100
AcDbLine
 10
1556.9525656501
 20
-327.2248546211
 30
0.0
 11
1560.9525656501
 21
-327.2248546211
 31
0.0
  0
LINE
  5
34E
100
AcDbEntity
  8
L1_120
  6
DASHED
 62
         2
100
AcDbLine
 10
1556.9525656501
 20
-324.7814789481
 30
0.0
 11
1560.9525656501
 21
-324.7814789481
 31
0.0
  0
CIRCLE
  5
34F
100
AcDbEntity
  8
L1_120
  6
CONTINUOUS
 62
         7
100
AcDbCircle
 10
1536.3009994183
 20
-323.3381032751
 30
0.0
 40
3.8490017936
  0
DIMENSION
  5
352
100
AcDbEntity
  8
L1_120
  6
CONTINUOUS
 62
         4
100
AcDbDimension
  2
*D9
 10
1532.9676660858
 20
-310.7488276477
 30
0.0
 11
1533.7960041387
 21
-306.6888276477
 31
0.0
  3
DIMSTYLE1
100
AcDbAlignedDimension
 13
1532.9676660858
 23
-321.4136023783
 33
0.0
 14
1539.6343327508
 24
-321.4136023783
 34
0.0
100
AcDbRotatedDimension
  0
LINE
  5
360
100
AcDbEntity
  8
L1_120
  6
DASHED
 62
         2
100
AcDbLine
 10
1576.9525656501
 20
-321.5881032751
 30
0.0
 11
1560.9525656501
 21
-321.5881032751
 31
0.0
  0
LINE
  5
361
100
AcDbEntity
  8
L1_120
  6
DASHED
 62
         2
100
AcDbLine
 10
1560.9525656501
 20
-325.0881032751
 30
0.0
 11
1576.9525656501
 21
-325.0881032751
 31
0.0
  0
LINE
  5
362
100
AcDbEntity
  8
L1_120
  6
CENTER
 62
         1
100
AcDbLine
 10
1664.1964085961
 20
-186.3980996668
 30
0.0
 11
1626.3182748201
 21
-224.2762334429
 31
0.0
  0
LINE
  5
363
100
AcDbEntity
  8
L1_120
  6
CENTER
 62
         1
100
AcDbLine
 10
1559.7140319508
 20
-224.2762334432
 30
0.0
 11
1684.6140527995
 21
-224.2762334432
 31
0.0
  0
LINE
  5
364
100
AcDbEntity
  8
L1_120
  6
CENTER
 62
         1
100
AcDbLine
 10
1626.3182748197
 20
-165.1116105684
 30
0.0
 11
1626.3182748197
 21
-276.440856318
 31
0.0
  0
LINE
  5
365
100
AcDbEntity
  8
L1_120
  6
CENTER
 62
         1
100
AcDbLine
 10
1626.3182748197
 20
-224.2762334432
 30
0.0
 11
1652.6085736981
 21
-269.8123668467
 31
0.0
  0
LINE
  5
366
100
AcDbEntity
  8
L1_120
  6
CENTER
 62
         1
100
AcDbLine
 10
1626.3182748197
 20
-224.2762334432
 30
0.0
 11
1644.2636938633
 21
-273.580867048
 31
0.0
  0
LINE
  5
367
100
AcDbEntity
  8
L1_120
  6
CENTER
 62
         1
100
AcDbLine
 10
1626.3182748197
 20
-224.2762334432
 30
0.0
 11
1621.7752883849
 21
-276.2028060043
 31
0.0
  0
LINE
  5
368
100
AcDbEntity
  8
L1_120
  6
CENTER
 62
         1
100
AcDbLine
 10
1626.3182748197
 20
-224.2762334432
 30
0.0
 11
1600.1405271781
 21
-269.6174223861
 31
0.0
  0
LINE
  5
369
100
AcDbEntity
  8
L1_120
  6
DASHED
 62
         2
100
AcDbLine
 10
1671.3590481488
 20
-202.5661266283
 30
0.0
 11
1648.0283816346
 21
-179.2354601141
 31
0.0
  0
LINE
  5
36A
100
AcDbEntity
  8
L1_120
  6
DASHED
 62
         2
100
AcDbLine
 10
1610.3934563052
 20
-251.8588282116
 30
0.0
 11
1608.3727303631
 21
-251.8588282116
 31
0.0
  0
LINE
  5
36B
100
AcDbEntity
  8
L1_120
  6
DASHED
 62
         2
100
AcDbLine
 10
1611.4038192763
 20
-253.6088282116
 30
0.0
 11
1610.3934563052
 21
-251.8588282116
 31
0.0
  0
LINE
  5
36C
100
AcDbEntity
  8
L1_120
  6
DASHED
 62
         2
100
AcDbLine
 10
1637.2114922412
 20
-254.205102334
 30
0.0
 11
1635.912594643
 21
-255.753068213
 31
0.0
  0
LINE
  5
36D
100
AcDbEntity
  8
L1_120
  6
DASHED
 62
         2
100
AcDbLine
 10
1639.2015188158
 20
-254.5559977114
 30
0.0
 11
1637.2114922412
 21
-254.205102334
 31
0.0
  0
LINE
  5
36E
100
AcDbEntity
  8
L1_120
  6
DASHED
 62
         2
100
AcDbLine
 10
1623.5423960482
 20
-256.0046729876
 30
0.0
 11
1621.7109963914
 21
-256.8586686727
 31
0.0
  0
LINE
  5
36F
100
AcDbEntity
  8
L1_120
  6
DASHED
 62
         2
100
AcDbLine
 10
1625.1976778347
 20
-257.1637137723
 30
0.0
 11
1623.5423960482
 21
-256.0046729876
 31
0.0
  0
LINE
  5
370
100
AcDbEntity
  8
L1_120
  6
DASHED
 62
         2
100
AcDbLine
 10
1642.2430933342
 20
-251.8588282116
 30
0.0
 11
1641.2327303631
 21
-253.6088282116
 31
0.0
  0
LINE
  5
371
100
AcDbEntity
  8
L1_120
  6
DASHED
 62
         2
100
AcDbLine
 10
1644.2638192763
 20
-251.8588282116
 30
0.0
 11
1642.2430933342
 21
-251.8588282116
 31
0.0
  0
LINE
  5
372
100
AcDbEntity
  8
L1_120
  6
DASHED
 62
         2
100
AcDbLine
 10
1604.9201805464
 20
-264.8388199098
 30
0.0
 11
1611.4038192763
 21
-253.6088282116
 31
0.0
  0
LINE
  5
373
100
AcDbEntity
  8
L1_120
  6
DASHED
 62
         2
100
AcDbLine
 10
1608.3727303631
 20
-251.8588282116
 30
0.0
 11
1601.8890916331
 21
-263.0888199098
 31
0.0
  0
LINE
  5
374
100
AcDbEntity
  8
L1_120
  6
DASHED
 62
         2
100
AcDbLine
 10
1624.0675051362
 20
-270.0816468266
 30
0.0
 11
1625.1976778347
 21
-257.1637137723
 31
0.0
  0
LINE
  5
375
100
AcDbEntity
  8
L1_120
  6
DASHED
 62
         2
100
AcDbLine
 10
1621.7109963914
 20
-256.8586686727
 30
0.0
 11
1620.5808236929
 21
-269.7766017269
 31
0.0
  0
LINE
  5
376
100
AcDbEntity
  8
L1_120
  6
DASHED
 62
         2
100
AcDbLine
 10
1650.7474580063
 20
-263.0888199098
 30
0.0
 11
1644.2638192763
 21
-251.8588282116
 31
0.0
  0
LINE
  5
377
100
AcDbEntity
  8
L1_120
  6
DASHED
 62
         2
100
AcDbLine
 10
1641.2327303631
 20
-253.6088282116
 30
0.0
 11
1647.716369093
 21
-264.8388199098
 31
0.0
  0
LINE
  5
378
100
AcDbEntity
  8
L1_120
  6
DASHED
 62
         2
100
AcDbLine
 10
1643.6365889111
 20
-266.7412526522
 30
0.0
 11
1639.2015188158
 21
-254.5559977114
 31
0.0
  0
LINE
  5
379
100
AcDbEntity
  8
L1_120
  6
DASHED
 62
         2
100
AcDbLine
 10
1635.912594643
 20
-255.753068213
 30
0.0
 11
1640.3476647384
 21
-267.9383231538
 31
0.0
  0
LINE
  5
37A
100
AcDbEntity
  8
L1_120
  6
DASHED
 62
         2
100
AcDbLine
 10
1608.3727303631
 20
-251.8588282116
 30
0.0
 11
1611.4038192763
 21
-253.6088282116
 31
0.0
  0
LINE
  5
37B
100
AcDbEntity
  8
L1_120
  6
DASHED
 62
         2
100
AcDbLine
 10
1621.7109963914
 20
-256.8586686727
 30
0.0
 11
1625.1976778347
 21
-257.1637137723
 31
0.0
  0
LINE
  5
37C
100
AcDbEntity
  8
L1_120
  6
DASHED
 62
         2
100
AcDbLine
 10
1641.2327303631
 20
-253.6088282116
 30
0.0
 11
1644.2638192763
 21
-251.8588282116
 31
0.0
  0
LINE
  5
37D
100
AcDbEntity
  8
L1_120
  6
DASHED
 62
         2
100
AcDbLine
 10
1635.912594643
 20
-255.753068213
 30
0.0
 11
1639.2015188158
 21
-254.5559977114
 31
0.0
  0
ARC
  5
37E
100
AcDbEntity
  8
L1_120
  6
DASHED
 62
         2
100
AcDbCircle
 10
1626.3182748197
 20
-224.2762334432
 30
0.0
 40
45.86
100
AcDbArc
 50
266.5916104836
 51
291.5916104836
  0
LINE
  5
37F
100
AcDbEntity
  8
L1_120
  6
DASHED
 62
         2
100
AcDbLine
 10
1582.3182748197
 20
-216.2762334432
 30
0.0
 11
1587.5182748197
 21
-216.2762334432
 31
0.0
  0
LINE
  5
380
100
AcDbEntity
  8
L1_120
  6
DASHED
 62
         2
100
AcDbLine
 10
1582.3182748197
 20
-232.2762334432
 30
0.0
 11
1587.5182748197
 21
-232.2762334432
 31
0.0
  0
LINE
  5
381
100
AcDbEntity
  8
L1_120
  6
DASHED
 62
         2
100
AcDbLine
 10
1587.5182748197
 20
-216.2762334432
 30
0.0
 11
1587.5182748197
 21
-232.2762334432
 31
0.0
  0
LINE
  5
382
100
AcDbEntity
  8
L1_120
  6
DASHED
 62
         2
100
AcDbLine
 10
1631.0182748198
 20
-179.1762334432
 30
0.0
 11
1631.3182748198
 21
-178.8762334432
 31
0.0
  0
LINE
  5
383
100
AcDbEntity
  8
L1_120
  6
DASHED
 62
         2
100
AcDbLine
 10
1631.3182748198
 20
-175.1821163617
 30
0.0
 11
1631.3182748198
 21
-178.8762334432
 31
0.0
  0
LINE
  5
384
100
AcDbEntity
  8
L1_120
  6
DASHED
 62
         2
100
AcDbLine
 10
1626.3182748198
 20
-179.7535837124
 30
0.0
 11
1625.3182748198
 21
-179.1762334432
 31
0.0
  0
LINE
  5
385
100
AcDbEntity
  8
L1_120
  6
DASHED
 62
         2
100
AcDbLine
 10
1626.3182748198
 20
-179.7535837124
 30
0.0
 11
1627.3182748198
 21
-179.1762334432
 31
0.0
  0
LINE
  5
386
100
AcDbEntity
  8
L1_120
  6
DASHED
 62
         2
100
AcDbLine
 10
1621.3182748198
 20
-178.8762334432
 30
0.0
 11
1621.6182748198
 21
-179.1762334432
 31
0.0
  0
LINE
  5
387
100
AcDbEntity
  8
L1_120
  6
DASHED
 62
         2
100
AcDbLine
 10
1621.3182748198
 20
-175.1821163617
 30
0.0
 11
1621.3182748198
 21
-178.8762334432
 31
0.0
  0
LINE
  5
388
100
AcDbEntity
  8
L1_120
  6
DASHED
 62
         2
100
AcDbLine
 10
1631.0182748198
 20
-179.1762334432
 30
0.0
 11
1621.6182748198
 21
-179.1762334432
 31
0.0
  0
LINE
  5
389
100
AcDbEntity
  8
L1_120
  6
DASHED
 62
         2
100
AcDbLine
 10
1621.3182748198
 20
-178.8762334432
 30
0.0
 11
1631.3182748198
 21
-178.8762334432
 31
0.0
  0
LINE
  5
38A
100
AcDbEntity
  8
L1_120
  6
DASHED
 62
         2
100
AcDbLine
 10
1631.3182748198
 20
-175.1821163617
 30
0.0
 11
1631.9104494396
 21
-174.589941742
 31
0.0
  0
LINE
  5
38B
100
AcDbEntity
  8
L1_120
  6
DASHED
 62
         2
100
AcDbLine
 10
1621.3182748198
 20
-175.1821163617
 30
0.0
 11
1620.7261002001
 21
-174.589941742
 31
0.0
  0
LINE
  5
38C
100
AcDbEntity
  8
L1_120
  6
DASHED
 62
         2
100
AcDbLine
 10
1621.3182748198
 20
-175.1821163617
 30
0.0
 11
1631.3182748198
 21
-175.1821163617
 31
0.0
  0
ARC
  5
38D
100
AcDbEntity
  8
L1_120
  6
CONTINUOUS
 62
         7
100
AcDbCircle
 10
1626.3182748198
 20
-224.2762334432
 30
0.0
 40
50.0
100
AcDbArc
 50
79.2631667988
 51
100.7368332012
  0
LINE
  5
38E
100
AcDbEntity
  8
L1_120
  6
DASHED
 62
         2
100
AcDbLine
 10
1587.5182748197
 20
-216.2762334432
 30
0.0
 11
1587.5182748197
 21
-232.2762334432
 31
0.0
  0
LINE
  5
38F
100
AcDbEntity
  8
L1_120
  6
DASHED
 62
         2
100
AcDbLine
 10
1582.3182748197
 20
-232.2762334432
 30
0.0
 11
1587.5182748197
 21
-232.2762334432
 31
0.0
  0
LINE
  5
390
100
AcDbEntity
  8
L1_120
  6
DASHED
 62
         2
100
AcDbLine
 10
1582.3182748197
 20
-216.2762334432
 30
0.0
 11
1587.5182748197
 21
-216.2762334432
 31
0.0
  0
LINE
  5
391
100
AcDbEntity
  8
L1_120
  6
CONTINUOUS
 62
         7
100
AcDbLine
 10
1577.5432812267
 20
-213.2762334432
 30
0.0
 11
1578.5432812267
 21
-214.2762334432
 31
0.0
  0
LINE
  5
392
100
AcDbEntity
  8
L1_120
  6
CONTINUOUS
 62
         7
100
AcDbLine
 10
1582.3182748197
 20
-213.2762334432
 30
0.0
 11
1582.3182748197
 21
-235.2762334432
 31
0.0
  0
LINE
  5
393
100
AcDbEntity
  8
L1_120
  6
CONTINUOUS
 62
         7
100
AcDbLine
 10
1586.6982041484
 20
-254.7762334432
 30
0.0
 11
1595.8182748197
 21
-254.7762334432
 31
0.0
  0
LINE
  5
394
100
AcDbEntity
  8
L1_120
  6
CONTINUOUS
 62
         7
100
AcDbLine
 10
1587.488518189
 20
-255.7762334432
 30
0.0
 11
1594.8182748197
 21
-255.7762334432
 31
0.0
  0
LINE
  5
395
100
AcDbEntity
  8
L1_120
  6
CONTINUOUS
 62
         7
100
AcDbLine
 10
1577.5432812267
 20
-235.2762334432
 30
0.0
 11
1578.5432812267
 21
-234.2762334432
 31
0.0
  0
LINE
  5
396
100
AcDbEntity
  8
L1_120
  6
CONTINUOUS
 62
         7
100
AcDbLine
 10
1577.5432812267
 20
-235.2762334432
 30
0.0
 11
1582.3182748197
 21
-235.2762334432
 31
0.0
  0
LINE
  5
397
100
AcDbEntity
  8
L1_120
  6
CONTINUOUS
 62
         7
100
AcDbLine
 10
1578.5432812267
 20
-214.2762334432
 30
0.0
 11
1582.3182748197
 21
-214.2762334432
 31
0.0
  0
LINE
  5
398
100
AcDbEntity
  8
L1_120
  6
CONTINUOUS
 62
         7
100
AcDbLine
 10
1578.5432812267
 20
-234.2762334432
 30
0.0
 11
1582.3182748197
 21
-234.2762334432
 31
0.0
  0
LINE
  5
399
100
AcDbEntity
  8
L1_120
  6
CONTINUOUS
 62
         7
100
AcDbLine
 10
1595.8182748197
 20
-254.7762334432
 30
0.0
 11
1594.8182748197
 21
-255.7762334432
 31
0.0
  0
LINE
  5
39A
100
AcDbEntity
  8
L1_120
  6
CONTINUOUS
 62
         7
100
AcDbLine
 10
1595.8182748197
 20
-254.7762334432
 30
0.0
 11
1595.8182748197
 21
-263.8963041145
 31
0.0
  0
LINE
  5
39B
100
AcDbEntity
  8
L1_120
  6
CONTINUOUS
 62
         7
100
AcDbLine
 10
1594.8182748197
 20
-255.7762334432
 30
0.0
 11
1594.8182748197
 21
-263.1059900739
 31
0.0
  0
LINE
  5
39C
100
AcDbEntity
  8
L1_120
  6
CONTINUOUS
 62
         7
100
AcDbLine
 10
1577.5432812267
 20
-213.2762334432
 30
0.0
 11
1582.3182748197
 21
-213.2762334432
 31
0.0
  0
LINE
  5
39D
100
AcDbEntity
  8
L1_120
  6
CONTINUOUS
 62
         7
100
AcDbLine
 10
1670.3182748197
 20
-212.2762334432
 30
0.0
 11
1670.3182748197
 21
-236.2762334432
 31
0.0
  0
LINE
  5
39E
100
AcDbEntity
  8
L1_120
  6
CONTINUOUS
 62
         7
100
AcDbLine
 10
1670.3182748197
 20
-236.2762334432
 30
0.0
 11
1674.8569192178
 21
-236.2762334432
 31
0.0
  0
LINE
  5
39F
100
AcDbEntity
  8
L1_120
  6
CONTINUOUS
 62
         7
100
AcDbLine
 10
1674.8569192178
 20
-236.2762334432
 30
0.0
 11
1673.8569192178
 21
-235.2762334432
 31
0.0
  0
LINE
  5
3A0
100
AcDbEntity
  8
L1_120
  6
CONTINUOUS
 62
         7
100
AcDbLine
 10
1670.3182748197
 20
-235.2762334432
 30
0.0
 11
1673.8569192178
 21
-235.2762334432
 31
0.0
  0
LINE
  5
3A1
100
AcDbEntity
  8
L1_120
  6
CONTINUOUS
 62
         7
100
AcDbLine
 10
1670.3182748197
 20
-212.2762334432
 30
0.0
 11
1674.8569192178
 21
-212.2762334432
 31
0.0
  0
LINE
  5
3A2
100
AcDbEntity
  8
L1_120
  6
CONTINUOUS
 62
         7
100
AcDbLine
 10
1674.8569192178
 20
-212.2762334432
 30
0.0
 11
1673.8569192178
 21
-213.2762334432
 31
0.0
  0
LINE
  5
3A3
100
AcDbEntity
  8
L1_120
  6
CONTINUOUS
 62
         7
100
AcDbLine
 10
1670.3182748197
 20
-213.2762334432
 30
0.0
 11
1673.8569192178
 21
-213.2762334432
 31
0.0
  0
ARC
  5
3A4
100
AcDbEntity
  8
L1_120
  6
CONTINUOUS
 62
         7
100
AcDbCircle
 10
1626.3182748197
 20
-224.2762334432
 30
0.0
 40
48.8103473949
100
AcDbArc
 50
346.9601166097
 51
373.0398833903
  0
ARC
  5
3A5
100
AcDbEntity
  8
L1_120
  6
CONTINUOUS
 62
         7
100
AcDbCircle
 10
1626.3182748197
 20
-224.2762334432
 30
0.0
 40
48.8103473949
100
AcDbArc
 50
168.1778421254
 51
191.8221578746
  0
ARC
  5
3A6
100
AcDbEntity
  8
L1_120
  6
DASHED
 62
         2
100
AcDbCircle
 10
1626.3182748197
 20
-224.2762334432
 30
0.0
 40
45.86
100
AcDbArc
 50
291.5916104836
 51
626.5916104836
  0
CIRCLE
  5
3A7
100
AcDbEntity
  8
L1_120
  6
CONTINUOUS
 62
         7
100
AcDbCircle
 10
1626.3182748197
 20
-224.2762334432
 30
0.0
 40
50.0
  0
CIRCLE
  5
3A8
100
AcDbEntity
  8
L1_120
  6
CONTINUOUS
 62
         7
100
AcDbCircle
 10
1626.3182748197
 20
-224.2762334432
 30
0.0
 40
26.5
  0
CIRCLE
  5
3A9
100
AcDbEntity
  8
L1_120
  6
CONTINUOUS
 62
         7
100
AcDbCircle
 10
1626.3182748197
 20
-224.2762334432
 30
0.0
 40
22.0
  0
LINE
  5
3AA
100
AcDbEntity
  8
L1_120
  6
DASHED
 62
         2
100
AcDbLine
 10
1628.9182748197
 20
-204.7762334432
 30
0.0
 11
1628.9182748197
 21
-198.0289695748
 31
0.0
  0
LINE
  5
3AB
100
AcDbEntity
  8
L1_120
  6
DASHED
 62
         2
100
AcDbLine
 10
1623.7182748197
 20
-204.7762334432
 30
0.0
 11
1623.7182748197
 21
-198.0289695748
 31
0.0
  0
LINE
  5
3AC
100
AcDbEntity
  8
L1_120
  6
DASHED
 62
         2
100
AcDbLine
 10
1626.3182748197
 20
-206.2773441431
 30
0.0
 11
1628.9182748197
 21
-204.7762334432
 31
0.0
  0
LINE
  5
3AD
100
AcDbEntity
  8
L1_120
  6
DASHED
 62
         2
100
AcDbLine
 10
1628.9182748197
 20
-204.7762334432
 30
0.0
 11
1623.7182748197
 21
-204.7762334432
 31
0.0
  0
LINE
  5
3AE
100
AcDbEntity
  8
L1_120
  6
DASHED
 62
         2
100
AcDbLine
 10
1629.4182748197
 20
-204.7762334432
 30
0.0
 11
1623.2182748197
 21
-204.7762334432
 31
0.0
  0
LINE
  5
3AF
100
AcDbEntity
  8
L1_120
  6
DASHED
 62
         2
100
AcDbLine
 10
1626.3182748197
 20
-206.2773441431
 30
0.0
 11
1623.7182748197
 21
-204.7762334432
 31
0.0
  0
LINE
  5
3B0
100
AcDbEntity
  8
L1_120
  6
DASHED
 62
         4
100
AcDbLine
 10
1629.4182748197
 20
-204.7762334432
 30
0.0
 11
1629.4182748197
 21
-198.1369792787
 31
0.0
  0
LINE
  5
3B1
100
AcDbEntity
  8
L1_120
  6
DASHED
 62
         4
100
AcDbLine
 10
1623.2182748197
 20
-204.7762334432
 30
0.0
 11
1623.2182748197
 21
-198.1369792787
 31
0.0
  0
LINE
  5
3B2
100
AcDbEntity
  8
L1_120
  6
DASHED
 62
         2
100
AcDbLine
 10
1645.8182748197
 20
-226.8762334432
 30
0.0
 11
1652.5655386882
 21
-226.8762334432
 31
0.0
  0
LINE
  5
3B3
100
AcDbEntity
  8
L1_120
  6
DASHED
 62
         2
100
AcDbLine
 10
1645.8182748197
 20
-221.6762334432
 30
0.0
 11
1652.5655386882
 21
-221.6762334432
 31
0.0
  0
LINE
  5
3B4
100
AcDbEntity
  8
L1_120
  6
DASHED
 62
         2
100
AcDbLine
 10
1644.3171641198
 20
-224.2762334432
 30
0.0
 11
1645.8182748197
 21
-226.8762334432
 31
0.0
  0
LINE
  5
3B5
100
AcDbEntity
  8
L1_120
  6
DASHED
 62
         2
100
AcDbLine
 10
1645.8182748197
 20
-226.8762334432
 30
0.0
 11
1645.8182748197
 21
-221.6762334432
 31
0.0
  0
LINE
  5
3B6
100
AcDbEntity
  8
L1_120
  6
DASHED
 62
         2
100
AcDbLine
 10
1645.8182748197
 20
-227.3762334432
 30
0.0
 11
1645.8182748197
 21
-221.1762334432
 31
0.0
  0
LINE
  5
3B7
100
AcDbEntity
  8
L1_120
  6
DASHED
 62
         2
100
AcDbLine
 10
1644.3171641198
 20
-224.2762334432
 30
0.0
 11
1645.8182748197
 21
-221.6762334432
 31
0.0
  0
LINE
  5
3B8
100
AcDbEntity
  8
L1_120
  6
DASHED
 62
         4
100
AcDbLine
 10
1645.8182748197
 20
-227.3762334432
 30
0.0
 11
1652.4575289843
 21
-227.3762334432
 31
0.0
  0
LINE
  5
3B9
100
AcDbEntity
  8
L1_120
  6
DASHED
 62
         4
100
AcDbLine
 10
1645.8182748197
 20
-221.1762334432
 30
0.0
 11
1652.4575289843
 21
-221.1762334432
 31
0.0
  0
LINE
  5
3BA
100
AcDbEntity
  8
L1_120
  6
DASHED
 62
         2
100
AcDbLine
 10
1623.7182748197
 20
-243.7762334432
 30
0.0
 11
1623.7182748197
 21
-250.5234973117
 31
0.0
  0
LINE
  5
3BB
100
AcDbEntity
  8
L1_120
  6
DASHED
 62
         2
100
AcDbLine
 10
1628.9182748197
 20
-243.7762334432
 30
0.0
 11
1628.9182748197
 21
-250.5234973117
 31
0.0
  0
LINE
  5
3BC
100
AcDbEntity
  8
L1_120
  6
DASHED
 62
         2
100
AcDbLine
 10
1626.3182748197
 20
-242.2751227433
 30
0.0
 11
1623.7182748197
 21
-243.7762334432
 31
0.0
  0
LINE
  5
3BD
100
AcDbEntity
  8
L1_120
  6
DASHED
 62
         2
100
AcDbLine
 10
1623.7182748197
 20
-243.7762334432
 30
0.0
 11
1628.9182748197
 21
-243.7762334432
 31
0.0
  0
LINE
  5
3BE
100
AcDbEntity
  8
L1_120
  6
DASHED
 62
         2
100
AcDbLine
 10
1623.2182748197
 20
-243.7762334432
 30
0.0
 11
1629.4182748197
 21
-243.7762334432
 31
0.0
  0
LINE
  5
3BF
100
AcDbEntity
  8
L1_120
  6
DASHED
 62
         2
100
AcDbLine
 10
1626.3182748197
 20
-242.2751227433
 30
0.0
 11
1628.9182748197
 21
-243.7762334432
 31
0.0
  0
LINE
  5
3C0
100
AcDbEntity
  8
L1_120
  6
DASHED
 62
         4
100
AcDbLine
 10
1623.2182748197
 20
-243.7762334432
 30
0.0
 11
1623.2182748197
 21
-250.4154876077
 31
0.0
  0
LINE
  5
3C1
100
AcDbEntity
  8
L1_120
  6
DASHED
 62
         4
100
AcDbLine
 10
1629.4182748197
 20
-243.7762334432
 30
0.0
 11
1629.4182748197
 21
-250.4154876077
 31
0.0
  0
LINE
  5
3C2
100
AcDbEntity
  8
L1_120
  6
DASHED
 62
         2
100
AcDbLine
 10
1606.8182748197
 20
-221.6762334432
 30
0.0
 11
1600.0710109513
 21
-221.6762334432
 31
0.0
  0
LINE
  5
3C3
100
AcDbEntity
  8
L1_120
  6
DASHED
 62
         2
100
AcDbLine
 10
1606.8182748197
 20
-226.8762334432
 30
0.0
 11
1600.0710109513
 21
-226.8762334432
 31
0.0
  0
LINE
  5
3C4
100
AcDbEntity
  8
L1_120
  6
DASHED
 62
         2
100
AcDbLine
 10
1608.3193855196
 20
-224.2762334432
 30
0.0
 11
1606.8182748197
 21
-221.6762334432
 31
0.0
  0
LINE
  5
3C5
100
AcDbEntity
  8
L1_120
  6
DASHED
 62
         2
100
AcDbLine
 10
1606.8182748197
 20
-221.6762334432
 30
0.0
 11
1606.8182748197
 21
-226.8762334432
 31
0.0
  0
LINE
  5
3C6
100
AcDbEntity
  8
L1_120
  6
DASHED
 62
         2
100
AcDbLine
 10
1606.8182748197
 20
-221.1762334432
 30
0.0
 11
1606.8182748197
 21
-227.3762334432
 31
0.0
  0
LINE
  5
3C7
100
AcDbEntity
  8
L1_120
  6
DASHED
 62
         2
100
AcDbLine
 10
1608.3193855196
 20
-224.2762334432
 30
0.0
 11
1606.8182748197
 21
-226.8762334432
 31
0.0
  0
LINE
  5
3C8
100
AcDbEntity
  8
L1_120
  6
DASHED
 62
         4
100
AcDbLine
 10
1606.8182748197
 20
-221.1762334432
 30
0.0
 11
1600.1790206552
 21
-221.1762334432
 31
0.0
  0
LINE
  5
3C9
100
AcDbEntity
  8
L1_120
  6
DASHED
 62
         4
100
AcDbLine
 10
1606.8182748197
 20
-227.3762334432
 30
0.0
 11
1600.1790206552
 21
-227.3762334432
 31
0.0
  0
CIRCLE
  5
3CA
100
AcDbEntity
  8
L1_120
  6
CONTINUOUS
 62
         7
100
AcDbCircle
 10
1626.3182748197
 20
-224.2762334432
 30
0.0
 40
12.689
  0
CIRCLE
  5
3CB
100
AcDbEntity
  8
L1_120
  6
CONTINUOUS
 62
         7
100
AcDbCircle
 10
1626.3182748197
 20
-224.2762334432
 30
0.0
 40
7.6
  0
ARC
  5
3CC
100
AcDbEntity
  8
L1_120
  6
CONTINUOUS
 62
         5
100
AcDbCircle
 10
1626.3182748197
 20
-224.2762334432
 30
0.0
 40
8.0
100
AcDbArc
 50
250.7727842372
 51
561.9066981921
  0
CIRCLE
  5
3CD
100
AcDbEntity
  8
L1_120
  6
CONTINUOUS
 62
         7
100
AcDbCircle
 10
1626.3182748197
 20
-224.2762334432
 30
0.0
 40
6.0
  0
ENDSEC
  0
SECTION
  2
OBJECTS
  0
DICTIONARY
  5
19
100
AcDbDictionary
  3
ACAD_GROUP
350
1A
  3
ACAD_MLINESTYLE
350
1B
  0
DICTIONARY
  5
1A
102
{ACAD_REACTORS
330
19
102
}
100
AcDbDictionary
  0
DICTIONARY
  5
1B
102
{ACAD_REACTORS
330
19
102
}
100
AcDbDictionary
  3
STANDARD
350
1C
  0
MLINESTYLE
  5
1C
102
{ACAD_REACTORS
330
1B
102
}
100
AcDbMlineStyle
  2
STANDARD
 70
         0
  3

 62
         0
 51
90.0
 52
90.0
 71
         2
 49
0.5
 62
       256
  6
BYLAYER
 49
-0.5
 62
       256
  6
BYLAYER
  0
ENDSEC
  0
EOF
